  0
SECTION
  2
HEADER
  9
$ACADVER
  1
AC1015
  9
$ACADMAINTVER
 70
     6
  9
$DWGCODEPAGE
  3
ANSI_1252
  9
$INSBASE
 10
0.0
 20
0.0
 30
0.0
  9
$EXTMIN
 10
0.0
 20
0.0
 30
0.0
  9
$EXTMAX
 10
210.0
 20
297.0
 30
0.0
  9
$LIMMIN
 10
0.0
 20
0.0
  9
$LIMMAX
 10
210.0
 20
297.0
  9
$ORTHOMODE
 70
     0
  9
$REGENMODE
 70
     1
  9
$FILLMODE
 70
     1
  9
$QTEXTMODE
 70
     0
  9
$MIRRTEXT
 70
     1
  9
$LTSCALE
 40
1.0
  9
$ATTMODE
 70
     1
  9
$TEXTSIZE
 40
3.5
  9
$TRACEWID
 40
1.0
  9
$TEXTSTYLE
  7
Standard
  9
$CLAYER
  8
0
  9
$CELTYPE
  6
ByLayer
  9
$CECOLOR
 62
   256
  9
$CELTSCALE
 40
1.0
  9
$DISPSILH
 70
     0
  9
$DIMSCALE
 40
1.0
  9
$DIMASZ
 40
3.302
  9
$DIMEXO
 40
1.0
  9
$DIMDLI
 40
3.75
  9
$DIMRND
 40
0.0
  9
$DIMDLE
 40
0.0
  9
$DIMEXE
 40
1.0
  9
$DIMTP
 40
0.0
  9
$DIMTM
 40
0.0
  9
$DIMTXT
 40
3.5
  9
$DIMCEN
 40
2.5
  9
$DIMTSZ
 40
0.0
  9
$DIMTOL
 70
     0
  9
$DIMLIM
 70
     0
  9
$DIMTIH
 70
     1
  9
$DIMTOH
 70
     1
  9
$DIMSE1
 70
     0
  9
$DIMSE2
 70
     0
  9
$DIMTAD
 70
     1
  9
$DIMZIN
 70
     0
  9
$DIMBLK
  1

  9
$DIMASO
 70
     1
  9
$DIMSHO
 70
     1
  9
$DIMPOST
  1

  9
$DIMAPOST
  1

  9
$DIMALT
 70
     0
  9
$DIMALTD
 70
     3
  9
$DIMALTF
 40
0.0393700787
  9
$DIMLFAC
 40
1.0
  9
$DIMTOFL
 70
     1
  9
$DIMTVP
 40
0.0
  9
$DIMTIX
 70
     0
  9
$DIMSOXD
 70
     0
  9
$DIMSAH
 70
     0
  9
$DIMBLK1
  1

  9
$DIMBLK2
  1

  9
$DIMSTYLE
  2
ISO-25
  9
$DIMCLRD
 70
     0
  9
$DIMCLRE
 70
     0
  9
$DIMCLRT
 70
     0
  9
$DIMTFAC
 40
1.0
  9
$DIMGAP
 40
1.524
  9
$DIMJUST
 70
     0
  9
$DIMSD1
 70
     0
  9
$DIMSD2
 70
     0
  9
$DIMTOLJ
 70
     0
  9
$DIMTZIN
 70
     0
  9
$DIMALTZ
 70
     0
  9
$DIMALTTZ
 70
     0
  9
$DIMUPT
 70
     0
  9
$DIMDEC
 70
     3
  9
$DIMTDEC
 70
     3
  9
$DIMALTU
 70
     2
  9
$DIMALTTD
 70
     3
  9
$DIMTXSTY
  7
Standard
  9
$DIMAUNIT
 70
     0
  9
$DIMADEC
 70
     2
  9
$DIMALTRND
 40
0.0
  9
$DIMAZIN
 70
     0
  9
$DIMDSEP
 70
    44
  9
$DIMATFIT
 70
     3
  9
$DIMFRAC
 70
     0
  9
$DIMLDRBLK
  1

  9
$DIMLUNIT
 70
     2
  9
$DIMLWD
 70
    -2
  9
$DIMLWE
 70
    -2
  9
$DIMTMOVE
 70
     0
  9
$LUNITS
 70
     2
  9
$LUPREC
 70
     2
  9
$SKETCHINC
 40
1.0
  9
$FILLETRAD
 40
10.0
  9
$AUNITS
 70
     0
  9
$AUPREC
 70
     2
  9
$MENU
  1
.
  9
$ELEVATION
 40
0.0
  9
$PELEVATION
 40
0.0
  9
$THICKNESS
 40
0.0
  9
$LIMCHECK
 70
     0
  9
$CHAMFERA
 40
0.0
  9
$CHAMFERB
 40
0.0
  9
$CHAMFERC
 40
0.0
  9
$CHAMFERD
 40
0.0
  9
$SKPOLY
 70
     0
  9
$TDCREATE
 40
2459901.594593819
  9
$TDUCREATE
 40
2459901.552927153
  9
$TDUPDATE
 40
2459901.594595694
  9
$TDUUPDATE
 40
2459901.552929028
  9
$TDINDWG
 40
0.0000000116
  9
$TDUSRTIMER
 40
0.0000000116
  9
$USRTIMER
 70
     1
  9
$ANGBASE
 50
0.0
  9
$ANGDIR
 70
     0
  9
$PDMODE
 70
     0
  9
$PDSIZE
 40
-1.0
  9
$PLINEWID
 40
0.0
  9
$SPLFRAME
 70
     0
  9
$SPLINETYPE
 70
     6
  9
$SPLINESEGS
 70
     8
  9
$HANDSEED
  5
1BA
  9
$SURFTAB1
 70
     6
  9
$SURFTAB2
 70
     6
  9
$SURFTYPE
 70
     6
  9
$SURFU
 70
     6
  9
$SURFV
 70
     6
  9
$UCSBASE
  2

  9
$UCSNAME
  2

  9
$UCSORG
 10
0.0
 20
0.0
 30
0.0
  9
$UCSXDIR
 10
1.0
 20
0.0
 30
0.0
  9
$UCSYDIR
 10
0.0
 20
1.0
 30
0.0
  9
$UCSORTHOREF
  2

  9
$UCSORTHOVIEW
 70
     0
  9
$UCSORGTOP
 10
0.0
 20
0.0
 30
0.0
  9
$UCSORGBOTTOM
 10
0.0
 20
0.0
 30
0.0
  9
$UCSORGLEFT
 10
0.0
 20
0.0
 30
0.0
  9
$UCSORGRIGHT
 10
0.0
 20
0.0
 30
0.0
  9
$UCSORGFRONT
 10
0.0
 20
0.0
 30
0.0
  9
$UCSORGBACK
 10
0.0
 20
0.0
 30
0.0
  9
$PUCSBASE
  2

  9
$PUCSNAME
  2

  9
$PUCSORG
 10
0.0
 20
0.0
 30
0.0
  9
$PUCSXDIR
 10
1.0
 20
0.0
 30
0.0
  9
$PUCSYDIR
 10
0.0
 20
1.0
 30
0.0
  9
$PUCSORTHOREF
  2

  9
$PUCSORTHOVIEW
 70
     0
  9
$PUCSORGTOP
 10
0.0
 20
0.0
 30
0.0
  9
$PUCSORGBOTTOM
 10
0.0
 20
0.0
 30
0.0
  9
$PUCSORGLEFT
 10
0.0
 20
0.0
 30
0.0
  9
$PUCSORGRIGHT
 10
0.0
 20
0.0
 30
0.0
  9
$PUCSORGFRONT
 10
0.0
 20
0.0
 30
0.0
  9
$PUCSORGBACK
 10
0.0
 20
0.0
 30
0.0
  9
$USERI1
 70
     0
  9
$USERI2
 70
     0
  9
$USERI3
 70
     0
  9
$USERI4
 70
     0
  9
$USERI5
 70
     0
  9
$USERR1
 40
0.0
  9
$USERR2
 40
0.0
  9
$USERR3
 40
0.0
  9
$USERR4
 40
0.0
  9
$USERR5
 40
0.0
  9
$WORLDVIEW
 70
     1
  9
$SHADEDGE
 70
     3
  9
$SHADEDIF
 70
    70
  9
$TILEMODE
 70
     1
  9
$MAXACTVP
 70
    64
  9
$PINSBASE
 10
0.0
 20
0.0
 30
0.0
  9
$PLIMCHECK
 70
     0
  9
$PEXTMIN
 10
1.0000000000E+20
 20
1.0000000000E+20
 30
1.0000000000E+20
  9
$PEXTMAX
 10
-1.0000000000E+20
 20
-1.0000000000E+20
 30
-1.0000000000E+20
  9
$PLIMMIN
 10
0.0
 20
0.0
  9
$PLIMMAX
 10
420.0
 20
297.0
  9
$UNITMODE
 70
     0
  9
$VISRETAIN
 70
     1
  9
$PLINEGEN
 70
     0
  9
$PSLTSCALE
 70
     1
  9
$TREEDEPTH
 70
  3020
  9
$CMLSTYLE
  2
Standard
  9
$CMLJUST
 70
     0
  9
$CMLSCALE
 40
20.0
  9
$PROXYGRAPHICS
 70
     1
  9
$MEASUREMENT
 70
     1
  9
$CELWEIGHT
370
    -1
  9
$ENDCAPS
280
     0
  9
$JOINSTYLE
280
     0
  9
$LWDISPLAY
290
     1
  9
$INSUNITS
 70
     4
  9
$HYPERLINKBASE
  1

  9
$STYLESHEET
  1

  9
$XEDIT
290
     1
  9
$CEPSNTYPE
380
     0
  9
$PSTYLEMODE
290
     1
  9
$FINGERPRINTGUID
  2
{956738ce-d806-4e39-b361-46f4b5769989}
  9
$VERSIONGUID
  2
{FAEB1C32-E019-11D5-929B-00C0DF256EC4}
  9
$EXTNAMES
290
     1
  9
$PSVPSCALE
 40
0.0
  9
$OLESTARTUP
290
     0
  0
ENDSEC
  0
SECTION
  2
CLASSES
  0
CLASS
  1
ACDBDICTIONARYWDFLT
  2
AcDbDictionaryWithDefault
  3
ObjectDBX Classes
 90
        0
280
     0
281
     0
  0
CLASS
  1
VISUALSTYLE
  2
AcDbVisualStyle
  3
ObjectDBX Classes
 90
     4095
280
     0
281
     0
  0
CLASS
  1
MATERIAL
  2
AcDbMaterial
  3
ObjectDBX Classes
 90
     1153
280
     0
281
     0
  0
CLASS
  1
SCALE
  2
AcDbScale
  3
ObjectDBX Classes
 90
     1153
280
     0
281
     0
  0
CLASS
  1
TABLESTYLE
  2
AcDbTableStyle
  3
ObjectDBX Classes
 90
     4095
280
     0
281
     0
  0
CLASS
  1
MLEADERSTYLE
  2
AcDbMLeaderStyle
  3
ACDB_MLEADERSTYLE_CLASS
 90
     4095
280
     0
281
     0
  0
CLASS
  1
SUN
  2
AcDbSun
  3
SCENEOE
 90
     1153
280
     0
281
     0
  0
CLASS
  1
ACDBPLACEHOLDER
  2
AcDbPlaceHolder
  3
ObjectDBX Classes
 90
        0
280
     0
281
     0
  0
CLASS
  1
LAYOUT
  2
AcDbLayout
  3
ObjectDBX Classes
 90
        0
280
     0
281
     0
  0
ENDSEC
  0
SECTION
  2
TABLES
  0
TABLE
  2
VPORT
  5
8
330
0
100
AcDbSymbolTable
 70
     1
  0
VPORT
  5
29
330
8
100
AcDbSymbolTableRecord
100
AcDbViewportTableRecord
  2
*Active
 70
     0
 10
0.0
 20
0.0
 11
1.0
 21
1.0
 12
105.0
 22
148.5
 13
0.0
 23
0.0
 14
10.0
 24
10.0
 15
10.0
 25
10.0
 16
0.0
 26
0.0
 36
1.0
 17
0.0
 27
0.0
 37
0.0
 40
297.0
 41
0.7070707071
 42
50.0
 43
0.0
 44
0.0
 50
0.0
 51
0.0
 71
     0
 72
  2000
 73
     1
 74
     3
 75
     0
 76
     0
 77
     0
 78
     0
281
     0
 65
     1
110
0.0
120
0.0
130
0.0
111
1.0
121
0.0
131
0.0
112
0.0
122
1.0
132
0.0
 79
     0
146
0.0
  0
ENDTAB
  0
TABLE
  2
LTYPE
  5
5
330
0
100
AcDbSymbolTable
 70
     6
  0
LTYPE
  5
14
330
5
100
AcDbSymbolTableRecord
100
AcDbLinetypeTableRecord
  2
ByBlock
 70
     0
  3

 72
    65
 73
     0
 40
0.0
  0
LTYPE
  5
15
330
5
100
AcDbSymbolTableRecord
100
AcDbLinetypeTableRecord
  2
ByLayer
 70
     0
  3

 72
    65
 73
     0
 40
0.0
  0
LTYPE
  5
16
330
5
100
AcDbSymbolTableRecord
100
AcDbLinetypeTableRecord
  2
Continuous
 70
     0
  3
Solid line
 72
    65
 73
     0
 40
0.0
  0
LTYPE
  5
6E
330
5
100
AcDbSymbolTableRecord
100
AcDbLinetypeTableRecord
  2
HIDDEN
 70
     0
  3
Hidden __ __ __ __ __ __ __ __ __ __ __ __ __ __
 72
    65
 73
     2
 40
1.905
 49
1.27
 74
     0
 49
-0.635
 74
     0
  0
LTYPE
  5
6F
330
5
100
AcDbSymbolTableRecord
100
AcDbLinetypeTableRecord
  2
PHANTOM
 70
     0
  3
Phantom ______  __  __  ______  __  __  ______
 72
    65
 73
     6
 40
12.7
 49
6.35
 74
     0
 49
-1.27
 74
     0
 49
1.27
 74
     0
 49
-1.27
 74
     0
 49
1.27
 74
     0
 49
-1.27
 74
     0
  0
LTYPE
  5
70
330
5
100
AcDbSymbolTableRecord
100
AcDbLinetypeTableRecord
  2
CENTER
 70
     0
  3
Center ____ _ ____ _ ____ _ ____ _ ____ _ ____
 72
    65
 73
     4
 40
10.16
 49
6.35
 74
     0
 49
-1.27
 74
     0
 49
1.27
 74
     0
 49
-1.27
 74
     0
  0
LTYPE
  5
71
330
5
100
AcDbSymbolTableRecord
100
AcDbLinetypeTableRecord
  2
CENTERX2
 70
     0
  3
Center (2x) ________  __  ________  __  _____
 72
    65
 73
     4
 40
20.32
 49
12.7
 74
     0
 49
-2.54
 74
     0
 49
2.54
 74
     0
 49
-2.54
 74
     0
  0
LTYPE
  5
72
330
5
100
AcDbSymbolTableRecord
100
AcDbLinetypeTableRecord
  2
DOT2
 70
     0
  3
Dot (.5x) ........................................
 72
    65
 73
     2
 40
0.635
 49
0.0
 74
     0
 49
-0.635
 74
     0
  0
ENDTAB
  0
TABLE
  2
LAYER
  5
2
330
0
100
AcDbSymbolTable
 70
    10
  0
LAYER
  5
10
330
2
100
AcDbSymbolTableRecord
100
AcDbLayerTableRecord
  2
0
 70
     0
 62
     7
  6
Continuous
370
    -3
390
F
  0
LAYER
  5
73
330
2
100
AcDbSymbolTableRecord
100
AcDbLayerTableRecord
  2
FORT
 70
     0
 62
     7
  6
Continuous
370
    25
390
F
  0
LAYER
  5
74
330
2
100
AcDbSymbolTableRecord
100
AcDbLayerTableRecord
  2
FIN
 70
     0
 62
     5
  6
Continuous
370
    -3
390
F
  0
LAYER
  5
75
330
2
100
AcDbSymbolTableRecord
100
AcDbLayerTableRecord
  2
CACHE
 70
     0
 62
     2
  6
HIDDEN
370
    -3
390
F
  0
LAYER
  5
76
330
2
100
AcDbSymbolTableRecord
100
AcDbLayerTableRecord
  2
AXES
 70
     0
 62
     3
  6
CENTER
370
    -3
390
F
  0
LAYER
  5
77
330
2
100
AcDbSymbolTableRecord
100
AcDbLayerTableRecord
  2
COTES
 70
     0
 62
    21
  6
Continuous
370
    -3
390
F
  0
LAYER
  5
78
330
2
100
AcDbSymbolTableRecord
100
AcDbLayerTableRecord
  2
HACHURS
 70
     0
 62
     4
  6
Continuous
370
    -3
390
F
  0
LAYER
  5
79
330
2
100
AcDbSymbolTableRecord
100
AcDbLayerTableRecord
  2
TEXTE
 70
     0
 62
     6
  6
Continuous
370
    -1
390
F
  0
LAYER
  5
7A
330
2
100
AcDbSymbolTableRecord
100
AcDbLayerTableRecord
  2
POS2
 70
     0
 62
     1
  6
HIDDEN
370
    -3
390
F
  0
LAYER
  5
7B
330
2
100
AcDbSymbolTableRecord
100
AcDbLayerTableRecord
  2
NEUF
 70
     0
 62
     1
  6
Continuous
370
    25
390
F
  0
ENDTAB
  0
TABLE
  2
STYLE
  5
3
330
0
100
AcDbSymbolTable
 70
     6
  0
STYLE
  5
11
330
3
100
AcDbSymbolTableRecord
100
AcDbTextStyleTableRecord
  2
Standard
 70
     0
 40
0.0
 41
1.0
 50
0.0
 71
     0
 42
3.5
  3
txt
  4

  0
STYLE
  5
10E
330
3
100
AcDbSymbolTableRecord
100
AcDbTextStyleTableRecord
  2
SLDTEXTSTYLE0
 70
     0
 40
0.0
 41
0.75
 50
0.0
 71
     0
 42
3.5
  3
TXT
  4

  0
STYLE
  5
114
330
3
100
AcDbSymbolTableRecord
100
AcDbTextStyleTableRecord
  2
SLDTEXTSTYLE1
 70
     0
 40
0.0
 41
0.605
 50
0.0
 71
     0
 42
3.5
  3
TXT
  4

  0
STYLE
  5
131
330
3
100
AcDbSymbolTableRecord
100
AcDbTextStyleTableRecord
  2
SLDTEXTSTYLE2
 70
     0
 40
0.0
 41
0.57
 50
0.0
 71
     0
 42
3.5
  3
TXT
  4

  0
STYLE
  5
133
330
3
100
AcDbSymbolTableRecord
100
AcDbTextStyleTableRecord
  2
SLDTEXTSTYLE3
 70
     0
 40
0.0
 41
0.5730434783
 50
0.0
 71
     0
 42
3.5
  3
TXT
  4

  0
STYLE
  5
136
330
3
100
AcDbSymbolTableRecord
100
AcDbTextStyleTableRecord
  2
SLDTEXTSTYLE4
 70
     0
 40
0.0
 41
0.7
 50
0.0
 71
     0
 42
3.5
  3
TXT
  4

  0
ENDTAB
  0
TABLE
  2
VIEW
  5
6
330
0
100
AcDbSymbolTable
 70
     0
  0
ENDTAB
  0
TABLE
  2
UCS
  5
7
330
0
100
AcDbSymbolTable
 70
     0
  0
ENDTAB
  0
TABLE
  2
APPID
  5
9
330
0
100
AcDbSymbolTable
 70
     1
  0
APPID
  5
12
330
9
100
AcDbSymbolTableRecord
100
AcDbRegAppTableRecord
  2
ACAD
 70
     0
  0
ENDTAB
  0
TABLE
  2
DIMSTYLE
  5
A
330
0
100
AcDbSymbolTable
 70
     4
100
AcDbDimStyleTable
  0
DIMSTYLE
105
27
330
A
100
AcDbSymbolTableRecord
100
AcDbDimStyleTableRecord
  2
ISO-25
 70
     0
 41
2.5
 42
0.625
 43
3.75
 44
1.25
 73
     0
 74
     0
 77
     1
 78
     8
140
2.5
141
2.5
143
0.0393700787
147
0.625
171
     3
172
     1
178
     0
271
     2
272
     2
274
     3
278
    44
283
     0
284
     8
340
11
  0
DIMSTYLE
105
13D
102
{ACAD_REACTORS
330
13C
102
}
330
A
100
AcDbSymbolTableRecord
100
AcDbDimStyleTableRecord
  2
SLDDIMSTYLE0
 70
     0
 41
3.302
 44
0.0
 45
0.000000001
 47
0.05
 48
-0.15
 71
     1
 78
    12
 79
     3
140
3.5
141
0.0
147
0.875
172
     1
173
     1
178
     0
271
     2
272
     2
276
     2
284
     8
340
10E
341
13E
343
13E
  0
DIMSTYLE
105
150
102
{ACAD_REACTORS
330
14F
102
}
330
A
100
AcDbSymbolTableRecord
100
AcDbDimStyleTableRecord
  2
SLDDIMSTYLE1
 70
     0
 41
3.302
 44
0.0
 45
0.000000001
 78
    12
 79
     3
140
3.5
141
0.0
147
0.875
173
     1
178
     0
271
     3
272
     3
276
     2
284
    12
340
10E
  0
DIMSTYLE
105
183
102
{ACAD_REACTORS
330
182
102
}
330
A
100
AcDbSymbolTableRecord
100
AcDbDimStyleTableRecord
  2
SLDDIMSTYLE2
 70
     0
 41
3.302
 44
0.0
 45
0.000000001
 73
     0
 74
     0
 77
     1
 78
    12
 79
     3
140
3.5
147
0.875
172
     1
173
     1
178
     0
271
     3
272
     3
276
     2
284
    12
289
     0
340
10E
  0
ENDTAB
  0
TABLE
  2
BLOCK_RECORD
  5
1
330
0
100
AcDbSymbolTable
 70
    16
  0
BLOCK_RECORD
  5
1F
330
1
100
AcDbSymbolTableRecord
100
AcDbBlockTableRecord
  2
*Model_Space
340
22
  0
BLOCK_RECORD
  5
1B
330
1
100
AcDbSymbolTableRecord
100
AcDbBlockTableRecord
  2
*Paper_Space
340
1E
  0
BLOCK_RECORD
  5
23
330
1
100
AcDbSymbolTableRecord
100
AcDbBlockTableRecord
  2
*Paper_Space0
340
26
  0
BLOCK_RECORD
  5
7C
330
1
100
AcDbSymbolTableRecord
100
AcDbBlockTableRecord
  2
Bloc1
340
0
102
{BLKREFS
331
10C
102
}
  0
BLOCK_RECORD
  5
88
330
1
100
AcDbSymbolTableRecord
100
AcDbBlockTableRecord
  2
LOGO_STEELMAG_SIMPLE
340
0
102
{BLKREFS
331
10D
102
}
  0
BLOCK_RECORD
  5
111
330
1
100
AcDbSymbolTableRecord
100
AcDbBlockTableRecord
  2
SW_NOTE_0
340
0
102
{BLKREFS
331
117
102
}
  0
BLOCK_RECORD
  5
11D
330
1
100
AcDbSymbolTableRecord
100
AcDbBlockTableRecord
  2
SW_NOTE_0_1
340
0
102
{BLKREFS
331
123
102
}
  0
BLOCK_RECORD
  5
124
330
1
100
AcDbSymbolTableRecord
100
AcDbBlockTableRecord
  2
SW_NOTE_0_2
340
0
102
{BLKREFS
331
12A
102
}
  0
BLOCK_RECORD
  5
12E
330
1
100
AcDbSymbolTableRecord
100
AcDbBlockTableRecord
  2
SW_NOTE_0_3
340
0
102
{BLKREFS
331
135
102
}
  0
BLOCK_RECORD
  5
13E
330
1
100
AcDbSymbolTableRecord
100
AcDbBlockTableRecord
  2
_None
340
0
  0
BLOCK_RECORD
  5
141
330
1
100
AcDbSymbolTableRecord
100
AcDbBlockTableRecord
  2
_D
340
0
  0
BLOCK_RECORD
  5
151
330
1
100
AcDbSymbolTableRecord
100
AcDbBlockTableRecord
  2
_D_1
340
0
  0
BLOCK_RECORD
  5
159
330
1
100
AcDbSymbolTableRecord
100
AcDbBlockTableRecord
  2
SW_CENTERMARKSYMBOL_0
340
0
102
{BLKREFS
331
164
102
}
  0
BLOCK_RECORD
  5
184
330
1
100
AcDbSymbolTableRecord
100
AcDbBlockTableRecord
  2
_D_2
340
0
  0
BLOCK_RECORD
  5
18F
330
1
100
AcDbSymbolTableRecord
100
AcDbBlockTableRecord
  2
SW_CHAMFER_DIMENSION_0
340
0
102
{BLKREFS
331
198
102
}
  0
BLOCK_RECORD
  5
199
330
1
100
AcDbSymbolTableRecord
100
AcDbBlockTableRecord
  2
SW_CHAMFER_DIMENSION_1
340
0
102
{BLKREFS
331
1A2
102
}
  0
BLOCK_RECORD
  5
1A3
330
1
100
AcDbSymbolTableRecord
100
AcDbBlockTableRecord
  2
SW_CHAMFER_DIMENSION_2
340
0
102
{BLKREFS
331
1AC
102
}
  0
BLOCK_RECORD
  5
1AD
330
1
100
AcDbSymbolTableRecord
100
AcDbBlockTableRecord
  2
SW_CHAMFER_DIMENSION_3
340
0
102
{BLKREFS
331
1B6
102
}
  0
ENDTAB
  0
ENDSEC
  0
SECTION
  2
BLOCKS
  0
BLOCK
  5
20
330
1F
100
AcDbEntity
  8
0
100
AcDbBlockBegin
  2
*Model_Space
 70
     0
 10
0.0
 20
0.0
 30
0.0
  3
*Model_Space
  1

  0
ENDBLK
  5
21
330
1F
100
AcDbEntity
  8
0
100
AcDbBlockEnd
  0
BLOCK
  5
1C
330
1B
100
AcDbEntity
 67
     1
  8
0
100
AcDbBlockBegin
  2
*Paper_Space
 70
     0
 10
0.0
 20
0.0
 30
0.0
  3
*Paper_Space
  1

  0
ENDBLK
  5
1D
330
1B
100
AcDbEntity
 67
     1
  8
0
100
AcDbBlockEnd
  0
BLOCK
  5
24
330
23
100
AcDbEntity
  8
0
100
AcDbBlockBegin
  2
*Paper_Space0
 70
     0
 10
0.0
 20
0.0
 30
0.0
  3
*Paper_Space0
  1

  0
ENDBLK
  5
25
330
23
100
AcDbEntity
  8
0
100
AcDbBlockEnd
  0
BLOCK
  5
7D
330
7C
100
AcDbEntity
  8
0
100
AcDbBlockBegin
  2
Bloc1
 70
     0
 10
0.0
 20
0.0
 30
0.0
  3
Bloc1
  1

  0
CIRCLE
  5
7F
330
7C
100
AcDbEntity
  8
0
  6
Continuous
 62
     7
370
    18
100
AcDbCircle
 10
10.8166793798
 20
3.6232147739
 30
0.0
 40
1.195754565120545
  0
CIRCLE
  5
80
330
7C
100
AcDbEntity
  8
0
  6
Continuous
 62
     7
370
    18
100
AcDbCircle
 10
10.8166793798
 20
3.6232147739
 30
0.0
 40
2.686514864256927
  0
LINE
  5
81
330
7C
100
AcDbEntity
  8
0
  6
Continuous
 62
     7
370
    18
100
AcDbLine
 10
0.6587080392
 20
2.4274602088
 30
0.0
 11
0.6587080392
 21
4.8189693391
 31
0.0
  0
LINE
  5
82
330
7C
100
AcDbEntity
  8
0
  6
Continuous
 62
     7
370
    18
100
AcDbLine
 10
0.6587080392
 20
4.8189693391
 30
0.0
 11
6.0323788849
 21
6.3097296382
 31
0.0
  0
LINE
  5
83
330
7C
100
AcDbEntity
  8
0
  6
Continuous
 62
     7
370
    18
100
AcDbLine
 10
6.0323788849
 20
6.3097296382
 30
0.0
 11
6.0323788849
 21
0.9366999097
 31
0.0
  0
LINE
  5
84
330
7C
100
AcDbEntity
  8
0
  6
Continuous
 62
     7
370
    18
100
AcDbLine
 10
0.6587080392
 20
2.4274602088
 30
0.0
 11
6.0323788849
 21
0.9366999097
 31
0.0
  0
LINE
  5
85
330
7C
100
AcDbEntity
  8
0
  6
Continuous
 62
     7
370
    18
100
AcDbLine
 10
10.8166793798
 20
7.4191326515
 30
0.0
 11
10.8166793798
 21
0.0
 31
0.0
  0
LINE
  5
86
330
7C
100
AcDbEntity
  8
0
  6
Continuous
 62
     7
370
    18
100
AcDbLine
 10
14.2488949522
 20
3.6232147739
 30
0.0
 11
7.1764507424
 21
3.6232147739
 31
0.0
  0
LINE
  5
87
330
7C
100
AcDbEntity
  8
0
  6
Continuous
 62
     7
370
    18
100
AcDbLine
 10
6.6564180799
 20
3.6232147739
 30
0.0
 11
0.0
 21
3.6232147739
 31
0.0
  0
ENDBLK
  5
7E
330
7C
100
AcDbEntity
  8
0
100
AcDbBlockEnd
  0
BLOCK
  5
89
330
88
100
AcDbEntity
  8
0
100
AcDbBlockBegin
  2
LOGO_STEELMAG_SIMPLE
 70
     0
 10
0.0
 20
0.0
 30
0.0
  3
LOGO_STEELMAG_SIMPLE
  1

  0
ARC
  5
8B
330
88
100
AcDbEntity
  8
0
100
AcDbCircle
 10
26.625
 20
-73.917947067
 30
0.0
 40
81.40816909695889
100
AcDbArc
 50
105.0
 51
108.0
  0
ARC
  5
8C
330
88
100
AcDbEntity
  8
0
100
AcDbCircle
 10
26.625
 20
-73.917947067
 30
0.0
 40
80.60874354117742
100
AcDbArc
 50
105.0
 51
108.0
  0
ARC
  5
8D
330
88
100
AcDbEntity
  8
0
100
AcDbCircle
 10
26.625
 20
-73.917947067
 30
0.0
 40
78.61017965172397
100
AcDbArc
 50
103.5
 51
108.0
  0
ARC
  5
8E
330
88
100
AcDbEntity
  8
0
100
AcDbCircle
 10
26.625
 20
-73.917947067
 30
0.0
 40
82.47406983800093
100
AcDbArc
 50
103.5
 51
106.5
  0
ARC
  5
8F
330
88
100
AcDbEntity
  8
0
100
AcDbCircle
 10
26.625
 20
-73.917947067
 30
0.0
 40
83.27349539378235
100
AcDbArc
 50
103.5
 51
106.5
  0
ARC
  5
90
330
88
100
AcDbEntity
  8
0
100
AcDbCircle
 10
26.625
 20
-73.917947067
 30
0.0
 40
85.27205928323596
100
AcDbArc
 50
103.5
 51
108.0
  0
ARC
  5
91
330
88
100
AcDbEntity
  8
0
100
AcDbCircle
 10
26.625
 20
-73.917947067
 30
0.0
 40
85.27205928323646
100
AcDbArc
 50
99.3
 51
103.2
  0
ARC
  5
92
330
88
100
AcDbEntity
  8
0
100
AcDbCircle
 10
26.625
 20
-73.917947067
 30
0.0
 40
83.27349539378255
100
AcDbArc
 50
102.0
 51
103.2
  0
ARC
  5
93
330
88
100
AcDbEntity
  8
0
100
AcDbCircle
 10
26.625
 20
-73.917947067
 30
0.0
 40
78.6101796517243
100
AcDbArc
 50
100.5
 51
102.0
  0
ARC
  5
94
330
88
100
AcDbEntity
  8
0
100
AcDbCircle
 10
26.625
 20
-73.917947067
 30
0.0
 40
83.27349539378305
100
AcDbArc
 50
99.3
 51
100.5
  0
ARC
  5
95
330
88
100
AcDbEntity
  8
0
100
AcDbCircle
 10
26.625
 20
-73.917947067
 30
0.0
 40
85.2720592832377
100
AcDbArc
 50
94.5
 51
99.0
  0
ARC
  5
96
330
88
100
AcDbEntity
  8
0
100
AcDbCircle
 10
26.625
 20
-73.917947067
 30
0.0
 40
78.61017965172562
100
AcDbArc
 50
94.5
 51
99.0
  0
ARC
  5
97
330
88
100
AcDbEntity
  8
0
100
AcDbCircle
 10
26.625
 20
-73.917947067
 30
0.0
 40
80.60874354117942
100
AcDbArc
 50
94.5
 51
97.5
  0
ARC
  5
98
330
88
100
AcDbEntity
  8
0
100
AcDbCircle
 10
26.625
 20
-73.917947067
 30
0.0
 40
81.40816909696069
100
AcDbArc
 50
96.0
 51
97.5
  0
ARC
  5
99
330
88
100
AcDbEntity
  8
0
100
AcDbCircle
 10
26.625
 20
-73.917947067
 30
0.0
 40
82.47406983800256
100
AcDbArc
 50
96.0
 51
97.5
  0
ARC
  5
9A
330
88
100
AcDbEntity
  8
0
100
AcDbCircle
 10
26.625
 20
-73.917947067
 30
0.0
 40
83.27349539378426
100
AcDbArc
 50
94.5
 51
97.5
  0
ARC
  5
9B
330
88
100
AcDbEntity
  8
0
100
AcDbCircle
 10
26.625
 20
-73.917947067
 30
0.0
 40
78.61017965172763
100
AcDbArc
 50
89.6999999999
 51
94.2
  0
ARC
  5
9C
330
88
100
AcDbEntity
  8
0
100
AcDbCircle
 10
26.625
 20
-73.917947067
 30
0.0
 40
80.60874354118157
100
AcDbArc
 50
89.7
 51
92.7
  0
ARC
  5
9D
330
88
100
AcDbEntity
  8
0
100
AcDbCircle
 10
26.625
 20
-73.917947067
 30
0.0
 40
81.40816909696268
100
AcDbArc
 50
91.2
 51
92.7
  0
ARC
  5
9E
330
88
100
AcDbEntity
  8
0
100
AcDbCircle
 10
26.625
 20
-73.917947067
 30
0.0
 40
82.47406983800461
100
AcDbArc
 50
91.2
 51
92.7
  0
ARC
  5
9F
330
88
100
AcDbEntity
  8
0
100
AcDbCircle
 10
26.625
 20
-73.917947067
 30
0.0
 40
83.27349539378646
100
AcDbArc
 50
89.6999999999
 51
92.7
  0
ARC
  5
A0
330
88
100
AcDbEntity
  8
0
100
AcDbCircle
 10
26.625
 20
-73.917947067
 30
0.0
 40
85.27205928323968
100
AcDbArc
 50
89.7
 51
94.2
  0
ARC
  5
A1
330
88
100
AcDbEntity
  8
0
100
AcDbCircle
 10
26.625
 20
-73.917947067
 30
0.0
 40
85.27205928324157
100
AcDbArc
 50
87.9
 51
89.4
  0
ARC
  5
A2
330
88
100
AcDbEntity
  8
0
100
AcDbCircle
 10
26.625
 20
-73.917947067
 30
0.0
 40
78.61017965172998
100
AcDbArc
 50
86.4
 51
89.4
  0
ARC
  5
A3
330
88
100
AcDbEntity
  8
0
100
AcDbCircle
 10
26.625
 20
-73.917947067
 30
0.0
 40
80.6087435411841
100
AcDbArc
 50
86.4
 51
87.9
  0
ARC
  5
A4
330
88
100
AcDbEntity
  8
0
100
AcDbCircle
 10
26.625
 20
-73.917947067
 30
0.0
 40
85.27205928324501
100
AcDbArc
 50
81.5999999999
 51
86.1
  0
ARC
  5
A5
330
88
100
AcDbEntity
  8
0
100
AcDbCircle
 10
26.625
 20
-73.917947067
 30
0.0
 40
78.61017965173178
100
AcDbArc
 50
84.6
 51
86.1
  0
ARC
  5
A6
330
88
100
AcDbEntity
  8
0
100
AcDbCircle
 10
26.625
 20
-73.917947067
 30
0.0
 40
83.27349539379092
100
AcDbArc
 50
84.25
 51
84.6
  0
ARC
  5
A7
330
88
100
AcDbEntity
  8
0
100
AcDbCircle
 10
26.625
 20
-73.917947067
 30
0.0
 40
81.40816909696795
100
AcDbArc
 50
83.45
 51
84.25
  0
ARC
  5
A8
330
88
100
AcDbEntity
  8
0
100
AcDbCircle
 10
26.625
 20
-73.917947067
 30
0.0
 40
83.27349539379178
100
AcDbArc
 50
83.1
 51
83.45
  0
ARC
  5
A9
330
88
100
AcDbEntity
  8
0
100
AcDbCircle
 10
26.625
 20
-73.917947067
 30
0.0
 40
78.61017965173414
100
AcDbArc
 50
81.6
 51
83.1
  0
ARC
  5
AA
330
88
100
AcDbEntity
  8
0
100
AcDbCircle
 10
26.625
 20
-73.917947067
 30
0.0
 40
83.27349539379557
100
AcDbArc
 50
78.2999999999
 51
79.8
  0
ARC
  5
AB
330
88
100
AcDbEntity
  8
0
100
AcDbCircle
 10
26.625
 20
-73.917947067
 30
0.0
 40
81.40816909697223
100
AcDbArc
 50
78.2999999999
 51
79.8
  0
ARC
  5
AC
330
88
100
AcDbEntity
  8
0
100
AcDbCircle
 10
26.625
 20
-73.917947067
 30
0.0
 40
85.27205928324928
100
AcDbArc
 50
76.7999999999
 51
81.3
  0
ARC
  5
AD
330
88
100
AcDbEntity
  8
0
100
AcDbCircle
 10
26.625
 20
-73.917947067
 30
0.0
 40
78.61017965173573
100
AcDbArc
 50
79.7999999999
 51
81.3
  0
ARC
  5
AE
330
88
100
AcDbEntity
  8
0
100
AcDbCircle
 10
26.625
 20
-73.917947067
 30
0.0
 40
80.60874354119073
100
AcDbArc
 50
78.2999999999
 51
79.8
  0
ARC
  5
AF
330
88
100
AcDbEntity
  8
0
100
AcDbCircle
 10
26.625
 20
-73.917947067
 30
0.0
 40
78.61017965173862
100
AcDbArc
 50
76.7999999999
 51
78.3
  0
ARC
  5
B0
330
88
100
AcDbEntity
  8
0
100
AcDbCircle
 10
26.625
 20
-73.917947067
 30
0.0
 40
85.27205928325425
100
AcDbArc
 50
71.9999999999
 51
76.5
  0
ARC
  5
B1
330
88
100
AcDbEntity
  8
0
100
AcDbCircle
 10
26.625
 20
-73.917947067
 30
0.0
 40
78.61017965174217
100
AcDbArc
 50
71.9999999999
 51
76.5
  0
ARC
  5
B2
330
88
100
AcDbEntity
  8
0
100
AcDbCircle
 10
26.625
 20
-73.917947067
 30
0.0
 40
82.47406983802018
100
AcDbArc
 50
72.0
 51
74.5499999999
  0
ARC
  5
B3
330
88
100
AcDbEntity
  8
0
100
AcDbCircle
 10
26.625
 20
-73.917947067
 30
0.0
 40
81.40816909697736
100
AcDbArc
 50
73.5499999999
 51
74.55
  0
ARC
  5
B4
330
88
100
AcDbEntity
  8
0
100
AcDbCircle
 10
26.625
 20
-73.917947067
 30
0.0
 40
80.60874354119568
100
AcDbArc
 50
73.55
 51
75.0
  0
ARC
  5
B5
330
88
100
AcDbEntity
  8
0
100
AcDbCircle
 10
26.625
 20
-73.917947067
 30
0.0
 40
83.27349539380145
100
AcDbArc
 50
72.0
 51
75.0
  0
ARC
  5
B6
330
88
100
AcDbEntity
  8
0
100
AcDbCircle
 10
26.625
 20
-73.917947067
 30
0.0
 40
86.16030990078158
100
AcDbArc
 50
72.0
 51
108.0
  0
ARC
  5
B7
330
88
100
AcDbEntity
  8
0
100
AcDbCircle
 10
26.625
 20
-73.917947067
 30
0.0
 40
85.71618459201416
100
AcDbArc
 50
71.9999999999
 51
108.0
  0
ARC
  5
B8
330
88
100
AcDbEntity
  8
0
100
AcDbCircle
 10
26.625
 20
-73.917947067
 30
0.0
 40
77.72192903419943
100
AcDbArc
 50
71.9999999999
 51
108.0
  0
ARC
  5
B9
330
88
100
AcDbEntity
  8
0
100
AcDbCircle
 10
26.625
 20
-73.917947067
 30
0.0
 40
78.16605434296694
100
AcDbArc
 50
71.9999999999
 51
108.0
  0
LINE
  5
BA
330
88
100
AcDbEntity
  8
0
100
AcDbLine
 10
0.2744845361
 20
7.1806005723
 30
0.0
 11
1.468492268
 21
3.5058226323
 31
0.0
  0
LINE
  5
BB
330
88
100
AcDbEntity
  8
0
100
AcDbLine
 10
5.5550154108
 20
4.7163059347
 30
0.0
 11
5.7619219698
 21
3.9441201442
 31
0.0
  0
LINE
  5
BC
330
88
100
AcDbEntity
  8
0
100
AcDbLine
 10
1.7155283505
 20
2.7455237482
 30
0.0
 11
2.3331185567
 21
0.8447765379
 31
0.0
  0
LINE
  5
BD
330
88
100
AcDbEntity
  8
0
100
AcDbLine
 10
8.2738180084
 20
2.5202270634
 30
0.0
 11
7.371810758
 21
6.2773576563
 31
0.0
  0
LINE
  5
BE
330
88
100
AcDbEntity
  8
0
100
AcDbLine
 10
3.2010986259
 20
5.1598187086
 30
0.0
 11
2.974049501
 21
5.926323708
 31
0.0
  0
LINE
  5
BF
330
88
100
AcDbEntity
  8
0
100
AcDbLine
 10
7.1851885682
 20
7.0546950203
 30
0.0
 11
6.7186330939
 21
8.9980384304
 31
0.0
  0
LINE
  5
C0
330
88
100
AcDbEntity
  8
0
100
AcDbLine
 10
13.1676849477
 20
8.2609778876
 30
0.0
 11
12.8447093865
 21
10.2332720865
 31
0.0
  0
LINE
  5
C1
330
88
100
AcDbEntity
  8
0
100
AcDbLine
 10
7.1530510665
 20
9.1011308557
 30
0.0
 11
7.6094248696
 21
7.1553712169
 31
0.0
  0
LINE
  5
C2
330
88
100
AcDbEntity
  8
0
100
AcDbLine
 10
9.3114667724
 20
7.5358226572
 30
0.0
 11
10.2810246332
 21
2.9744115526
 31
0.0
  0
LINE
  5
C3
330
88
100
AcDbEntity
  8
0
100
AcDbLine
 10
12.2994326021
 20
3.3758978601
 30
0.0
 11
11.4496108073
 21
7.961125949
 31
0.0
  0
LINE
  5
C4
330
88
100
AcDbEntity
  8
0
100
AcDbLine
 10
20.0914368533
 20
9.0988439316
 30
0.0
 11
19.9346313378
 21
11.0912469156
 31
0.0
  0
LINE
  5
C5
330
88
100
AcDbEntity
  8
0
100
AcDbLine
 10
13.2855110231
 20
10.3042716656
 30
0.0
 11
14.3276585995
 21
3.7244108271
 31
0.0
  0
LINE
  5
C6
330
88
100
AcDbEntity
  8
0
100
AcDbLine
 10
20.4573163895
 20
4.4499036357
 30
0.0
 11
20.300510874
 21
6.4423066197
 31
0.0
  0
LINE
  5
C7
330
88
100
AcDbEntity
  8
0
100
AcDbLine
 10
16.1034476459
 20
6.0011774987
 30
0.0
 11
15.9991016722
 21
6.7937638581
 31
0.0
  0
LINE
  5
C8
330
88
100
AcDbEntity
  8
0
100
AcDbLine
 10
18.1155291869
 20
7.0442595618
 30
0.0
 11
18.0041122204
 21
8.1043211871
 31
0.0
  0
LINE
  5
C9
330
88
100
AcDbEntity
  8
0
100
AcDbLine
 10
15.8599737071
 20
7.8505456705
 30
0.0
 11
15.7556277334
 21
8.6431320298
 31
0.0
  0
LINE
  5
CA
330
88
100
AcDbEntity
  8
0
100
AcDbLine
 10
20.3798281127
 20
11.1251121589
 30
0.0
 11
20.8677321664
 21
4.4811231569
 31
0.0
  0
LINE
  5
CB
330
88
100
AcDbEntity
  8
0
100
AcDbLine
 10
27.0366000575
 20
4.6911550159
 30
0.0
 11
27.0470644657
 21
6.6896915095
 31
0.0
  0
LINE
  5
CC
330
88
100
AcDbEntity
  8
0
100
AcDbLine
 10
22.8278081957
 20
6.6013106897
 30
0.0
 11
22.7901500951
 21
7.3998487832
 31
0.0
  0
LINE
  5
CD
330
88
100
AcDbEntity
  8
0
100
AcDbLine
 10
24.9201159408
 20
7.4723678732
 30
0.0
 11
24.8977934
 21
8.5380348446
 31
0.0
  0
LINE
  5
CE
330
88
100
AcDbEntity
  8
0
100
AcDbLine
 10
22.7399392944
 20
8.4645662411
 30
0.0
 11
22.7022811938
 21
9.2631043346
 31
0.0
  0
LINE
  5
CF
330
88
100
AcDbEntity
  8
0
100
AcDbLine
 10
27.0610170101
 20
9.3544068343
 30
0.0
 11
27.0714814183
 21
11.352943328
 31
0.0
  0
LINE
  5
D0
330
88
100
AcDbEntity
  8
0
100
AcDbLine
 10
27.517950596
 20
11.3494366952
 30
0.0
 11
27.4481888307
 21
4.6879223387
 31
0.0
  0
LINE
  5
D1
330
88
100
AcDbEntity
  8
0
100
AcDbLine
 10
31.5609740206
 20
4.537113352
 30
0.0
 11
31.6864648856
 21
6.5317335321
 31
0.0
  0
LINE
  5
D2
330
88
100
AcDbEntity
  8
0
100
AcDbLine
 10
29.5788033176
 20
6.6366591405
 30
0.0
 11
29.7496845012
 21
11.2968429707
 31
0.0
  0
LINE
  5
D3
330
88
100
AcDbEntity
  8
0
100
AcDbLine
 10
38.1086131194
 20
3.8489287517
 30
0.0
 11
39.081800672
 21
10.4393419567
 31
0.0
  0
LINE
  5
D4
330
88
100
AcDbEntity
  8
0
100
AcDbLine
 10
32.4248038978
 20
11.1566459039
 30
0.0
 11
31.9716942183
 21
4.510193328
 31
0.0
  0
LINE
  5
D5
330
88
100
AcDbEntity
  8
0
100
AcDbLine
 10
34.0228714167
 20
4.3433578249
 30
0.0
 11
34.4617281957
 21
8.9859776066
 31
0.0
  0
LINE
  5
D6
330
88
100
AcDbEntity
  8
0
100
AcDbLine
 10
34.9680100871
 20
8.9365592546
 30
0.0
 11
34.7811266612
 21
7.080618313
 31
0.0
  0
LINE
  5
D7
330
88
100
AcDbEntity
  8
0
100
AcDbLine
 10
35.9112482118
 20
6.9588455862
 30
0.0
 11
36.1240264032
 21
8.8119963181
 31
0.0
  0
LINE
  5
D8
330
88
100
AcDbEntity
  8
0
100
AcDbLine
 10
36.6292144953
 20
8.7524268733
 30
0.0
 11
36.0689784836
 21
4.1228859327
 31
0.0
  0
LINE
  5
D9
330
88
100
AcDbEntity
  8
0
100
AcDbLine
 10
41.3714653073
 20
8.0394613598
 30
0.0
 11
41.0411444845
 21
6.2036154111
 31
0.0
  0
LINE
  5
DA
330
88
100
AcDbEntity
  8
0
100
AcDbLine
 10
43.1335424312
 20
5.7987890837
 30
0.0
 11
43.5118069059
 21
7.6253591428
 31
0.0
  0
LINE
  5
DB
330
88
100
AcDbEntity
  8
0
100
AcDbLine
 10
39.5233216314
 20
10.3729622501
 30
0.0
 11
38.5156402539
 21
3.7877349597
 31
0.0
  0
LINE
  5
DC
330
88
100
AcDbEntity
  8
0
100
AcDbLine
 10
40.5456632502
 20
3.4498464879
 30
0.0
 11
40.8995784175
 21
5.4168242902
 31
0.0
  0
LINE
  5
DD
330
88
100
AcDbEntity
  8
0
100
AcDbLine
 10
42.9714290849
 20
5.0159733441
 30
0.0
 11
42.5661457191
 21
3.0589339951
 31
0.0
  0
LINE
  5
DE
330
88
100
AcDbEntity
  8
0
100
AcDbLine
 10
44.5757029231
 20
2.615265393
 30
0.0
 11
46.0969489335
 21
9.1011308557
 31
0.0
  0
LINE
  5
DF
330
88
100
AcDbEntity
  8
0
100
AcDbLine
 10
52.3579252577
 20
5.279853362
 30
0.0
 11
52.975515464
 21
7.1806005722
 31
0.0
  0
LINE
  5
E0
330
88
100
AcDbEntity
  8
0
100
AcDbLine
 10
46.5313669062
 20
8.9980384304
 30
0.0
 11
44.9761819916
 21
2.5202270634
 31
0.0
  0
LINE
  5
E1
330
88
100
AcDbEntity
  8
0
100
AcDbLine
 10
50.9168814433
 20
0.8447765379
 30
0.0
 11
52.1108891753
 21
4.5195544778
 31
0.0
  0
LINE
  5
E2
330
88
100
AcDbEntity
  8
0
100
AcDbLine
 10
48.5958735018
 20
5.5757816996
 30
0.0
 11
48.3119203709
 21
4.5483990984
 31
0.0
  0
LINE
  5
E3
330
88
100
AcDbEntity
  8
0
100
AcDbLine
 10
49.6780439128
 20
4.1579593452
 30
0.0
 11
49.4516637761
 21
3.3912564999
 31
0.0
  0
LINE
  5
E4
330
88
100
AcDbEntity
  8
0
100
AcDbLine
 10
47.4880780303
 20
3.9441201442
 30
0.0
 11
48.1777665602
 21
6.5180727792
 31
0.0
  0
LINE
  5
E5
330
88
100
AcDbEntity
  8
0
100
AcDbLine
 10
53.25
 20
8.0253771102
 30
0.0
 11
53.112757732
 21
7.6029888412
 31
0.0
  0
LINE
  5
E6
330
88
100
AcDbEntity
  8
0
100
AcDbLine
 10
0.137242268
 20
7.6029888412
 30
0.0
 11
0.0
 21
8.0253771102
 31
0.0
  0
LINE
  5
E7
330
88
100
AcDbEntity
  8
0
100
AcDbLine
 10
2.6076030928
 20
0.0
 30
0.0
 11
2.4703608248
 21
0.422388269
 31
0.0
  0
LINE
  5
E8
330
88
100
AcDbEntity
  8
0
100
AcDbLine
 10
50.7796391753
 20
0.422388269
 30
0.0
 11
50.6423969072
 21
0.0
 31
0.0
  0
HATCH
  5
E9
330
88
100
AcDbEntity
  8
HACHURS
100
AcDbHatch
 10
0.0
 20
0.0
 30
0.0
210
0.0
220
0.0
230
1.0
  2
SOLID
 70
     1
 71
     0
 91
        1
 92
        0
 93
       12
 72
     2
 10
26.62499999998602
 20
-73.91794706697539
 40
81.40816909695889
 50
251.999999999978
 51
255.0000000000042
 73
     0
 72
     1
 10
5.555015410771219
 20
4.716305934686065
 11
5.761921969755036
 21
3.944120144162816
 72
     2
 10
26.62499999998602
 20
-73.91794706697539
 40
80.6087435411774
 50
104.9999999999923
 51
108.0000000000009
 73
     1
 72
     1
 10
1.715528350549167
 20
2.745523748225849
 11
2.333118556705732
 21
0.8447765379196586
 72
     2
 10
26.62499999998602
 20
-73.91794706697539
 40
78.61017965172395
 50
251.9999999999779
 51
256.5000000000061
 73
     0
 72
     1
 10
8.273818008418365
 20
2.5202270634202
 11
7.371810757983742
 21
6.277357656275711
 72
     2
 10
26.62499999998602
 20
-73.91794706697539
 40
82.47406983800091
 50
103.4999999999949
 51
106.4999999999623
 73
     1
 72
     1
 10
3.201098625862903
 20
5.159818708612936
 11
2.974049501021588
 21
5.926323708039069
 72
     2
 10
26.62499999998602
 20
-73.91794706697539
 40
83.27349539378235
 50
253.5000000000016
 51
256.5000000000036
 73
     0
 72
     1
 10
7.185188568235357
 20
7.054695020314007
 11
6.718633093875892
 21
8.998038430412455
 72
     2
 10
26.62499999998602
 20
-73.91794706697539
 40
85.27205928323595
 50
103.499999999995
 51
108.0000000000008
 73
     1
 72
     1
 10
0.2744845361169201
 20
7.180600572252429
 11
1.468492268045463
 21
3.505822632335081
 97
        0
 75
     0
 76
     1
 98
        1
 10
0.0
 20
0.0
  0
HATCH
  5
EA
330
88
100
AcDbEntity
  8
HACHURS
100
AcDbHatch
 10
0.0
 20
0.0
 30
0.0
210
0.0
220
0.0
230
1.0
  2
SOLID
 70
     1
 71
     0
 91
        1
 92
        0
 93
        8
 72
     1
 10
12.29943260213601
 20
3.375897860069258
 11
11.44961080734458
 21
7.961125948968453
 72
     2
 10
26.62499999998602
 20
-73.91794706697539
 40
83.27349539378302
 50
259.5000000000096
 51
260.7000000000112
 73
     0
 72
     1
 10
13.16768494773241
 20
8.260977887557784
 11
12.84470938649046
 21
10.23327208647122
 72
     2
 10
26.62499999998602
 20
-73.91794706697539
 40
85.27205928323644
 50
99.29999999998107
 51
103.1999999999947
 73
     1
 72
     1
 10
7.153051066539297
 20
9.101130855734839
 11
7.609424869625904
 21
7.155371216908579
 72
     2
 10
26.62499999998602
 20
-73.91794706697539
 40
83.27349539378254
 50
256.7999999999766
 51
258.0000000000079
 73
     0
 72
     1
 10
9.3114667723698
 20
7.535822657172748
 11
10.28102463316599
 21
2.974411552624429
 72
     2
 10
26.62499999998602
 20
-73.91794706697539
 40
78.6101796517243
 50
258.0000000000439
 51
259.5000000000113
 73
     0
 97
        0
 75
     0
 76
     1
 98
        1
 10
0.0
 20
0.0
  0
HATCH
  5
EB
330
88
100
AcDbEntity
  8
HACHURS
100
AcDbHatch
 10
0.0
 20
0.0
 30
0.0
210
0.0
220
0.0
230
1.0
  2
SOLID
 70
     1
 71
     0
 91
        1
 92
        0
 93
       12
 72
     1
 10
15.85997370710865
 20
7.850545670492766
 11
15.75562773339989
 21
8.64313202983012
 72
     2
 10
26.62499999998602
 20
-73.91794706697539
 40
83.27349539378424
 50
262.5000000000137
 51
265.5000000000179
 73
     0
 72
     1
 10
20.09143685331763
 20
9.098843931635871
 11
19.93463133776233
 21
11.0912469156024
 72
     2
 10
26.62499999998602
 20
-73.91794706697539
 40
85.2720592832377
 50
94.50000000000652
 51
98.99999999998911
 73
     1
 72
     1
 10
13.2855110231499
 20
10.3042716656184
 11
14.32765859946783
 21
3.724410827125665
 72
     2
 10
26.62499999998602
 20
-73.91794706697539
 40
78.61017965172559
 50
261.0000000000126
 51
265.4999999999957
 73
     0
 72
     1
 10
20.45731638950116
 20
4.449903635704546
 11
20.30051087401208
 21
6.442306619676645
 72
     2
 10
26.62499999998602
 20
-73.91794706697539
 40
80.60874354117942
 50
94.49999999998236
 51
97.50000000002231
 73
     1
 72
     1
 10
16.10344764588206
 20
6.001177498722168
 11
15.99910167217217
 21
6.79376385805895
 72
     2
 10
26.62499999998602
 20
-73.91794706697539
 40
81.40816909696068
 50
262.5000000000139
 51
264.0000000000323
 73
     0
 72
     1
 10
18.11552918689191
 20
7.044259561799521
 11
18.00411222041215
 21
8.104321187052552
 72
     2
 10
26.62499999998602
 20
-73.91794706697539
 40
82.47406983800255
 50
95.99999999998487
 51
97.50000000002261
 73
     1
 97
        0
 75
     0
 76
     1
 98
        1
 10
0.0
 20
0.0
  0
HATCH
  5
EC
330
88
100
AcDbEntity
  8
HACHURS
100
AcDbHatch
 10
0.0
 20
0.0
 30
0.0
210
0.0
220
0.0
230
1.0
  2
SOLID
 70
     1
 71
     0
 91
        1
 92
        0
 93
       12
 72
     1
 10
27.0610170100741
 20
9.354406834339837
 11
27.07148141825693
 21
11.35294332797405
 72
     2
 10
26.62499999998602
 20
-73.91794706697539
 40
85.27205928323968
 50
89.69999999997769
 51
94.19999999998333
 73
     1
 72
     1
 10
20.37982811274575
 20
11.12511215894361
 11
20.86773216643906
 21
4.481123156909913
 72
     2
 10
26.62499999998602
 20
-73.91794706697539
 40
78.61017965172762
 50
265.8000000000189
 51
270.3000000000644
 73
     0
 72
     1
 10
27.03660005751105
 20
4.691155015859392
 11
27.0470644656971
 21
6.689691509494312
 72
     2
 10
26.62499999998602
 20
-73.91794706697539
 40
80.60874354118155
 50
89.69999999997634
 51
92.699999999953
 73
     1
 72
     1
 10
22.82780819566318
 20
6.601310689720092
 11
22.79015009508489
 21
7.399848783173842
 72
     2
 10
26.62499999998602
 20
-73.91794706697539
 40
81.40816909696267
 50
267.30000000002
 51
268.7999999999979
 73
     0
 72
     1
 10
24.920115940818
 20
7.472367873221673
 11
24.89779339997944
 21
8.53803484461763
 72
     2
 10
26.62499999998602
 20
-73.91794706697539
 40
82.4740698380046
 50
91.199999999979
 51
92.69999999995343
 73
     1
 72
     1
 10
22.73993929440537
 20
8.464566241116968
 11
22.70228119382614
 21
9.263104334571445
 72
     2
 10
26.62499999998602
 20
-73.91794706697539
 40
83.27349539378645
 50
267.3000000000195
 51
270.300000000063
 73
     0
 97
        0
 75
     0
 76
     1
 98
        1
 10
0.0
 20
0.0
  0
HATCH
  5
ED
330
88
100
AcDbEntity
  8
HACHURS
100
AcDbHatch
 10
0.0
 20
0.0
 30
0.0
210
0.0
220
0.0
230
1.0
  2
SOLID
 70
     1
 71
     0
 91
        1
 92
        0
 93
        6
 72
     1
 10
31.56097402061059
 20
4.537113351999384
 11
31.68646488558069
 21
6.531733532143712
 72
     2
 10
26.62499999998602
 20
-73.91794706697539
 40
80.60874354118408
 50
86.39999999997255
 51
87.8999999999574
 73
     1
 72
     1
 10
29.57880331757057
 20
6.636659140549541
 11
29.7496845012305
 21
11.29684297074253
 72
     2
 10
26.62499999998602
 20
-73.91794706697539
 40
85.27205928324157
 50
87.89999999995888
 51
89.39999999997772
 73
     1
 72
     1
 10
27.517950595981
 20
11.34943669515124
 11
27.44818883067157
 21
4.687922338726743
 72
     2
 10
26.62499999998602
 20
-73.91794706697539
 40
78.61017965172998
 50
270.6000000000251
 51
273.6000000000006
 73
     0
 97
        0
 75
     0
 76
     1
 98
        1
 10
0.0
 20
0.0
  0
HATCH
  5
EE
330
88
100
AcDbEntity
  8
HACHURS
100
AcDbHatch
 10
0.0
 20
0.0
 30
0.0
210
0.0
220
0.0
230
1.0
  2
SOLID
 70
     1
 71
     0
 91
        1
 92
        0
 93
       12
 72
     1
 10
36.62921449528345
 20
8.752426873342202
 11
36.06897848361301
 21
4.122885932671071
 72
     2
 10
26.62499999998602
 20
-73.91794706697539
 40
78.61017965173414
 50
276.9000000000331
 51
278.4000000000358
 73
     0
 72
     1
 10
38.10861311939412
 20
3.848928751728266
 11
39.08180067195233
 21
10.43934195670148
 72
     2
 10
26.62499999998602
 20
-73.91794706697539
 40
85.27205928324501
 50
81.59999999992095
 51
86.09999999997424
 73
     1
 72
     1
 10
32.42480389779845
 20
11.15664590385328
 11
31.97169421828444
 21
4.510193327997386
 72
     2
 10
26.62499999998602
 20
-73.91794706697539
 40
78.61017965173178
 50
273.900000000029
 51
275.4000000000292
 73
     0
 72
     1
 10
34.02287141671473
 20
4.343357824900095
 11
34.46172819567334
 21
8.985977606628792
 72
     2
 10
26.62499999998602
 20
-73.91794706697539
 40
83.27349539379092
 50
275.4000000000289
 51
275.7499999999891
 73
     0
 72
     1
 10
34.96801008713518
 20
8.936559254560589
 11
34.78112666124116
 21
7.08061831295028
 72
     2
 10
26.62499999998602
 20
-73.91794706697539
 40
81.40816909696797
 50
275.7500000000304
 51
276.5500000000417
 73
     0
 72
     1
 10
35.91124821177717
 20
6.958845586229741
 11
36.12402640319325
 21
8.811996318059231
 72
     2
 10
26.62499999998602
 20
-73.91794706697539
 40
83.27349539379178
 50
276.5500000000303
 51
276.899999999984
 73
     0
 97
        0
 75
     0
 76
     1
 98
        1
 10
0.0
 20
0.0
  0
HATCH
  5
EF
330
88
100
AcDbEntity
  8
HACHURS
100
AcDbHatch
 10
0.0
 20
0.0
 30
0.0
210
0.0
220
0.0
230
1.0
  2
SOLID
 70
     1
 71
     0
 91
        2
 92
        0
 93
        8
 72
     1
 10
42.97142908486746
 20
5.015973344102653
 11
42.56614571910301
 21
3.05893399507141
 72
     2
 10
26.62499999998602
 20
-73.91794706697539
 40
78.6101796517386
 50
281.7000000000391
 51
283.2000000000725
 73
     0
 72
     1
 10
44.57570292311126
 20
2.615265393003864
 11
46.09694893354244
 21
9.101130855722273
 72
     2
 10
26.62499999998602
 20
-73.91794706697539
 40
85.27205928324925
 50
76.79999999993166
 51
81.29999999996869
 73
     1
 72
     1
 10
39.52332163138589
 20
10.37296225009711
 11
38.51564025393517
 21
3.787734959690658
 72
     2
 10
26.62499999998602
 20
-73.91794706697539
 40
78.61017965173572
 50
278.7000000000349
 51
280.2000000000857
 73
     0
 72
     1
 10
40.54566325020404
 20
3.449846487915374
 11
40.89957841751391
 21
5.416824290174855
 72
     2
 10
26.62499999998602
 20
-73.91794706697539
 40
80.60874354119075
 50
280.2000000000356
 51
281.7000000000564
 73
     0
 97
        0
 92
        0
 93
        4
 72
     2
 10
26.62499999998602
 20
-73.91794706697539
 40
81.40816909697222
 50
78.29999999994479
 51
79.79999999996554
 73
     1
 72
     1
 10
41.04114448446428
 20
6.203615411073368
 11
41.37146530734847
 21
8.039461359836446
 72
     2
 10
26.62499999998602
 20
-73.91794706697539
 40
83.27349539379557
 50
280.2000000000345
 51
281.7000000000551
 73
     0
 72
     1
 10
43.51180690585415
 20
7.625359142819761
 11
43.13354243116346
 21
5.798789083717823
 97
        0
 75
     0
 76
     1
 98
        1
 10
0.0
 20
0.0
  0
HATCH
  5
F0
330
88
100
AcDbEntity
  8
HACHURS
100
AcDbHatch
 10
0.0
 20
0.0
 30
0.0
210
0.0
220
0.0
230
1.0
  2
SOLID
 70
     1
 71
     0
 91
        1
 92
        0
 93
       12
 72
     1
 10
47.48807803028454
 20
3.944120144163635
 11
48.17776656021388
 21
6.518072779246466
 72
     2
 10
26.62499999998602
 20
-73.91794706697539
 40
83.27349539380143
 50
285.00000000004
 51
288.0000000000458
 73
     0
 72
     1
 10
52.35792525773675
 20
5.279853361953704
 11
52.97551546395274
 21
7.180600572239938
 72
     2
 10
26.62499999998602
 20
-73.91794706697539
 40
85.27205928325424
 50
71.99999999993419
 51
76.49999999996321
 73
     1
 72
     1
 10
46.53136690616088
 20
8.998038430415708
 11
44.97618199161868
 21
2.520227063423333
 72
     2
 10
26.62499999998602
 20
-73.91794706697539
 40
78.61017965174216
 50
283.500000000041
 51
288.0000000000704
 73
     0
 72
     1
 10
50.9168814433329
 20
0.8447765379171502
 11
52.11088917526274
 21
4.519554477835058
 72
     2
 10
26.62499999998602
 20
-73.91794706697539
 40
82.47406983802017
 50
71.99999999995455
 51
74.54999999993188
 73
     1
 72
     1
 10
48.59587350176741
 20
5.575781699609407
 11
48.31192037085363
 21
4.548399098433041
 72
     2
 10
26.62499999998602
 20
-73.91794706697539
 40
81.40816909697736
 50
285.4500000000442
 51
286.4500000000639
 73
     0
 72
     1
 10
49.67804391279241
 20
4.157959345158451
 11
49.45166377614441
 21
3.391256499873462
 72
     2
 10
26.62499999998602
 20
-73.91794706697539
 40
80.60874354119566
 50
73.54999999995495
 51
74.99999999996155
 73
     1
 97
        0
 75
     0
 76
     1
 98
        1
 10
0.0
 20
0.0
  0
HATCH
  5
F1
330
88
100
AcDbEntity
  8
HACHURS
100
AcDbHatch
 10
0.0
 20
0.0
 30
0.0
210
0.0
220
0.0
230
1.0
  2
SOLID
 70
     1
 71
     0
 91
        1
 92
        0
 93
        4
 72
     2
 10
26.62499999998602
 20
-73.91794706697539
 40
78.16605434296689
 50
71.9999999999301
 51
108.000000000001
 73
     1
 72
     1
 10
2.470360824772255
 20
0.4223882689839766
 11
2.607603092785182
 21
0.0000000000198696
 72
     2
 10
26.62499999998602
 20
-73.91794706697539
 40
77.7219290341994
 50
251.9999999999779
 51
288.000000000071
 73
     0
 72
     1
 10
50.64239690724781
 20
0.0000000000000017
 11
50.77963917528916
 21
0.4223882689548646
 97
        0
 75
     0
 76
     1
 98
        1
 10
0.0
 20
0.0
  0
HATCH
  5
F2
330
88
100
AcDbEntity
  8
HACHURS
100
AcDbHatch
 10
0.0
 20
0.0
 30
0.0
210
0.0
220
0.0
230
1.0
  2
SOLID
 70
     1
 71
     0
 91
        1
 92
        0
 93
        4
 72
     2
 10
26.62499999998602
 20
-73.91794706697539
 40
85.71618459201416
 50
251.9999999999782
 51
288.0000000000663
 73
     0
 72
     1
 10
53.11275773199159
 20
7.602988841187639
 11
53.25000000000002
 21
8.02537711015313
 72
     2
 10
26.62499999998602
 20
-73.91794706697539
 40
86.16030990078158
 50
71.99999999995774
 51
108.0000000000227
 73
     1
 72
     1
 10
-0.0000000000000004
 20
8.02537711016223
 11
0.1372422680414316
 21
7.602988841207463
 97
        0
 75
     0
 76
     1
 98
        1
 10
0.0
 20
0.0
  0
ENDBLK
  5
8A
330
88
100
AcDbEntity
  8
0
100
AcDbBlockEnd
  0
BLOCK
  5
112
330
111
100
AcDbEntity
  8
0
100
AcDbBlockBegin
  2
SW_NOTE_0
 70
     0
 10
0.0
 20
0.0
 30
0.0
  3
SW_NOTE_0
  1

  0
MTEXT
  5
115
330
111
100
AcDbEntity
  8
TEXTE
 62
     0
100
AcDbMText
 10
0.0
 20
2.5781354795
 30
0.0
 40
2.0
 41
0.0
 71
     1
 72
     1
  1
Ce document est la propriété exclusive de Steelmag International SAS
  7
SLDTEXTSTYLE1
 73
     1
 44
1.0
  0
MTEXT
  5
116
330
111
100
AcDbEntity
  8
TEXTE
 62
     0
100
AcDbMText
 10
0.0
 20
-0.4218645465
 30
0.0
 40
2.0
 41
0.0
 71
     1
 72
     1
  1
Il est interdit d'en faire usage ou de le communiquer sans autorisation expresse
  7
SLDTEXTSTYLE1
 73
     1
 44
1.0
  0
ENDBLK
  5
113
330
111
100
AcDbEntity
  8
0
100
AcDbBlockEnd
  0
BLOCK
  5
11E
330
11D
100
AcDbEntity
  8
0
100
AcDbBlockBegin
  2
SW_NOTE_0_1
 70
     0
 10
0.0
 20
0.0
 30
0.0
  3
SW_NOTE_0_1
  1

  0
MTEXT
  5
120
330
11D
100
AcDbEntity
  8
TEXTE
 62
     0
100
AcDbMText
 10
0.0
 20
3.2226693494
 30
0.0
 40
2.5
 41
0.0
 71
     1
 72
     1
  1
Steelmag International SAS
  7
SLDTEXTSTYLE1
 73
     1
 44
1.0
  0
MTEXT
  5
121
330
11D
100
AcDbEntity
  8
TEXTE
 62
     0
100
AcDbMText
 10
0.0
 20
-0.2773307586
 30
0.0
 40
2.5
 41
0.0
 71
     1
 72
     1
  1
105, rue de Vaugraine
  7
SLDTEXTSTYLE1
 73
     1
 44
1.0
  0
MTEXT
  5
122
330
11D
100
AcDbEntity
  8
TEXTE
 62
     0
100
AcDbMText
 10
0.0
 20
-3.7773308666
 30
0.0
 40
2.5
 41
0.0
 71
     1
 72
     1
  1
F38830 Saint Pierre d'Allevard
  7
SLDTEXTSTYLE1
 73
     1
 44
1.0
  0
ENDBLK
  5
11F
330
11D
100
AcDbEntity
  8
0
100
AcDbBlockEnd
  0
BLOCK
  5
125
330
124
100
AcDbEntity
  8
0
100
AcDbBlockBegin
  2
SW_NOTE_0_2
 70
     0
 10
0.0
 20
0.0
 30
0.0
  3
SW_NOTE_0_2
  1

  0
MTEXT
  5
127
330
124
100
AcDbEntity
  8
TEXTE
 62
     0
100
AcDbMText
 10
14.296875
 20
6.4453386989
 30
0.0
 40
5.0
 41
0.0
 71
     2
 72
     1
  1
FINITION
  7
SLDTEXTSTYLE1
 73
     1
 44
1.0
  0
MTEXT
  5
128
330
124
100
AcDbEntity
  8
TEXTE
 62
     0
100
AcDbMText
 10
13.8854084536
 20
-0.0129945289
 30
0.0
 40
5.0
 41
0.0
 71
     2
 72
     1
  1
BROCHE RECTIFIEUSES
  7
SLDTEXTSTYLE1
 73
     1
 44
1.0
  0
MTEXT
  5
129
330
124
100
AcDbEntity
  8
TEXTE
 62
     0
100
AcDbMText
 10
13.8072900102
 20
-6.4713277567
 30
0.0
 40
5.0
 41
0.0
 71
     2
 72
     1
  1
RONDELLE ARRIERE ARBRE
  7
SLDTEXTSTYLE1
 73
     1
 44
1.0
  0
ENDBLK
  5
126
330
124
100
AcDbEntity
  8
0
100
AcDbBlockEnd
  0
BLOCK
  5
12F
330
12E
100
AcDbEntity
  8
0
100
AcDbBlockBegin
  2
SW_NOTE_0_3
 70
     0
 10
0.0
 20
0.0
 30
0.0
  3
SW_NOTE_0_3
  1

  0
MTEXT
  5
132
330
12E
100
AcDbEntity
  8
TEXTE
 62
     0
100
AcDbMText
 10
0.0
 20
3.2226693494
 30
0.0
 40
2.5
 41
0.0
 71
     1
 72
     1
  1
Tel :  +33 4 76 45 38 45
  7
SLDTEXTSTYLE2
 73
     1
 44
1.0
  0
MTEXT
  5
134
330
12E
100
AcDbEntity
  8
TEXTE
 62
     0
100
AcDbMText
 10
0.0
 20
-0.2773307586
 30
0.0
 40
2.5
 41
0.0
 71
     1
 72
     1
  1
Fax : +33 4 76 45 87 93
  7
SLDTEXTSTYLE3
 73
     1
 44
1.0
  0
ENDBLK
  5
130
330
12E
100
AcDbEntity
  8
0
100
AcDbBlockEnd
  0
BLOCK
  5
13F
330
13E
100
AcDbEntity
  8
0
100
AcDbBlockBegin
  2
_None
 70
     0
 10
0.0
 20
0.0
 30
0.0
  3
_None
  1

  0
ENDBLK
  5
140
330
13E
100
AcDbEntity
  8
0
100
AcDbBlockEnd
  0
BLOCK
  5
142
330
141
100
AcDbEntity
  8
0
100
AcDbBlockBegin
  2
_D
 70
     0
 10
0.0
 20
0.0
 30
0.0
  3
_D
  1

  0
SOLID
  5
144
330
141
100
AcDbEntity
  8
COTES
100
AcDbTrace
 10
81.4088030586
 20
198.5798565107
 30
0.0
 11
83.9975215364
 21
200.6916814662
 31
0.0
 12
83.2430438167
 22
201.3721367333
 32
0.0
 13
83.2430438167
 23
201.3721367333
 33
0.0
  0
LINE
  5
145
330
141
100
AcDbEntity
  8
COTES
100
AcDbLine
 10
81.4088030586
 20
198.5798565107
 30
0.0
 11
90.0769076303
 21
208.1909097099
 31
0.0
  0
LINE
  5
146
330
141
100
AcDbEntity
  8
COTES
100
AcDbLine
 10
44.573134074
 20
157.7370665662
 30
0.0
 11
81.4088030586
 21
198.5798565107
 31
0.0
  0
LINE
  5
147
330
141
100
AcDbEntity
  8
COTES
100
AcDbLine
 10
90.0769076303
 20
208.1909097099
 30
0.0
 11
115.2886787847
 21
208.1909097099
 31
0.0
  0
MTEXT
  5
148
330
141
100
AcDbEntity
  8
COTES
100
AcDbMText
 10
91.6644076303
 20
212.7026467991
 30
0.0
 40
3.5
 41
0.0
 71
     1
 72
     1
  1
%%c
  7
SLDTEXTSTYLE0
 73
     1
 44
1.0
  0
MTEXT
  5
149
330
141
100
AcDbEntity
  8
COTES
100
AcDbMText
 10
96.9428450287
 20
212.7561189757
 30
0.0
 40
3.5
 41
0.0
 71
     1
 72
     1
  1
55
  7
SLDTEXTSTYLE0
 73
     1
 44
1.0
  0
MTEXT
  5
14A
330
141
100
AcDbEntity
  8
COTES
100
AcDbMText
 10
103.42756695
 20
212.7561189757
 30
0.0
 40
3.5
 41
0.0
 71
     1
 72
     1
  1

  7
SLDTEXTSTYLE0
 73
     1
 44
1.0
  0
MTEXT
  5
14B
330
141
100
AcDbEntity
  8
COTES
100
AcDbMText
 10
103.4081226632
 20
217.2283413295
 30
0.0
 40
3.5
 41
0.0
 71
     1
 72
     1
  1
+
  7
SLDTEXTSTYLE0
 73
     1
 44
1.0
  0
MTEXT
  5
14C
330
141
100
AcDbEntity
  8
COTES
100
AcDbMText
 10
103.4081226632
 20
212.7026467991
 30
0.0
 40
3.5
 41
0.0
 71
     1
 72
     1
  1
+
  7
SLDTEXTSTYLE0
 73
     1
 44
1.0
  0
MTEXT
  5
14D
330
141
100
AcDbEntity
  8
COTES
100
AcDbMText
 10
106.2372897238
 20
217.2283413295
 30
0.0
 40
3.5
 41
0.0
 71
     1
 72
     1
  1
0.05
  7
SLDTEXTSTYLE0
 73
     1
 44
1.0
  0
MTEXT
  5
14E
330
141
100
AcDbEntity
  8
COTES
100
AcDbMText
 10
106.2372897238
 20
212.7026467991
 30
0.0
 40
3.5
 41
0.0
 71
     1
 72
     1
  1
0.15
  7
SLDTEXTSTYLE0
 73
     1
 44
1.0
  0
ENDBLK
  5
143
330
141
100
AcDbEntity
  8
0
100
AcDbBlockEnd
  0
BLOCK
  5
152
330
151
100
AcDbEntity
  8
0
100
AcDbBlockBegin
  2
_D_1
 70
     0
 10
0.0
 20
0.0
 30
0.0
  3
_D_1
  1

  0
SOLID
  5
154
330
151
100
AcDbEntity
  8
COTES
100
AcDbTrace
 10
76.7228926796
 20
207.6149423219
 30
0.0
 11
78.578483623
 21
210.3930802326
 31
0.0
 12
77.657628716
 22
210.8223613064
 32
0.0
 13
77.657628716
 23
210.8223613064
 33
0.0
  0
LINE
  5
155
330
151
100
AcDbEntity
  8
COTES
100
AcDbLine
 10
76.7228926796
 20
207.6149423219
 30
0.0
 11
82.0016135011
 21
218.9383764712
 31
0.0
  0
LINE
  5
156
330
151
100
AcDbEntity
  8
COTES
100
AcDbLine
 10
82.0016135011
 20
218.9383764712
 30
0.0
 11
94.0397737522
 21
218.9383764712
 31
0.0
  0
MTEXT
  5
157
330
151
100
AcDbEntity
  8
COTES
100
AcDbMText
 10
83.5891135011
 20
223.4501135604
 30
0.0
 40
3.5
 41
0.0
 71
     1
 72
     1
  1
%%c
  7
SLDTEXTSTYLE0
 73
     1
 44
1.0
  0
MTEXT
  5
158
330
151
100
AcDbEntity
  8
COTES
100
AcDbMText
 10
88.8675508995
 20
223.503585737
 30
0.0
 40
3.5
 41
0.0
 71
     1
 72
     1
  1
65
  7
SLDTEXTSTYLE0
 73
     1
 44
1.0
  0
ENDBLK
  5
153
330
151
100
AcDbEntity
  8
0
100
AcDbBlockEnd
  0
BLOCK
  5
15A
330
159
100
AcDbEntity
  8
0
100
AcDbBlockBegin
  2
SW_CENTERMARKSYMBOL_0
 70
     0
 10
0.0
 20
0.0
 30
0.0
  3
SW_CENTERMARKSYMBOL_0
  1

  0
LINE
  5
15C
330
159
100
AcDbEntity
  8
AXES
 62
     0
100
AcDbLine
 10
0.0
 20
0.0
 30
0.0
 11
0.0
 21
2.5
 31
0.0
  0
LINE
  5
15D
330
159
100
AcDbEntity
  8
AXES
 62
     0
100
AcDbLine
 10
0.0
 20
0.0
 30
0.0
 11
-2.5
 21
0.0
 31
0.0
  0
LINE
  5
15E
330
159
100
AcDbEntity
  8
AXES
 62
     0
100
AcDbLine
 10
0.0
 20
0.0
 30
0.0
 11
0.0
 21
-2.5
 31
0.0
  0
LINE
  5
15F
330
159
100
AcDbEntity
  8
AXES
 62
     0
100
AcDbLine
 10
0.0
 20
0.0
 30
0.0
 11
2.5
 21
0.0
 31
0.0
  0
LINE
  5
160
330
159
100
AcDbEntity
  8
AXES
 62
     0
100
AcDbLine
 10
0.0
 20
5.0
 30
0.0
 11
0.0
 21
35.0
 31
0.0
  0
LINE
  5
161
330
159
100
AcDbEntity
  8
AXES
 62
     0
100
AcDbLine
 10
-5.0
 20
0.0
 30
0.0
 11
-35.0
 21
0.0
 31
0.0
  0
LINE
  5
162
330
159
100
AcDbEntity
  8
AXES
 62
     0
100
AcDbLine
 10
0.0
 20
-5.0
 30
0.0
 11
0.0
 21
-35.0
 31
0.0
  0
LINE
  5
163
330
159
100
AcDbEntity
  8
AXES
 62
     0
100
AcDbLine
 10
5.0
 20
0.0
 30
0.0
 11
35.0
 21
0.0
 31
0.0
  0
ENDBLK
  5
15B
330
159
100
AcDbEntity
  8
0
100
AcDbBlockEnd
  0
BLOCK
  5
185
330
184
100
AcDbEntity
  8
0
100
AcDbBlockBegin
  2
_D_2
 70
     0
 10
0.0
 20
0.0
 30
0.0
  3
_D_2
  1

  0
SOLID
  5
187
330
184
100
AcDbEntity
  8
COTES
100
AcDbTrace
 10
157.841210668
 20
220.6584615385
 30
0.0
 11
154.539210668
 21
221.1664615385
 31
0.0
 12
154.539210668
 22
220.1504615385
 32
0.0
 13
154.539210668
 23
220.1504615385
 33
0.0
  0
SOLID
  5
188
330
184
100
AcDbEntity
  8
COTES
100
AcDbTrace
 10
167.841210668
 20
220.6584615385
 30
0.0
 11
171.143210668
 21
220.1504615385
 31
0.0
 12
171.143210668
 22
221.1664615385
 32
0.0
 13
171.143210668
 23
221.1664615385
 33
0.0
  0
LINE
  5
189
330
184
100
AcDbEntity
  8
COTES
100
AcDbLine
 10
157.841210668
 20
211.1584615385
 30
0.0
 11
157.841210668
 21
221.6584615385
 31
0.0
  0
LINE
  5
18A
330
184
100
AcDbEntity
  8
COTES
100
AcDbLine
 10
167.841210668
 20
211.1584615385
 30
0.0
 11
167.841210668
 21
221.6584615385
 31
0.0
  0
LINE
  5
18B
330
184
100
AcDbEntity
  8
COTES
100
AcDbLine
 10
157.841210668
 20
220.6584615385
 30
0.0
 11
151.491210668
 21
220.6584615385
 31
0.0
  0
LINE
  5
18C
330
184
100
AcDbEntity
  8
COTES
100
AcDbLine
 10
157.841210668
 20
220.6584615385
 30
0.0
 11
167.841210668
 21
220.6584615385
 31
0.0
  0
LINE
  5
18D
330
184
100
AcDbEntity
  8
COTES
100
AcDbLine
 10
167.841210668
 20
220.6584615385
 30
0.0
 11
174.191210668
 21
220.6584615385
 31
0.0
  0
MTEXT
  5
18E
330
184
100
AcDbEntity
  8
COTES
100
AcDbMText
 10
160.3367611596
 20
225.170198453
 30
0.0
 40
3.5
 41
0.0
 71
     1
 72
     1
  1
10
  7
SLDTEXTSTYLE0
 73
     1
 44
1.0
  0
ENDBLK
  5
186
330
184
100
AcDbEntity
  8
0
100
AcDbBlockEnd
  0
BLOCK
  5
190
330
18F
100
AcDbEntity
  8
0
100
AcDbBlockBegin
  2
SW_CHAMFER_DIMENSION_0
 70
     0
 10
0.0
 20
0.0
 30
0.0
  3
SW_CHAMFER_DIMENSION_0
  1

  0
SOLID
  5
192
330
18F
100
AcDbEntity
  8
COTES
 62
     0
100
AcDbTrace
 10
-5.9402968115
 20
7.9797225861
 30
0.0
 11
-4.3760496996
 21
5.0277065
 31
0.0
 12
-3.5610736326
 22
5.634394237
 32
0.0
 13
-3.5610736326
 23
5.634394237
 33
0.0
  0
LINE
  5
193
330
18F
100
AcDbEntity
  8
COTES
 62
     0
100
AcDbLine
 10
-5.9402968115
 20
7.9797225861
 30
0.0
 11
0.0
 21
0.0000001746
 31
0.0
  0
LINE
  5
194
330
18F
100
AcDbEntity
  8
COTES
 62
     0
100
AcDbLine
 10
0.0
 20
0.0000001746
 30
0.0
 11
18.3312501758
 21
0.0000001746
 31
0.0
  0
MTEXT
  5
195
330
18F
100
AcDbEntity
  8
COTES
 62
     0
100
AcDbMText
 10
0.0
 20
4.5117370892
 30
0.0
 40
3.5
 41
0.0
 71
     1
 72
     1
  1
0.5
  7
SLDTEXTSTYLE0
 73
     1
 44
1.0
  0
MTEXT
  5
196
330
18F
100
AcDbEntity
  8
COTES
 62
     0
100
AcDbMText
 10
7.7777781002
 20
4.5117370892
 30
0.0
 40
3.5
 41
0.0
 71
     1
 72
     1
  1
x
  7
SLDTEXTSTYLE0
 73
     1
 44
1.0
  0
MTEXT
  5
197
330
18F
100
AcDbEntity
  8
COTES
 62
     0
100
AcDbMText
 10
11.2923616543
 20
4.5117370892
 30
0.0
 40
3.5
 41
0.0
 71
     1
 72
     1
  1
45°
  7
SLDTEXTSTYLE0
 73
     1
 44
1.0
  0
ENDBLK
  5
191
330
18F
100
AcDbEntity
  8
0
100
AcDbBlockEnd
  0
BLOCK
  5
19A
330
199
100
AcDbEntity
  8
0
100
AcDbBlockBegin
  2
SW_CHAMFER_DIMENSION_1
 70
     0
 10
0.0
 20
0.0
 30
0.0
  3
SW_CHAMFER_DIMENSION_1
  1

  0
SOLID
  5
19C
330
199
100
AcDbEntity
  8
COTES
 62
     0
100
AcDbTrace
 10
22.7963746767
 20
7.7338226722
 30
0.0
 11
20.7054337716
 21
5.1282067889
 31
0.0
 12
21.5853155818
 22
4.6202067889
 32
0.0
 13
21.5853155818
 23
4.6202067889
 33
0.0
  0
LINE
  5
19D
330
199
100
AcDbEntity
  8
COTES
 62
     0
100
AcDbLine
 10
22.7963746767
 20
7.7338226722
 30
0.0
 11
18.3312501758
 21
0.0000001746
 31
0.0
  0
LINE
  5
19E
330
199
100
AcDbEntity
  8
COTES
 62
     0
100
AcDbLine
 10
18.3312501758
 20
0.0000001746
 30
0.0
 11
0.0
 21
0.0000001746
 31
0.0
  0
MTEXT
  5
19F
330
199
100
AcDbEntity
  8
COTES
 62
     0
100
AcDbMText
 10
0.0
 20
4.5117370892
 30
0.0
 40
3.5
 41
0.0
 71
     1
 72
     1
  1
0.5
  7
SLDTEXTSTYLE0
 73
     1
 44
1.0
  0
MTEXT
  5
1A0
330
199
100
AcDbEntity
  8
COTES
 62
     0
100
AcDbMText
 10
7.7777781002
 20
4.5117370892
 30
0.0
 40
3.5
 41
0.0
 71
     1
 72
     1
  1
x
  7
SLDTEXTSTYLE0
 73
     1
 44
1.0
  0
MTEXT
  5
1A1
330
199
100
AcDbEntity
  8
COTES
 62
     0
100
AcDbMText
 10
11.2923616543
 20
4.5117370892
 30
0.0
 40
3.5
 41
0.0
 71
     1
 72
     1
  1
45°
  7
SLDTEXTSTYLE0
 73
     1
 44
1.0
  0
ENDBLK
  5
19B
330
199
100
AcDbEntity
  8
0
100
AcDbBlockEnd
  0
BLOCK
  5
1A4
330
1A3
100
AcDbEntity
  8
0
100
AcDbBlockBegin
  2
SW_CHAMFER_DIMENSION_2
 70
     0
 10
0.0
 20
0.0
 30
0.0
  3
SW_CHAMFER_DIMENSION_2
  1

  0
SOLID
  5
1A6
330
1A3
100
AcDbEntity
  8
COTES
 62
     0
100
AcDbTrace
 10
-6.5120987299
 20
-3.7597617801
 30
0.0
 11
-3.3984828466
 21
-2.5487026852
 31
0.0
 12
-3.9064828466
 22
-1.668820875
 32
0.0
 13
-3.9064828466
 23
-1.668820875
 33
0.0
  0
LINE
  5
1A7
330
1A3
100
AcDbEntity
  8
COTES
 62
     0
100
AcDbLine
 10
-6.5120987299
 20
-3.7597617801
 30
0.0
 11
0.0
 21
0.0000001746
 31
0.0
  0
LINE
  5
1A8
330
1A3
100
AcDbEntity
  8
COTES
 62
     0
100
AcDbLine
 10
0.0
 20
0.0000001746
 30
0.0
 11
18.3312501758
 21
0.0000001746
 31
0.0
  0
MTEXT
  5
1A9
330
1A3
100
AcDbEntity
  8
COTES
 62
     0
100
AcDbMText
 10
0.0
 20
4.5117370892
 30
0.0
 40
3.5
 41
0.0
 71
     1
 72
     1
  1
0.5
  7
SLDTEXTSTYLE0
 73
     1
 44
1.0
  0
MTEXT
  5
1AA
330
1A3
100
AcDbEntity
  8
COTES
 62
     0
100
AcDbMText
 10
7.7777781002
 20
4.5117370892
 30
0.0
 40
3.5
 41
0.0
 71
     1
 72
     1
  1
x
  7
SLDTEXTSTYLE0
 73
     1
 44
1.0
  0
MTEXT
  5
1AB
330
1A3
100
AcDbEntity
  8
COTES
 62
     0
100
AcDbMText
 10
11.2923616543
 20
4.5117370892
 30
0.0
 40
3.5
 41
0.0
 71
     1
 72
     1
  1
45°
  7
SLDTEXTSTYLE0
 73
     1
 44
1.0
  0
ENDBLK
  5
1A5
330
1A3
100
AcDbEntity
  8
0
100
AcDbBlockEnd
  0
BLOCK
  5
1AE
330
1AD
100
AcDbEntity
  8
0
100
AcDbBlockBegin
  2
SW_CHAMFER_DIMENSION_3
 70
     0
 10
0.0
 20
0.0
 30
0.0
  3
SW_CHAMFER_DIMENSION_3
  1

  0
SOLID
  5
1B0
330
1AD
100
AcDbEntity
  8
COTES
 62
     0
100
AcDbTrace
 10
22.3378377274
 20
-4.0065873769
 30
0.0
 11
20.3621813808
 21
-1.3125105406
 31
0.0
 12
19.6437608911
 22
-2.0309310303
 32
0.0
 13
19.6437608911
 23
-2.0309310303
 33
0.0
  0
LINE
  5
1B1
330
1AD
100
AcDbEntity
  8
COTES
 62
     0
100
AcDbLine
 10
22.3378377274
 20
-4.0065873769
 30
0.0
 11
18.3312501758
 21
0.0000001746
 31
0.0
  0
LINE
  5
1B2
330
1AD
100
AcDbEntity
  8
COTES
 62
     0
100
AcDbLine
 10
18.3312501758
 20
0.0000001746
 30
0.0
 11
0.0
 21
0.0000001746
 31
0.0
  0
MTEXT
  5
1B3
330
1AD
100
AcDbEntity
  8
COTES
 62
     0
100
AcDbMText
 10
0.0
 20
4.5117370892
 30
0.0
 40
3.5
 41
0.0
 71
     1
 72
     1
  1
0.5
  7
SLDTEXTSTYLE0
 73
     1
 44
1.0
  0
MTEXT
  5
1B4
330
1AD
100
AcDbEntity
  8
COTES
 62
     0
100
AcDbMText
 10
7.7777781002
 20
4.5117370892
 30
0.0
 40
3.5
 41
0.0
 71
     1
 72
     1
  1
x
  7
SLDTEXTSTYLE0
 73
     1
 44
1.0
  0
MTEXT
  5
1B5
330
1AD
100
AcDbEntity
  8
COTES
 62
     0
100
AcDbMText
 10
11.2923616543
 20
4.5117370892
 30
0.0
 40
3.5
 41
0.0
 71
     1
 72
     1
  1
45°
  7
SLDTEXTSTYLE0
 73
     1
 44
1.0
  0
ENDBLK
  5
1AF
330
1AD
100
AcDbEntity
  8
0
100
AcDbBlockEnd
  0
ENDSEC
  0
SECTION
  2
ENTITIES
  0
LINE
  5
F3
330
1F
100
AcDbEntity
  8
FIN
100
AcDbLine
 10
4.9884855899
 20
292.067817605
 30
0.0
 11
204.9884855899
 21
292.067817605
 31
0.0
  0
LINE
  5
F4
330
1F
100
AcDbEntity
  8
FIN
100
AcDbLine
 10
-0.0115144101
 20
297.067817605
 30
0.0
 11
209.9884855899
 21
297.067817605
 31
0.0
  0
LINE
  5
F5
330
1F
100
AcDbEntity
  8
FIN
100
AcDbLine
 10
-0.0115144101
 20
297.067817605
 30
0.0
 11
-0.0115144101
 21
0.067817605
 31
0.0
  0
LINE
  5
F6
330
1F
100
AcDbEntity
  8
FIN
100
AcDbLine
 10
-0.0115144101
 20
0.067817605
 30
0.0
 11
209.9884855899
 21
0.067817605
 31
0.0
  0
LINE
  5
F7
330
1F
100
AcDbEntity
  8
FIN
100
AcDbLine
 10
209.9884855899
 20
297.067817605
 30
0.0
 11
209.9884855899
 21
0.067817605
 31
0.0
  0
LINE
  5
F8
330
1F
100
AcDbEntity
  8
FIN
100
AcDbLine
 10
204.9884855899
 20
292.067817605
 30
0.0
 11
204.9884855899
 21
5.067817605
 31
0.0
  0
LINE
  5
F9
330
1F
100
AcDbEntity
  8
FIN
100
AcDbLine
 10
4.9884855899
 20
5.067817605
 30
0.0
 11
204.9884855899
 21
5.067817605
 31
0.0
  0
LINE
  5
FA
330
1F
100
AcDbEntity
  8
FIN
100
AcDbLine
 10
4.9884855899
 20
292.067817605
 30
0.0
 11
4.9884855899
 21
5.067817605
 31
0.0
  0
LINE
  5
FB
330
1F
100
AcDbEntity
  8
FIN
100
AcDbLine
 10
204.9884855899
 20
25.067817605
 30
0.0
 11
4.9884855899
 21
25.067817605
 31
0.0
  0
LINE
  5
FC
330
1F
100
AcDbEntity
  8
FIN
100
AcDbLine
 10
4.9884855899
 20
55.067817605
 30
0.0
 11
204.9884855899
 21
55.067817605
 31
0.0
  0
LINE
  5
FD
330
1F
100
AcDbEntity
  8
FIN
100
AcDbLine
 10
4.9884855899
 20
50.067817605
 30
0.0
 11
62.8491900845
 21
50.067817605
 31
0.0
  0
LINE
  5
FE
330
1F
100
AcDbEntity
  8
FIN
100
AcDbLine
 10
62.8491900845
 20
55.067817605
 30
0.0
 11
62.8491900845
 21
25.067817605
 31
0.0
  0
LINE
  5
FF
330
1F
100
AcDbEntity
  8
FIN
100
AcDbLine
 10
4.9884855899
 20
45.067817605
 30
0.0
 11
62.8491900845
 21
45.067817605
 31
0.0
  0
LINE
  5
100
330
1F
100
AcDbEntity
  8
FIN
100
AcDbLine
 10
4.9884855899
 20
40.067817605
 30
0.0
 11
62.8491900845
 21
40.067817605
 31
0.0
  0
LINE
  5
101
330
1F
100
AcDbEntity
  8
FIN
100
AcDbLine
 10
4.9884855899
 20
35.067817605
 30
0.0
 11
62.8491900845
 21
35.067817605
 31
0.0
  0
LINE
  5
102
330
1F
100
AcDbEntity
  8
FIN
100
AcDbLine
 10
4.9884855899
 20
30.067817605
 30
0.0
 11
62.8491900845
 21
30.067817605
 31
0.0
  0
LINE
  5
103
330
1F
100
AcDbEntity
  8
FIN
100
AcDbLine
 10
196.9884855899
 20
25.067817605
 30
0.0
 11
196.9884855899
 21
55.067817605
 31
0.0
  0
LINE
  5
104
330
1F
100
AcDbEntity
  8
FIN
100
AcDbLine
 10
199.9884855899
 20
25.067817605
 30
0.0
 11
199.9884855899
 21
55.067817605
 31
0.0
  0
LINE
  5
105
330
1F
100
AcDbEntity
  8
FIN
100
AcDbLine
 10
199.9884855899
 20
30.067817605
 30
0.0
 11
204.9884855899
 21
30.067817605
 31
0.0
  0
LINE
  5
106
330
1F
100
AcDbEntity
  8
FIN
100
AcDbLine
 10
199.9884855899
 20
35.067817605
 30
0.0
 11
204.9884855899
 21
35.067817605
 31
0.0
  0
LINE
  5
107
330
1F
100
AcDbEntity
  8
FIN
100
AcDbLine
 10
199.9884855899
 20
40.067817605
 30
0.0
 11
204.9884855899
 21
40.067817605
 31
0.0
  0
LINE
  5
108
330
1F
100
AcDbEntity
  8
FIN
100
AcDbLine
 10
199.9884855899
 20
45.067817605
 30
0.0
 11
204.9884855899
 21
45.067817605
 31
0.0
  0
LINE
  5
109
330
1F
100
AcDbEntity
  8
FIN
100
AcDbLine
 10
199.9884855899
 20
50.067817605
 30
0.0
 11
204.9884855899
 21
50.067817605
 31
0.0
  0
LINE
  5
10A
330
1F
100
AcDbEntity
  8
FIN
100
AcDbLine
 10
62.8491900845
 20
35.067817605
 30
0.0
 11
196.9884855899
 21
35.067817605
 31
0.0
  0
LINE
  5
10B
330
1F
100
AcDbEntity
  8
FIN
100
AcDbLine
 10
176.9884855899
 20
35.067817605
 30
0.0
 11
176.9884855899
 21
25.067817605
 31
0.0
  0
INSERT
  5
10C
330
1F
100
AcDbEntity
  8
0
  6
Continuous
 62
     7
100
AcDbBlockReference
  2
Bloc1
 10
180.1599426439
 20
26.4446028311
 30
0.0
  0
INSERT
  5
10D
330
1F
100
AcDbEntity
  8
0
100
AcDbBlockReference
  2
LOGO_STEELMAG_SIMPLE
 10
12.616806742
 20
10.0
 30
0.0
  0
MTEXT
  5
10F
330
1F
100
AcDbEntity
  8
TEXTE
100
AcDbMText
 10
203.7071874124
 20
4.3657822157
 30
0.0
 40
2.9104166667
 41
0.0
 71
     1
 72
     1
  1
A4
  7
SLDTEXTSTYLE0
 73
     1
 44
1.0
  0
MTEXT
  5
110
330
1F
100
AcDbEntity
  8
TEXTE
100
AcDbMText
 10
203.7071874124
 20
4.3657822157
 30
0.0
 40
2.9104166667
 41
0.0
 71
     1
 72
     1
  1
A4
  7
SLDTEXTSTYLE0
 73
     1
 44
1.0
  0
INSERT
  5
117
330
1F
100
AcDbEntity
  8
TEXTE
100
AcDbBlockReference
  2
SW_NOTE_0
 10
65.5551743099
 20
30.0572956033
 30
0.0
  0
MTEXT
  5
118
330
1F
100
AcDbEntity
  8
TEXTE
100
AcDbMText
 10
197.538349906
 20
39.520994985
 30
0.0
 40
2.0
 41
0.0
 71
     2
 72
     1
  1
INDICES
  7
SLDTEXTSTYLE1
 11
-3.269436733918102E-15
 21
1.0
 31
0.0
 73
     1
 44
1.0
  0
MTEXT
  5
119
330
1F
100
AcDbEntity
  8
TEXTE
100
AcDbMText
 10
6.3539314809
 20
34.166902873
 30
0.0
 40
3.0
 41
0.0
 71
     1
 72
     1
  1
Finition :
  7
SLDTEXTSTYLE1
 73
     1
 44
1.0
  0
MTEXT
  5
11A
330
1F
100
AcDbEntity
  8
TEXTE
100
AcDbMText
 10
6.3539314809
 20
29.1743760937
 30
0.0
 40
3.0
 41
0.0
 71
     1
 72
     1
  1
Masse : 0.07 Kg
  7
SLDTEXTSTYLE1
 73
     1
 44
1.0
  0
MTEXT
  5
11B
330
1F
100
AcDbEntity
  8
TEXTE
100
AcDbMText
 10
6.3539314809
 20
39.0470934965
 30
0.0
 40
3.0
 41
0.0
 71
     1
 72
     1
  1
Matière : 1.1191 (C45E)
  7
SLDTEXTSTYLE1
 73
     1
 44
1.0
  0
MTEXT
  5
11C
330
1F
100
AcDbEntity
  8
TEXTE
100
AcDbMText
 10
6.3539314809
 20
49.0151843687
 30
0.0
 40
3.0
 41
0.0
 71
     1
 72
     1
  1
Date : 17/11/2022
  7
SLDTEXTSTYLE1
 73
     1
 44
1.0
  0
INSERT
  5
123
330
1F
100
AcDbEntity
  8
TEXTE
100
AcDbBlockReference
  2
SW_NOTE_0_1
 10
73.8009752327
 20
20.3538664866
 30
0.0
  0
INSERT
  5
12A
330
1F
100
AcDbEntity
  8
TEXTE
100
AcDbBlockReference
  2
SW_NOTE_0_2
 10
114.9206698618
 20
47.5436399777
 30
0.0
  0
MTEXT
  5
12B
330
1F
100
AcDbEntity
  8
TEXTE
100
AcDbMText
 10
6.3539314809
 20
53.9801272562
 30
0.0
 40
3.0
 41
0.0
 71
     1
 72
     1
  1
Dessiné par : BOZON M
  7
SLDTEXTSTYLE1
 73
     1
 44
1.0
  0
MTEXT
  5
12C
330
1F
100
AcDbEntity
  8
TEXTE
100
AcDbMText
 10
6.3539314809
 20
44.1517536962
 30
0.0
 40
3.0
 41
0.0
 71
     1
 72
     1
  1
Echelle  1:1
  7
SLDTEXTSTYLE1
 73
     1
 44
1.0
  0
MTEXT
  5
12D
330
1F
100
AcDbEntity
  8
TEXTE
100
AcDbMText
 10
204.2480864002
 20
10.9743189938
 30
0.0
 40
4.5
 41
0.0
 71
     3
 72
     1
  1
PLAN N° : F0627-002
  7
SLDTEXTSTYLE1
 73
     1
 44
1.0
  0
INSERT
  5
135
330
1F
100
AcDbEntity
  8
TEXTE
100
AcDbBlockReference
  2
SW_NOTE_0_3
 10
124.0155697295
 20
20.3538664866
 30
0.0
  0
MTEXT
  5
137
330
1F
100
AcDbEntity
  8
TEXTE
100
AcDbMText
 10
69.6989650809
 20
63.5370540525
 30
0.0
 40
6.35
 41
0.0
 71
     1
 72
     1
  1
BON POUR EXECUTION
  7
SLDTEXTSTYLE4
 11
0.984807753012208
 21
0.1736481776669307
 31
0.0
 73
     1
 44
1.0
  0
CIRCLE
  5
138
330
1F
100
AcDbEntity
  8
FORT
100
AcDbCircle
 10
62.9909685663
 20
178.1584615385
 30
0.0
 40
28.00000000000003
  0
CIRCLE
  5
139
330
1F
100
AcDbEntity
  8
FORT
100
AcDbCircle
 10
62.9909685663
 20
178.1584615385
 30
0.0
 40
32.0
  0
CIRCLE
  5
13A
330
1F
100
AcDbEntity
  8
FORT
100
AcDbCircle
 10
62.9909685663
 20
178.1584615385
 30
0.0
 40
32.5
  0
CIRCLE
  5
13B
330
1F
100
AcDbEntity
  8
FORT
100
AcDbCircle
 10
62.9909685663
 20
178.1584615385
 30
0.0
 40
27.5
  0
DIMENSION
  5
13C
330
1F
100
AcDbEntity
  8
COTES
100
AcDbDimension
  2
_D
 10
44.573134074
 20
157.7370665662
 30
0.0
 11
103.4765432075
 21
212.7166042403
 31
0.0
 70
   163
  1
<>
 71
     1
 42
-1.0
  3
SLDDIMSTYLE0
100
AcDbDiametricDimension
 15
81.4088030586
 25
198.5798565107
 35
0.0
 40
0.0
  0
DIMENSION
  5
14F
330
1F
100
AcDbEntity
  8
COTES
100
AcDbDimension
  2
_D_1
 10
49.259044453
 20
148.701980755
 30
0.0
 11
88.8144436266
 21
221.7432376423
 31
0.0
 70
   163
  1
<>
 71
     1
 42
-1.0
  3
SLDDIMSTYLE1
100
AcDbDiametricDimension
 15
76.7228926796
 25
207.6149423219
 35
0.0
 40
0.0
  0
INSERT
  5
164
330
1F
100
AcDbEntity
  8
AXES
100
AcDbBlockReference
  2
SW_CENTERMARKSYMBOL_0
 10
62.9909685663
 20
178.1584615385
 30
0.0
  0
LINE
  5
165
330
1F
100
AcDbEntity
  8
AXES
100
AcDbLine
 10
62.9909685663
 20
221.5584615385
 30
0.0
 11
62.9909685663
 21
134.7584615385
 31
0.0
  0
LINE
  5
166
330
1F
100
AcDbEntity
  8
AXES
  6
Continuous
100
AcDbLine
 10
50.2909685663
 20
219.5584615385
 30
0.0
 11
62.9909685663
 21
219.5584615385
 31
0.0
  0
SOLID
  5
167
330
1F
100
AcDbEntity
  8
AXES
100
AcDbTrace
 10
62.9909685663
 20
219.5584615385
 30
0.0
 11
56.6409685663
 21
220.5744615385
 31
0.0
 12
56.6409685663
 22
218.5424615385
 32
0.0
 13
56.6409685663
 23
218.5424615385
 33
0.0
  0
LINE
  5
168
330
1F
100
AcDbEntity
  8
AXES
  6
Continuous
100
AcDbLine
 10
50.2909685663
 20
136.7584615385
 30
0.0
 11
62.9909685663
 21
136.7584615385
 31
0.0
  0
SOLID
  5
169
330
1F
100
AcDbEntity
  8
AXES
100
AcDbTrace
 10
62.9909685663
 20
136.7584615385
 30
0.0
 11
56.6409685663
 21
137.7744615385
 31
0.0
 12
56.6409685663
 22
135.7424615385
 32
0.0
 13
56.6409685663
 23
135.7424615385
 33
0.0
  0
MTEXT
  5
16A
330
1F
100
AcDbEntity
  8
AXES
100
AcDbMText
 10
50.2909685663
 20
225.1158923077
 30
0.0
 40
3.5
 41
0.0
 71
     1
 72
     1
  1
A
  7
SLDTEXTSTYLE0
 73
     1
 44
1.0
  0
MTEXT
  5
16B
330
1F
100
AcDbEntity
  8
AXES
100
AcDbMText
 10
50.2909685663
 20
134.9078370923
 30
0.0
 40
3.5
 41
0.0
 71
     1
 72
     1
  1
A
  7
SLDTEXTSTYLE0
 73
     1
 44
1.0
  0
LINE
  5
16C
330
1F
100
AcDbEntity
  8
FORT
100
AcDbLine
 10
157.841210668
 20
146.1584615385
 30
0.0
 11
158.341210668
 21
145.6584615385
 31
0.0
  0
LINE
  5
16D
330
1F
100
AcDbEntity
  8
FORT
100
AcDbLine
 10
158.341210668
 20
210.6584615385
 30
0.0
 11
157.841210668
 21
210.1584615385
 31
0.0
  0
LINE
  5
16E
330
1F
100
AcDbEntity
  8
FORT
100
AcDbLine
 10
157.841210668
 20
206.1584615385
 30
0.0
 11
158.341210668
 21
205.6584615385
 31
0.0
  0
LINE
  5
16F
330
1F
100
AcDbEntity
  8
FORT
100
AcDbLine
 10
158.341210668
 20
205.6584615385
 30
0.0
 11
158.341210668
 21
150.6584615385
 31
0.0
  0
LINE
  5
170
330
1F
100
AcDbEntity
  8
FORT
100
AcDbLine
 10
158.341210668
 20
150.6584615385
 30
0.0
 11
157.841210668
 21
150.1584615385
 31
0.0
  0
LINE
  5
171
330
1F
100
AcDbEntity
  8
FORT
100
AcDbLine
 10
157.841210668
 20
150.1584615385
 30
0.0
 11
157.841210668
 21
206.1584615385
 31
0.0
  0
LINE
  5
172
330
1F
100
AcDbEntity
  8
FORT
100
AcDbLine
 10
167.341210668
 20
150.6584615385
 30
0.0
 11
158.341210668
 21
150.6584615385
 31
0.0
  0
LINE
  5
173
330
1F
100
AcDbEntity
  8
FORT
100
AcDbLine
 10
167.841210668
 20
150.1584615385
 30
0.0
 11
167.341210668
 21
150.6584615385
 31
0.0
  0
LINE
  5
174
330
1F
100
AcDbEntity
  8
FORT
100
AcDbLine
 10
167.841210668
 20
146.1584615385
 30
0.0
 11
167.841210668
 21
150.1584615385
 31
0.0
  0
LINE
  5
175
330
1F
100
AcDbEntity
  8
FORT
100
AcDbLine
 10
167.341210668
 20
145.6584615385
 30
0.0
 11
167.841210668
 21
146.1584615385
 31
0.0
  0
LINE
  5
176
330
1F
100
AcDbEntity
  8
FORT
100
AcDbLine
 10
167.341210668
 20
145.6584615385
 30
0.0
 11
158.341210668
 21
145.6584615385
 31
0.0
  0
LINE
  5
177
330
1F
100
AcDbEntity
  8
FORT
100
AcDbLine
 10
157.841210668
 20
146.1584615385
 30
0.0
 11
157.841210668
 21
150.1584615385
 31
0.0
  0
LINE
  5
178
330
1F
100
AcDbEntity
  8
FORT
100
AcDbLine
 10
167.841210668
 20
210.1584615385
 30
0.0
 11
167.341210668
 21
210.6584615385
 31
0.0
  0
LINE
  5
179
330
1F
100
AcDbEntity
  8
FORT
100
AcDbLine
 10
167.841210668
 20
206.1584615385
 30
0.0
 11
167.841210668
 21
210.1584615385
 31
0.0
  0
LINE
  5
17A
330
1F
100
AcDbEntity
  8
FORT
100
AcDbLine
 10
167.341210668
 20
205.6584615385
 30
0.0
 11
167.841210668
 21
206.1584615385
 31
0.0
  0
LINE
  5
17B
330
1F
100
AcDbEntity
  8
FORT
100
AcDbLine
 10
158.341210668
 20
205.6584615385
 30
0.0
 11
167.341210668
 21
205.6584615385
 31
0.0
  0
LINE
  5
17C
330
1F
100
AcDbEntity
  8
FORT
100
AcDbLine
 10
158.341210668
 20
210.6584615385
 30
0.0
 11
167.341210668
 21
210.6584615385
 31
0.0
  0
LINE
  5
17D
330
1F
100
AcDbEntity
  8
FORT
100
AcDbLine
 10
157.841210668
 20
206.1584615385
 30
0.0
 11
157.841210668
 21
210.1584615385
 31
0.0
  0
LINE
  5
17E
330
1F
100
AcDbEntity
  8
FORT
100
AcDbLine
 10
167.341210668
 20
150.6584615385
 30
0.0
 11
167.341210668
 21
205.6584615385
 31
0.0
  0
LINE
  5
17F
330
1F
100
AcDbEntity
  8
FORT
100
AcDbLine
 10
167.841210668
 20
206.1584615385
 30
0.0
 11
167.841210668
 21
150.1584615385
 31
0.0
  0
HATCH
  5
180
330
1F
100
AcDbEntity
  8
HACHURS
100
AcDbHatch
 10
0.0
 20
0.0
 30
0.0
210
0.0
220
0.0
230
1.0
  2
DIN 201 acier et fonte
 70
     0
 71
     0
 91
        1
 92
        0
 93
        8
 72
     1
 10
157.841210667966
 20
150.1584615384618
 11
157.841210667966
 21
146.1584615384618
 72
     1
 10
157.841210667966
 20
146.1584615384618
 11
158.341210667966
 21
145.6584615384618
 72
     1
 10
158.341210667966
 20
145.6584615384618
 11
167.341210667966
 21
145.6584615384618
 72
     1
 10
167.341210667966
 20
145.6584615384618
 11
167.841210667966
 21
146.1584615384618
 72
     1
 10
167.841210667966
 20
146.1584615384618
 11
167.841210667966
 21
150.1584615384618
 72
     1
 10
167.841210667966
 20
150.1584615384618
 11
167.3412106679659
 21
150.6584615384618
 72
     1
 10
167.3412106679659
 20
150.6584615384618
 11
158.341210667966
 21
150.6584615384618
 72
     1
 10
158.341210667966
 20
150.6584615384618
 11
157.841210667966
 21
150.1584615384618
 97
        0
 75
     0
 76
     2
 52
0.0
 41
1.0
 77
     0
 78
     4
 53
45.00000209717174
 43
0.0
 44
0.0
 45
-13.47038467465416
 46
13.47038368855329
 79
     0
 53
45.00000209717174
 43
4.490128
 44
0.0
 45
-13.47038467465416
 46
13.47038368855329
 79
     0
 53
45.00000209717174
 43
8.980256
 44
0.0
 45
-13.47038467465416
 46
13.47038368855329
 79
     0
 53
45.00000209717174
 43
13.47038
 44
0.0
 45
-13.47038467465416
 46
13.47038368855329
 79
     0
 98
        1
 10
0.0
 20
0.0
  0
HATCH
  5
181
330
1F
100
AcDbEntity
  8
HACHURS
100
AcDbHatch
 10
0.0
 20
0.0
 30
0.0
210
0.0
220
0.0
230
1.0
  2
DIN 201 acier et fonte
 70
     0
 71
     0
 91
        1
 92
        0
 93
        8
 72
     1
 10
167.341210667966
 20
210.6584615384618
 11
158.341210667966
 21
210.6584615384618
 72
     1
 10
158.341210667966
 20
210.6584615384618
 11
157.841210667966
 21
210.1584615384618
 72
     1
 10
157.841210667966
 20
210.1584615384618
 11
157.841210667966
 21
206.1584615384618
 72
     1
 10
157.841210667966
 20
206.1584615384618
 11
158.341210667966
 21
205.6584615384618
 72
     1
 10
158.341210667966
 20
205.6584615384618
 11
167.3412106679659
 21
205.6584615384618
 72
     1
 10
167.3412106679659
 20
205.6584615384618
 11
167.841210667966
 21
206.1584615384618
 72
     1
 10
167.841210667966
 20
206.1584615384618
 11
167.841210667966
 21
210.1584615384618
 72
     1
 10
167.841210667966
 20
210.1584615384618
 11
167.341210667966
 21
210.6584615384618
 97
        0
 75
     0
 76
     2
 52
0.0
 41
1.0
 77
     0
 78
     4
 53
45.00000209717174
 43
0.0
 44
0.0
 45
-13.47038467465416
 46
13.47038368855329
 79
     0
 53
45.00000209717174
 43
4.490128
 44
0.0
 45
-13.47038467465416
 46
13.47038368855329
 79
     0
 53
45.00000209717174
 43
8.980256
 44
0.0
 45
-13.47038467465416
 46
13.47038368855329
 79
     0
 53
45.00000209717174
 43
13.47038
 44
0.0
 45
-13.47038467465416
 46
13.47038368855329
 79
     0
 98
        1
 10
0.0
 20
0.0
  0
DIMENSION
  5
182
330
1F
100
AcDbEntity
  8
COTES
100
AcDbDimension
  2
_D_2
 10
167.841210668
 20
220.6584615385
 30
0.0
 11
162.9228723531
 21
220.6584615385
 31
0.0
 70
   160
  1
<>
 71
     2
 42
-1.0
  3
SLDDIMSTYLE2
100
AcDbAlignedDimension
 13
157.841210668
 23
210.1584615385
 33
0.0
 14
167.841210668
 24
210.1584615385
 34
0.0
100
AcDbRotatedDimension
  0
INSERT
  5
198
330
1F
100
AcDbEntity
  8
COTES
100
AcDbBlockReference
  2
SW_CHAMFER_DIMENSION_0
 10
173.5315074795
 20
197.9287389523
 30
0.0
  0
INSERT
  5
1A2
330
1F
100
AcDbEntity
  8
COTES
100
AcDbBlockReference
  2
SW_CHAMFER_DIMENSION_1
 10
135.2948359913
 20
198.1746388663
 30
0.0
  0
INSERT
  5
1AC
330
1F
100
AcDbEntity
  8
COTES
100
AcDbBlockReference
  2
SW_CHAMFER_DIMENSION_2
 10
174.1033093979
 20
214.1682233185
 30
0.0
  0
INSERT
  5
1B6
330
1F
100
AcDbEntity
  8
COTES
100
AcDbBlockReference
  2
SW_CHAMFER_DIMENSION_3
 10
135.7533729406
 20
214.4150489154
 30
0.0
  0
MTEXT
  5
1B7
330
1F
100
AcDbEntity
  8
TEXTE
100
AcDbMText
 10
162.5167314904
 20
136.8945040972
 30
0.0
 40
3.5
 41
0.0
 71
     2
 72
     1
  1
COUPE A-A
  7
SLDTEXTSTYLE0
 73
     1
 44
1.0
  0
LINE
  5
1B8
330
1F
100
AcDbEntity
  8
AXES
100
AcDbLine
 10
169.341210668
 20
178.1584615385
 30
0.0
 11
156.341210668
 21
178.1584615385
 31
0.0
  0
ENDSEC
  0
SECTION
  2
OBJECTS
  0
DICTIONARY
  5
C
330
0
100
AcDbDictionary
281
     1
  3
ACAD_GROUP
350
D
  3
ACAD_LAYOUT
350
1A
  3
ACAD_MLINESTYLE
350
17
  3
ACAD_PLOTSETTINGS
350
19
  3
ACAD_PLOTSTYLENAME
350
E
  3
ACAD_SCALELIST
350
47
  3
DWGPROPS
350
1B9
  0
DICTIONARY
  5
D
102
{ACAD_REACTORS
330
C
102
}
330
C
100
AcDbDictionary
281
     1
  0
DICTIONARY
  5
1A
102
{ACAD_REACTORS
330
C
102
}
330
C
100
AcDbDictionary
281
     1
  3
Layout1
350
1E
  3
Layout2
350
26
  3
Model
350
22
  0
DICTIONARY
  5
17
102
{ACAD_REACTORS
330
C
102
}
330
C
100
AcDbDictionary
281
     1
  3
Standard
350
18
  0
DICTIONARY
  5
19
102
{ACAD_REACTORS
330
C
102
}
330
C
100
AcDbDictionary
281
     1
  0
ACDBDICTIONARYWDFLT
  5
E
102
{ACAD_REACTORS
330
C
102
}
330
C
100
AcDbDictionary
281
     1
  3
Normal
350
F
100
AcDbDictionaryWithDefault
340
F
  0
DICTIONARY
  5
47
102
{ACAD_REACTORS
330
C
102
}
330
C
100
AcDbDictionary
281
     1
  3
A0
350
48
  3
A1
350
49
  3
A2
350
4A
  3
A3
350
4B
  3
A4
350
4C
  3
A5
350
4D
  3
A6
350
4E
  3
A7
350
4F
  3
A8
350
50
  3
A9
350
51
  3
B0
350
52
  3
B1
350
53
  3
B2
350
54
  3
B3
350
55
  3
B4
350
56
  3
B5
350
57
  3
B6
350
58
  3
B7
350
59
  3
B8
350
5A
  3
B9
350
5B
  3
C0
350
5C
  3
C1
350
5D
  3
C2
350
5E
  3
C3
350
5F
  3
C4
350
60
  3
C5
350
61
  3
C6
350
62
  3
C7
350
63
  3
C8
350
64
  3
C9
350
65
  3
D0
350
66
  3
D1
350
67
  3
D2
350
68
  0
XRECORD
  5
1B9
102
{ACAD_REACTORS
330
C
102
}
330
C
100
AcDbXrecord
280
     1
  1
DWGPROPS COOKIE
  2

  3

  4

  6

  7

  8
maxime.bozon
  9

300
=
301
=
302
=
303
=
304
=
305
=
306
=
307
=
308
=
309
=
 40
0.0
 41
2459901.552927153
 42
2459901.552929028
  1

 90
        0
  0
LAYOUT
  5
1E
102
{ACAD_REACTORS
330
1A
102
}
330
1A
100
AcDbPlotSettings
  1

  2
none_device
  4

  6

 40
0.0
 41
0.0
 42
0.0
 43
0.0
 44
0.0
 45
0.0
 46
0.0
 47
0.0
 48
0.0
 49
0.0
140
0.0
141
0.0
142
1.0
143
1.0
 70
   688
 72
     1
 73
     0
 74
     5
  7

 75
    16
147
1.0
148
0.0
149
0.0
100
AcDbLayout
  1
Layout1
 70
     1
 71
     1
 10
0.0
 20
0.0
 11
420.0
 21
297.0
 12
0.0
 22
0.0
 32
0.0
 14
1.0000000000E+20
 24
1.0000000000E+20
 34
1.0000000000E+20
 15
-1.0000000000E+20
 25
-1.0000000000E+20
 35
-1.0000000000E+20
146
0.0
 13
0.0
 23
0.0
 33
0.0
 16
1.0
 26
0.0
 36
0.0
 17
0.0
 27
1.0
 37
0.0
 76
     0
330
1B
  0
LAYOUT
  5
26
102
{ACAD_REACTORS
330
1A
102
}
330
1A
100
AcDbPlotSettings
  1

  2
none_device
  4

  6

 40
0.0
 41
0.0
 42
0.0
 43
0.0
 44
0.0
 45
0.0
 46
0.0
 47
0.0
 48
0.0
 49
0.0
140
0.0
141
0.0
142
1.0
143
1.0
 70
   688
 72
     1
 73
     0
 74
     5
  7

 75
    16
147
1.0
148
0.0
149
0.0
100
AcDbLayout
  1
Layout2
 70
     1
 71
     2
 10
0.0
 20
0.0
 11
0.0
 21
0.0
 12
0.0
 22
0.0
 32
0.0
 14
0.0
 24
0.0
 34
0.0
 15
0.0
 25
0.0
 35
0.0
146
0.0
 13
0.0
 23
0.0
 33
0.0
 16
1.0
 26
0.0
 36
0.0
 17
0.0
 27
1.0
 37
0.0
 76
     0
330
23
  0
LAYOUT
  5
22
102
{ACAD_REACTORS
330
1A
102
}
330
1A
100
AcDbPlotSettings
  1

  2
none_device
  4
Letter_(8.50_x_11.00_Inches)
  6

 40
6.35
 41
6.35
 42
6.35000508
 43
6.35000508
 44
215.9
 45
279.4
 46
0.0
 47
0.0
 48
0.0
 49
0.0
140
0.0
141
0.0
142
1.0
143
1.0
 70
  1712
 72
     1
 73
     0
 74
     0
  7

 75
     0
147
1.0
148
0.0
149
0.0
100
AcDbLayout
  1
Model
 70
     1
 71
     0
 10
0.0
 20
0.0
 11
210.0
 21
297.0
 12
0.0
 22
0.0
 32
0.0
 14
0.0
 24
0.0
 34
0.0
 15
210.0
 25
297.0
 35
0.0
146
0.0
 13
0.0
 23
0.0
 33
0.0
 16
1.0
 26
0.0
 36
0.0
 17
0.0
 27
1.0
 37
0.0
 76
     0
330
1F
331
29
  0
MLINESTYLE
  5
18
102
{ACAD_REACTORS
330
17
102
}
330
17
100
AcDbMlineStyle
  2
Standard
 70
     0
  3

 62
   256
 51
90.0
 52
90.0
 71
     2
 49
0.5
 62
   256
  6
BYLAYER
 49
-0.5
 62
   256
  6
BYLAYER
  0
ACDBPLACEHOLDER
  5
F
102
{ACAD_REACTORS
330
E
102
}
330
E
  0
SCALE
  5
48
102
{ACAD_REACTORS
330
47
102
}
330
47
100
AcDbScale
 70
     0
300
1:1
140
1.0
141
1.0
290
     1
  0
SCALE
  5
49
102
{ACAD_REACTORS
330
47
102
}
330
47
100
AcDbScale
 70
     0
300
1:2
140
1.0
141
2.0
290
     0
  0
SCALE
  5
4A
102
{ACAD_REACTORS
330
47
102
}
330
47
100
AcDbScale
 70
     0
300
1:4
140
1.0
141
4.0
290
     0
  0
SCALE
  5
4B
102
{ACAD_REACTORS
330
47
102
}
330
47
100
AcDbScale
 70
     0
300
1:5
140
1.0
141
5.0
290
     0
  0
SCALE
  5
4C
102
{ACAD_REACTORS
330
47
102
}
330
47
100
AcDbScale
 70
     0
300
1:8
140
1.0
141
8.0
290
     0
  0
SCALE
  5
4D
102
{ACAD_REACTORS
330
47
102
}
330
47
100
AcDbScale
 70
     0
300
1:10
140
1.0
141
10.0
290
     0
  0
SCALE
  5
4E
102
{ACAD_REACTORS
330
47
102
}
330
47
100
AcDbScale
 70
     0
300
1:16
140
1.0
141
16.0
290
     0
  0
SCALE
  5
4F
102
{ACAD_REACTORS
330
47
102
}
330
47
100
AcDbScale
 70
     0
300
1:20
140
1.0
141
20.0
290
     0
  0
SCALE
  5
50
102
{ACAD_REACTORS
330
47
102
}
330
47
100
AcDbScale
 70
     0
300
1:30
140
1.0
141
30.0
290
     0
  0
SCALE
  5
51
102
{ACAD_REACTORS
330
47
102
}
330
47
100
AcDbScale
 70
     0
300
1:40
140
1.0
141
40.0
290
     0
  0
SCALE
  5
52
102
{ACAD_REACTORS
330
47
102
}
330
47
100
AcDbScale
 70
     0
300
1:50
140
1.0
141
50.0
290
     0
  0
SCALE
  5
53
102
{ACAD_REACTORS
330
47
102
}
330
47
100
AcDbScale
 70
     0
300
1:100
140
1.0
141
100.0
290
     0
  0
SCALE
  5
54
102
{ACAD_REACTORS
330
47
102
}
330
47
100
AcDbScale
 70
     0
300
2:1
140
2.0
141
1.0
290
     0
  0
SCALE
  5
55
102
{ACAD_REACTORS
330
47
102
}
330
47
100
AcDbScale
 70
     0
300
4:1
140
4.0
141
1.0
290
     0
  0
SCALE
  5
56
102
{ACAD_REACTORS
330
47
102
}
330
47
100
AcDbScale
 70
     0
300
8:1
140
8.0
141
1.0
290
     0
  0
SCALE
  5
57
102
{ACAD_REACTORS
330
47
102
}
330
47
100
AcDbScale
 70
     0
300
10:1
140
10.0
141
1.0
290
     0
  0
SCALE
  5
58
102
{ACAD_REACTORS
330
47
102
}
330
47
100
AcDbScale
 70
     0
300
100:1
140
100.0
141
1.0
290
     0
  0
SCALE
  5
59
102
{ACAD_REACTORS
330
47
102
}
330
47
100
AcDbScale
 70
     0
300
1/128" = 1'-0"
140
0.0078125
141
12.0
290
     0
  0
SCALE
  5
5A
102
{ACAD_REACTORS
330
47
102
}
330
47
100
AcDbScale
 70
     0
300
1/64" = 1'-0"
140
0.015625
141
12.0
290
     0
  0
SCALE
  5
5B
102
{ACAD_REACTORS
330
47
102
}
330
47
100
AcDbScale
 70
     0
300
1/32" = 1'-0"
140
0.03125
141
12.0
290
     0
  0
SCALE
  5
5C
102
{ACAD_REACTORS
330
47
102
}
330
47
100
AcDbScale
 70
     0
300
1/16" = 1'-0"
140
0.0625
141
12.0
290
     0
  0
SCALE
  5
5D
102
{ACAD_REACTORS
330
47
102
}
330
47
100
AcDbScale
 70
     0
300
3/32" = 1'-0"
140
0.09375
141
12.0
290
     0
  0
SCALE
  5
5E
102
{ACAD_REACTORS
330
47
102
}
330
47
100
AcDbScale
 70
     0
300
1/8" = 1'-0"
140
0.125
141
12.0
290
     0
  0
SCALE
  5
5F
102
{ACAD_REACTORS
330
47
102
}
330
47
100
AcDbScale
 70
     0
300
3/16" = 1'-0"
140
0.1875
141
12.0
290
     0
  0
SCALE
  5
60
102
{ACAD_REACTORS
330
47
102
}
330
47
100
AcDbScale
 70
     0
300
1/4" = 1'-0"
140
0.25
141
12.0
290
     0
  0
SCALE
  5
61
102
{ACAD_REACTORS
330
47
102
}
330
47
100
AcDbScale
 70
     0
300
3/8" = 1'-0"
140
0.375
141
12.0
290
     0
  0
SCALE
  5
62
102
{ACAD_REACTORS
330
47
102
}
330
47
100
AcDbScale
 70
     0
300
1/2" = 1'-0"
140
0.5
141
12.0
290
     0
  0
SCALE
  5
63
102
{ACAD_REACTORS
330
47
102
}
330
47
100
AcDbScale
 70
     0
300
3/4" = 1'-0"
140
0.75
141
12.0
290
     0
  0
SCALE
  5
64
102
{ACAD_REACTORS
330
47
102
}
330
47
100
AcDbScale
 70
     0
300
1" = 1'-0"
140
1.0
141
12.0
290
     0
  0
SCALE
  5
65
102
{ACAD_REACTORS
330
47
102
}
330
47
100
AcDbScale
 70
     0
300
1-1/2" = 1'-0"
140
1.5
141
12.0
290
     0
  0
SCALE
  5
66
102
{ACAD_REACTORS
330
47
102
}
330
47
100
AcDbScale
 70
     0
300
3" = 1'-0"
140
3.0
141
12.0
290
     0
  0
SCALE
  5
67
102
{ACAD_REACTORS
330
47
102
}
330
47
100
AcDbScale
 70
     0
300
6" = 1'-0"
140
6.0
141
12.0
290
     0
  0
SCALE
  5
68
102
{ACAD_REACTORS
330
47
102
}
330
47
100
AcDbScale
 70
     0
300
1'-0" = 1'-0"
140
12.0
141
12.0
290
     0
  0
ENDSEC
  0
EOF
