  0
SECTION
  2
HEADER
  9
$ACADVER
  1
AC1014
  9
$ACADMAINTVER
 70
     0
  9
$DWGCODEPAGE
  3
ANSI_1252
  9
$INSBASE
 10
0.0
 20
0.0
 30
0.0
  9
$EXTMIN
 10
0.0
 20
0.0
 30
0.0
  9
$EXTMAX
 10
297.0
 20
210.0
 30
0.0
  9
$LIMMIN
 10
0.0
 20
0.0
  9
$LIMMAX
 10
12.0
 20
9.0
  9
$ORTHOMODE
 70
     0
  9
$REGENMODE
 70
     1
  9
$FILLMODE
 70
     0
  9
$QTEXTMODE
 70
     0
  9
$MIRRTEXT
 70
     1
  9
$DRAGMODE
 70
     2
  9
$LTSCALE
 40
2.97
  9
$OSMODE
 70
     0
  9
$ATTMODE
 70
     1
  9
$TEXTSIZE
 40
0.2
  9
$TRACEWID
 40
0.05
  9
$TEXTSTYLE
  7
STANDARD
  9
$CLAYER
  8
0
  9
$CELTYPE
  6
BYLAYER
  9
$CECOLOR
 62
   256
  9
$CELTSCALE
 40
1.0
  9
$DELOBJ
 70
     1
  9
$DISPSILH
 70
     0
  9
$DIMSCALE
 40
1.0
  9
$DIMASZ
 40
0.18
  9
$DIMEXO
 40
0.0625
  9
$DIMDLI
 40
0.38
  9
$DIMRND
 40
0.0
  9
$DIMDLE
 40
0.0
  9
$DIMEXE
 40
0.18
  9
$DIMTP
 40
0.0
  9
$DIMTM
 40
0.0
  9
$DIMTXT
 40
0.18
  9
$DIMCEN
 40
0.09
  9
$DIMTSZ
 40
0.0
  9
$DIMTOL
 70
     0
  9
$DIMLIM
 70
     0
  9
$DIMTIH
 70
     0
  9
$DIMTOH
 70
     0
  9
$DIMSE1
 70
     0
  9
$DIMSE2
 70
     0
  9
$DIMTAD
 70
     1
  9
$DIMZIN
 70
     0
  9
$DIMBLK
  1

  9
$DIMASO
 70
     1
  9
$DIMSHO
 70
     1
  9
$DIMPOST
  1

  9
$DIMAPOST
  1

  9
$DIMALT
 70
     0
  9
$DIMALTD
 70
     2
  9
$DIMALTF
 40
25.4
  9
$DIMLFAC
 40
1.0
  9
$DIMTOFL
 70
     0
  9
$DIMTVP
 40
0.0
  9
$DIMTIX
 70
     0
  9
$DIMSOXD
 70
     0
  9
$DIMSAH
 70
     0
  9
$DIMBLK1
  1

  9
$DIMBLK2
  1

  9
$DIMSTYLE
  2
STANDARD
  9
$DIMCLRD
 70
     0
  9
$DIMCLRE
 70
     0
  9
$DIMCLRT
 70
     0
  9
$DIMTFAC
 40
1.0
  9
$DIMGAP
 40
0.09
  9
$DIMJUST
 70
     0
  9
$DIMSD1
 70
     0
  9
$DIMSD2
 70
     0
  9
$DIMTOLJ
 70
     1
  9
$DIMTZIN
 70
     0
  9
$DIMALTZ
 70
     0
  9
$DIMALTTZ
 70
     0
  9
$DIMFIT
 70
     3
  9
$DIMUPT
 70
     0
  9
$DIMUNIT
 70
     2
  9
$DIMDEC
 70
     2
  9
$DIMTDEC
 70
     4
  9
$DIMALTU
 70
     2
  9
$DIMALTTD
 70
     2
  9
$DIMTXSTY
  7
_VISDIMTXTSTYLE
  9
$DIMAUNIT
 70
     0
  9
$LUNITS
 70
     2
  9
$LUPREC
 70
     4
  9
$SKETCHINC
 40
0.1
  9
$FILLETRAD
 40
0.5
  9
$AUNITS
 70
     0
  9
$AUPREC
 70
     0
  9
$MENU
  1
.
  9
$ELEVATION
 40
0.0
  9
$PELEVATION
 40
0.0
  9
$THICKNESS
 40
0.0
  9
$LIMCHECK
 70
     0
  9
$BLIPMODE
 70
     0
  9
$CHAMFERA
 40
0.5
  9
$CHAMFERB
 40
0.5
  9
$CHAMFERC
 40
1.0
  9
$CHAMFERD
 40
0.0
  9
$SKPOLY
 70
     0
  9
$TDCREATE
 40
2450772.666465926
  9
$TDUPDATE
 40
2460184.776018507
  9
$TDINDWG
 40
0.0011564931
  9
$TDUSRTIMER
 40
0.0000000000
  9
$USRTIMER
 70
     1
  9
$ANGBASE
 50
0.0
  9
$ANGDIR
 70
     0
  9
$PDMODE
 70
     0
  9
$PDSIZE
 40
0.0
  9
$PLINEWID
 40
0.0
  9
$COORDS
 70
     1
  9
$SPLFRAME
 70
     0
  9
$SPLINETYPE
 70
     6
  9
$SPLINESEGS
 70
     8
  9
$ATTDIA
 70
     0
  9
$ATTREQ
 70
     1
  9
$HANDLING
 70
     1
  9
$HANDSEED
  5
66
  9
$SURFTAB1
 70
     6
  9
$SURFTAB2
 70
     6
  9
$SURFTYPE
 70
     6
  9
$SURFU
 70
     6
  9
$SURFV
 70
     6
  9
$UCSNAME
  2

  9
$UCSORG
 10
0.0
 20
0.0
 30
0.0
  9
$UCSXDIR
 10
1.0
 20
0.0
 30
0.0
  9
$UCSYDIR
 10
0.0
 20
1.0
 30
0.0
  9
$PUCSNAME
  2

  9
$PUCSORG
 10
0.0
 20
0.0
 30
0.0
  9
$PUCSXDIR
 10
1.0
 20
0.0
 30
0.0
  9
$PUCSYDIR
 10
0.0
 20
1.0
 30
0.0
  9
$USERI1
 70
     0
  9
$USERI2
 70
     0
  9
$USERI3
 70
     0
  9
$USERI4
 70
     0
  9
$USERI5
 70
     0
  9
$USERR1
 40
0.0
  9
$USERR2
 40
0.0
  9
$USERR3
 40
0.0
  9
$USERR4
 40
0.0
  9
$USERR5
 40
0.0
  9
$WORLDVIEW
 70
     1
  9
$SHADEDGE
 70
     3
  9
$SHADEDIF
 70
    70
  9
$TILEMODE
 70
     1
  9
$MAXACTVP
 70
    48
  9
$PINSBASE
 10
0.0
 20
0.0
 30
0.0
  9
$PLIMCHECK
 70
     0
  9
$PEXTMIN
 10
0.0
 20
0.0
 30
0.0
  9
$PEXTMAX
 10
0.0
 20
0.0
 30
0.0
  9
$PLIMMIN
 10
0.0
 20
0.0
  9
$PLIMMAX
 10
12.0
 20
9.0
  9
$UNITMODE
 70
     0
  9
$VISRETAIN
 70
     1
  9
$PLINEGEN
 70
     0
  9
$PSLTSCALE
 70
     1
  9
$TREEDEPTH
 70
  3020
  9
$PICKSTYLE
 70
     1
  9
$CMLSTYLE
  2
STANDARD
  9
$CMLJUST
 70
     0
  9
$CMLSCALE
 40
1.0
  9
$PROXYGRAPHICS
 70
     1
  9
$MEASUREMENT
 70
     0
  0
ENDSEC
  0
SECTION
  2
CLASSES
  0
CLASS
  1
LWPOLYLINE
  2
AcDbPolyline
  3
"AutoCAD"
 90
        0
280
     0
281
     1
  0
CLASS
  1
IMAGE
  2
AcDbRasterImage
  3
ISM
 90
      127
280
     0
281
     1
  0
CLASS
  1
OLE2FRAME
  2
AcDbOle2Frame
  3
""
 90
        0
280
     0
281
     1
  0
CLASS
  1
HATCH
  2
AcDbHatch
  3
"ACAD_SEDONA"
 90
        0
280
     0
281
     1
  0
CLASS
  1
DICTIONARYVAR
  2
AcDbDictionaryVar
  3
"AutoCAD"
 90
        0
280
     0
281
     0
  0
CLASS
  1
RASTERVARIABLES
  2
AcDbRasterVariables
  3
ISM
 90
        0
280
     0
281
     0
  0
CLASS
  1
IMAGEDEF
  2
AcDbRasterImageDef
  3
ISM
 90
        0
280
     0
281
     0
  0
CLASS
  1
IMAGEDEF_REACTOR
  2
AcDbRasterImageDefReactor
  3
ISM
 90
        1
280
     0
281
     0
  0
CLASS
  1
IDBUFFER
  2
AcDbIdBuffer
  3
"Acad"
 90
        0
280
     0
281
     0
  0
CLASS
  1
SPATIAL_FILTER
  2
AcDbSpatialFilter
  3
"Acad"
 90
        0
280
     0
281
     0
  0
CLASS
  1
XRECORD
  2
AcDbXrecord
  3
"<Built In>"
 90
        0
280
     0
281
     0
  0
CLASS
  1
SORTENTSTABLE
  2
AcDbSortentsTable
  3
"AutoCAD"
 90
        0
280
     0
281
     0
  0
CLASS
  1
LAYER_INDEX
  2
AcDbLayerIndex
  3
"Acad"
 90
        0
280
     0
281
     0
  0
CLASS
  1
SPATIAL_INDEX
  2
AcDbSpatialIndex
  3
"Acad"
 90
        0
280
     0
281
     0
  0
CLASS
  1
OBJECT_PTR
  2
CAseDLPNTableRecord
  3
"ASE-LPNTableRecord"
 90
        1
280
     0
281
     0
  0
CLASS
  1
LAYOUT
  2
AcDbLayout
  3
"AutoCAD 2000"
 90
        1
280
     0
281
     0
  0
CLASS
  1
PLOTSETTINGS
  2
AcDbPlotSettings
  3
"AutoCAD 2000"
 90
        1
280
     0
281
     0
  0
CLASS
  1
ACDBDICTIONARYWDFLT
  2
AcDbDictionaryWithDefault
  3
"AutoCAD 2000"
 90
        1
280
     0
281
     0
  0
CLASS
  1
ACDBPLACEHOLDER
  2
AcDbPlaceHolder
  3
"AutoCAD 2000"
 90
        1
280
     0
281
     0
  0
CLASS
  1
VBA_PROJECT
  2
AcDbVbaProject
  3
"acadvba"
 90
        1
280
     0
281
     0
  0
CLASS
  1
WIPEOUT
  2
AcDbWipeout
  3
WipeOut|AutoCAD Express Tool|expresstools@autodesk.com
 90
      127
280
     0
281
     1
  0
CLASS
  1
WIPEOUTVARIABLES
  2
AcDbWipeoutVariables
  3
WipeOut|AutoCAD Express Tool|expresstools@autodesk.com
 90
        0
280
     0
281
     0
  0
CLASS
  1
RTEXT
  2
RText
  3
RText|AutoCAD Express Tool|expresstools@autodesk.com
 90
        0
280
     0
281
     1
  0
CLASS
  1
ARCALIGNEDTEXT
  2
AcDbArcAlignedText
  3
ATEXT|AutoCAD Express Tool|expresstools@autodesk.com
 90
        0
280
     0
281
     1
  0
ENDSEC
  0
SECTION
  2
TABLES
  0
TABLE
  2
VPORT
  5
8
100
AcDbSymbolTable
 70
     1
  0
VPORT
  5
25
100
AcDbSymbolTableRecord
100
AcDbViewportTableRecord
  2
*ACTIVE
 70
     0
 10
0.0
 20
0.0
 11
1.0
 21
1.0
 12
148.5
 22
105.0
 13
0.0
 23
0.0
 14
0.5
 24
0.5
 15
0.5
 25
0.5
 16
0.0
 26
0.0
 36
1.0
 17
0.0
 27
0.0
 37
0.0
 40
210.0
 41
1.414286
 42
50.0
 43
0.0
 44
0.0
 50
0.0
 51
0.0
 71
     0
 72
   100
 73
     1
 74
     1
 75
     0
 76
     0
 77
     0
 78
     0
  0
ENDTAB
  0
TABLE
  2
LTYPE
  5
5
100
AcDbSymbolTable
 70
     4
  0
LTYPE
  5
12
100
AcDbSymbolTableRecord
100
AcDbLinetypeTableRecord
  2
BYBLOCK
 70
    64
  3

 72
    65
 73
     0
 40
0.0
  0
LTYPE
  5
13
100
AcDbSymbolTableRecord
100
AcDbLinetypeTableRecord
  2
BYLAYER
 70
    64
  3

 72
    65
 73
     0
 40
0.0
  0
LTYPE
  5
14
100
AcDbSymbolTableRecord
100
AcDbLinetypeTableRecord
  2
CONTINUOUS
 70
     0
  3
Solid line
 72
    65
 73
     0
 40
0.0
  0
LTYPE
  5
33
100
AcDbSymbolTableRecord
100
AcDbLinetypeTableRecord
  2
DASHDOT
 70
     0
  3
DASHDOT
 72
    65
 73
     4
 40
1.0
 49
0.5
 74
     0
 49
-0.25
 74
     0
 49
0.0
 74
     0
 49
-0.25
 74
     0
  0
ENDTAB
  0
TABLE
  2
LAYER
  5
2
100
AcDbSymbolTable
 70
     3
  0
LAYER
  5
E
100
AcDbSymbolTableRecord
100
AcDbLayerTableRecord
  2
0
 70
     0
 62
     7
  6
CONTINUOUS
  0
LAYER
  5
3D
100
AcDbSymbolTableRecord
100
AcDbLayerTableRecord
  2
DIMENSIONS
 70
     0
 62
     7
  6
CONTINUOUS
  0
LAYER
  5
43
100
AcDbSymbolTableRecord
100
AcDbLayerTableRecord
  2
DEFPOINTS
 70
     0
 62
     7
  6
CONTINUOUS
  0
ENDTAB
  0
TABLE
  2
STYLE
  5
3
100
AcDbSymbolTable
 70
     2
  0
STYLE
  5
F
100
AcDbSymbolTableRecord
100
AcDbTextStyleTableRecord
  2
STANDARD
 70
     0
 40
0.0
 41
1.0
 50
0.0
 71
     0
 42
0.2
  3
txt.shx
  4

  0
STYLE
  5
41
100
AcDbSymbolTableRecord
100
AcDbTextStyleTableRecord
  2
_VISDIMTXTSTYLE
 70
     0
 40
0.0
 41
1.0
 50
0.0
 71
     0
 42
0.2
  3
arial.ttf
  4

1001
ACAD
1000
Arial
1071
       34
  0
ENDTAB
  0
TABLE
  2
VIEW
  5
6
100
AcDbSymbolTable
 70
     0
  0
ENDTAB
  0
TABLE
  2
UCS
  5
7
100
AcDbSymbolTable
 70
     0
  0
ENDTAB
  0
TABLE
  2
APPID
  5
9
100
AcDbSymbolTable
 70
     1
  0
APPID
  5
10
100
AcDbSymbolTableRecord
100
AcDbRegAppTableRecord
  2
ACAD
 70
     0
  0
ENDTAB
  0
TABLE
  2
DIMSTYLE
  5
A
100
AcDbSymbolTable
 70
     1
  0
DIMSTYLE
105
1D
102
{ACAD_REACTORS
330
48
330
55
330
64
102
}
100
AcDbSymbolTableRecord
100
AcDbDimStyleTableRecord
  2
STANDARD
 70
     0
  3

  4

  5

  6

  7

 40
1.0
 41
0.18
 42
0.0625
 43
0.38
 44
0.18
 45
0.0
 46
0.0
 47
0.0
 48
0.0
 71
     0
 72
     0
 73
     1
 74
     1
 75
     0
 76
     0
 77
     1
 78
     0
140
0.18
141
0.09
142
0.0
143
25.4
144
1.0
145
0.0
146
1.0
147
0.09
170
     0
171
     2
172
     0
173
     0
174
     0
175
     0
176
     0
177
     0
178
     0
270
     2
271
     4
272
     2
273
     2
274
     2
275
     0
280
     0
281
     0
282
     0
283
     1
284
     0
285
     0
286
     0
287
     3
288
     0
340
41
  0
ENDTAB
  0
TABLE
  2
BLOCK_RECORD
  5
1
100
AcDbSymbolTable
 70
     3
  0
BLOCK_RECORD
  5
18
100
AcDbSymbolTableRecord
100
AcDbBlockTableRecord
  2
*MODEL_SPACE
  0
BLOCK_RECORD
  5
15
100
AcDbSymbolTableRecord
100
AcDbBlockTableRecord
  2
*PAPER_SPACE
  0
BLOCK_RECORD
  5
3B
100
AcDbSymbolTableRecord
100
AcDbBlockTableRecord
  2
*D0
  0
BLOCK_RECORD
  5
49
100
AcDbSymbolTableRecord
100
AcDbBlockTableRecord
  2
*D1
  0
BLOCK_RECORD
  5
56
100
AcDbSymbolTableRecord
100
AcDbBlockTableRecord
  2
*D2
  0
ENDTAB
  0
ENDSEC
  0
SECTION
  2
BLOCKS
  0
BLOCK
  5
19
100
AcDbEntity
  8
0
100
AcDbBlockBegin
  2
*MODEL_SPACE
 70
     0
 10
0.0
 20
0.0
 30
0.0
  3
*MODEL_SPACE
  1

  0
ENDBLK
  5
1A
100
AcDbEntity
  8
0
100
AcDbBlockEnd
  0
BLOCK
  5
16
100
AcDbEntity
 67
     1
  8
0
100
AcDbBlockBegin
  2
*PAPER_SPACE
 70
     0
 10
0.0
 20
0.0
 30
0.0
  3
*PAPER_SPACE
  1

  0
ENDBLK
  5
17
100
AcDbEntity
 67
     1
  8
0
100
AcDbBlockEnd
  0
BLOCK
  5
3C
100
AcDbEntity
  8
0
100
AcDbBlockBegin
  2
*D0
 70
    66
 10
0.0
 20
0.0
 30
0.0
  3
*D0
  1

  0
LWPOLYLINE
  5
3E
100
AcDbEntity
  8
DIMENSIONS
  6
CONTINUOUS
100
AcDbPolyline
 90
        2
 70
     1
 10
99.0
 20
110.0
 10
101.0
 20
110.0
  0
LWPOLYLINE
  5
3F
100
AcDbEntity
  8
DIMENSIONS
  6
CONTINUOUS
100
AcDbPolyline
 90
        2
 70
     1
 10
100.0
 20
109.0
 10
100.0
 20
111.0
  0
LWPOLYLINE
  5
40
100
AcDbEntity
  8
DIMENSIONS
  6
CONTINUOUS
100
AcDbPolyline
 90
        3
 70
     0
 10
155.0
 20
162.0
 10
150.0
 20
162.0
 10
134.655436
 20
146.041653
  0
MTEXT
  5
42
100
AcDbEntity
  8
0
100
AcDbMText
 10
155.0
 20
166.402667
 30
0.0
 40
4.233333
 41
26.127781
 71
     5
 72
     1
  1
%%c100.00
  7
_VISDIMTXTSTYLE
  0
POINT
  5
44
100
AcDbEntity
  8
DEFPOINTS
100
AcDbPoint
 10
65.344564
 20
73.958347
 30
0.0
  0
POINT
  5
45
100
AcDbEntity
  8
DEFPOINTS
100
AcDbPoint
 10
134.655436
 20
146.041653
 30
0.0
  0
SOLID
  5
46
100
AcDbEntity
  8
0
100
AcDbTrace
 10
134.655436
 20
146.041653
 30
0.0
 11
137.275054
 21
149.865451
 31
0.0
 12
138.373604
 22
148.809153
 32
0.0
 13
138.373604
 23
148.809153
 33
0.0
  0
ENDBLK
  5
47
100
AcDbEntity
  8
0
100
AcDbBlockEnd
  0
BLOCK
  5
4A
100
AcDbEntity
  8
0
100
AcDbBlockBegin
  2
*D1
 70
    66
 10
0.0
 20
0.0
 30
0.0
  3
*D1
  1

  0
LWPOLYLINE
  5
4B
100
AcDbEntity
  8
DIMENSIONS
  6
CONTINUOUS
100
AcDbPolyline
 90
        2
 70
     1
 10
99.0
 20
110.0
 10
101.0
 20
110.0
  0
LWPOLYLINE
  5
4C
100
AcDbEntity
  8
DIMENSIONS
  6
CONTINUOUS
100
AcDbPolyline
 90
        2
 70
     1
 10
100.0
 20
109.0
 10
100.0
 20
111.0
  0
LWPOLYLINE
  5
4D
100
AcDbEntity
  8
DIMENSIONS
  6
CONTINUOUS
100
AcDbPolyline
 90
        3
 70
     0
 10
85.0
 20
125.0
 10
100.0
 20
110.0
 10
79.493903
 20
130.506097
  0
LINE
  5
4E
100
AcDbEntity
  8
DIMENSIONS
  6
CONTINUOUS
100
AcDbLine
 10
100.0
 20
110.0
 30
0.0
 11
120.506097
 21
89.493903
 31
0.0
  0
MTEXT
  5
4F
100
AcDbEntity
  8
0
100
AcDbMText
 10
96.886845
 20
106.886845
 30
0.0
 40
4.233333
 41
22.596165
 71
     5
 72
     1
  1
%%c58.00
  7
_VISDIMTXTSTYLE
 11
0.707107
 21
-0.707107
 31
0.0
  0
POINT
  5
50
100
AcDbEntity
  8
DEFPOINTS
100
AcDbPoint
 10
120.506097
 20
89.493903
 30
0.0
  0
POINT
  5
51
100
AcDbEntity
  8
DEFPOINTS
100
AcDbPoint
 10
79.493903
 20
130.506097
 30
0.0
  0
SOLID
  5
52
100
AcDbEntity
  8
0
100
AcDbTrace
 10
120.506097
 20
89.493903
 30
0.0
 11
116.734389
 21
92.18798
 31
0.0
 12
117.81202
 22
93.265611
 32
0.0
 13
117.81202
 23
93.265611
 33
0.0
  0
SOLID
  5
53
100
AcDbEntity
  8
0
100
AcDbTrace
 10
79.493903
 20
130.506097
 30
0.0
 11
82.18798
 21
126.734389
 31
0.0
 12
83.265611
 22
127.81202
 32
0.0
 13
83.265611
 23
127.81202
 33
0.0
  0
ENDBLK
  5
54
100
AcDbEntity
  8
0
100
AcDbBlockEnd
  0
BLOCK
  5
57
100
AcDbEntity
  8
0
100
AcDbBlockBegin
  2
*D2
 70
    66
 10
0.0
 20
0.0
 30
0.0
  3
*D2
  1

  0
LWPOLYLINE
  5
58
100
AcDbEntity
  8
DIMENSIONS
  6
CONTINUOUS
100
AcDbPolyline
 90
        2
 70
     1
 10
200.0
 20
176.233333
 10
200.0
 20
167.116667
  0
LWPOLYLINE
  5
59
100
AcDbEntity
  8
DIMENSIONS
  6
CONTINUOUS
100
AcDbPolyline
 90
        2
 70
     1
 10
210.0
 20
176.233333
 10
210.0
 20
167.116667
  0
LINE
  5
5A
100
AcDbEntity
  8
DIMENSIONS
  6
CONTINUOUS
100
AcDbLine
 10
195.76836
 20
172.0
 30
0.0
 11
200.0
 21
172.0
 31
0.0
  0
LINE
  5
5B
100
AcDbEntity
  8
DIMENSIONS
  6
CONTINUOUS
100
AcDbLine
 10
214.23164
 20
172.0
 30
0.0
 11
210.0
 21
172.0
 31
0.0
  0
LWPOLYLINE
  5
5C
100
AcDbEntity
  8
DIMENSIONS
  6
CONTINUOUS
100
AcDbPolyline
 90
        2
 70
     1
 10
200.0
 20
172.0
 10
189.882716
 20
172.0
  0
POINT
  5
5D
100
AcDbEntity
  8
DEFPOINTS
100
AcDbPoint
 10
210.0
 20
172.0
 30
0.0
  0
POINT
  5
5E
100
AcDbEntity
  8
DEFPOINTS
100
AcDbPoint
 10
200.0
 20
165.0
 30
0.0
  0
POINT
  5
5F
100
AcDbEntity
  8
DEFPOINTS
100
AcDbPoint
 10
210.0
 20
165.0
 30
0.0
  0
MTEXT
  5
60
100
AcDbEntity
  8
0
100
AcDbMText
 10
189.882716
 20
176.402667
 30
0.0
 40
4.233333
 41
17.656932
 71
     5
 72
     1
  1
10.00
  7
_VISDIMTXTSTYLE
  0
SOLID
  5
61
100
AcDbEntity
  8
0
100
AcDbTrace
 10
200.0
 20
172.0
 30
0.0
 11
195.428
 21
171.238
 31
0.0
 12
195.428
 22
172.762
 32
0.0
 13
195.428
 23
172.762
 33
0.0
  0
SOLID
  5
62
100
AcDbEntity
  8
0
100
AcDbTrace
 10
210.0
 20
172.0
 30
0.0
 11
214.572
 21
171.238
 31
0.0
 12
214.572
 22
172.762
 32
0.0
 13
214.572
 23
172.762
 33
0.0
  0
ENDBLK
  5
63
100
AcDbEntity
  8
0
100
AcDbBlockEnd
  0
ENDSEC
  0
SECTION
  2
ENTITIES
  0
CIRCLE
  5
31
102
{ACAD_REACTORS
330
37
102
}
100
AcDbEntity
  8
0
  6
CONTINUOUS
 62
     7
100
AcDbCircle
 10
100.0
 20
110.0
 30
0.0
 40
50.0
  0
CIRCLE
  5
32
102
{ACAD_REACTORS
330
37
102
}
100
AcDbEntity
  8
0
  6
CONTINUOUS
 62
     7
100
AcDbCircle
 10
100.0
 20
110.0
 30
0.0
 40
29.0
  0
LINE
  5
34
100
AcDbEntity
  8
0
  6
DASHDOT
 62
     7
100
AcDbLine
 10
100.0
 20
170.0
 30
0.0
 11
100.0
 21
50.0
 31
0.0
  0
LWPOLYLINE
  5
35
102
{ACAD_REACTORS
330
37
102
}
100
AcDbEntity
  8
0
  6
CONTINUOUS
 62
     7
100
AcDbPolyline
 90
        4
 70
     1
 10
200.0
 20
81.0
 10
210.0
 20
81.0
 10
210.0
 20
139.0
 10
200.0
 20
139.0
  0
LWPOLYLINE
  5
36
102
{ACAD_REACTORS
330
37
102
}
100
AcDbEntity
  8
0
  6
CONTINUOUS
 62
     7
100
AcDbPolyline
 90
        4
 70
     1
 10
200.0
 20
139.0
 10
210.0
 20
139.0
 10
210.0
 20
160.0
 10
200.0
 20
160.0
  0
HATCH
  5
37
100
AcDbEntity
  8
0
 62
     7
100
AcDbHatch
 10
0.0
 20
0.0
 30
0.0
210
0.0
220
0.0
230
1.0
  2
ANSI31
 70
     0
 71
     1
 91
        1
 92
        2
 72
     0
 73
     1
 93
        4
 10
200.0
 20
139.00000000000003
 10
210.00000000000006
 20
139.00000000000003
 10
210.00000000000006
 20
160.00000000000003
 10
200.0
 20
160.00000000000003
 97
        4
330
31
330
32
330
35
330
36
 75
     0
 76
     1
 52
0.0
 41
25.4
 77
     0
 78
     1
 53
45.0
 43
0.0
 44
0.0
 45
-2.2351999999999999
 46
2.2351999999999999
 79
     0
 98
        0
  0
LWPOLYLINE
  5
38
102
{ACAD_REACTORS
330
39
102
}
100
AcDbEntity
  8
0
  6
CONTINUOUS
 62
     7
100
AcDbPolyline
 90
        4
 70
     1
 10
200.0
 20
60.0
 10
210.0
 20
60.0
 10
210.0
 20
81.0
 10
200.0
 20
81.0
  0
HATCH
  5
39
100
AcDbEntity
  8
0
 62
     7
100
AcDbHatch
 10
0.0
 20
0.0
 30
0.0
210
0.0
220
0.0
230
1.0
  2
ANSI31
 70
     0
 71
     1
 91
        1
 92
        2
 72
     0
 73
     1
 93
        4
 10
200.0
 20
60.000000000000014
 10
210.00000000000006
 20
60.000000000000014
 10
210.00000000000006
 20
81.000000000000014
 10
200.0
 20
81.000000000000014
 97
        1
330
38
 75
     0
 76
     1
 52
0.0
 41
25.4
 77
     0
 78
     1
 53
45.0
 43
0.0
 44
0.0
 45
-2.2351999999999999
 46
2.2351999999999999
 79
     0
 98
        0
  0
LINE
  5
3A
100
AcDbEntity
  8
0
  6
DASHDOT
 62
     7
100
AcDbLine
 10
40.0
 20
110.0
 30
0.0
 11
238.0
 21
110.0
 31
0.0
  0
DIMENSION
  5
48
100
AcDbEntity
  8
0
100
AcDbDimension
  2
*D0
 10
65.344564
 20
73.958347
 30
0.0
 11
155.0
 21
162.0
 31
0.0
 70
   163
  3
STANDARD
100
AcDbDiametricDimension
 15
134.655436
 25
146.041653
 35
0.0
 40
0.0
1001
ACAD
1000
DSTYLE
1002
{
1070
   140
1040
4.233333
1070
    73
1070
     0
1070
    74
1070
     1
1070
   271
1070
     2
1070
   179
1070
     2
1070
   172
1070
     0
1070
   288
1070
     1
1070
   270
1070
     2
1070
   277
1070
     2
1070
   276
1070
     0
1002
}
  0
DIMENSION
  5
55
100
AcDbEntity
  8
0
100
AcDbDimension
  2
*D1
 10
120.506097
 20
89.493903
 30
0.0
 11
100.0
 21
110.0
 31
0.0
 70
   163
  3
STANDARD
100
AcDbDiametricDimension
 15
79.493903
 25
130.506097
 35
0.0
 40
0.0
1001
ACAD
1000
DSTYLE
1002
{
1070
   140
1040
4.233333
1070
    73
1070
     0
1070
    74
1070
     1
1070
   271
1070
     2
1070
   179
1070
     2
1070
   172
1070
     1
1070
   288
1070
     1
1070
   270
1070
     2
1070
   277
1070
     2
1070
   276
1070
     0
1002
}
  0
DIMENSION
  5
64
100
AcDbEntity
  8
0
100
AcDbDimension
  2
*D2
 10
210.0
 20
172.0
 30
0.0
 11
189.882716
 21
176.402667
 31
0.0
 70
    32
  3
STANDARD
100
AcDbAlignedDimension
 13
200.0
 23
165.0
 33
0.0
 14
210.0
 24
165.0
 34
0.0
100
AcDbRotatedDimension
1001
ACAD
1000
DSTYLE
1002
{
1070
   140
1040
4.233333
1070
    77
1070
     1
1070
    73
1070
     0
1070
   271
1070
     2
1070
   179
1070
     2
1070
   270
1070
     2
1070
   277
1070
     2
1070
   276
1070
     0
1002
}
  0
MTEXT
  5
65
100
AcDbEntity
  8
0
100
AcDbMText
 10
131.0
 20
37.5
 30
0.0
 40
3.082006
 41
98.0
 71
     5
 72
     5
  1
\C7;\fArial|b0|i0|;\H3.0820059355348;Rondelle Alu 6060 - quantit\U+00E9 2
  0
ENDSEC
  0
SECTION
  2
OBJECTS
  0
DICTIONARY
  5
C
100
AcDbDictionary
  3
ACAD_GROUP
350
D
  3
ACAD_MLINESTYLE
350
1B
  0
DICTIONARY
  5
D
102
{ACAD_REACTORS
330
C
102
}
100
AcDbDictionary
  0
DICTIONARY
  5
1B
102
{ACAD_REACTORS
330
C
102
}
100
AcDbDictionary
  3
STANDARD
350
1C
  0
MLINESTYLE
  5
1C
102
{ACAD_REACTORS
330
1B
102
}
100
AcDbMlineStyle
  2
STANDARD
 70
     0
  3

 62
   256
 51
90.0
 52
90.0
 71
     2
 49
0.5
 62
   256
  6
BYLAYER
 49
-0.5
 62
   256
  6
BYLAYER
  0
ENDSEC
  0
EOF
