  0
SECTION
  2
HEADER
  9
$ACADVER
  1
AC1015
  9
$ACADMAINTVER
 70
     6
  9
$DWGCODEPAGE
  3
ANSI_1252
  9
$INSBASE
 10
0.0
 20
0.0
 30
0.0
  9
$EXTMIN
 10
0.0
 20
0.0
 30
0.0
  9
$EXTMAX
 10
420.0
 20
297.0
 30
0.0
  9
$LIMMIN
 10
0.0
 20
0.0
  9
$LIMMAX
 10
420.0
 20
297.0
  9
$ORTHOMODE
 70
     0
  9
$REGENMODE
 70
     1
  9
$FILLMODE
 70
     1
  9
$QTEXTMODE
 70
     0
  9
$MIRRTEXT
 70
     1
  9
$LTSCALE
 40
1.0
  9
$ATTMODE
 70
     1
  9
$TEXTSIZE
 40
3.5
  9
$TRACEWID
 40
1.0
  9
$TEXTSTYLE
  7
Standard
  9
$CLAYER
  8
0
  9
$CELTYPE
  6
ByLayer
  9
$CECOLOR
 62
   256
  9
$CELTSCALE
 40
1.0
  9
$DISPSILH
 70
     0
  9
$DIMSCALE
 40
1.0
  9
$DIMASZ
 40
3.302
  9
$DIMEXO
 40
1.0
  9
$DIMDLI
 40
3.75
  9
$DIMRND
 40
0.0
  9
$DIMDLE
 40
0.0
  9
$DIMEXE
 40
1.0
  9
$DIMTP
 40
0.0
  9
$DIMTM
 40
0.0
  9
$DIMTXT
 40
3.5
  9
$DIMCEN
 40
2.5
  9
$DIMTSZ
 40
0.0
  9
$DIMTOL
 70
     0
  9
$DIMLIM
 70
     0
  9
$DIMTIH
 70
     1
  9
$DIMTOH
 70
     1
  9
$DIMSE1
 70
     0
  9
$DIMSE2
 70
     0
  9
$DIMTAD
 70
     1
  9
$DIMZIN
 70
     0
  9
$DIMBLK
  1

  9
$DIMASO
 70
     1
  9
$DIMSHO
 70
     1
  9
$DIMPOST
  1

  9
$DIMAPOST
  1

  9
$DIMALT
 70
     0
  9
$DIMALTD
 70
     3
  9
$DIMALTF
 40
0.0393700787
  9
$DIMLFAC
 40
1.0
  9
$DIMTOFL
 70
     1
  9
$DIMTVP
 40
0.0
  9
$DIMTIX
 70
     0
  9
$DIMSOXD
 70
     0
  9
$DIMSAH
 70
     0
  9
$DIMBLK1
  1

  9
$DIMBLK2
  1

  9
$DIMSTYLE
  2
ISO-25
  9
$DIMCLRD
 70
     0
  9
$DIMCLRE
 70
     0
  9
$DIMCLRT
 70
     0
  9
$DIMTFAC
 40
1.0
  9
$DIMGAP
 40
1.524
  9
$DIMJUST
 70
     0
  9
$DIMSD1
 70
     0
  9
$DIMSD2
 70
     0
  9
$DIMTOLJ
 70
     0
  9
$DIMTZIN
 70
     0
  9
$DIMALTZ
 70
     0
  9
$DIMALTTZ
 70
     0
  9
$DIMUPT
 70
     0
  9
$DIMDEC
 70
     2
  9
$DIMTDEC
 70
     2
  9
$DIMALTU
 70
     2
  9
$DIMALTTD
 70
     3
  9
$DIMTXSTY
  7
Standard
  9
$DIMAUNIT
 70
     0
  9
$DIMADEC
 70
     2
  9
$DIMALTRND
 40
0.0
  9
$DIMAZIN
 70
     0
  9
$DIMDSEP
 70
    44
  9
$DIMATFIT
 70
     3
  9
$DIMFRAC
 70
     0
  9
$DIMLDRBLK
  1

  9
$DIMLUNIT
 70
     2
  9
$DIMLWD
 70
    -2
  9
$DIMLWE
 70
    -2
  9
$DIMTMOVE
 70
     0
  9
$LUNITS
 70
     2
  9
$LUPREC
 70
     2
  9
$SKETCHINC
 40
1.0
  9
$FILLETRAD
 40
10.0
  9
$AUNITS
 70
     0
  9
$AUPREC
 70
     2
  9
$MENU
  1
.
  9
$ELEVATION
 40
0.0
  9
$PELEVATION
 40
0.0
  9
$THICKNESS
 40
0.0
  9
$LIMCHECK
 70
     0
  9
$CHAMFERA
 40
0.0
  9
$CHAMFERB
 40
0.0
  9
$CHAMFERC
 40
0.0
  9
$CHAMFERD
 40
0.0
  9
$SKPOLY
 70
     0
  9
$TDCREATE
 40
2460118.006480463
  9
$TDUCREATE
 40
2460117.92314713
  9
$TDUPDATE
 40
2460118.006484062
  9
$TDUUPDATE
 40
2460117.923150729
  9
$TDINDWG
 40
0.0000000116
  9
$TDUSRTIMER
 40
0.0000000116
  9
$USRTIMER
 70
     1
  9
$ANGBASE
 50
0.0
  9
$ANGDIR
 70
     0
  9
$PDMODE
 70
     0
  9
$PDSIZE
 40
-1.0
  9
$PLINEWID
 40
0.0
  9
$SPLFRAME
 70
     0
  9
$SPLINETYPE
 70
     6
  9
$SPLINESEGS
 70
     8
  9
$HANDSEED
  5
1BC
  9
$SURFTAB1
 70
     6
  9
$SURFTAB2
 70
     6
  9
$SURFTYPE
 70
     6
  9
$SURFU
 70
     6
  9
$SURFV
 70
     6
  9
$UCSBASE
  2

  9
$UCSNAME
  2

  9
$UCSORG
 10
0.0
 20
0.0
 30
0.0
  9
$UCSXDIR
 10
1.0
 20
0.0
 30
0.0
  9
$UCSYDIR
 10
0.0
 20
1.0
 30
0.0
  9
$UCSORTHOREF
  2

  9
$UCSORTHOVIEW
 70
     0
  9
$UCSORGTOP
 10
0.0
 20
0.0
 30
0.0
  9
$UCSORGBOTTOM
 10
0.0
 20
0.0
 30
0.0
  9
$UCSORGLEFT
 10
0.0
 20
0.0
 30
0.0
  9
$UCSORGRIGHT
 10
0.0
 20
0.0
 30
0.0
  9
$UCSORGFRONT
 10
0.0
 20
0.0
 30
0.0
  9
$UCSORGBACK
 10
0.0
 20
0.0
 30
0.0
  9
$PUCSBASE
  2

  9
$PUCSNAME
  2

  9
$PUCSORG
 10
0.0
 20
0.0
 30
0.0
  9
$PUCSXDIR
 10
1.0
 20
0.0
 30
0.0
  9
$PUCSYDIR
 10
0.0
 20
1.0
 30
0.0
  9
$PUCSORTHOREF
  2

  9
$PUCSORTHOVIEW
 70
     0
  9
$PUCSORGTOP
 10
0.0
 20
0.0
 30
0.0
  9
$PUCSORGBOTTOM
 10
0.0
 20
0.0
 30
0.0
  9
$PUCSORGLEFT
 10
0.0
 20
0.0
 30
0.0
  9
$PUCSORGRIGHT
 10
0.0
 20
0.0
 30
0.0
  9
$PUCSORGFRONT
 10
0.0
 20
0.0
 30
0.0
  9
$PUCSORGBACK
 10
0.0
 20
0.0
 30
0.0
  9
$USERI1
 70
     0
  9
$USERI2
 70
     0
  9
$USERI3
 70
     0
  9
$USERI4
 70
     0
  9
$USERI5
 70
     0
  9
$USERR1
 40
0.0
  9
$USERR2
 40
0.0
  9
$USERR3
 40
0.0
  9
$USERR4
 40
0.0
  9
$USERR5
 40
0.0
  9
$WORLDVIEW
 70
     1
  9
$SHADEDGE
 70
     3
  9
$SHADEDIF
 70
    70
  9
$TILEMODE
 70
     1
  9
$MAXACTVP
 70
    64
  9
$PINSBASE
 10
0.0
 20
0.0
 30
0.0
  9
$PLIMCHECK
 70
     0
  9
$PEXTMIN
 10
1.0000000000E+20
 20
1.0000000000E+20
 30
1.0000000000E+20
  9
$PEXTMAX
 10
-1.0000000000E+20
 20
-1.0000000000E+20
 30
-1.0000000000E+20
  9
$PLIMMIN
 10
0.0
 20
0.0
  9
$PLIMMAX
 10
420.0
 20
297.0
  9
$UNITMODE
 70
     0
  9
$VISRETAIN
 70
     1
  9
$PLINEGEN
 70
     0
  9
$PSLTSCALE
 70
     1
  9
$TREEDEPTH
 70
  3020
  9
$CMLSTYLE
  2
Standard
  9
$CMLJUST
 70
     0
  9
$CMLSCALE
 40
20.0
  9
$PROXYGRAPHICS
 70
     1
  9
$MEASUREMENT
 70
     1
  9
$CELWEIGHT
370
    -1
  9
$ENDCAPS
280
     0
  9
$JOINSTYLE
280
     0
  9
$LWDISPLAY
290
     1
  9
$INSUNITS
 70
     4
  9
$HYPERLINKBASE
  1

  9
$STYLESHEET
  1

  9
$XEDIT
290
     1
  9
$CEPSNTYPE
380
     0
  9
$PSTYLEMODE
290
     1
  9
$FINGERPRINTGUID
  2
{7A87BC6D-D482-4A17-AA42-994F3F01921A}
  9
$VERSIONGUID
  2
{FAEB1C32-E019-11D5-929B-00C0DF256EC4}
  9
$EXTNAMES
290
     1
  9
$PSVPSCALE
 40
0.0
  9
$OLESTARTUP
290
     0
  0
ENDSEC
  0
SECTION
  2
CLASSES
  0
CLASS
  1
ACDBDICTIONARYWDFLT
  2
AcDbDictionaryWithDefault
  3
ObjectDBX Classes
 90
        0
280
     0
281
     0
  0
CLASS
  1
VISUALSTYLE
  2
AcDbVisualStyle
  3
ObjectDBX Classes
 90
     4095
280
     0
281
     0
  0
CLASS
  1
MATERIAL
  2
AcDbMaterial
  3
ObjectDBX Classes
 90
     1153
280
     0
281
     0
  0
CLASS
  1
SCALE
  2
AcDbScale
  3
ObjectDBX Classes
 90
     1153
280
     0
281
     0
  0
CLASS
  1
TABLESTYLE
  2
AcDbTableStyle
  3
ObjectDBX Classes
 90
     4095
280
     0
281
     0
  0
CLASS
  1
MLEADERSTYLE
  2
AcDbMLeaderStyle
  3
ACDB_MLEADERSTYLE_CLASS
 90
     4095
280
     0
281
     0
  0
CLASS
  1
SUN
  2
AcDbSun
  3
SCENEOE
 90
     1153
280
     0
281
     0
  0
CLASS
  1
ACDBPLACEHOLDER
  2
AcDbPlaceHolder
  3
ObjectDBX Classes
 90
        0
280
     0
281
     0
  0
CLASS
  1
LAYOUT
  2
AcDbLayout
  3
ObjectDBX Classes
 90
        0
280
     0
281
     0
  0
ENDSEC
  0
SECTION
  2
TABLES
  0
TABLE
  2
VPORT
  5
8
330
0
100
AcDbSymbolTable
 70
     1
  0
VPORT
  5
29
330
8
100
AcDbSymbolTableRecord
100
AcDbViewportTableRecord
  2
*Active
 70
     0
 10
0.0
 20
0.0
 11
1.0
 21
1.0
 12
210.0
 22
148.5
 13
0.0
 23
0.0
 14
10.0
 24
10.0
 15
10.0
 25
10.0
 16
0.0
 26
0.0
 36
1.0
 17
0.0
 27
0.0
 37
0.0
 40
297.0
 41
1.4141414141
 42
50.0
 43
0.0
 44
0.0
 50
0.0
 51
0.0
 71
     0
 72
  2000
 73
     1
 74
     3
 75
     0
 76
     0
 77
     0
 78
     0
281
     0
 65
     1
110
0.0
120
0.0
130
0.0
111
1.0
121
0.0
131
0.0
112
0.0
122
1.0
132
0.0
 79
     0
146
0.0
  0
ENDTAB
  0
TABLE
  2
LTYPE
  5
5
330
0
100
AcDbSymbolTable
 70
     6
  0
LTYPE
  5
14
330
5
100
AcDbSymbolTableRecord
100
AcDbLinetypeTableRecord
  2
ByBlock
 70
     0
  3

 72
    65
 73
     0
 40
0.0
  0
LTYPE
  5
15
330
5
100
AcDbSymbolTableRecord
100
AcDbLinetypeTableRecord
  2
ByLayer
 70
     0
  3

 72
    65
 73
     0
 40
0.0
  0
LTYPE
  5
16
330
5
100
AcDbSymbolTableRecord
100
AcDbLinetypeTableRecord
  2
Continuous
 70
     0
  3
Solid line
 72
    65
 73
     0
 40
0.0
  0
LTYPE
  5
6E
330
5
100
AcDbSymbolTableRecord
100
AcDbLinetypeTableRecord
  2
HIDDEN
 70
     0
  3
Hidden __ __ __ __ __ __ __ __ __ __ __ __ __ __
 72
    65
 73
     2
 40
1.905
 49
1.27
 74
     0
 49
-0.635
 74
     0
  0
LTYPE
  5
6F
330
5
100
AcDbSymbolTableRecord
100
AcDbLinetypeTableRecord
  2
PHANTOM
 70
     0
  3
Phantom ______  __  __  ______  __  __  ______
 72
    65
 73
     6
 40
12.7
 49
6.35
 74
     0
 49
-1.27
 74
     0
 49
1.27
 74
     0
 49
-1.27
 74
     0
 49
1.27
 74
     0
 49
-1.27
 74
     0
  0
LTYPE
  5
70
330
5
100
AcDbSymbolTableRecord
100
AcDbLinetypeTableRecord
  2
CENTER
 70
     0
  3
Center ____ _ ____ _ ____ _ ____ _ ____ _ ____
 72
    65
 73
     4
 40
10.16
 49
6.35
 74
     0
 49
-1.27
 74
     0
 49
1.27
 74
     0
 49
-1.27
 74
     0
  0
LTYPE
  5
71
330
5
100
AcDbSymbolTableRecord
100
AcDbLinetypeTableRecord
  2
CENTERX2
 70
     0
  3
Center (2x) ________  __  ________  __  _____
 72
    65
 73
     4
 40
20.32
 49
12.7
 74
     0
 49
-2.54
 74
     0
 49
2.54
 74
     0
 49
-2.54
 74
     0
  0
LTYPE
  5
72
330
5
100
AcDbSymbolTableRecord
100
AcDbLinetypeTableRecord
  2
DOT2
 70
     0
  3
Dot (.5x) ........................................
 72
    65
 73
     2
 40
0.635
 49
0.0
 74
     0
 49
-0.635
 74
     0
  0
ENDTAB
  0
TABLE
  2
LAYER
  5
2
330
0
100
AcDbSymbolTable
 70
     2
  0
LAYER
  5
10
330
2
100
AcDbSymbolTableRecord
100
AcDbLayerTableRecord
  2
0
 70
     0
 62
     7
  6
Continuous
370
    -3
390
F
  0
LAYER
  5
73
330
2
100
AcDbSymbolTableRecord
100
AcDbLayerTableRecord
  2
FORMAT
 70
     0
 62
     7
  6
Continuous
370
    -3
390
F
  0
ENDTAB
  0
TABLE
  2
STYLE
  5
3
330
0
100
AcDbSymbolTable
 70
     3
  0
STYLE
  5
11
330
3
100
AcDbSymbolTableRecord
100
AcDbTextStyleTableRecord
  2
Standard
 70
     0
 40
0.0
 41
1.0
 50
0.0
 71
     0
 42
3.5
  3
txt
  4

  0
STYLE
  5
91
330
3
100
AcDbSymbolTableRecord
100
AcDbTextStyleTableRecord
  2
SLDTEXTSTYLE0
 70
     0
 40
0.0
 41
0.75
 50
0.0
 71
     0
 42
3.5
  3
TXT
  4

  0
STYLE
  5
E5
330
3
100
AcDbSymbolTableRecord
100
AcDbTextStyleTableRecord
  2
SLDTEXTSTYLE1
 70
     0
 40
0.0
 41
0.663
 50
0.0
 71
     0
 42
3.5
  3
TXT
  4

  0
ENDTAB
  0
TABLE
  2
VIEW
  5
6
330
0
100
AcDbSymbolTable
 70
     0
  0
ENDTAB
  0
TABLE
  2
UCS
  5
7
330
0
100
AcDbSymbolTable
 70
     0
  0
ENDTAB
  0
TABLE
  2
APPID
  5
9
330
0
100
AcDbSymbolTable
 70
     1
  0
APPID
  5
12
330
9
100
AcDbSymbolTableRecord
100
AcDbRegAppTableRecord
  2
ACAD
 70
     0
  0
ENDTAB
  0
TABLE
  2
DIMSTYLE
  5
A
330
0
100
AcDbSymbolTable
 70
     7
100
AcDbDimStyleTable
  0
DIMSTYLE
105
27
330
A
100
AcDbSymbolTableRecord
100
AcDbDimStyleTableRecord
  2
ISO-25
 70
     0
 41
2.5
 42
0.625
 43
3.75
 44
1.25
 73
     0
 74
     0
 77
     1
 78
     8
140
2.5
141
2.5
143
0.0393700787
147
0.625
171
     3
172
     1
178
     0
271
     2
272
     2
274
     3
278
    44
283
     0
284
     8
340
11
  0
DIMSTYLE
105
123
102
{ACAD_REACTORS
330
122
330
138
102
}
330
A
100
AcDbSymbolTableRecord
100
AcDbDimStyleTableRecord
  2
SLDDIMSTYLE0
 70
     0
 41
3.302
 44
0.0
 45
0.000000001
 73
     0
 74
     0
 77
     1
 78
    12
 79
     3
140
3.5
147
0.875
172
     1
173
     1
178
     0
271
     2
272
     2
276
     2
284
    12
289
     0
340
91
  0
DIMSTYLE
105
130
102
{ACAD_REACTORS
330
12F
330
15A
330
1A1
330
1A9
102
}
330
A
100
AcDbSymbolTableRecord
100
AcDbDimStyleTableRecord
  2
SLDDIMSTYLE1
 70
     0
 41
3.302
 44
0.0
 45
0.000000001
 73
     0
 74
     0
 77
     1
 78
    12
 79
     3
140
3.5
141
0.0
147
0.875
173
     1
178
     0
271
     2
272
     2
276
     2
284
    12
340
91
  0
DIMSTYLE
105
145
102
{ACAD_REACTORS
330
144
102
}
330
A
100
AcDbSymbolTableRecord
100
AcDbDimStyleTableRecord
  2
SLDDIMSTYLE2
 70
     0
 41
3.302
 44
0.0
 45
0.000000001
 73
     0
 74
     0
 77
     1
 78
    12
 79
     3
140
3.5
141
0.0
147
0.875
173
     1
178
     0
271
     2
272
     2
276
     2
279
     1
284
    12
340
91
  0
DIMSTYLE
105
14E
102
{ACAD_REACTORS
330
14D
102
}
330
A
100
AcDbSymbolTableRecord
100
AcDbDimStyleTableRecord
  2
SLDDIMSTYLE3
 70
     0
 41
3.302
 44
0.0
 45
0.000000001
 73
     0
 74
     0
 77
     1
 78
    12
 79
     3
140
3.5
147
0.875
172
     1
173
     1
178
     0
271
     0
272
     0
276
     2
284
    12
289
     0
340
91
  0
DIMSTYLE
105
163
102
{ACAD_REACTORS
330
162
330
180
330
18A
102
}
330
A
100
AcDbSymbolTableRecord
100
AcDbDimStyleTableRecord
  2
SLDDIMSTYLE4
 70
     0
 41
3.302
 44
0.0
 45
0.000000001
 73
     0
 74
     0
 77
     1
 78
    12
 79
     3
140
3.5
147
0.875
173
     1
178
     0
271
     2
272
     2
276
     2
284
    12
340
91
  0
DIMSTYLE
105
195
102
{ACAD_REACTORS
330
194
102
}
330
A
100
AcDbSymbolTableRecord
100
AcDbDimStyleTableRecord
  2
SLDDIMSTYLE5
 70
     0
 41
3.302
 44
0.0
 45
0.000000001
 73
     0
 74
     0
 77
     1
 78
    12
 79
     3
140
3.5
141
0.0
147
0.875
172
     1
173
     1
178
     0
271
     2
272
     2
276
     2
284
    12
340
91
341
196
343
196
  0
ENDTAB
  0
TABLE
  2
BLOCK_RECORD
  5
1
330
0
100
AcDbSymbolTable
 70
    17
  0
BLOCK_RECORD
  5
1F
330
1
100
AcDbSymbolTableRecord
100
AcDbBlockTableRecord
  2
*Model_Space
340
22
  0
BLOCK_RECORD
  5
1B
330
1
100
AcDbSymbolTableRecord
100
AcDbBlockTableRecord
  2
*Paper_Space
340
1E
  0
BLOCK_RECORD
  5
23
330
1
100
AcDbSymbolTableRecord
100
AcDbBlockTableRecord
  2
*Paper_Space0
340
26
  0
BLOCK_RECORD
  5
74
330
1
100
AcDbSymbolTableRecord
100
AcDbBlockTableRecord
  2
Bloc cartouche polivalent
340
0
102
{BLKREFS
331
DE
102
}
  0
BLOCK_RECORD
  5
93
330
1
100
AcDbSymbolTableRecord
100
AcDbBlockTableRecord
  2
SW_NOTE_0
340
0
102
{BLKREFS
331
98
102
}
  0
BLOCK_RECORD
  5
9F
330
1
100
AcDbSymbolTableRecord
100
AcDbBlockTableRecord
  2
SW_NOTE_1
340
0
102
{BLKREFS
331
A8
102
}
  0
BLOCK_RECORD
  5
124
330
1
100
AcDbSymbolTableRecord
100
AcDbBlockTableRecord
  2
_D
340
0
  0
BLOCK_RECORD
  5
131
330
1
100
AcDbSymbolTableRecord
100
AcDbBlockTableRecord
  2
_D_1
340
0
  0
BLOCK_RECORD
  5
139
330
1
100
AcDbSymbolTableRecord
100
AcDbBlockTableRecord
  2
_D_2
340
0
  0
BLOCK_RECORD
  5
146
330
1
100
AcDbSymbolTableRecord
100
AcDbBlockTableRecord
  2
_D_3
340
0
  0
BLOCK_RECORD
  5
14F
330
1
100
AcDbSymbolTableRecord
100
AcDbBlockTableRecord
  2
_D_4
340
0
  0
BLOCK_RECORD
  5
15B
330
1
100
AcDbSymbolTableRecord
100
AcDbBlockTableRecord
  2
_D_5
340
0
  0
BLOCK_RECORD
  5
164
330
1
100
AcDbSymbolTableRecord
100
AcDbBlockTableRecord
  2
_D_6
340
0
  0
BLOCK_RECORD
  5
181
330
1
100
AcDbSymbolTableRecord
100
AcDbBlockTableRecord
  2
_D_7
340
0
  0
BLOCK_RECORD
  5
18B
330
1
100
AcDbSymbolTableRecord
100
AcDbBlockTableRecord
  2
_D_8
340
0
  0
BLOCK_RECORD
  5
196
330
1
100
AcDbSymbolTableRecord
100
AcDbBlockTableRecord
  2
_NONE
340
0
  0
BLOCK_RECORD
  5
199
330
1
100
AcDbSymbolTableRecord
100
AcDbBlockTableRecord
  2
_D_9
340
0
  0
BLOCK_RECORD
  5
1A2
330
1
100
AcDbSymbolTableRecord
100
AcDbBlockTableRecord
  2
_D_10
340
0
  0
BLOCK_RECORD
  5
1AA
330
1
100
AcDbSymbolTableRecord
100
AcDbBlockTableRecord
  2
_D_11
340
0
  0
ENDTAB
  0
ENDSEC
  0
SECTION
  2
BLOCKS
  0
BLOCK
  5
20
330
1F
100
AcDbEntity
  8
0
100
AcDbBlockBegin
  2
*Model_Space
 70
     0
 10
0.0
 20
0.0
 30
0.0
  3
*Model_Space
  1

  0
ENDBLK
  5
21
330
1F
100
AcDbEntity
  8
0
100
AcDbBlockEnd
  0
BLOCK
  5
1C
330
1B
100
AcDbEntity
 67
     1
  8
0
100
AcDbBlockBegin
  2
*Paper_Space
 70
     0
 10
0.0
 20
0.0
 30
0.0
  3
*Paper_Space
  1

  0
ENDBLK
  5
1D
330
1B
100
AcDbEntity
 67
     1
  8
0
100
AcDbBlockEnd
  0
BLOCK
  5
24
330
23
100
AcDbEntity
  8
0
100
AcDbBlockBegin
  2
*Paper_Space0
 70
     0
 10
0.0
 20
0.0
 30
0.0
  3
*Paper_Space0
  1

  0
ENDBLK
  5
25
330
23
100
AcDbEntity
  8
0
100
AcDbBlockEnd
  0
BLOCK
  5
75
330
74
100
AcDbEntity
  8
0
100
AcDbBlockBegin
  2
Bloc cartouche polivalent
 70
     2
 10
0.0
 20
0.0
 30
0.0
  3
Bloc cartouche polivalent
  1

  0
CIRCLE
  5
77
330
74
100
AcDbEntity
  8
0
  6
Continuous
 62
     7
370
    18
100
AcDbCircle
 10
515.6701611947
 20
62.7586473129
 30
0.0
 40
2.017029278742118
  0
CIRCLE
  5
78
330
74
100
AcDbEntity
  8
0
  6
Continuous
 62
     7
370
    18
100
AcDbCircle
 10
515.6701611947
 20
62.7586473129
 30
0.0
 40
1.118718805257745
  0
LINE
  5
79
330
74
100
AcDbEntity
  8
0
  6
Continuous
 62
     7
370
    18
100
AcDbLine
 10
506.045423658
 20
63.8110104148
 30
0.0
 11
506.045423658
 21
61.8816780612
 31
0.0
  0
LINE
  5
7A
330
74
100
AcDbEntity
  8
0
  6
Continuous
 62
     7
370
    18
100
AcDbLine
 10
506.045423658
 20
61.8816780612
 30
0.0
 11
509.4217552768
 21
60.7416180341
 31
0.0
  0
LINE
  5
7B
330
74
100
AcDbEntity
  8
0
  6
Continuous
 62
     7
370
    18
100
AcDbLine
 10
509.4217552768
 20
60.7416180341
 30
0.0
 11
509.4217552768
 21
64.7756765916
 31
0.0
  0
LINE
  5
7C
330
74
100
AcDbEntity
  8
0
  6
Continuous
 62
     7
370
    18
100
AcDbLine
 10
509.4217552768
 20
64.7756765916
 30
0.0
 11
506.045423658
 21
63.8110104148
 31
0.0
  0
LINE
  5
7D
330
74
100
AcDbEntity
  8
0
  6
CENTERX2
 62
     7
370
    18
100
AcDbLine
 10
504.37918208
 20
62.7586473129
 30
0.0
 11
510.7372091542
 21
62.7586473129
 31
0.0
  0
LINE
  5
7E
330
74
100
AcDbEntity
  8
0
  6
CENTERX2
 62
     7
370
    18
100
AcDbLine
 10
512.9734807459
 20
62.7586473129
 30
0.0
 11
518.3668416434
 21
62.7586473129
 31
0.0
  0
LINE
  5
7F
330
74
100
AcDbEntity
  8
0
  6
CENTERX2
 62
     7
370
    18
100
AcDbLine
 10
515.6701611947
 20
65.3457066052
 30
0.0
 11
515.6701611947
 21
60.1715880206
 31
0.0
  0
LINE
  5
80
330
74
100
AcDbEntity
  8
0
  6
Continuous
 62
     7
370
    50
100
AcDbLine
 10
521.7623326247
 20
59.7972409843
 30
0.0
 11
521.7623326247
 21
66.1722409843
 31
0.0
  0
LINE
  5
81
330
74
100
AcDbEntity
  8
0
  6
Continuous
 62
     7
370
    50
100
AcDbLine
 10
457.9256896205
 20
15.2176620386
 30
0.0
 11
583.3256896205
 21
15.1104259912
 31
0.0
  0
LINE
  5
82
330
74
100
AcDbEntity
  8
0
  6
Continuous
 62
     7
370
    50
100
AcDbLine
 10
583.3256896205
 20
49.1104259912
 30
0.0
 11
457.9256896205
 21
49.1104259912
 31
0.0
  0
LINE
  5
83
330
74
100
AcDbEntity
  8
0
  6
Continuous
 62
     7
370
    50
100
AcDbLine
 10
457.9256896205
 20
66.1104259912
 30
0.0
 11
583.3256896205
 21
66.1104259912
 31
0.0
  0
LINE
  5
84
330
74
100
AcDbEntity
  8
0
  6
Continuous
 62
     7
370
    50
100
AcDbLine
 10
457.9256896205
 20
10.8604259912
 30
0.0
 11
457.9256896205
 21
27.8604259912
 31
0.0
  0
LINE
  5
85
330
74
100
AcDbEntity
  8
0
  6
Continuous
 62
     7
370
    50
100
AcDbLine
 10
502.1256896205
 20
43.8789075439
 30
0.0
 11
457.9256896205
 21
43.8789075439
 31
0.0
  0
LINE
  5
86
330
74
100
AcDbEntity
  8
0
  6
Continuous
 62
     7
370
    50
100
AcDbLine
 10
457.9256896205
 20
27.8604259912
 30
0.0
 11
457.9256896205
 21
66.1104259912
 31
0.0
  0
LINE
  5
87
330
74
100
AcDbEntity
  8
0
  6
Continuous
 62
     7
370
    50
100
AcDbLine
 10
489.3259692552
 20
66.1104259912
 30
0.0
 11
489.3259692552
 21
49.1104259912
 31
0.0
  0
LINE
  5
88
330
74
100
AcDbEntity
  8
0
  6
Continuous
 62
     7
370
    50
100
AcDbLine
 10
457.9256896205
 20
27.8604259912
 30
0.0
 11
583.3256896205
 21
27.8604259912
 31
0.0
  0
LINE
  5
89
330
74
100
AcDbEntity
  8
0
  6
Continuous
 62
     7
370
    50
100
AcDbLine
 10
502.1256896205
 20
66.1104259912
 30
0.0
 11
502.1256896205
 21
10.8604259912
 31
0.0
  0
LINE
  5
8A
330
74
100
AcDbEntity
  8
0
  6
Continuous
 62
     7
370
    50
100
AcDbLine
 10
546.3256896205
 20
10.8604259912
 30
0.0
 11
546.3256896205
 21
15.1104259912
 31
0.0
  0
LINE
  5
8B
330
74
100
AcDbEntity
  8
0
  6
Continuous
 62
     7
370
    50
100
AcDbLine
 10
554.1256896205
 20
59.7354259912
 30
0.0
 11
554.1256896205
 21
66.1104259912
 31
0.0
  0
LINE
  5
8C
330
74
100
AcDbEntity
  8
0
  6
Continuous
 62
     7
370
    50
100
AcDbLine
 10
570.3256896205
 20
15.1104259912
 30
0.0
 11
570.3256896205
 21
27.8604259912
 31
0.0
  0
LINE
  5
8D
330
74
100
AcDbEntity
  8
0
  6
Continuous
 62
     7
370
    50
100
AcDbLine
 10
583.3256896205
 20
59.7354259912
 30
0.0
 11
502.1256896205
 21
59.7354259912
 31
0.0
  0
LINE
  5
8E
330
74
100
AcDbEntity
  8
0
  6
Continuous
 62
     7
370
    50
100
AcDbLine
 10
583.3256896205
 20
19.3604259912
 30
0.0
 11
570.3256896205
 21
19.3604259912
 31
0.0
  0
LINE
  5
8F
330
74
100
AcDbEntity
  8
0
  6
Continuous
 62
     7
370
    50
100
AcDbLine
 10
516.0476902944
 20
10.9676620386
 30
0.0
 11
516.0476902944
 21
15.2176620386
 31
0.0
  0
LINE
  5
90
330
74
100
AcDbEntity
  8
0
  6
Continuous
 62
     7
370
    50
100
AcDbLine
 10
502.1256896205
 20
35.3200130963
 30
0.0
 11
457.9256896205
 21
35.3200130963
 31
0.0
  0
MTEXT
  5
92
330
74
100
AcDbEntity
  8
0
  6
Continuous
 62
     7
370
     0
100
AcDbMText
 10
460.1865425142
 20
42.302662402
 30
0.0
 40
1.5
 41
0.0
 71
     1
 72
     1
  1
FINITION:
  7
SLDTEXTSTYLE0
 73
     1
 44
1.0
  0
INSERT
  5
98
330
74
100
AcDbEntity
  8
0
  6
Continuous
 62
     7
370
     0
100
AcDbBlockReference
  2
SW_NOTE_0
 10
490.0565064879
 20
60.8154410921
 30
0.0
  0
MTEXT
  5
99
330
74
100
AcDbEntity
  8
0
  6
Continuous
 62
     7
370
     0
100
AcDbMText
 10
459.2437036703
 20
26.6054405513
 30
0.0
 40
1.5
 41
0.0
 71
     1
 72
     1
  1
MATERIAU:
  7
SLDTEXTSTYLE0
 73
     1
 44
1.0
  0
MTEXT
  5
9A
330
74
100
AcDbEntity
  8
0
  6
Continuous
 62
     7
370
     0
100
AcDbMText
 10
524.7010337186
 20
62.9542929425
 30
0.0
 40
1.5
 41
0.0
 71
     1
 72
     1
  1
NE PAS CHANGER L'ECHELLE
  7
SLDTEXTSTYLE0
 73
     1
 44
1.0
  0
MTEXT
  5
9B
330
74
100
AcDbEntity
  8
0
  6
Continuous
 62
     7
370
     0
100
AcDbMText
 10
556.9254230609
 20
62.9542929425
 30
0.0
 40
1.5
 41
0.0
 71
     1
 72
     1
  1
REVISION
  7
SLDTEXTSTYLE0
 73
     1
 44
1.0
  0
MTEXT
  5
9C
330
74
100
AcDbEntity
  8
0
  6
Continuous
 62
     7
370
     0
100
AcDbMText
 10
503.6261376405
 20
47.1955634832
 30
0.0
 40
1.5
 41
0.0
 71
     1
 72
     1
  1
TITRE:
  7
SLDTEXTSTYLE0
 73
     1
 44
1.0
  0
MTEXT
  5
9D
330
74
100
AcDbEntity
  8
0
  6
Continuous
 62
     7
370
     0
100
AcDbMText
 10
503.2285784929
 20
26.6054405513
 30
0.0
 40
1.5
 41
0.0
 71
     1
 72
     1
  1
No. DE PLAN
  7
SLDTEXTSTYLE0
 73
     1
 44
1.0
  0
MTEXT
  5
9E
330
74
100
AcDbEntity
  8
0
  6
Continuous
 62
     7
370
     0
100
AcDbMText
 10
517.4237287036
 20
13.5194715365
 30
0.0
 40
1.5
 41
0.0
 71
     1
 72
     1
  1
DATE :
  7
SLDTEXTSTYLE0
 73
     1
 44
1.0
  0
INSERT
  5
A8
330
74
100
AcDbEntity
  8
0
  6
Continuous
 62
     7
370
     0
100
AcDbBlockReference
  2
SW_NOTE_1
 10
459.2437036703
 20
62.6067534378
 30
0.0
  0
MTEXT
  5
A9
330
74
100
AcDbEntity
  8
0
  6
Continuous
 62
     7
370
     0
100
AcDbMText
 10
459.7882723419
 20
47.1955634832
 30
0.0
 40
1.5
 41
0.0
 71
     1
 72
     1
  1
Quantité de pièce :
  7
SLDTEXTSTYLE0
 73
     1
 44
1.0
  0
MTEXT
  5
AA
330
74
100
AcDbEntity
  8
0
  6
Continuous
 62
     7
370
     0
100
AcDbMText
 10
503.9507134444
 20
57.7490428135
 30
0.0
 40
1.5
 41
0.0
 71
     1
 72
     1
  1
Entreprise
  7
SLDTEXTSTYLE0
 73
     1
 44
1.0
  0
MTEXT
  5
AB
330
74
100
AcDbEntity
  8
0
  6
Continuous
 62
     7
370
     0
100
AcDbMText
 10
460.1865425142
 20
34.0666452458
 30
0.0
 40
1.5
 41
0.0
 71
     1
 72
     1
  1
Tolérance générales : ISO 2768 - mk
  7
SLDTEXTSTYLE0
 73
     1
 44
1.0
  0
MTEXT
  5
AC
330
74
100
AcDbEntity
  8
0
  6
Continuous
 62
     7
370
     0
100
AcDbMText
 10
460.1865425142
 20
30.545927371
 30
0.0
 40
1.5
 41
0.0
 71
     1
 72
     1
  1
Tolérance mécanosoudures: ISO 13920AAE
  7
SLDTEXTSTYLE0
 73
     1
 44
1.0
  0
ATTDEF
  5
AD
330
74
100
AcDbEntity
  8
0
  6
Continuous
 62
     7
370
     0
100
AcDbText
 10
503.671807479
 20
12.1157600198
 30
0.0
 40
1.5
  1
ECHELLE:1:1
 41
0.75
  7
SLDTEXTSTYLE0
 11
503.671807479
 21
11.5858699269
 31
0.0
100
AcDbAttributeDefinition
  3

  2
AUTOATTR18
 70
     0
 74
     1
  0
ATTDEF
  5
AE
330
74
100
AcDbEntity
  8
0
  6
Continuous
 62
     7
370
     0
100
AcDbText
 10
548.0761357894
 20
12.1157600198
 30
0.0
 40
1.5
  1
FEUILLE: 1 sur 1
 41
0.75
  7
SLDTEXTSTYLE0
 11
548.0761357894
 21
11.5858699269
 31
0.0
100
AcDbAttributeDefinition
  3

  2
AUTOATTR17
 70
     0
 74
     1
  0
ATTDEF
  5
AF
330
74
100
AcDbEntity
  8
0
  6
Continuous
 62
     7
370
     0
100
AcDbText
 10
574.4689977962
 20
22.3021825686
 30
0.0
 40
2.9104166667
  1
A3
 41
0.75
  7
SLDTEXTSTYLE0
 11
574.4689977962
 21
21.2740485967
 31
0.0
100
AcDbAttributeDefinition
  3

  2
AUTOATTR0102
 70
     0
 74
     1
  0
ATTDEF
  5
B0
330
74
100
AcDbEntity
  8
0
  6
Continuous
 62
     7
370
     0
100
AcDbText
 10
465.2683909938
 20
19.8765580369
 30
0.0
 40
2.38125
  1
3.3523 (EN-AW 5052)
 41
0.75
  7
SLDTEXTSTYLE0
 11
465.2683909938
 21
19.0353575145
 31
0.0
100
AcDbAttributeDefinition
  3

  2
AUTOATTR16
 70
     0
 74
     1
  0
ATTDEF
  5
B1
330
74
100
AcDbEntity
  8
0
  6
Continuous
 62
     7
370
     0
100
AcDbText
 10
0.0
 20
0.0
 30
0.0
 40
1.0
  1

100
AcDbAttributeDefinition
  3

  2
AUTOATTR15
 70
     0
  0
ATTDEF
  5
B2
330
74
100
AcDbEntity
  8
0
  6
Continuous
 62
     7
370
     0
100
AcDbText
 10
459.2156524897
 20
12.1662947796
 30
0.0
 40
1.4986
  1
MASSE: 
 41
0.75
  7
SLDTEXTSTYLE0
 11
459.2156524897
 21
11.6368992508
 31
0.0
100
AcDbAttributeDefinition
  3

  2
AUTOATTR14
 70
     0
 74
     1
  0
ATTDEF
  5
B3
330
74
100
AcDbEntity
  8
0
  6
Continuous
 62
     7
370
     0
100
AcDbText
 10
0.0
 20
0.0
 30
0.0
 40
1.0
  1

100
AcDbAttributeDefinition
  3

  2
AUTOATTR3
 70
     0
  0
ATTDEF
  5
B4
330
74
100
AcDbEntity
  8
0
  6
Continuous
 62
     7
370
     0
100
AcDbText
 10
498.0056438643
 20
18.2839164749
 30
0.0
 40
6.35
  1
fixation filette parti 1
 41
0.75
  7
SLDTEXTSTYLE0
 11
498.0056438643
 21
16.0407150817
 31
0.0
100
AcDbAttributeDefinition
  3

  2
AUTOATTR2
 70
     0
 74
     1
  0
ATTDEF
  5
B5
330
74
100
AcDbEntity
  8
0
  6
Continuous
 62
     7
370
     0
100
AcDbText
 10
0.0
 20
0.0
 30
0.0
 40
1.0
  1

100
AcDbAttributeDefinition
  3

  2
AUTOATTR101
 70
     0
  0
ATTDEF
  5
B6
330
74
100
AcDbEntity
  8
0
  6
Continuous
 62
     7
370
     0
100
AcDbText
 10
568.8402087469
 20
61.5811516508
 30
0.0
 40
1.905
  1
22/06/2023
 41
0.75
  7
SLDTEXTSTYLE0
 11
568.8402087469
 21
60.9081912329
 31
0.0
100
AcDbAttributeDefinition
  3

  2
AUTOATTR0
 70
     0
 74
     1
  0
ATTDEF
  5
B7
330
74
100
AcDbEntity
  8
0
  6
Continuous
 62
     7
370
     0
100
AcDbText
 10
468.4090989602
 20
12.1776702386
 30
0.0
 40
2.1166666667
  1
627.03
 41
0.75
  7
SLDTEXTSTYLE0
 11
468.4090989602
 21
11.4299364409
 31
0.0
100
AcDbAttributeDefinition
  3

  2
AUTOATTR1
 70
     0
 74
     1
  0
ATTDEF
  5
B8
330
74
100
AcDbEntity
  8
0
  6
Continuous
 62
     7
370
     0
100
AcDbText
 10
526.0212770611
 20
12.1270298001
 30
0.0
 40
2.1166666667
  1
21/06/2023
 41
0.75
  7
SLDTEXTSTYLE0
 11
526.0212770611
 21
11.3792960024
 31
0.0
100
AcDbAttributeDefinition
  3

  2
AUTOATTR4
 70
     0
 74
     1
  0
ATTDEF
  5
B9
330
74
100
AcDbEntity
  8
0
  6
Continuous
 62
     7
370
     0
100
AcDbText
 10
484.936423133
 20
45.2249226649
 30
0.0
 40
2.1166666667
  1
2
 41
0.75
  7
SLDTEXTSTYLE0
 11
484.936423133
 21
44.4771888672
 31
0.0
100
AcDbAttributeDefinition
  3

  2
AUTOATTR5
 70
     0
 74
     1
  0
ENDBLK
  5
76
330
74
100
AcDbEntity
  8
0
100
AcDbBlockEnd
  0
BLOCK
  5
94
330
93
100
AcDbEntity
  8
0
100
AcDbBlockBegin
  2
SW_NOTE_0
 70
     0
 10
0.0
 20
0.0
 30
0.0
  3
SW_NOTE_0
  1

  0
MTEXT
  5
96
330
93
100
AcDbEntity
  8
0
  6
Continuous
 62
     0
370
     0
100
AcDbMText
 10
0.0
 20
1.9336016097
 30
0.0
 40
1.5
 41
0.0
 71
     1
 72
     1
  1
CASSER LES
  7
SLDTEXTSTYLE0
 73
     1
 44
1.0
  0
MTEXT
  5
97
330
93
100
AcDbEntity
  8
0
  6
Continuous
 62
     0
370
     0
100
AcDbMText
 10
0.0
 20
-0.5663983345
 30
0.0
 40
1.5
 41
0.0
 71
     1
 72
     1
  1
ANGLES VIFS
  7
SLDTEXTSTYLE0
 73
     1
 44
1.0
  0
ENDBLK
  5
95
330
93
100
AcDbEntity
  8
0
100
AcDbBlockEnd
  0
BLOCK
  5
A0
330
9F
100
AcDbEntity
  8
0
100
AcDbBlockBegin
  2
SW_NOTE_1
 70
     0
 10
0.0
 20
0.0
 30
0.0
  3
SW_NOTE_1
  1

  0
MTEXT
  5
A2
330
9F
100
AcDbEntity
  8
0
  6
Continuous
 62
     0
370
     0
100
AcDbMText
 10
0.0
 20
1.9336016097
 30
0.0
 40
1.5
 41
0.0
 71
     1
 72
     1
  1
SAUF INDICATION CONTRAIRE:
  7
SLDTEXTSTYLE0
 73
     1
 44
1.0
  0
MTEXT
  5
A3
330
9F
100
AcDbEntity
  8
0
  6
Continuous
 62
     0
370
     0
100
AcDbMText
 10
0.0
 20
-0.5663983345
 30
0.0
 40
1.5
 41
0.0
 71
     1
 72
     1
  1
LES COTES SONT EN MILLIMETRES
  7
SLDTEXTSTYLE0
 73
     1
 44
1.0
  0
MTEXT
  5
A4
330
9F
100
AcDbEntity
  8
0
  6
Continuous
 62
     0
370
     0
100
AcDbMText
 10
0.0
 20
-3.0663982786
 30
0.0
 40
1.5
 41
0.0
 71
     1
 72
     1
  1
ETAT DE SURFACE:
  7
SLDTEXTSTYLE0
 73
     1
 44
1.0
  0
MTEXT
  5
A5
330
9F
100
AcDbEntity
  8
0
  6
Continuous
 62
     0
370
     0
100
AcDbMText
 10
0.0
 20
-5.5663982227
 30
0.0
 40
1.5
 41
0.0
 71
     1
 72
     1
  1
TOLERANCES:
  7
SLDTEXTSTYLE0
 73
     1
 44
1.0
  0
MTEXT
  5
A6
330
9F
100
AcDbEntity
  8
0
  6
Continuous
 62
     0
370
     0
100
AcDbMText
 10
1.6875
 20
-8.0663981668
 30
0.0
 40
1.5
 41
0.0
 71
     1
 72
     1
  1
LINEAIRES:
  7
SLDTEXTSTYLE0
 73
     1
 44
1.0
  0
MTEXT
  5
A7
330
9F
100
AcDbEntity
  8
0
  6
Continuous
 62
     0
370
     0
100
AcDbMText
 10
1.6875
 20
-10.5663981109
 30
0.0
 40
1.5
 41
0.0
 71
     1
 72
     1
  1
ANGULAIRES:
  7
SLDTEXTSTYLE0
 73
     1
 44
1.0
  0
ENDBLK
  5
A1
330
9F
100
AcDbEntity
  8
0
100
AcDbBlockEnd
  0
BLOCK
  5
125
330
124
100
AcDbEntity
  8
0
100
AcDbBlockBegin
  2
_D
 70
     0
 10
0.0
 20
0.0
 30
0.0
  3
_D
  1

  0
SOLID
  5
127
330
124
100
AcDbEntity
  8
0
  6
Continuous
 62
     7
370
    18
100
AcDbTrace
 10
53.6033497523
 20
122.2931956445
 30
0.0
 11
54.1113497523
 21
125.5951956445
 31
0.0
 12
53.0953497523
 22
125.5951956445
 32
0.0
 13
53.0953497523
 23
125.5951956445
 33
0.0
  0
SOLID
  5
128
330
124
100
AcDbEntity
  8
0
  6
Continuous
 62
     7
370
    18
100
AcDbTrace
 10
53.6033497523
 20
52.2931956445
 30
0.0
 11
53.0953497523
 21
48.9911956445
 31
0.0
 12
54.1113497523
 22
48.9911956445
 32
0.0
 13
54.1113497523
 23
48.9911956445
 33
0.0
  0
LINE
  5
129
330
124
100
AcDbEntity
  8
0
  6
Continuous
 62
     7
370
    18
100
AcDbLine
 10
112.7287078863
 20
122.2931956445
 30
0.0
 11
52.6033497523
 21
122.2931956445
 31
0.0
  0
LINE
  5
12A
330
124
100
AcDbEntity
  8
0
  6
Continuous
 62
     7
370
    18
100
AcDbLine
 10
77.7287078863
 20
52.2931956445
 30
0.0
 11
52.6033497523
 21
52.2931956445
 31
0.0
  0
LINE
  5
12B
330
124
100
AcDbEntity
  8
0
  6
Continuous
 62
     7
370
    18
100
AcDbLine
 10
53.6033497523
 20
122.2931956445
 30
0.0
 11
53.6033497523
 21
128.6431956445
 31
0.0
  0
LINE
  5
12C
330
124
100
AcDbEntity
  8
0
  6
Continuous
 62
     7
370
    18
100
AcDbLine
 10
53.6033497523
 20
122.2931956445
 30
0.0
 11
53.6033497523
 21
52.2931956445
 31
0.0
  0
LINE
  5
12D
330
124
100
AcDbEntity
  8
0
  6
Continuous
 62
     7
370
    18
100
AcDbLine
 10
53.6033497523
 20
52.2931956445
 30
0.0
 11
53.6033497523
 21
45.9431956445
 31
0.0
  0
MTEXT
  5
12E
330
124
100
AcDbEntity
  8
0
  6
Continuous
 62
     7
370
    18
100
AcDbMText
 10
49.0916128377
 20
86.2885826504
 30
0.0
 40
3.5
 41
0.0
 71
     1
 72
     1
  1
70
  7
SLDTEXTSTYLE0
 11
-7.044195017643634E-15
 21
1.0
 31
0.0
 73
     1
 44
1.0
  0
ENDBLK
  5
126
330
124
100
AcDbEntity
  8
0
100
AcDbBlockEnd
  0
BLOCK
  5
132
330
131
100
AcDbEntity
  8
0
100
AcDbBlockBegin
  2
_D_1
 70
     0
 10
0.0
 20
0.0
 30
0.0
  3
_D_1
  1

  0
SOLID
  5
134
330
131
100
AcDbEntity
  8
0
  6
Continuous
 62
     7
370
    18
100
AcDbTrace
 10
138.6156146935
 20
113.6083975371
 30
0.0
 11
141.0677319145
 21
115.8774037369
 31
0.0
 12
140.2723257864
 22
116.5095311698
 32
0.0
 13
140.2723257864
 23
116.5095311698
 33
0.0
  0
LINE
  5
135
330
131
100
AcDbEntity
  8
0
  6
Continuous
 62
     7
370
    18
100
AcDbLine
 10
138.6156146935
 20
113.6083975371
 30
0.0
 11
170.9673127224
 21
154.3165483408
 31
0.0
  0
LINE
  5
136
330
131
100
AcDbEntity
  8
0
  6
Continuous
 62
     7
370
    18
100
AcDbLine
 10
138.6156146935
 20
113.6083975371
 30
0.0
 11
113.7287078863
 21
82.2931956445
 31
0.0
  0
MTEXT
  5
137
330
131
100
AcDbEntity
  8
0
  6
Continuous
 62
     7
370
    18
100
AcDbMText
 10
162.454975727
 20
150.8548340499
 30
0.0
 40
3.5
 41
0.0
 71
     1
 72
     1
  1
R40
  7
SLDTEXTSTYLE0
 11
0.6221726701789454
 21
0.7828800473140194
 31
0.0
 73
     1
 44
1.0
  0
ENDBLK
  5
133
330
131
100
AcDbEntity
  8
0
100
AcDbBlockEnd
  0
BLOCK
  5
13A
330
139
100
AcDbEntity
  8
0
100
AcDbBlockBegin
  2
_D_2
 70
     0
 10
0.0
 20
0.0
 30
0.0
  3
_D_2
  1

  0
SOLID
  5
13C
330
139
100
AcDbEntity
  8
0
  6
Continuous
 62
     7
370
    18
100
AcDbTrace
 10
60.7350394222
 20
52.2931956445
 30
0.0
 11
60.2270394222
 21
48.9911956445
 31
0.0
 12
61.2430394222
 22
48.9911956445
 32
0.0
 13
61.2430394222
 23
48.9911956445
 33
0.0
  0
SOLID
  5
13D
330
139
100
AcDbEntity
  8
0
  6
Continuous
 62
     7
370
    18
100
AcDbTrace
 10
60.7350394222
 20
62.2931956445
 30
0.0
 11
61.2430394222
 21
65.5951956445
 31
0.0
 12
60.2270394222
 22
65.5951956445
 32
0.0
 13
60.2270394222
 23
65.5951956445
 33
0.0
  0
LINE
  5
13E
330
139
100
AcDbEntity
  8
0
  6
Continuous
 62
     7
370
    18
100
AcDbLine
 10
77.7287078863
 20
52.2931956445
 30
0.0
 11
59.7350394222
 21
52.2931956445
 31
0.0
  0
LINE
  5
13F
330
139
100
AcDbEntity
  8
0
  6
Continuous
 62
     7
370
    18
100
AcDbLine
 10
77.7287078863
 20
62.2931956445
 30
0.0
 11
59.7350394222
 21
62.2931956445
 31
0.0
  0
LINE
  5
140
330
139
100
AcDbEntity
  8
0
  6
Continuous
 62
     7
370
    18
100
AcDbLine
 10
60.7350394222
 20
52.2931956445
 30
0.0
 11
60.7350394222
 21
45.9431956445
 31
0.0
  0
LINE
  5
141
330
139
100
AcDbEntity
  8
0
  6
Continuous
 62
     7
370
    18
100
AcDbLine
 10
60.7350394222
 20
52.2931956445
 30
0.0
 11
60.7350394222
 21
62.2931956445
 31
0.0
  0
LINE
  5
142
330
139
100
AcDbEntity
  8
0
  6
Continuous
 62
     7
370
    18
100
AcDbLine
 10
60.7350394222
 20
62.2931956445
 30
0.0
 11
60.7350394222
 21
68.6431956445
 31
0.0
  0
MTEXT
  5
143
330
139
100
AcDbEntity
  8
0
  6
Continuous
 62
     7
370
    18
100
AcDbMText
 10
56.2233025076
 20
55.0666615062
 30
0.0
 40
3.5
 41
0.0
 71
     1
 72
     1
  1
10
  7
SLDTEXTSTYLE0
 11
6.123233995736766E-17
 21
1.0
 31
0.0
 73
     1
 44
1.0
  0
ENDBLK
  5
13B
330
139
100
AcDbEntity
  8
0
100
AcDbBlockEnd
  0
BLOCK
  5
147
330
146
100
AcDbEntity
  8
0
100
AcDbBlockBegin
  2
_D_3
 70
     0
 10
0.0
 20
0.0
 30
0.0
  3
_D_3
  1

  0
SOLID
  5
149
330
146
100
AcDbEntity
  8
0
  6
Continuous
 62
     7
370
    18
100
AcDbTrace
 10
143.7591232019
 20
63.9457245366
 30
0.0
 11
140.4190650966
 21
63.8730619405
 31
0.0
 12
140.5953594309
 22
62.8724739595
 32
0.0
 13
140.5953594309
 23
62.8724739595
 33
0.0
  0
LINE
  5
14A
330
146
100
AcDbEntity
  8
0
  6
Continuous
 62
     7
370
    18
100
AcDbLine
 10
143.7591232019
 20
63.9457245366
 30
0.0
 11
182.7095620205
 21
70.8084310795
 31
0.0
  0
LINE
  5
14B
330
146
100
AcDbEntity
  8
0
  6
Continuous
 62
     7
370
    18
100
AcDbLine
 10
143.7591232019
 20
63.9457245366
 30
0.0
 11
137.5054483208
 21
62.843884947
 31
0.0
  0
MTEXT
  5
14C
330
146
100
AcDbEntity
  8
0
  6
Continuous
 62
     7
370
    18
100
AcDbMText
 10
176.5880014689
 20
74.3098841811
 30
0.0
 40
3.5
 41
0.0
 71
     1
 72
     1
  1
R2
  7
SLDTEXTSTYLE0
 11
0.9847923422172826
 21
0.1737355539611812
 31
0.0
 73
     1
 44
1.0
  0
ENDBLK
  5
148
330
146
100
AcDbEntity
  8
0
100
AcDbBlockEnd
  0
BLOCK
  5
150
330
14F
100
AcDbEntity
  8
0
100
AcDbBlockBegin
  2
_D_4
 70
     0
 10
0.0
 20
0.0
 30
0.0
  3
_D_4
  1

  0
SOLID
  5
152
330
14F
100
AcDbEntity
  8
0
  6
Continuous
 62
     7
370
    18
100
AcDbTrace
 10
60.7350394222
 20
73.3304628854
 30
0.0
 11
61.2430394222
 21
76.6324628854
 31
0.0
 12
60.2270394222
 22
76.6324628854
 32
0.0
 13
60.2270394222
 23
76.6324628854
 33
0.0
  0
SOLID
  5
153
330
14F
100
AcDbEntity
  8
0
  6
Continuous
 62
     7
370
    18
100
AcDbTrace
 10
60.7350394222
 20
62.2931956445
 30
0.0
 11
60.2270394222
 21
58.9911956445
 31
0.0
 12
61.2430394222
 22
58.9911956445
 32
0.0
 13
61.2430394222
 23
58.9911956445
 33
0.0
  0
LINE
  5
154
330
14F
100
AcDbEntity
  8
0
  6
Continuous
 62
     7
370
    18
100
AcDbLine
 10
80.9105260682
 20
73.3304628854
 30
0.0
 11
59.7350394222
 21
73.3304628854
 31
0.0
  0
LINE
  5
155
330
14F
100
AcDbEntity
  8
0
  6
Continuous
 62
     7
370
    18
100
AcDbLine
 10
77.7287078863
 20
62.2931956445
 30
0.0
 11
59.7350394222
 21
62.2931956445
 31
0.0
  0
LINE
  5
156
330
14F
100
AcDbEntity
  8
0
  6
Continuous
 62
     7
370
    18
100
AcDbLine
 10
60.7350394222
 20
73.3304628854
 30
0.0
 11
60.7350394222
 21
79.6804628854
 31
0.0
  0
LINE
  5
157
330
14F
100
AcDbEntity
  8
0
  6
Continuous
 62
     7
370
    18
100
AcDbLine
 10
60.7350394222
 20
73.3304628854
 30
0.0
 11
60.7350394222
 21
62.2931956445
 31
0.0
  0
LINE
  5
158
330
14F
100
AcDbEntity
  8
0
  6
Continuous
 62
     7
370
    18
100
AcDbLine
 10
60.7350394222
 20
62.2931956445
 30
0.0
 11
60.7350394222
 21
55.9431956445
 31
0.0
  0
MTEXT
  5
159
330
14F
100
AcDbEntity
  8
0
  6
Continuous
 62
     7
370
    18
100
AcDbMText
 10
56.2233025076
 20
66.0096023126
 30
0.0
 40
3.5
 41
0.0
 71
     1
 72
     1
  1
11
  7
SLDTEXTSTYLE0
 11
-7.044195017643634E-15
 21
1.0
 31
0.0
 73
     1
 44
1.0
  0
ENDBLK
  5
151
330
14F
100
AcDbEntity
  8
0
100
AcDbBlockEnd
  0
BLOCK
  5
15C
330
15B
100
AcDbEntity
  8
0
100
AcDbBlockBegin
  2
_D_5
 70
     0
 10
0.0
 20
0.0
 30
0.0
  3
_D_5
  1

  0
SOLID
  5
15E
330
15B
100
AcDbEntity
  8
0
  6
Continuous
 62
     7
370
    18
100
AcDbTrace
 10
153.1217921651
 20
79.0441748244
 30
0.0
 11
156.0177323553
 21
77.3784022065
 31
0.0
 12
156.3845107057
 22
78.325888165
 32
0.0
 13
156.3845107057
 23
78.325888165
 33
0.0
  0
LINE
  5
15F
330
15B
100
AcDbEntity
  8
0
  6
Continuous
 62
     7
370
    18
100
AcDbLine
 10
153.1217921651
 20
79.0441748244
 30
0.0
 11
168.9207040506
 21
72.928307052
 31
0.0
  0
LINE
  5
160
330
15B
100
AcDbEntity
  8
0
  6
Continuous
 62
     7
370
    18
100
AcDbLine
 10
153.1217921651
 20
79.0441748244
 30
0.0
 11
144.7287078863
 21
82.2931956445
 31
0.0
  0
MTEXT
  5
161
330
15B
100
AcDbEntity
  8
0
  6
Continuous
 62
     7
370
    18
100
AcDbMText
 10
165.4878224568
 20
79.0744009381
 30
0.0
 40
3.5
 41
0.0
 71
     1
 72
     1
  1
R9
  7
SLDTEXTSTYLE0
 11
0.9325649198624375
 21
-0.3610023133471108
 31
0.0
 73
     1
 44
1.0
  0
ENDBLK
  5
15D
330
15B
100
AcDbEntity
  8
0
100
AcDbBlockEnd
  0
BLOCK
  5
165
330
164
100
AcDbEntity
  8
0
100
AcDbBlockBegin
  2
_D_6
 70
     0
 10
0.0
 20
0.0
 30
0.0
  3
_D_6
  1

  0
SOLID
  5
167
330
164
100
AcDbEntity
  8
0
  6
Continuous
 62
     7
370
    18
100
AcDbTrace
 10
143.7287078863
 20
26.1722492058
 30
0.0
 11
140.4267078863
 21
26.6802492058
 31
0.0
 12
140.4267078863
 22
25.6642492058
 32
0.0
 13
140.4267078863
 23
25.6642492058
 33
0.0
  0
SOLID
  5
168
330
164
100
AcDbEntity
  8
0
  6
Continuous
 62
     7
370
    18
100
AcDbTrace
 10
83.7287078863
 20
26.1722492058
 30
0.0
 11
87.0307078863
 21
25.6642492058
 31
0.0
 12
87.0307078863
 22
26.6802492058
 32
0.0
 13
87.0307078863
 23
26.6802492058
 33
0.0
  0
LINE
  5
169
330
164
100
AcDbEntity
  8
0
  6
Continuous
 62
     7
370
    18
100
AcDbLine
 10
143.7287078863
 20
63.2931956445
 30
0.0
 11
143.7287078863
 21
25.1722492058
 31
0.0
  0
LINE
  5
16A
330
164
100
AcDbEntity
  8
0
  6
Continuous
 62
     7
370
    18
100
AcDbLine
 10
83.7287078863
 20
63.2931956445
 30
0.0
 11
83.7287078863
 21
25.1722492058
 31
0.0
  0
LINE
  5
16B
330
164
100
AcDbEntity
  8
0
  6
Continuous
 62
     7
370
    18
100
AcDbLine
 10
143.7287078863
 20
26.1722492058
 30
0.0
 11
83.7287078863
 21
26.1722492058
 31
0.0
  0
MTEXT
  5
16C
330
164
100
AcDbEntity
  8
0
  6
Continuous
 62
     7
370
    18
100
AcDbMText
 10
107.2082440337
 20
30.683986295
 30
0.0
 40
3.5
 41
0.0
 71
     1
 72
     1
  1
%%c
  7
SLDTEXTSTYLE0
 73
     1
 44
1.0
  0
MTEXT
  5
16D
330
164
100
AcDbEntity
  8
0
  6
Continuous
 62
     7
370
    18
100
AcDbMText
 10
112.4866814321
 20
30.7374584716
 30
0.0
 40
3.5
 41
0.0
 71
     1
 72
     1
  1
60
  7
SLDTEXTSTYLE0
 73
     1
 44
1.0
  0
ENDBLK
  5
166
330
164
100
AcDbEntity
  8
0
100
AcDbBlockEnd
  0
BLOCK
  5
182
330
181
100
AcDbEntity
  8
0
100
AcDbBlockBegin
  2
_D_7
 70
     0
 10
0.0
 20
0.0
 30
0.0
  3
_D_7
  1

  0
SOLID
  5
184
330
181
100
AcDbEntity
  8
0
  6
Continuous
 62
     7
370
    18
100
AcDbTrace
 10
175.7287078863
 20
208.5706715681
 30
0.0
 11
175.2207078863
 21
205.2686715681
 31
0.0
 12
176.2367078863
 22
205.2686715681
 32
0.0
 13
176.2367078863
 23
205.2686715681
 33
0.0
  0
SOLID
  5
185
330
181
100
AcDbEntity
  8
0
  6
Continuous
 62
     7
370
    18
100
AcDbTrace
 10
175.7287078863
 20
178.0706715681
 30
0.0
 11
176.2367078863
 21
181.3726715681
 31
0.0
 12
175.2207078863
 22
181.3726715681
 32
0.0
 13
175.2207078863
 23
181.3726715681
 33
0.0
  0
LINE
  5
186
330
181
100
AcDbEntity
  8
0
  6
Continuous
 62
     7
370
    18
100
AcDbLine
 10
124.3885379426
 20
208.5706715681
 30
0.0
 11
176.7287078863
 21
208.5706715681
 31
0.0
  0
LINE
  5
187
330
181
100
AcDbEntity
  8
0
  6
Continuous
 62
     7
370
    18
100
AcDbLine
 10
124.3885379426
 20
178.0706715681
 30
0.0
 11
176.7287078863
 21
178.0706715681
 31
0.0
  0
LINE
  5
188
330
181
100
AcDbEntity
  8
0
  6
Continuous
 62
     7
370
    18
100
AcDbLine
 10
175.7287078863
 20
208.5706715681
 30
0.0
 11
175.7287078863
 21
178.0706715681
 31
0.0
  0
MTEXT
  5
189
330
181
100
AcDbEntity
  8
0
  6
Continuous
 62
     7
370
    18
100
AcDbMText
 10
171.2169709718
 20
188.7431051828
 30
0.0
 40
3.5
 41
0.0
 71
     1
 72
     1
  1
30,50
  7
SLDTEXTSTYLE0
 11
-7.044195017643634E-15
 21
1.0
 31
0.0
 73
     1
 44
1.0
  0
ENDBLK
  5
183
330
181
100
AcDbEntity
  8
0
100
AcDbBlockEnd
  0
BLOCK
  5
18C
330
18B
100
AcDbEntity
  8
0
100
AcDbBlockBegin
  2
_D_8
 70
     0
 10
0.0
 20
0.0
 30
0.0
  3
_D_8
  1

  0
SOLID
  5
18E
330
18B
100
AcDbEntity
  8
0
  6
Continuous
 62
     7
370
    18
100
AcDbTrace
 10
128.9787078863
 20
249.3206715681
 30
0.0
 11
125.6767078863
 21
249.8286715681
 31
0.0
 12
125.6767078863
 22
248.8126715681
 32
0.0
 13
125.6767078863
 23
248.8126715681
 33
0.0
  0
SOLID
  5
18F
330
18B
100
AcDbEntity
  8
0
  6
Continuous
 62
     7
370
    18
100
AcDbTrace
 10
98.4787078863
 20
249.3206715681
 30
0.0
 11
101.7807078863
 21
248.8126715681
 31
0.0
 12
101.7807078863
 22
249.8286715681
 32
0.0
 13
101.7807078863
 23
249.8286715681
 33
0.0
  0
LINE
  5
190
330
18B
100
AcDbEntity
  8
0
  6
Continuous
 62
     7
370
    18
100
AcDbLine
 10
128.9787078863
 20
203.9805016243
 30
0.0
 11
128.9787078863
 21
250.3206715681
 31
0.0
  0
LINE
  5
191
330
18B
100
AcDbEntity
  8
0
  6
Continuous
 62
     7
370
    18
100
AcDbLine
 10
98.4787078863
 20
203.9805016243
 30
0.0
 11
98.4787078863
 21
250.3206715681
 31
0.0
  0
LINE
  5
192
330
18B
100
AcDbEntity
  8
0
  6
Continuous
 62
     7
370
    18
100
AcDbLine
 10
128.9787078863
 20
249.3206715681
 30
0.0
 11
98.4787078863
 21
249.3206715681
 31
0.0
  0
MTEXT
  5
193
330
18B
100
AcDbEntity
  8
0
  6
Continuous
 62
     7
370
    18
100
AcDbMText
 10
109.0809301625
 20
253.8324084826
 30
0.0
 40
3.5
 41
0.0
 71
     1
 72
     1
  1
30,50
  7
SLDTEXTSTYLE0
 73
     1
 44
1.0
  0
ENDBLK
  5
18D
330
18B
100
AcDbEntity
  8
0
100
AcDbBlockEnd
  0
BLOCK
  5
197
330
196
100
AcDbEntity
  8
0
100
AcDbBlockBegin
  2
_NONE
 70
     0
 10
0.0
 20
0.0
 30
0.0
  3
_NONE
  1

  0
ENDBLK
  5
198
330
196
100
AcDbEntity
  8
0
100
AcDbBlockEnd
  0
BLOCK
  5
19A
330
199
100
AcDbEntity
  8
0
100
AcDbBlockBegin
  2
_D_9
 70
     0
 10
0.0
 20
0.0
 30
0.0
  3
_D_9
  1

  0
SOLID
  5
19C
330
199
100
AcDbEntity
  8
0
  6
Continuous
 62
     7
370
    18
100
AcDbTrace
 10
142.8289157806
 20
220.7647583722
 30
0.0
 11
145.5796778447
 21
222.6606950976
 31
0.0
 12
144.8825980399
 22
223.3998403781
 32
0.0
 13
144.8825980399
 23
223.3998403781
 33
0.0
  0
LINE
  5
19D
330
199
100
AcDbEntity
  8
0
  6
Continuous
 62
     7
370
    18
100
AcDbLine
 10
142.8289157806
 20
220.7647583722
 30
0.0
 11
176.2256330654
 21
252.2608360451
 31
0.0
  0
LINE
  5
19E
330
199
100
AcDbEntity
  8
0
  6
Continuous
 62
     7
370
    18
100
AcDbLine
 10
142.8289157806
 20
220.7647583722
 30
0.0
 11
84.6284999921
 21
165.876584764
 31
0.0
  0
MTEXT
  5
19F
330
199
100
AcDbEntity
  8
0
  6
Continuous
 62
     7
370
    18
100
AcDbMText
 10
165.5283712927
 20
248.371697036
 30
0.0
 40
3.5
 41
0.0
 71
     1
 72
     1
  1
%%c
  7
SLDTEXTSTYLE0
 11
0.7275051973563625
 21
0.6861021701025876
 31
0.0
 73
     1
 44
1.0
  0
MTEXT
  5
1A0
330
199
100
AcDbEntity
  8
0
  6
Continuous
 62
     7
370
    18
100
AcDbMText
 10
169.3317745575
 20
252.0321456762
 30
0.0
 40
3.5
 41
0.0
 71
     1
 72
     1
  1
80
  7
SLDTEXTSTYLE0
 11
0.7275051973563625
 21
0.6861021701025876
 31
0.0
 73
     1
 44
1.0
  0
ENDBLK
  5
19B
330
199
100
AcDbEntity
  8
0
100
AcDbBlockEnd
  0
BLOCK
  5
1A3
330
1A2
100
AcDbEntity
  8
0
100
AcDbBlockBegin
  2
_D_10
 70
     0
 10
0.0
 20
0.0
 30
0.0
  3
_D_10
  1

  0
SOLID
  5
1A5
330
1A2
100
AcDbEntity
  8
0
  6
Continuous
 62
     7
370
    18
100
AcDbTrace
 10
101.5688778301
 20
209.2405445491
 30
0.0
 11
99.477936925
 21
206.6349286658
 31
0.0
 12
100.3578187352
 22
206.1269286658
 32
0.0
 13
100.3578187352
 23
206.1269286658
 33
0.0
  0
LINE
  5
1A6
330
1A2
100
AcDbEntity
  8
0
  6
Continuous
 62
     7
370
    18
100
AcDbLine
 10
101.5688778301
 20
209.2405445491
 30
0.0
 11
67.3237386335
 21
149.9262235484
 31
0.0
  0
LINE
  5
1A7
330
1A2
100
AcDbEntity
  8
0
  6
Continuous
 62
     7
370
    18
100
AcDbLine
 10
101.5688778301
 20
209.2405445491
 30
0.0
 11
104.0688778301
 21
213.5706715681
 31
0.0
  0
MTEXT
  5
1A8
330
1A2
100
AcDbEntity
  8
0
  6
Continuous
 62
     7
370
    18
100
AcDbMText
 10
63.4183081148
 20
152.1810249097
 30
0.0
 40
3.5
 41
0.0
 71
     1
 72
     1
  1
R5
  7
SLDTEXTSTYLE0
 11
0.499999999999998
 21
0.8660254037844398
 31
0.0
 73
     1
 44
1.0
  0
ENDBLK
  5
1A4
330
1A2
100
AcDbEntity
  8
0
100
AcDbBlockEnd
  0
BLOCK
  5
1AB
330
1AA
100
AcDbEntity
  8
0
100
AcDbBlockBegin
  2
_D_11
 70
     0
 10
0.0
 20
0.0
 30
0.0
  3
_D_11
  1

  0
SOLID
  5
1AD
330
1AA
100
AcDbEntity
  8
0
  6
Continuous
 62
     7
370
    18
100
AcDbTrace
 10
96.0638933206
 20
209.2177191808
 30
0.0
 11
93.0058863171
 21
210.5630299875
 31
0.0
 12
92.7429261673
 22
209.581649348
 32
0.0
 13
92.7429261673
 23
209.581649348
 33
0.0
  0
LINE
  5
1AE
330
1AA
100
AcDbEntity
  8
0
  6
Continuous
 62
     7
370
    18
100
AcDbLine
 10
96.0638933206
 20
209.2177191808
 30
0.0
 11
46.4994510876
 21
222.4984714505
 31
0.0
  0
LINE
  5
1AF
330
1AA
100
AcDbEntity
  8
0
  6
Continuous
 62
     7
370
    18
100
AcDbLine
 10
96.0638933206
 20
209.2177191808
 30
0.0
 11
98.4787078863
 21
208.5706715681
 31
0.0
  0
MTEXT
  5
1B0
330
1AA
100
AcDbEntity
  8
0
  6
Continuous
 62
     7
370
    18
100
AcDbMText
 10
47.665970755
 20
226.8519821172
 30
0.0
 40
3.5
 41
0.0
 71
     1
 72
     1
  1
R2,50
  7
SLDTEXTSTYLE0
 11
0.9659258262890692
 21
-0.2588190451025175
 31
0.0
 73
     1
 44
1.0
  0
ENDBLK
  5
1AC
330
1AA
100
AcDbEntity
  8
0
100
AcDbBlockEnd
  0
ENDSEC
  0
SECTION
  2
ENTITIES
  0
LINE
  5
BA
330
1F
100
AcDbEntity
  8
0
  6
Continuous
 62
     7
370
    70
100
AcDbLine
 10
20.0
 20
10.0
 30
0.0
 11
20.0
 21
287.0
 31
0.0
  0
LINE
  5
BB
330
1F
100
AcDbEntity
  8
0
  6
Continuous
 62
     7
370
    70
100
AcDbLine
 10
20.0
 20
287.0
 30
0.0
 11
410.0
 21
287.0
 31
0.0
  0
LINE
  5
BC
330
1F
100
AcDbEntity
  8
0
  6
Continuous
 62
     7
370
    70
100
AcDbLine
 10
410.0
 20
287.0
 30
0.0
 11
410.0
 21
10.0
 31
0.0
  0
LINE
  5
BD
330
1F
100
AcDbEntity
  8
0
  6
Continuous
 62
     7
370
    70
100
AcDbLine
 10
410.0
 20
10.0
 30
0.0
 11
20.0
 21
10.0
 31
0.0
  0
LINE
  5
BE
330
1F
100
AcDbEntity
  8
0
  6
Continuous
 62
     7
370
    70
100
AcDbLine
 10
15.0
 20
5.0
 30
0.0
 11
15.0
 21
292.0
 31
0.0
  0
LINE
  5
BF
330
1F
100
AcDbEntity
  8
0
  6
Continuous
 62
     7
370
    70
100
AcDbLine
 10
15.0
 20
292.0
 30
0.0
 11
415.0
 21
292.0
 31
0.0
  0
LINE
  5
C0
330
1F
100
AcDbEntity
  8
0
  6
Continuous
 62
     7
370
    70
100
AcDbLine
 10
415.0
 20
292.0
 30
0.0
 11
415.0
 21
5.0
 31
0.0
  0
LINE
  5
C1
330
1F
100
AcDbEntity
  8
0
  6
Continuous
 62
     7
370
    70
100
AcDbLine
 10
415.0
 20
5.0
 30
0.0
 11
15.0
 21
5.0
 31
0.0
  0
LINE
  5
C2
330
1F
100
AcDbEntity
  8
0
  6
Continuous
 62
     7
370
    35
100
AcDbLine
 10
15.0
 20
148.5
 30
0.0
 11
25.0
 21
148.5
 31
0.0
  0
LINE
  5
C3
330
1F
100
AcDbEntity
  8
0
  6
Continuous
 62
     7
370
    35
100
AcDbLine
 10
215.0
 20
292.0
 30
0.0
 11
215.0
 21
282.0
 31
0.0
  0
LINE
  5
C4
330
1F
100
AcDbEntity
  8
0
  6
Continuous
 62
     7
370
    35
100
AcDbLine
 10
415.0
 20
148.5
 30
0.0
 11
405.0
 21
148.5
 31
0.0
  0
LINE
  5
C5
330
1F
100
AcDbEntity
  8
0
  6
Continuous
 62
     7
370
    35
100
AcDbLine
 10
215.0
 20
5.0
 30
0.0
 11
215.0
 21
15.0
 31
0.0
  0
LINE
  5
C6
330
1F
100
AcDbEntity
  8
0
  6
Continuous
 62
     7
370
    35
100
AcDbLine
 10
20.0
 20
48.5
 30
0.0
 11
15.0
 21
48.5
 31
0.0
  0
LINE
  5
C7
330
1F
100
AcDbEntity
  8
0
  6
Continuous
 62
     7
370
    35
100
AcDbLine
 10
410.0
 20
48.5
 30
0.0
 11
415.0
 21
48.5
 31
0.0
  0
LINE
  5
C8
330
1F
100
AcDbEntity
  8
0
  6
Continuous
 62
     7
370
    35
100
AcDbLine
 10
20.0
 20
98.5
 30
0.0
 11
15.0
 21
98.5
 31
0.0
  0
LINE
  5
C9
330
1F
100
AcDbEntity
  8
0
  6
Continuous
 62
     7
370
    35
100
AcDbLine
 10
410.0
 20
98.5
 30
0.0
 11
415.0
 21
98.5
 31
0.0
  0
LINE
  5
CA
330
1F
100
AcDbEntity
  8
0
  6
Continuous
 62
     7
370
    35
100
AcDbLine
 10
20.0
 20
148.5
 30
0.0
 11
15.0
 21
148.5
 31
0.0
  0
LINE
  5
CB
330
1F
100
AcDbEntity
  8
0
  6
Continuous
 62
     7
370
    35
100
AcDbLine
 10
410.0
 20
148.5
 30
0.0
 11
415.0
 21
148.5
 31
0.0
  0
LINE
  5
CC
330
1F
100
AcDbEntity
  8
0
  6
Continuous
 62
     7
370
    35
100
AcDbLine
 10
20.0
 20
198.5
 30
0.0
 11
15.0
 21
198.5
 31
0.0
  0
LINE
  5
CD
330
1F
100
AcDbEntity
  8
0
  6
Continuous
 62
     7
370
    35
100
AcDbLine
 10
410.0
 20
198.5
 30
0.0
 11
415.0
 21
198.5
 31
0.0
  0
LINE
  5
CE
330
1F
100
AcDbEntity
  8
0
  6
Continuous
 62
     7
370
    35
100
AcDbLine
 10
20.0
 20
248.5
 30
0.0
 11
15.0
 21
248.5
 31
0.0
  0
LINE
  5
CF
330
1F
100
AcDbEntity
  8
0
  6
Continuous
 62
     7
370
    35
100
AcDbLine
 10
410.0
 20
248.5
 30
0.0
 11
415.0
 21
248.5
 31
0.0
  0
LINE
  5
D0
330
1F
100
AcDbEntity
  8
0
  6
Continuous
 62
     7
370
    35
100
AcDbLine
 10
65.0
 20
287.0
 30
0.0
 11
65.0
 21
292.0
 31
0.0
  0
LINE
  5
D1
330
1F
100
AcDbEntity
  8
0
  6
Continuous
 62
     7
370
    35
100
AcDbLine
 10
65.0
 20
10.0
 30
0.0
 11
65.0
 21
5.0
 31
0.0
  0
LINE
  5
D2
330
1F
100
AcDbEntity
  8
0
  6
Continuous
 62
     7
370
    35
100
AcDbLine
 10
115.0
 20
287.0
 30
0.0
 11
115.0
 21
292.0
 31
0.0
  0
LINE
  5
D3
330
1F
100
AcDbEntity
  8
0
  6
Continuous
 62
     7
370
    35
100
AcDbLine
 10
115.0
 20
10.0
 30
0.0
 11
115.0
 21
5.0
 31
0.0
  0
LINE
  5
D4
330
1F
100
AcDbEntity
  8
0
  6
Continuous
 62
     7
370
    35
100
AcDbLine
 10
165.0
 20
287.0
 30
0.0
 11
165.0
 21
292.0
 31
0.0
  0
LINE
  5
D5
330
1F
100
AcDbEntity
  8
0
  6
Continuous
 62
     7
370
    35
100
AcDbLine
 10
165.0
 20
10.0
 30
0.0
 11
165.0
 21
5.0
 31
0.0
  0
LINE
  5
D6
330
1F
100
AcDbEntity
  8
0
  6
Continuous
 62
     7
370
    35
100
AcDbLine
 10
215.0
 20
287.0
 30
0.0
 11
215.0
 21
292.0
 31
0.0
  0
LINE
  5
D7
330
1F
100
AcDbEntity
  8
0
  6
Continuous
 62
     7
370
    35
100
AcDbLine
 10
215.0
 20
10.0
 30
0.0
 11
215.0
 21
5.0
 31
0.0
  0
LINE
  5
D8
330
1F
100
AcDbEntity
  8
0
  6
Continuous
 62
     7
370
    35
100
AcDbLine
 10
265.0
 20
287.0
 30
0.0
 11
265.0
 21
292.0
 31
0.0
  0
LINE
  5
D9
330
1F
100
AcDbEntity
  8
0
  6
Continuous
 62
     7
370
    35
100
AcDbLine
 10
265.0
 20
10.0
 30
0.0
 11
265.0
 21
5.0
 31
0.0
  0
LINE
  5
DA
330
1F
100
AcDbEntity
  8
0
  6
Continuous
 62
     7
370
    35
100
AcDbLine
 10
315.0
 20
287.0
 30
0.0
 11
315.0
 21
292.0
 31
0.0
  0
LINE
  5
DB
330
1F
100
AcDbEntity
  8
0
  6
Continuous
 62
     7
370
    35
100
AcDbLine
 10
315.0
 20
10.0
 30
0.0
 11
315.0
 21
5.0
 31
0.0
  0
LINE
  5
DC
330
1F
100
AcDbEntity
  8
0
  6
Continuous
 62
     7
370
    35
100
AcDbLine
 10
365.0
 20
287.0
 30
0.0
 11
365.0
 21
292.0
 31
0.0
  0
LINE
  5
DD
330
1F
100
AcDbEntity
  8
0
  6
Continuous
 62
     7
370
    35
100
AcDbLine
 10
365.0
 20
10.0
 30
0.0
 11
365.0
 21
5.0
 31
0.0
  0
INSERT
  5
DE
330
1F
100
AcDbEntity
  8
0
  6
Continuous
 62
     7
100
AcDbBlockReference
 66
     1
  2
Bloc cartouche polivalent
 10
-173.6020953532
 20
-0.5588035661
 30
0.0
  0
ATTRIB
  5
DF
330
DE
100
AcDbEntity
  8
0
  6
Continuous
 62
     7
370
     0
100
AcDbText
 10
330.0697121258
 20
11.5569564537
 30
0.0
 40
1.5
  1
ECHELLE:1:1
 41
0.75
  7
SLDTEXTSTYLE0
 11
330.0697121258
 21
11.0270663608
 31
0.0
100
AcDbAttribute
  2
AUTOATTR18
 70
     0
 74
     1
  0
ATTRIB
  5
E0
330
DE
100
AcDbEntity
  8
0
  6
Continuous
 62
     7
370
     0
100
AcDbText
 10
374.4740404361
 20
11.5569564537
 30
0.0
 40
1.5
  1
FEUILLE: 1 sur 1
 41
0.75
  7
SLDTEXTSTYLE0
 11
374.4740404361
 21
11.0270663608
 31
0.0
100
AcDbAttribute
  2
AUTOATTR17
 70
     0
 74
     1
  0
ATTRIB
  5
E1
330
DE
100
AcDbEntity
  8
0
  6
Continuous
 62
     7
370
     0
100
AcDbText
 10
400.866902443
 20
21.7433790025
 30
0.0
 40
2.9104166667
  1
A3
 41
0.75
  7
SLDTEXTSTYLE0
 11
400.866902443
 21
20.7152450306
 31
0.0
100
AcDbAttribute
  2
AUTOATTR0102
 70
     0
 74
     1
  0
ATTRIB
  5
E2
330
DE
100
AcDbEntity
  8
0
  6
Continuous
 62
     7
370
     0
100
AcDbText
 10
291.6662956406
 20
19.3177544709
 30
0.0
 40
2.38125
  1
3.3523 (EN-AW 5052)
 41
0.75
  7
SLDTEXTSTYLE0
 11
291.6662956406
 21
18.4765539484
 31
0.0
100
AcDbAttribute
  2
AUTOATTR16
 70
     0
 74
     1
  0
ATTRIB
  5
E3
330
DE
100
AcDbEntity
  8
0
  6
Continuous
 62
     7
370
     0
100
AcDbText
 10
287.274000128
 20
55.8133592188
 30
0.0
 40
2.38125
  1

 41
0.75
  7
SLDTEXTSTYLE0
 11
287.274000128
 21
54.9721586963
 31
0.0
100
AcDbAttribute
  2
AUTOATTR15
 70
     0
 74
     1
  0
ATTRIB
  5
E4
330
DE
100
AcDbEntity
  8
0
  6
Continuous
 62
     7
370
     0
100
AcDbText
 10
285.6135571365
 20
11.6074912135
 30
0.0
 40
1.4986
  1
MASSE: 
 41
0.75
  7
SLDTEXTSTYLE0
 11
285.6135571365
 21
11.0780956847
 31
0.0
100
AcDbAttribute
  2
AUTOATTR14
 70
     0
 74
     1
  0
ATTRIB
  5
E6
330
DE
100
AcDbEntity
  8
0
  6
Continuous
 62
     7
370
     0
100
AcDbText
 10
374.0770228697
 20
51.97523955
 30
0.0
 40
5.08
  1

 41
0.663
  7
SLDTEXTSTYLE1
 11
374.0770228697
 21
50.1806784355
 31
0.0
100
AcDbAttribute
  2
AUTOATTR3
 70
     0
 74
     1
  0
ATTRIB
  5
E7
330
DE
100
AcDbEntity
  8
0
  6
Continuous
 62
     7
370
     0
100
AcDbText
 10
334.4604632727
 20
18.9282016609
 30
0.0
 40
4.7625
  1
fixation filette parti 1
 41
0.75
  7
SLDTEXTSTYLE0
 11
334.4604632727
 21
17.245800616
 31
0.0
100
AcDbAttribute
  2
AUTOATTR2
 70
     0
 74
     1
  0
ATTRIB
  5
E8
330
DE
100
AcDbEntity
  8
0
  6
Continuous
 62
     7
370
     0
100
AcDbText
 10
379.0972092772
 20
38.5893538633
 30
0.0
 40
6.35
  1

 41
0.75
  7
SLDTEXTSTYLE0
 11
379.0972092772
 21
36.3461524701
 31
0.0
100
AcDbAttribute
  2
AUTOATTR101
 70
     0
 74
     1
  0
ATTRIB
  5
E9
330
DE
100
AcDbEntity
  8
0
  6
Continuous
 62
     7
370
     0
100
AcDbText
 10
395.2381133937
 20
61.0223480848
 30
0.0
 40
1.905
  1
22/06/2023
 41
0.75
  7
SLDTEXTSTYLE0
 11
395.2381133937
 21
60.3493876668
 31
0.0
100
AcDbAttribute
  2
AUTOATTR0
 70
     0
 74
     1
  0
ATTRIB
  5
EA
330
DE
100
AcDbEntity
  8
0
  6
Continuous
 62
     7
370
     0
100
AcDbText
 10
294.807003607
 20
11.6188666725
 30
0.0
 40
2.1166666667
  1
627.03
 41
0.75
  7
SLDTEXTSTYLE0
 11
294.807003607
 21
10.8711328748
 31
0.0
100
AcDbAttribute
  2
AUTOATTR1
 70
     0
 74
     1
  0
ATTRIB
  5
EB
330
DE
100
AcDbEntity
  8
0
  6
Continuous
 62
     7
370
     0
100
AcDbText
 10
352.4191817078
 20
11.568226234
 30
0.0
 40
2.1166666667
  1
21/06/2023
 41
0.75
  7
SLDTEXTSTYLE0
 11
352.4191817078
 21
10.8204924363
 31
0.0
100
AcDbAttribute
  2
AUTOATTR4
 70
     0
 74
     1
  0
ATTRIB
  5
EC
330
DE
100
AcDbEntity
  8
0
  6
Continuous
 62
     7
370
     0
100
AcDbText
 10
311.3343277798
 20
44.6661190988
 30
0.0
 40
2.1166666667
  1
2
 41
0.75
  7
SLDTEXTSTYLE0
 11
311.3343277798
 21
43.9183853011
 31
0.0
100
AcDbAttribute
  2
AUTOATTR5
 70
     0
 74
     1
  0
SEQEND
  5
ED
330
DE
100
AcDbEntity
  8
0
  6
Continuous
 62
     7
  0
MTEXT
  5
EE
330
1F
100
AcDbEntity
  8
0
  6
Continuous
 62
     7
370
     0
100
AcDbMText
 10
17.3396881428
 20
31.7147701949
 30
0.0
 40
3.96875
 41
0.0
 71
     2
 72
     1
  1
A
  7
SLDTEXTSTYLE0
 73
     1
 44
1.0
  0
MTEXT
  5
EF
330
1F
100
AcDbEntity
  8
0
  6
Continuous
 62
     7
370
     0
100
AcDbMText
 10
412.3396881428
 20
31.7147701949
 30
0.0
 40
3.96875
 41
0.0
 71
     2
 72
     1
  1
A
  7
SLDTEXTSTYLE0
 73
     1
 44
1.0
  0
MTEXT
  5
F0
330
1F
100
AcDbEntity
  8
0
  6
Continuous
 62
     7
370
     0
100
AcDbMText
 10
17.4706018241
 20
75.9647701949
 30
0.0
 40
3.96875
 41
0.0
 71
     2
 72
     1
  1
B
  7
SLDTEXTSTYLE0
 73
     1
 44
1.0
  0
MTEXT
  5
F1
330
1F
100
AcDbEntity
  8
0
  6
Continuous
 62
     7
370
     0
100
AcDbMText
 10
412.4706018241
 20
75.9647701949
 30
0.0
 40
3.96875
 41
0.0
 71
     2
 72
     1
  1
B
  7
SLDTEXTSTYLE0
 73
     1
 44
1.0
  0
MTEXT
  5
F2
330
1F
100
AcDbEntity
  8
0
  6
Continuous
 62
     7
370
     0
100
AcDbMText
 10
17.458658902
 20
125.9647701949
 30
0.0
 40
3.96875
 41
0.0
 71
     2
 72
     1
  1
C
  7
SLDTEXTSTYLE0
 73
     1
 44
1.0
  0
MTEXT
  5
F3
330
1F
100
AcDbEntity
  8
0
  6
Continuous
 62
     7
370
     0
100
AcDbMText
 10
412.458658902
 20
125.9647701949
 30
0.0
 40
3.96875
 41
0.0
 71
     2
 72
     1
  1
C
  7
SLDTEXTSTYLE0
 73
     1
 44
1.0
  0
MTEXT
  5
F4
330
1F
100
AcDbEntity
  8
0
  6
Continuous
 62
     7
370
     0
100
AcDbMText
 10
17.4526872821
 20
175.9647701949
 30
0.0
 40
3.96875
 41
0.0
 71
     2
 72
     1
  1
D
  7
SLDTEXTSTYLE0
 73
     1
 44
1.0
  0
MTEXT
  5
F5
330
1F
100
AcDbEntity
  8
0
  6
Continuous
 62
     7
370
     0
100
AcDbMText
 10
412.4526872821
 20
175.9647701949
 30
0.0
 40
3.96875
 41
0.0
 71
     2
 72
     1
  1
D
  7
SLDTEXTSTYLE0
 73
     1
 44
1.0
  0
MTEXT
  5
F6
330
1F
100
AcDbEntity
  8
0
  6
Continuous
 62
     7
370
     0
100
AcDbMText
 10
17.5078089051
 20
225.9647701949
 30
0.0
 40
3.96875
 41
0.0
 71
     2
 72
     1
  1
E
  7
SLDTEXTSTYLE0
 73
     1
 44
1.0
  0
MTEXT
  5
F7
330
1F
100
AcDbEntity
  8
0
  6
Continuous
 62
     7
370
     0
100
AcDbMText
 10
412.5078089051
 20
225.9647701949
 30
0.0
 40
3.96875
 41
0.0
 71
     2
 72
     1
  1
E
  7
SLDTEXTSTYLE0
 73
     1
 44
1.0
  0
MTEXT
  5
F8
330
1F
100
AcDbEntity
  8
0
  6
Continuous
 62
     7
370
     0
100
AcDbMText
 10
17.4577402091
 20
270.2147701949
 30
0.0
 40
3.96875
 41
0.0
 71
     2
 72
     1
  1
F
  7
SLDTEXTSTYLE0
 73
     1
 44
1.0
  0
MTEXT
  5
F9
330
1F
100
AcDbEntity
  8
0
  6
Continuous
 62
     7
370
     0
100
AcDbMText
 10
412.4577402091
 20
270.2147701949
 30
0.0
 40
3.96875
 41
0.0
 71
     2
 72
     1
  1
F
  7
SLDTEXTSTYLE0
 73
     1
 44
1.0
  0
MTEXT
  5
FA
330
1F
100
AcDbEntity
  8
0
  6
Continuous
 62
     7
370
     0
100
AcDbMText
 10
42.4600369465
 20
9.9647701949
 30
0.0
 40
3.96875
 41
0.0
 71
     2
 72
     1
  1
8
  7
SLDTEXTSTYLE0
 73
     1
 44
1.0
  0
MTEXT
  5
FB
330
1F
100
AcDbEntity
  8
0
  6
Continuous
 62
     7
370
     0
100
AcDbMText
 10
42.4600369465
 20
291.9647701949
 30
0.0
 40
3.96875
 41
0.0
 71
     2
 72
     1
  1
8
  7
SLDTEXTSTYLE0
 73
     1
 44
1.0
  0
MTEXT
  5
FC
330
1F
100
AcDbEntity
  8
0
  6
Continuous
 62
     7
370
     0
100
AcDbMText
 10
89.9600369465
 20
9.9647701949
 30
0.0
 40
3.96875
 41
0.0
 71
     2
 72
     1
  1
7
  7
SLDTEXTSTYLE0
 73
     1
 44
1.0
  0
MTEXT
  5
FD
330
1F
100
AcDbEntity
  8
0
  6
Continuous
 62
     7
370
     0
100
AcDbMText
 10
89.9600369465
 20
291.9647701949
 30
0.0
 40
3.96875
 41
0.0
 71
     2
 72
     1
  1
7
  7
SLDTEXTSTYLE0
 73
     1
 44
1.0
  0
MTEXT
  5
FE
330
1F
100
AcDbEntity
  8
0
  6
Continuous
 62
     7
370
     0
100
AcDbMText
 10
139.9600369465
 20
9.9647701949
 30
0.0
 40
3.96875
 41
0.0
 71
     2
 72
     1
  1
6
  7
SLDTEXTSTYLE0
 73
     1
 44
1.0
  0
MTEXT
  5
FF
330
1F
100
AcDbEntity
  8
0
  6
Continuous
 62
     7
370
     0
100
AcDbMText
 10
139.9600369465
 20
291.9647701949
 30
0.0
 40
3.96875
 41
0.0
 71
     2
 72
     1
  1
6
  7
SLDTEXTSTYLE0
 73
     1
 44
1.0
  0
MTEXT
  5
100
330
1F
100
AcDbEntity
  8
0
  6
Continuous
 62
     7
370
     0
100
AcDbMText
 10
189.9600369465
 20
9.9647701949
 30
0.0
 40
3.96875
 41
0.0
 71
     2
 72
     1
  1
5
  7
SLDTEXTSTYLE0
 73
     1
 44
1.0
  0
MTEXT
  5
101
330
1F
100
AcDbEntity
  8
0
  6
Continuous
 62
     7
370
     0
100
AcDbMText
 10
189.9600369465
 20
291.9647701949
 30
0.0
 40
3.96875
 41
0.0
 71
     2
 72
     1
  1
5
  7
SLDTEXTSTYLE0
 73
     1
 44
1.0
  0
MTEXT
  5
102
330
1F
100
AcDbEntity
  8
0
  6
Continuous
 62
     7
370
     0
100
AcDbMText
 10
239.9600369465
 20
9.9647701949
 30
0.0
 40
3.96875
 41
0.0
 71
     2
 72
     1
  1
4
  7
SLDTEXTSTYLE0
 73
     1
 44
1.0
  0
MTEXT
  5
103
330
1F
100
AcDbEntity
  8
0
  6
Continuous
 62
     7
370
     0
100
AcDbMText
 10
239.9600369465
 20
291.9647701949
 30
0.0
 40
3.96875
 41
0.0
 71
     2
 72
     1
  1
4
  7
SLDTEXTSTYLE0
 73
     1
 44
1.0
  0
MTEXT
  5
104
330
1F
100
AcDbEntity
  8
0
  6
Continuous
 62
     7
370
     0
100
AcDbMText
 10
289.9600369465
 20
9.9647701949
 30
0.0
 40
3.96875
 41
0.0
 71
     2
 72
     1
  1
3
  7
SLDTEXTSTYLE0
 73
     1
 44
1.0
  0
MTEXT
  5
105
330
1F
100
AcDbEntity
  8
0
  6
Continuous
 62
     7
370
     0
100
AcDbMText
 10
289.9600369465
 20
291.9647701949
 30
0.0
 40
3.96875
 41
0.0
 71
     2
 72
     1
  1
3
  7
SLDTEXTSTYLE0
 73
     1
 44
1.0
  0
MTEXT
  5
106
330
1F
100
AcDbEntity
  8
0
  6
Continuous
 62
     7
370
     0
100
AcDbMText
 10
339.9600369465
 20
9.9647701949
 30
0.0
 40
3.96875
 41
0.0
 71
     2
 72
     1
  1
2
  7
SLDTEXTSTYLE0
 73
     1
 44
1.0
  0
MTEXT
  5
107
330
1F
100
AcDbEntity
  8
0
  6
Continuous
 62
     7
370
     0
100
AcDbMText
 10
339.9600369465
 20
291.9647701949
 30
0.0
 40
3.96875
 41
0.0
 71
     2
 72
     1
  1
2
  7
SLDTEXTSTYLE0
 73
     1
 44
1.0
  0
MTEXT
  5
108
330
1F
100
AcDbEntity
  8
0
  6
Continuous
 62
     7
370
     0
100
AcDbMText
 10
387.4600369465
 20
9.9647701949
 30
0.0
 40
3.96875
 41
0.0
 71
     2
 72
     1
  1
1
  7
SLDTEXTSTYLE0
 73
     1
 44
1.0
  0
MTEXT
  5
109
330
1F
100
AcDbEntity
  8
0
  6
Continuous
 62
     7
370
     0
100
AcDbMText
 10
387.4600369465
 20
291.9647701949
 30
0.0
 40
3.96875
 41
0.0
 71
     2
 72
     1
  1
1
  7
SLDTEXTSTYLE0
 73
     1
 44
1.0
  0
ARC
  5
10A
330
1F
100
AcDbEntity
  8
0
  6
Continuous
 62
     7
370
    25
100
AcDbCircle
 10
113.7287078863
 20
82.2931956445
 30
0.0
 40
39.99999999999999
100
AcDbArc
 50
0.0
 51
180.0
  0
ARC
  5
10B
330
1F
100
AcDbEntity
  8
0
  6
Continuous
 62
     7
370
    25
100
AcDbCircle
 10
144.7287078863
 20
82.2931956445
 30
0.0
 40
9.0
100
AcDbArc
 50
275.2159085705
 51
0.0
  0
ARC
  5
10C
330
1F
100
AcDbEntity
  8
0
  6
Continuous
 62
     7
370
    25
100
AcDbCircle
 10
82.7287078863
 20
82.2931956445
 30
0.0
 40
8.999999999999993
100
AcDbArc
 50
180.0
 51
264.7840914295
  0
ARC
  5
10D
330
1F
100
AcDbEntity
  8
0
  6
Continuous
 62
     7
370
    25
100
AcDbCircle
 10
148.7287078863
 20
57.2931956445
 30
0.0
 40
5.000000000000007
100
AcDbArc
 50
0.0
 51
90.0
  0
ARC
  5
10E
330
1F
100
AcDbEntity
  8
0
  6
Continuous
 62
     7
370
    25
100
AcDbCircle
 10
78.7287078863
 20
57.2931956445
 30
0.0
 40
5.000000000000007
100
AcDbArc
 50
90.0
 51
180.0
  0
ARC
  5
10F
330
1F
100
AcDbEntity
  8
0
  6
Continuous
 62
     7
370
    25
100
AcDbCircle
 10
148.7287078863
 20
57.2931956445
 30
0.0
 40
5.0
100
AcDbArc
 50
270.0
 51
0.0
  0
ARC
  5
110
330
1F
100
AcDbEntity
  8
0
  6
Continuous
 62
     7
370
    25
100
AcDbCircle
 10
78.7287078863
 20
57.2931956445
 30
0.0
 40
5.0
100
AcDbArc
 50
180.0
 51
270.0
  0
ARC
  5
111
330
1F
100
AcDbEntity
  8
0
  6
Continuous
 62
     7
370
    25
100
AcDbCircle
 10
145.7287078863
 20
64.2931956445
 30
0.0
 40
2.0
100
AcDbArc
 50
180.0
 51
270.0
  0
ARC
  5
112
330
1F
100
AcDbEntity
  8
0
  6
Continuous
 62
     7
370
    25
100
AcDbCircle
 10
81.7287078863
 20
64.2931956445
 30
0.0
 40
2.0
100
AcDbArc
 50
270.0
 51
0.0
  0
ARC
  5
113
330
1F
100
AcDbEntity
  8
0
  6
Continuous
 62
     7
370
    25
100
AcDbCircle
 10
81.7287078863
 20
71.3387444944
 30
0.0
 40
2.000000000000008
100
AcDbArc
 50
0.0
 51
84.7840914295
  0
ARC
  5
114
330
1F
100
AcDbEntity
  8
0
  6
Continuous
 62
     7
370
    25
100
AcDbCircle
 10
145.7287078863
 20
71.3387444944
 30
0.0
 40
2.000000000000007
100
AcDbArc
 50
95.2159085705
 51
180.0
  0
LINE
  5
115
330
1F
100
AcDbEntity
  8
0
  6
Continuous
 62
     7
370
    25
100
AcDbLine
 10
83.7287078863
 20
71.3387444944
 30
0.0
 11
83.7287078863
 21
64.2931956445
 31
0.0
  0
LINE
  5
116
330
1F
100
AcDbEntity
  8
0
  6
Continuous
 62
     7
370
    25
100
AcDbLine
 10
143.7287078863
 20
64.2931956445
 30
0.0
 11
143.7287078863
 21
71.3387444944
 31
0.0
  0
LINE
  5
117
330
1F
100
AcDbEntity
  8
0
  6
Continuous
 62
     7
370
    25
100
AcDbLine
 10
78.7287078863
 20
62.2931956445
 30
0.0
 11
148.7287078863
 21
62.2931956445
 31
0.0
  0
LINE
  5
118
330
1F
100
AcDbEntity
  8
0
  6
Continuous
 62
     7
370
    25
100
AcDbLine
 10
148.7287078863
 20
52.2931956445
 30
0.0
 11
78.7287078863
 21
52.2931956445
 31
0.0
  0
LINE
  5
119
330
1F
100
AcDbEntity
  8
0
  6
Continuous
 62
     8
370
    25
100
AcDbLine
 10
113.7287078863
 20
82.2931956445
 30
0.0
 11
153.7287078863
 21
82.2931956445
 31
0.0
  0
LINE
  5
11A
330
1F
100
AcDbEntity
  8
0
  6
Continuous
 62
     8
370
    25
100
AcDbLine
 10
73.7287078863
 20
82.2931956445
 30
0.0
 11
113.7287078863
 21
82.2931956445
 31
0.0
  0
LINE
  5
11B
330
1F
100
AcDbEntity
  8
0
  6
Continuous
 62
     8
370
    25
100
AcDbLine
 10
113.7287078863
 20
73.3304628854
 30
0.0
 11
145.5468897045
 21
73.3304628854
 31
0.0
  0
LINE
  5
11C
330
1F
100
AcDbEntity
  8
0
  6
Continuous
 62
     8
370
    25
100
AcDbLine
 10
81.9105260682
 20
73.3304628854
 30
0.0
 11
113.7287078863
 21
73.3304628854
 31
0.0
  0
LINE
  5
11D
330
1F
100
AcDbEntity
  8
0
  6
Continuous
 62
     8
370
    25
100
AcDbLine
 10
153.7287078863
 20
57.2931956445
 30
0.0
 11
73.7287078863
 21
57.2931956445
 31
0.0
  0
LINE
  5
11E
330
1F
100
AcDbEntity
  8
0
  6
Continuous
 62
     8
370
    25
100
AcDbLine
 10
83.7287078863
 20
64.2931956445
 30
0.0
 11
143.7287078863
 21
64.2931956445
 31
0.0
  0
LINE
  5
11F
330
1F
100
AcDbEntity
  8
0
  6
Continuous
 62
     8
370
    25
100
AcDbLine
 10
113.7287078863
 20
71.3387444944
 30
0.0
 11
83.7287078863
 21
71.3387444944
 31
0.0
  0
LINE
  5
120
330
1F
100
AcDbEntity
  8
0
  6
Continuous
 62
     8
370
    25
100
AcDbLine
 10
143.7287078863
 20
71.3387444944
 30
0.0
 11
113.7287078863
 21
71.3387444944
 31
0.0
  0
POINT
  5
121
330
1F
100
AcDbEntity
  8
0
  6
Continuous
 62
     7
370
     0
100
AcDbPoint
 10
113.7287078863
 20
122.2931956445
 30
0.0
  0
DIMENSION
  5
122
330
1F
100
AcDbEntity
  8
0
  6
Continuous
 62
     7
370
    18
100
AcDbDimension
  2
_D
 10
53.6033497523
 20
52.2931956445
 30
0.0
 11
53.6033497523
 21
88.874693844
 31
0.0
 70
   160
  1
<>
 71
     2
 42
-1.0
  3
SLDDIMSTYLE0
100
AcDbAlignedDimension
 13
113.7287078863
 23
122.2931956445
 33
0.0
 14
78.7287078863
 24
52.2931956445
 34
0.0
 50
90.0
100
AcDbRotatedDimension
  0
DIMENSION
  5
12F
330
1F
100
AcDbEntity
  8
0
  6
Continuous
 62
     7
370
    18
100
AcDbDimension
  2
_D_1
 10
113.7287078863
 20
82.2931956445
 30
0.0
 11
168.5039388929
 21
151.2168817696
 31
0.0
 70
   164
  1
<>
 71
     1
 42
-1.0
  3
SLDDIMSTYLE1
100
AcDbRadialDimension
 15
138.6156146935
 25
113.6083975371
 35
0.0
 40
0.0
  0
DIMENSION
  5
138
330
1F
100
AcDbEntity
  8
0
  6
Continuous
 62
     7
370
    18
100
AcDbDimension
  2
_D_2
 10
60.7350394222
 20
62.2931956445
 30
0.0
 11
60.7350394222
 21
57.6527726997
 31
0.0
 70
   160
  1
<>
 71
     2
 42
-1.0
  3
SLDDIMSTYLE0
100
AcDbAlignedDimension
 13
78.7287078863
 23
52.2931956445
 33
0.0
 14
78.7287078863
 24
62.2931956445
 34
0.0
 50
90.0
100
AcDbRotatedDimension
  0
DIMENSION
  5
144
330
1F
100
AcDbEntity
  8
0
  6
Continuous
 62
     7
370
    18
100
AcDbDimension
  2
_D_3
 10
145.7287078863
 20
64.2931956445
 30
0.0
 11
180.1474208714
 21
70.3653004135
 31
0.0
 70
   164
  1
<>
 71
     1
 42
-1.0
  3
SLDDIMSTYLE2
100
AcDbRadialDimension
 15
143.7591232019
 25
63.9457245366
 35
0.0
 40
0.0
  0
DIMENSION
  5
14D
330
1F
100
AcDbEntity
  8
0
  6
Continuous
 62
     7
370
    18
100
AcDbDimension
  2
_D_4
 10
60.7350394222
 20
62.2931956445
 30
0.0
 11
60.7350394222
 21
68.5957135061
 31
0.0
 70
   160
  1
<>
 71
     2
 42
-1.0
  3
SLDDIMSTYLE3
100
AcDbAlignedDimension
 13
81.9105260682
 23
73.3304628854
 33
0.0
 14
78.7287078863
 24
62.2931956445
 34
0.0
 50
90.0
100
AcDbRotatedDimension
  0
DIMENSION
  5
15A
330
1F
100
AcDbEntity
  8
0
  6
Continuous
 62
     7
370
    18
100
AcDbDimension
  2
_D_5
 10
144.7287078863
 20
82.2931956445
 30
0.0
 11
166.5456193607
 21
73.84773259
 31
0.0
 70
   164
  1
<>
 71
     1
 42
-1.0
  3
SLDDIMSTYLE1
100
AcDbRadialDimension
 15
153.1217921651
 25
79.0441748244
 35
0.0
 40
0.0
  0
DIMENSION
  5
162
330
1F
100
AcDbEntity
  8
0
  6
Continuous
 62
     7
370
    18
100
AcDbDimension
  2
_D_6
 10
83.7287078863
 20
26.1722492058
 30
0.0
 11
112.4335741592
 21
26.1722492058
 31
0.0
 70
   160
  1
%%c<>
 71
     2
 42
-1.0
  3
SLDDIMSTYLE4
100
AcDbAlignedDimension
 13
143.7287078863
 23
64.2931956445
 33
0.0
 14
83.7287078863
 24
64.2931956445
 34
0.0
100
AcDbRotatedDimension
  0
CIRCLE
  5
16E
330
1F
100
AcDbEntity
  8
0
  6
Continuous
 62
     7
370
    25
100
AcDbCircle
 10
113.7287078863
 20
193.3206715681
 30
0.0
 40
40.00000000000003
  0
CIRCLE
  5
16F
330
1F
100
AcDbEntity
  8
0
  6
Continuous
 62
     7
370
    25
100
AcDbCircle
 10
113.7287078863
 20
193.3206715681
 30
0.0
 40
35.0
  0
ARC
  5
170
330
1F
100
AcDbEntity
  8
0
  6
Continuous
 62
     7
370
    25
100
AcDbCircle
 10
104.0688778301
 20
173.0706715681
 30
0.0
 40
5.000000000000005
100
AcDbArc
 50
90.0
 51
138.1896851042
  0
LINE
  5
171
330
1F
100
AcDbEntity
  8
0
  6
Continuous
 62
     7
370
    25
100
AcDbLine
 10
123.3885379426
 20
178.0706715681
 30
0.0
 11
104.0688778301
 21
178.0706715681
 31
0.0
  0
ARC
  5
172
330
1F
100
AcDbEntity
  8
0
  6
Continuous
 62
     7
370
    25
100
AcDbCircle
 10
123.3885379426
 20
173.0706715681
 30
0.0
 40
5.000000000000005
100
AcDbArc
 50
41.8103148958
 51
90.0
  0
ARC
  5
173
330
1F
100
AcDbEntity
  8
0
  6
Continuous
 62
     7
370
    25
100
AcDbCircle
 10
128.9787078863
 20
178.0706715681
 30
0.0
 40
2.500000000000004
100
AcDbArc
 50
221.8103148958
 51
48.1896851042
  0
ARC
  5
174
330
1F
100
AcDbEntity
  8
0
  6
Continuous
 62
     7
370
    25
100
AcDbCircle
 10
133.9787078863
 20
183.6608415118
 30
0.0
 40
5.000000000000005
100
AcDbArc
 50
180.0
 51
228.1896851042
  0
LINE
  5
175
330
1F
100
AcDbEntity
  8
0
  6
Continuous
 62
     7
370
    25
100
AcDbLine
 10
128.9787078863
 20
183.6608415118
 30
0.0
 11
128.9787078863
 21
202.9805016243
 31
0.0
  0
ARC
  5
176
330
1F
100
AcDbEntity
  8
0
  6
Continuous
 62
     7
370
    25
100
AcDbCircle
 10
133.9787078863
 20
202.9805016243
 30
0.0
 40
5.000000000000025
100
AcDbArc
 50
131.8103148958
 51
180.0
  0
ARC
  5
177
330
1F
100
AcDbEntity
  8
0
  6
Continuous
 62
     7
370
    25
100
AcDbCircle
 10
128.9787078863
 20
208.5706715681
 30
0.0
 40
2.500000000000023
100
AcDbArc
 50
311.8103148958
 51
138.1896851042
  0
ARC
  5
178
330
1F
100
AcDbEntity
  8
0
  6
Continuous
 62
     7
370
    25
100
AcDbCircle
 10
123.3885379426
 20
213.5706715681
 30
0.0
 40
5.0
100
AcDbArc
 50
270.0
 51
318.1896851042
  0
LINE
  5
179
330
1F
100
AcDbEntity
  8
0
  6
Continuous
 62
     7
370
    25
100
AcDbLine
 10
123.3885379426
 20
208.5706715681
 30
0.0
 11
104.0688778301
 21
208.5706715681
 31
0.0
  0
ARC
  5
17A
330
1F
100
AcDbEntity
  8
0
  6
Continuous
 62
     7
370
    25
100
AcDbCircle
 10
104.0688778301
 20
213.5706715681
 30
0.0
 40
5.0
100
AcDbArc
 50
221.8103148958
 51
270.0
  0
ARC
  5
17B
330
1F
100
AcDbEntity
  8
0
  6
Continuous
 62
     7
370
    25
100
AcDbCircle
 10
98.4787078863
 20
208.5706715681
 30
0.0
 40
2.500000000000012
100
AcDbArc
 50
41.8103148958
 51
228.1896851042
  0
ARC
  5
17C
330
1F
100
AcDbEntity
  8
0
  6
Continuous
 62
     7
370
    25
100
AcDbCircle
 10
93.4787078863
 20
202.9805016243
 30
0.0
 40
5.0
100
AcDbArc
 50
0.0
 51
48.1896851042
  0
LINE
  5
17D
330
1F
100
AcDbEntity
  8
0
  6
Continuous
 62
     7
370
    25
100
AcDbLine
 10
98.4787078863
 20
183.6608415118
 30
0.0
 11
98.4787078863
 21
202.9805016243
 31
0.0
  0
ARC
  5
17E
330
1F
100
AcDbEntity
  8
0
  6
Continuous
 62
     7
370
    25
100
AcDbCircle
 10
93.4787078863
 20
183.6608415118
 30
0.0
 40
5.000000000000005
100
AcDbArc
 50
311.8103148958
 51
0.0
  0
ARC
  5
17F
330
1F
100
AcDbEntity
  8
0
  6
Continuous
 62
     7
370
    25
100
AcDbCircle
 10
98.4787078863
 20
178.0706715681
 30
0.0
 40
2.500000000000004
100
AcDbArc
 50
131.8103148958
 51
318.1896851042
  0
DIMENSION
  5
180
330
1F
100
AcDbEntity
  8
0
  6
Continuous
 62
     7
370
    18
100
AcDbDimension
  2
_D_7
 10
175.7287078863
 20
178.0706715681
 30
0.0
 11
175.7287078863
 21
194.5618554264
 31
0.0
 70
   160
  1
<>
 71
     2
 42
-1.0
  3
SLDDIMSTYLE4
100
AcDbAlignedDimension
 13
123.3885379426
 23
208.5706715681
 33
0.0
 14
123.3885379426
 24
178.0706715681
 34
0.0
 50
90.0
100
AcDbRotatedDimension
  0
DIMENSION
  5
18A
330
1F
100
AcDbEntity
  8
0
  6
Continuous
 62
     7
370
    18
100
AcDbDimension
  2
_D_8
 10
98.4787078863
 20
249.3206715681
 30
0.0
 11
114.8996804062
 21
249.3206715681
 31
0.0
 70
   160
  1
<>
 71
     2
 42
-1.0
  3
SLDDIMSTYLE4
100
AcDbAlignedDimension
 13
128.9787078863
 23
202.9805016243
 33
0.0
 14
98.4787078863
 24
202.9805016243
 34
0.0
100
AcDbRotatedDimension
  0
DIMENSION
  5
194
330
1F
100
AcDbEntity
  8
0
  6
Continuous
 62
     7
370
    18
100
AcDbDimension
  2
_D_9
 10
84.6284999921
 20
165.876584764
 30
0.0
 11
172.4596047224
 21
248.7091366013
 31
0.0
 70
   163
  1
<>
 71
     1
 42
-1.0
  3
SLDDIMSTYLE5
100
AcDbDiametricDimension
 15
142.8289157806
 25
220.7647583722
 35
0.0
 40
0.0
  0
DIMENSION
  5
1A1
330
1F
100
AcDbEntity
  8
0
  6
Continuous
 62
     7
370
    18
100
AcDbDimension
  2
_D_10
 10
104.0688778301
 20
213.5706715681
 30
0.0
 11
68.6515753555
 21
152.2260968945
 31
0.0
 70
   164
  1
<>
 71
     1
 42
-1.0
  3
SLDDIMSTYLE1
100
AcDbRadialDimension
 15
101.5688778301
 25
209.2405445491
 35
0.0
 40
0.0
  0
DIMENSION
  5
1A9
330
1F
100
AcDbEntity
  8
0
  6
Continuous
 62
     7
370
    18
100
AcDbDimension
  2
_D_11
 10
98.4787078863
 20
208.5706715681
 30
0.0
 11
52.1621357328
 21
220.9811723523
 31
0.0
 70
   164
  1
<>
 71
     1
 42
-1.0
  3
SLDDIMSTYLE1
100
AcDbRadialDimension
 15
96.0638933206
 25
209.2177191808
 35
0.0
 40
0.0
  0
ARC
  5
1B1
330
1F
100
AcDbEntity
  8
0
  6
Continuous
 62
     7
370
    25
100
AcDbCircle
 10
322.6823396074
 20
184.5487013993
 30
0.0
 40
40.0
100
AcDbArc
 50
0.0
 51
180.0
  0
SPLINE
  5
1B2
330
1F
100
AcDbEntity
  8
0
  6
Continuous
 62
     7
370
    25
100
AcDbSpline
210
0.0
220
0.0
230
1.0
 70
     8
 71
     3
 72
    76
 73
    72
 74
     0
 42
0.000000001
 43
0.00000001
 40
0.0
 40
0.0
 40
0.0
 40
0.0
 40
0.0125568500929408
 40
0.0256586920199796
 40
0.0387676667307998
 40
0.0519123678072844
 40
0.0651208978180747
 40
0.078420499856135
 40
0.0918370489164043
 40
0.1053943679531053
 40
0.119113352763504
 40
0.1330109244960197
 40
0.1470988808269316
 40
0.1613827841040641
 40
0.1758610927409857
 40
0.1905247817472995
 40
0.205357671851359
 40
0.2203375689483698
 40
0.2354381220701904
 40
0.2506311065155005
 40
0.265888720738118
 40
0.2811855080210779
 40
0.2964990719255517
 40
0.3118076694462499
 40
0.3270995135000332
 40
0.342366624027884
 40
0.3576042448637514
 40
0.3728102177852028
 40
0.3879844039417222
 40
0.403128189198291
 40
0.4182440833032534
 40
0.4333354077015379
 40
0.4484060598315041
 40
0.4634603396604478
 40
0.4785028246907612
 40
0.4935382812207625
 40
0.5085716014227141
 40
0.5236076279273807
 40
0.5386498405902261
 40
0.5537032728365899
 40
0.5687729400540057
 40
0.5838637925975184
 40
0.5989806513539694
 40
0.6141281161324627
 40
0.6293104355676655
 40
0.6445313249931459
 40
0.6597937165518648
 40
0.675099424455012
 40
0.6904487092475644
 40
0.705839730637217
 40
0.7212678925122715
 40
0.7367251106841338
 40
0.7521986278449294
 40
0.7676648872674104
 40
0.7831000309793459
 40
0.7984757210913713
 40
0.8137604959149638
 40
0.8289219547864424
 40
0.8439294998009328
 40
0.8587571442878401
 40
0.8733858204364168
 40
0.887804756414315
 40
0.9020117819686697
 40
0.9160127147950661
 40
0.9298201557135679
 40
0.9434520472270473
 40
0.9569302724352535
 40
0.970279457042624
 40
0.9835260351778641
 40
0.9966975698046542
 40
1.0
 40
1.0
 40
1.0
 40
1.0
 10
282.6840233726103
 20
184.5353628110826
 30
0.0
 10
282.6908513866479
 20
184.1336203621845
 30
0.0
 10
282.7048037638762
 20
183.3126990569741
 30
0.0
 10
282.8281788210502
 20
182.0772871233252
 30
0.0
 10
283.0275641457566
 20
180.8331901094469
 30
0.0
 10
283.3086726080053
 20
179.6006170040199
 30
0.0
 10
283.6686165216707
 20
178.3815341975434
 30
0.0
 10
284.1074667592493
 20
177.177782863703
 30
0.0
 10
284.6246747979358
 20
175.99110430499
 30
0.0
 10
285.2200281007857
 20
174.8231948674831
 30
0.0
 10
285.893349139665
 20
173.6757707022466
 30
0.0
 10
286.6444938671522
 20
172.5506409679311
 30
0.0
 10
287.4732253930136
 20
171.4497784357787
 30
0.0
 10
288.3790832220446
 20
170.3753747368115
 30
0.0
 10
289.3612312952369
 20
169.3298656469227
 30
0.0
 10
290.4183167055116
 20
168.3159141459967
 30
0.0
 10
291.5483650865858
 20
167.3363459389407
 30
0.0
 10
292.7487388709997
 20
166.3940431345651
 30
0.0
 10
294.0161717500227
 20
165.4918135070481
 30
0.0
 10
295.3468744768595
 20
164.6322604037865
 30
0.0
 10
296.736689246907
 20
163.8176781650566
 30
0.0
 10
298.1812414377659
 20
163.0499995859973
 30
0.0
 10
299.6759729533343
 20
162.3308333391991
 30
0.0
 10
301.216426025107
 20
161.661380646614
 30
0.0
 10
302.7983430871284
 20
161.0424883328312
 30
0.0
 10
304.4178356834655
 20
160.4746843805947
 30
0.0
 10
306.0711918572696
 20
159.9583271494943
 30
0.0
 10
307.7548542266297
 20
159.493655777871
 30
0.0
 10
309.4653913058955
 20
159.080829346833
 30
0.0
 10
311.1994684661741
 20
158.7199551410014
 30
0.0
 10
312.9538219777587
 20
158.411107728431
 30
0.0
 10
314.7252377060702
 20
158.1543409675554
 30
0.0
 10
316.5105348315134
 20
157.9496949582117
 30
0.0
 10
318.3065542733081
 20
157.7971996516168
 30
0.0
 10
320.1101511531071
 20
157.6968764740043
 30
0.0
 10
321.9181905005386
 20
157.648738979413
 30
0.0
 10
323.7275401756299
 20
157.6527932456015
 30
0.0
 10
325.5350143167783
 20
157.7090359522943
 30
0.0
 10
327.3374367723493
 20
157.8174495281224
 30
0.0
 10
329.1316492778396
 20
157.9780048852088
 30
0.0
 10
330.9145679311063
 20
158.1906741262876
 30
0.0
 10
332.6831206318544
 20
158.4554320051246
 30
0.0
 10
334.4342438937679
 20
158.7722595480921
 30
0.0
 10
336.1648766871065
 20
159.1411473863599
 30
0.0
 10
337.871950320782
 20
159.5620979622505
 30
0.0
 10
339.552373370168
 20
160.0351253917689
 30
0.0
 10
341.2030107250501
 20
160.5602512866783
 30
0.0
 10
342.820656104371
 20
161.1374942786999
 30
0.0
 10
344.4019980069414
 20
161.7668504110623
 30
0.0
 10
345.9435802388454
 20
162.4482611221985
 30
0.0
 10
347.4417601050552
 20
163.1815655439542
 30
0.0
 10
348.8926560901999
 20
163.966427098694
 30
0.0
 10
350.2919454591548
 20
164.8021394333247
 30
0.0
 10
351.6350466362518
 20
165.6875822477415
 30
0.0
 10
352.9171985317131
 20
166.6211278938121
 30
0.0
 10
354.1337285533558
 20
167.6007002590333
 30
0.0
 10
355.2800762837913
 20
168.6236650527985
 30
0.0
 10
356.351993013847
 20
169.6868652967957
 30
0.0
 10
357.3457406134842
 20
170.7867200549351
 30
0.0
 10
358.258248973071
 20
171.9193710230956
 30
0.0
 10
359.0871989138543
 20
173.0808470794621
 30
0.0
 10
359.8310211400595
 20
174.2672127041959
 30
0.0
 10
360.4888137377927
 20
175.474674397296
 30
0.0
 10
361.0602400437975
 20
176.6996357651364
 30
0.0
 10
361.545316159652
 20
177.9387063136805
 30
0.0
 10
361.9445627648543
 20
179.1886842897263
 30
0.0
 10
362.2578901371328
 20
180.4465151341992
 30
0.0
 10
362.4882530466683
 20
181.7092992331539
 30
0.0
 10
362.6278807644351
 20
182.9741379251039
 30
0.0
 10
362.68877809976
 20
183.9245337857446
 30
0.0
 10
362.6769769896019
 20
184.4514330246083
 30
0.0
 10
362.6746112966466
 20
184.5570571396962
 30
0.0
  0
SPLINE
  5
1B3
330
1F
100
AcDbEntity
  8
0
  6
Continuous
 62
     7
370
    25
100
AcDbSpline
210
0.0
220
0.0
230
1.0
 70
     8
 71
     3
 72
    17
 73
    13
 74
     0
 42
0.000000001
 43
0.00000001
 40
0.0
 40
0.0
 40
0.0
 40
0.0
 40
0.0404502905999015
 40
0.1539652353881456
 40
0.2674709109116792
 40
0.3812133321824631
 40
0.4954392454457869
 40
0.610375479199804
 40
0.7262200662578618
 40
0.8431334376678102
 40
0.9612303160155035
 40
1.0
 40
1.0
 40
1.0
 40
1.0
 10
362.672916879933
 20
164.1447331093091
 30
0.0
 10
362.6753637395499
 20
164.2835130673066
 30
0.0
 10
362.6846771786202
 20
164.8117488001866
 30
0.0
 10
362.6162926011844
 20
165.7286785110855
 30
0.0
 10
362.4683268570732
 20
166.8905399942381
 30
0.0
 10
362.2339721730075
 20
168.0442200522951
 30
0.0
 10
361.9208040444739
 20
169.1880267306869
 30
0.0
 10
361.5268145385647
 20
170.3201389035304
 30
0.0
 10
361.0543707654563
 20
171.4395996206901
 30
0.0
 10
360.4972734587006
 20
172.5419405676134
 30
0.0
 10
360.0198755487932
 20
173.3868271598128
 30
0.0
 10
359.7048227646319
 20
173.8532382189058
 30
0.0
 10
359.6269572418666
 20
173.9685120484528
 30
0.0
  0
SPLINE
  5
1B4
330
1F
100
AcDbEntity
  8
0
  6
Continuous
 62
     7
370
    25
100
AcDbSpline
210
0.0
220
0.0
230
1.0
 70
     8
 71
     3
 72
    17
 73
    13
 74
     0
 42
0.000000001
 43
0.00000001
 40
0.0
 40
0.0
 40
0.0
 40
0.0
 40
0.0578289602401975
 40
0.1786834265549005
 40
0.2982075613701356
 40
0.4164007510933649
 40
0.5333238421439989
 40
0.6490944808052671
 40
0.7638787771731445
 40
0.8778811200247745
 40
0.991333575964433
 40
1.0
 40
1.0
 40
1.0
 40
1.0
 10
285.7380517430134
 20
173.9659000626826
 30
0.0
 10
285.6227964163367
 20
173.7927479998702
 30
0.0
 10
285.2666735219642
 20
173.2577322608726
 30
0.0
 10
284.7532970446695
 20
172.3308581663175
 30
0.0
 10
284.1984923431427
 20
171.1942152221712
 30
0.0
 10
283.732871737022
 20
170.0427332887337
 30
0.0
 10
283.3511526984443
 20
168.8818365624908
 30
0.0
 10
283.0552320046045
 20
167.7139576007252
 30
0.0
 10
282.8411419796809
 20
166.5419506255991
 30
0.0
 10
282.7197581434003
 20
165.3684890169047
 30
0.0
 10
282.6700670065592
 20
164.5551082043999
 30
0.0
 10
282.6842583608838
 20
164.1347968606235
 30
0.0
 10
282.6852654802927
 20
164.1049685790927
 30
0.0
  0
SPLINE
  5
1B5
330
1F
100
AcDbEntity
  8
0
  6
Continuous
 62
     7
370
    25
100
AcDbSpline
210
0.0
220
0.0
230
1.0
 70
     8
 71
     3
 72
    76
 73
    72
 74
     0
 42
0.000000001
 43
0.00000001
 40
0.0
 40
0.0
 40
0.0
 40
0.0
 40
0.0124295956230854
 40
0.0258804895142909
 40
0.0393468650212669
 40
0.0528586412712967
 40
0.0664438098503461
 40
0.0801273875661252
 40
0.0939303627029999
 40
0.1078686875701696
 40
0.1219524200356828
 40
0.1361851573077525
 40
0.1505639146806773
 40
0.1650795611574453
 40
0.1797178287739231
 40
0.1944607856609454
 40
0.2092885506163269
 40
0.2241809767833138
 40
0.2391190641477674
 40
0.2540859556228722
 40
0.2690674850463296
 40
0.2840504109954905
 40
0.2990257925639636
 40
0.3139882021428035
 40
0.3289341342311561
 40
0.3438616290586332
 40
0.3587699335496142
 40
0.3736592141513111
 40
0.3885303235325659
 40
0.403384616968155
 40
0.4182238114936759
 40
0.4330498802508794
 40
0.4478649748633123
 40
0.4626713695714563
 40
0.4774714218615181
 40
0.4922675452583763
 40
0.507062190736767
 40
0.5218578338056061
 40
0.5366561427444497
 40
0.5514596099909783
 40
0.5662707329461061
 40
0.5810919952860406
 40
0.5959258488755554
 40
0.610774687168097
 40
0.6256408064623852
 40
0.6405263505447054
 40
0.6554332332147788
 40
0.6703630320334352
 40
0.6853168454939977
 40
0.7002951050151625
 40
0.7152973332470464
 40
0.7303218421166325
 40
0.745365369246134
 40
0.7604226617774517
 40
0.7754848191437801
 40
0.7905383362502858
 40
0.8055684863579329
 40
0.8205574118090476
 40
0.835484592162663
 40
0.8503278364498655
 40
0.8650648037372126
 40
0.8796749174941659
 40
0.8941413966608932
 40
0.9084530501367408
 40
0.9226055190795148
 40
0.9366017935348967
 40
0.9504520121943385
 40
0.9641726994097045
 40
0.9777856575889642
 40
0.9913167182986449
 40
1.0
 40
1.0
 40
1.0
 40
1.0
 10
282.6852654802927
 20
164.1049685790927
 30
0.0
 10
282.6914742774468
 20
163.7451273767637
 30
0.0
 10
282.7044020278351
 20
162.9958780249675
 30
0.0
 10
282.8254173971076
 20
161.8609809765959
 30
0.0
 10
283.0236101893615
 20
160.7036673133013
 30
0.0
 10
283.3042626088494
 20
159.5555828543903
 30
0.0
 10
283.6645936812408
 20
158.4183624013329
 30
0.0
 10
284.1050068195374
 20
157.29365808401
 30
0.0
 10
284.6251488239799
 20
156.1831873059805
 30
0.0
 10
285.224880685517
 20
155.088800355335
 30
0.0
 10
285.9038904151619
 20
154.0125290410983
 30
0.0
 10
286.6616537441087
 20
152.9566133832878
 30
0.0
 10
287.4972997684541
 20
151.9234954163794
 30
0.0
 10
288.4095255139534
 20
150.9157771698176
 30
0.0
 10
289.3965428833009
 20
149.9361469080254
 30
0.0
 10
290.4560770628636
 20
148.9872856937501
 30
0.0
 10
291.5854126705898
 20
148.0717711262848
 30
0.0
 10
292.781476368591
 20
147.1919950065221
 30
0.0
 10
294.0409372809816
 20
146.3501067517422
 30
0.0
 10
295.3603063317883
 20
145.5479868865384
 30
0.0
 10
296.7359613253645
 20
144.787280397482
 30
0.0
 10
298.1642459834555
 20
144.0693822280579
 30
0.0
 10
299.6415431366875
 20
143.3954506691499
 30
0.0
 10
301.1643624162406
 20
142.7664243378889
 30
0.0
 10
302.7292961231628
 20
142.1830896300801
 30
0.0
 10
304.3329727647816
 20
141.64612714874
 30
0.0
 10
305.9720458745562
 20
141.1561324566808
 30
0.0
 10
307.6431824590395
 20
140.7136309070417
 30
0.0
 10
309.3430527447776
 20
140.3190874976793
 30
0.0
 10
311.0683220537073
 20
139.9729128496704
 30
0.0
 10
312.8156450940559
 20
139.6754663521924
 30
0.0
 10
314.5816626254334
 20
139.4270573678342
 30
0.0
 10
316.3630002772622
 20
139.2279452195311
 30
0.0
 10
318.1562692162989
 20
139.078338516588
 30
0.0
 10
319.9580683315631
 20
138.9783942369766
 30
0.0
 10
321.7649876098579
 20
138.9282168696626
 30
0.0
 10
323.5736123840152
 20
138.9278578311298
 30
0.0
 10
325.3804947204895
 20
138.9773143866784
 30
0.0
 10
327.182192284135
 20
139.0765267560316
 30
0.0
 10
328.9752748961468
 20
139.2253790652938
 30
0.0
 10
330.7563629057592
 20
139.4237059677413
 30
0.0
 10
332.5220985485881
 20
139.6712938646773
 30
0.0
 10
334.26914951042
 20
139.9678834468471
 30
0.0
 10
335.9942116840613
 20
140.3131725760138
 30
0.0
 10
337.6940105142189
 20
140.7068192766851
 30
0.0
 10
339.3653005494025
 20
141.1484445152583
 30
0.0
 10
341.0048627952104
 20
141.6376343030961
 30
0.0
 10
342.6094994651795
 20
142.1739404775239
 30
0.0
 10
344.1760257763298
 20
142.7568792868266
 30
0.0
 10
345.7012585769697
 20
143.3859266374727
 30
0.0
 10
347.1820018803218
 20
144.0605085776452
 30
0.0
 10
348.6150298840857
 20
144.779985347925
 30
0.0
 10
349.9970688597232
 20
145.5436272328273
 30
0.0
 10
351.3247447501613
 20
146.3505589705783
 30
0.0
 10
352.5945311675375
 20
147.1996761488213
 30
0.0
 10
353.802823854322
 20
148.0896145301516
 30
0.0
 10
354.9460003567715
 20
149.018714282242
 30
0.0
 10
356.0205082029843
 20
149.9850087437426
 30
0.0
 10
357.0228927575589
 20
150.986153557734
 30
0.0
 10
357.9499060387793
 20
152.0194215721609
 30
0.0
 10
358.7986291046502
 20
153.0817360105684
 30
0.0
 10
359.5665895621438
 20
154.1697438136304
 30
0.0
 10
360.2518470408128
 20
155.2799211455566
 30
0.0
 10
360.8530450864585
 20
156.4086940511399
 30
0.0
 10
361.3693598030457
 20
157.5525536112817
 30
0.0
 10
361.8005779608951
 20
158.7081471456668
 30
0.0
 10
362.1464848392937
 20
159.8723384013774
 30
0.0
 10
362.4086499481195
 20
161.042227909533
 30
0.0
 10
362.5833332913449
 20
162.2151731951998
 30
0.0
 10
362.6749177089438
 20
163.2501892392281
 30
0.0
 10
362.6734791808359
 20
163.8933359018773
 30
0.0
 10
362.672916879933
 20
164.1447331093091
 30
0.0
  0
LWPOLYLINE
  5
1B6
330
1F
100
AcDbEntity
  8
0
  6
Continuous
 62
     8
370
    25
100
AcDbPolyline
 90
       51
 70
   128
 43
0.0
 10
294.3980683599
 20
168.2205391629
 10
295.7866811231
 20
167.4564653742
 10
297.2371547627
 20
166.7317042762
 10
298.7461531429
 20
166.0479228424
 10
300.3102055189
 20
165.4066937922
 10
301.9257145203
 20
164.809491973
 10
303.5889644245
 20
164.2576909679
 10
305.2961297035
 20
163.7525599371
 10
307.0432838225
 20
163.2952606981
 10
308.8264082709
 20
162.8868450537
 10
310.6414018054
 20
162.5282523732
 10
312.4840898827
 20
162.220307431
 10
314.3502342612
 20
161.9637185105
 10
316.235542749
 20
161.7590757743
 10
318.1356790761
 20
161.6068499075
 10
320.0462728682
 20
161.5073910342
 10
321.9629296982
 20
161.4609279131
 10
323.8812411941
 20
161.4675674109
 10
325.7967951779
 20
161.5272942566
 10
327.7051858141
 20
161.6399710763
 10
329.6020237431
 20
161.80533871
 10
331.4829461768
 20
162.0230168067
 10
333.3436269334
 20
162.2925046997
 10
335.1797863875
 20
162.6131825584
 10
336.9872013135
 20
162.9843128134
 10
338.7617145991
 20
163.4050418531
 10
340.4992448071
 20
163.8744019874
 10
342.1957955621
 20
164.3913136728
 10
343.8474647431
 20
164.9545879959
 10
345.450453458
 20
165.5629294078
 10
347.0010747815
 20
166.2149387037
 10
348.4957622347
 20
166.9091162412
 10
349.9310779888
 20
167.6438653899
 10
351.3037207713
 20
168.4174962032
 10
352.61053346
 20
169.2282293053
 10
353.8485103438
 20
170.0741999842
 10
355.0148040361
 20
170.9534624802
 10
356.1067320241
 20
171.8639944614
 10
357.1217828385
 20
172.803701675
 10
358.0576218298
 20
173.7704227644
 10
358.9120965384
 20
174.76193424
 10
359.6832416451
 20
175.7759555937
 10
360.3692834913
 20
176.8101545439
 10
360.968644159
 20
177.8621523998
 10
361.4799450992
 20
178.9295295327
 10
361.9020103036
 20
180.009830941
 10
362.2338690085
 20
181.1005718968
 10
362.4747579284
 20
182.1992436609
 10
362.6241230109
 20
183.3033192531
 10
362.6816207117
 20
184.4102592642
 10
362.6823396074
 20
184.5487013993
  0
LWPOLYLINE
  5
1B7
330
1F
100
AcDbEntity
  8
0
  6
Continuous
 62
     8
370
    25
100
AcDbPolyline
 90
       18
 70
   128
 43
0.0
 10
282.6823396074
 20
184.5487013993
 10
282.6888095133
 20
184.1333948988
 10
282.7692947204
 20
183.0269324625
 10
282.9415812098
 20
181.9239701436
 10
283.205272717
 20
180.8270447906
 10
283.5597627431
 20
179.7386793672
 10
284.0042359497
 20
178.6613771485
 10
284.5376700342
 20
177.5976159643
 10
285.158838081
 20
176.5498424993
 10
285.8663113838
 20
175.5204666661
 10
286.6584627313
 20
174.5118560621
 10
287.5334701501
 20
173.526330524
 10
288.4893210949
 20
172.5661567922
 10
289.5238170781
 20
171.6335432969
 10
290.6345787256
 20
170.7306350792
 10
291.8190512502
 20
169.8595088568
 10
293.074510327
 20
169.0221682479
 10
294.3980683599
 20
168.2205391629
  0
LWPOLYLINE
  5
1B8
330
1F
100
AcDbEntity
  8
0
  6
Continuous
 62
     8
370
    25
100
AcDbPolyline
 90
       67
 70
   128
 43
0.0
 10
362.6823374128
 20
164.1428301898
 10
362.6643685077
 20
163.4430699482
 10
362.5609073662
 20
162.3372441715
 10
362.365724241
 20
161.2355537073
 10
362.0792680595
 20
160.1405324791
 10
361.70219768
 20
159.0546990708
 10
361.2353803766
 20
157.9805509339
 10
360.6798898439
 20
156.9205586436
 10
360.0370037281
 20
155.8771602162
 10
359.3082006877
 20
154.8527555014
 10
358.4951569931
 20
153.849700663
 10
357.599742671
 20
152.8703027592
 10
356.6240172028
 20
151.9168144366
 10
355.5702247885
 20
150.9914287488
 10
354.4407891843
 20
150.0962741127
 10
353.2383081284
 20
149.2334094125
 10
351.9655473658
 20
148.4048192648
 10
350.6254342869
 20
147.6124094533
 10
349.2210511948
 20
146.8580025461
 10
347.7556282156
 20
146.1433337033
 10
346.2325358691
 20
145.470046686
 10
344.6552773165
 20
144.8396900761
 10
343.0274803031
 20
144.2537137138
 10
341.3528888141
 20
143.7134653636
 10
339.6353544636
 20
143.220187614
 10
337.8788276357
 20
142.7750150197
 10
336.0873483984
 20
142.3789714919
 10
334.2650372112
 20
142.0329679434
 10
332.4160854484
 20
141.7378001934
 10
330.5447457582
 20
141.4941471372
 10
328.655322282
 20
141.3025691847
 10
326.7521607541
 20
141.1635069713
 10
324.8396385073
 20
141.0772803445
 10
322.9221544038
 20
141.0440876284
 10
321.0041187186
 20
141.0640051672
 10
319.0899429952
 20
141.13698715
 10
317.1840298992
 20
141.2628657159
 10
315.2907630916
 20
141.4413513401
 10
313.414497147
 20
141.6720335
 10
311.5595475369
 20
141.9543816192
 10
309.7301807051
 20
142.2877462881
 10
307.9306042538
 20
142.6713607571
 10
306.1649572666
 20
143.1043427007
 10
304.437300788
 20
143.5856962466
 10
302.7516084834
 20
144.1143142662
 10
301.1117574991
 20
144.6889809211
 10
299.5215195448
 20
145.3083744595
 10
297.9845522189
 20
145.9710702566
 10
296.5043905955
 20
146.6755440907
 10
295.0844390936
 20
147.4201756494
 10
293.7279636474
 20
148.2032522562
 10
292.4380841936
 20
149.02297281
 10
291.2177674966
 20
149.8774519271
 10
290.0698203237
 20
150.7647242783
 10
288.9968829902
 20
151.6827491085
 10
288.0014232864
 20
152.6294149314
 10
287.0857308015
 20
153.6025443852
 10
286.2519116575
 20
154.599899241
 10
285.5018836653
 20
155.6191855506
 10
284.8373719132
 20
156.6580589229
 10
284.2599047996
 20
157.7141299158
 10
283.7708105173
 20
158.7849695322
 10
283.3712139988
 20
159.8681148067
 10
283.062034329
 20
160.9610744704
 10
282.843982631
 20
162.061334681
 10
282.7175604306
 20
163.1663648049
 10
282.6823617534
 20
164.1108822801
  0
LWPOLYLINE
  5
1B9
330
1F
100
AcDbEntity
  8
0
  6
Continuous
 62
     8
370
    25
100
AcDbPolyline
 90
       69
 70
   128
 43
0.0
 10
287.9792242378
 20
170.8439912433
 10
287.8883451651
 20
170.4068602001
 10
287.7401190143
 20
169.3783942913
 10
287.6830531273
 20
168.3469007467
 10
287.7172963826
 20
167.3150706152
 10
287.8427594435
 20
166.2855958238
 10
288.059114991
 20
165.2611621546
 10
288.3657985784
 20
164.2444422382
 10
288.762010103
 20
163.2380885806
 10
289.2467158944
 20
162.2447266438
 10
289.8186514105
 20
161.2669479955
 10
290.4763245367
 20
160.3073035486
 10
291.218019479
 20
159.368296906
 10
292.0418012399
 20
158.4523778287
 10
292.945520667
 20
157.561935845
 10
293.9268200594
 20
156.6992940163
 10
294.983139319
 20
155.8667028769
 10
296.1117226295
 20
155.0663345617
 10
297.3096256459
 20
154.3002771404
 10
298.5737231761
 20
153.5705291694
 10
299.9007173338
 20
152.8789944778
 10
301.2871461429
 20
152.2274772005
 10
302.7293925688
 20
151.6176770719
 10
304.2236939554
 20
151.0511849908
 10
305.7661518409
 20
150.5294788704
 10
307.3527421288
 20
150.0539197823
 10
308.9793255862
 20
149.625748406
 10
310.6416586426
 20
149.2460817917
 10
312.3354044609
 20
148.9159104462
 10
314.0561442515
 20
148.6360957489
 10
315.799388801
 20
148.4073677043
 10
317.5605901832
 20
148.2303230378
 10
319.3351536248
 20
148.1054236388
 10
321.1184494925
 20
148.0329953554
 10
322.9058253709
 20
148.0132271449
 10
324.6926182006
 20
148.0461705802
 10
326.4741664428
 20
148.1317397157
 10
328.2458222419
 20
148.2697113113
 10
330.0029635499
 20
148.4597254147
 10
331.741006186
 20
148.701286301
 10
333.4554157952
 20
148.9937637654
 10
335.1417196787
 20
149.3363947674
 10
336.7955184623
 20
149.7282854221
 10
338.4124975736
 20
150.1684133314
 10
339.9884384988
 20
150.6556302518
 10
341.519229788
 20
151.18866509
 10
343.0008777814
 20
151.7661272191
 10
344.4295170288
 20
152.3865101062
 10
345.8014203732
 20
153.0481952432
 10
347.1130086757
 20
153.7494563691
 10
348.360860152
 20
154.4884639738
 10
349.5417193002
 20
155.2632900707
 10
350.6525053935
 20
156.0719132271
 10
351.6903205178
 20
156.9122238375
 10
352.6524571321
 20
157.7820296274
 10
353.5364051317
 20
158.6790613729
 10
354.3398583972
 20
159.6009788205
 10
355.0607208107
 20
160.5453767928
 10
355.6971117246
 20
161.5097914635
 10
356.2473708677
 20
162.4917067847
 10
356.7100626766
 20
163.4885610515
 10
357.0839800412
 20
164.4977535849
 10
357.3681474539
 20
165.5166515168
 10
357.5618235543
 20
166.5425966589
 10
357.6645030635
 20
167.5729124374
 10
357.6759181025
 20
168.604910876
 10
357.5960388907
 20
169.6358996088
 10
357.4250738239
 20
170.6631889039
 10
357.3895671681
 20
170.8258174659
  0
LWPOLYLINE
  5
1BA
330
1F
100
AcDbEntity
  8
0
  6
Continuous
 62
     8
370
    25
100
AcDbPolyline
 90
       60
 70
   128
 43
0.0
 10
354.6812674361
 20
168.066664634
 10
354.6758509349
 20
167.8458892126
 10
354.5951396944
 20
166.8550470763
 10
354.4224155899
 20
165.8681343551
 10
354.1581766297
 20
164.8879965737
 10
353.8031846832
 20
163.9174597232
 10
353.358463284
 20
162.9593221124
 10
352.8252946791
 20
162.0163463002
 10
352.2052161316
 20
161.0912511299
 10
351.5000154884
 20
160.1867038905
 10
350.7117260255
 20
159.3053126257
 10
349.8426205856
 20
158.4496186147
 10
348.8952050246
 20
157.6220890449
 10
347.8722109869
 20
156.8251098983
 10
346.776588029
 20
156.060979072
 10
345.6114951156
 20
155.331899753
 10
344.3802915111
 20
154.6399740658
 10
343.0865270943
 20
153.9871970112
 10
341.733932123
 20
153.3754507145
 10
340.3264064785
 20
152.8064989986
 10
338.8680084216
 20
152.2819822986
 10
337.3629428916
 20
151.8034129319
 10
335.8155493819
 20
151.3721707378
 10
334.2302894286
 20
150.9894990993
 10
332.6117337465
 20
150.6565013578
 10
330.9645490507
 20
150.3741376319
 10
329.293484601
 20
150.1432220494
 10
327.6033585088
 20
149.9644203997
 10
325.8990438453
 20
149.8382482142
 10
324.1854545907
 20
149.7650692799
 10
322.4675314666
 20
149.7450945908
 10
320.7502276899
 20
149.778381739
 10
319.038494692
 20
149.864834749
 10
317.3372678423
 20
150.0042043544
 10
315.6514522182
 20
150.1960887166
 10
313.9859084625
 20
150.4399345833
 10
312.3454387691
 20
150.7350388837
 10
310.7347730367
 20
151.0805507557
 10
309.1585552317
 20
151.4754739993
 10
307.6213299979
 20
151.9186699483
 10
306.1275295537
 20
152.4088607542
 10
304.6814609124
 20
152.9446330699
 10
303.2872934644
 20
153.5244421253
 10
301.9490469552
 20
154.1466161806
 10
300.670579896
 20
154.8093613471
 10
299.4555784382
 20
155.5107667588
 10
298.3075457457
 20
156.2488100824
 10
297.2297918938
 20
157.0213633479
 10
296.2254243259
 20
157.8261990843
 10
295.2973388937
 20
158.6609967417
 10
294.4482115078
 20
159.5233493825
 10
293.6804904222
 20
160.4107706206
 10
292.9963891756
 20
161.3207017911
 10
292.3978802089
 20
162.2505193266
 10
291.8866891784
 20
163.1975423227
 10
291.4642899803
 20
164.1590402668
 10
291.1319005007
 20
165.1322409114
 10
290.8904791045
 20
166.1143382672
 10
290.7407218722
 20
167.1025006933
 10
290.6832900025
 20
168.0755109981
  0
LWPOLYLINE
  5
1BB
330
1F
100
AcDbEntity
  8
0
  6
Continuous
 62
     8
370
    25
100
AcDbPolyline
 90
       51
 70
   128
 43
0.0
 10
293.4991421579
 20
165.8372190977
 10
293.5016198188
 20
165.8312202693
 10
293.9295151336
 20
164.9093339032
 10
294.4447318314
 20
164.0024551138
 10
295.0457052158
 20
163.1133380621
 10
295.7306101506
 20
162.2446829674
 10
296.497366602
 20
161.3991279067
 10
297.3436459557
 20
160.5792408029
 10
298.2668780893
 20
159.7875116261
 10
299.264259177
 20
159.0263448319
 10
300.3327602054
 20
158.2980520588
 10
301.4691361718
 20
157.604845108
 10
302.6699359398
 20
156.9488292263
 10
303.9315127201
 20
156.3319967123
 10
305.2500351453
 20
155.7562208661
 10
306.6214989063
 20
155.2232503
 10
308.0417389125
 20
154.7347036281
 10
309.506441942
 20
154.2920645505
 10
311.0111597395
 20
153.8966773477
 10
312.5513225268
 20
153.5497427976
 10
314.1222528799
 20
153.2523145289
 10
315.7191799351
 20
153.0052958216
 10
317.3372538773
 20
152.8094368634
 10
318.9715606693
 20
152.6653324714
 10
320.6171369749
 20
152.573420286
 10
322.2689852331
 20
152.5339794415
 10
323.9220888348
 20
152.5471297184
 10
325.571427359
 20
152.6128311797
 10
327.2119918186
 20
152.7308842924
 10
328.8387998732
 20
152.9009305328
 10
330.4469109605
 20
153.1224534763
 10
332.0314412997
 20
153.3947803649
 10
333.5875787243
 20
153.7170841508
 10
335.1105972961
 20
154.0883860079
 10
336.5958716579
 20
154.5075583049
 10
338.0388910801
 20
154.9733280291
 10
339.4352731601
 20
155.4842806532
 10
340.7807771316
 20
156.038864431
 10
342.0713167432
 20
156.6353951096
 10
343.3029726685
 20
157.272061045
 10
344.4720044088
 20
157.9469287038
 10
345.5748616534
 20
158.657948535
 10
346.6081950608
 20
159.4029611947
 10
347.5688664317
 20
160.179704104
 10
348.4539582385
 20
160.9858183202
 10
349.2607824865
 20
161.8188557009
 10
349.9868888771
 20
162.676286339
 10
350.6300722489
 20
163.5555062458
 10
351.1883792753
 20
164.4538452594
 10
351.660114396
 20
165.3685751536
 10
351.8733693191
 20
165.8562449212
  0
ENDSEC
  0
SECTION
  2
OBJECTS
  0
DICTIONARY
  5
C
330
0
100
AcDbDictionary
281
     1
  3
ACAD_GROUP
350
D
  3
ACAD_LAYOUT
350
1A
  3
ACAD_MLINESTYLE
350
17
  3
ACAD_PLOTSETTINGS
350
19
  3
ACAD_PLOTSTYLENAME
350
E
  3
ACAD_SCALELIST
350
47
  0
DICTIONARY
  5
D
102
{ACAD_REACTORS
330
C
102
}
330
C
100
AcDbDictionary
281
     1
  0
DICTIONARY
  5
1A
102
{ACAD_REACTORS
330
C
102
}
330
C
100
AcDbDictionary
281
     1
  3
Layout1
350
1E
  3
Layout2
350
26
  3
Model
350
22
  0
DICTIONARY
  5
17
102
{ACAD_REACTORS
330
C
102
}
330
C
100
AcDbDictionary
281
     1
  3
Standard
350
18
  0
DICTIONARY
  5
19
102
{ACAD_REACTORS
330
C
102
}
330
C
100
AcDbDictionary
281
     1
  0
ACDBDICTIONARYWDFLT
  5
E
102
{ACAD_REACTORS
330
C
102
}
330
C
100
AcDbDictionary
281
     1
  3
Normal
350
F
100
AcDbDictionaryWithDefault
340
F
  0
DICTIONARY
  5
47
102
{ACAD_REACTORS
330
C
102
}
330
C
100
AcDbDictionary
281
     1
  3
A0
350
48
  3
A1
350
49
  3
A2
350
4A
  3
A3
350
4B
  3
A4
350
4C
  3
A5
350
4D
  3
A6
350
4E
  3
A7
350
4F
  3
A8
350
50
  3
A9
350
51
  3
B0
350
52
  3
B1
350
53
  3
B2
350
54
  3
B3
350
55
  3
B4
350
56
  3
B5
350
57
  3
B6
350
58
  3
B7
350
59
  3
B8
350
5A
  3
B9
350
5B
  3
C0
350
5C
  3
C1
350
5D
  3
C2
350
5E
  3
C3
350
5F
  3
C4
350
60
  3
C5
350
61
  3
C6
350
62
  3
C7
350
63
  3
C8
350
64
  3
C9
350
65
  3
D0
350
66
  3
D1
350
67
  3
D2
350
68
  0
LAYOUT
  5
1E
102
{ACAD_REACTORS
330
1A
102
}
330
1A
100
AcDbPlotSettings
  1

  2
none_device
  4

  6

 40
0.0
 41
0.0
 42
0.0
 43
0.0
 44
0.0
 45
0.0
 46
0.0
 47
0.0
 48
0.0
 49
0.0
140
0.0
141
0.0
142
1.0
143
1.0
 70
   688
 72
     1
 73
     0
 74
     5
  7

 75
    16
147
1.0
148
0.0
149
0.0
100
AcDbLayout
  1
Layout1
 70
     1
 71
     1
 10
0.0
 20
0.0
 11
420.0
 21
297.0
 12
0.0
 22
0.0
 32
0.0
 14
1.0000000000E+20
 24
1.0000000000E+20
 34
1.0000000000E+20
 15
-1.0000000000E+20
 25
-1.0000000000E+20
 35
-1.0000000000E+20
146
0.0
 13
0.0
 23
0.0
 33
0.0
 16
1.0
 26
0.0
 36
0.0
 17
0.0
 27
1.0
 37
0.0
 76
     0
330
1B
  0
LAYOUT
  5
26
102
{ACAD_REACTORS
330
1A
102
}
330
1A
100
AcDbPlotSettings
  1

  2
none_device
  4

  6

 40
0.0
 41
0.0
 42
0.0
 43
0.0
 44
0.0
 45
0.0
 46
0.0
 47
0.0
 48
0.0
 49
0.0
140
0.0
141
0.0
142
1.0
143
1.0
 70
   688
 72
     1
 73
     0
 74
     5
  7

 75
    16
147
1.0
148
0.0
149
0.0
100
AcDbLayout
  1
Layout2
 70
     1
 71
     2
 10
0.0
 20
0.0
 11
0.0
 21
0.0
 12
0.0
 22
0.0
 32
0.0
 14
0.0
 24
0.0
 34
0.0
 15
0.0
 25
0.0
 35
0.0
146
0.0
 13
0.0
 23
0.0
 33
0.0
 16
1.0
 26
0.0
 36
0.0
 17
0.0
 27
1.0
 37
0.0
 76
     0
330
23
  0
LAYOUT
  5
22
102
{ACAD_REACTORS
330
1A
102
}
330
1A
100
AcDbPlotSettings
  1

  2
none_device
  4
Letter_(8.50_x_11.00_Inches)
  6

 40
6.35
 41
6.35
 42
6.35000508
 43
6.35000508
 44
215.9
 45
279.4
 46
0.0
 47
0.0
 48
0.0
 49
0.0
140
0.0
141
0.0
142
1.0
143
1.0
 70
  1712
 72
     1
 73
     0
 74
     0
  7

 75
     0
147
1.0
148
0.0
149
0.0
100
AcDbLayout
  1
Model
 70
     1
 71
     0
 10
0.0
 20
0.0
 11
420.0
 21
297.0
 12
0.0
 22
0.0
 32
0.0
 14
0.0
 24
0.0
 34
0.0
 15
420.0
 25
297.0
 35
0.0
146
0.0
 13
0.0
 23
0.0
 33
0.0
 16
1.0
 26
0.0
 36
0.0
 17
0.0
 27
1.0
 37
0.0
 76
     0
330
1F
331
29
  0
MLINESTYLE
  5
18
102
{ACAD_REACTORS
330
17
102
}
330
17
100
AcDbMlineStyle
  2
Standard
 70
     0
  3

 62
   256
 51
90.0
 52
90.0
 71
     2
 49
0.5
 62
   256
  6
BYLAYER
 49
-0.5
 62
   256
  6
BYLAYER
  0
ACDBPLACEHOLDER
  5
F
102
{ACAD_REACTORS
330
E
102
}
330
E
  0
SCALE
  5
48
102
{ACAD_REACTORS
330
47
102
}
330
47
100
AcDbScale
 70
     0
300
1:1
140
1.0
141
1.0
290
     1
  0
SCALE
  5
49
102
{ACAD_REACTORS
330
47
102
}
330
47
100
AcDbScale
 70
     0
300
1:2
140
1.0
141
2.0
290
     0
  0
SCALE
  5
4A
102
{ACAD_REACTORS
330
47
102
}
330
47
100
AcDbScale
 70
     0
300
1:4
140
1.0
141
4.0
290
     0
  0
SCALE
  5
4B
102
{ACAD_REACTORS
330
47
102
}
330
47
100
AcDbScale
 70
     0
300
1:5
140
1.0
141
5.0
290
     0
  0
SCALE
  5
4C
102
{ACAD_REACTORS
330
47
102
}
330
47
100
AcDbScale
 70
     0
300
1:8
140
1.0
141
8.0
290
     0
  0
SCALE
  5
4D
102
{ACAD_REACTORS
330
47
102
}
330
47
100
AcDbScale
 70
     0
300
1:10
140
1.0
141
10.0
290
     0
  0
SCALE
  5
4E
102
{ACAD_REACTORS
330
47
102
}
330
47
100
AcDbScale
 70
     0
300
1:16
140
1.0
141
16.0
290
     0
  0
SCALE
  5
4F
102
{ACAD_REACTORS
330
47
102
}
330
47
100
AcDbScale
 70
     0
300
1:20
140
1.0
141
20.0
290
     0
  0
SCALE
  5
50
102
{ACAD_REACTORS
330
47
102
}
330
47
100
AcDbScale
 70
     0
300
1:30
140
1.0
141
30.0
290
     0
  0
SCALE
  5
51
102
{ACAD_REACTORS
330
47
102
}
330
47
100
AcDbScale
 70
     0
300
1:40
140
1.0
141
40.0
290
     0
  0
SCALE
  5
52
102
{ACAD_REACTORS
330
47
102
}
330
47
100
AcDbScale
 70
     0
300
1:50
140
1.0
141
50.0
290
     0
  0
SCALE
  5
53
102
{ACAD_REACTORS
330
47
102
}
330
47
100
AcDbScale
 70
     0
300
1:100
140
1.0
141
100.0
290
     0
  0
SCALE
  5
54
102
{ACAD_REACTORS
330
47
102
}
330
47
100
AcDbScale
 70
     0
300
2:1
140
2.0
141
1.0
290
     0
  0
SCALE
  5
55
102
{ACAD_REACTORS
330
47
102
}
330
47
100
AcDbScale
 70
     0
300
4:1
140
4.0
141
1.0
290
     0
  0
SCALE
  5
56
102
{ACAD_REACTORS
330
47
102
}
330
47
100
AcDbScale
 70
     0
300
8:1
140
8.0
141
1.0
290
     0
  0
SCALE
  5
57
102
{ACAD_REACTORS
330
47
102
}
330
47
100
AcDbScale
 70
     0
300
10:1
140
10.0
141
1.0
290
     0
  0
SCALE
  5
58
102
{ACAD_REACTORS
330
47
102
}
330
47
100
AcDbScale
 70
     0
300
100:1
140
100.0
141
1.0
290
     0
  0
SCALE
  5
59
102
{ACAD_REACTORS
330
47
102
}
330
47
100
AcDbScale
 70
     0
300
1/128" = 1'-0"
140
0.0078125
141
12.0
290
     0
  0
SCALE
  5
5A
102
{ACAD_REACTORS
330
47
102
}
330
47
100
AcDbScale
 70
     0
300
1/64" = 1'-0"
140
0.015625
141
12.0
290
     0
  0
SCALE
  5
5B
102
{ACAD_REACTORS
330
47
102
}
330
47
100
AcDbScale
 70
     0
300
1/32" = 1'-0"
140
0.03125
141
12.0
290
     0
  0
SCALE
  5
5C
102
{ACAD_REACTORS
330
47
102
}
330
47
100
AcDbScale
 70
     0
300
1/16" = 1'-0"
140
0.0625
141
12.0
290
     0
  0
SCALE
  5
5D
102
{ACAD_REACTORS
330
47
102
}
330
47
100
AcDbScale
 70
     0
300
3/32" = 1'-0"
140
0.09375
141
12.0
290
     0
  0
SCALE
  5
5E
102
{ACAD_REACTORS
330
47
102
}
330
47
100
AcDbScale
 70
     0
300
1/8" = 1'-0"
140
0.125
141
12.0
290
     0
  0
SCALE
  5
5F
102
{ACAD_REACTORS
330
47
102
}
330
47
100
AcDbScale
 70
     0
300
3/16" = 1'-0"
140
0.1875
141
12.0
290
     0
  0
SCALE
  5
60
102
{ACAD_REACTORS
330
47
102
}
330
47
100
AcDbScale
 70
     0
300
1/4" = 1'-0"
140
0.25
141
12.0
290
     0
  0
SCALE
  5
61
102
{ACAD_REACTORS
330
47
102
}
330
47
100
AcDbScale
 70
     0
300
3/8" = 1'-0"
140
0.375
141
12.0
290
     0
  0
SCALE
  5
62
102
{ACAD_REACTORS
330
47
102
}
330
47
100
AcDbScale
 70
     0
300
1/2" = 1'-0"
140
0.5
141
12.0
290
     0
  0
SCALE
  5
63
102
{ACAD_REACTORS
330
47
102
}
330
47
100
AcDbScale
 70
     0
300
3/4" = 1'-0"
140
0.75
141
12.0
290
     0
  0
SCALE
  5
64
102
{ACAD_REACTORS
330
47
102
}
330
47
100
AcDbScale
 70
     0
300
1" = 1'-0"
140
1.0
141
12.0
290
     0
  0
SCALE
  5
65
102
{ACAD_REACTORS
330
47
102
}
330
47
100
AcDbScale
 70
     0
300
1-1/2" = 1'-0"
140
1.5
141
12.0
290
     0
  0
SCALE
  5
66
102
{ACAD_REACTORS
330
47
102
}
330
47
100
AcDbScale
 70
     0
300
3" = 1'-0"
140
3.0
141
12.0
290
     0
  0
SCALE
  5
67
102
{ACAD_REACTORS
330
47
102
}
330
47
100
AcDbScale
 70
     0
300
6" = 1'-0"
140
6.0
141
12.0
290
     0
  0
SCALE
  5
68
102
{ACAD_REACTORS
330
47
102
}
330
47
100
AcDbScale
 70
     0
300
1'-0" = 1'-0"
140
12.0
141
12.0
290
     0
  0
ENDSEC
  0
EOF
