  0
SECTION
  2
HEADER
  9
$ACADVER
  1
AC1015
  9
$ACADMAINTVER
 70
     6
  9
$DWGCODEPAGE
  3
ANSI_1252
  9
$INSBASE
 10
0.0
 20
0.0
 30
0.0
  9
$EXTMIN
 10
0.0
 20
0.0
 30
0.0
  9
$EXTMAX
 10
420.0
 20
297.0
 30
0.0
  9
$LIMMIN
 10
0.0
 20
0.0
  9
$LIMMAX
 10
420.0
 20
297.0
  9
$ORTHOMODE
 70
     0
  9
$REGENMODE
 70
     1
  9
$FILLMODE
 70
     1
  9
$QTEXTMODE
 70
     0
  9
$MIRRTEXT
 70
     1
  9
$LTSCALE
 40
1.0
  9
$ATTMODE
 70
     1
  9
$TEXTSIZE
 40
3.5
  9
$TRACEWID
 40
1.0
  9
$TEXTSTYLE
  7
Standard
  9
$CLAYER
  8
0
  9
$CELTYPE
  6
ByLayer
  9
$CECOLOR
 62
   256
  9
$CELTSCALE
 40
1.0
  9
$DISPSILH
 70
     0
  9
$DIMSCALE
 40
1.0
  9
$DIMASZ
 40
3.302
  9
$DIMEXO
 40
1.0
  9
$DIMDLI
 40
3.75
  9
$DIMRND
 40
0.0
  9
$DIMDLE
 40
0.0
  9
$DIMEXE
 40
1.0
  9
$DIMTP
 40
0.0
  9
$DIMTM
 40
0.0
  9
$DIMTXT
 40
3.5
  9
$DIMCEN
 40
2.5
  9
$DIMTSZ
 40
0.0
  9
$DIMTOL
 70
     0
  9
$DIMLIM
 70
     0
  9
$DIMTIH
 70
     1
  9
$DIMTOH
 70
     1
  9
$DIMSE1
 70
     0
  9
$DIMSE2
 70
     0
  9
$DIMTAD
 70
     1
  9
$DIMZIN
 70
     0
  9
$DIMBLK
  1

  9
$DIMASO
 70
     1
  9
$DIMSHO
 70
     1
  9
$DIMPOST
  1

  9
$DIMAPOST
  1

  9
$DIMALT
 70
     0
  9
$DIMALTD
 70
     3
  9
$DIMALTF
 40
0.0393700787
  9
$DIMLFAC
 40
1.0
  9
$DIMTOFL
 70
     1
  9
$DIMTVP
 40
0.0
  9
$DIMTIX
 70
     0
  9
$DIMSOXD
 70
     0
  9
$DIMSAH
 70
     0
  9
$DIMBLK1
  1

  9
$DIMBLK2
  1

  9
$DIMSTYLE
  2
ISO-25
  9
$DIMCLRD
 70
     0
  9
$DIMCLRE
 70
     0
  9
$DIMCLRT
 70
     0
  9
$DIMTFAC
 40
1.0
  9
$DIMGAP
 40
1.524
  9
$DIMJUST
 70
     0
  9
$DIMSD1
 70
     0
  9
$DIMSD2
 70
     0
  9
$DIMTOLJ
 70
     0
  9
$DIMTZIN
 70
     0
  9
$DIMALTZ
 70
     0
  9
$DIMALTTZ
 70
     0
  9
$DIMUPT
 70
     0
  9
$DIMDEC
 70
     2
  9
$DIMTDEC
 70
     2
  9
$DIMALTU
 70
     2
  9
$DIMALTTD
 70
     3
  9
$DIMTXSTY
  7
Standard
  9
$DIMAUNIT
 70
     0
  9
$DIMADEC
 70
     2
  9
$DIMALTRND
 40
0.0
  9
$DIMAZIN
 70
     0
  9
$DIMDSEP
 70
    44
  9
$DIMATFIT
 70
     3
  9
$DIMFRAC
 70
     0
  9
$DIMLDRBLK
  1

  9
$DIMLUNIT
 70
     2
  9
$DIMLWD
 70
    -2
  9
$DIMLWE
 70
    -2
  9
$DIMTMOVE
 70
     0
  9
$LUNITS
 70
     2
  9
$LUPREC
 70
     2
  9
$SKETCHINC
 40
1.0
  9
$FILLETRAD
 40
10.0
  9
$AUNITS
 70
     0
  9
$AUPREC
 70
     2
  9
$MENU
  1
.
  9
$ELEVATION
 40
0.0
  9
$PELEVATION
 40
0.0
  9
$THICKNESS
 40
0.0
  9
$LIMCHECK
 70
     0
  9
$CHAMFERA
 40
0.0
  9
$CHAMFERB
 40
0.0
  9
$CHAMFERC
 40
0.0
  9
$CHAMFERD
 40
0.0
  9
$SKPOLY
 70
     0
  9
$TDCREATE
 40
2460118.009792963
  9
$TDUCREATE
 40
2460117.92645963
  9
$TDUPDATE
 40
2460118.009795903
  9
$TDUUPDATE
 40
2460117.926462569
  9
$TDINDWG
 40
0.0000000116
  9
$TDUSRTIMER
 40
0.0000000116
  9
$USRTIMER
 70
     1
  9
$ANGBASE
 50
0.0
  9
$ANGDIR
 70
     0
  9
$PDMODE
 70
     0
  9
$PDSIZE
 40
-1.0
  9
$PLINEWID
 40
0.0
  9
$SPLFRAME
 70
     0
  9
$SPLINETYPE
 70
     6
  9
$SPLINESEGS
 70
     8
  9
$HANDSEED
  5
1F9
  9
$SURFTAB1
 70
     6
  9
$SURFTAB2
 70
     6
  9
$SURFTYPE
 70
     6
  9
$SURFU
 70
     6
  9
$SURFV
 70
     6
  9
$UCSBASE
  2

  9
$UCSNAME
  2

  9
$UCSORG
 10
0.0
 20
0.0
 30
0.0
  9
$UCSXDIR
 10
1.0
 20
0.0
 30
0.0
  9
$UCSYDIR
 10
0.0
 20
1.0
 30
0.0
  9
$UCSORTHOREF
  2

  9
$UCSORTHOVIEW
 70
     0
  9
$UCSORGTOP
 10
0.0
 20
0.0
 30
0.0
  9
$UCSORGBOTTOM
 10
0.0
 20
0.0
 30
0.0
  9
$UCSORGLEFT
 10
0.0
 20
0.0
 30
0.0
  9
$UCSORGRIGHT
 10
0.0
 20
0.0
 30
0.0
  9
$UCSORGFRONT
 10
0.0
 20
0.0
 30
0.0
  9
$UCSORGBACK
 10
0.0
 20
0.0
 30
0.0
  9
$PUCSBASE
  2

  9
$PUCSNAME
  2

  9
$PUCSORG
 10
0.0
 20
0.0
 30
0.0
  9
$PUCSXDIR
 10
1.0
 20
0.0
 30
0.0
  9
$PUCSYDIR
 10
0.0
 20
1.0
 30
0.0
  9
$PUCSORTHOREF
  2

  9
$PUCSORTHOVIEW
 70
     0
  9
$PUCSORGTOP
 10
0.0
 20
0.0
 30
0.0
  9
$PUCSORGBOTTOM
 10
0.0
 20
0.0
 30
0.0
  9
$PUCSORGLEFT
 10
0.0
 20
0.0
 30
0.0
  9
$PUCSORGRIGHT
 10
0.0
 20
0.0
 30
0.0
  9
$PUCSORGFRONT
 10
0.0
 20
0.0
 30
0.0
  9
$PUCSORGBACK
 10
0.0
 20
0.0
 30
0.0
  9
$USERI1
 70
     0
  9
$USERI2
 70
     0
  9
$USERI3
 70
     0
  9
$USERI4
 70
     0
  9
$USERI5
 70
     0
  9
$USERR1
 40
0.0
  9
$USERR2
 40
0.0
  9
$USERR3
 40
0.0
  9
$USERR4
 40
0.0
  9
$USERR5
 40
0.0
  9
$WORLDVIEW
 70
     1
  9
$SHADEDGE
 70
     3
  9
$SHADEDIF
 70
    70
  9
$TILEMODE
 70
     1
  9
$MAXACTVP
 70
    64
  9
$PINSBASE
 10
0.0
 20
0.0
 30
0.0
  9
$PLIMCHECK
 70
     0
  9
$PEXTMIN
 10
1.0000000000E+20
 20
1.0000000000E+20
 30
1.0000000000E+20
  9
$PEXTMAX
 10
-1.0000000000E+20
 20
-1.0000000000E+20
 30
-1.0000000000E+20
  9
$PLIMMIN
 10
0.0
 20
0.0
  9
$PLIMMAX
 10
420.0
 20
297.0
  9
$UNITMODE
 70
     0
  9
$VISRETAIN
 70
     1
  9
$PLINEGEN
 70
     0
  9
$PSLTSCALE
 70
     1
  9
$TREEDEPTH
 70
  3020
  9
$CMLSTYLE
  2
Standard
  9
$CMLJUST
 70
     0
  9
$CMLSCALE
 40
20.0
  9
$PROXYGRAPHICS
 70
     1
  9
$MEASUREMENT
 70
     1
  9
$CELWEIGHT
370
    -1
  9
$ENDCAPS
280
     0
  9
$JOINSTYLE
280
     0
  9
$LWDISPLAY
290
     1
  9
$INSUNITS
 70
     4
  9
$HYPERLINKBASE
  1

  9
$STYLESHEET
  1

  9
$XEDIT
290
     1
  9
$CEPSNTYPE
380
     0
  9
$PSTYLEMODE
290
     1
  9
$FINGERPRINTGUID
  2
{5786E43F-97C0-4B30-85A1-A9AB34E75806}
  9
$VERSIONGUID
  2
{FAEB1C32-E019-11D5-929B-00C0DF256EC4}
  9
$EXTNAMES
290
     1
  9
$PSVPSCALE
 40
0.0
  9
$OLESTARTUP
290
     0
  0
ENDSEC
  0
SECTION
  2
CLASSES
  0
CLASS
  1
ACDBDICTIONARYWDFLT
  2
AcDbDictionaryWithDefault
  3
ObjectDBX Classes
 90
        0
280
     0
281
     0
  0
CLASS
  1
VISUALSTYLE
  2
AcDbVisualStyle
  3
ObjectDBX Classes
 90
     4095
280
     0
281
     0
  0
CLASS
  1
MATERIAL
  2
AcDbMaterial
  3
ObjectDBX Classes
 90
     1153
280
     0
281
     0
  0
CLASS
  1
SCALE
  2
AcDbScale
  3
ObjectDBX Classes
 90
     1153
280
     0
281
     0
  0
CLASS
  1
TABLESTYLE
  2
AcDbTableStyle
  3
ObjectDBX Classes
 90
     4095
280
     0
281
     0
  0
CLASS
  1
MLEADERSTYLE
  2
AcDbMLeaderStyle
  3
ACDB_MLEADERSTYLE_CLASS
 90
     4095
280
     0
281
     0
  0
CLASS
  1
SUN
  2
AcDbSun
  3
SCENEOE
 90
     1153
280
     0
281
     0
  0
CLASS
  1
ACDBPLACEHOLDER
  2
AcDbPlaceHolder
  3
ObjectDBX Classes
 90
        0
280
     0
281
     0
  0
CLASS
  1
LAYOUT
  2
AcDbLayout
  3
ObjectDBX Classes
 90
        0
280
     0
281
     0
  0
ENDSEC
  0
SECTION
  2
TABLES
  0
TABLE
  2
VPORT
  5
8
330
0
100
AcDbSymbolTable
 70
     1
  0
VPORT
  5
29
330
8
100
AcDbSymbolTableRecord
100
AcDbViewportTableRecord
  2
*Active
 70
     0
 10
0.0
 20
0.0
 11
1.0
 21
1.0
 12
210.0
 22
148.5
 13
0.0
 23
0.0
 14
10.0
 24
10.0
 15
10.0
 25
10.0
 16
0.0
 26
0.0
 36
1.0
 17
0.0
 27
0.0
 37
0.0
 40
297.0
 41
1.4141414141
 42
50.0
 43
0.0
 44
0.0
 50
0.0
 51
0.0
 71
     0
 72
  2000
 73
     1
 74
     3
 75
     0
 76
     0
 77
     0
 78
     0
281
     0
 65
     1
110
0.0
120
0.0
130
0.0
111
1.0
121
0.0
131
0.0
112
0.0
122
1.0
132
0.0
 79
     0
146
0.0
  0
ENDTAB
  0
TABLE
  2
LTYPE
  5
5
330
0
100
AcDbSymbolTable
 70
     6
  0
LTYPE
  5
14
330
5
100
AcDbSymbolTableRecord
100
AcDbLinetypeTableRecord
  2
ByBlock
 70
     0
  3

 72
    65
 73
     0
 40
0.0
  0
LTYPE
  5
15
330
5
100
AcDbSymbolTableRecord
100
AcDbLinetypeTableRecord
  2
ByLayer
 70
     0
  3

 72
    65
 73
     0
 40
0.0
  0
LTYPE
  5
16
330
5
100
AcDbSymbolTableRecord
100
AcDbLinetypeTableRecord
  2
Continuous
 70
     0
  3
Solid line
 72
    65
 73
     0
 40
0.0
  0
LTYPE
  5
6E
330
5
100
AcDbSymbolTableRecord
100
AcDbLinetypeTableRecord
  2
HIDDEN
 70
     0
  3
Hidden __ __ __ __ __ __ __ __ __ __ __ __ __ __
 72
    65
 73
     2
 40
1.905
 49
1.27
 74
     0
 49
-0.635
 74
     0
  0
LTYPE
  5
6F
330
5
100
AcDbSymbolTableRecord
100
AcDbLinetypeTableRecord
  2
PHANTOM
 70
     0
  3
Phantom ______  __  __  ______  __  __  ______
 72
    65
 73
     6
 40
12.7
 49
6.35
 74
     0
 49
-1.27
 74
     0
 49
1.27
 74
     0
 49
-1.27
 74
     0
 49
1.27
 74
     0
 49
-1.27
 74
     0
  0
LTYPE
  5
70
330
5
100
AcDbSymbolTableRecord
100
AcDbLinetypeTableRecord
  2
CENTER
 70
     0
  3
Center ____ _ ____ _ ____ _ ____ _ ____ _ ____
 72
    65
 73
     4
 40
10.16
 49
6.35
 74
     0
 49
-1.27
 74
     0
 49
1.27
 74
     0
 49
-1.27
 74
     0
  0
LTYPE
  5
71
330
5
100
AcDbSymbolTableRecord
100
AcDbLinetypeTableRecord
  2
CENTERX2
 70
     0
  3
Center (2x) ________  __  ________  __  _____
 72
    65
 73
     4
 40
20.32
 49
12.7
 74
     0
 49
-2.54
 74
     0
 49
2.54
 74
     0
 49
-2.54
 74
     0
  0
LTYPE
  5
72
330
5
100
AcDbSymbolTableRecord
100
AcDbLinetypeTableRecord
  2
DOT2
 70
     0
  3
Dot (.5x) ........................................
 72
    65
 73
     2
 40
0.635
 49
0.0
 74
     0
 49
-0.635
 74
     0
  0
ENDTAB
  0
TABLE
  2
LAYER
  5
2
330
0
100
AcDbSymbolTable
 70
     2
  0
LAYER
  5
10
330
2
100
AcDbSymbolTableRecord
100
AcDbLayerTableRecord
  2
0
 70
     0
 62
     7
  6
Continuous
370
    -3
390
F
  0
LAYER
  5
73
330
2
100
AcDbSymbolTableRecord
100
AcDbLayerTableRecord
  2
FORMAT
 70
     0
 62
     7
  6
Continuous
370
    -3
390
F
  0
ENDTAB
  0
TABLE
  2
STYLE
  5
3
330
0
100
AcDbSymbolTable
 70
     3
  0
STYLE
  5
11
330
3
100
AcDbSymbolTableRecord
100
AcDbTextStyleTableRecord
  2
Standard
 70
     0
 40
0.0
 41
1.0
 50
0.0
 71
     0
 42
3.5
  3
txt
  4

  0
STYLE
  5
91
330
3
100
AcDbSymbolTableRecord
100
AcDbTextStyleTableRecord
  2
SLDTEXTSTYLE0
 70
     0
 40
0.0
 41
0.75
 50
0.0
 71
     0
 42
3.5
  3
TXT
  4

  0
STYLE
  5
E5
330
3
100
AcDbSymbolTableRecord
100
AcDbTextStyleTableRecord
  2
SLDTEXTSTYLE1
 70
     0
 40
0.0
 41
0.663
 50
0.0
 71
     0
 42
3.5
  3
TXT
  4

  0
ENDTAB
  0
TABLE
  2
VIEW
  5
6
330
0
100
AcDbSymbolTable
 70
     0
  0
ENDTAB
  0
TABLE
  2
UCS
  5
7
330
0
100
AcDbSymbolTable
 70
     0
  0
ENDTAB
  0
TABLE
  2
APPID
  5
9
330
0
100
AcDbSymbolTable
 70
     1
  0
APPID
  5
12
330
9
100
AcDbSymbolTableRecord
100
AcDbRegAppTableRecord
  2
ACAD
 70
     0
  0
ENDTAB
  0
TABLE
  2
DIMSTYLE
  5
A
330
0
100
AcDbSymbolTable
 70
     6
100
AcDbDimStyleTable
  0
DIMSTYLE
105
27
330
A
100
AcDbSymbolTableRecord
100
AcDbDimStyleTableRecord
  2
ISO-25
 70
     0
 41
2.5
 42
0.625
 43
3.75
 44
1.25
 73
     0
 74
     0
 77
     1
 78
     8
140
2.5
141
2.5
143
0.0393700787
147
0.625
171
     3
172
     1
178
     0
271
     2
272
     2
274
     3
278
    44
283
     0
284
     8
340
11
  0
DIMSTYLE
105
11D
102
{ACAD_REACTORS
330
11C
330
127
102
}
330
A
100
AcDbSymbolTableRecord
100
AcDbDimStyleTableRecord
  2
SLDDIMSTYLE0
 70
     0
 41
3.302
 44
0.0
 45
0.000000001
 73
     0
 74
     0
 77
     1
 78
    12
 79
     3
140
3.5
147
0.875
173
     1
178
     0
271
     2
272
     2
276
     2
284
    12
340
91
  0
DIMSTYLE
105
132
102
{ACAD_REACTORS
330
131
102
}
330
A
100
AcDbSymbolTableRecord
100
AcDbDimStyleTableRecord
  2
SLDDIMSTYLE1
 70
     0
 41
3.302
 44
0.0
 45
0.000000001
 73
     0
 74
     0
 77
     1
 78
    12
 79
     3
140
3.5
141
0.0
147
0.875
172
     1
173
     1
178
     0
271
     2
272
     2
276
     2
284
    12
340
91
341
133
343
133
  0
DIMSTYLE
105
13F
102
{ACAD_REACTORS
330
13E
330
1B4
102
}
330
A
100
AcDbSymbolTableRecord
100
AcDbDimStyleTableRecord
  2
SLDDIMSTYLE2
 70
     0
 41
3.302
 44
0.0
 45
0.000000001
 73
     0
 74
     0
 77
     1
 78
    12
 79
     3
140
3.5
141
0.0
147
0.875
173
     1
178
     0
271
     2
272
     2
276
     2
284
    12
340
91
  0
DIMSTYLE
105
18F
102
{ACAD_REACTORS
330
18E
330
19B
330
1A8
330
1BC
102
}
330
A
100
AcDbSymbolTableRecord
100
AcDbDimStyleTableRecord
  2
SLDDIMSTYLE3
 70
     0
 41
3.302
 44
0.0
 45
0.000000001
 73
     0
 74
     0
 77
     1
 78
    12
 79
     3
140
3.5
147
0.875
172
     1
173
     1
178
     0
271
     2
272
     2
276
     2
284
    12
289
     0
340
91
  0
DIMSTYLE
105
1C9
102
{ACAD_REACTORS
330
1C8
102
}
330
A
100
AcDbSymbolTableRecord
100
AcDbDimStyleTableRecord
  2
SLDDIMSTYLE4
 70
     0
 41
3.302
 44
0.0
 45
0.000000001
 73
     0
 74
     0
 77
     1
 78
    12
 79
     3
140
3.5
141
0.0
147
0.875
173
     1
178
     0
271
     2
272
     2
276
     2
279
     1
284
    12
340
91
  0
ENDTAB
  0
TABLE
  2
BLOCK_RECORD
  5
1
330
0
100
AcDbSymbolTable
 70
    19
  0
BLOCK_RECORD
  5
1F
330
1
100
AcDbSymbolTableRecord
100
AcDbBlockTableRecord
  2
*Model_Space
340
22
  0
BLOCK_RECORD
  5
1B
330
1
100
AcDbSymbolTableRecord
100
AcDbBlockTableRecord
  2
*Paper_Space
340
1E
  0
BLOCK_RECORD
  5
23
330
1
100
AcDbSymbolTableRecord
100
AcDbBlockTableRecord
  2
*Paper_Space0
340
26
  0
BLOCK_RECORD
  5
74
330
1
100
AcDbSymbolTableRecord
100
AcDbBlockTableRecord
  2
Bloc cartouche polivalent
340
0
102
{BLKREFS
331
DE
102
}
  0
BLOCK_RECORD
  5
93
330
1
100
AcDbSymbolTableRecord
100
AcDbBlockTableRecord
  2
SW_NOTE_0
340
0
102
{BLKREFS
331
98
102
}
  0
BLOCK_RECORD
  5
9F
330
1
100
AcDbSymbolTableRecord
100
AcDbBlockTableRecord
  2
SW_NOTE_1
340
0
102
{BLKREFS
331
A8
102
}
  0
BLOCK_RECORD
  5
11E
330
1
100
AcDbSymbolTableRecord
100
AcDbBlockTableRecord
  2
_D
340
0
  0
BLOCK_RECORD
  5
128
330
1
100
AcDbSymbolTableRecord
100
AcDbBlockTableRecord
  2
_D_1
340
0
  0
BLOCK_RECORD
  5
133
330
1
100
AcDbSymbolTableRecord
100
AcDbBlockTableRecord
  2
_NONE
340
0
  0
BLOCK_RECORD
  5
136
330
1
100
AcDbSymbolTableRecord
100
AcDbBlockTableRecord
  2
_D_2
340
0
  0
BLOCK_RECORD
  5
140
330
1
100
AcDbSymbolTableRecord
100
AcDbBlockTableRecord
  2
_D_3
340
0
  0
BLOCK_RECORD
  5
147
330
1
100
AcDbSymbolTableRecord
100
AcDbBlockTableRecord
  2
SW_CENTERMARKSYMBOL_0
340
0
102
{BLKREFS
331
152
102
}
  0
BLOCK_RECORD
  5
153
330
1
100
AcDbSymbolTableRecord
100
AcDbBlockTableRecord
  2
SW_CENTERMARKSYMBOL_1
340
0
102
{BLKREFS
331
15E
102
}
  0
BLOCK_RECORD
  5
15F
330
1
100
AcDbSymbolTableRecord
100
AcDbBlockTableRecord
  2
SW_CENTERMARKSYMBOL_2
340
0
102
{BLKREFS
331
16A
102
}
  0
BLOCK_RECORD
  5
16B
330
1
100
AcDbSymbolTableRecord
100
AcDbBlockTableRecord
  2
SW_CENTERMARKSYMBOL_3
340
0
102
{BLKREFS
331
176
102
}
  0
BLOCK_RECORD
  5
190
330
1
100
AcDbSymbolTableRecord
100
AcDbBlockTableRecord
  2
_D_4
340
0
  0
BLOCK_RECORD
  5
19C
330
1
100
AcDbSymbolTableRecord
100
AcDbBlockTableRecord
  2
_D_5
340
0
  0
BLOCK_RECORD
  5
1A9
330
1
100
AcDbSymbolTableRecord
100
AcDbBlockTableRecord
  2
_D_6
340
0
  0
BLOCK_RECORD
  5
1B5
330
1
100
AcDbSymbolTableRecord
100
AcDbBlockTableRecord
  2
_D_7
340
0
  0
BLOCK_RECORD
  5
1BD
330
1
100
AcDbSymbolTableRecord
100
AcDbBlockTableRecord
  2
_D_8
340
0
  0
BLOCK_RECORD
  5
1CA
330
1
100
AcDbSymbolTableRecord
100
AcDbBlockTableRecord
  2
_D_9
340
0
  0
ENDTAB
  0
ENDSEC
  0
SECTION
  2
BLOCKS
  0
BLOCK
  5
20
330
1F
100
AcDbEntity
  8
0
100
AcDbBlockBegin
  2
*Model_Space
 70
     0
 10
0.0
 20
0.0
 30
0.0
  3
*Model_Space
  1

  0
ENDBLK
  5
21
330
1F
100
AcDbEntity
  8
0
100
AcDbBlockEnd
  0
BLOCK
  5
1C
330
1B
100
AcDbEntity
 67
     1
  8
0
100
AcDbBlockBegin
  2
*Paper_Space
 70
     0
 10
0.0
 20
0.0
 30
0.0
  3
*Paper_Space
  1

  0
ENDBLK
  5
1D
330
1B
100
AcDbEntity
 67
     1
  8
0
100
AcDbBlockEnd
  0
BLOCK
  5
24
330
23
100
AcDbEntity
  8
0
100
AcDbBlockBegin
  2
*Paper_Space0
 70
     0
 10
0.0
 20
0.0
 30
0.0
  3
*Paper_Space0
  1

  0
ENDBLK
  5
25
330
23
100
AcDbEntity
  8
0
100
AcDbBlockEnd
  0
BLOCK
  5
75
330
74
100
AcDbEntity
  8
0
100
AcDbBlockBegin
  2
Bloc cartouche polivalent
 70
     2
 10
0.0
 20
0.0
 30
0.0
  3
Bloc cartouche polivalent
  1

  0
CIRCLE
  5
77
330
74
100
AcDbEntity
  8
0
  6
Continuous
 62
     7
370
    18
100
AcDbCircle
 10
515.6701611947
 20
62.7586473129
 30
0.0
 40
2.017029278742118
  0
CIRCLE
  5
78
330
74
100
AcDbEntity
  8
0
  6
Continuous
 62
     7
370
    18
100
AcDbCircle
 10
515.6701611947
 20
62.7586473129
 30
0.0
 40
1.118718805257745
  0
LINE
  5
79
330
74
100
AcDbEntity
  8
0
  6
Continuous
 62
     7
370
    18
100
AcDbLine
 10
506.045423658
 20
63.8110104148
 30
0.0
 11
506.045423658
 21
61.8816780612
 31
0.0
  0
LINE
  5
7A
330
74
100
AcDbEntity
  8
0
  6
Continuous
 62
     7
370
    18
100
AcDbLine
 10
506.045423658
 20
61.8816780612
 30
0.0
 11
509.4217552768
 21
60.7416180341
 31
0.0
  0
LINE
  5
7B
330
74
100
AcDbEntity
  8
0
  6
Continuous
 62
     7
370
    18
100
AcDbLine
 10
509.4217552768
 20
60.7416180341
 30
0.0
 11
509.4217552768
 21
64.7756765916
 31
0.0
  0
LINE
  5
7C
330
74
100
AcDbEntity
  8
0
  6
Continuous
 62
     7
370
    18
100
AcDbLine
 10
509.4217552768
 20
64.7756765916
 30
0.0
 11
506.045423658
 21
63.8110104148
 31
0.0
  0
LINE
  5
7D
330
74
100
AcDbEntity
  8
0
  6
CENTERX2
 62
     7
370
    18
100
AcDbLine
 10
504.37918208
 20
62.7586473129
 30
0.0
 11
510.7372091542
 21
62.7586473129
 31
0.0
  0
LINE
  5
7E
330
74
100
AcDbEntity
  8
0
  6
CENTERX2
 62
     7
370
    18
100
AcDbLine
 10
512.9734807459
 20
62.7586473129
 30
0.0
 11
518.3668416434
 21
62.7586473129
 31
0.0
  0
LINE
  5
7F
330
74
100
AcDbEntity
  8
0
  6
CENTERX2
 62
     7
370
    18
100
AcDbLine
 10
515.6701611947
 20
65.3457066052
 30
0.0
 11
515.6701611947
 21
60.1715880206
 31
0.0
  0
LINE
  5
80
330
74
100
AcDbEntity
  8
0
  6
Continuous
 62
     7
370
    50
100
AcDbLine
 10
521.7623326247
 20
59.7972409843
 30
0.0
 11
521.7623326247
 21
66.1722409843
 31
0.0
  0
LINE
  5
81
330
74
100
AcDbEntity
  8
0
  6
Continuous
 62
     7
370
    50
100
AcDbLine
 10
457.9256896205
 20
15.2176620386
 30
0.0
 11
583.3256896205
 21
15.1104259912
 31
0.0
  0
LINE
  5
82
330
74
100
AcDbEntity
  8
0
  6
Continuous
 62
     7
370
    50
100
AcDbLine
 10
583.3256896205
 20
49.1104259912
 30
0.0
 11
457.9256896205
 21
49.1104259912
 31
0.0
  0
LINE
  5
83
330
74
100
AcDbEntity
  8
0
  6
Continuous
 62
     7
370
    50
100
AcDbLine
 10
457.9256896205
 20
66.1104259912
 30
0.0
 11
583.3256896205
 21
66.1104259912
 31
0.0
  0
LINE
  5
84
330
74
100
AcDbEntity
  8
0
  6
Continuous
 62
     7
370
    50
100
AcDbLine
 10
457.9256896205
 20
10.8604259912
 30
0.0
 11
457.9256896205
 21
27.8604259912
 31
0.0
  0
LINE
  5
85
330
74
100
AcDbEntity
  8
0
  6
Continuous
 62
     7
370
    50
100
AcDbLine
 10
502.1256896205
 20
43.8789075439
 30
0.0
 11
457.9256896205
 21
43.8789075439
 31
0.0
  0
LINE
  5
86
330
74
100
AcDbEntity
  8
0
  6
Continuous
 62
     7
370
    50
100
AcDbLine
 10
457.9256896205
 20
27.8604259912
 30
0.0
 11
457.9256896205
 21
66.1104259912
 31
0.0
  0
LINE
  5
87
330
74
100
AcDbEntity
  8
0
  6
Continuous
 62
     7
370
    50
100
AcDbLine
 10
489.3259692552
 20
66.1104259912
 30
0.0
 11
489.3259692552
 21
49.1104259912
 31
0.0
  0
LINE
  5
88
330
74
100
AcDbEntity
  8
0
  6
Continuous
 62
     7
370
    50
100
AcDbLine
 10
457.9256896205
 20
27.8604259912
 30
0.0
 11
583.3256896205
 21
27.8604259912
 31
0.0
  0
LINE
  5
89
330
74
100
AcDbEntity
  8
0
  6
Continuous
 62
     7
370
    50
100
AcDbLine
 10
502.1256896205
 20
66.1104259912
 30
0.0
 11
502.1256896205
 21
10.8604259912
 31
0.0
  0
LINE
  5
8A
330
74
100
AcDbEntity
  8
0
  6
Continuous
 62
     7
370
    50
100
AcDbLine
 10
546.3256896205
 20
10.8604259912
 30
0.0
 11
546.3256896205
 21
15.1104259912
 31
0.0
  0
LINE
  5
8B
330
74
100
AcDbEntity
  8
0
  6
Continuous
 62
     7
370
    50
100
AcDbLine
 10
554.1256896205
 20
59.7354259912
 30
0.0
 11
554.1256896205
 21
66.1104259912
 31
0.0
  0
LINE
  5
8C
330
74
100
AcDbEntity
  8
0
  6
Continuous
 62
     7
370
    50
100
AcDbLine
 10
570.3256896205
 20
15.1104259912
 30
0.0
 11
570.3256896205
 21
27.8604259912
 31
0.0
  0
LINE
  5
8D
330
74
100
AcDbEntity
  8
0
  6
Continuous
 62
     7
370
    50
100
AcDbLine
 10
583.3256896205
 20
59.7354259912
 30
0.0
 11
502.1256896205
 21
59.7354259912
 31
0.0
  0
LINE
  5
8E
330
74
100
AcDbEntity
  8
0
  6
Continuous
 62
     7
370
    50
100
AcDbLine
 10
583.3256896205
 20
19.3604259912
 30
0.0
 11
570.3256896205
 21
19.3604259912
 31
0.0
  0
LINE
  5
8F
330
74
100
AcDbEntity
  8
0
  6
Continuous
 62
     7
370
    50
100
AcDbLine
 10
516.0476902944
 20
10.9676620386
 30
0.0
 11
516.0476902944
 21
15.2176620386
 31
0.0
  0
LINE
  5
90
330
74
100
AcDbEntity
  8
0
  6
Continuous
 62
     7
370
    50
100
AcDbLine
 10
502.1256896205
 20
35.3200130963
 30
0.0
 11
457.9256896205
 21
35.3200130963
 31
0.0
  0
MTEXT
  5
92
330
74
100
AcDbEntity
  8
0
  6
Continuous
 62
     7
370
     0
100
AcDbMText
 10
460.1865425142
 20
42.302662402
 30
0.0
 40
1.5
 41
0.0
 71
     1
 72
     1
  1
FINITION:
  7
SLDTEXTSTYLE0
 73
     1
 44
1.0
  0
INSERT
  5
98
330
74
100
AcDbEntity
  8
0
  6
Continuous
 62
     7
370
     0
100
AcDbBlockReference
  2
SW_NOTE_0
 10
490.0565064879
 20
60.8154410921
 30
0.0
  0
MTEXT
  5
99
330
74
100
AcDbEntity
  8
0
  6
Continuous
 62
     7
370
     0
100
AcDbMText
 10
459.2437036703
 20
26.6054405513
 30
0.0
 40
1.5
 41
0.0
 71
     1
 72
     1
  1
MATERIAU:
  7
SLDTEXTSTYLE0
 73
     1
 44
1.0
  0
MTEXT
  5
9A
330
74
100
AcDbEntity
  8
0
  6
Continuous
 62
     7
370
     0
100
AcDbMText
 10
524.7010337186
 20
62.9542929425
 30
0.0
 40
1.5
 41
0.0
 71
     1
 72
     1
  1
NE PAS CHANGER L'ECHELLE
  7
SLDTEXTSTYLE0
 73
     1
 44
1.0
  0
MTEXT
  5
9B
330
74
100
AcDbEntity
  8
0
  6
Continuous
 62
     7
370
     0
100
AcDbMText
 10
556.9254230609
 20
62.9542929425
 30
0.0
 40
1.5
 41
0.0
 71
     1
 72
     1
  1
REVISION
  7
SLDTEXTSTYLE0
 73
     1
 44
1.0
  0
MTEXT
  5
9C
330
74
100
AcDbEntity
  8
0
  6
Continuous
 62
     7
370
     0
100
AcDbMText
 10
503.6261376405
 20
47.1955634832
 30
0.0
 40
1.5
 41
0.0
 71
     1
 72
     1
  1
TITRE:
  7
SLDTEXTSTYLE0
 73
     1
 44
1.0
  0
MTEXT
  5
9D
330
74
100
AcDbEntity
  8
0
  6
Continuous
 62
     7
370
     0
100
AcDbMText
 10
503.2285784929
 20
26.6054405513
 30
0.0
 40
1.5
 41
0.0
 71
     1
 72
     1
  1
No. DE PLAN
  7
SLDTEXTSTYLE0
 73
     1
 44
1.0
  0
MTEXT
  5
9E
330
74
100
AcDbEntity
  8
0
  6
Continuous
 62
     7
370
     0
100
AcDbMText
 10
517.4237287036
 20
13.5194715365
 30
0.0
 40
1.5
 41
0.0
 71
     1
 72
     1
  1
DATE :
  7
SLDTEXTSTYLE0
 73
     1
 44
1.0
  0
INSERT
  5
A8
330
74
100
AcDbEntity
  8
0
  6
Continuous
 62
     7
370
     0
100
AcDbBlockReference
  2
SW_NOTE_1
 10
459.2437036703
 20
62.6067534378
 30
0.0
  0
MTEXT
  5
A9
330
74
100
AcDbEntity
  8
0
  6
Continuous
 62
     7
370
     0
100
AcDbMText
 10
459.7882723419
 20
47.1955634832
 30
0.0
 40
1.5
 41
0.0
 71
     1
 72
     1
  1
Quantité de pièce :
  7
SLDTEXTSTYLE0
 73
     1
 44
1.0
  0
MTEXT
  5
AA
330
74
100
AcDbEntity
  8
0
  6
Continuous
 62
     7
370
     0
100
AcDbMText
 10
503.9507134444
 20
57.7490428135
 30
0.0
 40
1.5
 41
0.0
 71
     1
 72
     1
  1
Entreprise
  7
SLDTEXTSTYLE0
 73
     1
 44
1.0
  0
MTEXT
  5
AB
330
74
100
AcDbEntity
  8
0
  6
Continuous
 62
     7
370
     0
100
AcDbMText
 10
460.1865425142
 20
34.0666452458
 30
0.0
 40
1.5
 41
0.0
 71
     1
 72
     1
  1
Tolérance générales : ISO 2768 - mk
  7
SLDTEXTSTYLE0
 73
     1
 44
1.0
  0
MTEXT
  5
AC
330
74
100
AcDbEntity
  8
0
  6
Continuous
 62
     7
370
     0
100
AcDbMText
 10
460.1865425142
 20
30.545927371
 30
0.0
 40
1.5
 41
0.0
 71
     1
 72
     1
  1
Tolérance mécanosoudures: ISO 13920AAE
  7
SLDTEXTSTYLE0
 73
     1
 44
1.0
  0
ATTDEF
  5
AD
330
74
100
AcDbEntity
  8
0
  6
Continuous
 62
     7
370
     0
100
AcDbText
 10
503.671807479
 20
12.1157600198
 30
0.0
 40
1.5
  1
ECHELLE:1:1
 41
0.75
  7
SLDTEXTSTYLE0
 11
503.671807479
 21
11.5858699269
 31
0.0
100
AcDbAttributeDefinition
  3

  2
AUTOATTR18
 70
     0
 74
     1
  0
ATTDEF
  5
AE
330
74
100
AcDbEntity
  8
0
  6
Continuous
 62
     7
370
     0
100
AcDbText
 10
548.0761357894
 20
12.1157600198
 30
0.0
 40
1.5
  1
FEUILLE: 1 sur 1
 41
0.75
  7
SLDTEXTSTYLE0
 11
548.0761357894
 21
11.5858699269
 31
0.0
100
AcDbAttributeDefinition
  3

  2
AUTOATTR17
 70
     0
 74
     1
  0
ATTDEF
  5
AF
330
74
100
AcDbEntity
  8
0
  6
Continuous
 62
     7
370
     0
100
AcDbText
 10
574.4689977962
 20
22.3021825686
 30
0.0
 40
2.9104166667
  1
A3
 41
0.75
  7
SLDTEXTSTYLE0
 11
574.4689977962
 21
21.2740485967
 31
0.0
100
AcDbAttributeDefinition
  3

  2
AUTOATTR0102
 70
     0
 74
     1
  0
ATTDEF
  5
B0
330
74
100
AcDbEntity
  8
0
  6
Continuous
 62
     7
370
     0
100
AcDbText
 10
462.3530123338
 20
19.8765580369
 30
0.0
 40
2.38125
  1
Matériau <non spécifié>
 41
0.75
  7
SLDTEXTSTYLE0
 11
462.3530123338
 21
19.0353575145
 31
0.0
100
AcDbAttributeDefinition
  3

  2
AUTOATTR16
 70
     0
 74
     1
  0
ATTDEF
  5
B1
330
74
100
AcDbEntity
  8
0
  6
Continuous
 62
     7
370
     0
100
AcDbText
 10
0.0
 20
0.0
 30
0.0
 40
1.0
  1

100
AcDbAttributeDefinition
  3

  2
AUTOATTR15
 70
     0
  0
ATTDEF
  5
B2
330
74
100
AcDbEntity
  8
0
  6
Continuous
 62
     7
370
     0
100
AcDbText
 10
459.2156524897
 20
12.1662947796
 30
0.0
 40
1.4986
  1
MASSE: 
 41
0.75
  7
SLDTEXTSTYLE0
 11
459.2156524897
 21
11.6368992508
 31
0.0
100
AcDbAttributeDefinition
  3

  2
AUTOATTR14
 70
     0
 74
     1
  0
ATTDEF
  5
B3
330
74
100
AcDbEntity
  8
0
  6
Continuous
 62
     7
370
     0
100
AcDbText
 10
0.0
 20
0.0
 30
0.0
 40
1.0
  1

100
AcDbAttributeDefinition
  3

  2
AUTOATTR3
 70
     0
  0
ATTDEF
  5
B4
330
74
100
AcDbEntity
  8
0
  6
Continuous
 62
     7
370
     0
100
AcDbText
 10
497.8452403146
 20
18.2839164749
 30
0.0
 40
6.35
  1
fixation filette parti 2
 41
0.75
  7
SLDTEXTSTYLE0
 11
497.8452403146
 21
16.0407150817
 31
0.0
100
AcDbAttributeDefinition
  3

  2
AUTOATTR2
 70
     0
 74
     1
  0
ATTDEF
  5
B5
330
74
100
AcDbEntity
  8
0
  6
Continuous
 62
     7
370
     0
100
AcDbText
 10
0.0
 20
0.0
 30
0.0
 40
1.0
  1

100
AcDbAttributeDefinition
  3

  2
AUTOATTR101
 70
     0
  0
ATTDEF
  5
B6
330
74
100
AcDbEntity
  8
0
  6
Continuous
 62
     7
370
     0
100
AcDbText
 10
568.8402087469
 20
61.5811516508
 30
0.0
 40
1.905
  1
22/06/2023
 41
0.75
  7
SLDTEXTSTYLE0
 11
568.8402087469
 21
60.9081912329
 31
0.0
100
AcDbAttributeDefinition
  3

  2
AUTOATTR0
 70
     0
 74
     1
  0
ATTDEF
  5
B7
330
74
100
AcDbEntity
  8
0
  6
Continuous
 62
     7
370
     0
100
AcDbText
 10
468.4090989602
 20
12.1776702386
 30
0.0
 40
2.1166666667
  1
96.18
 41
0.75
  7
SLDTEXTSTYLE0
 11
468.4090989602
 21
11.4299364409
 31
0.0
100
AcDbAttributeDefinition
  3

  2
AUTOATTR1
 70
     0
 74
     1
  0
ATTDEF
  5
B8
330
74
100
AcDbEntity
  8
0
  6
Continuous
 62
     7
370
     0
100
AcDbText
 10
526.0212770611
 20
12.1270298001
 30
0.0
 40
2.1166666667
  1
21/06/2023
 41
0.75
  7
SLDTEXTSTYLE0
 11
526.0212770611
 21
11.3792960024
 31
0.0
100
AcDbAttributeDefinition
  3

  2
AUTOATTR4
 70
     0
 74
     1
  0
ATTDEF
  5
B9
330
74
100
AcDbEntity
  8
0
  6
Continuous
 62
     7
370
     0
100
AcDbText
 10
484.936423133
 20
45.2249226649
 30
0.0
 40
2.1166666667
  1
2
 41
0.75
  7
SLDTEXTSTYLE0
 11
484.936423133
 21
44.4771888672
 31
0.0
100
AcDbAttributeDefinition
  3

  2
AUTOATTR5
 70
     0
 74
     1
  0
ENDBLK
  5
76
330
74
100
AcDbEntity
  8
0
100
AcDbBlockEnd
  0
BLOCK
  5
94
330
93
100
AcDbEntity
  8
0
100
AcDbBlockBegin
  2
SW_NOTE_0
 70
     0
 10
0.0
 20
0.0
 30
0.0
  3
SW_NOTE_0
  1

  0
MTEXT
  5
96
330
93
100
AcDbEntity
  8
0
  6
Continuous
 62
     0
370
     0
100
AcDbMText
 10
0.0
 20
1.9336016097
 30
0.0
 40
1.5
 41
0.0
 71
     1
 72
     1
  1
CASSER LES
  7
SLDTEXTSTYLE0
 73
     1
 44
1.0
  0
MTEXT
  5
97
330
93
100
AcDbEntity
  8
0
  6
Continuous
 62
     0
370
     0
100
AcDbMText
 10
0.0
 20
-0.5663983345
 30
0.0
 40
1.5
 41
0.0
 71
     1
 72
     1
  1
ANGLES VIFS
  7
SLDTEXTSTYLE0
 73
     1
 44
1.0
  0
ENDBLK
  5
95
330
93
100
AcDbEntity
  8
0
100
AcDbBlockEnd
  0
BLOCK
  5
A0
330
9F
100
AcDbEntity
  8
0
100
AcDbBlockBegin
  2
SW_NOTE_1
 70
     0
 10
0.0
 20
0.0
 30
0.0
  3
SW_NOTE_1
  1

  0
MTEXT
  5
A2
330
9F
100
AcDbEntity
  8
0
  6
Continuous
 62
     0
370
     0
100
AcDbMText
 10
0.0
 20
1.9336016097
 30
0.0
 40
1.5
 41
0.0
 71
     1
 72
     1
  1
SAUF INDICATION CONTRAIRE:
  7
SLDTEXTSTYLE0
 73
     1
 44
1.0
  0
MTEXT
  5
A3
330
9F
100
AcDbEntity
  8
0
  6
Continuous
 62
     0
370
     0
100
AcDbMText
 10
0.0
 20
-0.5663983345
 30
0.0
 40
1.5
 41
0.0
 71
     1
 72
     1
  1
LES COTES SONT EN MILLIMETRES
  7
SLDTEXTSTYLE0
 73
     1
 44
1.0
  0
MTEXT
  5
A4
330
9F
100
AcDbEntity
  8
0
  6
Continuous
 62
     0
370
     0
100
AcDbMText
 10
0.0
 20
-3.0663982786
 30
0.0
 40
1.5
 41
0.0
 71
     1
 72
     1
  1
ETAT DE SURFACE:
  7
SLDTEXTSTYLE0
 73
     1
 44
1.0
  0
MTEXT
  5
A5
330
9F
100
AcDbEntity
  8
0
  6
Continuous
 62
     0
370
     0
100
AcDbMText
 10
0.0
 20
-5.5663982227
 30
0.0
 40
1.5
 41
0.0
 71
     1
 72
     1
  1
TOLERANCES:
  7
SLDTEXTSTYLE0
 73
     1
 44
1.0
  0
MTEXT
  5
A6
330
9F
100
AcDbEntity
  8
0
  6
Continuous
 62
     0
370
     0
100
AcDbMText
 10
1.6875
 20
-8.0663981668
 30
0.0
 40
1.5
 41
0.0
 71
     1
 72
     1
  1
LINEAIRES:
  7
SLDTEXTSTYLE0
 73
     1
 44
1.0
  0
MTEXT
  5
A7
330
9F
100
AcDbEntity
  8
0
  6
Continuous
 62
     0
370
     0
100
AcDbMText
 10
1.6875
 20
-10.5663981109
 30
0.0
 40
1.5
 41
0.0
 71
     1
 72
     1
  1
ANGULAIRES:
  7
SLDTEXTSTYLE0
 73
     1
 44
1.0
  0
ENDBLK
  5
A1
330
9F
100
AcDbEntity
  8
0
100
AcDbBlockEnd
  0
BLOCK
  5
11F
330
11E
100
AcDbEntity
  8
0
100
AcDbBlockBegin
  2
_D
 70
     0
 10
0.0
 20
0.0
 30
0.0
  3
_D
  1

  0
SOLID
  5
121
330
11E
100
AcDbEntity
  8
0
  6
Continuous
 62
     7
370
    18
100
AcDbTrace
 10
90.5015377806
 20
264.6816197975
 30
0.0
 11
93.8035377806
 21
264.1736197975
 31
0.0
 12
93.8035377806
 22
265.1896197975
 32
0.0
 13
93.8035377806
 23
265.1896197975
 33
0.0
  0
SOLID
  5
122
330
11E
100
AcDbEntity
  8
0
  6
Continuous
 62
     7
370
    18
100
AcDbTrace
 10
121.0015377806
 20
264.6816197975
 30
0.0
 11
117.6995377806
 21
265.1896197975
 31
0.0
 12
117.6995377806
 22
264.1736197975
 32
0.0
 13
117.6995377806
 23
264.1736197975
 33
0.0
  0
LINE
  5
123
330
11E
100
AcDbEntity
  8
0
  6
Continuous
 62
     7
370
    18
100
AcDbLine
 10
90.5015377806
 20
213.3414498538
 30
0.0
 11
90.5015377806
 21
265.6816197975
 31
0.0
  0
LINE
  5
124
330
11E
100
AcDbEntity
  8
0
  6
Continuous
 62
     7
370
    18
100
AcDbLine
 10
121.0015377806
 20
213.3414498538
 30
0.0
 11
121.0015377806
 21
265.6816197975
 31
0.0
  0
LINE
  5
125
330
11E
100
AcDbEntity
  8
0
  6
Continuous
 62
     7
370
    18
100
AcDbLine
 10
90.5015377806
 20
264.6816197975
 30
0.0
 11
121.0015377806
 21
264.6816197975
 31
0.0
  0
MTEXT
  5
126
330
11E
100
AcDbEntity
  8
0
  6
Continuous
 62
     7
370
    18
100
AcDbMText
 10
100.0323484048
 20
269.1933567121
 30
0.0
 40
3.5
 41
0.0
 71
     1
 72
     1
  1
30,50
  7
SLDTEXTSTYLE0
 73
     1
 44
1.0
  0
ENDBLK
  5
120
330
11E
100
AcDbEntity
  8
0
100
AcDbBlockEnd
  0
BLOCK
  5
129
330
128
100
AcDbEntity
  8
0
100
AcDbBlockBegin
  2
_D_1
 70
     0
 10
0.0
 20
0.0
 30
0.0
  3
_D_1
  1

  0
SOLID
  5
12B
330
128
100
AcDbEntity
  8
0
  6
Continuous
 62
     7
370
    18
100
AcDbTrace
 10
173.7515377806
 20
217.9316197975
 30
0.0
 11
173.2435377806
 21
214.6296197975
 31
0.0
 12
174.2595377806
 22
214.6296197975
 32
0.0
 13
174.2595377806
 23
214.6296197975
 33
0.0
  0
SOLID
  5
12C
330
128
100
AcDbEntity
  8
0
  6
Continuous
 62
     7
370
    18
100
AcDbTrace
 10
173.7515377806
 20
187.4316197975
 30
0.0
 11
174.2595377806
 21
190.7336197975
 31
0.0
 12
173.2435377806
 22
190.7336197975
 32
0.0
 13
173.2435377806
 23
190.7336197975
 33
0.0
  0
LINE
  5
12D
330
128
100
AcDbEntity
  8
0
  6
Continuous
 62
     7
370
    18
100
AcDbLine
 10
116.4113678369
 20
217.9316197975
 30
0.0
 11
174.7515377806
 21
217.9316197975
 31
0.0
  0
LINE
  5
12E
330
128
100
AcDbEntity
  8
0
  6
Continuous
 62
     7
370
    18
100
AcDbLine
 10
116.4113678369
 20
187.4316197975
 30
0.0
 11
174.7515377806
 21
187.4316197975
 31
0.0
  0
LINE
  5
12F
330
128
100
AcDbEntity
  8
0
  6
Continuous
 62
     7
370
    18
100
AcDbLine
 10
173.7515377806
 20
217.9316197975
 30
0.0
 11
173.7515377806
 21
187.4316197975
 31
0.0
  0
MTEXT
  5
130
330
128
100
AcDbEntity
  8
0
  6
Continuous
 62
     7
370
    18
100
AcDbMText
 10
169.239800866
 20
200.5098486973
 30
0.0
 40
3.5
 41
0.0
 71
     1
 72
     1
  1
30,50
  7
SLDTEXTSTYLE0
 11
-7.044195017643634E-15
 21
1.0
 31
0.0
 73
     1
 44
1.0
  0
ENDBLK
  5
12A
330
128
100
AcDbEntity
  8
0
100
AcDbBlockEnd
  0
BLOCK
  5
134
330
133
100
AcDbEntity
  8
0
100
AcDbBlockBegin
  2
_NONE
 70
     0
 10
0.0
 20
0.0
 30
0.0
  3
_NONE
  1

  0
ENDBLK
  5
135
330
133
100
AcDbEntity
  8
0
100
AcDbBlockEnd
  0
BLOCK
  5
137
330
136
100
AcDbEntity
  8
0
100
AcDbBlockBegin
  2
_D_2
 70
     0
 10
0.0
 20
0.0
 30
0.0
  3
_D_2
  1

  0
SOLID
  5
139
330
136
100
AcDbEntity
  8
0
  6
Continuous
 62
     7
370
    18
100
AcDbTrace
 10
134.7280710472
 20
230.2562552412
 30
0.0
 11
137.4702817385
 21
232.1645394245
 31
0.0
 12
136.7698859982
 22
232.9005433695
 32
0.0
 13
136.7698859982
 23
232.9005433695
 33
0.0
  0
LINE
  5
13A
330
136
100
AcDbEntity
  8
0
  6
Continuous
 62
     7
370
    18
100
AcDbLine
 10
134.7280710472
 20
230.2562552412
 30
0.0
 11
158.2468137313
 21
252.6371504863
 31
0.0
  0
LINE
  5
13B
330
136
100
AcDbEntity
  8
0
  6
Continuous
 62
     7
370
    18
100
AcDbLine
 10
134.7280710472
 20
230.2562552412
 30
0.0
 11
76.775004514
 21
175.1069843539
 31
0.0
  0
MTEXT
  5
13C
330
136
100
AcDbEntity
  8
0
  6
Continuous
 62
     7
370
    18
100
AcDbMText
 10
147.5676556343
 20
248.6994219021
 30
0.0
 40
3.5
 41
0.0
 71
     1
 72
     1
  1
%%c
  7
SLDTEXTSTYLE0
 11
0.7244133316651507
 21
0.6893658860908308
 31
0.0
 73
     1
 44
1.0
  0
MTEXT
  5
13D
330
136
100
AcDbEntity
  8
0
  6
Continuous
 62
     7
370
    18
100
AcDbMText
 10
151.3545641615
 20
252.3769325341
 30
0.0
 40
3.5
 41
0.0
 71
     1
 72
     1
  1
80
  7
SLDTEXTSTYLE0
 11
0.7244133316651507
 21
0.6893658860908308
 31
0.0
 73
     1
 44
1.0
  0
ENDBLK
  5
138
330
136
100
AcDbEntity
  8
0
100
AcDbBlockEnd
  0
BLOCK
  5
141
330
140
100
AcDbEntity
  8
0
100
AcDbBlockBegin
  2
_D_3
 70
     0
 10
0.0
 20
0.0
 30
0.0
  3
_D_3
  1

  0
SOLID
  5
143
330
140
100
AcDbEntity
  8
0
  6
Continuous
 62
     7
370
    18
100
AcDbTrace
 10
123.3194438328
 20
218.8682688958
 30
0.0
 11
126.5712612432
 21
219.6343965151
 31
0.0
 12
126.1906070497
 22
220.5763935347
 32
0.0
 13
126.1906070497
 23
220.5763935347
 33
0.0
  0
LINE
  5
144
330
140
100
AcDbEntity
  8
0
  6
Continuous
 62
     7
370
    18
100
AcDbLine
 10
123.3194438328
 20
218.8682688958
 30
0.0
 11
164.6164377479
 21
235.5560859353
 31
0.0
  0
LINE
  5
145
330
140
100
AcDbEntity
  8
0
  6
Continuous
 62
     7
370
    18
100
AcDbLine
 10
123.3194438328
 20
218.8682688958
 30
0.0
 11
121.0015377806
 21
217.9316197975
 31
0.0
  0
MTEXT
  5
146
330
140
100
AcDbEntity
  8
0
  6
Continuous
 62
     7
370
    18
100
AcDbMText
 10
151.9087186159
 20
235.2803743819
 30
0.0
 40
3.5
 41
0.0
 71
     1
 72
     1
  1
R2,50
  7
SLDTEXTSTYLE0
 11
0.927162420865371
 21
0.3746596393195624
 31
0.0
 73
     1
 44
1.0
  0
ENDBLK
  5
142
330
140
100
AcDbEntity
  8
0
100
AcDbBlockEnd
  0
BLOCK
  5
148
330
147
100
AcDbEntity
  8
0
100
AcDbBlockBegin
  2
SW_CENTERMARKSYMBOL_0
 70
     0
 10
0.0
 20
0.0
 30
0.0
  3
SW_CENTERMARKSYMBOL_0
  1

  0
LINE
  5
14A
330
147
100
AcDbEntity
  8
0
  6
Continuous
 62
     0
370
     0
100
AcDbLine
 10
0.0
 20
0.0
 30
0.0
 11
0.0
 21
2.5
 31
0.0
  0
LINE
  5
14B
330
147
100
AcDbEntity
  8
0
  6
Continuous
 62
     0
370
     0
100
AcDbLine
 10
0.0
 20
0.0
 30
0.0
 11
-2.5
 21
0.0
 31
0.0
  0
LINE
  5
14C
330
147
100
AcDbEntity
  8
0
  6
Continuous
 62
     0
370
     0
100
AcDbLine
 10
0.0
 20
0.0
 30
0.0
 11
0.0
 21
-2.5
 31
0.0
  0
LINE
  5
14D
330
147
100
AcDbEntity
  8
0
  6
Continuous
 62
     0
370
     0
100
AcDbLine
 10
0.0
 20
0.0
 30
0.0
 11
2.5
 21
0.0
 31
0.0
  0
LINE
  5
14E
330
147
100
AcDbEntity
  8
0
  6
Continuous
 62
     0
370
     0
100
AcDbLine
 10
0.0
 20
2.5
 30
0.0
 11
0.0
 21
5.0
 31
0.0
  0
LINE
  5
14F
330
147
100
AcDbEntity
  8
0
  6
Continuous
 62
     0
370
     0
100
AcDbLine
 10
-2.5
 20
0.0
 30
0.0
 11
-5.0
 21
0.0
 31
0.0
  0
LINE
  5
150
330
147
100
AcDbEntity
  8
0
  6
Continuous
 62
     0
370
     0
100
AcDbLine
 10
0.0
 20
-2.5
 30
0.0
 11
0.0
 21
-5.0
 31
0.0
  0
LINE
  5
151
330
147
100
AcDbEntity
  8
0
  6
Continuous
 62
     0
370
     0
100
AcDbLine
 10
2.5
 20
0.0
 30
0.0
 11
5.0
 21
0.0
 31
0.0
  0
ENDBLK
  5
149
330
147
100
AcDbEntity
  8
0
100
AcDbBlockEnd
  0
BLOCK
  5
154
330
153
100
AcDbEntity
  8
0
100
AcDbBlockBegin
  2
SW_CENTERMARKSYMBOL_1
 70
     0
 10
0.0
 20
0.0
 30
0.0
  3
SW_CENTERMARKSYMBOL_1
  1

  0
LINE
  5
156
330
153
100
AcDbEntity
  8
0
  6
Continuous
 62
     0
370
     0
100
AcDbLine
 10
0.0
 20
0.0
 30
0.0
 11
0.0
 21
2.5
 31
0.0
  0
LINE
  5
157
330
153
100
AcDbEntity
  8
0
  6
Continuous
 62
     0
370
     0
100
AcDbLine
 10
0.0
 20
0.0
 30
0.0
 11
-2.5
 21
0.0
 31
0.0
  0
LINE
  5
158
330
153
100
AcDbEntity
  8
0
  6
Continuous
 62
     0
370
     0
100
AcDbLine
 10
0.0
 20
0.0
 30
0.0
 11
0.0
 21
-2.5
 31
0.0
  0
LINE
  5
159
330
153
100
AcDbEntity
  8
0
  6
Continuous
 62
     0
370
     0
100
AcDbLine
 10
0.0
 20
0.0
 30
0.0
 11
2.5
 21
0.0
 31
0.0
  0
LINE
  5
15A
330
153
100
AcDbEntity
  8
0
  6
Continuous
 62
     0
370
     0
100
AcDbLine
 10
0.0
 20
2.5
 30
0.0
 11
0.0
 21
5.0
 31
0.0
  0
LINE
  5
15B
330
153
100
AcDbEntity
  8
0
  6
Continuous
 62
     0
370
     0
100
AcDbLine
 10
-2.5
 20
0.0
 30
0.0
 11
-5.0
 21
0.0
 31
0.0
  0
LINE
  5
15C
330
153
100
AcDbEntity
  8
0
  6
Continuous
 62
     0
370
     0
100
AcDbLine
 10
0.0
 20
-2.5
 30
0.0
 11
0.0
 21
-5.0
 31
0.0
  0
LINE
  5
15D
330
153
100
AcDbEntity
  8
0
  6
Continuous
 62
     0
370
     0
100
AcDbLine
 10
2.5
 20
0.0
 30
0.0
 11
5.0
 21
0.0
 31
0.0
  0
ENDBLK
  5
155
330
153
100
AcDbEntity
  8
0
100
AcDbBlockEnd
  0
BLOCK
  5
160
330
15F
100
AcDbEntity
  8
0
100
AcDbBlockBegin
  2
SW_CENTERMARKSYMBOL_2
 70
     0
 10
0.0
 20
0.0
 30
0.0
  3
SW_CENTERMARKSYMBOL_2
  1

  0
LINE
  5
162
330
15F
100
AcDbEntity
  8
0
  6
Continuous
 62
     0
370
     0
100
AcDbLine
 10
0.0
 20
0.0
 30
0.0
 11
0.0
 21
2.5
 31
0.0
  0
LINE
  5
163
330
15F
100
AcDbEntity
  8
0
  6
Continuous
 62
     0
370
     0
100
AcDbLine
 10
0.0
 20
0.0
 30
0.0
 11
-2.5
 21
0.0
 31
0.0
  0
LINE
  5
164
330
15F
100
AcDbEntity
  8
0
  6
Continuous
 62
     0
370
     0
100
AcDbLine
 10
0.0
 20
0.0
 30
0.0
 11
0.0
 21
-2.5
 31
0.0
  0
LINE
  5
165
330
15F
100
AcDbEntity
  8
0
  6
Continuous
 62
     0
370
     0
100
AcDbLine
 10
0.0
 20
0.0
 30
0.0
 11
2.5
 21
0.0
 31
0.0
  0
LINE
  5
166
330
15F
100
AcDbEntity
  8
0
  6
Continuous
 62
     0
370
     0
100
AcDbLine
 10
0.0
 20
2.5
 30
0.0
 11
0.0
 21
5.0
 31
0.0
  0
LINE
  5
167
330
15F
100
AcDbEntity
  8
0
  6
Continuous
 62
     0
370
     0
100
AcDbLine
 10
-2.5
 20
0.0
 30
0.0
 11
-5.0
 21
0.0
 31
0.0
  0
LINE
  5
168
330
15F
100
AcDbEntity
  8
0
  6
Continuous
 62
     0
370
     0
100
AcDbLine
 10
0.0
 20
-2.5
 30
0.0
 11
0.0
 21
-5.0
 31
0.0
  0
LINE
  5
169
330
15F
100
AcDbEntity
  8
0
  6
Continuous
 62
     0
370
     0
100
AcDbLine
 10
2.5
 20
0.0
 30
0.0
 11
5.0
 21
0.0
 31
0.0
  0
ENDBLK
  5
161
330
15F
100
AcDbEntity
  8
0
100
AcDbBlockEnd
  0
BLOCK
  5
16C
330
16B
100
AcDbEntity
  8
0
100
AcDbBlockBegin
  2
SW_CENTERMARKSYMBOL_3
 70
     0
 10
0.0
 20
0.0
 30
0.0
  3
SW_CENTERMARKSYMBOL_3
  1

  0
LINE
  5
16E
330
16B
100
AcDbEntity
  8
0
  6
Continuous
 62
     0
370
     0
100
AcDbLine
 10
0.0
 20
0.0
 30
0.0
 11
0.0
 21
2.5
 31
0.0
  0
LINE
  5
16F
330
16B
100
AcDbEntity
  8
0
  6
Continuous
 62
     0
370
     0
100
AcDbLine
 10
0.0
 20
0.0
 30
0.0
 11
-2.5
 21
0.0
 31
0.0
  0
LINE
  5
170
330
16B
100
AcDbEntity
  8
0
  6
Continuous
 62
     0
370
     0
100
AcDbLine
 10
0.0
 20
0.0
 30
0.0
 11
0.0
 21
-2.5
 31
0.0
  0
LINE
  5
171
330
16B
100
AcDbEntity
  8
0
  6
Continuous
 62
     0
370
     0
100
AcDbLine
 10
0.0
 20
0.0
 30
0.0
 11
2.5
 21
0.0
 31
0.0
  0
LINE
  5
172
330
16B
100
AcDbEntity
  8
0
  6
Continuous
 62
     0
370
     0
100
AcDbLine
 10
0.0
 20
2.5
 30
0.0
 11
0.0
 21
5.0
 31
0.0
  0
LINE
  5
173
330
16B
100
AcDbEntity
  8
0
  6
Continuous
 62
     0
370
     0
100
AcDbLine
 10
-2.5
 20
0.0
 30
0.0
 11
-5.0
 21
0.0
 31
0.0
  0
LINE
  5
174
330
16B
100
AcDbEntity
  8
0
  6
Continuous
 62
     0
370
     0
100
AcDbLine
 10
0.0
 20
-2.5
 30
0.0
 11
0.0
 21
-5.0
 31
0.0
  0
LINE
  5
175
330
16B
100
AcDbEntity
  8
0
  6
Continuous
 62
     0
370
     0
100
AcDbLine
 10
2.5
 20
0.0
 30
0.0
 11
5.0
 21
0.0
 31
0.0
  0
ENDBLK
  5
16D
330
16B
100
AcDbEntity
  8
0
100
AcDbBlockEnd
  0
BLOCK
  5
191
330
190
100
AcDbEntity
  8
0
100
AcDbBlockBegin
  2
_D_4
 70
     0
 10
0.0
 20
0.0
 30
0.0
  3
_D_4
  1

  0
SOLID
  5
193
330
190
100
AcDbEntity
  8
0
  6
Continuous
 62
     7
370
    18
100
AcDbTrace
 10
173.7515377806
 20
95.5062542182
 30
0.0
 11
174.2595377806
 21
98.8082542182
 31
0.0
 12
173.2435377806
 22
98.8082542182
 32
0.0
 13
173.2435377806
 23
98.8082542182
 33
0.0
  0
SOLID
  5
194
330
190
100
AcDbEntity
  8
0
  6
Continuous
 62
     7
370
    18
100
AcDbTrace
 10
173.7515377806
 20
64.5062542182
 30
0.0
 11
173.2435377806
 21
61.2042542182
 31
0.0
 12
174.2595377806
 22
61.2042542182
 32
0.0
 13
174.2595377806
 23
61.2042542182
 33
0.0
  0
LINE
  5
195
330
190
100
AcDbEntity
  8
0
  6
Continuous
 62
     7
370
    18
100
AcDbLine
 10
141.7515377806
 20
95.5062542182
 30
0.0
 11
174.7515377806
 21
95.5062542182
 31
0.0
  0
LINE
  5
196
330
190
100
AcDbEntity
  8
0
  6
Continuous
 62
     7
370
    18
100
AcDbLine
 10
141.7515377806
 20
64.5062542182
 30
0.0
 11
174.7515377806
 21
64.5062542182
 31
0.0
  0
LINE
  5
197
330
190
100
AcDbEntity
  8
0
  6
Continuous
 62
     7
370
    18
100
AcDbLine
 10
173.7515377806
 20
95.5062542182
 30
0.0
 11
173.7515377806
 21
101.8562542182
 31
0.0
  0
LINE
  5
198
330
190
100
AcDbEntity
  8
0
  6
Continuous
 62
     7
370
    18
100
AcDbLine
 10
173.7515377806
 20
95.5062542182
 30
0.0
 11
173.7515377806
 21
64.5062542182
 31
0.0
  0
LINE
  5
199
330
190
100
AcDbEntity
  8
0
  6
Continuous
 62
     7
370
    18
100
AcDbLine
 10
173.7515377806
 20
64.5062542182
 30
0.0
 11
173.7515377806
 21
58.1562542182
 31
0.0
  0
MTEXT
  5
19A
330
190
100
AcDbEntity
  8
0
  6
Continuous
 62
     7
370
    18
100
AcDbMText
 10
169.239800866
 20
76.3934919977
 30
0.0
 40
3.5
 41
0.0
 71
     1
 72
     1
  1
31
  7
SLDTEXTSTYLE0
 11
-7.044195017643634E-15
 21
1.0
 31
0.0
 73
     1
 44
1.0
  0
ENDBLK
  5
192
330
190
100
AcDbEntity
  8
0
100
AcDbBlockEnd
  0
BLOCK
  5
19D
330
19C
100
AcDbEntity
  8
0
100
AcDbBlockBegin
  2
_D_5
 70
     0
 10
0.0
 20
0.0
 30
0.0
  3
_D_5
  1

  0
SOLID
  5
19F
330
19C
100
AcDbEntity
  8
0
  6
Continuous
 62
     7
370
    18
100
AcDbTrace
 10
135.7515377806
 20
126.2519966058
 30
0.0
 11
139.0535377806
 21
125.7439966058
 31
0.0
 12
139.0535377806
 22
126.7599966058
 32
0.0
 13
139.0535377806
 23
126.7599966058
 33
0.0
  0
SOLID
  5
1A0
330
19C
100
AcDbEntity
  8
0
  6
Continuous
 62
     7
370
    18
100
AcDbTrace
 10
75.7515377806
 20
126.2519966058
 30
0.0
 11
72.4495377806
 21
126.7599966058
 31
0.0
 12
72.4495377806
 22
125.7439966058
 32
0.0
 13
72.4495377806
 23
125.7439966058
 33
0.0
  0
LINE
  5
1A1
330
19C
100
AcDbEntity
  8
0
  6
Continuous
 62
     7
370
    18
100
AcDbLine
 10
135.7515377806
 20
83.5062542182
 30
0.0
 11
135.7515377806
 21
127.2519966058
 31
0.0
  0
LINE
  5
1A2
330
19C
100
AcDbEntity
  8
0
  6
Continuous
 62
     7
370
    18
100
AcDbLine
 10
75.7515377806
 20
83.5062542182
 30
0.0
 11
75.7515377806
 21
127.2519966058
 31
0.0
  0
LINE
  5
1A3
330
19C
100
AcDbEntity
  8
0
  6
Continuous
 62
     7
370
    18
100
AcDbLine
 10
135.7515377806
 20
126.2519966058
 30
0.0
 11
142.1015377806
 21
126.2519966058
 31
0.0
  0
LINE
  5
1A4
330
19C
100
AcDbEntity
  8
0
  6
Continuous
 62
     7
370
    18
100
AcDbLine
 10
135.7515377806
 20
126.2519966058
 30
0.0
 11
75.7515377806
 21
126.2519966058
 31
0.0
  0
LINE
  5
1A5
330
19C
100
AcDbEntity
  8
0
  6
Continuous
 62
     7
370
    18
100
AcDbLine
 10
75.7515377806
 20
126.2519966058
 30
0.0
 11
69.4015377806
 21
126.2519966058
 31
0.0
  0
MTEXT
  5
1A6
330
19C
100
AcDbEntity
  8
0
  6
Continuous
 62
     7
370
    18
100
AcDbMText
 10
97.8452964611
 20
130.763733695
 30
0.0
 40
3.5
 41
0.0
 71
     1
 72
     1
  1
%%c
  7
SLDTEXTSTYLE0
 73
     1
 44
1.0
  0
MTEXT
  5
1A7
330
19C
100
AcDbEntity
  8
0
  6
Continuous
 62
     7
370
    18
100
AcDbMText
 10
103.1237338595
 20
130.8172058716
 30
0.0
 40
3.5
 41
0.0
 71
     1
 72
     1
  1
60
  7
SLDTEXTSTYLE0
 73
     1
 44
1.0
  0
ENDBLK
  5
19E
330
19C
100
AcDbEntity
  8
0
100
AcDbBlockEnd
  0
BLOCK
  5
1AA
330
1A9
100
AcDbEntity
  8
0
100
AcDbBlockBegin
  2
_D_6
 70
     0
 10
0.0
 20
0.0
 30
0.0
  3
_D_6
  1

  0
SOLID
  5
1AC
330
1A9
100
AcDbEntity
  8
0
  6
Continuous
 62
     7
370
    18
100
AcDbTrace
 10
40.7351221309
 20
85.5062542182
 30
0.0
 11
41.2431221309
 21
88.8082542182
 31
0.0
 12
40.2271221309
 22
88.8082542182
 32
0.0
 13
40.2271221309
 23
88.8082542182
 33
0.0
  0
SOLID
  5
1AD
330
1A9
100
AcDbEntity
  8
0
  6
Continuous
 62
     7
370
    18
100
AcDbTrace
 10
40.7351221309
 20
74.5062542182
 30
0.0
 11
40.2271221309
 21
71.2042542182
 31
0.0
 12
41.2431221309
 22
71.2042542182
 32
0.0
 13
41.2431221309
 23
71.2042542182
 33
0.0
  0
LINE
  5
1AE
330
1A9
100
AcDbEntity
  8
0
  6
Continuous
 62
     7
370
    18
100
AcDbLine
 10
69.7515377806
 20
85.5062542182
 30
0.0
 11
39.7351221309
 21
85.5062542182
 31
0.0
  0
LINE
  5
1AF
330
1A9
100
AcDbEntity
  8
0
  6
Continuous
 62
     7
370
    18
100
AcDbLine
 10
69.7515377806
 20
74.5062542182
 30
0.0
 11
39.7351221309
 21
74.5062542182
 31
0.0
  0
LINE
  5
1B0
330
1A9
100
AcDbEntity
  8
0
  6
Continuous
 62
     7
370
    18
100
AcDbLine
 10
40.7351221309
 20
85.5062542182
 30
0.0
 11
40.7351221309
 21
91.8562542182
 31
0.0
  0
LINE
  5
1B1
330
1A9
100
AcDbEntity
  8
0
  6
Continuous
 62
     7
370
    18
100
AcDbLine
 10
40.7351221309
 20
85.5062542182
 30
0.0
 11
40.7351221309
 21
74.5062542182
 31
0.0
  0
LINE
  5
1B2
330
1A9
100
AcDbEntity
  8
0
  6
Continuous
 62
     7
370
    18
100
AcDbLine
 10
40.7351221309
 20
74.5062542182
 30
0.0
 11
40.7351221309
 21
68.1562542182
 31
0.0
  0
MTEXT
  5
1B3
330
1A9
100
AcDbEntity
  8
0
  6
Continuous
 62
     7
370
    18
100
AcDbMText
 10
36.2233852163
 20
78.2336093272
 30
0.0
 40
3.5
 41
0.0
 71
     1
 72
     1
  1
11
  7
SLDTEXTSTYLE0
 11
-7.044195017643634E-15
 21
1.0
 31
0.0
 73
     1
 44
1.0
  0
ENDBLK
  5
1AB
330
1A9
100
AcDbEntity
  8
0
100
AcDbBlockEnd
  0
BLOCK
  5
1B6
330
1B5
100
AcDbEntity
  8
0
100
AcDbBlockBegin
  2
_D_7
 70
     0
 10
0.0
 20
0.0
 30
0.0
  3
_D_7
  1

  0
SOLID
  5
1B8
330
1B5
100
AcDbEntity
  8
0
  6
Continuous
 62
     7
370
    18
100
AcDbTrace
 10
144.2870716865
 20
94.0417881242
 30
0.0
 11
146.9811485229
 21
96.0174444708
 31
0.0
 12
146.2627280332
 22
96.7358649605
 32
0.0
 13
146.2627280332
 23
96.7358649605
 33
0.0
  0
LINE
  5
1B9
330
1B5
100
AcDbEntity
  8
0
  6
Continuous
 62
     7
370
    18
100
AcDbLine
 10
144.2870716865
 20
94.0417881242
 30
0.0
 11
175.7598196564
 21
125.514536094
 31
0.0
  0
LINE
  5
1BA
330
1B5
100
AcDbEntity
  8
0
  6
Continuous
 62
     7
370
    18
100
AcDbLine
 10
144.2870716865
 20
94.0417881242
 30
0.0
 11
140.7515377806
 21
90.5062542182
 31
0.0
  0
MTEXT
  5
1BB
330
1B5
100
AcDbEntity
  8
0
  6
Continuous
 62
     7
370
    18
100
AcDbMText
 10
168.740362902
 20
124.8687586806
 30
0.0
 40
3.5
 41
0.0
 71
     1
 72
     1
  1
R5
  7
SLDTEXTSTYLE0
 11
0.7071067811865462
 21
0.7071067811865488
 31
0.0
 73
     1
 44
1.0
  0
ENDBLK
  5
1B7
330
1B5
100
AcDbEntity
  8
0
100
AcDbBlockEnd
  0
BLOCK
  5
1BE
330
1BD
100
AcDbEntity
  8
0
100
AcDbBlockBegin
  2
_D_8
 70
     0
 10
0.0
 20
0.0
 30
0.0
  3
_D_8
  1

  0
SOLID
  5
1C0
330
1BD
100
AcDbEntity
  8
0
  6
Continuous
 62
     7
370
    18
100
AcDbTrace
 10
40.7351221309
 20
85.5062542182
 30
0.0
 11
40.2271221309
 21
82.2042542182
 31
0.0
 12
41.2431221309
 22
82.2042542182
 32
0.0
 13
41.2431221309
 23
82.2042542182
 33
0.0
  0
SOLID
  5
1C1
330
1BD
100
AcDbEntity
  8
0
  6
Continuous
 62
     7
370
    18
100
AcDbTrace
 10
40.7351221309
 20
95.5062542182
 30
0.0
 11
41.2431221309
 21
98.8082542182
 31
0.0
 12
40.2271221309
 22
98.8082542182
 32
0.0
 13
40.2271221309
 23
98.8082542182
 33
0.0
  0
LINE
  5
1C2
330
1BD
100
AcDbEntity
  8
0
  6
Continuous
 62
     7
370
    18
100
AcDbLine
 10
69.7515377806
 20
85.5062542182
 30
0.0
 11
39.7351221309
 21
85.5062542182
 31
0.0
  0
LINE
  5
1C3
330
1BD
100
AcDbEntity
  8
0
  6
Continuous
 62
     7
370
    18
100
AcDbLine
 10
69.7515377806
 20
95.5062542182
 30
0.0
 11
39.7351221309
 21
95.5062542182
 31
0.0
  0
LINE
  5
1C4
330
1BD
100
AcDbEntity
  8
0
  6
Continuous
 62
     7
370
    18
100
AcDbLine
 10
40.7351221309
 20
85.5062542182
 30
0.0
 11
40.7351221309
 21
79.1562542182
 31
0.0
  0
LINE
  5
1C5
330
1BD
100
AcDbEntity
  8
0
  6
Continuous
 62
     7
370
    18
100
AcDbLine
 10
40.7351221309
 20
85.5062542182
 30
0.0
 11
40.7351221309
 21
95.5062542182
 31
0.0
  0
LINE
  5
1C6
330
1BD
100
AcDbEntity
  8
0
  6
Continuous
 62
     7
370
    18
100
AcDbLine
 10
40.7351221309
 20
95.5062542182
 30
0.0
 11
40.7351221309
 21
101.8562542182
 31
0.0
  0
MTEXT
  5
1C7
330
1BD
100
AcDbEntity
  8
0
  6
Continuous
 62
     7
370
    18
100
AcDbMText
 10
36.2233852163
 20
88.6947562265
 30
0.0
 40
3.5
 41
0.0
 71
     1
 72
     1
  1
10
  7
SLDTEXTSTYLE0
 11
6.123233995736766E-17
 21
1.0
 31
0.0
 73
     1
 44
1.0
  0
ENDBLK
  5
1BF
330
1BD
100
AcDbEntity
  8
0
100
AcDbBlockEnd
  0
BLOCK
  5
1CB
330
1CA
100
AcDbEntity
  8
0
100
AcDbBlockBegin
  2
_D_9
 70
     0
 10
0.0
 20
0.0
 30
0.0
  3
_D_9
  1

  0
SOLID
  5
1CD
330
1CA
100
AcDbEntity
  8
0
  6
Continuous
 62
     7
370
    18
100
AcDbTrace
 10
136.1534615693
 20
84.0062542182
 30
0.0
 11
133.5488076959
 21
86.0983933628
 31
0.0
 12
133.0404030455
 22
85.2187453017
 32
0.0
 13
133.0404030455
 23
85.2187453017
 33
0.0
  0
LINE
  5
1CE
330
1CA
100
AcDbEntity
  8
0
  6
Continuous
 62
     7
370
    18
100
AcDbLine
 10
136.1534615693
 20
84.0062542182
 30
0.0
 11
164.1321589265
 21
67.8355826968
 31
0.0
  0
LINE
  5
1CF
330
1CA
100
AcDbEntity
  8
0
  6
Continuous
 62
     7
370
    18
100
AcDbLine
 10
136.1534615693
 20
84.0062542182
 30
0.0
 11
130.6556611874
 21
87.1837832836
 31
0.0
  0
MTEXT
  5
1D0
330
1CA
100
AcDbEntity
  8
0
  6
Continuous
 62
     7
370
    18
100
AcDbMText
 10
161.6940492663
 20
74.4529310097
 30
0.0
 40
3.5
 41
0.0
 71
     1
 72
     1
  1
R3
  7
SLDTEXTSTYLE0
 11
0.8660254037844446
 21
-0.4999999999999897
 31
0.0
 73
     1
 44
1.0
  0
ENDBLK
  5
1CC
330
1CA
100
AcDbEntity
  8
0
100
AcDbBlockEnd
  0
ENDSEC
  0
SECTION
  2
ENTITIES
  0
LINE
  5
BA
330
1F
100
AcDbEntity
  8
0
  6
Continuous
 62
     7
370
    70
100
AcDbLine
 10
20.0
 20
10.0
 30
0.0
 11
20.0
 21
287.0
 31
0.0
  0
LINE
  5
BB
330
1F
100
AcDbEntity
  8
0
  6
Continuous
 62
     7
370
    70
100
AcDbLine
 10
20.0
 20
287.0
 30
0.0
 11
410.0
 21
287.0
 31
0.0
  0
LINE
  5
BC
330
1F
100
AcDbEntity
  8
0
  6
Continuous
 62
     7
370
    70
100
AcDbLine
 10
410.0
 20
287.0
 30
0.0
 11
410.0
 21
10.0
 31
0.0
  0
LINE
  5
BD
330
1F
100
AcDbEntity
  8
0
  6
Continuous
 62
     7
370
    70
100
AcDbLine
 10
410.0
 20
10.0
 30
0.0
 11
20.0
 21
10.0
 31
0.0
  0
LINE
  5
BE
330
1F
100
AcDbEntity
  8
0
  6
Continuous
 62
     7
370
    70
100
AcDbLine
 10
15.0
 20
5.0
 30
0.0
 11
15.0
 21
292.0
 31
0.0
  0
LINE
  5
BF
330
1F
100
AcDbEntity
  8
0
  6
Continuous
 62
     7
370
    70
100
AcDbLine
 10
15.0
 20
292.0
 30
0.0
 11
415.0
 21
292.0
 31
0.0
  0
LINE
  5
C0
330
1F
100
AcDbEntity
  8
0
  6
Continuous
 62
     7
370
    70
100
AcDbLine
 10
415.0
 20
292.0
 30
0.0
 11
415.0
 21
5.0
 31
0.0
  0
LINE
  5
C1
330
1F
100
AcDbEntity
  8
0
  6
Continuous
 62
     7
370
    70
100
AcDbLine
 10
415.0
 20
5.0
 30
0.0
 11
15.0
 21
5.0
 31
0.0
  0
LINE
  5
C2
330
1F
100
AcDbEntity
  8
0
  6
Continuous
 62
     7
370
    35
100
AcDbLine
 10
15.0
 20
148.5
 30
0.0
 11
25.0
 21
148.5
 31
0.0
  0
LINE
  5
C3
330
1F
100
AcDbEntity
  8
0
  6
Continuous
 62
     7
370
    35
100
AcDbLine
 10
215.0
 20
292.0
 30
0.0
 11
215.0
 21
282.0
 31
0.0
  0
LINE
  5
C4
330
1F
100
AcDbEntity
  8
0
  6
Continuous
 62
     7
370
    35
100
AcDbLine
 10
415.0
 20
148.5
 30
0.0
 11
405.0
 21
148.5
 31
0.0
  0
LINE
  5
C5
330
1F
100
AcDbEntity
  8
0
  6
Continuous
 62
     7
370
    35
100
AcDbLine
 10
215.0
 20
5.0
 30
0.0
 11
215.0
 21
15.0
 31
0.0
  0
LINE
  5
C6
330
1F
100
AcDbEntity
  8
0
  6
Continuous
 62
     7
370
    35
100
AcDbLine
 10
20.0
 20
48.5
 30
0.0
 11
15.0
 21
48.5
 31
0.0
  0
LINE
  5
C7
330
1F
100
AcDbEntity
  8
0
  6
Continuous
 62
     7
370
    35
100
AcDbLine
 10
410.0
 20
48.5
 30
0.0
 11
415.0
 21
48.5
 31
0.0
  0
LINE
  5
C8
330
1F
100
AcDbEntity
  8
0
  6
Continuous
 62
     7
370
    35
100
AcDbLine
 10
20.0
 20
98.5
 30
0.0
 11
15.0
 21
98.5
 31
0.0
  0
LINE
  5
C9
330
1F
100
AcDbEntity
  8
0
  6
Continuous
 62
     7
370
    35
100
AcDbLine
 10
410.0
 20
98.5
 30
0.0
 11
415.0
 21
98.5
 31
0.0
  0
LINE
  5
CA
330
1F
100
AcDbEntity
  8
0
  6
Continuous
 62
     7
370
    35
100
AcDbLine
 10
20.0
 20
148.5
 30
0.0
 11
15.0
 21
148.5
 31
0.0
  0
LINE
  5
CB
330
1F
100
AcDbEntity
  8
0
  6
Continuous
 62
     7
370
    35
100
AcDbLine
 10
410.0
 20
148.5
 30
0.0
 11
415.0
 21
148.5
 31
0.0
  0
LINE
  5
CC
330
1F
100
AcDbEntity
  8
0
  6
Continuous
 62
     7
370
    35
100
AcDbLine
 10
20.0
 20
198.5
 30
0.0
 11
15.0
 21
198.5
 31
0.0
  0
LINE
  5
CD
330
1F
100
AcDbEntity
  8
0
  6
Continuous
 62
     7
370
    35
100
AcDbLine
 10
410.0
 20
198.5
 30
0.0
 11
415.0
 21
198.5
 31
0.0
  0
LINE
  5
CE
330
1F
100
AcDbEntity
  8
0
  6
Continuous
 62
     7
370
    35
100
AcDbLine
 10
20.0
 20
248.5
 30
0.0
 11
15.0
 21
248.5
 31
0.0
  0
LINE
  5
CF
330
1F
100
AcDbEntity
  8
0
  6
Continuous
 62
     7
370
    35
100
AcDbLine
 10
410.0
 20
248.5
 30
0.0
 11
415.0
 21
248.5
 31
0.0
  0
LINE
  5
D0
330
1F
100
AcDbEntity
  8
0
  6
Continuous
 62
     7
370
    35
100
AcDbLine
 10
65.0
 20
287.0
 30
0.0
 11
65.0
 21
292.0
 31
0.0
  0
LINE
  5
D1
330
1F
100
AcDbEntity
  8
0
  6
Continuous
 62
     7
370
    35
100
AcDbLine
 10
65.0
 20
10.0
 30
0.0
 11
65.0
 21
5.0
 31
0.0
  0
LINE
  5
D2
330
1F
100
AcDbEntity
  8
0
  6
Continuous
 62
     7
370
    35
100
AcDbLine
 10
115.0
 20
287.0
 30
0.0
 11
115.0
 21
292.0
 31
0.0
  0
LINE
  5
D3
330
1F
100
AcDbEntity
  8
0
  6
Continuous
 62
     7
370
    35
100
AcDbLine
 10
115.0
 20
10.0
 30
0.0
 11
115.0
 21
5.0
 31
0.0
  0
LINE
  5
D4
330
1F
100
AcDbEntity
  8
0
  6
Continuous
 62
     7
370
    35
100
AcDbLine
 10
165.0
 20
287.0
 30
0.0
 11
165.0
 21
292.0
 31
0.0
  0
LINE
  5
D5
330
1F
100
AcDbEntity
  8
0
  6
Continuous
 62
     7
370
    35
100
AcDbLine
 10
165.0
 20
10.0
 30
0.0
 11
165.0
 21
5.0
 31
0.0
  0
LINE
  5
D6
330
1F
100
AcDbEntity
  8
0
  6
Continuous
 62
     7
370
    35
100
AcDbLine
 10
215.0
 20
287.0
 30
0.0
 11
215.0
 21
292.0
 31
0.0
  0
LINE
  5
D7
330
1F
100
AcDbEntity
  8
0
  6
Continuous
 62
     7
370
    35
100
AcDbLine
 10
215.0
 20
10.0
 30
0.0
 11
215.0
 21
5.0
 31
0.0
  0
LINE
  5
D8
330
1F
100
AcDbEntity
  8
0
  6
Continuous
 62
     7
370
    35
100
AcDbLine
 10
265.0
 20
287.0
 30
0.0
 11
265.0
 21
292.0
 31
0.0
  0
LINE
  5
D9
330
1F
100
AcDbEntity
  8
0
  6
Continuous
 62
     7
370
    35
100
AcDbLine
 10
265.0
 20
10.0
 30
0.0
 11
265.0
 21
5.0
 31
0.0
  0
LINE
  5
DA
330
1F
100
AcDbEntity
  8
0
  6
Continuous
 62
     7
370
    35
100
AcDbLine
 10
315.0
 20
287.0
 30
0.0
 11
315.0
 21
292.0
 31
0.0
  0
LINE
  5
DB
330
1F
100
AcDbEntity
  8
0
  6
Continuous
 62
     7
370
    35
100
AcDbLine
 10
315.0
 20
10.0
 30
0.0
 11
315.0
 21
5.0
 31
0.0
  0
LINE
  5
DC
330
1F
100
AcDbEntity
  8
0
  6
Continuous
 62
     7
370
    35
100
AcDbLine
 10
365.0
 20
287.0
 30
0.0
 11
365.0
 21
292.0
 31
0.0
  0
LINE
  5
DD
330
1F
100
AcDbEntity
  8
0
  6
Continuous
 62
     7
370
    35
100
AcDbLine
 10
365.0
 20
10.0
 30
0.0
 11
365.0
 21
5.0
 31
0.0
  0
INSERT
  5
DE
330
1F
100
AcDbEntity
  8
0
  6
Continuous
 62
     7
100
AcDbBlockReference
 66
     1
  2
Bloc cartouche polivalent
 10
-173.6020953532
 20
-0.5588035661
 30
0.0
  0
ATTRIB
  5
DF
330
DE
100
AcDbEntity
  8
0
  6
Continuous
 62
     7
370
     0
100
AcDbText
 10
330.0697121258
 20
11.5569564537
 30
0.0
 40
1.5
  1
ECHELLE:1:1
 41
0.75
  7
SLDTEXTSTYLE0
 11
330.0697121258
 21
11.0270663608
 31
0.0
100
AcDbAttribute
  2
AUTOATTR18
 70
     0
 74
     1
  0
ATTRIB
  5
E0
330
DE
100
AcDbEntity
  8
0
  6
Continuous
 62
     7
370
     0
100
AcDbText
 10
374.4740404361
 20
11.5569564537
 30
0.0
 40
1.5
  1
FEUILLE: 1 sur 1
 41
0.75
  7
SLDTEXTSTYLE0
 11
374.4740404361
 21
11.0270663608
 31
0.0
100
AcDbAttribute
  2
AUTOATTR17
 70
     0
 74
     1
  0
ATTRIB
  5
E1
330
DE
100
AcDbEntity
  8
0
  6
Continuous
 62
     7
370
     0
100
AcDbText
 10
400.866902443
 20
21.7433790025
 30
0.0
 40
2.9104166667
  1
A3
 41
0.75
  7
SLDTEXTSTYLE0
 11
400.866902443
 21
20.7152450306
 31
0.0
100
AcDbAttribute
  2
AUTOATTR0102
 70
     0
 74
     1
  0
ATTRIB
  5
E2
330
DE
100
AcDbEntity
  8
0
  6
Continuous
 62
     7
370
     0
100
AcDbText
 10
288.7509169806
 20
19.3177544709
 30
0.0
 40
2.38125
  1
Matériau <non spécifié>
 41
0.75
  7
SLDTEXTSTYLE0
 11
288.7509169806
 21
18.4765539484
 31
0.0
100
AcDbAttribute
  2
AUTOATTR16
 70
     0
 74
     1
  0
ATTRIB
  5
E3
330
DE
100
AcDbEntity
  8
0
  6
Continuous
 62
     7
370
     0
100
AcDbText
 10
287.2749827274
 20
55.8133592188
 30
0.0
 40
2.38125
  1

 41
0.75
  7
SLDTEXTSTYLE0
 11
287.2749827274
 21
54.9721586963
 31
0.0
100
AcDbAttribute
  2
AUTOATTR15
 70
     0
 74
     1
  0
ATTRIB
  5
E4
330
DE
100
AcDbEntity
  8
0
  6
Continuous
 62
     7
370
     0
100
AcDbText
 10
285.6135571365
 20
11.6074912135
 30
0.0
 40
1.4986
  1
MASSE: 
 41
0.75
  7
SLDTEXTSTYLE0
 11
285.6135571365
 21
11.0780956847
 31
0.0
100
AcDbAttribute
  2
AUTOATTR14
 70
     0
 74
     1
  0
ATTRIB
  5
E6
330
DE
100
AcDbEntity
  8
0
  6
Continuous
 62
     7
370
     0
100
AcDbText
 10
374.0784357851
 20
51.97523955
 30
0.0
 40
5.08
  1

 41
0.663
  7
SLDTEXTSTYLE1
 11
374.0784357851
 21
50.1806784355
 31
0.0
100
AcDbAttribute
  2
AUTOATTR3
 70
     0
 74
     1
  0
ATTRIB
  5
E7
330
DE
100
AcDbEntity
  8
0
  6
Continuous
 62
     7
370
     0
100
AcDbText
 10
334.3402984462
 20
18.9282016609
 30
0.0
 40
4.7625
  1
fixation filette parti 2
 41
0.75
  7
SLDTEXTSTYLE0
 11
334.3402984462
 21
17.245800616
 31
0.0
100
AcDbAttribute
  2
AUTOATTR2
 70
     0
 74
     1
  0
ATTRIB
  5
E8
330
DE
100
AcDbEntity
  8
0
  6
Continuous
 62
     7
370
     0
100
AcDbText
 10
379.099244929
 20
38.5893538633
 30
0.0
 40
6.35
  1

 41
0.75
  7
SLDTEXTSTYLE0
 11
379.099244929
 21
36.3461524701
 31
0.0
100
AcDbAttribute
  2
AUTOATTR101
 70
     0
 74
     1
  0
ATTRIB
  5
E9
330
DE
100
AcDbEntity
  8
0
  6
Continuous
 62
     7
370
     0
100
AcDbText
 10
395.2381133937
 20
61.0223480848
 30
0.0
 40
1.905
  1
22/06/2023
 41
0.75
  7
SLDTEXTSTYLE0
 11
395.2381133937
 21
60.3493876668
 31
0.0
100
AcDbAttribute
  2
AUTOATTR0
 70
     0
 74
     1
  0
ATTRIB
  5
EA
330
DE
100
AcDbEntity
  8
0
  6
Continuous
 62
     7
370
     0
100
AcDbText
 10
294.807003607
 20
11.6188666725
 30
0.0
 40
2.1166666667
  1
96.18
 41
0.75
  7
SLDTEXTSTYLE0
 11
294.807003607
 21
10.8711328748
 31
0.0
100
AcDbAttribute
  2
AUTOATTR1
 70
     0
 74
     1
  0
ATTRIB
  5
EB
330
DE
100
AcDbEntity
  8
0
  6
Continuous
 62
     7
370
     0
100
AcDbText
 10
352.4191817078
 20
11.568226234
 30
0.0
 40
2.1166666667
  1
21/06/2023
 41
0.75
  7
SLDTEXTSTYLE0
 11
352.4191817078
 21
10.8204924363
 31
0.0
100
AcDbAttribute
  2
AUTOATTR4
 70
     0
 74
     1
  0
ATTRIB
  5
EC
330
DE
100
AcDbEntity
  8
0
  6
Continuous
 62
     7
370
     0
100
AcDbText
 10
311.3343277798
 20
44.6661190988
 30
0.0
 40
2.1166666667
  1
2
 41
0.75
  7
SLDTEXTSTYLE0
 11
311.3343277798
 21
43.9183853011
 31
0.0
100
AcDbAttribute
  2
AUTOATTR5
 70
     0
 74
     1
  0
SEQEND
  5
ED
330
DE
100
AcDbEntity
  8
0
  6
Continuous
 62
     7
  0
MTEXT
  5
EE
330
1F
100
AcDbEntity
  8
0
  6
Continuous
 62
     7
370
     0
100
AcDbMText
 10
17.3396881428
 20
31.7177403292
 30
0.0
 40
3.96875
 41
0.0
 71
     2
 72
     1
  1
A
  7
SLDTEXTSTYLE0
 73
     1
 44
1.0
  0
MTEXT
  5
EF
330
1F
100
AcDbEntity
  8
0
  6
Continuous
 62
     7
370
     0
100
AcDbMText
 10
412.3396881428
 20
31.7177403292
 30
0.0
 40
3.96875
 41
0.0
 71
     2
 72
     1
  1
A
  7
SLDTEXTSTYLE0
 73
     1
 44
1.0
  0
MTEXT
  5
F0
330
1F
100
AcDbEntity
  8
0
  6
Continuous
 62
     7
370
     0
100
AcDbMText
 10
17.4706018241
 20
75.9677403292
 30
0.0
 40
3.96875
 41
0.0
 71
     2
 72
     1
  1
B
  7
SLDTEXTSTYLE0
 73
     1
 44
1.0
  0
MTEXT
  5
F1
330
1F
100
AcDbEntity
  8
0
  6
Continuous
 62
     7
370
     0
100
AcDbMText
 10
412.4706018241
 20
75.9677403292
 30
0.0
 40
3.96875
 41
0.0
 71
     2
 72
     1
  1
B
  7
SLDTEXTSTYLE0
 73
     1
 44
1.0
  0
MTEXT
  5
F2
330
1F
100
AcDbEntity
  8
0
  6
Continuous
 62
     7
370
     0
100
AcDbMText
 10
17.458658902
 20
125.9677403292
 30
0.0
 40
3.96875
 41
0.0
 71
     2
 72
     1
  1
C
  7
SLDTEXTSTYLE0
 73
     1
 44
1.0
  0
MTEXT
  5
F3
330
1F
100
AcDbEntity
  8
0
  6
Continuous
 62
     7
370
     0
100
AcDbMText
 10
412.458658902
 20
125.9677403292
 30
0.0
 40
3.96875
 41
0.0
 71
     2
 72
     1
  1
C
  7
SLDTEXTSTYLE0
 73
     1
 44
1.0
  0
MTEXT
  5
F4
330
1F
100
AcDbEntity
  8
0
  6
Continuous
 62
     7
370
     0
100
AcDbMText
 10
17.4526872821
 20
175.9677403292
 30
0.0
 40
3.96875
 41
0.0
 71
     2
 72
     1
  1
D
  7
SLDTEXTSTYLE0
 73
     1
 44
1.0
  0
MTEXT
  5
F5
330
1F
100
AcDbEntity
  8
0
  6
Continuous
 62
     7
370
     0
100
AcDbMText
 10
412.4526872821
 20
175.9677403292
 30
0.0
 40
3.96875
 41
0.0
 71
     2
 72
     1
  1
D
  7
SLDTEXTSTYLE0
 73
     1
 44
1.0
  0
MTEXT
  5
F6
330
1F
100
AcDbEntity
  8
0
  6
Continuous
 62
     7
370
     0
100
AcDbMText
 10
17.5078089051
 20
225.9677403292
 30
0.0
 40
3.96875
 41
0.0
 71
     2
 72
     1
  1
E
  7
SLDTEXTSTYLE0
 73
     1
 44
1.0
  0
MTEXT
  5
F7
330
1F
100
AcDbEntity
  8
0
  6
Continuous
 62
     7
370
     0
100
AcDbMText
 10
412.5078089051
 20
225.9677403292
 30
0.0
 40
3.96875
 41
0.0
 71
     2
 72
     1
  1
E
  7
SLDTEXTSTYLE0
 73
     1
 44
1.0
  0
MTEXT
  5
F8
330
1F
100
AcDbEntity
  8
0
  6
Continuous
 62
     7
370
     0
100
AcDbMText
 10
17.4577402091
 20
270.2177403292
 30
0.0
 40
3.96875
 41
0.0
 71
     2
 72
     1
  1
F
  7
SLDTEXTSTYLE0
 73
     1
 44
1.0
  0
MTEXT
  5
F9
330
1F
100
AcDbEntity
  8
0
  6
Continuous
 62
     7
370
     0
100
AcDbMText
 10
412.4577402091
 20
270.2177403292
 30
0.0
 40
3.96875
 41
0.0
 71
     2
 72
     1
  1
F
  7
SLDTEXTSTYLE0
 73
     1
 44
1.0
  0
MTEXT
  5
FA
330
1F
100
AcDbEntity
  8
0
  6
Continuous
 62
     7
370
     0
100
AcDbMText
 10
42.4600369465
 20
9.9677403292
 30
0.0
 40
3.96875
 41
0.0
 71
     2
 72
     1
  1
8
  7
SLDTEXTSTYLE0
 73
     1
 44
1.0
  0
MTEXT
  5
FB
330
1F
100
AcDbEntity
  8
0
  6
Continuous
 62
     7
370
     0
100
AcDbMText
 10
42.4600369465
 20
291.9677403292
 30
0.0
 40
3.96875
 41
0.0
 71
     2
 72
     1
  1
8
  7
SLDTEXTSTYLE0
 73
     1
 44
1.0
  0
MTEXT
  5
FC
330
1F
100
AcDbEntity
  8
0
  6
Continuous
 62
     7
370
     0
100
AcDbMText
 10
89.9600369465
 20
9.9677403292
 30
0.0
 40
3.96875
 41
0.0
 71
     2
 72
     1
  1
7
  7
SLDTEXTSTYLE0
 73
     1
 44
1.0
  0
MTEXT
  5
FD
330
1F
100
AcDbEntity
  8
0
  6
Continuous
 62
     7
370
     0
100
AcDbMText
 10
89.9600369465
 20
291.9677403292
 30
0.0
 40
3.96875
 41
0.0
 71
     2
 72
     1
  1
7
  7
SLDTEXTSTYLE0
 73
     1
 44
1.0
  0
MTEXT
  5
FE
330
1F
100
AcDbEntity
  8
0
  6
Continuous
 62
     7
370
     0
100
AcDbMText
 10
139.9600369465
 20
9.9677403292
 30
0.0
 40
3.96875
 41
0.0
 71
     2
 72
     1
  1
6
  7
SLDTEXTSTYLE0
 73
     1
 44
1.0
  0
MTEXT
  5
FF
330
1F
100
AcDbEntity
  8
0
  6
Continuous
 62
     7
370
     0
100
AcDbMText
 10
139.9600369465
 20
291.9677403292
 30
0.0
 40
3.96875
 41
0.0
 71
     2
 72
     1
  1
6
  7
SLDTEXTSTYLE0
 73
     1
 44
1.0
  0
MTEXT
  5
100
330
1F
100
AcDbEntity
  8
0
  6
Continuous
 62
     7
370
     0
100
AcDbMText
 10
189.9600369465
 20
9.9677403292
 30
0.0
 40
3.96875
 41
0.0
 71
     2
 72
     1
  1
5
  7
SLDTEXTSTYLE0
 73
     1
 44
1.0
  0
MTEXT
  5
101
330
1F
100
AcDbEntity
  8
0
  6
Continuous
 62
     7
370
     0
100
AcDbMText
 10
189.9600369465
 20
291.9677403292
 30
0.0
 40
3.96875
 41
0.0
 71
     2
 72
     1
  1
5
  7
SLDTEXTSTYLE0
 73
     1
 44
1.0
  0
MTEXT
  5
102
330
1F
100
AcDbEntity
  8
0
  6
Continuous
 62
     7
370
     0
100
AcDbMText
 10
239.9600369465
 20
9.9677403292
 30
0.0
 40
3.96875
 41
0.0
 71
     2
 72
     1
  1
4
  7
SLDTEXTSTYLE0
 73
     1
 44
1.0
  0
MTEXT
  5
103
330
1F
100
AcDbEntity
  8
0
  6
Continuous
 62
     7
370
     0
100
AcDbMText
 10
239.9600369465
 20
291.9677403292
 30
0.0
 40
3.96875
 41
0.0
 71
     2
 72
     1
  1
4
  7
SLDTEXTSTYLE0
 73
     1
 44
1.0
  0
MTEXT
  5
104
330
1F
100
AcDbEntity
  8
0
  6
Continuous
 62
     7
370
     0
100
AcDbMText
 10
289.9600369465
 20
9.9677403292
 30
0.0
 40
3.96875
 41
0.0
 71
     2
 72
     1
  1
3
  7
SLDTEXTSTYLE0
 73
     1
 44
1.0
  0
MTEXT
  5
105
330
1F
100
AcDbEntity
  8
0
  6
Continuous
 62
     7
370
     0
100
AcDbMText
 10
289.9600369465
 20
291.9677403292
 30
0.0
 40
3.96875
 41
0.0
 71
     2
 72
     1
  1
3
  7
SLDTEXTSTYLE0
 73
     1
 44
1.0
  0
MTEXT
  5
106
330
1F
100
AcDbEntity
  8
0
  6
Continuous
 62
     7
370
     0
100
AcDbMText
 10
339.9600369465
 20
9.9677403292
 30
0.0
 40
3.96875
 41
0.0
 71
     2
 72
     1
  1
2
  7
SLDTEXTSTYLE0
 73
     1
 44
1.0
  0
MTEXT
  5
107
330
1F
100
AcDbEntity
  8
0
  6
Continuous
 62
     7
370
     0
100
AcDbMText
 10
339.9600369465
 20
291.9677403292
 30
0.0
 40
3.96875
 41
0.0
 71
     2
 72
     1
  1
2
  7
SLDTEXTSTYLE0
 73
     1
 44
1.0
  0
MTEXT
  5
108
330
1F
100
AcDbEntity
  8
0
  6
Continuous
 62
     7
370
     0
100
AcDbMText
 10
387.4600369465
 20
9.9677403292
 30
0.0
 40
3.96875
 41
0.0
 71
     2
 72
     1
  1
1
  7
SLDTEXTSTYLE0
 73
     1
 44
1.0
  0
MTEXT
  5
109
330
1F
100
AcDbEntity
  8
0
  6
Continuous
 62
     7
370
     0
100
AcDbMText
 10
387.4600369465
 20
291.9677403292
 30
0.0
 40
3.96875
 41
0.0
 71
     2
 72
     1
  1
1
  7
SLDTEXTSTYLE0
 73
     1
 44
1.0
  0
CIRCLE
  5
10A
330
1F
100
AcDbEntity
  8
0
  6
Continuous
 62
     7
370
    25
100
AcDbCircle
 10
105.7515377806
 20
202.6816197975
 30
0.0
 40
35.0
  0
ARC
  5
10B
330
1F
100
AcDbEntity
  8
0
  6
Continuous
 62
     7
370
    25
100
AcDbCircle
 10
126.0015377806
 20
193.0217897413
 30
0.0
 40
5.000000000000014
100
AcDbArc
 50
180.0
 51
228.1896851042
  0
LINE
  5
10C
330
1F
100
AcDbEntity
  8
0
  6
Continuous
 62
     7
370
    25
100
AcDbLine
 10
121.0015377806
 20
193.0217897413
 30
0.0
 11
121.0015377806
 21
212.3414498538
 31
0.0
  0
ARC
  5
10D
330
1F
100
AcDbEntity
  8
0
  6
Continuous
 62
     7
370
    25
100
AcDbCircle
 10
126.0015377806
 20
212.3414498538
 30
0.0
 40
5.000000000000014
100
AcDbArc
 50
131.8103148958
 51
180.0
  0
ARC
  5
10E
330
1F
100
AcDbEntity
  8
0
  6
Continuous
 62
     7
370
    25
100
AcDbCircle
 10
121.0015377806
 20
217.9316197975
 30
0.0
 40
2.500000000000012
100
AcDbArc
 50
311.8103148958
 51
138.1896851042
  0
ARC
  5
10F
330
1F
100
AcDbEntity
  8
0
  6
Continuous
 62
     7
370
    25
100
AcDbCircle
 10
115.4113678369
 20
222.9316197975
 30
0.0
 40
5.0
100
AcDbArc
 50
270.0
 51
318.1896851042
  0
LINE
  5
110
330
1F
100
AcDbEntity
  8
0
  6
Continuous
 62
     7
370
    25
100
AcDbLine
 10
96.0917077244
 20
217.9316197975
 30
0.0
 11
115.4113678369
 21
217.9316197975
 31
0.0
  0
ARC
  5
111
330
1F
100
AcDbEntity
  8
0
  6
Continuous
 62
     7
370
    25
100
AcDbCircle
 10
96.0917077244
 20
222.9316197975
 30
0.0
 40
5.0
100
AcDbArc
 50
221.8103148958
 51
270.0
  0
ARC
  5
112
330
1F
100
AcDbEntity
  8
0
  6
Continuous
 62
     7
370
    25
100
AcDbCircle
 10
90.5015377806
 20
217.9316197975
 30
0.0
 40
2.500000000000012
100
AcDbArc
 50
41.8103148958
 51
228.1896851042
  0
ARC
  5
113
330
1F
100
AcDbEntity
  8
0
  6
Continuous
 62
     7
370
    25
100
AcDbCircle
 10
85.5015377806
 20
212.3414498538
 30
0.0
 40
4.999999999999996
100
AcDbArc
 50
0.0
 51
48.1896851042
  0
LINE
  5
114
330
1F
100
AcDbEntity
  8
0
  6
Continuous
 62
     7
370
    25
100
AcDbLine
 10
90.5015377806
 20
193.0217897413
 30
0.0
 11
90.5015377806
 21
212.3414498538
 31
0.0
  0
ARC
  5
115
330
1F
100
AcDbEntity
  8
0
  6
Continuous
 62
     7
370
    25
100
AcDbCircle
 10
85.5015377806
 20
193.0217897413
 30
0.0
 40
4.999999999999996
100
AcDbArc
 50
311.8103148958
 51
0.0
  0
ARC
  5
116
330
1F
100
AcDbEntity
  8
0
  6
Continuous
 62
     7
370
    25
100
AcDbCircle
 10
90.5015377806
 20
187.4316197975
 30
0.0
 40
2.500000000000012
100
AcDbArc
 50
131.8103148958
 51
318.1896851042
  0
ARC
  5
117
330
1F
100
AcDbEntity
  8
0
  6
Continuous
 62
     7
370
    25
100
AcDbCircle
 10
96.0917077244
 20
182.4316197975
 30
0.0
 40
5.0
100
AcDbArc
 50
90.0
 51
138.1896851042
  0
LINE
  5
118
330
1F
100
AcDbEntity
  8
0
  6
Continuous
 62
     7
370
    25
100
AcDbLine
 10
96.0917077244
 20
187.4316197975
 30
0.0
 11
115.4113678369
 21
187.4316197975
 31
0.0
  0
ARC
  5
119
330
1F
100
AcDbEntity
  8
0
  6
Continuous
 62
     7
370
    25
100
AcDbCircle
 10
115.4113678369
 20
182.4316197975
 30
0.0
 40
5.0
100
AcDbArc
 50
41.8103148958
 51
90.0
  0
ARC
  5
11A
330
1F
100
AcDbEntity
  8
0
  6
Continuous
 62
     7
370
    25
100
AcDbCircle
 10
121.0015377806
 20
187.4316197975
 30
0.0
 40
2.500000000000013
100
AcDbArc
 50
221.8103148958
 51
48.1896851042
  0
CIRCLE
  5
11B
330
1F
100
AcDbEntity
  8
0
  6
Continuous
 62
     7
370
    25
100
AcDbCircle
 10
105.7515377806
 20
202.6816197975
 30
0.0
 40
40.0
  0
DIMENSION
  5
11C
330
1F
100
AcDbEntity
  8
0
  6
Continuous
 62
     7
370
    18
100
AcDbDimension
  2
_D
 10
121.0015377806
 20
264.6816197975
 30
0.0
 11
105.8510986485
 21
264.6816197975
 31
0.0
 70
   160
  1
<>
 71
     2
 42
-1.0
  3
SLDDIMSTYLE0
100
AcDbAlignedDimension
 13
90.5015377806
 23
212.3414498538
 33
0.0
 14
121.0015377806
 24
212.3414498538
 34
0.0
100
AcDbRotatedDimension
  0
DIMENSION
  5
127
330
1F
100
AcDbEntity
  8
0
  6
Continuous
 62
     7
370
    18
100
AcDbDimension
  2
_D_1
 10
173.7515377806
 20
187.4316197975
 30
0.0
 11
173.7515377806
 21
206.3285989409
 31
0.0
 70
   160
  1
<>
 71
     2
 42
-1.0
  3
SLDDIMSTYLE0
100
AcDbAlignedDimension
 13
115.4113678369
 23
217.9316197975
 33
0.0
 14
115.4113678369
 24
187.4316197975
 34
0.0
 50
90.0
100
AcDbRotatedDimension
  0
DIMENSION
  5
131
330
1F
100
AcDbEntity
  8
0
  6
Continuous
 62
     7
370
    18
100
AcDbDimension
  2
_D_2
 10
76.775004514
 20
175.1069843539
 30
0.0
 11
154.5038117911
 21
249.0752371615
 31
0.0
 70
   163
  1
<>
 71
     1
 42
-1.0
  3
SLDDIMSTYLE1
100
AcDbDiametricDimension
 15
134.7280710472
 25
230.2562552412
 35
0.0
 40
0.0
  0
DIMENSION
  5
13E
330
1F
100
AcDbEntity
  8
0
  6
Continuous
 62
     7
370
    18
100
AcDbDimension
  2
_D_3
 10
121.0015377806
 20
217.9316197975
 30
0.0
 11
159.1931557478
 21
233.3645827991
 31
0.0
 70
   164
  1
<>
 71
     1
 42
-1.0
  3
SLDDIMSTYLE2
100
AcDbRadialDimension
 15
123.3194438328
 25
218.8682688958
 35
0.0
 40
0.0
  0
INSERT
  5
152
330
1F
100
AcDbEntity
  8
0
  6
Continuous
 62
     7
370
     0
100
AcDbBlockReference
  2
SW_CENTERMARKSYMBOL_0
 10
90.5015377806
 20
217.9316197975
 30
0.0
  0
INSERT
  5
15E
330
1F
100
AcDbEntity
  8
0
  6
Continuous
 62
     7
370
     0
100
AcDbBlockReference
  2
SW_CENTERMARKSYMBOL_1
 10
121.0015377806
 20
217.9316197975
 30
0.0
  0
INSERT
  5
16A
330
1F
100
AcDbEntity
  8
0
  6
Continuous
 62
     7
370
     0
100
AcDbBlockReference
  2
SW_CENTERMARKSYMBOL_2
 10
90.5015377806
 20
187.4316197975
 30
0.0
  0
INSERT
  5
176
330
1F
100
AcDbEntity
  8
0
  6
Continuous
 62
     7
370
     0
100
AcDbBlockReference
  2
SW_CENTERMARKSYMBOL_3
 10
121.0015377806
 20
187.4316197975
 30
0.0
  0
ARC
  5
177
330
1F
100
AcDbEntity
  8
0
  6
Continuous
 62
     7
370
    25
100
AcDbCircle
 10
140.7515377806
 20
90.5062542182
 30
0.0
 40
5.000000000000014
100
AcDbArc
 50
0.0
 51
90.0
  0
ARC
  5
178
330
1F
100
AcDbEntity
  8
0
  6
Continuous
 62
     7
370
    25
100
AcDbCircle
 10
70.7515377806
 20
90.5062542182
 30
0.0
 40
5.000000000000014
100
AcDbArc
 50
90.0
 51
180.0
  0
ARC
  5
179
330
1F
100
AcDbEntity
  8
0
  6
Continuous
 62
     7
370
    25
100
AcDbCircle
 10
140.7515377806
 20
90.5062542182
 30
0.0
 40
5.0
100
AcDbArc
 50
270.0
 51
0.0
  0
ARC
  5
17A
330
1F
100
AcDbEntity
  8
0
  6
Continuous
 62
     7
370
    25
100
AcDbCircle
 10
70.7515377806
 20
90.5062542182
 30
0.0
 40
5.0
100
AcDbArc
 50
180.0
 51
270.0
  0
ARC
  5
17B
330
1F
100
AcDbEntity
  8
0
  6
Continuous
 62
     7
370
    25
100
AcDbCircle
 10
140.7515377806
 20
69.5062542182
 30
0.0
 40
5.0
100
AcDbArc
 50
0.0
 51
90.0
  0
ARC
  5
17C
330
1F
100
AcDbEntity
  8
0
  6
Continuous
 62
     7
370
    25
100
AcDbCircle
 10
70.7515377806
 20
69.5062542182
 30
0.0
 40
4.999999999999986
100
AcDbArc
 50
90.0
 51
180.0
  0
ARC
  5
17D
330
1F
100
AcDbEntity
  8
0
  6
Continuous
 62
     7
370
    25
100
AcDbCircle
 10
70.7515377806
 20
69.5062542182
 30
0.0
 40
5.0
100
AcDbArc
 50
180.0
 51
270.0
  0
ARC
  5
17E
330
1F
100
AcDbEntity
  8
0
  6
Continuous
 62
     7
370
    25
100
AcDbCircle
 10
140.7515377806
 20
69.5062542182
 30
0.0
 40
5.0
100
AcDbArc
 50
270.0
 51
0.0
  0
ARC
  5
17F
330
1F
100
AcDbEntity
  8
0
  6
Continuous
 62
     7
370
    25
100
AcDbCircle
 10
138.7515377806
 20
82.5062542182
 30
0.0
 40
3.0
100
AcDbArc
 50
90.0
 51
180.0
  0
ARC
  5
180
330
1F
100
AcDbEntity
  8
0
  6
Continuous
 62
     7
370
    25
100
AcDbCircle
 10
72.7515377806
 20
82.5062542182
 30
0.0
 40
3.000000000000014
100
AcDbArc
 50
0.0
 51
90.0
  0
ARC
  5
181
330
1F
100
AcDbEntity
  8
0
  6
Continuous
 62
     7
370
    25
100
AcDbCircle
 10
138.7515377806
 20
77.5062542182
 30
0.0
 40
3.0
100
AcDbArc
 50
180.0
 51
270.0
  0
ARC
  5
182
330
1F
100
AcDbEntity
  8
0
  6
Continuous
 62
     7
370
    25
100
AcDbCircle
 10
72.7515377806
 20
77.5062542182
 30
0.0
 40
3.000000000000014
100
AcDbArc
 50
270.0
 51
0.0
  0
LINE
  5
183
330
1F
100
AcDbEntity
  8
0
  6
Continuous
 62
     7
370
    25
100
AcDbLine
 10
75.7515377806
 20
82.5062542182
 30
0.0
 11
75.7515377806
 21
77.5062542182
 31
0.0
  0
LINE
  5
184
330
1F
100
AcDbEntity
  8
0
  6
Continuous
 62
     7
370
    25
100
AcDbLine
 10
135.7515377806
 20
77.5062542182
 30
0.0
 11
135.7515377806
 21
82.5062542182
 31
0.0
  0
LINE
  5
185
330
1F
100
AcDbEntity
  8
0
  6
Continuous
 62
     7
370
    25
100
AcDbLine
 10
70.7515377806
 20
95.5062542182
 30
0.0
 11
140.7515377806
 21
95.5062542182
 31
0.0
  0
LINE
  5
186
330
1F
100
AcDbEntity
  8
0
  6
Continuous
 62
     7
370
    25
100
AcDbLine
 10
140.7515377806
 20
85.5062542182
 30
0.0
 11
70.7515377806
 21
85.5062542182
 31
0.0
  0
LINE
  5
187
330
1F
100
AcDbEntity
  8
0
  6
Continuous
 62
     7
370
    25
100
AcDbLine
 10
70.7515377806
 20
74.5062542182
 30
0.0
 11
140.7515377806
 21
74.5062542182
 31
0.0
  0
LINE
  5
188
330
1F
100
AcDbEntity
  8
0
  6
Continuous
 62
     7
370
    25
100
AcDbLine
 10
105.7515377806
 20
64.5062542182
 30
0.0
 11
70.7515377806
 21
64.5062542182
 31
0.0
  0
LINE
  5
189
330
1F
100
AcDbEntity
  8
0
  6
Continuous
 62
     7
370
    25
100
AcDbLine
 10
140.7515377806
 20
64.5062542182
 30
0.0
 11
105.7515377806
 21
64.5062542182
 31
0.0
  0
LINE
  5
18A
330
1F
100
AcDbEntity
  8
0
  6
Continuous
 62
     8
370
    25
100
AcDbLine
 10
65.7515377806
 20
90.5062542182
 30
0.0
 11
145.7515377806
 21
90.5062542182
 31
0.0
  0
LINE
  5
18B
330
1F
100
AcDbEntity
  8
0
  6
Continuous
 62
     8
370
    25
100
AcDbLine
 10
145.7515377806
 20
69.5062542182
 30
0.0
 11
65.7515377806
 21
69.5062542182
 31
0.0
  0
LINE
  5
18C
330
1F
100
AcDbEntity
  8
0
  6
Continuous
 62
     8
370
    25
100
AcDbLine
 10
135.7515377806
 20
82.5062542182
 30
0.0
 11
75.7515377806
 21
82.5062542182
 31
0.0
  0
LINE
  5
18D
330
1F
100
AcDbEntity
  8
0
  6
Continuous
 62
     8
370
    25
100
AcDbLine
 10
75.7515377806
 20
77.5062542182
 30
0.0
 11
135.7515377806
 21
77.5062542182
 31
0.0
  0
DIMENSION
  5
18E
330
1F
100
AcDbEntity
  8
0
  6
Continuous
 62
     7
370
    18
100
AcDbDimension
  2
_D_4
 10
173.7515377806
 20
64.5062542182
 30
0.0
 11
173.7515377806
 21
78.9796031912
 31
0.0
 70
   160
  1
<>
 71
     2
 42
-1.0
  3
SLDDIMSTYLE3
100
AcDbAlignedDimension
 13
140.7515377806
 23
95.5062542182
 33
0.0
 14
140.7515377806
 24
64.5062542182
 34
0.0
 50
90.0
100
AcDbRotatedDimension
  0
DIMENSION
  5
19B
330
1F
100
AcDbEntity
  8
0
  6
Continuous
 62
     7
370
    18
100
AcDbDimension
  2
_D_5
 10
75.7515377806
 20
126.2519966058
 30
0.0
 11
103.0706265866
 21
126.2519966058
 31
0.0
 70
   160
  1
%%c<>
 71
     2
 42
-1.0
  3
SLDDIMSTYLE3
100
AcDbAlignedDimension
 13
135.7515377806
 23
82.5062542182
 33
0.0
 14
75.7515377806
 24
82.5062542182
 34
0.0
100
AcDbRotatedDimension
  0
DIMENSION
  5
1A8
330
1F
100
AcDbEntity
  8
0
  6
Continuous
 62
     7
370
    18
100
AcDbDimension
  2
_D_6
 10
40.7351221309
 20
74.5062542182
 30
0.0
 11
40.7351221309
 21
80.8197205207
 31
0.0
 70
   160
  1
<>
 71
     2
 42
-1.0
  3
SLDDIMSTYLE3
100
AcDbAlignedDimension
 13
70.7515377806
 23
85.5062542182
 33
0.0
 14
70.7515377806
 24
74.5062542182
 34
0.0
 50
90.0
100
AcDbRotatedDimension
  0
DIMENSION
  5
1B4
330
1F
100
AcDbEntity
  8
0
  6
Continuous
 62
     7
370
    18
100
AcDbDimension
  2
_D_7
 10
140.7515377806
 20
90.5062542182
 30
0.0
 11
173.9015731884
 21
123.6562896261
 31
0.0
 70
   164
  1
<>
 71
     1
 42
-1.0
  3
SLDDIMSTYLE2
100
AcDbRadialDimension
 15
144.2870716865
 25
94.0417881242
 35
0.0
 40
0.0
  0
DIMENSION
  5
1BC
330
1F
100
AcDbEntity
  8
0
  6
Continuous
 62
     7
370
    18
100
AcDbDimension
  2
_D_8
 10
40.7351221309
 20
95.5062542182
 30
0.0
 11
40.7351221309
 21
91.28086742
 31
0.0
 70
   160
  1
<>
 71
     2
 42
-1.0
  3
SLDDIMSTYLE3
100
AcDbAlignedDimension
 13
70.7515377806
 23
85.5062542182
 33
0.0
 14
70.7515377806
 24
95.5062542182
 34
0.0
 50
90.0
100
AcDbRotatedDimension
  0
DIMENSION
  5
1C8
330
1F
100
AcDbEntity
  8
0
  6
Continuous
 62
     7
370
    18
100
AcDbDimension
  2
_D_9
 10
138.7515377806
 20
82.5062542182
 30
0.0
 11
161.9165501819
 21
69.1319438461
 31
0.0
 70
   164
  1
<>
 71
     1
 42
-1.0
  3
SLDDIMSTYLE4
100
AcDbRadialDimension
 15
136.1534615693
 25
84.0062542182
 35
0.0
 40
0.0
  0
SPLINE
  5
1D1
330
1F
100
AcDbEntity
  8
0
  6
Continuous
 62
     7
370
    25
100
AcDbSpline
210
0.0
220
0.0
230
1.0
 70
     8
 71
     3
 72
    81
 73
    77
 74
     0
 42
0.000000001
 43
0.00000001
 40
0.0
 40
0.0
 40
0.0
 40
0.0
 40
0.0087559552569215
 40
0.0213843007363407
 40
0.034019135940262
 40
0.0466855098996423
 40
0.0594072588079086
 40
0.0722062424544259
 40
0.0851015711050092
 40
0.0981088411163801
 40
0.1112394301362292
 40
0.1244999326331489
 40
0.1378918354932289
 40
0.1514115295961103
 40
0.1650507179088789
 40
0.1787972151957813
 40
0.1926360550157818
 40
0.2065507532553189
 40
0.2205245494551414
 40
0.2345414674891401
 40
0.248587094736335
 40
0.2626490493331916
 40
0.2767165064375537
 40
0.2907799538848682
 40
0.3048340277214884
 40
0.3188750123496855
 40
0.3329005591695562
 40
0.3469094195025925
 40
0.360901208894867
 40
0.3748762083131716
 40
0.3888352020050332
 40
0.4027793487064912
 40
0.4167100815578434
 40
0.4306290318209475
 40
0.4445379717897415
 40
0.4584387728336534
 40
0.4723333751264271
 40
0.4862237661901858
 40
0.5001119658782478
 40
0.5140000158110951
 40
0.5278896168692465
 40
0.5417825022297668
 40
0.5556807383138831
 40
0.5695863865134468
 40
0.5835014926835276
 40
0.5974280722286852
 40
0.6113680886984765
 40
0.6253234234364988
 40
0.6392958332925973
 40
0.6532868927694011
 40
0.6672979162704801
 40
0.6813298554344842
 40
0.6953831660458597
 40
0.7094576390042298
 40
0.7235521907936694
 40
0.7376646115429545
 40
0.751791274087212
 40
0.7659268165626553
 40
0.7800614021283166
 40
0.7941839365555006
 40
0.8082813950778662
 40
0.8223383952739698
 40
0.8363376352475357
 40
0.8502606982572446
 40
0.8640892110404389
 40
0.8778062549989145
 40
0.8913978450149752
 40
0.9048542474738652
 40
0.918170931683877
 40
0.9313490323454534
 40
0.9443953113268252
 40
0.9573217021939678
 40
0.9701445724225926
 40
0.9828838419168153
 40
0.9955620666038264
 40
1.0
 40
1.0
 40
1.0
 40
1.0
 10
267.2572897592278
 20
208.2092431993051
 30
0.0
 10
267.0378724683164
 20
208.0820870561689
 30
0.0
 10
266.501998860249
 20
207.7715389634121
 30
0.0
 10
265.69301570213
 20
207.2064464218671
 30
0.0
 10
264.827363628575
 20
206.5262280154103
 30
0.0
 10
264.0050323507081
 20
205.78562985332
 30
0.0
 10
263.2253503358905
 20
204.988577859417
 30
0.0
 10
262.489866642431
 20
204.135160499804
 30
0.0
 10
261.7996057651849
 20
203.226429533415
 30
0.0
 10
261.1558311537217
 20
202.2631837812527
 30
0.0
 10
260.5598467152528
 20
201.2463935021869
 30
0.0
 10
260.0130375718629
 20
200.1771911935893
 30
0.0
 10
259.5168224103571
 20
199.0569770977072
 30
0.0
 10
259.0726071984978
 20
197.8874754374528
 30
0.0
 10
258.6817216528698
 20
196.6707709398519
 30
0.0
 10
258.3453536544997
 20
195.409307184703
 30
0.0
 10
258.0644899968611
 20
194.1058493713897
 30
0.0
 10
257.8398729406713
 20
192.7634176815049
 30
0.0
 10
257.6719778874602
 20
191.3852040274356
 30
0.0
 10
257.5610129391308
 20
189.9744865873986
 30
0.0
 10
257.50693680646
 20
188.5345546068914
 30
0.0
 10
257.5094889102193
 20
187.0686741817956
 30
0.0
 10
257.5682190447304
 20
185.5800844008157
 30
0.0
 10
257.6825178453205
 20
184.0719067685039
 30
0.0
 10
257.8516568724922
 20
182.5471189922543
 30
0.0
 10
258.0748287909552
 20
181.0085308208232
 30
0.0
 10
258.3511617587148
 20
179.4588772058418
 30
0.0
 10
258.6797313801995
 20
177.9008336723625
 30
0.0
 10
259.0595682159164
 20
176.3370306219368
 30
0.0
 10
259.4896620083159
 20
174.7700654517182
 30
0.0
 10
259.968963652878
 20
173.2025120747365
 30
0.0
 10
260.4963857543357
 20
171.6369278327669
 30
0.0
 10
261.0708024116366
 20
170.0758580206641
 30
0.0
 10
261.691048700244
 20
168.5218383497408
 30
0.0
 10
262.3559201771439
 20
166.9773957114567
 30
0.0
 10
263.0641726229359
 20
165.4450475941853
 30
0.0
 10
263.814522152315
 20
163.9273004768006
 30
0.0
 10
264.6056457638342
 20
162.4266474858275
 30
0.0
 10
265.4361823545754
 20
160.9455655682308
 30
0.0
 10
266.3047268028291
 20
159.4865248138814
 30
0.0
 10
267.2098306970591
 20
158.0519832842665
 30
0.0
 10
268.1500107898882
 20
156.6443712063166
 30
0.0
 10
269.1237606964607
 20
155.2660762204993
 30
0.0
 10
270.129554868322
 20
153.9194428329854
 30
0.0
 10
271.1658443999598
 20
152.6067818567473
 30
0.0
 10
272.2310599763248
 20
151.3303691205775
 30
0.0
 10
273.3236145920743
 20
150.0924449508001
 30
0.0
 10
274.4419057925249
 20
148.8952145506228
 30
0.0
 10
275.5843171204
 20
147.7408493808813
 30
0.0
 10
276.7492183697738
 20
146.6314896129762
 30
0.0
 10
277.9349641529693
 20
145.569247666392
 30
0.0
 10
279.1398901827995
 20
144.5562127468845
 30
0.0
 10
280.3623065746461
 20
143.5944561502379
 30
0.0
 10
281.6004874061803
 20
142.6860368705496
 30
0.0
 10
282.8526557792135
 20
141.8330067323795
 30
0.0
 10
284.1169637803515
 20
141.0374138386556
 30
0.0
 10
285.391467109504
 20
140.3013026104067
 30
0.0
 10
286.6740216233596
 20
139.6267466603936
 30
0.0
 10
287.96228053015
 20
139.0157993527089
 30
0.0
 10
289.2536786683936
 20
138.4704484563811
 30
0.0
 10
290.5454830721773
 20
137.9925457382665
 30
0.0
 10
291.8347530308081
 20
137.5837727115017
 30
0.0
 10
293.1183392070768
 20
137.245581505914
 30
0.0
 10
294.3929266423123
 20
136.9791244502109
 30
0.0
 10
295.6551050082954
 20
136.7851906030417
 30
0.0
 10
296.90145947611
 20
136.6641613724271
 30
0.0
 10
298.1286706204314
 20
136.6159934755412
 30
0.0
 10
299.3336042496838
 20
136.6402396053323
 30
0.0
 10
300.513388994246
 20
136.7360834454259
 30
0.0
 10
301.6654274652274
 20
136.9024580856569
 30
0.0
 10
302.7875060513113
 20
137.1379513598537
 30
0.0
 10
303.8773970515101
 20
137.4415340580416
 30
0.0
 10
304.9342143215491
 20
137.8102476844286
 30
0.0
 10
305.953228561948
 20
138.2480619863766
 30
0.0
 10
306.7310919449881
 20
138.6287703165336
 30
0.0
 10
307.1558260494352
 20
138.8843597031237
 30
0.0
 10
307.2659524958877
 20
138.9506297544368
 30
0.0
  0
SPLINE
  5
1D2
330
1F
100
AcDbEntity
  8
0
  6
Continuous
 62
     7
370
    25
100
AcDbSpline
210
0.0
220
0.0
230
1.0
 70
     8
 71
     3
 72
    81
 73
    77
 74
     0
 42
0.000000001
 43
0.00000001
 40
0.0
 40
0.0
 40
0.0
 40
0.0
 40
0.0086773315302918
 40
0.0213076453403146
 40
0.0339444498863679
 40
0.0466127981037022
 40
0.0593365299009984
 40
0.0721375084748198
 40
0.0850348470696256
 40
0.0980441444730791
 40
0.1111767801062615
 40
0.1244393494656162
 40
0.1378333396689886
 40
0.1513551410334841
 40
0.1649964552329587
 40
0.1787450951323936
 40
0.1925860919579949
 40
0.2065029590268906
 40
0.2204789332674359
 40
0.2344980360633858
 40
0.2485458525473266
 40
0.2626099989258092
 40
0.2766796486694499
 40
0.2907452881310751
 40
0.3048015525209768
 40
0.3188447256622932
 40
0.3328724585890513
 40
0.3468835024281207
 40
0.3608774726656435
 40
0.3748546503122107
 40
0.3888158197375867
 40
0.4027621398584169
 40
0.4166950440383759
 40
0.4306161637935811
 40
0.4445272716942124
 40
0.4584302394013794
 40
0.4723270073912316
 40
0.4862195634956828
 40
0.5001099278828743
 40
0.5140001424915106
 40
0.5278919084672168
 40
0.5417869592572052
 40
0.5556873616047865
 40
0.5695951772231107
 40
0.5835124522861301
 40
0.5974412025125364
 40
0.6113833917579359
 40
0.6253409016591646
 40
0.6393154893399022
 40
0.6533087295481884
 40
0.6673219368924627
 40
0.6813560631597041
 40
0.6954115642054017
 40
0.7094882308965859
 40
0.7235849795484466
 40
0.7376995999453186
 40
0.7518284643569759
 40
0.7659662100838976
 40
0.780102998751889
 40
0.7942277344030367
 40
0.8083273902408857
 40
0.822386581446391
 40
0.8363880034265011
 40
0.8503132365693487
 40
0.8641439047485097
 40
0.8778630867287452
 40
0.8914567952125526
 40
0.9049152950680357
 40
0.9182340548973045
 40
0.9314142095776666
 40
0.9444625220312952
 40
0.9573909276842053
 40
0.9702157965632434
 40
0.9829570516773598
 40
0.9956372524694505
 40
1.0
 40
1.0
 40
1.0
 40
1.0
 10
307.2671749789787
 20
138.950811003145
 30
0.0
 10
307.4845804204021
 20
139.0768183130164
 30
0.0
 10
308.0184309509175
 20
139.3862359098496
 30
0.0
 10
308.8254680851622
 20
139.9500721136877
 30
0.0
 10
309.6911333867386
 20
140.6302689165322
 30
0.0
 10
310.5134611079641
 20
141.3708728872239
 30
0.0
 10
311.2931440817506
 20
142.1679233149672
 30
0.0
 10
312.0286275159858
 20
143.0213410979377
 30
0.0
 10
312.718888463458
 20
143.9300719496355
 30
0.0
 10
313.3626630558632
 20
144.8933177329231
 30
0.0
 10
313.9586474995104
 20
145.9101080035317
 30
0.0
 10
314.5054566414923
 20
146.9793103144289
 30
0.0
 10
315.0016718033809
 20
148.0995244096856
 30
0.0
 10
315.4458870151362
 20
149.26902607011
 30
0.0
 10
315.8367725607924
 20
150.4857305676648
 30
0.0
 10
316.1731405591549
 20
151.7471943228262
 30
0.0
 10
316.4540042167955
 20
153.0506521361361
 30
0.0
 10
316.6786212729847
 20
154.393083826022
 30
0.0
 10
316.846516326196
 20
155.771297480091
 30
0.0
 10
316.9574812745254
 20
157.182014920128
 30
0.0
 10
317.0115574071962
 20
158.6219469006352
 30
0.0
 10
317.0090053034369
 20
160.0878273257309
 30
0.0
 10
316.9502751689257
 20
161.5764171067108
 30
0.0
 10
316.8359763683356
 20
163.0845947390226
 30
0.0
 10
316.6668373411639
 20
164.6093825152722
 30
0.0
 10
316.4436654227009
 20
166.1479706867032
 30
0.0
 10
316.1673324549413
 20
167.6976243016847
 30
0.0
 10
315.8387628334566
 20
169.2556678351639
 30
0.0
 10
315.4589259977398
 20
170.8194708855895
 30
0.0
 10
315.0288322053403
 20
172.386436055808
 30
0.0
 10
314.5495305607781
 20
173.9539894327897
 30
0.0
 10
314.0221084593204
 20
175.5195736747594
 30
0.0
 10
313.4476918020195
 20
177.0806434868621
 30
0.0
 10
312.8274455134122
 20
178.6346631577854
 30
0.0
 10
312.1625740365122
 20
180.1791057960695
 30
0.0
 10
311.4543215907203
 20
181.7114539133409
 30
0.0
 10
310.7039720613411
 20
183.2292010307257
 30
0.0
 10
309.912848449822
 20
184.7298540216987
 30
0.0
 10
309.0823118590807
 20
186.2109359392954
 30
0.0
 10
308.213767410827
 20
187.6699766936447
 30
0.0
 10
307.3086635165971
 20
189.1045182232596
 30
0.0
 10
306.3684834237681
 20
190.5121303012095
 30
0.0
 10
305.3947335171954
 20
191.8904252870268
 30
0.0
 10
304.3889393453342
 20
193.2370586745407
 30
0.0
 10
303.3526498136965
 20
194.5497196507788
 30
0.0
 10
302.2874342373314
 20
195.8261323869486
 30
0.0
 10
301.1948796215819
 20
197.0640565567259
 30
0.0
 10
300.0765884211313
 20
198.2612869569033
 30
0.0
 10
298.9341770932562
 20
199.4156521266448
 30
0.0
 10
297.7692758438824
 20
200.5250118945499
 30
0.0
 10
296.5835300606869
 20
201.5872538411341
 30
0.0
 10
295.3786040308567
 20
202.6002887606417
 30
0.0
 10
294.1561876390101
 20
203.5620453572882
 30
0.0
 10
292.9180068074759
 20
204.4704646369765
 30
0.0
 10
291.6658384344428
 20
205.3234947751467
 30
0.0
 10
290.4015304333047
 20
206.1190876688706
 30
0.0
 10
289.1270271041521
 20
206.8551988971195
 30
0.0
 10
287.8444725902966
 20
207.5297548471325
 30
0.0
 10
286.5562136835062
 20
208.1407021548174
 30
0.0
 10
285.2648155452628
 20
208.6860530511448
 30
0.0
 10
283.9730111414784
 20
209.1639557692608
 30
0.0
 10
282.6837411828507
 20
209.5727287960201
 30
0.0
 10
281.4001550065705
 20
209.9109200016282
 30
0.0
 10
280.1255675713779
 20
210.1773770572559
 30
0.0
 10
278.8633892052364
 20
210.3713109047037
 30
0.0
 10
277.6170347380056
 20
210.4923401342911
 30
0.0
 10
276.3898235915351
 20
210.540508034958
 30
0.0
 10
275.1848899701835
 20
210.5162618912657
 30
0.0
 10
274.0051051965904
 20
210.4204181022508
 30
0.0
 10
272.853066832283
 20
210.2540432743314
 30
0.0
 10
271.7309878539656
 20
210.0185506902533
 30
0.0
 10
270.6410982978226
 20
209.7149654513087
 30
0.0
 10
269.5842757016494
 20
209.3462611960358
 30
0.0
 10
268.5652811503269
 20
208.9084122519678
 30
0.0
 10
267.7893372995791
 20
208.5287718064521
 30
0.0
 10
267.3664634526622
 20
208.2743545960079
 30
0.0
 10
267.2582138824325
 20
208.2092274809347
 30
0.0
  0
SPLINE
  5
1D3
330
1F
100
AcDbEntity
  8
0
  6
Continuous
 62
     7
370
    25
100
AcDbSpline
210
0.0
220
0.0
230
1.0
 70
     8
 71
     3
 72
    16
 73
    12
 74
     0
 42
0.000000001
 43
0.00000001
 40
0.0
 40
0.0
 40
0.0
 40
0.0
 40
0.0803634052758905
 40
0.204055619831352
 40
0.3278018329725007
 40
0.4518476947279439
 40
0.5764272657596352
 40
0.7017555379035889
 40
0.8280208642190618
 40
0.9553774616410377
 40
1.0
 40
1.0
 40
1.0
 40
1.0
 10
282.1018820958734
 20
216.7782148894649
 30
0.0
 10
281.8960248483782
 20
216.6594991377063
 30
0.0
 10
281.3733201659398
 20
216.3580607376572
 30
0.0
 10
280.5763905572468
 20
215.8036617195388
 30
0.0
 10
279.7090705619775
 20
215.1258400102366
 30
0.0
 10
278.8850773585119
 20
214.3874564494029
 30
0.0
 10
278.1039152714761
 20
213.5924323466836
 30
0.0
 10
277.3659640077951
 20
212.7417637816725
 30
0.0
 10
276.6767828898643
 20
211.8328563526908
 30
0.0
 10
276.1646013300365
 20
211.0895465384305
 30
0.0
 10
275.900800836863
 20
210.6351211900186
 30
0.0
 10
275.8323538850145
 20
210.5172137912593
 30
0.0
  0
SPLINE
  5
1D4
330
1F
100
AcDbEntity
  8
0
  6
Continuous
 62
     7
370
    25
100
AcDbSpline
210
0.0
220
0.0
230
1.0
 70
     8
 71
     3
 72
    16
 73
    12
 74
     0
 42
0.000000001
 43
0.00000001
 40
0.0
 40
0.0
 40
0.0
 40
0.0
 40
0.0758630001069292
 40
0.2059094914961644
 40
0.3346036136526118
 40
0.4620134749375077
 40
0.5882574740156039
 40
0.713497013997543
 40
0.8379278604654647
 40
0.9617711909401857
 40
1.0
 40
1.0
 40
1.0
 40
1.0
 10
313.535815172965
 20
145.2114172419564
 30
0.0
 10
313.7678189126784
 20
145.2144492596507
 30
0.0
 10
314.3975299971628
 20
145.2226788474706
 30
0.0
 10
315.4071408840968
 20
145.3154800773005
 30
0.0
 10
316.5584717812118
 20
145.4820019059083
 30
0.0
 10
317.6792502587912
 20
145.7207942961842
 30
0.0
 10
318.7678918437538
 20
146.0267942795929
 30
0.0
 10
319.8234112969765
 20
146.3980092702566
 30
0.0
 10
320.8408946061854
 20
146.8385157331955
 30
0.0
 10
321.6043845408731
 20
147.2136960654253
 30
0.0
 10
322.0155772757718
 20
147.4621914211474
 30
0.0
 10
322.1125674715843
 20
147.5208053293332
 30
0.0
  0
SPLINE
  5
1D5
330
1F
100
AcDbEntity
  8
0
  6
Continuous
 62
     7
370
    25
100
AcDbSpline
210
0.0
220
0.0
230
1.0
 70
     8
 71
     3
 72
    81
 73
    77
 74
     0
 42
0.000000001
 43
0.00000001
 40
0.0
 40
0.0
 40
0.0
 40
0.0
 40
0.0087278087154411
 40
0.0213565294737243
 40
0.0339917401493667
 40
0.0466584905177106
 40
0.0593806174805268
 40
0.0721799814767932
 40
0.0850756933402291
 40
0.0980833498910343
 40
0.1112143291150126
 40
0.1244752256767213
 40
0.1378675265064419
 40
0.1513876223765584
 40
0.1650272160075923
 40
0.1787741218016816
 40
0.1926133728730282
 40
0.206528484618211
 40
0.2205026960799043
 40
0.2345200306572321
 40
0.2485660753009155
 40
0.2626284477794622
 40
0.2766963229290333
 40
0.2907601883024013
 40
0.3048146797865177
 40
0.318856081673235
 40
0.3328820452928593
 40
0.3468913219297738
 40
0.3608835271186248
 40
0.3748589418345552
 40
0.3888183503483991
 40
0.4027629114306285
 40
0.4166940582641289
 40
0.4306134221592376
 40
0.4445227754625568
 40
0.4584239895991301
 40
0.4723190048003543
 40
0.4862098086474193
 40
0.5000984210536625
 40
0.5139868837002427
 40
0.5278768975182205
 40
0.5417701957361692
 40
0.5556688448367229
 40
0.5695749062729892
 40
0.5834904259608386
 40
0.5974174193647211
 40
0.6113578500925432
 40
0.6253135995438137
 40
0.6392864246205846
 40
0.6532778998722749
 40
0.6672893397415166
 40
0.6813216958952365
 40
0.6953754241314268
 40
0.7094503153434971
 40
0.723545285983323
 40
0.7376581261140097
 40
0.7517852084628962
 40
0.7659211710068536
 40
0.7800561766125926
 40
0.7941791307217281
 40
0.80827700818086
 40
0.8223344261114237
 40
0.8363340821029759
 40
0.8502575588669076
 40
0.8640864825945586
 40
0.8778039341849523
 40
0.8913959281047907
 40
0.9048527304500691
 40
0.9181698103944328
 40
0.9313483026720496
 40
0.9443949693520911
 40
0.9573217443551681
 40
0.9701449956433847
 40
0.9828846437128208
 40
0.9955632451609665
 40
1.0
 40
1.0
 40
1.0
 40
1.0
 10
322.1125674715843
 20
147.5208053293332
 30
0.0
 10
322.3312701842892
 20
147.6475534444077
 30
0.0
 10
322.8664252366222
 20
147.9577000050832
 30
0.0
 10
323.6747172229172
 20
148.5223462919558
 30
0.0
 10
324.5403739824825
 20
149.2025570453596
 30
0.0
 10
325.3627040004135
 20
149.9431572651397
 30
0.0
 10
326.1423863549446
 20
150.7402087042325
 30
0.0
 10
326.8778699565742
 20
151.5936262138194
 30
0.0
 10
327.5681308586978
 20
152.5023571395791
 30
0.0
 10
328.2119054634097
 20
153.4656029027676
 30
0.0
 10
328.8078899037131
 20
154.4823931788374
 30
0.0
 10
329.3546990466042
 20
155.5515954882497
 30
0.0
 10
329.8509142082456
 20
156.6718095839102
 30
0.0
 10
330.2951294200681
 20
157.8413112442248
 30
0.0
 10
330.686014965706
 20
159.0580157418093
 30
0.0
 10
331.0223829640734
 20
160.3194794969626
 30
0.0
 10
331.3032466217127
 20
161.6229373102747
 30
0.0
 10
331.5278636779023
 20
162.9653690001599
 30
0.0
 10
331.6957587311135
 20
164.343582654229
 30
0.0
 10
331.8067236794429
 20
165.754300094266
 30
0.0
 10
331.8607998121137
 20
167.1942320747733
 30
0.0
 10
331.8582477083544
 20
168.6601124998691
 30
0.0
 10
331.7995175738433
 20
170.1487022808491
 30
0.0
 10
331.6852187732532
 20
171.6568799131609
 30
0.0
 10
331.5160797460815
 20
173.1816676894105
 30
0.0
 10
331.2929078276184
 20
174.7202558608415
 30
0.0
 10
331.0165748598588
 20
176.2699094758229
 30
0.0
 10
330.6880052383742
 20
177.8279530093022
 30
0.0
 10
330.3081684026573
 20
179.3917560597278
 30
0.0
 10
329.8780746102578
 20
180.9587212299464
 30
0.0
 10
329.3987729656957
 20
182.526274606928
 30
0.0
 10
328.8713508642379
 20
184.0918588488977
 30
0.0
 10
328.296934206937
 20
185.6529286610005
 30
0.0
 10
327.6766879183298
 20
187.2069483319237
 30
0.0
 10
327.0118164414298
 20
188.7513909702079
 30
0.0
 10
326.3035639956379
 20
190.2837390874793
 30
0.0
 10
325.5532144662586
 20
191.8014862048642
 30
0.0
 10
324.7620908547395
 20
193.3021391958372
 30
0.0
 10
323.9315542639984
 20
194.7832211134339
 30
0.0
 10
323.0630098157446
 20
196.2422618677831
 30
0.0
 10
322.1579059215146
 20
197.6768033973979
 30
0.0
 10
321.2177258286856
 20
199.0844154753479
 30
0.0
 10
320.2439759221131
 20
200.4627104611651
 30
0.0
 10
319.2381817502518
 20
201.809343848679
 30
0.0
 10
318.201892218614
 20
203.1220048249172
 30
0.0
 10
317.136676642249
 20
204.3984175610869
 30
0.0
 10
316.0441220264996
 20
205.6363417308642
 30
0.0
 10
314.925830826049
 20
206.8335721310416
 30
0.0
 10
313.7834194981739
 20
207.9879373007831
 30
0.0
 10
312.6185182488001
 20
209.0972970686882
 30
0.0
 10
311.4327724656046
 20
210.1595390152725
 30
0.0
 10
310.2278464357743
 20
211.1725739347801
 30
0.0
 10
309.0054300439277
 20
212.1343305314266
 30
0.0
 10
307.7672492123936
 20
213.0427498111149
 30
0.0
 10
306.5150808393604
 20
213.8957799492851
 30
0.0
 10
305.2507728382223
 20
214.691372843009
 30
0.0
 10
303.9762695090698
 20
215.4274840712579
 30
0.0
 10
302.6937149952141
 20
216.102040021271
 30
0.0
 10
301.4054560884238
 20
216.7129873289557
 30
0.0
 10
300.1140579501803
 20
217.2583382252835
 30
0.0
 10
298.8222535463964
 20
217.7362409433981
 30
0.0
 10
297.5329835877657
 20
218.1450139701628
 30
0.0
 10
296.2493974114969
 20
218.4832051757509
 30
0.0
 10
294.9748099762622
 20
218.7496622314527
 30
0.0
 10
293.7126316102763
 20
218.9435960786267
 30
0.0
 10
292.4662771424718
 20
219.0646253092236
 30
0.0
 10
291.2390659981133
 20
219.1127932061745
 30
0.0
 10
290.0341323689967
 20
219.0885470761445
 30
0.0
 10
288.8543476239354
 20
218.9927032369289
 30
0.0
 10
287.7023091547878
 20
218.8263285934717
 30
0.0
 10
286.5802305619617
 20
218.5908353311375
 30
0.0
 10
285.490339586585
 20
218.2872525892762
 30
0.0
 10
284.4335222249945
 20
217.9185391239704
 30
0.0
 10
283.4145083230333
 20
217.4807242265549
 30
0.0
 10
282.6366780976707
 20
217.1000343375051
 30
0.0
 10
282.2119761249443
 20
216.8444651971506
 30
0.0
 10
282.1018820958734
 20
216.7782148894649
 30
0.0
  0
LINE
  5
1D6
330
1F
100
AcDbEntity
  8
0
  6
Continuous
 62
     7
370
    25
100
AcDbLine
 10
295.8714069536
 20
175.6786723257
 30
0.0
 11
295.5428286883
 21
175.4889881307
 31
0.0
  0
LINE
  5
1D7
330
1F
100
AcDbEntity
  8
0
  6
Continuous
 62
     7
370
    25
100
AcDbLine
 10
293.0540413704
 20
179.7987557946
 30
0.0
 11
293.3835787699
 21
179.9889936861
 31
0.0
  0
LINE
  5
1D8
330
1F
100
AcDbEntity
  8
0
  6
Continuous
 62
     7
370
    25
100
AcDbLine
 10
295.4518547856
 20
175.4325009782
 30
0.0
 11
274.3933850314
 21
163.2757051538
 31
0.0
  0
LINE
  5
1D9
330
1F
100
AcDbEntity
  8
0
  6
Continuous
 62
     7
370
    25
100
AcDbLine
 10
271.9045977135
 20
167.5854728177
 30
0.0
 11
293.4018838296
 21
179.9955919357
 31
0.0
  0
LWPOLYLINE
  5
1DA
330
1F
100
AcDbEntity
  8
0
  6
Continuous
 62
     7
370
    25
100
AcDbPolyline
 90
      132
 70
   128
 43
0.0
 10
283.7237132009
 20
200.1161588902
 10
282.5371384776
 20
200.7682876719
 10
281.3532929142
 20
201.3531840852
 10
280.1748993933
 20
201.8695028498
 10
279.004668258
 20
202.316056416
 10
277.8452910773
 20
202.6918176961
 10
276.6994344558
 20
202.9959224273
 10
275.5697339006
 20
203.2276711588
 10
274.458787759
 20
203.3865308613
 10
273.3691512428
 20
203.4721361522
 10
272.303330551
 20
203.4842901368
 10
271.2637771052
 20
203.4229648603
 10
270.2528819117
 20
203.288301373
 10
269.2729700619
 20
203.0806094051
 10
268.3262953844
 20
202.8003666548
 10
267.4150352613
 20
202.4482176895
 10
266.54128562
 20
202.024972463
 10
265.7070561128
 20
201.531604453
 10
264.9142654943
 20
200.9692484217
 10
264.1647372082
 20
200.3391978059
 10
263.4601951937
 20
199.6429017422
 10
262.80225992
 20
198.881961734
 10
262.1924446592
 20
198.0581279676
 10
261.6321520061
 20
197.1732952871
 10
261.1226706517
 20
196.2294988361
 10
260.6651724194
 20
195.2289093765
 10
260.2607095698
 20
194.1738282962
 10
259.9102123804
 20
193.0666823155
 10
259.614487006
 20
191.9100179057
 10
259.3742136245
 20
190.706495432
 10
259.1899448723
 20
189.4588830345
 10
259.0621045735
 20
188.1700502618
 10
258.9909867647
 20
186.8429614707
 10
258.9767550194
 20
185.4806690077
 10
259.0194420709
 20
184.0863061893
 10
259.1189497376
 20
182.6630800947
 10
259.2750491488
 20
181.2142641893
 10
259.4873812708
 20
179.7431907963
 10
259.7554577329
 20
178.2532434317
 10
260.0786619506
 20
176.7478490219
 10
260.4562505439
 20
175.2304700226
 10
260.887355047
 20
173.7045964539
 10
261.3709839056
 20
172.1737378741
 10
261.9060247579
 20
170.6414153068
 10
262.4912469928
 20
169.1111531431
 10
263.1253045803
 20
167.586471035
 10
263.8067391678
 20
166.0708758002
 10
264.5339834337
 20
164.5678533564
 10
265.3053646931
 20
163.0808607032
 10
266.1191087443
 20
161.6133179716
 10
266.9733439499
 20
160.1686005567
 10
267.8661055415
 20
158.7500313549
 10
268.7953401389
 20
157.3608731208
 10
269.7589104728
 20
156.004320963
 10
270.7546003004
 20
154.6834949948
 10
271.7801195033
 20
153.4014331583
 10
272.8331093544
 20
152.1610842368
 10
273.9111479434
 20
150.9653010725
 10
275.0117557469
 20
149.8168340051
 10
276.1324013318
 20
148.7183245456
 10
277.2705071772
 20
147.672299301
 10
278.4234556032
 20
146.6811641629
 10
279.5885947916
 20
145.7471987738
 10
280.7632448849
 20
144.872551284
 10
281.9447041501
 20
144.0592334109
 10
283.1302551931
 20
143.3091158116
 10
284.3171712086
 20
142.6239237806
 10
285.5027222517
 20
142.0052332815
 10
286.6841815169
 20
141.4544673223
 10
287.8588316102
 20
140.9728926824
 10
289.0239707985
 20
140.5616169989
 10
290.1769192246
 20
140.2215862189
 10
291.31502507
 20
139.9535824243
 10
292.4356706549
 20
139.7582220323
 10
293.5362784584
 20
139.6359543781
 10
294.6143170473
 20
139.5870606813
 10
295.6673068985
 20
139.6116533987
 10
296.6928261014
 20
139.7096759666
 10
297.688515929
 20
139.8809029297
 10
298.6520862628
 20
140.1249404606
 10
299.5813208603
 20
140.4412272652
 10
300.4740824519
 20
140.8290358737
 10
301.3283176575
 20
141.2874743138
 10
302.1420617087
 20
141.8154881624
 10
302.913442968
 20
142.4118629708
 10
303.640687234
 20
143.0752270577
 10
304.3221218215
 20
143.8040546646
 10
304.956179409
 20
144.5966694646
 10
305.5414016439
 20
145.4512484183
 10
306.0764424962
 20
146.3658259666
 10
306.5600713548
 20
147.3382985519
 10
306.9911758578
 20
148.3664294561
 10
307.3687644512
 20
149.4478539451
 10
307.6919686689
 20
150.580084708
 10
307.960045131
 20
151.7605175778
 10
308.172377253
 20
152.986437521
 10
308.3284766642
 20
154.2550248824
 10
308.4279843309
 20
155.5633618706
 10
308.4706713824
 20
156.9084392684
 10
308.4564396371
 20
158.2871633547
 10
308.3853218283
 20
159.6963630201
 10
308.2574815295
 20
161.13279706
 10
308.0732127773
 20
162.5931616302
 10
307.8329393958
 20
164.0740978454
 10
307.5372140214
 20
165.5721995047
 10
307.186716832
 20
167.0840209265
 10
306.7822539824
 20
168.6060848729
 10
306.3247557501
 20
170.1348905481
 10
305.8152743957
 20
171.6669216501
 10
305.2549817425
 20
173.1986544582
 10
304.6451664818
 20
174.7265659379
 10
303.9872312081
 20
176.2471418439
 10
303.2826891936
 20
177.7568848028
 10
302.5331609075
 20
179.2523223574
 10
301.740370289
 20
180.7300149534
 10
300.9061407818
 20
182.1865638506
 10
300.0323911405
 20
183.6186189397
 10
299.1211310174
 20
185.0228864482
 10
298.1744563399
 20
186.3961365158
 10
297.19454449
 20
187.7352106233
 10
296.1836492966
 20
189.0370288575
 10
295.1440958508
 20
190.2985969945
 10
294.078275159
 20
191.5170133874
 10
292.9886386428
 20
192.6894756393
 10
291.8776925012
 20
193.8132870495
 10
290.747991946
 20
194.8858628157
 10
289.6021353245
 20
195.9047359793
 10
288.4427581438
 20
196.8675630994
 10
287.2725270084
 20
197.7721296427
 10
286.0941334876
 20
198.6163550772
 10
284.9102879242
 20
199.3982976574
 10
283.7237132009
 20
200.1161588902
  0
ARC
  5
1DB
330
1F
100
AcDbEntity
  8
0
  6
Continuous
 62
     7
370
    25
100
AcDbCircle
 10
301.8367816058
 20
157.6962119297
 30
0.0
 40
7.334725444268446
100
AcDbArc
 50
182.1231945951
 51
213.0034372668
  0
LINE
  5
1DC
330
1F
100
AcDbEntity
  8
0
  6
Continuous
 62
     7
370
    25
100
AcDbLine
 10
294.507091614
 20
157.4244731447
 30
0.0
 11
294.507091614
 21
173.1997640984
 31
0.0
  0
ARC
  5
1DD
330
1F
100
AcDbEntity
  8
0
  6
Continuous
 62
     7
370
    25
100
AcDbCircle
 10
296.9198620768
 20
173.4715722193
 30
0.0
 40
2.42803232286245
100
AcDbArc
 50
120.5531350389
 51
186.4274969738
  0
LWPOLYLINE
  5
1DE
330
1F
100
AcDbEntity
  8
0
  6
Continuous
 62
     7
370
    25
100
AcDbPolyline
 90
       19
 70
   128
 43
0.0
 10
293.1894759223
 20
179.885910704
 10
293.4227550021
 20
180.0025541284
 10
293.6913513603
 20
180.0462988677
 10
293.9865167058
 20
180.0157201382
 10
294.298637385
 20
179.9118139014
 10
294.6175475019
 20
179.7379644252
 10
294.9328600263
 20
179.4998340566
 10
295.2343051027
 20
179.2051787973
 10
295.5120645441
 20
178.8635956874
 10
295.757091614
 20
178.4862102257
 10
295.9614056825
 20
178.0853140081
 10
296.1183521583
 20
177.6739643852
 10
296.222819232
 20
177.2655591793
 10
296.2714043688
 20
176.8734003117
 10
296.2625251315
 20
176.510260554
 10
296.1964707204
 20
176.1879675139
 10
296.075392554
 20
175.917018405
 10
295.903234197
 20
175.7062381483
 10
295.685602916
 20
175.5624919415
  0
ARC
  5
1DF
330
1F
100
AcDbEntity
  8
0
  6
Continuous
 62
     7
370
    25
100
AcDbCircle
 10
291.9956188095
 20
181.999534143
 30
0.0
 40
2.427488176622282
100
AcDbArc
 50
233.5748668215
 51
299.4594586915
  0
LINE
  5
1E0
330
1F
100
AcDbEntity
  8
0
  6
Continuous
 62
     7
370
    25
100
AcDbLine
 10
276.893181863
 20
187.9326596638
 30
0.0
 11
290.5542445388
 21
180.0462960471
 31
0.0
  0
ARC
  5
1E1
330
1F
100
AcDbEntity
  8
0
  6
Continuous
 62
     7
370
    25
100
AcDbCircle
 10
280.7927164385
 20
194.1438789826
 30
0.0
 40
7.333867692525939
100
AcDbArc
 50
206.995835293
 51
237.8785304992
  0
LWPOLYLINE
  5
1E2
330
1F
100
AcDbEntity
  8
0
  6
Continuous
 62
     7
370
    25
100
AcDbPolyline
 90
       19
 70
   128
 43
0.0
 10
271.7618234858
 20
189.3733958331
 10
271.5441922048
 20
189.7684137686
 10
271.3720338478
 20
190.1779638334
 10
271.2509556814
 20
190.5887068176
 10
271.1849012703
 20
190.9872646574
 10
271.176022033
 20
191.3606561642
 10
271.2246071698
 20
191.6967198269
 10
271.3290742434
 20
191.984509917
 10
271.4860207193
 20
192.2146529959
 10
271.6903347878
 20
192.3796532112
 10
271.9353618577
 20
192.4741364398
 10
272.2131212991
 20
192.4950253249
 10
272.5145663755
 20
192.4416395072
 10
272.8298788999
 20
192.3157177841
 10
273.1487890168
 20
192.1213614768
 10
273.4609096959
 20
191.8649008481
 10
273.7560750415
 20
191.5546889236
 10
274.0246713997
 20
191.2008294301
 10
274.2579504795
 20
190.8148477132
  0
ARC
  5
1E3
330
1F
100
AcDbEntity
  8
0
  6
Continuous
 62
     7
370
    25
100
AcDbCircle
 10
265.610644796
 20
185.3782490187
 30
0.0
 40
7.334725444268745
100
AcDbArc
 50
2.1231945951
 51
33.0034372668
  0
LINE
  5
1E4
330
1F
100
AcDbEntity
  8
0
  6
Continuous
 62
     7
370
    25
100
AcDbLine
 10
272.9403347878
 20
169.87469685
 30
0.0
 11
272.9403347878
 21
185.6499878037
 31
0.0
  0
ARC
  5
1E5
330
1F
100
AcDbEntity
  8
0
  6
Continuous
 62
     7
370
    25
100
AcDbCircle
 10
270.527564325
 20
169.6028887291
 30
0.0
 40
2.428032322862614
100
AcDbArc
 50
300.5531350389
 51
6.4274969738
  0
LWPOLYLINE
  5
1E6
330
1F
100
AcDbEntity
  8
0
  6
Continuous
 62
     7
370
    25
100
AcDbPolyline
 90
       19
 70
   128
 43
0.0
 10
274.2579504795
 20
163.1885502444
 10
274.0246713997
 20
163.07190682
 10
273.7560750415
 20
163.0281620807
 10
273.4609096959
 20
163.0587408102
 10
273.1487890168
 20
163.162647047
 10
272.8298788999
 20
163.3364965232
 10
272.5145663755
 20
163.5746268918
 10
272.2131212991
 20
163.8692821511
 10
271.9353618577
 20
164.210865261
 10
271.6903347878
 20
164.5882507227
 10
271.4860207193
 20
164.9891469403
 10
271.3290742434
 20
165.4004965632
 10
271.2246071698
 20
165.8089017691
 10
271.176022033
 20
166.2010606367
 10
271.1849012703
 20
166.5642003944
 10
271.2509556814
 20
166.8864934345
 10
271.3720338478
 20
167.1574425434
 10
271.5441922048
 20
167.3682228001
 10
271.7618234858
 20
167.5119690069
  0
ARC
  5
1E7
330
1F
100
AcDbEntity
  8
0
  6
Continuous
 62
     7
370
    25
100
AcDbCircle
 10
275.4518075923
 20
161.0749268054
 30
0.0
 40
2.427488176622384
100
AcDbArc
 50
53.5748668215
 51
119.4594586915
  0
LINE
  5
1E8
330
1F
100
AcDbEntity
  8
0
  6
Continuous
 62
     7
370
    25
100
AcDbLine
 10
276.893181863
 20
163.0281649013
 30
0.0
 11
290.5542445388
 21
155.1418012846
 31
0.0
  0
ARC
  5
1E9
330
1F
100
AcDbEntity
  8
0
  6
Continuous
 62
     7
370
    25
100
AcDbCircle
 10
286.6547099633
 20
148.9305819658
 30
0.0
 40
7.333867692526952
100
AcDbArc
 50
26.995835293
 51
57.8785304992
  0
LWPOLYLINE
  5
1EA
330
1F
100
AcDbEntity
  8
0
  6
Continuous
 62
     7
370
    25
100
AcDbPolyline
 90
       19
 70
   128
 43
0.0
 10
295.685602916
 20
153.7010651153
 10
295.903234197
 20
153.3060471798
 10
296.075392554
 20
152.8964971151
 10
296.1964707204
 20
152.4857541309
 10
296.2625251315
 20
152.087196291
 10
296.2714043688
 20
151.7138047842
 10
296.222819232
 20
151.3777411215
 10
296.1183521583
 20
151.0899510314
 10
295.9614056825
 20
150.8598079525
 10
295.757091614
 20
150.6948077372
 10
295.5120645441
 20
150.6003245087
 10
295.2343051027
 20
150.5794356235
 10
294.9328600263
 20
150.6328214413
 10
294.6175475019
 20
150.7587431643
 10
294.298637385
 20
150.9530994716
 10
293.9865167058
 20
151.2095601003
 10
293.6913513603
 20
151.5197720248
 10
293.4227550021
 20
151.8736315183
 10
293.1894759223
 20
152.2596132352
  0
LWPOLYLINE
  5
1EB
330
1F
100
AcDbEntity
  8
0
  6
Continuous
 62
     7
370
    25
100
AcDbPolyline
 90
       17
 70
   128
 43
0.0
 10
295.9151496046
 20
175.7172794299
 10
295.6763852583
 20
175.6824878139
 10
295.3812199127
 20
175.7130665434
 10
295.0690992336
 20
175.8169727802
 10
294.7501891167
 20
175.9908222565
 10
294.4348765923
 20
176.2289526251
 10
294.1334315159
 20
176.5236078843
 10
293.8556720745
 20
176.8651909942
 10
293.6106450046
 20
177.242576456
 10
293.4063309361
 20
177.6434726736
 10
293.2493844602
 20
178.0548222964
 10
293.1449173866
 20
178.4632275024
 10
293.0963322498
 20
178.85538637
 10
293.1052114871
 20
179.2185261276
 10
293.1712658982
 20
179.5408191677
 10
293.2923440645
 20
179.8117682767
 10
293.452587014
 20
180.0115072517
  0
LWPOLYLINE
  5
1EC
330
1F
100
AcDbEntity
  8
0
  6
Continuous
 62
     8
370
    25
100
AcDbPolyline
 90
       72
 70
   128
 43
0.0
 10
307.267611116
 20
138.9420687543
 10
307.7029730916
 20
139.2051046948
 10
308.55932472
 20
139.7926248232
 10
309.3727808268
 20
140.448184706
 10
310.1417032195
 20
141.1704641327
 10
310.864543391
 20
141.9580085288
 10
311.5398456371
 20
142.8092318846
 10
312.1662499892
 20
143.7224199496
 10
312.7424949521
 20
144.6957336845
 10
313.2674200452
 20
145.7272129651
 10
313.7399681393
 20
146.8147805293
 10
314.1591875854
 20
147.9562461607
 10
314.5242341312
 20
149.1493110996
 10
314.8343726217
 20
150.3915726718
 10
315.0889784792
 20
151.680529128
 10
315.2875389613
 20
153.0135846813
 10
315.4296541937
 20
154.3880547353
 10
315.5150379752
 20
155.8011712902
 10
315.5435183543
 20
157.2500885173
 10
315.5150379752
 20
158.7318884902
 10
315.4296541937
 20
160.2435870608
 10
315.2875389613
 20
161.7821398696
 10
315.0889784792
 20
163.3444484757
 10
314.8343726217
 20
164.9273665978
 10
314.5242341312
 20
166.5277064492
 10
314.1591875854
 20
168.1422451586
 10
313.7399681393
 20
169.7677312598
 10
313.2674200452
 20
171.4008912401
 10
312.7424949521
 20
173.0384361328
 10
312.1662499892
 20
174.6770681402
 10
311.5398456371
 20
176.3134872757
 10
310.864543391
 20
177.9443980088
 10
310.1417032195
 20
179.5665159024
 10
309.3727808268
 20
181.1765742269
 10
308.55932472
 20
182.7713305392
 10
307.7029730916
 20
184.3475732122
 10
306.8054505198
 20
185.902127903
 10
305.8685644955
 20
187.4318639453
 10
304.8942017826
 20
188.9337006543
 10
303.8843246179
 20
190.4046135308
 10
302.8409667596
 20
191.8416403519
 10
301.7662293916
 20
193.2418871369
 10
300.6622768919
 20
194.6025339751
 10
299.5313324739
 20
195.9208407049
 10
298.3756737092
 20
197.194152432
 10
297.1976279407
 20
198.4199048759
 10
295.9995675958
 20
199.5956295344
 10
294.7839054087
 20
200.7189586545
 10
293.5530895611
 20
201.7876300008
 10
292.3095987524
 20
202.7994914116
 10
291.0559372076
 20
203.7525051324
 10
289.7946296343
 20
204.6447519207
 10
288.5282161379
 20
205.47443491
 10
287.2592471068
 20
206.2398832292
 10
285.9902780757
 20
206.9395553673
 10
284.7238645794
 20
207.5720422778
 10
283.462557006
 20
208.136070216
 10
282.2088954612
 20
208.630503305
 10
280.9654046526
 20
209.0543458221
 10
279.734588805
 20
209.4067442051
 10
278.5189266179
 20
209.6869887703
 10
277.320866273
 20
209.8945151427
 10
276.1428205045
 20
210.0289053916
 10
274.9871617398
 20
210.0898888731
 10
273.8562173218
 20
210.0773427744
 10
272.7522648221
 20
209.9912923618
 10
271.677527454
 20
209.8319109294
 10
270.6341695957
 20
209.59951945
 10
269.624292431
 20
209.2945859294
 10
268.6499297181
 20
208.9177244629
 10
267.7130436939
 20
208.4696939994
 10
267.254948873
 20
208.2167836123
  0
LWPOLYLINE
  5
1ED
330
1F
100
AcDbEntity
  8
0
  6
Continuous
 62
     8
370
    25
100
AcDbPolyline
 90
       72
 70
   128
 43
0.0
 10
282.10018818
 20
216.7867541824
 10
282.5622860988
 20
217.0419791736
 10
283.4991721231
 20
217.490009637
 10
284.4735348359
 20
217.8668711035
 10
285.4834120006
 20
218.1718046242
 10
286.5267698589
 20
218.4041961035
 10
287.601507227
 20
218.5635775359
 10
288.7054597267
 20
218.6496279485
 10
289.8364041447
 20
218.6621740472
 10
290.9920629094
 20
218.6011905658
 10
292.1701086779
 20
218.4668003168
 10
293.3681690228
 20
218.2592739445
 10
294.5838312099
 20
217.9790293792
 10
295.8146470575
 20
217.6266309963
 10
297.0581378662
 20
217.2027884791
 10
298.3117994109
 20
216.7083553902
 10
299.5731069843
 20
216.1443274519
 10
300.8395204806
 20
215.5118405415
 10
302.1084895117
 20
214.8121684033
 10
303.3774585429
 20
214.0467200841
 10
304.6438720392
 20
213.2170370948
 10
305.9051796126
 20
212.3247903066
 10
307.1588411573
 20
211.3717765857
 10
308.402331966
 20
210.359915175
 10
309.6331478136
 20
209.2912438286
 10
310.8488100007
 20
208.1679147085
 10
312.0468703456
 20
206.99219005
 10
313.2249161141
 20
205.7664376061
 10
314.3805748788
 20
204.4931258791
 10
315.5115192968
 20
203.1748191493
 10
316.6154717965
 20
201.8141723111
 10
317.6902091645
 20
200.413925526
 10
318.7335670228
 20
198.9768987049
 10
319.7434441875
 20
197.5059858285
 10
320.7178069004
 20
196.0041491195
 10
321.6546929247
 20
194.4744130771
 10
322.5522154965
 20
192.9198583864
 10
323.4085671249
 20
191.3436157133
 10
324.2220232317
 20
189.7488594011
 10
324.9909456245
 20
188.1388010766
 10
325.7137857959
 20
186.5166831829
 10
326.389088042
 20
184.8857724498
 10
327.0154923941
 20
183.2493533144
 10
327.591737357
 20
181.6107213069
 10
328.1166624502
 20
179.9731764143
 10
328.5892105443
 20
178.3400164339
 10
329.0084299903
 20
176.7145303327
 10
329.3734765361
 20
175.0999916234
 10
329.6836150266
 20
173.4996517719
 10
329.9382208841
 20
171.9167336499
 10
330.1367813662
 20
170.3544250437
 10
330.2788965986
 20
168.815872235
 10
330.3642803801
 20
167.3041736643
 10
330.3927607592
 20
165.8223736914
 10
330.3642803801
 20
164.3734564643
 10
330.2788965986
 20
162.9603399095
 10
330.1367813662
 20
161.5858698555
 10
329.9382208841
 20
160.2528143021
 10
329.6836150266
 20
158.963857846
 10
329.3734765361
 20
157.7215962737
 10
329.0084299903
 20
156.5285313349
 10
328.5892105443
 20
155.3870657034
 10
328.1166624502
 20
154.2994981392
 10
327.591737357
 20
153.2680188587
 10
327.0154923941
 20
152.2947051237
 10
326.389088042
 20
151.3815170587
 10
325.7137857959
 20
150.5302937029
 10
324.9909456245
 20
149.7427493068
 10
324.2220232317
 20
149.0204698801
 10
323.4085671249
 20
148.3649099974
 10
322.5522154965
 20
147.7773898689
 10
322.1145534814
 20
147.5130237952
  0
LWPOLYLINE
  5
1EE
330
1F
100
AcDbEntity
  8
0
  6
Continuous
 62
     8
370
    25
100
AcDbPolyline
 90
       69
 70
   128
 43
0.0
 10
315.5205961905
 20
149.4991783098
 10
315.7553831867
 20
149.6217736595
 10
316.5896126939
 20
150.1151416695
 10
317.3824033124
 20
150.6774977009
 10
318.1319315985
 20
151.3075483167
 10
318.836473613
 20
152.0038443803
 10
319.4944088867
 20
152.7647843885
 10
320.1042241475
 20
153.5886181549
 10
320.6645168006
 20
154.4734508354
 10
321.173998155
 20
155.4172472865
 10
321.6314963873
 20
156.4178367461
 10
322.0359592369
 20
157.4729178264
 10
322.3864564263
 20
158.580063807
 10
322.6821818007
 20
159.7367282168
 10
322.9224551822
 20
160.9402506906
 10
323.1067239344
 20
162.1878630881
 10
323.2345642333
 20
163.4766958607
 10
323.305682042
 20
164.8037846519
 10
323.3199137873
 20
166.1660771148
 10
323.2772267358
 20
167.5604399332
 10
323.1777190691
 20
168.9836660279
 10
323.0216196579
 20
170.4324819332
 10
322.8092875359
 20
171.9035553262
 10
322.5412110738
 20
173.3935026909
 10
322.2180068561
 20
174.8988971006
 10
321.8404182628
 20
176.4162761
 10
321.4093137597
 20
177.9421496686
 10
320.9256849011
 20
179.4730082485
 10
320.3906440488
 20
181.0053308158
 10
319.805421814
 20
182.5355929795
 10
319.1713642264
 20
184.0602750875
 10
318.4899296389
 20
185.5758703223
 10
317.762685373
 20
187.0788927662
 10
316.9913041136
 20
188.5658854193
 10
316.1775600624
 20
190.033428151
 10
315.3233248568
 20
191.4781455659
 10
314.4305632652
 20
192.8967147677
 10
313.5013286678
 20
194.2858730017
 10
312.5377583339
 20
195.6424251596
 10
311.5420685063
 20
196.9632511278
 10
310.5165493034
 20
198.2453129643
 10
309.4635594523
 20
199.4856618858
 10
308.3855208633
 20
200.6814450501
 10
307.2849130598
 20
201.8299121175
 10
306.1642674749
 20
202.9284215769
 10
305.0261616295
 20
203.9744468215
 10
303.8732132035
 20
204.9655819597
 10
302.7080740151
 20
205.8995473488
 10
301.5334239218
 20
206.7741948385
 10
300.3519646566
 20
207.5875127116
 10
299.1664136136
 20
208.337630311
 10
297.9794975981
 20
209.022822342
 10
296.793946555
 20
209.6415128411
 10
295.6124872898
 20
210.1922788002
 10
294.4378371965
 20
210.6738534401
 10
293.2726980082
 20
211.0851291237
 10
292.1197495821
 20
211.4251599036
 10
290.9816437367
 20
211.6931636982
 10
289.8609981519
 20
211.8885240902
 10
288.7603903483
 20
212.0107917444
 10
287.6823517594
 20
212.0596854413
 10
286.6293619082
 20
212.0350927238
 10
285.6038427053
 20
211.937070156
 10
284.6081528777
 20
211.7658431928
 10
283.6445825439
 20
211.5218056619
 10
282.7153479465
 20
211.2055188573
 10
281.8225863548
 20
210.8177102489
 10
280.9683511492
 20
210.3592718088
 10
280.5555587251
 20
210.1034095585
  0
LWPOLYLINE
  5
1EF
330
1F
100
AcDbEntity
  8
0
  6
Continuous
 62
     8
370
    25
100
AcDbPolyline
 90
       62
 70
   128
 43
0.0
 10
283.4245322557
 20
209.3503480874
 10
284.1210275083
 20
209.6083065705
 10
285.0447289516
 20
209.8744901311
 10
286.0015362325
 20
210.0678338114
 10
286.9891078832
 20
210.187864467
 10
288.0050271504
 20
210.2342883628
 10
289.0468079094
 20
210.2069918917
 10
290.1119007481
 20
210.1060418527
 10
291.1976992059
 20
209.9316852876
 10
292.301546152
 20
209.684348876
 10
293.420740288
 20
209.3646378916
 10
294.5525427582
 20
208.9733347207
 10
295.6941838523
 20
208.5113969478
 10
296.8428697833
 20
207.9799550121
 10
297.9957895243
 20
207.3803094409
 10
299.1501216873
 20
206.7139276675
 10
300.3030414283
 20
205.9824404397
 10
301.4517273593
 20
205.1876378295
 10
302.5933684534
 20
204.3314648518
 10
303.7251709236
 20
203.4160167056
 10
304.8443650596
 20
202.4435336458
 10
305.9482120057
 20
201.4163955013
 10
307.0340104635
 20
200.3371158515
 10
308.0991033022
 20
199.2083358744
 10
309.1408840613
 20
198.0328178838
 10
310.1568033285
 20
196.8134385691
 10
311.1443749792
 20
195.553181956
 10
312.1011822601
 20
194.2551321035
 10
313.0248837034
 20
192.9224655572
 10
313.9132188569
 20
191.5584435753
 10
314.7640138157
 20
190.1664041483
 10
315.5751865418
 20
188.7497538299
 10
316.3447519598
 20
187.3119594008
 10
317.0708268141
 20
185.8565393849
 10
317.7516342778
 20
184.3870554388
 10
318.3855083009
 20
182.9071036362
 10
318.9708976877
 20
181.4203056669
 10
319.506369892
 20
179.9302999748
 10
319.9906145237
 20
178.4407328535
 10
320.4224465551
 20
176.9552495233
 10
320.8008092208
 20
175.4774852109
 10
321.1247766039
 20
174.0110562531
 10
321.393555902
 20
172.5595512475
 10
321.6064893671
 20
171.1265222698
 10
321.7630559153
 20
169.7154761823
 10
321.862872402
 20
168.3298660511
 10
321.9056945596
 20
166.9730826964
 10
321.8914175951
 20
165.6484463944
 10
321.8200764466
 20
164.3591987521
 10
321.6918456979
 20
163.1084947746
 10
321.507039151
 20
161.8993951441
 10
321.2661090586
 20
160.7348587299
 10
320.969645017
 20
159.6177353479
 10
320.6183725233
 20
158.550758786
 10
320.2131512003
 20
157.5365401149
 10
319.7549726924
 20
156.5775612975
 10
319.2449582391
 20
155.6761691156
 10
318.6843559314
 20
154.834569427
 10
318.0745376569
 20
154.0548217673
 10
317.4169957433
 20
153.3388343094
 10
316.7133393058
 20
152.6883591948
 10
316.2943426706
 20
152.3491107051
  0
LWPOLYLINE
  5
1F0
330
1F
100
AcDbEntity
  8
0
  6
Continuous
 62
     8
370
    25
100
AcDbPolyline
 90
       42
 70
   128
 43
0.0
 10
316.9878846996
 20
160.8905757239
 10
317.1503453832
 20
161.5734875394
 10
317.3634680362
 20
162.6982929507
 10
317.5202160852
 20
163.8667346022
 10
317.6201669651
 20
165.0756625819
 10
317.6630512261
 20
166.3218178336
 10
317.6487532599
 20
167.6018409431
 10
317.5773116111
 20
168.9122811943
 10
317.4489188738
 20
170.2496058721
 10
317.2639211722
 20
171.6102097856
 10
317.0228172273
 20
172.9904249871
 10
316.7262570128
 20
174.3865306604
 10
316.3750400026
 20
175.7947631517
 10
315.9701130155
 20
177.2113261149
 10
315.5125676633
 20
178.6324007468
 10
315.0036374073
 20
180.0541560814
 10
314.4446942334
 20
181.4727593177
 10
313.8372449537
 20
182.8843861523
 10
313.182927144
 20
184.2852310886
 10
312.4835047294
 20
185.6715176965
 10
311.7408632291
 20
187.0395087923
 10
310.9570046734
 20
188.3855165139
 10
310.1340422062
 20
189.7059122625
 10
309.2741943889
 20
190.9971364845
 10
308.3797792192
 20
192.2557082677
 10
307.4532078823
 20
193.4782347252
 10
306.4969782506
 20
194.6614201417
 10
305.5136681502
 20
195.8020748585
 10
304.5059284113
 20
196.8971238722
 10
303.4764757221
 20
197.9436151243
 10
302.428085305
 20
198.9387274593
 10
301.3635834351
 20
199.8797782303
 10
300.2858398214
 20
200.7642305308
 10
299.1977598701
 20
201.5897000339
 10
298.1022768524
 20
202.3539614195
 10
297.0023439968
 20
203.0549543743
 10
295.9009265277
 20
203.690789145
 10
294.8009936721
 20
204.2597516336
 10
293.7055106544
 20
204.7603080178
 10
292.6174307031
 20
205.1911088861
 10
291.5396870894
 20
205.5509928755
 10
291.114757715
 20
205.6741395585
  0
LINE
  5
1F1
330
1F
100
AcDbEntity
  8
0
  6
Continuous
 62
     8
370
    25
100
AcDbLine
 10
295.8245157471
 20
175.6426846119
 30
0.0
 11
295.685602916
 21
175.5624919415
 31
0.0
  0
LINE
  5
1F2
330
1F
100
AcDbEntity
  8
0
  6
Continuous
 62
     8
370
    25
100
AcDbLine
 10
293.1894759223
 20
179.885910704
 30
0.0
 11
293.3287944772
 21
179.9663375939
 31
0.0
  0
LINE
  5
1F3
330
1F
100
AcDbEntity
  8
0
  6
Continuous
 62
     8
370
    25
100
AcDbLine
 10
295.68581705
 20
153.7007202935
 30
0.0
 11
293.1894759223
 21
152.2596132352
 31
0.0
  0
LINE
  5
1F4
330
1F
100
AcDbEntity
  8
0
  6
Continuous
 62
     8
370
    25
100
AcDbLine
 10
271.7618234858
 20
189.3733958331
 30
0.0
 11
274.2581420282
 21
190.8144898531
 31
0.0
  0
LINE
  5
1F5
330
1F
100
AcDbEntity
  8
0
  6
Continuous
 62
     8
370
    25
100
AcDbLine
 10
290.5542445388
 20
155.1418012846
 30
0.0
 11
294.5070916723
 21
157.4237313625
 31
0.0
  0
LINE
  5
1F6
330
1F
100
AcDbEntity
  8
0
  6
Continuous
 62
     8
370
    25
100
AcDbLine
 10
276.893824364
 20
187.9322887559
 30
0.0
 11
272.9403347878
 21
185.6499878037
 31
0.0
  0
LINE
  5
1F7
330
1F
100
AcDbEntity
  8
0
  6
Continuous
 62
     8
370
    25
100
AcDbLine
 10
294.507091614
 20
173.1964585623
 30
0.0
 11
276.893181863
 21
163.0281649013
 31
0.0
  0
LINE
  5
1F8
330
1F
100
AcDbEntity
  8
0
  6
Continuous
 62
     8
370
    25
100
AcDbLine
 10
272.9403347878
 20
169.87469685
 30
0.0
 11
290.5571086875
 21
180.0446439489
 31
0.0
  0
ENDSEC
  0
SECTION
  2
OBJECTS
  0
DICTIONARY
  5
C
330
0
100
AcDbDictionary
281
     1
  3
ACAD_GROUP
350
D
  3
ACAD_LAYOUT
350
1A
  3
ACAD_MLINESTYLE
350
17
  3
ACAD_PLOTSETTINGS
350
19
  3
ACAD_PLOTSTYLENAME
350
E
  3
ACAD_SCALELIST
350
47
  0
DICTIONARY
  5
D
102
{ACAD_REACTORS
330
C
102
}
330
C
100
AcDbDictionary
281
     1
  0
DICTIONARY
  5
1A
102
{ACAD_REACTORS
330
C
102
}
330
C
100
AcDbDictionary
281
     1
  3
Layout1
350
1E
  3
Layout2
350
26
  3
Model
350
22
  0
DICTIONARY
  5
17
102
{ACAD_REACTORS
330
C
102
}
330
C
100
AcDbDictionary
281
     1
  3
Standard
350
18
  0
DICTIONARY
  5
19
102
{ACAD_REACTORS
330
C
102
}
330
C
100
AcDbDictionary
281
     1
  0
ACDBDICTIONARYWDFLT
  5
E
102
{ACAD_REACTORS
330
C
102
}
330
C
100
AcDbDictionary
281
     1
  3
Normal
350
F
100
AcDbDictionaryWithDefault
340
F
  0
DICTIONARY
  5
47
102
{ACAD_REACTORS
330
C
102
}
330
C
100
AcDbDictionary
281
     1
  3
A0
350
48
  3
A1
350
49
  3
A2
350
4A
  3
A3
350
4B
  3
A4
350
4C
  3
A5
350
4D
  3
A6
350
4E
  3
A7
350
4F
  3
A8
350
50
  3
A9
350
51
  3
B0
350
52
  3
B1
350
53
  3
B2
350
54
  3
B3
350
55
  3
B4
350
56
  3
B5
350
57
  3
B6
350
58
  3
B7
350
59
  3
B8
350
5A
  3
B9
350
5B
  3
C0
350
5C
  3
C1
350
5D
  3
C2
350
5E
  3
C3
350
5F
  3
C4
350
60
  3
C5
350
61
  3
C6
350
62
  3
C7
350
63
  3
C8
350
64
  3
C9
350
65
  3
D0
350
66
  3
D1
350
67
  3
D2
350
68
  0
LAYOUT
  5
1E
102
{ACAD_REACTORS
330
1A
102
}
330
1A
100
AcDbPlotSettings
  1

  2
none_device
  4

  6

 40
0.0
 41
0.0
 42
0.0
 43
0.0
 44
0.0
 45
0.0
 46
0.0
 47
0.0
 48
0.0
 49
0.0
140
0.0
141
0.0
142
1.0
143
1.0
 70
   688
 72
     1
 73
     0
 74
     5
  7

 75
    16
147
1.0
148
0.0
149
0.0
100
AcDbLayout
  1
Layout1
 70
     1
 71
     1
 10
0.0
 20
0.0
 11
420.0
 21
297.0
 12
0.0
 22
0.0
 32
0.0
 14
1.0000000000E+20
 24
1.0000000000E+20
 34
1.0000000000E+20
 15
-1.0000000000E+20
 25
-1.0000000000E+20
 35
-1.0000000000E+20
146
0.0
 13
0.0
 23
0.0
 33
0.0
 16
1.0
 26
0.0
 36
0.0
 17
0.0
 27
1.0
 37
0.0
 76
     0
330
1B
  0
LAYOUT
  5
26
102
{ACAD_REACTORS
330
1A
102
}
330
1A
100
AcDbPlotSettings
  1

  2
none_device
  4

  6

 40
0.0
 41
0.0
 42
0.0
 43
0.0
 44
0.0
 45
0.0
 46
0.0
 47
0.0
 48
0.0
 49
0.0
140
0.0
141
0.0
142
1.0
143
1.0
 70
   688
 72
     1
 73
     0
 74
     5
  7

 75
    16
147
1.0
148
0.0
149
0.0
100
AcDbLayout
  1
Layout2
 70
     1
 71
     2
 10
0.0
 20
0.0
 11
0.0
 21
0.0
 12
0.0
 22
0.0
 32
0.0
 14
0.0
 24
0.0
 34
0.0
 15
0.0
 25
0.0
 35
0.0
146
0.0
 13
0.0
 23
0.0
 33
0.0
 16
1.0
 26
0.0
 36
0.0
 17
0.0
 27
1.0
 37
0.0
 76
     0
330
23
  0
LAYOUT
  5
22
102
{ACAD_REACTORS
330
1A
102
}
330
1A
100
AcDbPlotSettings
  1

  2
none_device
  4
Letter_(8.50_x_11.00_Inches)
  6

 40
6.35
 41
6.35
 42
6.35000508
 43
6.35000508
 44
215.9
 45
279.4
 46
0.0
 47
0.0
 48
0.0
 49
0.0
140
0.0
141
0.0
142
1.0
143
1.0
 70
  1712
 72
     1
 73
     0
 74
     0
  7

 75
     0
147
1.0
148
0.0
149
0.0
100
AcDbLayout
  1
Model
 70
     1
 71
     0
 10
0.0
 20
0.0
 11
420.0
 21
297.0
 12
0.0
 22
0.0
 32
0.0
 14
0.0
 24
0.0
 34
0.0
 15
420.0
 25
297.0
 35
0.0
146
0.0
 13
0.0
 23
0.0
 33
0.0
 16
1.0
 26
0.0
 36
0.0
 17
0.0
 27
1.0
 37
0.0
 76
     0
330
1F
331
29
  0
MLINESTYLE
  5
18
102
{ACAD_REACTORS
330
17
102
}
330
17
100
AcDbMlineStyle
  2
Standard
 70
     0
  3

 62
   256
 51
90.0
 52
90.0
 71
     2
 49
0.5
 62
   256
  6
BYLAYER
 49
-0.5
 62
   256
  6
BYLAYER
  0
ACDBPLACEHOLDER
  5
F
102
{ACAD_REACTORS
330
E
102
}
330
E
  0
SCALE
  5
48
102
{ACAD_REACTORS
330
47
102
}
330
47
100
AcDbScale
 70
     0
300
1:1
140
1.0
141
1.0
290
     1
  0
SCALE
  5
49
102
{ACAD_REACTORS
330
47
102
}
330
47
100
AcDbScale
 70
     0
300
1:2
140
1.0
141
2.0
290
     0
  0
SCALE
  5
4A
102
{ACAD_REACTORS
330
47
102
}
330
47
100
AcDbScale
 70
     0
300
1:4
140
1.0
141
4.0
290
     0
  0
SCALE
  5
4B
102
{ACAD_REACTORS
330
47
102
}
330
47
100
AcDbScale
 70
     0
300
1:5
140
1.0
141
5.0
290
     0
  0
SCALE
  5
4C
102
{ACAD_REACTORS
330
47
102
}
330
47
100
AcDbScale
 70
     0
300
1:8
140
1.0
141
8.0
290
     0
  0
SCALE
  5
4D
102
{ACAD_REACTORS
330
47
102
}
330
47
100
AcDbScale
 70
     0
300
1:10
140
1.0
141
10.0
290
     0
  0
SCALE
  5
4E
102
{ACAD_REACTORS
330
47
102
}
330
47
100
AcDbScale
 70
     0
300
1:16
140
1.0
141
16.0
290
     0
  0
SCALE
  5
4F
102
{ACAD_REACTORS
330
47
102
}
330
47
100
AcDbScale
 70
     0
300
1:20
140
1.0
141
20.0
290
     0
  0
SCALE
  5
50
102
{ACAD_REACTORS
330
47
102
}
330
47
100
AcDbScale
 70
     0
300
1:30
140
1.0
141
30.0
290
     0
  0
SCALE
  5
51
102
{ACAD_REACTORS
330
47
102
}
330
47
100
AcDbScale
 70
     0
300
1:40
140
1.0
141
40.0
290
     0
  0
SCALE
  5
52
102
{ACAD_REACTORS
330
47
102
}
330
47
100
AcDbScale
 70
     0
300
1:50
140
1.0
141
50.0
290
     0
  0
SCALE
  5
53
102
{ACAD_REACTORS
330
47
102
}
330
47
100
AcDbScale
 70
     0
300
1:100
140
1.0
141
100.0
290
     0
  0
SCALE
  5
54
102
{ACAD_REACTORS
330
47
102
}
330
47
100
AcDbScale
 70
     0
300
2:1
140
2.0
141
1.0
290
     0
  0
SCALE
  5
55
102
{ACAD_REACTORS
330
47
102
}
330
47
100
AcDbScale
 70
     0
300
4:1
140
4.0
141
1.0
290
     0
  0
SCALE
  5
56
102
{ACAD_REACTORS
330
47
102
}
330
47
100
AcDbScale
 70
     0
300
8:1
140
8.0
141
1.0
290
     0
  0
SCALE
  5
57
102
{ACAD_REACTORS
330
47
102
}
330
47
100
AcDbScale
 70
     0
300
10:1
140
10.0
141
1.0
290
     0
  0
SCALE
  5
58
102
{ACAD_REACTORS
330
47
102
}
330
47
100
AcDbScale
 70
     0
300
100:1
140
100.0
141
1.0
290
     0
  0
SCALE
  5
59
102
{ACAD_REACTORS
330
47
102
}
330
47
100
AcDbScale
 70
     0
300
1/128" = 1'-0"
140
0.0078125
141
12.0
290
     0
  0
SCALE
  5
5A
102
{ACAD_REACTORS
330
47
102
}
330
47
100
AcDbScale
 70
     0
300
1/64" = 1'-0"
140
0.015625
141
12.0
290
     0
  0
SCALE
  5
5B
102
{ACAD_REACTORS
330
47
102
}
330
47
100
AcDbScale
 70
     0
300
1/32" = 1'-0"
140
0.03125
141
12.0
290
     0
  0
SCALE
  5
5C
102
{ACAD_REACTORS
330
47
102
}
330
47
100
AcDbScale
 70
     0
300
1/16" = 1'-0"
140
0.0625
141
12.0
290
     0
  0
SCALE
  5
5D
102
{ACAD_REACTORS
330
47
102
}
330
47
100
AcDbScale
 70
     0
300
3/32" = 1'-0"
140
0.09375
141
12.0
290
     0
  0
SCALE
  5
5E
102
{ACAD_REACTORS
330
47
102
}
330
47
100
AcDbScale
 70
     0
300
1/8" = 1'-0"
140
0.125
141
12.0
290
     0
  0
SCALE
  5
5F
102
{ACAD_REACTORS
330
47
102
}
330
47
100
AcDbScale
 70
     0
300
3/16" = 1'-0"
140
0.1875
141
12.0
290
     0
  0
SCALE
  5
60
102
{ACAD_REACTORS
330
47
102
}
330
47
100
AcDbScale
 70
     0
300
1/4" = 1'-0"
140
0.25
141
12.0
290
     0
  0
SCALE
  5
61
102
{ACAD_REACTORS
330
47
102
}
330
47
100
AcDbScale
 70
     0
300
3/8" = 1'-0"
140
0.375
141
12.0
290
     0
  0
SCALE
  5
62
102
{ACAD_REACTORS
330
47
102
}
330
47
100
AcDbScale
 70
     0
300
1/2" = 1'-0"
140
0.5
141
12.0
290
     0
  0
SCALE
  5
63
102
{ACAD_REACTORS
330
47
102
}
330
47
100
AcDbScale
 70
     0
300
3/4" = 1'-0"
140
0.75
141
12.0
290
     0
  0
SCALE
  5
64
102
{ACAD_REACTORS
330
47
102
}
330
47
100
AcDbScale
 70
     0
300
1" = 1'-0"
140
1.0
141
12.0
290
     0
  0
SCALE
  5
65
102
{ACAD_REACTORS
330
47
102
}
330
47
100
AcDbScale
 70
     0
300
1-1/2" = 1'-0"
140
1.5
141
12.0
290
     0
  0
SCALE
  5
66
102
{ACAD_REACTORS
330
47
102
}
330
47
100
AcDbScale
 70
     0
300
3" = 1'-0"
140
3.0
141
12.0
290
     0
  0
SCALE
  5
67
102
{ACAD_REACTORS
330
47
102
}
330
47
100
AcDbScale
 70
     0
300
6" = 1'-0"
140
6.0
141
12.0
290
     0
  0
SCALE
  5
68
102
{ACAD_REACTORS
330
47
102
}
330
47
100
AcDbScale
 70
     0
300
1'-0" = 1'-0"
140
12.0
141
12.0
290
     0
  0
ENDSEC
  0
EOF
