  0
SECTION
  2
HEADER
  9
$ACADVER
  1
AC1015
  9
$ACADMAINTVER
 70
     6
  9
$DWGCODEPAGE
  3
ANSI_1252
  9
$INSBASE
 10
0.0
 20
0.0
 30
0.0
  9
$EXTMIN
 10
0.0
 20
0.0
 30
0.0
  9
$EXTMAX
 10
420.0
 20
297.0
 30
0.0
  9
$LIMMIN
 10
0.0
 20
0.0
  9
$LIMMAX
 10
420.0
 20
297.0
  9
$ORTHOMODE
 70
     0
  9
$REGENMODE
 70
     1
  9
$FILLMODE
 70
     1
  9
$QTEXTMODE
 70
     0
  9
$MIRRTEXT
 70
     1
  9
$LTSCALE
 40
1.0
  9
$ATTMODE
 70
     1
  9
$TEXTSIZE
 40
3.5
  9
$TRACEWID
 40
1.0
  9
$TEXTSTYLE
  7
Standard
  9
$CLAYER
  8
0
  9
$CELTYPE
  6
ByLayer
  9
$CECOLOR
 62
   256
  9
$CELTSCALE
 40
1.0
  9
$DISPSILH
 70
     0
  9
$DIMSCALE
 40
1.0
  9
$DIMASZ
 40
3.302
  9
$DIMEXO
 40
1.0
  9
$DIMDLI
 40
3.75
  9
$DIMRND
 40
0.0
  9
$DIMDLE
 40
0.0
  9
$DIMEXE
 40
1.0
  9
$DIMTP
 40
0.0
  9
$DIMTM
 40
0.0
  9
$DIMTXT
 40
3.5
  9
$DIMCEN
 40
2.5
  9
$DIMTSZ
 40
0.0
  9
$DIMTOL
 70
     0
  9
$DIMLIM
 70
     0
  9
$DIMTIH
 70
     1
  9
$DIMTOH
 70
     1
  9
$DIMSE1
 70
     0
  9
$DIMSE2
 70
     0
  9
$DIMTAD
 70
     1
  9
$DIMZIN
 70
     0
  9
$DIMBLK
  1

  9
$DIMASO
 70
     1
  9
$DIMSHO
 70
     1
  9
$DIMPOST
  1

  9
$DIMAPOST
  1

  9
$DIMALT
 70
     0
  9
$DIMALTD
 70
     3
  9
$DIMALTF
 40
0.0393700787
  9
$DIMLFAC
 40
1.0
  9
$DIMTOFL
 70
     1
  9
$DIMTVP
 40
0.0
  9
$DIMTIX
 70
     0
  9
$DIMSOXD
 70
     0
  9
$DIMSAH
 70
     0
  9
$DIMBLK1
  1

  9
$DIMBLK2
  1

  9
$DIMSTYLE
  2
ISO-25
  9
$DIMCLRD
 70
     0
  9
$DIMCLRE
 70
     0
  9
$DIMCLRT
 70
     0
  9
$DIMTFAC
 40
1.0
  9
$DIMGAP
 40
1.524
  9
$DIMJUST
 70
     0
  9
$DIMSD1
 70
     0
  9
$DIMSD2
 70
     0
  9
$DIMTOLJ
 70
     0
  9
$DIMTZIN
 70
     0
  9
$DIMALTZ
 70
     0
  9
$DIMALTTZ
 70
     0
  9
$DIMUPT
 70
     0
  9
$DIMDEC
 70
     2
  9
$DIMTDEC
 70
     2
  9
$DIMALTU
 70
     2
  9
$DIMALTTD
 70
     3
  9
$DIMTXSTY
  7
Standard
  9
$DIMAUNIT
 70
     0
  9
$DIMADEC
 70
     2
  9
$DIMALTRND
 40
0.0
  9
$DIMAZIN
 70
     0
  9
$DIMDSEP
 70
    44
  9
$DIMATFIT
 70
     3
  9
$DIMFRAC
 70
     0
  9
$DIMLDRBLK
  1

  9
$DIMLUNIT
 70
     2
  9
$DIMLWD
 70
    -2
  9
$DIMLWE
 70
    -2
  9
$DIMTMOVE
 70
     0
  9
$LUNITS
 70
     2
  9
$LUPREC
 70
     2
  9
$SKETCHINC
 40
1.0
  9
$FILLETRAD
 40
10.0
  9
$AUNITS
 70
     0
  9
$AUPREC
 70
     2
  9
$MENU
  1
.
  9
$ELEVATION
 40
0.0
  9
$PELEVATION
 40
0.0
  9
$THICKNESS
 40
0.0
  9
$LIMCHECK
 70
     0
  9
$CHAMFERA
 40
0.0
  9
$CHAMFERB
 40
0.0
  9
$CHAMFERC
 40
0.0
  9
$CHAMFERD
 40
0.0
  9
$SKPOLY
 70
     0
  9
$TDCREATE
 40
2460117.079685046
  9
$TDUCREATE
 40
2460116.996351713
  9
$TDUPDATE
 40
2460117.079687593
  9
$TDUUPDATE
 40
2460116.996354259
  9
$TDINDWG
 40
0.0000000116
  9
$TDUSRTIMER
 40
0.0000000116
  9
$USRTIMER
 70
     1
  9
$ANGBASE
 50
0.0
  9
$ANGDIR
 70
     0
  9
$PDMODE
 70
     0
  9
$PDSIZE
 40
-1.0
  9
$PLINEWID
 40
0.0
  9
$SPLFRAME
 70
     0
  9
$SPLINETYPE
 70
     6
  9
$SPLINESEGS
 70
     8
  9
$HANDSEED
  5
175
  9
$SURFTAB1
 70
     6
  9
$SURFTAB2
 70
     6
  9
$SURFTYPE
 70
     6
  9
$SURFU
 70
     6
  9
$SURFV
 70
     6
  9
$UCSBASE
  2

  9
$UCSNAME
  2

  9
$UCSORG
 10
0.0
 20
0.0
 30
0.0
  9
$UCSXDIR
 10
1.0
 20
0.0
 30
0.0
  9
$UCSYDIR
 10
0.0
 20
1.0
 30
0.0
  9
$UCSORTHOREF
  2

  9
$UCSORTHOVIEW
 70
     0
  9
$UCSORGTOP
 10
0.0
 20
0.0
 30
0.0
  9
$UCSORGBOTTOM
 10
0.0
 20
0.0
 30
0.0
  9
$UCSORGLEFT
 10
0.0
 20
0.0
 30
0.0
  9
$UCSORGRIGHT
 10
0.0
 20
0.0
 30
0.0
  9
$UCSORGFRONT
 10
0.0
 20
0.0
 30
0.0
  9
$UCSORGBACK
 10
0.0
 20
0.0
 30
0.0
  9
$PUCSBASE
  2

  9
$PUCSNAME
  2

  9
$PUCSORG
 10
0.0
 20
0.0
 30
0.0
  9
$PUCSXDIR
 10
1.0
 20
0.0
 30
0.0
  9
$PUCSYDIR
 10
0.0
 20
1.0
 30
0.0
  9
$PUCSORTHOREF
  2

  9
$PUCSORTHOVIEW
 70
     0
  9
$PUCSORGTOP
 10
0.0
 20
0.0
 30
0.0
  9
$PUCSORGBOTTOM
 10
0.0
 20
0.0
 30
0.0
  9
$PUCSORGLEFT
 10
0.0
 20
0.0
 30
0.0
  9
$PUCSORGRIGHT
 10
0.0
 20
0.0
 30
0.0
  9
$PUCSORGFRONT
 10
0.0
 20
0.0
 30
0.0
  9
$PUCSORGBACK
 10
0.0
 20
0.0
 30
0.0
  9
$USERI1
 70
     0
  9
$USERI2
 70
     0
  9
$USERI3
 70
     0
  9
$USERI4
 70
     0
  9
$USERI5
 70
     0
  9
$USERR1
 40
0.0
  9
$USERR2
 40
0.0
  9
$USERR3
 40
0.0
  9
$USERR4
 40
0.0
  9
$USERR5
 40
0.0
  9
$WORLDVIEW
 70
     1
  9
$SHADEDGE
 70
     3
  9
$SHADEDIF
 70
    70
  9
$TILEMODE
 70
     1
  9
$MAXACTVP
 70
    64
  9
$PINSBASE
 10
0.0
 20
0.0
 30
0.0
  9
$PLIMCHECK
 70
     0
  9
$PEXTMIN
 10
1.0000000000E+20
 20
1.0000000000E+20
 30
1.0000000000E+20
  9
$PEXTMAX
 10
-1.0000000000E+20
 20
-1.0000000000E+20
 30
-1.0000000000E+20
  9
$PLIMMIN
 10
0.0
 20
0.0
  9
$PLIMMAX
 10
420.0
 20
297.0
  9
$UNITMODE
 70
     0
  9
$VISRETAIN
 70
     1
  9
$PLINEGEN
 70
     0
  9
$PSLTSCALE
 70
     1
  9
$TREEDEPTH
 70
  3020
  9
$CMLSTYLE
  2
Standard
  9
$CMLJUST
 70
     0
  9
$CMLSCALE
 40
20.0
  9
$PROXYGRAPHICS
 70
     1
  9
$MEASUREMENT
 70
     1
  9
$CELWEIGHT
370
    -1
  9
$ENDCAPS
280
     0
  9
$JOINSTYLE
280
     0
  9
$LWDISPLAY
290
     1
  9
$INSUNITS
 70
     4
  9
$HYPERLINKBASE
  1

  9
$STYLESHEET
  1

  9
$XEDIT
290
     1
  9
$CEPSNTYPE
380
     0
  9
$PSTYLEMODE
290
     1
  9
$FINGERPRINTGUID
  2
{67350F1D-C6C8-4BD0-BAC6-7108F3234857}
  9
$VERSIONGUID
  2
{FAEB1C32-E019-11D5-929B-00C0DF256EC4}
  9
$EXTNAMES
290
     1
  9
$PSVPSCALE
 40
0.0
  9
$OLESTARTUP
290
     0
  0
ENDSEC
  0
SECTION
  2
CLASSES
  0
CLASS
  1
ACDBDICTIONARYWDFLT
  2
AcDbDictionaryWithDefault
  3
ObjectDBX Classes
 90
        0
280
     0
281
     0
  0
CLASS
  1
VISUALSTYLE
  2
AcDbVisualStyle
  3
ObjectDBX Classes
 90
     4095
280
     0
281
     0
  0
CLASS
  1
MATERIAL
  2
AcDbMaterial
  3
ObjectDBX Classes
 90
     1153
280
     0
281
     0
  0
CLASS
  1
SCALE
  2
AcDbScale
  3
ObjectDBX Classes
 90
     1153
280
     0
281
     0
  0
CLASS
  1
TABLESTYLE
  2
AcDbTableStyle
  3
ObjectDBX Classes
 90
     4095
280
     0
281
     0
  0
CLASS
  1
MLEADERSTYLE
  2
AcDbMLeaderStyle
  3
ACDB_MLEADERSTYLE_CLASS
 90
     4095
280
     0
281
     0
  0
CLASS
  1
SUN
  2
AcDbSun
  3
SCENEOE
 90
     1153
280
     0
281
     0
  0
CLASS
  1
ACDBPLACEHOLDER
  2
AcDbPlaceHolder
  3
ObjectDBX Classes
 90
        0
280
     0
281
     0
  0
CLASS
  1
LAYOUT
  2
AcDbLayout
  3
ObjectDBX Classes
 90
        0
280
     0
281
     0
  0
ENDSEC
  0
SECTION
  2
TABLES
  0
TABLE
  2
VPORT
  5
8
330
0
100
AcDbSymbolTable
 70
     1
  0
VPORT
  5
29
330
8
100
AcDbSymbolTableRecord
100
AcDbViewportTableRecord
  2
*Active
 70
     0
 10
0.0
 20
0.0
 11
1.0
 21
1.0
 12
210.0
 22
148.5
 13
0.0
 23
0.0
 14
10.0
 24
10.0
 15
10.0
 25
10.0
 16
0.0
 26
0.0
 36
1.0
 17
0.0
 27
0.0
 37
0.0
 40
297.0
 41
1.4141414141
 42
50.0
 43
0.0
 44
0.0
 50
0.0
 51
0.0
 71
     0
 72
  2000
 73
     1
 74
     3
 75
     0
 76
     0
 77
     0
 78
     0
281
     0
 65
     1
110
0.0
120
0.0
130
0.0
111
1.0
121
0.0
131
0.0
112
0.0
122
1.0
132
0.0
 79
     0
146
0.0
  0
ENDTAB
  0
TABLE
  2
LTYPE
  5
5
330
0
100
AcDbSymbolTable
 70
     6
  0
LTYPE
  5
14
330
5
100
AcDbSymbolTableRecord
100
AcDbLinetypeTableRecord
  2
ByBlock
 70
     0
  3

 72
    65
 73
     0
 40
0.0
  0
LTYPE
  5
15
330
5
100
AcDbSymbolTableRecord
100
AcDbLinetypeTableRecord
  2
ByLayer
 70
     0
  3

 72
    65
 73
     0
 40
0.0
  0
LTYPE
  5
16
330
5
100
AcDbSymbolTableRecord
100
AcDbLinetypeTableRecord
  2
Continuous
 70
     0
  3
Solid line
 72
    65
 73
     0
 40
0.0
  0
LTYPE
  5
6E
330
5
100
AcDbSymbolTableRecord
100
AcDbLinetypeTableRecord
  2
HIDDEN
 70
     0
  3
Hidden __ __ __ __ __ __ __ __ __ __ __ __ __ __
 72
    65
 73
     2
 40
1.905
 49
1.27
 74
     0
 49
-0.635
 74
     0
  0
LTYPE
  5
6F
330
5
100
AcDbSymbolTableRecord
100
AcDbLinetypeTableRecord
  2
PHANTOM
 70
     0
  3
Phantom ______  __  __  ______  __  __  ______
 72
    65
 73
     6
 40
12.7
 49
6.35
 74
     0
 49
-1.27
 74
     0
 49
1.27
 74
     0
 49
-1.27
 74
     0
 49
1.27
 74
     0
 49
-1.27
 74
     0
  0
LTYPE
  5
70
330
5
100
AcDbSymbolTableRecord
100
AcDbLinetypeTableRecord
  2
CENTER
 70
     0
  3
Center ____ _ ____ _ ____ _ ____ _ ____ _ ____
 72
    65
 73
     4
 40
10.16
 49
6.35
 74
     0
 49
-1.27
 74
     0
 49
1.27
 74
     0
 49
-1.27
 74
     0
  0
LTYPE
  5
71
330
5
100
AcDbSymbolTableRecord
100
AcDbLinetypeTableRecord
  2
CENTERX2
 70
     0
  3
Center (2x) ________  __  ________  __  _____
 72
    65
 73
     4
 40
20.32
 49
12.7
 74
     0
 49
-2.54
 74
     0
 49
2.54
 74
     0
 49
-2.54
 74
     0
  0
LTYPE
  5
72
330
5
100
AcDbSymbolTableRecord
100
AcDbLinetypeTableRecord
  2
DOT2
 70
     0
  3
Dot (.5x) ........................................
 72
    65
 73
     2
 40
0.635
 49
0.0
 74
     0
 49
-0.635
 74
     0
  0
ENDTAB
  0
TABLE
  2
LAYER
  5
2
330
0
100
AcDbSymbolTable
 70
     2
  0
LAYER
  5
10
330
2
100
AcDbSymbolTableRecord
100
AcDbLayerTableRecord
  2
0
 70
     0
 62
     7
  6
Continuous
370
    -3
390
F
  0
LAYER
  5
73
330
2
100
AcDbSymbolTableRecord
100
AcDbLayerTableRecord
  2
FORMAT
 70
     0
 62
     7
  6
Continuous
370
    -3
390
F
  0
ENDTAB
  0
TABLE
  2
STYLE
  5
3
330
0
100
AcDbSymbolTable
 70
     3
  0
STYLE
  5
11
330
3
100
AcDbSymbolTableRecord
100
AcDbTextStyleTableRecord
  2
Standard
 70
     0
 40
0.0
 41
1.0
 50
0.0
 71
     0
 42
3.5
  3
txt
  4

  0
STYLE
  5
91
330
3
100
AcDbSymbolTableRecord
100
AcDbTextStyleTableRecord
  2
SLDTEXTSTYLE0
 70
     0
 40
0.0
 41
0.75
 50
0.0
 71
     0
 42
3.5
  3
TXT
  4

  0
STYLE
  5
E5
330
3
100
AcDbSymbolTableRecord
100
AcDbTextStyleTableRecord
  2
SLDTEXTSTYLE1
 70
     0
 40
0.0
 41
0.663
 50
0.0
 71
     0
 42
3.5
  3
TXT
  4

  0
ENDTAB
  0
TABLE
  2
VIEW
  5
6
330
0
100
AcDbSymbolTable
 70
     0
  0
ENDTAB
  0
TABLE
  2
UCS
  5
7
330
0
100
AcDbSymbolTable
 70
     0
  0
ENDTAB
  0
TABLE
  2
APPID
  5
9
330
0
100
AcDbSymbolTable
 70
     1
  0
APPID
  5
12
330
9
100
AcDbSymbolTableRecord
100
AcDbRegAppTableRecord
  2
ACAD
 70
     0
  0
ENDTAB
  0
TABLE
  2
DIMSTYLE
  5
A
330
0
100
AcDbSymbolTable
 70
     4
100
AcDbDimStyleTable
  0
DIMSTYLE
105
27
330
A
100
AcDbSymbolTableRecord
100
AcDbDimStyleTableRecord
  2
ISO-25
 70
     0
 41
2.5
 42
0.625
 43
3.75
 44
1.25
 73
     0
 74
     0
 77
     1
 78
     8
140
2.5
141
2.5
143
0.0393700787
147
0.625
171
     3
172
     1
178
     0
271
     2
272
     2
274
     3
278
    44
283
     0
284
     8
340
11
  0
DIMSTYLE
105
11F
102
{ACAD_REACTORS
330
11E
330
12B
102
}
330
A
100
AcDbSymbolTableRecord
100
AcDbDimStyleTableRecord
  2
SLDDIMSTYLE0
 70
     0
 41
3.302
 44
0.0
 45
0.000000001
 73
     0
 74
     0
 77
     1
 78
    12
 79
     3
140
3.5
141
0.0
147
0.875
172
     1
173
     1
178
     0
271
     2
272
     2
276
     2
284
    12
340
91
341
120
343
120
  0
DIMSTYLE
105
153
102
{ACAD_REACTORS
330
152
102
}
330
A
100
AcDbSymbolTableRecord
100
AcDbDimStyleTableRecord
  2
SLDDIMSTYLE1
 70
     0
 41
3.302
 44
0.0
 73
     0
 74
     0
 77
     1
 78
    12
 79
     3
140
3.5
147
0.875
173
     1
178
     0
179
     2
272
     2
276
     2
284
    12
340
91
  0
DIMSTYLE
105
160
102
{ACAD_REACTORS
330
15F
102
}
330
A
100
AcDbSymbolTableRecord
100
AcDbDimStyleTableRecord
  2
SLDDIMSTYLE2
 70
     0
 41
3.302
 44
0.0
 45
0.000000001
 73
     0
 74
     0
 77
     1
 78
    12
 79
     3
140
3.5
147
0.875
172
     1
173
     1
178
     0
271
     2
272
     2
276
     2
284
    12
289
     0
340
91
  0
ENDTAB
  0
TABLE
  2
BLOCK_RECORD
  5
1
330
0
100
AcDbSymbolTable
 70
    10
  0
BLOCK_RECORD
  5
1F
330
1
100
AcDbSymbolTableRecord
100
AcDbBlockTableRecord
  2
*Model_Space
340
22
  0
BLOCK_RECORD
  5
1B
330
1
100
AcDbSymbolTableRecord
100
AcDbBlockTableRecord
  2
*Paper_Space
340
1E
  0
BLOCK_RECORD
  5
23
330
1
100
AcDbSymbolTableRecord
100
AcDbBlockTableRecord
  2
*Paper_Space0
340
26
  0
BLOCK_RECORD
  5
74
330
1
100
AcDbSymbolTableRecord
100
AcDbBlockTableRecord
  2
Bloc cartouche polivalent
340
0
102
{BLKREFS
331
DE
102
}
  0
BLOCK_RECORD
  5
93
330
1
100
AcDbSymbolTableRecord
100
AcDbBlockTableRecord
  2
SW_NOTE_0
340
0
102
{BLKREFS
331
98
102
}
  0
BLOCK_RECORD
  5
9F
330
1
100
AcDbSymbolTableRecord
100
AcDbBlockTableRecord
  2
SW_NOTE_1
340
0
102
{BLKREFS
331
A8
102
}
  0
BLOCK_RECORD
  5
120
330
1
100
AcDbSymbolTableRecord
100
AcDbBlockTableRecord
  2
_NONE
340
0
  0
BLOCK_RECORD
  5
123
330
1
100
AcDbSymbolTableRecord
100
AcDbBlockTableRecord
  2
_D
340
0
  0
BLOCK_RECORD
  5
12C
330
1
100
AcDbSymbolTableRecord
100
AcDbBlockTableRecord
  2
_D_1
340
0
  0
BLOCK_RECORD
  5
134
330
1
100
AcDbSymbolTableRecord
100
AcDbBlockTableRecord
  2
SW_CENTERMARKSYMBOL_0
340
0
102
{BLKREFS
331
13F
102
}
  0
BLOCK_RECORD
  5
154
330
1
100
AcDbSymbolTableRecord
100
AcDbBlockTableRecord
  2
_D_2
340
0
  0
BLOCK_RECORD
  5
161
330
1
100
AcDbSymbolTableRecord
100
AcDbBlockTableRecord
  2
_D_3
340
0
  0
ENDTAB
  0
ENDSEC
  0
SECTION
  2
BLOCKS
  0
BLOCK
  5
20
330
1F
100
AcDbEntity
  8
0
100
AcDbBlockBegin
  2
*Model_Space
 70
     0
 10
0.0
 20
0.0
 30
0.0
  3
*Model_Space
  1

  0
ENDBLK
  5
21
330
1F
100
AcDbEntity
  8
0
100
AcDbBlockEnd
  0
BLOCK
  5
1C
330
1B
100
AcDbEntity
 67
     1
  8
0
100
AcDbBlockBegin
  2
*Paper_Space
 70
     0
 10
0.0
 20
0.0
 30
0.0
  3
*Paper_Space
  1

  0
ENDBLK
  5
1D
330
1B
100
AcDbEntity
 67
     1
  8
0
100
AcDbBlockEnd
  0
BLOCK
  5
24
330
23
100
AcDbEntity
  8
0
100
AcDbBlockBegin
  2
*Paper_Space0
 70
     0
 10
0.0
 20
0.0
 30
0.0
  3
*Paper_Space0
  1

  0
ENDBLK
  5
25
330
23
100
AcDbEntity
  8
0
100
AcDbBlockEnd
  0
BLOCK
  5
75
330
74
100
AcDbEntity
  8
0
100
AcDbBlockBegin
  2
Bloc cartouche polivalent
 70
     2
 10
0.0
 20
0.0
 30
0.0
  3
Bloc cartouche polivalent
  1

  0
CIRCLE
  5
77
330
74
100
AcDbEntity
  8
0
  6
Continuous
 62
     7
370
    18
100
AcDbCircle
 10
515.6701611947
 20
62.7586473129
 30
0.0
 40
2.017029278742118
  0
CIRCLE
  5
78
330
74
100
AcDbEntity
  8
0
  6
Continuous
 62
     7
370
    18
100
AcDbCircle
 10
515.6701611947
 20
62.7586473129
 30
0.0
 40
1.118718805257745
  0
LINE
  5
79
330
74
100
AcDbEntity
  8
0
  6
Continuous
 62
     7
370
    18
100
AcDbLine
 10
506.045423658
 20
63.8110104148
 30
0.0
 11
506.045423658
 21
61.8816780612
 31
0.0
  0
LINE
  5
7A
330
74
100
AcDbEntity
  8
0
  6
Continuous
 62
     7
370
    18
100
AcDbLine
 10
506.045423658
 20
61.8816780612
 30
0.0
 11
509.4217552768
 21
60.7416180341
 31
0.0
  0
LINE
  5
7B
330
74
100
AcDbEntity
  8
0
  6
Continuous
 62
     7
370
    18
100
AcDbLine
 10
509.4217552768
 20
60.7416180341
 30
0.0
 11
509.4217552768
 21
64.7756765916
 31
0.0
  0
LINE
  5
7C
330
74
100
AcDbEntity
  8
0
  6
Continuous
 62
     7
370
    18
100
AcDbLine
 10
509.4217552768
 20
64.7756765916
 30
0.0
 11
506.045423658
 21
63.8110104148
 31
0.0
  0
LINE
  5
7D
330
74
100
AcDbEntity
  8
0
  6
CENTERX2
 62
     7
370
    18
100
AcDbLine
 10
504.37918208
 20
62.7586473129
 30
0.0
 11
510.7372091542
 21
62.7586473129
 31
0.0
  0
LINE
  5
7E
330
74
100
AcDbEntity
  8
0
  6
CENTERX2
 62
     7
370
    18
100
AcDbLine
 10
512.9734807459
 20
62.7586473129
 30
0.0
 11
518.3668416434
 21
62.7586473129
 31
0.0
  0
LINE
  5
7F
330
74
100
AcDbEntity
  8
0
  6
CENTERX2
 62
     7
370
    18
100
AcDbLine
 10
515.6701611947
 20
65.3457066052
 30
0.0
 11
515.6701611947
 21
60.1715880206
 31
0.0
  0
LINE
  5
80
330
74
100
AcDbEntity
  8
0
  6
Continuous
 62
     7
370
    50
100
AcDbLine
 10
521.7623326247
 20
59.7972409843
 30
0.0
 11
521.7623326247
 21
66.1722409843
 31
0.0
  0
LINE
  5
81
330
74
100
AcDbEntity
  8
0
  6
Continuous
 62
     7
370
    50
100
AcDbLine
 10
457.9256896205
 20
15.2176620386
 30
0.0
 11
583.3256896205
 21
15.1104259912
 31
0.0
  0
LINE
  5
82
330
74
100
AcDbEntity
  8
0
  6
Continuous
 62
     7
370
    50
100
AcDbLine
 10
583.3256896205
 20
49.1104259912
 30
0.0
 11
457.9256896205
 21
49.1104259912
 31
0.0
  0
LINE
  5
83
330
74
100
AcDbEntity
  8
0
  6
Continuous
 62
     7
370
    50
100
AcDbLine
 10
457.9256896205
 20
66.1104259912
 30
0.0
 11
583.3256896205
 21
66.1104259912
 31
0.0
  0
LINE
  5
84
330
74
100
AcDbEntity
  8
0
  6
Continuous
 62
     7
370
    50
100
AcDbLine
 10
457.9256896205
 20
10.8604259912
 30
0.0
 11
457.9256896205
 21
27.8604259912
 31
0.0
  0
LINE
  5
85
330
74
100
AcDbEntity
  8
0
  6
Continuous
 62
     7
370
    50
100
AcDbLine
 10
502.1256896205
 20
43.8789075439
 30
0.0
 11
457.9256896205
 21
43.8789075439
 31
0.0
  0
LINE
  5
86
330
74
100
AcDbEntity
  8
0
  6
Continuous
 62
     7
370
    50
100
AcDbLine
 10
457.9256896205
 20
27.8604259912
 30
0.0
 11
457.9256896205
 21
66.1104259912
 31
0.0
  0
LINE
  5
87
330
74
100
AcDbEntity
  8
0
  6
Continuous
 62
     7
370
    50
100
AcDbLine
 10
489.3259692552
 20
66.1104259912
 30
0.0
 11
489.3259692552
 21
49.1104259912
 31
0.0
  0
LINE
  5
88
330
74
100
AcDbEntity
  8
0
  6
Continuous
 62
     7
370
    50
100
AcDbLine
 10
457.9256896205
 20
27.8604259912
 30
0.0
 11
583.3256896205
 21
27.8604259912
 31
0.0
  0
LINE
  5
89
330
74
100
AcDbEntity
  8
0
  6
Continuous
 62
     7
370
    50
100
AcDbLine
 10
502.1256896205
 20
66.1104259912
 30
0.0
 11
502.1256896205
 21
10.8604259912
 31
0.0
  0
LINE
  5
8A
330
74
100
AcDbEntity
  8
0
  6
Continuous
 62
     7
370
    50
100
AcDbLine
 10
546.3256896205
 20
10.8604259912
 30
0.0
 11
546.3256896205
 21
15.1104259912
 31
0.0
  0
LINE
  5
8B
330
74
100
AcDbEntity
  8
0
  6
Continuous
 62
     7
370
    50
100
AcDbLine
 10
554.1256896205
 20
59.7354259912
 30
0.0
 11
554.1256896205
 21
66.1104259912
 31
0.0
  0
LINE
  5
8C
330
74
100
AcDbEntity
  8
0
  6
Continuous
 62
     7
370
    50
100
AcDbLine
 10
570.3256896205
 20
15.1104259912
 30
0.0
 11
570.3256896205
 21
27.8604259912
 31
0.0
  0
LINE
  5
8D
330
74
100
AcDbEntity
  8
0
  6
Continuous
 62
     7
370
    50
100
AcDbLine
 10
583.3256896205
 20
59.7354259912
 30
0.0
 11
502.1256896205
 21
59.7354259912
 31
0.0
  0
LINE
  5
8E
330
74
100
AcDbEntity
  8
0
  6
Continuous
 62
     7
370
    50
100
AcDbLine
 10
583.3256896205
 20
19.3604259912
 30
0.0
 11
570.3256896205
 21
19.3604259912
 31
0.0
  0
LINE
  5
8F
330
74
100
AcDbEntity
  8
0
  6
Continuous
 62
     7
370
    50
100
AcDbLine
 10
516.0476902944
 20
10.9676620386
 30
0.0
 11
516.0476902944
 21
15.2176620386
 31
0.0
  0
LINE
  5
90
330
74
100
AcDbEntity
  8
0
  6
Continuous
 62
     7
370
    50
100
AcDbLine
 10
502.1256896205
 20
35.3200130963
 30
0.0
 11
457.9256896205
 21
35.3200130963
 31
0.0
  0
MTEXT
  5
92
330
74
100
AcDbEntity
  8
0
  6
Continuous
 62
     7
370
     0
100
AcDbMText
 10
460.1865425142
 20
42.302662402
 30
0.0
 40
1.5
 41
0.0
 71
     1
 72
     1
  1
FINITION:
  7
SLDTEXTSTYLE0
 73
     1
 44
1.0
  0
INSERT
  5
98
330
74
100
AcDbEntity
  8
0
  6
Continuous
 62
     7
370
     0
100
AcDbBlockReference
  2
SW_NOTE_0
 10
490.0565064879
 20
60.8154410921
 30
0.0
  0
MTEXT
  5
99
330
74
100
AcDbEntity
  8
0
  6
Continuous
 62
     7
370
     0
100
AcDbMText
 10
459.2437036703
 20
26.6054405513
 30
0.0
 40
1.5
 41
0.0
 71
     1
 72
     1
  1
MATERIAU:
  7
SLDTEXTSTYLE0
 73
     1
 44
1.0
  0
MTEXT
  5
9A
330
74
100
AcDbEntity
  8
0
  6
Continuous
 62
     7
370
     0
100
AcDbMText
 10
524.7010337186
 20
62.9542929425
 30
0.0
 40
1.5
 41
0.0
 71
     1
 72
     1
  1
NE PAS CHANGER L'ECHELLE
  7
SLDTEXTSTYLE0
 73
     1
 44
1.0
  0
MTEXT
  5
9B
330
74
100
AcDbEntity
  8
0
  6
Continuous
 62
     7
370
     0
100
AcDbMText
 10
556.9254230609
 20
62.9542929425
 30
0.0
 40
1.5
 41
0.0
 71
     1
 72
     1
  1
REVISION
  7
SLDTEXTSTYLE0
 73
     1
 44
1.0
  0
MTEXT
  5
9C
330
74
100
AcDbEntity
  8
0
  6
Continuous
 62
     7
370
     0
100
AcDbMText
 10
503.6261376405
 20
47.1955634832
 30
0.0
 40
1.5
 41
0.0
 71
     1
 72
     1
  1
TITRE:
  7
SLDTEXTSTYLE0
 73
     1
 44
1.0
  0
MTEXT
  5
9D
330
74
100
AcDbEntity
  8
0
  6
Continuous
 62
     7
370
     0
100
AcDbMText
 10
503.2285784929
 20
26.6054405513
 30
0.0
 40
1.5
 41
0.0
 71
     1
 72
     1
  1
No. DE PLAN
  7
SLDTEXTSTYLE0
 73
     1
 44
1.0
  0
MTEXT
  5
9E
330
74
100
AcDbEntity
  8
0
  6
Continuous
 62
     7
370
     0
100
AcDbMText
 10
517.4237287036
 20
13.5194715365
 30
0.0
 40
1.5
 41
0.0
 71
     1
 72
     1
  1
DATE :
  7
SLDTEXTSTYLE0
 73
     1
 44
1.0
  0
INSERT
  5
A8
330
74
100
AcDbEntity
  8
0
  6
Continuous
 62
     7
370
     0
100
AcDbBlockReference
  2
SW_NOTE_1
 10
459.2437036703
 20
62.6067534378
 30
0.0
  0
MTEXT
  5
A9
330
74
100
AcDbEntity
  8
0
  6
Continuous
 62
     7
370
     0
100
AcDbMText
 10
459.7882723419
 20
47.1955634832
 30
0.0
 40
1.5
 41
0.0
 71
     1
 72
     1
  1
Quantité de pièce :
  7
SLDTEXTSTYLE0
 73
     1
 44
1.0
  0
MTEXT
  5
AA
330
74
100
AcDbEntity
  8
0
  6
Continuous
 62
     7
370
     0
100
AcDbMText
 10
503.9507134444
 20
57.7490428135
 30
0.0
 40
1.5
 41
0.0
 71
     1
 72
     1
  1
Entreprise
  7
SLDTEXTSTYLE0
 73
     1
 44
1.0
  0
MTEXT
  5
AB
330
74
100
AcDbEntity
  8
0
  6
Continuous
 62
     7
370
     0
100
AcDbMText
 10
460.1865425142
 20
34.0666452458
 30
0.0
 40
1.5
 41
0.0
 71
     1
 72
     1
  1
Tolérance générales : ISO 2768 - mk
  7
SLDTEXTSTYLE0
 73
     1
 44
1.0
  0
MTEXT
  5
AC
330
74
100
AcDbEntity
  8
0
  6
Continuous
 62
     7
370
     0
100
AcDbMText
 10
460.1865425142
 20
30.545927371
 30
0.0
 40
1.5
 41
0.0
 71
     1
 72
     1
  1
Tolérance mécanosoudures: ISO 13920AAE
  7
SLDTEXTSTYLE0
 73
     1
 44
1.0
  0
ATTDEF
  5
AD
330
74
100
AcDbEntity
  8
0
  6
Continuous
 62
     7
370
     0
100
AcDbText
 10
503.671807479
 20
12.1157600198
 30
0.0
 40
1.5
  1
ECHELLE:1:1
 41
0.75
  7
SLDTEXTSTYLE0
 11
503.671807479
 21
11.5858699269
 31
0.0
100
AcDbAttributeDefinition
  3

  2
AUTOATTR18
 70
     0
 74
     1
  0
ATTDEF
  5
AE
330
74
100
AcDbEntity
  8
0
  6
Continuous
 62
     7
370
     0
100
AcDbText
 10
548.0761357894
 20
12.1157600198
 30
0.0
 40
1.5
  1
FEUILLE: 1 sur 1
 41
0.75
  7
SLDTEXTSTYLE0
 11
548.0761357894
 21
11.5858699269
 31
0.0
100
AcDbAttributeDefinition
  3

  2
AUTOATTR17
 70
     0
 74
     1
  0
ATTDEF
  5
AF
330
74
100
AcDbEntity
  8
0
  6
Continuous
 62
     7
370
     0
100
AcDbText
 10
574.4689977962
 20
22.3021825686
 30
0.0
 40
2.9104166667
  1
A3
 41
0.75
  7
SLDTEXTSTYLE0
 11
574.4689977962
 21
21.2740485967
 31
0.0
100
AcDbAttributeDefinition
  3

  2
AUTOATTR0102
 70
     0
 74
     1
  0
ATTDEF
  5
B0
330
74
100
AcDbEntity
  8
0
  6
Continuous
 62
     7
370
     0
100
AcDbText
 10
469.332776773
 20
19.8765580369
 30
0.0
 40
2.38125
  1
1.0037 (S235JR)
 41
0.75
  7
SLDTEXTSTYLE0
 11
469.332776773
 21
19.0353575145
 31
0.0
100
AcDbAttributeDefinition
  3

  2
AUTOATTR16
 70
     0
 74
     1
  0
ATTDEF
  5
B1
330
74
100
AcDbEntity
  8
0
  6
Continuous
 62
     7
370
     0
100
AcDbText
 10
0.0
 20
0.0
 30
0.0
 40
1.0
  1

100
AcDbAttributeDefinition
  3

  2
AUTOATTR15
 70
     0
  0
ATTDEF
  5
B2
330
74
100
AcDbEntity
  8
0
  6
Continuous
 62
     7
370
     0
100
AcDbText
 10
459.2156524897
 20
12.1662947796
 30
0.0
 40
1.4986
  1
MASSE: 
 41
0.75
  7
SLDTEXTSTYLE0
 11
459.2156524897
 21
11.6368992508
 31
0.0
100
AcDbAttributeDefinition
  3

  2
AUTOATTR14
 70
     0
 74
     1
  0
ATTDEF
  5
B3
330
74
100
AcDbEntity
  8
0
  6
Continuous
 62
     7
370
     0
100
AcDbText
 10
0.0
 20
0.0
 30
0.0
 40
1.0
  1

100
AcDbAttributeDefinition
  3

  2
AUTOATTR3
 70
     0
  0
ATTDEF
  5
B4
330
74
100
AcDbEntity
  8
0
  6
Continuous
 62
     7
370
     0
100
AcDbText
 10
509.4157945412
 20
18.2839164749
 30
0.0
 40
6.35
  1
rondelle lame 
 41
0.75
  7
SLDTEXTSTYLE0
 11
509.4157945412
 21
16.0407150817
 31
0.0
100
AcDbAttributeDefinition
  3

  2
AUTOATTR2
 70
     0
 74
     1
  0
ATTDEF
  5
B5
330
74
100
AcDbEntity
  8
0
  6
Continuous
 62
     7
370
     0
100
AcDbText
 10
0.0
 20
0.0
 30
0.0
 40
1.0
  1

100
AcDbAttributeDefinition
  3

  2
AUTOATTR101
 70
     0
  0
ATTDEF
  5
B6
330
74
100
AcDbEntity
  8
0
  6
Continuous
 62
     7
370
     0
100
AcDbText
 10
568.8883301843
 20
61.5811516508
 30
0.0
 40
1.905
  1
21/06/2023
 41
0.75
  7
SLDTEXTSTYLE0
 11
568.8883301843
 21
60.9081912329
 31
0.0
100
AcDbAttributeDefinition
  3

  2
AUTOATTR0
 70
     0
 74
     1
  0
ATTDEF
  5
B7
330
74
100
AcDbEntity
  8
0
  6
Continuous
 62
     7
370
     0
100
AcDbText
 10
468.4090989602
 20
12.1776702386
 30
0.0
 40
2.1166666667
  1
117.16
 41
0.75
  7
SLDTEXTSTYLE0
 11
468.4090989602
 21
11.4299364409
 31
0.0
100
AcDbAttributeDefinition
  3

  2
AUTOATTR1
 70
     0
 74
     1
  0
ATTDEF
  5
B8
330
74
100
AcDbEntity
  8
0
  6
Continuous
 62
     7
370
     0
100
AcDbText
 10
526.0212770611
 20
12.1270298001
 30
0.0
 40
2.1166666667
  1
19/06/2023
 41
0.75
  7
SLDTEXTSTYLE0
 11
526.0212770611
 21
11.3792960024
 31
0.0
100
AcDbAttributeDefinition
  3

  2
AUTOATTR4
 70
     0
 74
     1
  0
ATTDEF
  5
B9
330
74
100
AcDbEntity
  8
0
  6
Continuous
 62
     7
370
     0
100
AcDbText
 10
484.936423133
 20
45.2249226649
 30
0.0
 40
2.1166666667
  1
1
 41
0.75
  7
SLDTEXTSTYLE0
 11
484.936423133
 21
44.4771888672
 31
0.0
100
AcDbAttributeDefinition
  3

  2
AUTOATTR5
 70
     0
 74
     1
  0
ENDBLK
  5
76
330
74
100
AcDbEntity
  8
0
100
AcDbBlockEnd
  0
BLOCK
  5
94
330
93
100
AcDbEntity
  8
0
100
AcDbBlockBegin
  2
SW_NOTE_0
 70
     0
 10
0.0
 20
0.0
 30
0.0
  3
SW_NOTE_0
  1

  0
MTEXT
  5
96
330
93
100
AcDbEntity
  8
0
  6
Continuous
 62
     0
370
     0
100
AcDbMText
 10
0.0
 20
1.9336016097
 30
0.0
 40
1.5
 41
0.0
 71
     1
 72
     1
  1
CASSER LES
  7
SLDTEXTSTYLE0
 73
     1
 44
1.0
  0
MTEXT
  5
97
330
93
100
AcDbEntity
  8
0
  6
Continuous
 62
     0
370
     0
100
AcDbMText
 10
0.0
 20
-0.5663983345
 30
0.0
 40
1.5
 41
0.0
 71
     1
 72
     1
  1
ANGLES VIFS
  7
SLDTEXTSTYLE0
 73
     1
 44
1.0
  0
ENDBLK
  5
95
330
93
100
AcDbEntity
  8
0
100
AcDbBlockEnd
  0
BLOCK
  5
A0
330
9F
100
AcDbEntity
  8
0
100
AcDbBlockBegin
  2
SW_NOTE_1
 70
     0
 10
0.0
 20
0.0
 30
0.0
  3
SW_NOTE_1
  1

  0
MTEXT
  5
A2
330
9F
100
AcDbEntity
  8
0
  6
Continuous
 62
     0
370
     0
100
AcDbMText
 10
0.0
 20
1.9336016097
 30
0.0
 40
1.5
 41
0.0
 71
     1
 72
     1
  1
SAUF INDICATION CONTRAIRE:
  7
SLDTEXTSTYLE0
 73
     1
 44
1.0
  0
MTEXT
  5
A3
330
9F
100
AcDbEntity
  8
0
  6
Continuous
 62
     0
370
     0
100
AcDbMText
 10
0.0
 20
-0.5663983345
 30
0.0
 40
1.5
 41
0.0
 71
     1
 72
     1
  1
LES COTES SONT EN MILLIMETRES
  7
SLDTEXTSTYLE0
 73
     1
 44
1.0
  0
MTEXT
  5
A4
330
9F
100
AcDbEntity
  8
0
  6
Continuous
 62
     0
370
     0
100
AcDbMText
 10
0.0
 20
-3.0663982786
 30
0.0
 40
1.5
 41
0.0
 71
     1
 72
     1
  1
ETAT DE SURFACE:
  7
SLDTEXTSTYLE0
 73
     1
 44
1.0
  0
MTEXT
  5
A5
330
9F
100
AcDbEntity
  8
0
  6
Continuous
 62
     0
370
     0
100
AcDbMText
 10
0.0
 20
-5.5663982227
 30
0.0
 40
1.5
 41
0.0
 71
     1
 72
     1
  1
TOLERANCES:
  7
SLDTEXTSTYLE0
 73
     1
 44
1.0
  0
MTEXT
  5
A6
330
9F
100
AcDbEntity
  8
0
  6
Continuous
 62
     0
370
     0
100
AcDbMText
 10
1.6875
 20
-8.0663981668
 30
0.0
 40
1.5
 41
0.0
 71
     1
 72
     1
  1
LINEAIRES:
  7
SLDTEXTSTYLE0
 73
     1
 44
1.0
  0
MTEXT
  5
A7
330
9F
100
AcDbEntity
  8
0
  6
Continuous
 62
     0
370
     0
100
AcDbMText
 10
1.6875
 20
-10.5663981109
 30
0.0
 40
1.5
 41
0.0
 71
     1
 72
     1
  1
ANGULAIRES:
  7
SLDTEXTSTYLE0
 73
     1
 44
1.0
  0
ENDBLK
  5
A1
330
9F
100
AcDbEntity
  8
0
100
AcDbBlockEnd
  0
BLOCK
  5
121
330
120
100
AcDbEntity
  8
0
100
AcDbBlockBegin
  2
_NONE
 70
     0
 10
0.0
 20
0.0
 30
0.0
  3
_NONE
  1

  0
ENDBLK
  5
122
330
120
100
AcDbEntity
  8
0
100
AcDbBlockEnd
  0
BLOCK
  5
124
330
123
100
AcDbEntity
  8
0
100
AcDbBlockBegin
  2
_D
 70
     0
 10
0.0
 20
0.0
 30
0.0
  3
_D
  1

  0
SOLID
  5
126
330
123
100
AcDbEntity
  8
0
  6
Continuous
 62
     7
370
    18
100
AcDbTrace
 10
155.1119555628
 20
127.1858889557
 30
0.0
 11
157.6183973485
 21
129.3947387865
 31
0.0
 12
156.838560785
 22
130.0459767877
 32
0.0
 13
156.838560785
 23
130.0459767877
 33
0.0
  0
LINE
  5
127
330
123
100
AcDbEntity
  8
0
  6
Continuous
 62
     7
370
    18
100
AcDbLine
 10
155.1119555628
 20
127.1858889557
 30
0.0
 11
180.3889219433
 21
157.4542433228
 31
0.0
  0
LINE
  5
128
330
123
100
AcDbEntity
  8
0
  6
Continuous
 62
     7
370
    18
100
AcDbLine
 10
155.1119555628
 20
127.1858889557
 30
0.0
 11
114.7300716294
 21
78.829881573
 31
0.0
  0
MTEXT
  5
129
330
123
100
AcDbEntity
  8
0
  6
Continuous
 62
     7
370
    18
100
AcDbMText
 10
170.2291796026
 20
152.3230905818
 30
0.0
 40
3.5
 41
0.0
 71
     1
 72
     1
  1
%%c
  7
SLDTEXTSTYLE0
 11
0.6409822846567935
 21
0.7675556727405233
 31
0.0
 73
     1
 44
1.0
  0
MTEXT
  5
12A
330
123
100
AcDbEntity
  8
0
  6
Continuous
 62
     7
370
    18
100
AcDbMText
 10
173.5715215931
 20
156.4088598681
 30
0.0
 40
3.5
 41
0.0
 71
     1
 72
     1
  1
63
  7
SLDTEXTSTYLE0
 11
0.6409822846567935
 21
0.7675556727405233
 31
0.0
 73
     1
 44
1.0
  0
ENDBLK
  5
125
330
123
100
AcDbEntity
  8
0
100
AcDbBlockEnd
  0
BLOCK
  5
12D
330
12C
100
AcDbEntity
  8
0
100
AcDbBlockBegin
  2
_D_1
 70
     0
 10
0.0
 20
0.0
 30
0.0
  3
_D_1
  1

  0
SOLID
  5
12F
330
12C
100
AcDbEntity
  8
0
  6
Continuous
 62
     7
370
    18
100
AcDbTrace
 10
131.2715653964
 20
107.7703980294
 30
0.0
 11
129.6663784845
 21
110.7003541687
 31
0.0
 12
128.859926323
 22
110.0823809402
 32
0.0
 13
128.859926323
 23
110.0823809402
 33
0.0
  0
LINE
  5
130
330
12C
100
AcDbEntity
  8
0
  6
Continuous
 62
     7
370
    18
100
AcDbLine
 10
131.2715653964
 20
107.7703980294
 30
0.0
 11
88.7025716605
 21
163.322734976
 31
0.0
  0
LINE
  5
131
330
12C
100
AcDbEntity
  8
0
  6
Continuous
 62
     7
370
    18
100
AcDbLine
 10
131.2715653964
 20
107.7703980294
 30
0.0
 11
138.5704617959
 21
98.2453724993
 31
0.0
  0
MTEXT
  5
132
330
12C
100
AcDbEntity
  8
0
  6
Continuous
 62
     7
370
    18
100
AcDbMText
 10
92.2820283532
 20
166.0656235367
 30
0.0
 40
3.5
 41
0.0
 71
     1
 72
     1
  1
%%c
  7
SLDTEXTSTYLE0
 11
0.6082413666271032
 21
-0.793752127508074
 31
0.0
 73
     1
 44
1.0
  0
MTEXT
  5
133
330
12C
100
AcDbEntity
  8
0
  6
Continuous
 62
     7
370
    18
100
AcDbMText
 10
95.535035984
 20
161.9083766116
 30
0.0
 40
3.5
 41
0.0
 71
     1
 72
     1
  1
12
  7
SLDTEXTSTYLE0
 11
0.6082413666271032
 21
-0.793752127508074
 31
0.0
 73
     1
 44
1.0
  0
ENDBLK
  5
12E
330
12C
100
AcDbEntity
  8
0
100
AcDbBlockEnd
  0
BLOCK
  5
135
330
134
100
AcDbEntity
  8
0
100
AcDbBlockBegin
  2
SW_CENTERMARKSYMBOL_0
 70
     0
 10
0.0
 20
0.0
 30
0.0
  3
SW_CENTERMARKSYMBOL_0
  1

  0
LINE
  5
137
330
134
100
AcDbEntity
  8
0
  6
Continuous
 62
     0
370
     0
100
AcDbLine
 10
0.0
 20
0.0
 30
0.0
 11
0.0
 21
2.5
 31
0.0
  0
LINE
  5
138
330
134
100
AcDbEntity
  8
0
  6
Continuous
 62
     0
370
     0
100
AcDbLine
 10
0.0
 20
0.0
 30
0.0
 11
-2.5
 21
0.0
 31
0.0
  0
LINE
  5
139
330
134
100
AcDbEntity
  8
0
  6
Continuous
 62
     0
370
     0
100
AcDbLine
 10
0.0
 20
0.0
 30
0.0
 11
0.0
 21
-2.5
 31
0.0
  0
LINE
  5
13A
330
134
100
AcDbEntity
  8
0
  6
Continuous
 62
     0
370
     0
100
AcDbLine
 10
0.0
 20
0.0
 30
0.0
 11
2.5
 21
0.0
 31
0.0
  0
LINE
  5
13B
330
134
100
AcDbEntity
  8
0
  6
Continuous
 62
     0
370
     0
100
AcDbLine
 10
0.0
 20
5.0
 30
0.0
 11
0.0
 21
34.0
 31
0.0
  0
LINE
  5
13C
330
134
100
AcDbEntity
  8
0
  6
Continuous
 62
     0
370
     0
100
AcDbLine
 10
-5.0
 20
0.0
 30
0.0
 11
-34.0
 21
0.0
 31
0.0
  0
LINE
  5
13D
330
134
100
AcDbEntity
  8
0
  6
Continuous
 62
     0
370
     0
100
AcDbLine
 10
0.0
 20
-5.0
 30
0.0
 11
0.0
 21
-34.0
 31
0.0
  0
LINE
  5
13E
330
134
100
AcDbEntity
  8
0
  6
Continuous
 62
     0
370
     0
100
AcDbLine
 10
5.0
 20
0.0
 30
0.0
 11
34.0
 21
0.0
 31
0.0
  0
ENDBLK
  5
136
330
134
100
AcDbEntity
  8
0
100
AcDbBlockEnd
  0
BLOCK
  5
155
330
154
100
AcDbEntity
  8
0
100
AcDbBlockBegin
  2
_D_2
 70
     0
 10
0.0
 20
0.0
 30
0.0
  3
_D_2
  1

  0
ARC
  5
157
330
154
100
AcDbEntity
  8
0
  6
Continuous
 62
     7
370
    18
100
AcDbCircle
 10
282.0136345185
 20
219.6418335208
 30
0.0
 40
41.66922295319925
100
AcDbArc
 50
180.0
 51
185.3145456699
  0
ARC
  5
158
330
154
100
AcDbEntity
  8
0
  6
Continuous
 62
     7
370
    18
100
AcDbCircle
 10
282.0136345185
 20
219.6418335208
 30
0.0
 40
41.66922295319925
100
AcDbArc
 50
171.2903229038
 51
180.0
  0
ARC
  5
159
330
154
100
AcDbEntity
  8
0
  6
Continuous
 62
     7
370
    18
100
AcDbCircle
 10
282.0136345185
 20
219.6418335208
 30
0.0
 40
41.66922295319925
100
AcDbArc
 50
185.3145456699
 51
194.0242227662
  0
SOLID
  5
15A
330
154
100
AcDbEntity
  8
0
  6
Continuous
 62
     7
370
    18
100
AcDbTrace
 10
240.3444115653
 20
219.6418335208
 30
0.0
 11
240.9825381168
 21
222.9211722505
 31
0.0
 12
239.967332184
 22
222.9613333536
 32
0.0
 13
239.967332184
 23
222.9613333536
 33
0.0
  0
SOLID
  5
15B
330
154
100
AcDbEntity
  8
0
  6
Continuous
 62
     7
370
    18
100
AcDbTrace
 10
240.5235385546
 20
215.7822897102
 30
0.0
 11
240.4555434138
 21
212.4421333275
 31
0.0
 12
241.4626653388
 22
212.5761535804
 32
0.0
 13
241.4626653388
 23
212.5761535804
 33
0.0
  0
LINE
  5
15C
330
154
100
AcDbEntity
  8
0
  6
Continuous
 62
     7
370
    18
100
AcDbLine
 10
285.0136345185
 20
219.6418335208
 30
0.0
 11
239.3444115653
 21
219.6418335208
 31
0.0
  0
LINE
  5
15D
330
154
100
AcDbEntity
  8
0
  6
Continuous
 62
     7
370
    18
100
AcDbLine
 10
259.5179333025
 20
217.5492101519
 30
0.0
 11
239.5278373386
 21
215.6896663413
 31
0.0
  0
MTEXT
  5
15E
330
154
100
AcDbEntity
  8
0
  6
Continuous
 62
     7
370
    18
100
AcDbMText
 10
236.0692701806
 20
212.4586987771
 30
0.0
 40
3.5
 41
0.0
 71
     1
 72
     1
  1
5,31°
  7
SLDTEXTSTYLE0
 11
-0.03741649284691673
 21
0.9992997578619924
 31
0.0
 73
     1
 44
1.0
  0
ENDBLK
  5
156
330
154
100
AcDbEntity
  8
0
100
AcDbBlockEnd
  0
BLOCK
  5
162
330
161
100
AcDbEntity
  8
0
100
AcDbBlockBegin
  2
_D_3
 70
     0
 10
0.0
 20
0.0
 30
0.0
  3
_D_3
  1

  0
SOLID
  5
164
330
161
100
AcDbEntity
  8
0
  6
Continuous
 62
     7
370
    18
100
AcDbTrace
 10
348.2398372273
 20
212.6418335208
 30
0.0
 11
347.7318372273
 21
209.3398335208
 31
0.0
 12
348.7478372273
 22
209.3398335208
 32
0.0
 13
348.7478372273
 23
209.3398335208
 33
0.0
  0
SOLID
  5
165
330
161
100
AcDbEntity
  8
0
  6
Continuous
 62
     7
370
    18
100
AcDbTrace
 10
348.2398372273
 20
217.6418335208
 30
0.0
 11
348.7478372273
 21
220.9438335208
 31
0.0
 12
347.7318372273
 22
220.9438335208
 32
0.0
 13
347.7318372273
 23
220.9438335208
 33
0.0
  0
LINE
  5
166
330
161
100
AcDbEntity
  8
0
  6
Continuous
 62
     7
370
    18
100
AcDbLine
 10
324.5136345185
 20
212.6418335208
 30
0.0
 11
349.2398372273
 21
212.6418335208
 31
0.0
  0
LINE
  5
167
330
161
100
AcDbEntity
  8
0
  6
Continuous
 62
     7
370
    18
100
AcDbLine
 10
324.5136345185
 20
217.6418335208
 30
0.0
 11
349.2398372273
 21
217.6418335208
 31
0.0
  0
LINE
  5
168
330
161
100
AcDbEntity
  8
0
  6
Continuous
 62
     7
370
    18
100
AcDbLine
 10
348.2398372273
 20
212.6418335208
 30
0.0
 11
348.2398372273
 21
206.2918335208
 31
0.0
  0
LINE
  5
169
330
161
100
AcDbEntity
  8
0
  6
Continuous
 62
     7
370
    18
100
AcDbLine
 10
348.2398372273
 20
212.6418335208
 30
0.0
 11
348.2398372273
 21
217.6418335208
 31
0.0
  0
LINE
  5
16A
330
161
100
AcDbEntity
  8
0
  6
Continuous
 62
     7
370
    18
100
AcDbLine
 10
348.2398372273
 20
217.6418335208
 30
0.0
 11
348.2398372273
 21
223.9918335208
 31
0.0
  0
MTEXT
  5
16B
330
161
100
AcDbEntity
  8
0
  6
Continuous
 62
     7
370
    18
100
AcDbMText
 10
343.7281003127
 20
213.9448749397
 30
0.0
 40
3.5
 41
0.0
 71
     1
 72
     1
  1
5
  7
SLDTEXTSTYLE0
 11
6.123233995736766E-17
 21
1.0
 31
0.0
 73
     1
 44
1.0
  0
ENDBLK
  5
163
330
161
100
AcDbEntity
  8
0
100
AcDbBlockEnd
  0
ENDSEC
  0
SECTION
  2
ENTITIES
  0
LINE
  5
BA
330
1F
100
AcDbEntity
  8
0
  6
Continuous
 62
     7
370
    70
100
AcDbLine
 10
20.0
 20
10.0
 30
0.0
 11
20.0
 21
287.0
 31
0.0
  0
LINE
  5
BB
330
1F
100
AcDbEntity
  8
0
  6
Continuous
 62
     7
370
    70
100
AcDbLine
 10
20.0
 20
287.0
 30
0.0
 11
410.0
 21
287.0
 31
0.0
  0
LINE
  5
BC
330
1F
100
AcDbEntity
  8
0
  6
Continuous
 62
     7
370
    70
100
AcDbLine
 10
410.0
 20
287.0
 30
0.0
 11
410.0
 21
10.0
 31
0.0
  0
LINE
  5
BD
330
1F
100
AcDbEntity
  8
0
  6
Continuous
 62
     7
370
    70
100
AcDbLine
 10
410.0
 20
10.0
 30
0.0
 11
20.0
 21
10.0
 31
0.0
  0
LINE
  5
BE
330
1F
100
AcDbEntity
  8
0
  6
Continuous
 62
     7
370
    70
100
AcDbLine
 10
15.0
 20
5.0
 30
0.0
 11
15.0
 21
292.0
 31
0.0
  0
LINE
  5
BF
330
1F
100
AcDbEntity
  8
0
  6
Continuous
 62
     7
370
    70
100
AcDbLine
 10
15.0
 20
292.0
 30
0.0
 11
415.0
 21
292.0
 31
0.0
  0
LINE
  5
C0
330
1F
100
AcDbEntity
  8
0
  6
Continuous
 62
     7
370
    70
100
AcDbLine
 10
415.0
 20
292.0
 30
0.0
 11
415.0
 21
5.0
 31
0.0
  0
LINE
  5
C1
330
1F
100
AcDbEntity
  8
0
  6
Continuous
 62
     7
370
    70
100
AcDbLine
 10
415.0
 20
5.0
 30
0.0
 11
15.0
 21
5.0
 31
0.0
  0
LINE
  5
C2
330
1F
100
AcDbEntity
  8
0
  6
Continuous
 62
     7
370
    35
100
AcDbLine
 10
15.0
 20
148.5
 30
0.0
 11
25.0
 21
148.5
 31
0.0
  0
LINE
  5
C3
330
1F
100
AcDbEntity
  8
0
  6
Continuous
 62
     7
370
    35
100
AcDbLine
 10
215.0
 20
292.0
 30
0.0
 11
215.0
 21
282.0
 31
0.0
  0
LINE
  5
C4
330
1F
100
AcDbEntity
  8
0
  6
Continuous
 62
     7
370
    35
100
AcDbLine
 10
415.0
 20
148.5
 30
0.0
 11
405.0
 21
148.5
 31
0.0
  0
LINE
  5
C5
330
1F
100
AcDbEntity
  8
0
  6
Continuous
 62
     7
370
    35
100
AcDbLine
 10
215.0
 20
5.0
 30
0.0
 11
215.0
 21
15.0
 31
0.0
  0
LINE
  5
C6
330
1F
100
AcDbEntity
  8
0
  6
Continuous
 62
     7
370
    35
100
AcDbLine
 10
20.0
 20
48.5
 30
0.0
 11
15.0
 21
48.5
 31
0.0
  0
LINE
  5
C7
330
1F
100
AcDbEntity
  8
0
  6
Continuous
 62
     7
370
    35
100
AcDbLine
 10
410.0
 20
48.5
 30
0.0
 11
415.0
 21
48.5
 31
0.0
  0
LINE
  5
C8
330
1F
100
AcDbEntity
  8
0
  6
Continuous
 62
     7
370
    35
100
AcDbLine
 10
20.0
 20
98.5
 30
0.0
 11
15.0
 21
98.5
 31
0.0
  0
LINE
  5
C9
330
1F
100
AcDbEntity
  8
0
  6
Continuous
 62
     7
370
    35
100
AcDbLine
 10
410.0
 20
98.5
 30
0.0
 11
415.0
 21
98.5
 31
0.0
  0
LINE
  5
CA
330
1F
100
AcDbEntity
  8
0
  6
Continuous
 62
     7
370
    35
100
AcDbLine
 10
20.0
 20
148.5
 30
0.0
 11
15.0
 21
148.5
 31
0.0
  0
LINE
  5
CB
330
1F
100
AcDbEntity
  8
0
  6
Continuous
 62
     7
370
    35
100
AcDbLine
 10
410.0
 20
148.5
 30
0.0
 11
415.0
 21
148.5
 31
0.0
  0
LINE
  5
CC
330
1F
100
AcDbEntity
  8
0
  6
Continuous
 62
     7
370
    35
100
AcDbLine
 10
20.0
 20
198.5
 30
0.0
 11
15.0
 21
198.5
 31
0.0
  0
LINE
  5
CD
330
1F
100
AcDbEntity
  8
0
  6
Continuous
 62
     7
370
    35
100
AcDbLine
 10
410.0
 20
198.5
 30
0.0
 11
415.0
 21
198.5
 31
0.0
  0
LINE
  5
CE
330
1F
100
AcDbEntity
  8
0
  6
Continuous
 62
     7
370
    35
100
AcDbLine
 10
20.0
 20
248.5
 30
0.0
 11
15.0
 21
248.5
 31
0.0
  0
LINE
  5
CF
330
1F
100
AcDbEntity
  8
0
  6
Continuous
 62
     7
370
    35
100
AcDbLine
 10
410.0
 20
248.5
 30
0.0
 11
415.0
 21
248.5
 31
0.0
  0
LINE
  5
D0
330
1F
100
AcDbEntity
  8
0
  6
Continuous
 62
     7
370
    35
100
AcDbLine
 10
65.0
 20
287.0
 30
0.0
 11
65.0
 21
292.0
 31
0.0
  0
LINE
  5
D1
330
1F
100
AcDbEntity
  8
0
  6
Continuous
 62
     7
370
    35
100
AcDbLine
 10
65.0
 20
10.0
 30
0.0
 11
65.0
 21
5.0
 31
0.0
  0
LINE
  5
D2
330
1F
100
AcDbEntity
  8
0
  6
Continuous
 62
     7
370
    35
100
AcDbLine
 10
115.0
 20
287.0
 30
0.0
 11
115.0
 21
292.0
 31
0.0
  0
LINE
  5
D3
330
1F
100
AcDbEntity
  8
0
  6
Continuous
 62
     7
370
    35
100
AcDbLine
 10
115.0
 20
10.0
 30
0.0
 11
115.0
 21
5.0
 31
0.0
  0
LINE
  5
D4
330
1F
100
AcDbEntity
  8
0
  6
Continuous
 62
     7
370
    35
100
AcDbLine
 10
165.0
 20
287.0
 30
0.0
 11
165.0
 21
292.0
 31
0.0
  0
LINE
  5
D5
330
1F
100
AcDbEntity
  8
0
  6
Continuous
 62
     7
370
    35
100
AcDbLine
 10
165.0
 20
10.0
 30
0.0
 11
165.0
 21
5.0
 31
0.0
  0
LINE
  5
D6
330
1F
100
AcDbEntity
  8
0
  6
Continuous
 62
     7
370
    35
100
AcDbLine
 10
215.0
 20
287.0
 30
0.0
 11
215.0
 21
292.0
 31
0.0
  0
LINE
  5
D7
330
1F
100
AcDbEntity
  8
0
  6
Continuous
 62
     7
370
    35
100
AcDbLine
 10
215.0
 20
10.0
 30
0.0
 11
215.0
 21
5.0
 31
0.0
  0
LINE
  5
D8
330
1F
100
AcDbEntity
  8
0
  6
Continuous
 62
     7
370
    35
100
AcDbLine
 10
265.0
 20
287.0
 30
0.0
 11
265.0
 21
292.0
 31
0.0
  0
LINE
  5
D9
330
1F
100
AcDbEntity
  8
0
  6
Continuous
 62
     7
370
    35
100
AcDbLine
 10
265.0
 20
10.0
 30
0.0
 11
265.0
 21
5.0
 31
0.0
  0
LINE
  5
DA
330
1F
100
AcDbEntity
  8
0
  6
Continuous
 62
     7
370
    35
100
AcDbLine
 10
315.0
 20
287.0
 30
0.0
 11
315.0
 21
292.0
 31
0.0
  0
LINE
  5
DB
330
1F
100
AcDbEntity
  8
0
  6
Continuous
 62
     7
370
    35
100
AcDbLine
 10
315.0
 20
10.0
 30
0.0
 11
315.0
 21
5.0
 31
0.0
  0
LINE
  5
DC
330
1F
100
AcDbEntity
  8
0
  6
Continuous
 62
     7
370
    35
100
AcDbLine
 10
365.0
 20
287.0
 30
0.0
 11
365.0
 21
292.0
 31
0.0
  0
LINE
  5
DD
330
1F
100
AcDbEntity
  8
0
  6
Continuous
 62
     7
370
    35
100
AcDbLine
 10
365.0
 20
10.0
 30
0.0
 11
365.0
 21
5.0
 31
0.0
  0
INSERT
  5
DE
330
1F
100
AcDbEntity
  8
0
  6
Continuous
 62
     7
100
AcDbBlockReference
 66
     1
  2
Bloc cartouche polivalent
 10
-173.6020953532
 20
-0.5588035661
 30
0.0
  0
ATTRIB
  5
DF
330
DE
100
AcDbEntity
  8
0
  6
Continuous
 62
     7
370
     0
100
AcDbText
 10
330.0697121258
 20
11.5569564537
 30
0.0
 40
1.5
  1
ECHELLE:1:1
 41
0.75
  7
SLDTEXTSTYLE0
 11
330.0697121258
 21
11.0270663608
 31
0.0
100
AcDbAttribute
  2
AUTOATTR18
 70
     0
 74
     1
  0
ATTRIB
  5
E0
330
DE
100
AcDbEntity
  8
0
  6
Continuous
 62
     7
370
     0
100
AcDbText
 10
374.4740404361
 20
11.5569564537
 30
0.0
 40
1.5
  1
FEUILLE: 1 sur 1
 41
0.75
  7
SLDTEXTSTYLE0
 11
374.4740404361
 21
11.0270663608
 31
0.0
100
AcDbAttribute
  2
AUTOATTR17
 70
     0
 74
     1
  0
ATTRIB
  5
E1
330
DE
100
AcDbEntity
  8
0
  6
Continuous
 62
     7
370
     0
100
AcDbText
 10
400.866902443
 20
21.7433790025
 30
0.0
 40
2.9104166667
  1
A3
 41
0.75
  7
SLDTEXTSTYLE0
 11
400.866902443
 21
20.7152450306
 31
0.0
100
AcDbAttribute
  2
AUTOATTR0102
 70
     0
 74
     1
  0
ATTRIB
  5
E2
330
DE
100
AcDbEntity
  8
0
  6
Continuous
 62
     7
370
     0
100
AcDbText
 10
295.7306814198
 20
19.3177544709
 30
0.0
 40
2.38125
  1
1.0037 (S235JR)
 41
0.75
  7
SLDTEXTSTYLE0
 11
295.7306814198
 21
18.4765539484
 31
0.0
100
AcDbAttribute
  2
AUTOATTR16
 70
     0
 74
     1
  0
ATTRIB
  5
E3
330
DE
100
AcDbEntity
  8
0
  6
Continuous
 62
     7
370
     0
100
AcDbText
 10
287.2733742448
 20
55.8133592188
 30
0.0
 40
2.38125
  1

 41
0.75
  7
SLDTEXTSTYLE0
 11
287.2733742448
 21
54.9721586963
 31
0.0
100
AcDbAttribute
  2
AUTOATTR15
 70
     0
 74
     1
  0
ATTRIB
  5
E4
330
DE
100
AcDbEntity
  8
0
  6
Continuous
 62
     7
370
     0
100
AcDbText
 10
285.6135571365
 20
11.6074912135
 30
0.0
 40
1.4986
  1
MASSE: 
 41
0.75
  7
SLDTEXTSTYLE0
 11
285.6135571365
 21
11.0780956847
 31
0.0
100
AcDbAttribute
  2
AUTOATTR14
 70
     0
 74
     1
  0
ATTRIB
  5
E6
330
DE
100
AcDbEntity
  8
0
  6
Continuous
 62
     7
370
     0
100
AcDbText
 10
374.0771701601
 20
51.97523955
 30
0.0
 40
5.08
  1

 41
0.663
  7
SLDTEXTSTYLE1
 11
374.0771701601
 21
50.1806784355
 31
0.0
100
AcDbAttribute
  2
AUTOATTR3
 70
     0
 74
     1
  0
ATTRIB
  5
E7
330
DE
100
AcDbEntity
  8
0
  6
Continuous
 62
     7
370
     0
100
AcDbText
 10
335.813699188
 20
17.7251129088
 30
0.0
 40
6.35
  1
rondelle lame 
 41
0.75
  7
SLDTEXTSTYLE0
 11
335.813699188
 21
15.4819115156
 31
0.0
100
AcDbAttribute
  2
AUTOATTR2
 70
     0
 74
     1
  0
ATTRIB
  5
E8
330
DE
100
AcDbEntity
  8
0
  6
Continuous
 62
     7
370
     0
100
AcDbText
 10
379.098120284
 20
38.5893538633
 30
0.0
 40
6.35
  1

 41
0.75
  7
SLDTEXTSTYLE0
 11
379.098120284
 21
36.3461524701
 31
0.0
100
AcDbAttribute
  2
AUTOATTR101
 70
     0
 74
     1
  0
ATTRIB
  5
E9
330
DE
100
AcDbEntity
  8
0
  6
Continuous
 62
     7
370
     0
100
AcDbText
 10
395.2862348311
 20
61.0223480848
 30
0.0
 40
1.905
  1
21/06/2023
 41
0.75
  7
SLDTEXTSTYLE0
 11
395.2862348311
 21
60.3493876668
 31
0.0
100
AcDbAttribute
  2
AUTOATTR0
 70
     0
 74
     1
  0
ATTRIB
  5
EA
330
DE
100
AcDbEntity
  8
0
  6
Continuous
 62
     7
370
     0
100
AcDbText
 10
294.807003607
 20
11.6188666725
 30
0.0
 40
2.1166666667
  1
117.16
 41
0.75
  7
SLDTEXTSTYLE0
 11
294.807003607
 21
10.8711328748
 31
0.0
100
AcDbAttribute
  2
AUTOATTR1
 70
     0
 74
     1
  0
ATTRIB
  5
EB
330
DE
100
AcDbEntity
  8
0
  6
Continuous
 62
     7
370
     0
100
AcDbText
 10
352.4191817078
 20
11.568226234
 30
0.0
 40
2.1166666667
  1
19/06/2023
 41
0.75
  7
SLDTEXTSTYLE0
 11
352.4191817078
 21
10.8204924363
 31
0.0
100
AcDbAttribute
  2
AUTOATTR4
 70
     0
 74
     1
  0
ATTRIB
  5
EC
330
DE
100
AcDbEntity
  8
0
  6
Continuous
 62
     7
370
     0
100
AcDbText
 10
311.3343277798
 20
44.6661190988
 30
0.0
 40
2.1166666667
  1
1
 41
0.75
  7
SLDTEXTSTYLE0
 11
311.3343277798
 21
43.9183853011
 31
0.0
100
AcDbAttribute
  2
AUTOATTR5
 70
     0
 74
     1
  0
SEQEND
  5
ED
330
DE
100
AcDbEntity
  8
0
  6
Continuous
 62
     7
  0
MTEXT
  5
EE
330
1F
100
AcDbEntity
  8
0
  6
Continuous
 62
     7
370
     0
100
AcDbMText
 10
17.3396881428
 20
31.7115651054
 30
0.0
 40
3.96875
 41
0.0
 71
     2
 72
     1
  1
A
  7
SLDTEXTSTYLE0
 73
     1
 44
1.0
  0
MTEXT
  5
EF
330
1F
100
AcDbEntity
  8
0
  6
Continuous
 62
     7
370
     0
100
AcDbMText
 10
412.3396881428
 20
31.7115651054
 30
0.0
 40
3.96875
 41
0.0
 71
     2
 72
     1
  1
A
  7
SLDTEXTSTYLE0
 73
     1
 44
1.0
  0
MTEXT
  5
F0
330
1F
100
AcDbEntity
  8
0
  6
Continuous
 62
     7
370
     0
100
AcDbMText
 10
17.4706018241
 20
75.9615651054
 30
0.0
 40
3.96875
 41
0.0
 71
     2
 72
     1
  1
B
  7
SLDTEXTSTYLE0
 73
     1
 44
1.0
  0
MTEXT
  5
F1
330
1F
100
AcDbEntity
  8
0
  6
Continuous
 62
     7
370
     0
100
AcDbMText
 10
412.4706018241
 20
75.9615651054
 30
0.0
 40
3.96875
 41
0.0
 71
     2
 72
     1
  1
B
  7
SLDTEXTSTYLE0
 73
     1
 44
1.0
  0
MTEXT
  5
F2
330
1F
100
AcDbEntity
  8
0
  6
Continuous
 62
     7
370
     0
100
AcDbMText
 10
17.458658902
 20
125.9615651054
 30
0.0
 40
3.96875
 41
0.0
 71
     2
 72
     1
  1
C
  7
SLDTEXTSTYLE0
 73
     1
 44
1.0
  0
MTEXT
  5
F3
330
1F
100
AcDbEntity
  8
0
  6
Continuous
 62
     7
370
     0
100
AcDbMText
 10
412.458658902
 20
125.9615651054
 30
0.0
 40
3.96875
 41
0.0
 71
     2
 72
     1
  1
C
  7
SLDTEXTSTYLE0
 73
     1
 44
1.0
  0
MTEXT
  5
F4
330
1F
100
AcDbEntity
  8
0
  6
Continuous
 62
     7
370
     0
100
AcDbMText
 10
17.4526872821
 20
175.9615651054
 30
0.0
 40
3.96875
 41
0.0
 71
     2
 72
     1
  1
D
  7
SLDTEXTSTYLE0
 73
     1
 44
1.0
  0
MTEXT
  5
F5
330
1F
100
AcDbEntity
  8
0
  6
Continuous
 62
     7
370
     0
100
AcDbMText
 10
412.4526872821
 20
175.9615651054
 30
0.0
 40
3.96875
 41
0.0
 71
     2
 72
     1
  1
D
  7
SLDTEXTSTYLE0
 73
     1
 44
1.0
  0
MTEXT
  5
F6
330
1F
100
AcDbEntity
  8
0
  6
Continuous
 62
     7
370
     0
100
AcDbMText
 10
17.5078089051
 20
225.9615651054
 30
0.0
 40
3.96875
 41
0.0
 71
     2
 72
     1
  1
E
  7
SLDTEXTSTYLE0
 73
     1
 44
1.0
  0
MTEXT
  5
F7
330
1F
100
AcDbEntity
  8
0
  6
Continuous
 62
     7
370
     0
100
AcDbMText
 10
412.5078089051
 20
225.9615651054
 30
0.0
 40
3.96875
 41
0.0
 71
     2
 72
     1
  1
E
  7
SLDTEXTSTYLE0
 73
     1
 44
1.0
  0
MTEXT
  5
F8
330
1F
100
AcDbEntity
  8
0
  6
Continuous
 62
     7
370
     0
100
AcDbMText
 10
17.4577402091
 20
270.2115651054
 30
0.0
 40
3.96875
 41
0.0
 71
     2
 72
     1
  1
F
  7
SLDTEXTSTYLE0
 73
     1
 44
1.0
  0
MTEXT
  5
F9
330
1F
100
AcDbEntity
  8
0
  6
Continuous
 62
     7
370
     0
100
AcDbMText
 10
412.4577402091
 20
270.2115651054
 30
0.0
 40
3.96875
 41
0.0
 71
     2
 72
     1
  1
F
  7
SLDTEXTSTYLE0
 73
     1
 44
1.0
  0
MTEXT
  5
FA
330
1F
100
AcDbEntity
  8
0
  6
Continuous
 62
     7
370
     0
100
AcDbMText
 10
42.4600369465
 20
9.9615651054
 30
0.0
 40
3.96875
 41
0.0
 71
     2
 72
     1
  1
8
  7
SLDTEXTSTYLE0
 73
     1
 44
1.0
  0
MTEXT
  5
FB
330
1F
100
AcDbEntity
  8
0
  6
Continuous
 62
     7
370
     0
100
AcDbMText
 10
42.4600369465
 20
292.0153864187
 30
0.0
 40
3.96875
 41
0.0
 71
     2
 72
     1
  1
8
  7
SLDTEXTSTYLE0
 73
     1
 44
1.0
  0
MTEXT
  5
FC
330
1F
100
AcDbEntity
  8
0
  6
Continuous
 62
     7
370
     0
100
AcDbMText
 10
89.9600369465
 20
9.9615651054
 30
0.0
 40
3.96875
 41
0.0
 71
     2
 72
     1
  1
7
  7
SLDTEXTSTYLE0
 73
     1
 44
1.0
  0
MTEXT
  5
FD
330
1F
100
AcDbEntity
  8
0
  6
Continuous
 62
     7
370
     0
100
AcDbMText
 10
89.9600369465
 20
292.0153864187
 30
0.0
 40
3.96875
 41
0.0
 71
     2
 72
     1
  1
7
  7
SLDTEXTSTYLE0
 73
     1
 44
1.0
  0
MTEXT
  5
FE
330
1F
100
AcDbEntity
  8
0
  6
Continuous
 62
     7
370
     0
100
AcDbMText
 10
139.9600369465
 20
9.9615651054
 30
0.0
 40
3.96875
 41
0.0
 71
     2
 72
     1
  1
6
  7
SLDTEXTSTYLE0
 73
     1
 44
1.0
  0
MTEXT
  5
FF
330
1F
100
AcDbEntity
  8
0
  6
Continuous
 62
     7
370
     0
100
AcDbMText
 10
139.9600369465
 20
292.0153864187
 30
0.0
 40
3.96875
 41
0.0
 71
     2
 72
     1
  1
6
  7
SLDTEXTSTYLE0
 73
     1
 44
1.0
  0
MTEXT
  5
100
330
1F
100
AcDbEntity
  8
0
  6
Continuous
 62
     7
370
     0
100
AcDbMText
 10
189.9600369465
 20
9.9615651054
 30
0.0
 40
3.96875
 41
0.0
 71
     2
 72
     1
  1
5
  7
SLDTEXTSTYLE0
 73
     1
 44
1.0
  0
MTEXT
  5
101
330
1F
100
AcDbEntity
  8
0
  6
Continuous
 62
     7
370
     0
100
AcDbMText
 10
189.9600369465
 20
292.0153864187
 30
0.0
 40
3.96875
 41
0.0
 71
     2
 72
     1
  1
5
  7
SLDTEXTSTYLE0
 73
     1
 44
1.0
  0
MTEXT
  5
102
330
1F
100
AcDbEntity
  8
0
  6
Continuous
 62
     7
370
     0
100
AcDbMText
 10
239.9600369465
 20
9.9615651054
 30
0.0
 40
3.96875
 41
0.0
 71
     2
 72
     1
  1
4
  7
SLDTEXTSTYLE0
 73
     1
 44
1.0
  0
MTEXT
  5
103
330
1F
100
AcDbEntity
  8
0
  6
Continuous
 62
     7
370
     0
100
AcDbMText
 10
239.9600369465
 20
292.0153864187
 30
0.0
 40
3.96875
 41
0.0
 71
     2
 72
     1
  1
4
  7
SLDTEXTSTYLE0
 73
     1
 44
1.0
  0
MTEXT
  5
104
330
1F
100
AcDbEntity
  8
0
  6
Continuous
 62
     7
370
     0
100
AcDbMText
 10
289.9600369465
 20
9.9615651054
 30
0.0
 40
3.96875
 41
0.0
 71
     2
 72
     1
  1
3
  7
SLDTEXTSTYLE0
 73
     1
 44
1.0
  0
MTEXT
  5
105
330
1F
100
AcDbEntity
  8
0
  6
Continuous
 62
     7
370
     0
100
AcDbMText
 10
289.9600369465
 20
292.0153864187
 30
0.0
 40
3.96875
 41
0.0
 71
     2
 72
     1
  1
3
  7
SLDTEXTSTYLE0
 73
     1
 44
1.0
  0
MTEXT
  5
106
330
1F
100
AcDbEntity
  8
0
  6
Continuous
 62
     7
370
     0
100
AcDbMText
 10
339.9600369465
 20
9.9615651054
 30
0.0
 40
3.96875
 41
0.0
 71
     2
 72
     1
  1
2
  7
SLDTEXTSTYLE0
 73
     1
 44
1.0
  0
MTEXT
  5
107
330
1F
100
AcDbEntity
  8
0
  6
Continuous
 62
     7
370
     0
100
AcDbMText
 10
339.9600369465
 20
292.0153864187
 30
0.0
 40
3.96875
 41
0.0
 71
     2
 72
     1
  1
2
  7
SLDTEXTSTYLE0
 73
     1
 44
1.0
  0
MTEXT
  5
108
330
1F
100
AcDbEntity
  8
0
  6
Continuous
 62
     7
370
     0
100
AcDbMText
 10
387.4600369465
 20
9.9615651054
 30
0.0
 40
3.96875
 41
0.0
 71
     2
 72
     1
  1
1
  7
SLDTEXTSTYLE0
 73
     1
 44
1.0
  0
MTEXT
  5
109
330
1F
100
AcDbEntity
  8
0
  6
Continuous
 62
     7
370
     0
100
AcDbMText
 10
387.4600369465
 20
292.0153864187
 30
0.0
 40
3.96875
 41
0.0
 71
     2
 72
     1
  1
1
  7
SLDTEXTSTYLE0
 73
     1
 44
1.0
  0
LINE
  5
10A
330
1F
100
AcDbEntity
  8
0
  6
Continuous
 62
     7
370
    25
100
AcDbLine
 10
166.4210141028
 20
212.6418335208
 30
0.0
 11
166.4210141028
 21
217.6418334091
 31
0.0
  0
LINE
  5
10B
330
1F
100
AcDbEntity
  8
0
  6
Continuous
 62
     7
370
    25
100
AcDbLine
 10
103.4210130895
 20
217.6418334091
 30
0.0
 11
103.4210130895
 21
212.6418335208
 31
0.0
  0
LINE
  5
10C
330
1F
100
AcDbEntity
  8
0
  6
Continuous
 62
     7
370
    25
100
AcDbLine
 10
166.4210141028
 20
217.6418334091
 30
0.0
 11
149.0781747127
 21
219.2551206642
 31
0.0
  0
LINE
  5
10D
330
1F
100
AcDbEntity
  8
0
  6
Continuous
 62
     7
370
    25
100
AcDbLine
 10
120.7638524795
 20
219.2551206642
 30
0.0
 11
103.4210130895
 21
217.6418334091
 31
0.0
  0
ARC
  5
10E
330
1F
100
AcDbEntity
  8
0
  6
Continuous
 62
     7
370
    25
100
AcDbCircle
 10
129.0999555938
 20
129.6420114112
 30
0.0
 40
90.0
100
AcDbArc
 50
90.1139180889
 51
95.3145456699
  0
ARC
  5
10F
330
1F
100
AcDbEntity
  8
0
  6
Continuous
 62
     7
370
    25
100
AcDbCircle
 10
140.7420715984
 20
129.6420114112
 30
0.0
 40
90.0
100
AcDbArc
 50
84.6854543301
 51
89.8860819111
  0
LINE
  5
110
330
1F
100
AcDbEntity
  8
0
  6
Continuous
 62
     7
370
    25
100
AcDbLine
 10
166.4210141028
 20
217.6418334091
 30
0.0
 11
103.4210130895
 21
217.6418334091
 31
0.0
  0
LINE
  5
111
330
1F
100
AcDbEntity
  8
0
  6
Continuous
 62
     7
370
    25
100
AcDbLine
 10
166.4210141028
 20
212.6418335208
 30
0.0
 11
103.4210130895
 21
212.6418335208
 31
0.0
  0
LINE
  5
112
330
1F
100
AcDbEntity
  8
0
  6
Continuous
 62
     7
370
    25
100
AcDbLine
 10
140.9210136483
 20
219.6418337369
 30
0.0
 11
128.921013544
 21
219.6418337369
 31
0.0
  0
LINE
  5
113
330
1F
100
AcDbEntity
  8
0
  6
Continuous
 62
     8
370
    25
100
AcDbLine
 10
149.0781747127
 20
219.2551206642
 30
0.0
 11
120.7638524795
 21
219.2551206642
 31
0.0
  0
LINE
  5
114
330
1F
100
AcDbEntity
  8
0
  6
PHANTOM
 62
     7
370
    35
100
AcDbLine
 10
134.9210135961
 20
248.6828389908
 30
0.0
 11
134.9210135961
 21
179.6749509797
 31
0.0
  0
LINE
  5
115
330
1F
100
AcDbEntity
  8
0
  6
Continuous
 62
     7
370
    35
100
AcDbLine
 10
122.2210135961
 20
246.6828389908
 30
0.0
 11
134.9210135961
 21
246.6828389908
 31
0.0
  0
SOLID
  5
116
330
1F
100
AcDbEntity
  8
0
  6
Continuous
 62
     7
370
    35
100
AcDbTrace
 10
134.9210135961
 20
246.6828389908
 30
0.0
 11
128.5710135961
 21
247.6988389908
 31
0.0
 12
128.5710135961
 22
245.6668389908
 32
0.0
 13
128.5710135961
 23
245.6668389908
 33
0.0
  0
LINE
  5
117
330
1F
100
AcDbEntity
  8
0
  6
Continuous
 62
     7
370
    35
100
AcDbLine
 10
122.2210135961
 20
181.6749509797
 30
0.0
 11
134.9210135961
 21
181.6749509797
 31
0.0
  0
SOLID
  5
118
330
1F
100
AcDbEntity
  8
0
  6
Continuous
 62
     7
370
    35
100
AcDbTrace
 10
134.9210135961
 20
181.6749509797
 30
0.0
 11
128.5710135961
 21
182.6909509797
 31
0.0
 12
128.5710135961
 22
180.6589509797
 32
0.0
 13
128.5710135961
 23
180.6589509797
 33
0.0
  0
MTEXT
  5
119
330
1F
100
AcDbEntity
  8
0
  6
Continuous
 62
     7
100
AcDbMText
 10
122.2210135961
 20
252.2394261671
 30
0.0
 40
3.5
 41
0.0
 71
     1
 72
     1
  1
A
  7
SLDTEXTSTYLE0
 73
     1
 44
1.0
  0
MTEXT
  5
11A
330
1F
100
AcDbEntity
  8
0
  6
Continuous
 62
     7
100
AcDbMText
 10
122.2210135961
 20
179.82460745
 30
0.0
 40
3.5
 41
0.0
 71
     1
 72
     1
  1
A
  7
SLDTEXTSTYLE0
 73
     1
 44
1.0
  0
CIRCLE
  5
11B
330
1F
100
AcDbEntity
  8
0
  6
Continuous
 62
     7
370
    25
100
AcDbCircle
 10
134.9210135961
 20
103.0078852643
 30
0.0
 40
14.15716120594952
  0
CIRCLE
  5
11C
330
1F
100
AcDbEntity
  8
0
  6
Continuous
 62
     7
370
    25
100
AcDbCircle
 10
134.9210135961
 20
103.0078852643
 30
0.0
 40
6.0
  0
CIRCLE
  5
11D
330
1F
100
AcDbEntity
  8
0
  6
Continuous
 62
     7
370
    25
100
AcDbCircle
 10
134.9210135961
 20
103.0078852643
 30
0.0
 40
31.5
  0
DIMENSION
  5
11E
330
1F
100
AcDbEntity
  8
0
  6
Continuous
 62
     7
370
    18
100
AcDbDimension
  2
_D
 10
114.7300716294
 20
78.829881573
 30
0.0
 11
177.0778725564
 21
153.4893661861
 31
0.0
 70
   163
  1
<>
 71
     1
 42
-1.0
  3
SLDDIMSTYLE0
100
AcDbDiametricDimension
 15
155.1119555628
 25
127.1858889557
 35
0.0
 40
0.0
  0
DIMENSION
  5
12B
330
1F
100
AcDbEntity
  8
0
  6
Continuous
 62
     7
370
    18
100
AcDbDimension
  2
_D_1
 10
138.5704617959
 20
98.2453724993
 30
0.0
 11
91.8470978072
 21
159.2191661693
 31
0.0
 70
   163
  1
<>
 71
     1
 42
-1.0
  3
SLDDIMSTYLE0
100
AcDbDiametricDimension
 15
131.2715653964
 25
107.7703980294
 35
0.0
 40
0.0
  0
INSERT
  5
13F
330
1F
100
AcDbEntity
  8
0
  6
Continuous
 62
     7
370
     0
100
AcDbBlockReference
  2
SW_CENTERMARKSYMBOL_0
 10
134.9210135961
 20
103.0078852643
 30
0.0
  0
LINE
  5
140
330
1F
100
AcDbEntity
  8
0
  6
Continuous
 62
     7
370
    25
100
AcDbLine
 10
277.8564734019
 20
214.2551208924
 30
0.0
 11
260.5136340119
 21
212.6418335208
 31
0.0
  0
LINE
  5
141
330
1F
100
AcDbEntity
  8
0
  6
Continuous
 62
     7
370
    25
100
AcDbLine
 10
306.1707956351
 20
214.2551208924
 30
0.0
 11
277.8564734019
 21
214.2551208924
 31
0.0
  0
LINE
  5
142
330
1F
100
AcDbEntity
  8
0
  6
Continuous
 62
     7
370
    25
100
AcDbLine
 10
323.5136350252
 20
212.6418335208
 30
0.0
 11
306.1707956351
 21
214.2551208924
 31
0.0
  0
LINE
  5
143
330
1F
100
AcDbEntity
  8
0
  6
Continuous
 62
     7
370
    25
100
AcDbLine
 10
260.5136340119
 20
212.6418335208
 30
0.0
 11
323.5136350252
 21
212.6418335208
 31
0.0
  0
LINE
  5
144
330
1F
100
AcDbEntity
  8
0
  6
Continuous
 62
     7
370
    25
100
AcDbLine
 10
260.5136340119
 20
217.6418334091
 30
0.0
 11
277.8564734019
 21
219.2551206642
 31
0.0
  0
LINE
  5
145
330
1F
100
AcDbEntity
  8
0
  6
Continuous
 62
     7
370
    25
100
AcDbLine
 10
306.1707956351
 20
219.2551206642
 30
0.0
 11
323.5136350252
 21
217.6418334091
 31
0.0
  0
ARC
  5
146
330
1F
100
AcDbEntity
  8
0
  6
Continuous
 62
     7
370
    25
100
AcDbCircle
 10
286.1925765162
 20
129.6420114112
 30
0.0
 40
90.0
100
AcDbArc
 50
90.1139180889
 51
95.3145456699
  0
LINE
  5
147
330
1F
100
AcDbEntity
  8
0
  6
Continuous
 62
     7
370
    25
100
AcDbLine
 10
286.0136344664
 20
219.6418337369
 30
0.0
 11
286.0136344664
 21
214.6418336158
 31
0.0
  0
ARC
  5
148
330
1F
100
AcDbEntity
  8
0
  6
Continuous
 62
     7
370
    25
100
AcDbCircle
 10
286.1925765162
 20
124.6420114112
 30
0.0
 40
90.0
100
AcDbArc
 50
90.1139180889
 51
95.3145456699
  0
LINE
  5
149
330
1F
100
AcDbEntity
  8
0
  6
Continuous
 62
     7
370
    25
100
AcDbLine
 10
260.5136340119
 20
212.6418335208
 30
0.0
 11
260.5136340119
 21
217.6418334091
 31
0.0
  0
LINE
  5
14A
330
1F
100
AcDbEntity
  8
0
  6
Continuous
 62
     7
370
    25
100
AcDbLine
 10
323.5136350252
 20
217.6418334091
 30
0.0
 11
323.5136350252
 21
212.6418335208
 31
0.0
  0
ARC
  5
14B
330
1F
100
AcDbEntity
  8
0
  6
Continuous
 62
     7
370
    25
100
AcDbCircle
 10
297.8346925208
 20
124.6420114112
 30
0.0
 40
90.0
100
AcDbArc
 50
84.6854543301
 51
89.8860819111
  0
LINE
  5
14C
330
1F
100
AcDbEntity
  8
0
  6
Continuous
 62
     7
370
    25
100
AcDbLine
 10
286.0136344664
 20
214.6418336158
 30
0.0
 11
298.0136345707
 21
214.6418336158
 31
0.0
  0
ARC
  5
14D
330
1F
100
AcDbEntity
  8
0
  6
Continuous
 62
     7
370
    25
100
AcDbCircle
 10
297.8346925208
 20
129.6420114112
 30
0.0
 40
90.0
100
AcDbArc
 50
84.6854543301
 51
89.8860819111
  0
LINE
  5
14E
330
1F
100
AcDbEntity
  8
0
  6
Continuous
 62
     7
370
    25
100
AcDbLine
 10
286.0136344664
 20
219.6418337369
 30
0.0
 11
298.0136345707
 21
219.6418337369
 31
0.0
  0
LINE
  5
14F
330
1F
100
AcDbEntity
  8
0
  6
Continuous
 62
     7
370
    25
100
AcDbLine
 10
298.0136345707
 20
214.6418336158
 30
0.0
 11
298.0136345707
 21
219.6418337369
 31
0.0
  0
HATCH
  5
150
330
1F
100
AcDbEntity
  8
0
  6
Continuous
 62
     7
370
    18
100
AcDbHatch
 10
0.0
 20
0.0
 30
0.0
210
0.0
220
0.0
230
1.0
  2
DIN 201 acier et fonte
 70
     0
 71
     0
 91
        1
 92
        0
 93
        6
 72
     1
 10
277.8564733125618
 20
219.255120850489
 11
260.5136345185113
 21
217.6418335208099
 72
     1
 10
260.5136345185113
 20
217.6418335208099
 11
260.5136345185113
 21
212.6418335208099
 72
     1
 10
260.5136345185113
 20
212.6418335208099
 11
277.8564733125617
 21
214.255120850489
 72
     2
 10
286.1925765162164
 20
124.6420114111998
 40
89.99999999999997
 50
264.6854543300561
 51
269.8860819110999
 73
     0
 72
     1
 10
286.0136345185119
 20
214.6418335208099
 11
286.0136345185113
 21
219.6418335208099
 72
     2
 10
286.1925765162165
 20
129.6420114111998
 40
89.99999999999997
 50
90.11391808890146
 51
95.31454566994474
 73
     1
 97
        0
 75
     0
 76
     2
 52
0.0
 41
1.0
 77
     0
 78
     4
 53
45.00000209717174
 43
0.0
 44
0.0
 45
-13.47038467465416
 46
13.47038368855329
 79
     0
 53
45.00000209717174
 43
4.490128
 44
0.0
 45
-13.47038467465416
 46
13.47038368855329
 79
     0
 53
45.00000209717174
 43
8.980256
 44
0.0
 45
-13.47038467465416
 46
13.47038368855329
 79
     0
 53
45.00000209717174
 43
13.47038
 44
0.0
 45
-13.47038467465416
 46
13.47038368855329
 79
     0
 98
        1
 10
0.0
 20
0.0
  0
HATCH
  5
151
330
1F
100
AcDbEntity
  8
0
  6
Continuous
 62
     7
370
    18
100
AcDbHatch
 10
0.0
 20
0.0
 30
0.0
210
0.0
220
0.0
230
1.0
  2
DIN 201 acier et fonte
 70
     0
 71
     0
 91
        1
 92
        0
 93
        6
 72
     1
 10
323.5136345185113
 20
217.6418335208099
 11
306.1707957244607
 21
219.255120850489
 72
     2
 10
297.834692520806
 20
129.6420114111998
 40
89.99999999999997
 50
84.68545433005526
 51
89.88608191109854
 73
     1
 72
     1
 10
298.0136345185113
 20
219.6418335208099
 11
298.0136345185106
 21
214.6418335208099
 72
     2
 10
297.8346925208061
 20
124.6420114111998
 40
89.99999999999997
 50
270.1139180889018
 51
275.3145456699456
 73
     0
 72
     1
 10
306.1707957244608
 20
214.255120850489
 11
323.5136345185113
 21
212.6418335208099
 72
     1
 10
323.5136345185113
 20
212.6418335208099
 11
323.5136345185113
 21
217.6418335208099
 97
        0
 75
     0
 76
     2
 52
0.0
 41
1.0
 77
     0
 78
     4
 53
45.00000209717174
 43
0.0
 44
0.0
 45
-13.47038467465416
 46
13.47038368855329
 79
     0
 53
45.00000209717174
 43
4.490128
 44
0.0
 45
-13.47038467465416
 46
13.47038368855329
 79
     0
 53
45.00000209717174
 43
8.980256
 44
0.0
 45
-13.47038467465416
 46
13.47038368855329
 79
     0
 53
45.00000209717174
 43
13.47038
 44
0.0
 45
-13.47038467465416
 46
13.47038368855329
 79
     0
 98
        1
 10
0.0
 20
0.0
  0
DIMENSION
  5
152
330
1F
100
AcDbEntity
  8
0
  6
Continuous
 62
     7
370
    18
100
AcDbDimension
  2
_D_2
 10
277.8564733126
 20
219.2551208505
 30
0.0
 11
240.3735901111
 21
218.0827173382
 31
0.0
 70
   162
  1
<>
 71
     1
 42
-1.0
  3
SLDDIMSTYLE1
100
AcDb2LineAngularDimension
 13
286.0136345185
 23
219.6418335208
 33
0.0
 14
298.0136345185
 24
219.6418335208
 34
0.0
 15
260.5136345185
 25
217.6418335208
 35
0.0
 16
240.3892174019
 26
217.7099843481
 36
0.0
  0
DIMENSION
  5
15F
330
1F
100
AcDbEntity
  8
0
  6
Continuous
 62
     7
370
    18
100
AcDbDimension
  2
_D_3
 10
348.2398372273
 20
217.6418335208
 30
0.0
 11
348.2398372273
 21
215.2379305365
 31
0.0
 70
   160
  1
<>
 71
     2
 42
-1.0
  3
SLDDIMSTYLE2
100
AcDbAlignedDimension
 13
323.5136345185
 23
212.6418335208
 33
0.0
 14
323.5136345185
 24
217.6418335208
 34
0.0
 50
90.0
100
AcDbRotatedDimension
  0
MTEXT
  5
16C
330
1F
100
AcDbEntity
  8
0
  6
Continuous
 62
     7
370
     0
100
AcDbMText
 10
292.6469815018
 20
252.3222271584
 30
0.0
 40
3.5
 41
0.0
 71
     2
 72
     1
  1
COUPE A-A
  7
SLDTEXTSTYLE0
 73
     1
 44
1.0
  0
LINE
  5
16D
330
1F
100
AcDbEntity
  8
0
  6
Continuous
 62
     7
370
    25
100
AcDbLine
 10
325.4566318493
 20
129.1629626189
 30
0.0
 11
325.4566318493
 21
133.2456665871
 31
0.0
  0
LINE
  5
16E
330
1F
100
AcDbEntity
  8
0
  6
Continuous
 62
     7
370
    25
100
AcDbLine
 10
262.4566343184
 20
133.2456665871
 30
0.0
 11
262.4566343184
 21
129.1629626189
 31
0.0
  0
LWPOLYLINE
  5
16F
330
1F
100
AcDbEntity
  8
0
  6
Continuous
 62
     7
370
    25
100
AcDbPolyline
 90
      143
 70
   128
 43
0.0
 10
316.2304970495
 20
120.3872386191
 10
315.2234490592
 20
119.8310524611
 10
314.174768379
 20
119.3011271872
 10
313.0865113965
 20
118.7984978568
 10
311.9608066098
 20
118.324149917
 10
310.7998571796
 20
117.8790115521
 10
309.60593706
 20
117.4639544911
 10
308.3813821085
 20
117.0797903963
 10
307.1285907441
 20
116.7272712431
 10
305.8500147281
 20
116.4070885602
 10
304.5481552124
 20
116.1198681069
 10
303.2255633985
 20
115.8661717738
 10
301.8848280249
 20
115.6464964428
 10
300.5285714158
 20
115.4612732261
 10
299.1594521154
 20
115.3108629049
 10
297.7801451314
 20
115.195561251
 10
296.3933557647
 20
115.115593325
 10
295.0017945845
 20
115.0711157567
 10
293.6081892821
 20
115.0622159851
 10
292.2152649148
 20
115.0889114981
 10
290.8257504909
 20
115.1511490719
 10
289.4423631652
 20
115.2488078125
 10
288.0678135067
 20
115.3816961145
 10
286.7047910113
 20
115.5495539418
 10
285.355966077
 20
115.7520532079
 10
284.0239755159
 20
115.9887970158
 10
282.7114297985
 20
116.2593215586
 10
281.4208952727
 20
116.5630972598
 10
280.1549020666
 20
116.8995302944
 10
278.9159263074
 20
117.2679622087
 10
277.7063917683
 20
117.6676704903
 10
276.5286688802
 20
118.0978737003
 10
275.3850622196
 20
118.5577295729
 10
274.2778095208
 20
119.0463371061
 10
273.2090806878
 20
119.5627416938
 10
272.180963595
 20
120.1059296375
 10
271.1954748702
 20
120.6748401687
 10
270.2545438018
 20
121.268359533
 10
269.3600078938
 20
121.8853235558
 10
268.5136231138
 20
122.524526933
 10
267.7170430671
 20
123.1847170057
 10
266.9718285042
 20
123.8646019572
 10
266.2794384305
 20
124.562851384
 10
265.6412264842
 20
125.2780968653
 10
265.0584442292
 20
126.0089391868
 10
264.5322322644
 20
126.7539489105
 10
264.0636192366
 20
127.5116654247
 10
263.653522498
 20
128.2806072083
 10
263.3027454731
 20
129.0592672686
 10
263.0119756823
 20
129.8461234065
 10
262.7817814496
 20
130.639634034
 10
262.6126132193
 20
131.4382465382
 10
262.5048028979
 20
132.2403961409
 10
262.4585599025
 20
133.044514262
 10
262.4739764294
 20
133.8490254785
 10
262.5510221856
 20
134.6523566485
 10
262.6895457058
 20
135.4529331091
 10
262.8892756696
 20
136.2491900822
 10
263.1498222187
 20
137.0395658307
 10
263.4706730056
 20
137.8225161056
 10
263.8512030713
 20
138.5965061619
 10
264.2906656266
 20
139.3600221642
 10
264.7881999536
 20
140.1115696655
 10
265.3428327237
 20
140.8496758885
 10
265.9534799725
 20
141.572896949
 10
266.6189438076
 20
142.2798174752
 10
267.337921628
 20
142.9690528895
 10
268.1090074412
 20
143.6392547299
 10
268.9306912045
 20
144.2891102707
 10
269.8013650816
 20
144.9173476543
 10
270.7193220427
 20
145.5227381248
 10
271.6827691182
 20
146.1040945551
 10
272.6898171085
 20
146.660280713
 10
273.7384977887
 20
147.1902059869
 10
274.8267547712
 20
147.6928353174
 10
275.9524595579
 20
148.1671832572
 10
277.1134089881
 20
148.6123216221
 10
278.3073291076
 20
149.027378683
 10
279.5318840592
 20
149.4115427779
 10
280.7846754235
 20
149.7640619311
 10
282.0632514396
 20
150.0842446139
 10
283.3651109553
 20
150.3714650673
 10
284.6877027691
 20
150.6251614004
 10
286.0284381427
 20
150.8448367314
 10
287.3846947519
 20
151.0300599481
 10
288.7538140523
 20
151.1804702693
 10
290.1331210363
 20
151.2957719231
 10
291.519910403
 20
151.3757398492
 10
292.9114715832
 20
151.4202174175
 10
294.3050768855
 20
151.429117189
 10
295.6980012529
 20
151.4024216761
 10
297.0875156767
 20
151.3401841023
 10
298.4709030025
 20
151.2425253616
 10
299.845452661
 20
151.1096370597
 10
301.2084751564
 20
150.9417792324
 10
302.5573000907
 20
150.7392799663
 10
303.8892906518
 20
150.5025361583
 10
305.2018363692
 20
150.2320116156
 10
306.492370895
 20
149.9282359144
 10
307.7583641011
 20
149.5918028797
 10
308.9973398603
 20
149.2233709654
 10
310.2068743994
 20
148.8236626839
 10
311.3845972875
 20
148.3934594739
 10
312.5282039481
 20
147.9336036013
 10
313.6354566469
 20
147.4449960681
 10
314.7041854799
 20
146.9285914804
 10
315.7323025727
 20
146.3854035367
 10
316.7177912975
 20
145.8164930054
 10
317.6587223659
 20
145.2229736412
 10
318.5532582739
 20
144.6060096183
 10
319.3996430539
 20
143.9668062411
 10
320.1962231006
 20
143.3066161685
 10
320.9414376634
 20
142.626731217
 10
321.6338277371
 20
141.9284817902
 10
322.2720396834
 20
141.2132363089
 10
322.8548219385
 20
140.4823939874
 10
323.3810339032
 20
139.7373842636
 10
323.8496469311
 20
138.9796677494
 10
324.2597436697
 20
138.2107259659
 10
324.6105206946
 20
137.4320659055
 10
324.9012904854
 20
136.6452097676
 10
325.1314847181
 20
135.8516991402
 10
325.3006529484
 20
135.0530866359
 10
325.4084632698
 20
134.2509370333
 10
325.4547062652
 20
133.4468189122
 10
325.4392897382
 20
132.6423076956
 10
325.3622439821
 20
131.8389765257
 10
325.2237204619
 20
131.038400065
 10
325.0239904981
 20
130.242143092
 10
324.7634439489
 20
129.4517673435
 10
324.4425931621
 20
128.6688170686
 10
324.0620630964
 20
127.8948270122
 10
323.6226005411
 20
127.13131101
 10
323.1250662141
 20
126.3797635087
 10
322.570433444
 20
125.6416572857
 10
321.9597861952
 20
124.9184362252
 10
321.29432236
 20
124.2115156989
 10
320.5753445396
 20
123.5222802847
 10
319.8042587265
 20
122.8520784443
 10
318.9825749632
 20
122.2022229035
 10
318.1119010861
 20
121.5739855199
 10
317.193944125
 20
120.9685950493
 10
316.2304970495
 20
120.3872386191
  0
LWPOLYLINE
  5
170
330
1F
100
AcDbEntity
  8
0
  6
Continuous
 62
     7
370
    25
100
AcDbPolyline
 90
       96
 70
   128
 43
0.0
 10
283.9460084559
 20
140.3419920602
 10
284.6295031985
 20
140.7112952996
 10
285.3537835781
 20
141.0537133213
 10
286.1156819545
 20
141.3677489936
 10
286.9118665452
 20
141.6520294049
 10
287.738856037
 20
141.905311258
 10
288.5930346912
 20
142.1264865484
 10
289.4706670789
 20
142.3145887899
 10
290.3679148732
 20
142.4687951051
 10
291.2808554539
 20
142.5884316434
 10
292.2054967241
 20
142.672974531
 10
293.1377948913
 20
142.7220548133
 10
294.0736735651
 20
142.7354573142
 10
295.0090412082
 20
142.7131238678
 10
295.9398069424
 20
142.6551517976
 10
296.8618999747
 20
142.5617948666
 10
297.7712893541
 20
142.4334609971
 10
298.6639978011
 20
142.2707111293
 10
299.5361224518
 20
142.0742578912
 10
300.383850004
 20
141.844959896
 10
301.2034720291
 20
141.5838189857
 10
301.9914058803
 20
141.2919780455
 10
302.7442058057
 20
140.9707130671
 10
303.4585799061
 20
140.6214286825
 10
304.1314043755
 20
140.2456522231
 10
304.759737578
 20
139.845027115
 10
305.3408307487
 20
139.4213044194
 10
305.8721442931
 20
138.9763379863
 10
306.351353796
 20
138.5120726209
 10
306.7763649213
 20
138.0305392846
 10
307.1453184332
 20
137.5338430718
 10
307.4566012269
 20
137.0241560818
 10
307.7088514323
 20
136.5037068692
 10
307.9009673045
 20
135.9747715095
 10
308.0321085407
 20
135.4396629551
 10
308.1017002316
 20
134.9007203896
 10
308.1094401052
 20
134.3603012453
 10
308.0552932587
 20
133.8207682764
 10
307.9394961095
 20
133.2844811961
 10
307.7625557369
 20
132.7537841302
 10
307.5252452722
 20
132.2309983949
 10
307.22860324
 20
131.7184099501
 10
306.8739259853
 20
131.2182597059
 10
306.4627643803
 20
130.7327355387
 10
305.9969170747
 20
130.2639600307
 10
305.4784202881
 20
129.8139830565
 10
304.9095424595
 20
129.3847718517
 10
304.2927695325
 20
128.9782040385
 10
303.6307995641
 20
128.59605691
 10
302.9265271455
 20
128.2400014781
 10
302.1830309722
 20
127.9115952979
 10
301.4035635339
 20
127.6122734743
 10
300.5915325513
 20
127.3433455491
 10
299.7504888966
 20
127.1059870068
 10
298.8841093882
 20
126.9012361859
 10
297.9961839499
 20
126.7299883858
 10
297.0905943723
 20
126.5929919706
 10
296.1713004835
 20
126.4908464677
 10
295.2423233562
 20
126.4239981964
 10
294.3077235759
 20
126.3927398873
 10
293.3715887284
 20
126.3972080212
 10
292.4380116677
 20
126.4373824492
 10
291.5110760284
 20
126.5130886734
 10
290.5948338349
 20
126.6239948057
 10
289.6932916718
 20
126.7696157497
 10
288.8103922452
 20
126.9493154815
 10
287.949995943
 20
127.1623078102
 10
287.1158653592
 20
127.4076615103
 10
286.3116470194
 20
127.6843032679
 10
285.540859033
 20
127.9910240483
 10
284.8068702668
 20
128.3264819954
 10
284.1128920307
 20
128.6892110323
 10
283.4619575807
 20
129.0776243308
 10
282.8569137225
 20
129.4900237208
 10
282.3004061585
 20
129.9246058674
 10
281.7948680462
 20
130.3794703977
 10
281.3425097077
 20
130.8526281213
 10
280.9453108926
 20
131.3420108204
 10
280.6050070303
 20
131.8454776646
 10
280.3230854436
 20
132.3608272816
 10
280.100780574
 20
132.8858065958
 10
279.9390641041
 20
133.4181195727
 10
279.8386426521
 20
133.9554391939
 10
279.7999557964
 20
134.4954154406
 10
279.8231721245
 20
135.0356866989
 10
279.908190879
 20
135.5738909749
 10
280.0546393238
 20
136.1076750183
 10
280.2618783413
 20
136.6347043974
 10
280.5290004574
 20
137.1526745237
 10
280.8548384018
 20
137.6593209168
 10
281.2379667549
 20
138.1524277579
 10
281.676711332
 20
138.6298386295
 10
282.1691528051
 20
139.0894662102
 10
282.7131374867
 20
139.5293007808
 10
283.3062871668
 20
139.947418944
 10
283.9460084559
 20
140.3419920602
  0
LWPOLYLINE
  5
171
330
1F
100
AcDbEntity
  8
0
  6
Continuous
 62
     7
370
    25
100
AcDbPolyline
 90
       55
 70
   128
 43
0.0
 10
316.2304970495
 20
116.3045346509
 10
315.2234490592
 20
115.748348493
 10
314.174768379
 20
115.2184232191
 10
313.0865113965
 20
114.7157938886
 10
311.9608066098
 20
114.2414459488
 10
310.7998571796
 20
113.7963075839
 10
309.60593706
 20
113.3812505229
 10
308.3813821085
 20
112.9970864281
 10
307.1285907441
 20
112.6445672749
 10
305.8500147281
 20
112.324384592
 10
304.5481552124
 20
112.0371641387
 10
303.2255633985
 20
111.7834678056
 10
301.8848280249
 20
111.5637924746
 10
300.5285714158
 20
111.3785692579
 10
299.1594521154
 20
111.2281589367
 10
297.7801451314
 20
111.1128572828
 10
296.3933557647
 20
111.0328893568
 10
295.0017945845
 20
110.9884117885
 10
293.6081892821
 20
110.979512017
 10
292.2152649148
 20
111.0062075299
 10
290.8257504909
 20
111.0684451037
 10
289.4423631652
 20
111.1661038443
 10
288.0678135067
 20
111.2989921463
 10
286.7047910113
 20
111.4668499736
 10
285.355966077
 20
111.6693492397
 10
284.0239755159
 20
111.9060930477
 10
282.7114297985
 20
112.1766175904
 10
281.4208952727
 20
112.4803932916
 10
280.1549020666
 20
112.8168263263
 10
278.9159263074
 20
113.1852582406
 10
277.7063917683
 20
113.5849665221
 10
276.5286688802
 20
114.0151697321
 10
275.3850622196
 20
114.4750256047
 10
274.2778095208
 20
114.9636331379
 10
273.2090806878
 20
115.4800377256
 10
272.180963595
 20
116.0232256693
 10
271.1954748702
 20
116.5921362006
 10
270.2545438018
 20
117.1856555648
 10
269.3600078938
 20
117.8026195876
 10
268.5136231138
 20
118.4418229649
 10
267.7170430671
 20
119.1020130375
 10
266.9718285042
 20
119.781897989
 10
266.2794384305
 20
120.4801474158
 10
265.6412264842
 20
121.1953928971
 10
265.0584442292
 20
121.9262352186
 10
264.5322322644
 20
122.6712449424
 10
264.0636192366
 20
123.4289614566
 10
263.653522498
 20
124.1979032401
 10
263.3027454731
 20
124.9765633005
 10
263.0119756823
 20
125.7634194383
 10
262.7817814496
 20
126.5569300658
 10
262.6126132193
 20
127.35554257
 10
262.5048028979
 20
128.1576921727
 10
262.4585599025
 20
128.9618102938
 10
262.4566343184
 20
129.1629626189
  0
LWPOLYLINE
  5
172
330
1F
100
AcDbEntity
  8
0
  6
Continuous
 62
     7
370
    25
100
AcDbPolyline
 90
       19
 70
   128
 43
0.0
 10
325.4566318493
 20
129.1629626189
 10
325.4392897382
 20
128.5596037274
 10
325.3622439821
 20
127.7562725575
 10
325.2237204619
 20
126.9556960969
 10
325.0239904981
 20
126.1594391238
 10
324.7634439489
 20
125.3690633753
 10
324.4425931621
 20
124.5861131004
 10
324.0620630964
 20
123.8121230441
 10
323.6226005411
 20
123.0486070418
 10
323.1250662141
 20
122.2970595405
 10
322.570433444
 20
121.5589533175
 10
321.9597861952
 20
120.835732257
 10
321.29432236
 20
120.1288117308
 10
320.5753445396
 20
119.4395763165
 10
319.8042587265
 20
118.7693744761
 10
318.9825749632
 20
118.1195189353
 10
318.1119010861
 20
117.4912815517
 10
317.193944125
 20
116.8858910812
 10
316.2304970495
 20
116.3045346509
  0
LWPOLYLINE
  5
173
330
1F
100
AcDbEntity
  8
0
  6
Continuous
 62
     7
370
    25
100
AcDbPolyline
 90
       63
 70
   128
 43
0.0
 10
298.1992738078
 20
132.4295241218
 10
297.7482854478
 20
132.1943063386
 10
297.2583892904
 20
131.986634698
 10
296.7346130348
 20
131.8086398846
 10
296.1823306101
 20
131.6621487323
 10
295.6072096972
 20
131.5486641943
 10
295.0151515135
 20
131.4693507303
 10
294.4122316259
 20
131.4250221885
 10
293.8046367309
 20
131.4161338221
 10
293.1986014339
 20
131.4427763964
 10
292.6003446999
 20
131.5046767597
 10
292.0160053164
 20
131.6011997435
 10
291.4515791663
 20
131.7313547207
 10
290.912858231
 20
131.8938061078
 10
290.4053709092
 20
132.0868872886
 10
289.934324086
 20
132.3086165694
 10
289.5045516428
 20
132.5567189199
 10
289.1204636462
 20
132.8286484627
 10
288.7860009914
 20
133.1216146576
 10
288.5045964444
 20
133.4326116338
 10
288.279136982
 20
133.7584479147
 10
288.1119361534
 20
134.0957798605
 10
288.004709961
 20
134.4411461216
 10
287.9585586679
 20
134.7910028517
 10
287.9739554385
 20
135.1417599185
 10
288.0507430453
 20
135.489818161
 10
288.188132881
 20
135.8316060753
 10
288.3847151668
 20
136.1636163113
 10
288.6384727806
 20
136.4824421686
 10
288.9468022491
 20
136.7848117649
 10
289.3065390601
 20
137.0676227967
 10
289.7139923598
 20
137.3279728353
 10
290.1649807199
 20
137.5631906185
 10
290.6548768773
 20
137.7708622591
 10
291.1786531329
 20
137.9488570725
 10
291.7309355576
 20
138.0953482248
 10
292.3060564705
 20
138.2088327628
 10
292.8981146542
 20
138.2881462267
 10
293.5010345418
 20
138.3324747685
 10
294.1086294368
 20
138.341363135
 10
294.7146647338
 20
138.3147205607
 10
295.3129214677
 20
138.2528201974
 10
295.8972608513
 20
138.1562972136
 10
296.4616870014
 20
138.0261422364
 10
297.0004079367
 20
137.8636908492
 10
297.5078952585
 20
137.6706096684
 10
297.9789420817
 20
137.4488803877
 10
298.4087145249
 20
137.2007780372
 10
298.7928025215
 20
136.9288484944
 10
299.1272651763
 20
136.6358822995
 10
299.4086697233
 20
136.3248853232
 10
299.6341291857
 20
135.9990490424
 10
299.8013300143
 20
135.6617170966
 10
299.9085562067
 20
135.3163508354
 10
299.9547074997
 20
134.9664941054
 10
299.9393107291
 20
134.6157370386
 10
299.8625231224
 20
134.2676787961
 10
299.7251332866
 20
133.9258908818
 10
299.5285510009
 20
133.5938806458
 10
299.2747933871
 20
133.2750547884
 10
298.9664639186
 20
132.9726851922
 10
298.6067271076
 20
132.6898741603
 10
298.1992738078
 20
132.4295241218
  0
ARC
  5
174
330
1F
100
AcDbEntity
  8
0
  6
Continuous
 62
     7
370
    25
100
AcDbCircle
 10
293.9566330838
 20
125.5804433595
 30
0.0
 40
8.72692963939357
100
AcDbArc
 50
56.2591730177
 51
123.7408269823
  0
ENDSEC
  0
SECTION
  2
OBJECTS
  0
DICTIONARY
  5
C
330
0
100
AcDbDictionary
281
     1
  3
ACAD_GROUP
350
D
  3
ACAD_LAYOUT
350
1A
  3
ACAD_MLINESTYLE
350
17
  3
ACAD_PLOTSETTINGS
350
19
  3
ACAD_PLOTSTYLENAME
350
E
  3
ACAD_SCALELIST
350
47
  0
DICTIONARY
  5
D
102
{ACAD_REACTORS
330
C
102
}
330
C
100
AcDbDictionary
281
     1
  0
DICTIONARY
  5
1A
102
{ACAD_REACTORS
330
C
102
}
330
C
100
AcDbDictionary
281
     1
  3
Layout1
350
1E
  3
Layout2
350
26
  3
Model
350
22
  0
DICTIONARY
  5
17
102
{ACAD_REACTORS
330
C
102
}
330
C
100
AcDbDictionary
281
     1
  3
Standard
350
18
  0
DICTIONARY
  5
19
102
{ACAD_REACTORS
330
C
102
}
330
C
100
AcDbDictionary
281
     1
  0
ACDBDICTIONARYWDFLT
  5
E
102
{ACAD_REACTORS
330
C
102
}
330
C
100
AcDbDictionary
281
     1
  3
Normal
350
F
100
AcDbDictionaryWithDefault
340
F
  0
DICTIONARY
  5
47
102
{ACAD_REACTORS
330
C
102
}
330
C
100
AcDbDictionary
281
     1
  3
A0
350
48
  3
A1
350
49
  3
A2
350
4A
  3
A3
350
4B
  3
A4
350
4C
  3
A5
350
4D
  3
A6
350
4E
  3
A7
350
4F
  3
A8
350
50
  3
A9
350
51
  3
B0
350
52
  3
B1
350
53
  3
B2
350
54
  3
B3
350
55
  3
B4
350
56
  3
B5
350
57
  3
B6
350
58
  3
B7
350
59
  3
B8
350
5A
  3
B9
350
5B
  3
C0
350
5C
  3
C1
350
5D
  3
C2
350
5E
  3
C3
350
5F
  3
C4
350
60
  3
C5
350
61
  3
C6
350
62
  3
C7
350
63
  3
C8
350
64
  3
C9
350
65
  3
D0
350
66
  3
D1
350
67
  3
D2
350
68
  0
LAYOUT
  5
1E
102
{ACAD_REACTORS
330
1A
102
}
330
1A
100
AcDbPlotSettings
  1

  2
none_device
  4

  6

 40
0.0
 41
0.0
 42
0.0
 43
0.0
 44
0.0
 45
0.0
 46
0.0
 47
0.0
 48
0.0
 49
0.0
140
0.0
141
0.0
142
1.0
143
1.0
 70
   688
 72
     1
 73
     0
 74
     5
  7

 75
    16
147
1.0
148
0.0
149
0.0
100
AcDbLayout
  1
Layout1
 70
     1
 71
     1
 10
0.0
 20
0.0
 11
420.0
 21
297.0
 12
0.0
 22
0.0
 32
0.0
 14
1.0000000000E+20
 24
1.0000000000E+20
 34
1.0000000000E+20
 15
-1.0000000000E+20
 25
-1.0000000000E+20
 35
-1.0000000000E+20
146
0.0
 13
0.0
 23
0.0
 33
0.0
 16
1.0
 26
0.0
 36
0.0
 17
0.0
 27
1.0
 37
0.0
 76
     0
330
1B
  0
LAYOUT
  5
26
102
{ACAD_REACTORS
330
1A
102
}
330
1A
100
AcDbPlotSettings
  1

  2
none_device
  4

  6

 40
0.0
 41
0.0
 42
0.0
 43
0.0
 44
0.0
 45
0.0
 46
0.0
 47
0.0
 48
0.0
 49
0.0
140
0.0
141
0.0
142
1.0
143
1.0
 70
   688
 72
     1
 73
     0
 74
     5
  7

 75
    16
147
1.0
148
0.0
149
0.0
100
AcDbLayout
  1
Layout2
 70
     1
 71
     2
 10
0.0
 20
0.0
 11
0.0
 21
0.0
 12
0.0
 22
0.0
 32
0.0
 14
0.0
 24
0.0
 34
0.0
 15
0.0
 25
0.0
 35
0.0
146
0.0
 13
0.0
 23
0.0
 33
0.0
 16
1.0
 26
0.0
 36
0.0
 17
0.0
 27
1.0
 37
0.0
 76
     0
330
23
  0
LAYOUT
  5
22
102
{ACAD_REACTORS
330
1A
102
}
330
1A
100
AcDbPlotSettings
  1

  2
none_device
  4
Letter_(8.50_x_11.00_Inches)
  6

 40
6.35
 41
6.35
 42
6.35000508
 43
6.35000508
 44
215.9
 45
279.4
 46
0.0
 47
0.0
 48
0.0
 49
0.0
140
0.0
141
0.0
142
1.0
143
1.0
 70
  1712
 72
     1
 73
     0
 74
     0
  7

 75
     0
147
1.0
148
0.0
149
0.0
100
AcDbLayout
  1
Model
 70
     1
 71
     0
 10
0.0
 20
0.0
 11
420.0
 21
297.0
 12
0.0
 22
0.0
 32
0.0
 14
0.0
 24
0.0
 34
0.0
 15
420.0
 25
297.0
 35
0.0
146
0.0
 13
0.0
 23
0.0
 33
0.0
 16
1.0
 26
0.0
 36
0.0
 17
0.0
 27
1.0
 37
0.0
 76
     0
330
1F
331
29
  0
MLINESTYLE
  5
18
102
{ACAD_REACTORS
330
17
102
}
330
17
100
AcDbMlineStyle
  2
Standard
 70
     0
  3

 62
   256
 51
90.0
 52
90.0
 71
     2
 49
0.5
 62
   256
  6
BYLAYER
 49
-0.5
 62
   256
  6
BYLAYER
  0
ACDBPLACEHOLDER
  5
F
102
{ACAD_REACTORS
330
E
102
}
330
E
  0
SCALE
  5
48
102
{ACAD_REACTORS
330
47
102
}
330
47
100
AcDbScale
 70
     0
300
1:1
140
1.0
141
1.0
290
     1
  0
SCALE
  5
49
102
{ACAD_REACTORS
330
47
102
}
330
47
100
AcDbScale
 70
     0
300
1:2
140
1.0
141
2.0
290
     0
  0
SCALE
  5
4A
102
{ACAD_REACTORS
330
47
102
}
330
47
100
AcDbScale
 70
     0
300
1:4
140
1.0
141
4.0
290
     0
  0
SCALE
  5
4B
102
{ACAD_REACTORS
330
47
102
}
330
47
100
AcDbScale
 70
     0
300
1:5
140
1.0
141
5.0
290
     0
  0
SCALE
  5
4C
102
{ACAD_REACTORS
330
47
102
}
330
47
100
AcDbScale
 70
     0
300
1:8
140
1.0
141
8.0
290
     0
  0
SCALE
  5
4D
102
{ACAD_REACTORS
330
47
102
}
330
47
100
AcDbScale
 70
     0
300
1:10
140
1.0
141
10.0
290
     0
  0
SCALE
  5
4E
102
{ACAD_REACTORS
330
47
102
}
330
47
100
AcDbScale
 70
     0
300
1:16
140
1.0
141
16.0
290
     0
  0
SCALE
  5
4F
102
{ACAD_REACTORS
330
47
102
}
330
47
100
AcDbScale
 70
     0
300
1:20
140
1.0
141
20.0
290
     0
  0
SCALE
  5
50
102
{ACAD_REACTORS
330
47
102
}
330
47
100
AcDbScale
 70
     0
300
1:30
140
1.0
141
30.0
290
     0
  0
SCALE
  5
51
102
{ACAD_REACTORS
330
47
102
}
330
47
100
AcDbScale
 70
     0
300
1:40
140
1.0
141
40.0
290
     0
  0
SCALE
  5
52
102
{ACAD_REACTORS
330
47
102
}
330
47
100
AcDbScale
 70
     0
300
1:50
140
1.0
141
50.0
290
     0
  0
SCALE
  5
53
102
{ACAD_REACTORS
330
47
102
}
330
47
100
AcDbScale
 70
     0
300
1:100
140
1.0
141
100.0
290
     0
  0
SCALE
  5
54
102
{ACAD_REACTORS
330
47
102
}
330
47
100
AcDbScale
 70
     0
300
2:1
140
2.0
141
1.0
290
     0
  0
SCALE
  5
55
102
{ACAD_REACTORS
330
47
102
}
330
47
100
AcDbScale
 70
     0
300
4:1
140
4.0
141
1.0
290
     0
  0
SCALE
  5
56
102
{ACAD_REACTORS
330
47
102
}
330
47
100
AcDbScale
 70
     0
300
8:1
140
8.0
141
1.0
290
     0
  0
SCALE
  5
57
102
{ACAD_REACTORS
330
47
102
}
330
47
100
AcDbScale
 70
     0
300
10:1
140
10.0
141
1.0
290
     0
  0
SCALE
  5
58
102
{ACAD_REACTORS
330
47
102
}
330
47
100
AcDbScale
 70
     0
300
100:1
140
100.0
141
1.0
290
     0
  0
SCALE
  5
59
102
{ACAD_REACTORS
330
47
102
}
330
47
100
AcDbScale
 70
     0
300
1/128" = 1'-0"
140
0.0078125
141
12.0
290
     0
  0
SCALE
  5
5A
102
{ACAD_REACTORS
330
47
102
}
330
47
100
AcDbScale
 70
     0
300
1/64" = 1'-0"
140
0.015625
141
12.0
290
     0
  0
SCALE
  5
5B
102
{ACAD_REACTORS
330
47
102
}
330
47
100
AcDbScale
 70
     0
300
1/32" = 1'-0"
140
0.03125
141
12.0
290
     0
  0
SCALE
  5
5C
102
{ACAD_REACTORS
330
47
102
}
330
47
100
AcDbScale
 70
     0
300
1/16" = 1'-0"
140
0.0625
141
12.0
290
     0
  0
SCALE
  5
5D
102
{ACAD_REACTORS
330
47
102
}
330
47
100
AcDbScale
 70
     0
300
3/32" = 1'-0"
140
0.09375
141
12.0
290
     0
  0
SCALE
  5
5E
102
{ACAD_REACTORS
330
47
102
}
330
47
100
AcDbScale
 70
     0
300
1/8" = 1'-0"
140
0.125
141
12.0
290
     0
  0
SCALE
  5
5F
102
{ACAD_REACTORS
330
47
102
}
330
47
100
AcDbScale
 70
     0
300
3/16" = 1'-0"
140
0.1875
141
12.0
290
     0
  0
SCALE
  5
60
102
{ACAD_REACTORS
330
47
102
}
330
47
100
AcDbScale
 70
     0
300
1/4" = 1'-0"
140
0.25
141
12.0
290
     0
  0
SCALE
  5
61
102
{ACAD_REACTORS
330
47
102
}
330
47
100
AcDbScale
 70
     0
300
3/8" = 1'-0"
140
0.375
141
12.0
290
     0
  0
SCALE
  5
62
102
{ACAD_REACTORS
330
47
102
}
330
47
100
AcDbScale
 70
     0
300
1/2" = 1'-0"
140
0.5
141
12.0
290
     0
  0
SCALE
  5
63
102
{ACAD_REACTORS
330
47
102
}
330
47
100
AcDbScale
 70
     0
300
3/4" = 1'-0"
140
0.75
141
12.0
290
     0
  0
SCALE
  5
64
102
{ACAD_REACTORS
330
47
102
}
330
47
100
AcDbScale
 70
     0
300
1" = 1'-0"
140
1.0
141
12.0
290
     0
  0
SCALE
  5
65
102
{ACAD_REACTORS
330
47
102
}
330
47
100
AcDbScale
 70
     0
300
1-1/2" = 1'-0"
140
1.5
141
12.0
290
     0
  0
SCALE
  5
66
102
{ACAD_REACTORS
330
47
102
}
330
47
100
AcDbScale
 70
     0
300
3" = 1'-0"
140
3.0
141
12.0
290
     0
  0
SCALE
  5
67
102
{ACAD_REACTORS
330
47
102
}
330
47
100
AcDbScale
 70
     0
300
6" = 1'-0"
140
6.0
141
12.0
290
     0
  0
SCALE
  5
68
102
{ACAD_REACTORS
330
47
102
}
330
47
100
AcDbScale
 70
     0
300
1'-0" = 1'-0"
140
12.0
141
12.0
290
     0
  0
ENDSEC
  0
EOF
