  0
SECTION
  2
HEADER
  9
$ACADVER
  1
AC1015
  9
$ACADMAINTVER
 70
         6
  9
$DWGCODEPAGE
  3
ANSI_1252
  9
$INSBASE
 10
0.0
 20
0.0
 30
0.0
  9
$EXTMIN
 10
0.0
 20
0.0
 30
0.0
  9
$EXTMAX
 10
420.0
 20
297.0
 30
0.0
  9
$LIMMIN
 10
0.0
 20
0.0
  9
$LIMMAX
 10
0.0
 20
0.0
  9
$ORTHOMODE
 70
         0
  9
$REGENMODE
 70
         1
  9
$FILLMODE
 70
         1
  9
$QTEXTMODE
 70
         0
  9
$MIRRTEXT
 70
         1
  9
$LTSCALE
 40
1.0
  9
$ATTMODE
 70
         1
  9
$TEXTSIZE
 40
3.5
  9
$TRACEWID
 40
0.05
  9
$TEXTSTYLE
  7
Standard
  9
$CLAYER
  8
0
  9
$CELTYPE
  6
Continuous
  9
$CECOLOR
 62
       256
  9
$CELTSCALE
 40
1.0
  9
$DISPSILH
 70
         0
  9
$DIMSCALE
 40
1.0
  9
$DIMASZ
 40
3.0
  9
$DIMEXO
 40
1.0
  9
$DIMDLI
 40
0.38
  9
$DIMRND
 40
0.0
  9
$DIMDLE
 40
1.0
  9
$DIMEXE
 40
0.18
  9
$DIMTP
 40
0.0
  9
$DIMTM
 40
0.0
  9
$DIMTXT
 40
3.5
  9
$DIMCEN
 40
0.09
  9
$DIMTSZ
 40
0.0
  9
$DIMTOL
 70
         0
  9
$DIMLIM
 70
         0
  9
$DIMTIH
 70
         1
  9
$DIMTOH
 70
         1
  9
$DIMSE1
 70
         0
  9
$DIMSE2
 70
         0
  9
$DIMTAD
 70
         1
  9
$DIMZIN
 70
         0
  9
$DIMBLK
  1

  9
$DIMASO
 70
         1
  9
$DIMSHO
 70
         1
  9
$DIMPOST
  1

  9
$DIMAPOST
  1

  9
$DIMALT
 70
         0
  9
$DIMALTD
 70
         2
  9
$DIMALTF
 40
0.0394
  9
$DIMLFAC
 40
1.0
  9
$DIMTOFL
 70
         0
  9
$DIMTVP
 40
0.0
  9
$DIMTIX
 70
         0
  9
$DIMSOXD
 70
         0
  9
$DIMSAH
 70
         0
  9
$DIMBLK1
  1

  9
$DIMBLK2
  1

  9
$DIMSTYLE
  2
Standard
  9
$DIMCLRD
 70
         0
  9
$DIMCLRE
 70
         0
  9
$DIMCLRT
 70
         0
  9
$DIMTFAC
 40
1.0
  9
$DIMGAP
 40
1.0
  9
$DIMJUST
 70
         0
  9
$DIMSD1
 70
         0
  9
$DIMSD2
 70
         0
  9
$DIMTOLJ
 70
         1
  9
$DIMTZIN
 70
         0
  9
$DIMALTZ
 70
         0
  9
$DIMALTTZ
 70
         0
  9
$DIMUPT
 70
         0
  9
$DIMDEC
 70
         4
  9
$DIMTDEC
 70
         4
  9
$DIMALTU
 70
         2
  9
$DIMALTTD
 70
         2
  9
$DIMTXSTY
  7
Standard
  9
$DIMAUNIT
 70
         0
  9
$DIMADEC
 70
         0
  9
$DIMALTRND
 40
0.0
  9
$DIMAZIN
 70
         0
  9
$DIMDSEP
 70
         0
  9
$DIMATFIT
 70
         3
  9
$DIMFRAC
 70
         0
  9
$DIMLDRBLK
  1

  9
$DIMLUNIT
 70
         2
  9
$DIMLWD
 70
         0
  9
$DIMLWE
 70
         0
  9
$DIMTMOVE
 70
         0
  9
$LUNITS
 70
         2
  9
$LUPREC
 70
         2
  9
$SKETCHINC
 40
0.1
  9
$FILLETRAD
 40
0.0
  9
$AUNITS
 70
         0
  9
$AUPREC
 70
         2
  9
$MENU
  1
acad
  9
$ELEVATION
 40
0.0
  9
$PELEVATION
 40
0.0
  9
$THICKNESS
 40
0.0
  9
$LIMCHECK
 70
         0
  9
$CHAMFERA
 40
0.0
  9
$CHAMFERB
 40
0.0
  9
$CHAMFERC
 40
0.0
  9
$CHAMFERD
 40
0.0
  9
$SKPOLY
 70
         0
  9
$TDCREATE
 40
0.000000000
  9
$TDUCREATE
 40
0.000000000
  9
$TDUPDATE
 40
0.000000000
  9
$TDUUPDATE
 40
0.000000000
  9
$TDINDWG
 40
0.0000000000
  9
$TDUSRTIMER
 40
0.0000000000
  9
$USRTIMER
 70
         1
  9
$ANGBASE
 50
0.0
  9
$ANGDIR
 70
         0
  9
$PDMODE
 70
         0
  9
$PDSIZE
 40
-1.0
  9
$PLINEWID
 40
0.0
  9
$SPLFRAME
 70
         0
  9
$SPLINETYPE
 70
         6
  9
$SPLINESEGS
 70
         8
  9
$HANDSEED
  5
4E1
  9
$SURFTAB1
 70
         6
  9
$SURFTAB2
 70
         6
  9
$SURFTYPE
 70
         6
  9
$SURFU
 70
         6
  9
$SURFV
 70
         6
  9
$UCSBASE
  2

  9
$UCSNAME
  2

  9
$UCSORG
 10
0.0
 20
0.0
 30
0.0
  9
$UCSXDIR
 10
1.0
 20
0.0
 30
0.0
  9
$UCSYDIR
 10
0.0
 20
1.0
 30
0.0
  9
$UCSORTHOREF
  2

  9
$UCSORTHOVIEW
 70
         0
  9
$UCSORGTOP
 10
0.0
 20
0.0
 30
0.0
  9
$UCSORGBOTTOM
 10
0.0
 20
0.0
 30
0.0
  9
$UCSORGLEFT
 10
0.0
 20
0.0
 30
0.0
  9
$UCSORGRIGHT
 10
0.0
 20
0.0
 30
0.0
  9
$UCSORGFRONT
 10
0.0
 20
0.0
 30
0.0
  9
$UCSORGBACK
 10
0.0
 20
0.0
 30
0.0
  9
$PUCSBASE
  2

  9
$PUCSNAME
  2

  9
$PUCSORG
 10
0.0
 20
0.0
 30
0.0
  9
$PUCSXDIR
 10
1.0
 20
0.0
 30
0.0
  9
$PUCSYDIR
 10
0.0
 20
1.0
 30
0.0
  9
$PUCSORTHOREF
  2

  9
$PUCSORTHOVIEW
 70
         0
  9
$PUCSORGTOP
 10
0.0
 20
0.0
 30
0.0
  9
$PUCSORGBOTTOM
 10
0.0
 20
0.0
 30
0.0
  9
$PUCSORGLEFT
 10
0.0
 20
0.0
 30
0.0
  9
$PUCSORGRIGHT
 10
0.0
 20
0.0
 30
0.0
  9
$PUCSORGFRONT
 10
0.0
 20
0.0
 30
0.0
  9
$PUCSORGBACK
 10
0.0
 20
0.0
 30
0.0
  9
$USERI1
 70
         0
  9
$USERI2
 70
         0
  9
$USERI3
 70
         0
  9
$USERI4
 70
         0
  9
$USERI5
 70
         0
  9
$USERR1
 40
0.0
  9
$USERR2
 40
0.0
  9
$USERR3
 40
0.0
  9
$USERR4
 40
0.0
  9
$USERR5
 40
0.0
  9
$WORLDVIEW
 70
         1
  9
$SHADEDGE
 70
         3
  9
$SHADEDIF
 70
        70
  9
$TILEMODE
 70
         1
  9
$MAXACTVP
 70
        16
  9
$PINSBASE
 10
0.0
 20
0.0
 30
0.0
  9
$PLIMCHECK
 70
         0
  9
$PEXTMIN
 10
1.0000000000E+20
 20
1.0000000000E+20
 30
1.0000000000E+20
  9
$PEXTMAX
 10
-1.0000000000E+20
 20
-1.0000000000E+20
 30
-1.0000000000E+20
  9
$PLIMMIN
 10
0.0
 20
0.0
  9
$PLIMMAX
 10
12.0
 20
9.0
  9
$UNITMODE
 70
         0
  9
$VISRETAIN
 70
         0
  9
$PLINEGEN
 70
         1
  9
$PSLTSCALE
 70
         1
  9
$TREEDEPTH
 70
      3020
  9
$CMLSTYLE
  2
Standard
  9
$CMLJUST
 70
         0
  9
$CMLSCALE
 40
1.0
  9
$PROXYGRAPHICS
 70
         0
  9
$MEASUREMENT
 70
         0
  9
$CELWEIGHT
370
         0
  9
$ENDCAPS
280
         0
  9
$JOINSTYLE
280
         0
  9
$LWDISPLAY
290
         0
  9
$INSUNITS
 70
         0
  9
$HYPERLINKBASE
  1

  9
$XEDIT
290
         1
  9
$CEPSNTYPE
380
         0
  9
$PSTYLEMODE
290
         1
  9
$FINGERPRINTGUID
  2

  9
$VERSIONGUID
  2

  9
$EXTNAMES
290
         1
  9
$PSVPSCALE
 40
0.0
  0
ENDSEC
  0
SECTION
  2
CLASSES
  0
CLASS
  1
LWPOLYLINE
  2
AcDbPolyline
  3
AutoCAD 2000
 90
    32768
280
         0
281
         1
  0
CLASS
  1
IMAGE
  2
AcDbRasterImage
  3
ISM
 90
    32895
280
         0
281
         1
  0
CLASS
  1
OLE2FRAME
  2
AcDbOle2Frame
  3
AutoCAD 2000
 90
    32768
280
         0
281
         1
  0
CLASS
  1
HATCH
  2
AcDbHatch
  3
AutoCAD 2000
 90
    32768
280
         0
281
         1
  0
CLASS
  1
DICTIONARYVAR
  2
AcDbDictionaryVar
  3
AutoCAD 2000
 90
    32768
280
         0
281
         0
  0
CLASS
  1
RASTERVARIABLES
  2
AcDbRasterVariables
  3
ISM
 90
    32768
280
         0
281
         0
  0
CLASS
  1
IMAGEDEF
  2
AcDbRasterImageDef
  3
ISM
 90
    32768
280
         0
281
         0
  0
CLASS
  1
IMAGEDEF_REACTOR
  2
AcDbRasterImageDefReactor
  3
ISM
 90
    32769
280
         0
281
         0
  0
CLASS
  1
IDBUFFER
  2
AcDbIdBuffer
  3
AutoCAD 2000
 90
    32768
280
         0
281
         0
  0
CLASS
  1
SPATIAL_FILTER
  2
AcDbSpatialFilter
  3
AutoCAD 2000
 90
    32768
280
         0
281
         0
  0
CLASS
  1
XRECORD
  2
AcDbXrecord
  3
AutoCAD 2000
 90
    32768
280
         0
281
         0
  0
CLASS
  1
SORTENTSTABLE
  2
AcDbSortentsTable
  3
AutoCAD 2000
 90
    32768
280
         0
281
         0
  0
CLASS
  1
LAYER_INDEX
  2
AcDbLayerIndex
  3
AutoCAD 2000
 90
    32768
280
         0
281
         0
  0
CLASS
  1
SPATIAL_INDEX
  2
AcDbSpatialIndex
  3
AutoCAD 2000
 90
    32768
280
         0
281
         0
  0
CLASS
  1
OBJECT_PTR
  2
CAseDLPNTableRecord
  3
"ASE-LPNTableRecord"
 90
    32769
280
         0
281
         0
  0
CLASS
  1
LAYOUT
  2
AcDbLayout
  3
AutoCAD 2000
 90
        0
280
         0
281
         0
  0
CLASS
  1
PLOTSETTINGS
  2
AcDbPlotSettings
  3
AutoCAD 2000
 90
    32768
280
         0
281
         0
  0
CLASS
  1
ACDBDICTIONARYWDFLT
  2
AcDbDictionaryWithDefault
  3
AutoCAD 2000
 90
        0
280
         0
281
         0
  0
CLASS
  1
ACDBPLACEHOLDER
  2
AcDbPlaceHolder
  3
AutoCAD 2000
 90
        0
280
         0
281
         0
  0
CLASS
  1
VBA_PROJECT
  2
AcDbVbaProject
  3
acadvba
 90
    32768
280
         0
281
         0
  0
CLASS
  1
WIPEOUT
  2
AcDbWipeout
  3
WipeOut|AutoCAD Express Tool|expresstools@autodesk.com
 90
    32895
280
         0
281
         1
  0
CLASS
  1
WIPEOUTVARIABLES
  2
AcDbWipeoutVariables
  3
WipeOut|AutoCAD Express Tool|expresstools@autodesk.com
 90
        0
280
         0
281
         0
  0
CLASS
  1
RTEXT
  2
RText
  3
RText|AutoCAD Express Tool|expresstools@autodesk.com
 90
    32768
280
         0
281
         1
  0
CLASS
  1
ARCALIGNEDTEXT
  2
AcDbArcAlignedText
  3
ATEXT|AutoCAD Express Tool|expresstools@autodesk.com
 90
    32768
280
         0
281
         1
  0
ENDSEC
  0
SECTION
  2
TABLES
  0
TABLE
  2
VPORT
  5
7
100
AcDbSymbolTable
 70
         1
  0
VPORT
  5
15
100
AcDbSymbolTableRecord
100
AcDbViewportTableRecord
  2
*ACTIVE
 70
         0
 10
0.0
 20
0.0
 11
1.0
 21
1.0
 12
210.0
 22
148.5
 13
0.0
 23
0.0
 14
1.0
 24
1.0
 15
0.0
 25
0.0
 16
0.0
 26
0.0
 36
1.0
 17
0.0
 27
0.0
 37
0.0
 40
297.0
 41
0.7071428571
 42
50.0
 43
0.0
 44
0.0
 50
0.0
 51
0.0
 71
         0
 72
      2000
 73
         1
 74
         1
 75
         0
 76
         0
 77
         0
 78
         0
281
         0
 65
         0
110
0.0
120
0.0
130
0.0
111
1.0
121
0.0
131
0.0
112
0.0
122
1.0
132
0.0
345
0
346
0
 79
         0
146
0.0
  0
ENDTAB
  0
TABLE
  2
LTYPE
  5
4
100
AcDbSymbolTable
 70
         9
  0
LTYPE
  5
11
100
AcDbSymbolTableRecord
100
AcDbLinetypeTableRecord
  2
ByBlock
 70
        64
  3

 72
        65
 73
         0
 40
0.0
  0
LTYPE
  5
12
100
AcDbSymbolTableRecord
100
AcDbLinetypeTableRecord
  2
ByLayer
 70
        64
  3

 72
        65
 73
         0
 40
0.0
  0
LTYPE
  5
13
100
AcDbSymbolTableRecord
100
AcDbLinetypeTableRecord
  2
Continuous
 70
        64
  3
Solid line
 72
        65
 73
         0
 40
0.0
  0
LTYPE
  5
24
100
AcDbSymbolTableRecord
100
AcDbLinetypeTableRecord
  2
CONTINUOUS
 70
        64
  3
Solid line
 72
        65
 73
         1
 40
60.96
 49
60.96
 74
         0
  0
LTYPE
  5
25
100
AcDbSymbolTableRecord
100
AcDbLinetypeTableRecord
  2
HIDDEN
 70
        64
  3
Hidden __ __ __ __ __ __ __ __ __ __ __ __ __ __
 72
        65
 73
         2
 40
1.905
 49
1.27
 74
         0
 49
-0.635
 74
         0
  0
LTYPE
  5
26
100
AcDbSymbolTableRecord
100
AcDbLinetypeTableRecord
  2
PHANTOM
 70
        64
  3
Phantom ______  __  __  ______  __  __  ______
 72
        65
 73
         6
 40
12.7
 49
6.35
 74
         0
 49
-1.27
 74
         0
 49
1.27
 74
         0
 49
-1.27
 74
         0
 49
1.27
 74
         0
 49
-1.27
 74
         0
  0
LTYPE
  5
27
100
AcDbSymbolTableRecord
100
AcDbLinetypeTableRecord
  2
CENTER
 70
        64
  3
Center ____ _ ____ _ ____ _ ____ _ ____ _ ____
 72
        65
 73
         4
 40
10.16
 49
6.35
 74
         0
 49
-1.27
 74
         0
 49
1.27
 74
         0
 49
-1.27
 74
         0
  0
LTYPE
  5
28
100
AcDbSymbolTableRecord
100
AcDbLinetypeTableRecord
  2
CENTERX2
 70
        64
  3
Center (2x) ________  __  ________  __  _____
 72
        65
 73
         4
 40
20.32
 49
12.7
 74
         0
 49
-2.54
 74
         0
 49
2.54
 74
         0
 49
-2.54
 74
         0
  0
LTYPE
  5
29
100
AcDbSymbolTableRecord
100
AcDbLinetypeTableRecord
  2
DOT2
 70
        64
  3
Dot (.5x) ........................................
 72
        65
 73
         2
 40
0.635
 49
0.0
 74
         0
 49
-0.635
 74
         0
  0
ENDTAB
  0
TABLE
  2
LAYER
  5
2
100
AcDbSymbolTable
 70
         1
  0
LAYER
  5
14
100
AcDbSymbolTableRecord
100
AcDbLayerTableRecord
  2
0
 70
         0
 62
         7
  6
Continuous
290
         1
370
        -3
390
1D
  0
ENDTAB
  0
TABLE
  2
STYLE
  5
3
100
AcDbSymbolTable
 70
         2
  0
STYLE
  5
17
100
AcDbSymbolTableRecord
100
AcDbTextStyleTableRecord
  2
Standard
 70
         0
 40
0.0
 41
1.0
 50
0.0
 71
         0
 42
0.0
  3
txt
  4

  0
STYLE
  5
4B
100
AcDbSymbolTableRecord
100
AcDbTextStyleTableRecord
  2
SLDTEXTSTYLE0
 70
         0
 40
0.0
 41
0.75
 50
0.0
 71
         0
 42
0.0
  3
txt
  4

  0
ENDTAB
  0
TABLE
  2
VIEW
  5
5
100
AcDbSymbolTable
 70
         0
  0
ENDTAB
  0
TABLE
  2
UCS
  5
6
100
AcDbSymbolTable
 70
         0
  0
ENDTAB
  0
TABLE
  2
APPID
  5
8
100
AcDbSymbolTable
 70
         1
  0
APPID
  5
16
100
AcDbSymbolTableRecord
100
AcDbRegAppTableRecord
  2
ACAD
 70
         0
  0
ENDTAB
  0
TABLE
  2
DIMSTYLE
  5
9
100
AcDbSymbolTable
 70
         6
100
AcDbDimStyleTable
 71
         0
  0
DIMSTYLE
105
18
100
AcDbSymbolTableRecord
100
AcDbDimStyleTableRecord
  2
Standard
 70
         0
  3

  4

 40
1.0
 41
0.18
 42
0.0625
 43
0.38
 44
0.18
 45
0.0
 46
0.0
 47
0.0
 48
0.0
 71
         0
 72
         0
 73
         1
 74
         1
 75
         0
 76
         0
 77
         0
 78
         0
 79
         0
140
0.18
141
0.09
142
0.0
143
25.4
144
1.0
145
0.0
146
1.0
147
0.09
148
0.0
170
         0
171
         2
172
         0
173
         0
174
         0
175
         0
176
         0
177
         0
178
         0
179
         0
271
         4
272
         4
273
         2
274
         2
275
         0
276
         0
277
         2
278
        46
279
         0
280
         0
281
         0
282
         0
283
         1
284
         0
285
         0
286
         0
288
         0
340
17
341
0
342
0
343
0
344
0
371
        -2
372
        -2
  0
DIMSTYLE
105
16D
100
AcDbSymbolTableRecord
100
AcDbDimStyleTableRecord
  2
SLDDIMSTYLE0
 70
         0
  3

  4

 40
1.0
 41
3.0
 42
0.0625
 43
0.38
 44
0.0
 45
0.0
 46
0.0
 47
0.0
 48
0.0
 71
         0
 72
         0
 73
         1
 74
         1
 75
         0
 76
         0
 77
         0
 78
         0
 79
         0
140
6.0
141
0.09
142
0.0
143
25.4
144
1.0
145
0.0
146
1.0
147
1.5
148
0.0
170
         0
171
         2
172
         0
173
         1
174
         0
175
         0
176
         0
177
         0
178
         0
179
         0
271
         0
272
         0
273
         2
274
         2
275
         0
276
         0
277
         2
278
        46
279
         0
280
         0
281
         0
282
         0
283
         1
284
         0
285
         0
286
         0
288
         0
340
17
341
0
342
0
343
0
344
0
371
        -2
372
        -2
  0
DIMSTYLE
105
3AA
100
AcDbSymbolTableRecord
100
AcDbDimStyleTableRecord
  2
SLDDIMSTYLE1
 70
         0
  3

  4

 40
1.0
 41
3.0
 42
0.0625
 43
0.38
 44
1.0
 45
0.0
 46
0.0
 47
0.0
 48
0.0
 71
         0
 72
         0
 73
         1
 74
         1
 75
         0
 76
         0
 77
         0
 78
         8
 79
         0
140
3.5
141
0.09
142
0.0
143
25.4
144
1.0
145
0.0
146
1.0
147
0.875
148
0.0
170
         0
171
         2
172
         0
173
         1
174
         0
175
         0
176
       255
177
       255
178
       255
179
         0
271
         0
272
         4
273
         2
274
         2
275
         0
276
         0
277
         2
278
        46
279
         0
280
         0
281
         0
282
         0
283
         1
284
        12
285
         0
286
         0
288
         0
340
17
341
0
342
0
343
3AB
344
3AB
371
        -2
372
        -2
  0
DIMSTYLE
105
3B8
100
AcDbSymbolTableRecord
100
AcDbDimStyleTableRecord
  2
SLDDIMSTYLE2
 70
         0
  3

  4

 40
1.0
 41
3.0
 42
0.0625
 43
0.38
 44
1.0
 45
0.0
 46
0.0
 47
0.0
 48
0.0
 71
         0
 72
         0
 73
         1
 74
         1
 75
         0
 76
         0
 77
         0
 78
        12
 79
         0
140
3.5
141
0.09
142
0.0
143
25.4
144
1.0
145
0.0
146
1.0
147
0.875
148
0.0
170
         0
171
         2
172
         0
173
         1
174
         0
175
         0
176
       255
177
       255
178
       255
179
         0
271
         2
272
         4
273
         2
274
         2
275
         0
276
         0
277
         2
278
        46
279
         0
280
         0
281
         0
282
         0
283
         1
284
        12
285
         0
286
         0
288
         0
340
17
341
0
342
0
343
3AB
344
3AB
371
        -2
372
        -2
  0
DIMSTYLE
105
433
100
AcDbSymbolTableRecord
100
AcDbDimStyleTableRecord
  2
SLDDIMSTYLE3
 70
         0
  3

  4

 40
1.0
 41
3.0
 42
0.0625
 43
0.38
 44
1.0
 45
0.0
 46
0.0
 47
0.0
 48
0.0
 71
         0
 72
         0
 73
         1
 74
         1
 75
         0
 76
         0
 77
         0
 78
        12
 79
         0
140
3.5
141
0.09
142
0.0
143
25.4
144
1.0
145
0.0
146
1.0
147
0.875
148
0.0
170
         0
171
         2
172
         1
173
         1
174
         0
175
         0
176
       255
177
       255
178
       255
179
         0
271
         2
272
         4
273
         2
274
         2
275
         0
276
         0
277
         2
278
        46
279
         0
280
         0
281
         0
282
         0
283
         1
284
        12
285
         0
286
         0
288
         0
340
17
341
0
342
0
343
0
344
0
371
        -2
372
        -2
  0
DIMSTYLE
105
4C3
100
AcDbSymbolTableRecord
100
AcDbDimStyleTableRecord
  2
SLDDIMSTYLE4
 70
         0
  3

  4

 40
1.0
 41
3.0
 42
0.0625
 43
0.38
 44
1.0
 45
0.0
 46
0.0
 47
0.0
 48
0.0
 71
         0
 72
         0
 73
         1
 74
         1
 75
         0
 76
         0
 77
         0
 78
        12
 79
         0
140
3.5
141
0.09
142
0.0
143
25.4
144
1.0
145
0.0
146
1.0
147
0.875
148
0.0
170
         0
171
         2
172
         0
173
         1
174
         0
175
         0
176
       255
177
       255
178
       255
179
         0
271
         2
272
         4
273
         2
274
         2
275
         0
276
         0
277
         2
278
        46
279
         0
280
         0
281
         0
282
         0
283
         1
284
        12
285
         0
286
         0
288
         0
340
17
341
0
342
0
343
0
344
0
371
        -2
372
        -2
  0
ENDTAB
  0
TABLE
  2
BLOCK_RECORD
  5
1
100
AcDbSymbolTable
 70
        23
  0
BLOCK_RECORD
  5
A
100
AcDbSymbolTableRecord
100
AcDbBlockTableRecord
  2
*MODEL_SPACE
340
20
  0
BLOCK_RECORD
  5
B
100
AcDbSymbolTableRecord
100
AcDbBlockTableRecord
  2
*PAPER_SPACE
340
21
  0
BLOCK_RECORD
  5
3A4
100
AcDbSymbolTableRecord
100
AcDbBlockTableRecord
  2
*D0
340
0
  0
BLOCK_RECORD
  5
3AB
100
AcDbSymbolTableRecord
100
AcDbBlockTableRecord
  2
_NONE
340
0
  0
BLOCK_RECORD
  5
3B2
100
AcDbSymbolTableRecord
100
AcDbBlockTableRecord
  2
*D2
340
0
  0
BLOCK_RECORD
  5
3BD
100
AcDbSymbolTableRecord
100
AcDbBlockTableRecord
  2
*D3
340
0
  0
BLOCK_RECORD
  5
3C7
100
AcDbSymbolTableRecord
100
AcDbBlockTableRecord
  2
*D4
340
0
  0
BLOCK_RECORD
  5
3D1
100
AcDbSymbolTableRecord
100
AcDbBlockTableRecord
  2
*D5
340
0
  0
BLOCK_RECORD
  5
3DB
100
AcDbSymbolTableRecord
100
AcDbBlockTableRecord
  2
*D6
340
0
  0
BLOCK_RECORD
  5
3E3
100
AcDbSymbolTableRecord
100
AcDbBlockTableRecord
  2
*D7
340
0
  0
BLOCK_RECORD
  5
3EB
100
AcDbSymbolTableRecord
100
AcDbBlockTableRecord
  2
*D8
340
0
  0
BLOCK_RECORD
  5
3F5
100
AcDbSymbolTableRecord
100
AcDbBlockTableRecord
  2
*D9
340
0
  0
BLOCK_RECORD
  5
3FF
100
AcDbSymbolTableRecord
100
AcDbBlockTableRecord
  2
*D10
340
0
  0
BLOCK_RECORD
  5
407
100
AcDbSymbolTableRecord
100
AcDbBlockTableRecord
  2
*D11
340
0
  0
BLOCK_RECORD
  5
411
100
AcDbSymbolTableRecord
100
AcDbBlockTableRecord
  2
*D12
340
0
  0
BLOCK_RECORD
  5
419
100
AcDbSymbolTableRecord
100
AcDbBlockTableRecord
  2
*D13
340
0
  0
BLOCK_RECORD
  5
423
100
AcDbSymbolTableRecord
100
AcDbBlockTableRecord
  2
*D14
340
0
  0
BLOCK_RECORD
  5
42B
100
AcDbSymbolTableRecord
100
AcDbBlockTableRecord
  2
*D15
340
0
  0
BLOCK_RECORD
  5
438
100
AcDbSymbolTableRecord
100
AcDbBlockTableRecord
  2
*D16
340
0
  0
BLOCK_RECORD
  5
445
100
AcDbSymbolTableRecord
100
AcDbBlockTableRecord
  2
*D17
340
0
  0
BLOCK_RECORD
  5
451
100
AcDbSymbolTableRecord
100
AcDbBlockTableRecord
  2
*D18
340
0
  0
BLOCK_RECORD
  5
45D
100
AcDbSymbolTableRecord
100
AcDbBlockTableRecord
  2
*D19
340
0
  0
BLOCK_RECORD
  5
4B9
100
AcDbSymbolTableRecord
100
AcDbBlockTableRecord
  2
*D20
340
0
  0
BLOCK_RECORD
  5
4C8
100
AcDbSymbolTableRecord
100
AcDbBlockTableRecord
  2
*D21
340
0
  0
BLOCK_RECORD
  5
4D4
100
AcDbSymbolTableRecord
100
AcDbBlockTableRecord
  2
*D22
340
0
  0
ENDTAB
  0
ENDSEC
  0
SECTION
  2
BLOCKS
  0
BLOCK
  5
D
100
AcDbEntity
  8
0
100
AcDbBlockBegin
  2
*MODEL_SPACE
 70
         0
 10
0.0
 20
0.0
 30
0.0
  3
*MODEL_SPACE
  1

  0
ENDBLK
  5
E
100
AcDbEntity
  8
0
100
AcDbBlockEnd
  0
BLOCK
  5
F
100
AcDbEntity
 67
         1
  8
0
100
AcDbBlockBegin
  2
*PAPER_SPACE
 70
         0
 10
0.0
 20
0.0
 30
0.0
  3
*PAPER_SPACE
  1

  0
ENDBLK
  5
10
100
AcDbEntity
 67
         1
  8
0
100
AcDbBlockEnd
  0
BLOCK
  5
3A5
100
AcDbEntity
  8
0
 62
       255
100
AcDbBlockBegin
  2
*D0
 70
         1
 10
0.0
 20
0.0
 30
0.0
  3
*D0
  1

  0
MTEXT
  5
3A6
100
AcDbEntity
  8
0
 62
         7
100
AcDbMText
 10
264.474573611
 20
103.9257837446
 30
0.0
 40
3.5
 41
0.0
 71
         7
 72
         1
  1
0
  7
SLDTEXTSTYLE0
 11
0.0
 21
1.0
 31
0.0
 73
         1
 44
1.0
  0
LINE
  5
3A7
100
AcDbEntity
  8
0
100
AcDbLine
 10
263.197623611
 20
113.0985587446
 30
0.0
 11
263.197623611
 21
108.0985587446
 31
0.0
  0
LINE
  5
3A8
100
AcDbEntity
  8
0
100
AcDbLine
 10
263.197623611
 20
113.0985587446
 30
0.0
 11
263.197623611
 21
118.0985587446
 31
0.0
  0
LINE
  5
3A9
100
AcDbEntity
  8
0
100
AcDbLine
 10
263.197623611
 20
118.0985587446
 30
0.0
 11
263.197623611
 21
128.142245509
 31
0.0
  0
POINT
  5
3AE
100
AcDbEntity
  8
0
 62
         7
100
AcDbPoint
 10
263.197623611
 20
129.142245509
 30
0.0
  0
POINT
  5
3AF
100
AcDbEntity
  8
0
 62
         7
100
AcDbPoint
 10
263.197623611
 20
108.0985587446
 30
0.0
  0
ENDBLK
  5
3B0
100
AcDbEntity
  8
0
100
AcDbBlockEnd
  0
BLOCK
  5
3AC
100
AcDbEntity
  8
0
100
AcDbBlockBegin
  2
_NONE
 70
         0
 10
0.0
 20
0.0
 30
0.0
  3
_NONE
  1

  0
ENDBLK
  5
3AD
100
AcDbEntity
  8
0
100
AcDbBlockEnd
  0
BLOCK
  5
3B3
100
AcDbEntity
  8
0
 62
       255
100
AcDbBlockBegin
  2
*D2
 70
         1
 10
0.0
 20
0.0
 30
0.0
  3
*D2
  1

  0
MTEXT
  5
3B4
100
AcDbEntity
  8
0
 62
         7
100
AcDbMText
 10
270.5118954806
 20
103.9257837446
 30
0.0
 40
3.5
 41
0.0
 71
         7
 72
         1
  1
8
  7
SLDTEXTSTYLE0
 11
0.0
 21
1.0
 31
0.0
 73
         1
 44
1.0
  0
LINE
  5
3B5
100
AcDbEntity
  8
0
100
AcDbLine
 10
269.2349454806
 20
113.0985587446
 30
0.0
 11
269.2349454806
 21
108.0985587446
 31
0.0
  0
LINE
  5
3B6
100
AcDbEntity
  8
0
100
AcDbLine
 10
269.2349454806
 20
113.0985587446
 30
0.0
 11
271.197623611
 21
118.0985587446
 31
0.0
  0
LINE
  5
3B7
100
AcDbEntity
  8
0
100
AcDbLine
 10
271.197623611
 20
118.0985587446
 30
0.0
 11
271.197623611
 21
153.142245509
 31
0.0
  0
POINT
  5
3B9
100
AcDbEntity
  8
0
 62
         7
100
AcDbPoint
 10
271.197623611
 20
154.142245509
 30
0.0
  0
POINT
  5
3BA
100
AcDbEntity
  8
0
 62
         7
100
AcDbPoint
 10
269.2349454806
 20
108.0985587446
 30
0.0
  0
ENDBLK
  5
3BB
100
AcDbEntity
  8
0
100
AcDbBlockEnd
  0
BLOCK
  5
3BE
100
AcDbEntity
  8
0
 62
       255
100
AcDbBlockBegin
  2
*D3
 70
         1
 10
0.0
 20
0.0
 30
0.0
  3
*D3
  1

  0
MTEXT
  5
3BF
100
AcDbEntity
  8
0
 62
         7
100
AcDbMText
 10
276.5492173503
 20
101.3405087446
 30
0.0
 40
3.5
 41
0.0
 71
         7
 72
         1
  1
10
  7
SLDTEXTSTYLE0
 11
0.0
 21
1.0
 31
0.0
 73
         1
 44
1.0
  0
LINE
  5
3C0
100
AcDbEntity
  8
0
100
AcDbLine
 10
275.2722673503
 20
113.0985587446
 30
0.0
 11
275.2722673503
 21
108.0985587446
 31
0.0
  0
LINE
  5
3C1
100
AcDbEntity
  8
0
100
AcDbLine
 10
275.2722673503
 20
113.0985587446
 30
0.0
 11
273.197623611
 21
118.0985587446
 31
0.0
  0
LINE
  5
3C2
100
AcDbEntity
  8
0
100
AcDbLine
 10
273.197623611
 20
118.0985587446
 30
0.0
 11
273.197623611
 21
218.142245509
 31
0.0
  0
POINT
  5
3C3
100
AcDbEntity
  8
0
 62
         7
100
AcDbPoint
 10
273.197623611
 20
219.142245509
 30
0.0
  0
POINT
  5
3C4
100
AcDbEntity
  8
0
 62
         7
100
AcDbPoint
 10
275.2722673503
 20
108.0985587446
 30
0.0
  0
ENDBLK
  5
3C5
100
AcDbEntity
  8
0
100
AcDbBlockEnd
  0
BLOCK
  5
3C8
100
AcDbEntity
  8
0
 62
       255
100
AcDbBlockBegin
  2
*D4
 70
         1
 10
0.0
 20
0.0
 30
0.0
  3
*D4
  1

  0
MTEXT
  5
3C9
100
AcDbEntity
  8
0
 62
         7
100
AcDbMText
 10
352.3999298716
 20
101.3405087446
 30
0.0
 40
3.5
 41
0.0
 71
         7
 72
         1
  1
90
  7
SLDTEXTSTYLE0
 11
0.0
 21
1.0
 31
0.0
 73
         1
 44
1.0
  0
LINE
  5
3CA
100
AcDbEntity
  8
0
100
AcDbLine
 10
351.1229798716
 20
113.0985587446
 30
0.0
 11
351.1229798716
 21
108.0985587446
 31
0.0
  0
LINE
  5
3CB
100
AcDbEntity
  8
0
100
AcDbLine
 10
351.1229798716
 20
113.0985587446
 30
0.0
 11
353.197623611
 21
118.0985587446
 31
0.0
  0
LINE
  5
3CC
100
AcDbEntity
  8
0
100
AcDbLine
 10
353.197623611
 20
118.0985587446
 30
0.0
 11
353.197623611
 21
218.142245509
 31
0.0
  0
POINT
  5
3CD
100
AcDbEntity
  8
0
 62
         7
100
AcDbPoint
 10
353.197623611
 20
219.142245509
 30
0.0
  0
POINT
  5
3CE
100
AcDbEntity
  8
0
 62
         7
100
AcDbPoint
 10
351.1229798716
 20
108.0985587446
 30
0.0
  0
ENDBLK
  5
3CF
100
AcDbEntity
  8
0
100
AcDbBlockEnd
  0
BLOCK
  5
3D2
100
AcDbEntity
  8
0
 62
       255
100
AcDbBlockBegin
  2
*D5
 70
         1
 10
0.0
 20
0.0
 30
0.0
  3
*D5
  1

  0
MTEXT
  5
3D3
100
AcDbEntity
  8
0
 62
         7
100
AcDbMText
 10
358.4372517413
 20
101.3405087446
 30
0.0
 40
3.5
 41
0.0
 71
         7
 72
         1
  1
92
  7
SLDTEXTSTYLE0
 11
0.0
 21
1.0
 31
0.0
 73
         1
 44
1.0
  0
LINE
  5
3D4
100
AcDbEntity
  8
0
100
AcDbLine
 10
357.1603017413
 20
113.0985587446
 30
0.0
 11
357.1603017413
 21
108.0985587446
 31
0.0
  0
LINE
  5
3D5
100
AcDbEntity
  8
0
100
AcDbLine
 10
357.1603017413
 20
113.0985587446
 30
0.0
 11
355.197623611
 21
118.0985587446
 31
0.0
  0
LINE
  5
3D6
100
AcDbEntity
  8
0
100
AcDbLine
 10
355.197623611
 20
118.0985587446
 30
0.0
 11
355.197623611
 21
153.142245509
 31
0.0
  0
POINT
  5
3D7
100
AcDbEntity
  8
0
 62
         7
100
AcDbPoint
 10
355.197623611
 20
154.142245509
 30
0.0
  0
POINT
  5
3D8
100
AcDbEntity
  8
0
 62
         7
100
AcDbPoint
 10
357.1603017413
 20
108.0985587446
 30
0.0
  0
ENDBLK
  5
3D9
100
AcDbEntity
  8
0
100
AcDbBlockEnd
  0
BLOCK
  5
3DC
100
AcDbEntity
  8
0
 62
       255
100
AcDbBlockBegin
  2
*D6
 70
         1
 10
0.0
 20
0.0
 30
0.0
  3
*D6
  1

  0
MTEXT
  5
3DD
100
AcDbEntity
  8
0
 62
         7
100
AcDbMText
 10
364.474573611
 20
98.7552337446
 30
0.0
 40
3.5
 41
0.0
 71
         7
 72
         1
  1
100
  7
SLDTEXTSTYLE0
 11
0.0
 21
1.0
 31
0.0
 73
         1
 44
1.0
  0
LINE
  5
3DE
100
AcDbEntity
  8
0
100
AcDbLine
 10
363.197623611
 20
128.142245509
 30
0.0
 11
363.197623611
 21
108.0985587446
 31
0.0
  0
POINT
  5
3DF
100
AcDbEntity
  8
0
 62
         7
100
AcDbPoint
 10
363.197623611
 20
129.142245509
 30
0.0
  0
POINT
  5
3E0
100
AcDbEntity
  8
0
 62
         7
100
AcDbPoint
 10
363.197623611
 20
108.0985587446
 30
0.0
  0
ENDBLK
  5
3E1
100
AcDbEntity
  8
0
100
AcDbBlockEnd
  0
BLOCK
  5
3E4
100
AcDbEntity
  8
0
 62
       255
100
AcDbBlockBegin
  2
*D7
 70
         1
 10
0.0
 20
0.0
 30
0.0
  3
*D7
  1

  0
MTEXT
  5
3E5
100
AcDbEntity
  8
0
 62
         7
100
AcDbMText
 10
314.474573611
 20
101.3405087446
 30
0.0
 40
3.5
 41
0.0
 71
         7
 72
         1
  1
50
  7
SLDTEXTSTYLE0
 11
0.0
 21
1.0
 31
0.0
 73
         1
 44
1.0
  0
LINE
  5
3E6
100
AcDbEntity
  8
0
100
AcDbLine
 10
313.197623611
 20
178.142245509
 30
0.0
 11
313.197623611
 21
108.0985587446
 31
0.0
  0
POINT
  5
3E7
100
AcDbEntity
  8
0
 62
         7
100
AcDbPoint
 10
313.197623611
 20
179.142245509
 30
0.0
  0
POINT
  5
3E8
100
AcDbEntity
  8
0
 62
         7
100
AcDbPoint
 10
313.197623611
 20
108.0985587446
 30
0.0
  0
ENDBLK
  5
3E9
100
AcDbEntity
  8
0
100
AcDbBlockEnd
  0
BLOCK
  5
3EC
100
AcDbEntity
  8
0
 62
       255
100
AcDbBlockBegin
  2
*D8
 70
         1
 10
0.0
 20
0.0
 30
0.0
  3
*D8
  1

  0
MTEXT
  5
3ED
100
AcDbEntity
  8
0
 62
         7
100
AcDbMText
 10
382.7953212062
 20
127.865295509
 30
0.0
 40
3.5
 41
0.0
 71
         7
 72
         1
  1
0
  7
SLDTEXTSTYLE0
 73
         1
 44
1.0
  0
LINE
  5
3EE
100
AcDbEntity
  8
0
100
AcDbLine
 10
376.2078212062
 20
129.142245509
 30
0.0
 11
381.2078212062
 21
129.142245509
 31
0.0
  0
LINE
  5
3EF
100
AcDbEntity
  8
0
100
AcDbLine
 10
376.2078212062
 20
129.142245509
 30
0.0
 11
371.2078212062
 21
129.142245509
 31
0.0
  0
LINE
  5
3F0
100
AcDbEntity
  8
0
100
AcDbLine
 10
371.2078212062
 20
129.142245509
 30
0.0
 11
364.197623611
 21
129.142245509
 31
0.0
  0
POINT
  5
3F1
100
AcDbEntity
  8
0
 62
         7
100
AcDbPoint
 10
363.197623611
 20
129.142245509
 30
0.0
  0
POINT
  5
3F2
100
AcDbEntity
  8
0
 62
         7
100
AcDbPoint
 10
381.2078212062
 20
129.142245509
 30
0.0
  0
ENDBLK
  5
3F3
100
AcDbEntity
  8
0
100
AcDbBlockEnd
  0
BLOCK
  5
3F6
100
AcDbEntity
  8
0
 62
       255
100
AcDbBlockBegin
  2
*D9
 70
         1
 10
0.0
 20
0.0
 30
0.0
  3
*D9
  1

  0
MTEXT
  5
3F7
100
AcDbEntity
  8
0
 62
         7
100
AcDbMText
 10
382.7953212062
 20
139.8683254558
 30
0.0
 40
3.5
 41
0.0
 71
         7
 72
         1
  1
10
  7
SLDTEXTSTYLE0
 73
         1
 44
1.0
  0
LINE
  5
3F8
100
AcDbEntity
  8
0
100
AcDbLine
 10
376.2078212062
 20
141.1452754558
 30
0.0
 11
381.2078212062
 21
141.1452754558
 31
0.0
  0
LINE
  5
3F9
100
AcDbEntity
  8
0
100
AcDbLine
 10
376.2078212062
 20
141.1452754558
 30
0.0
 11
371.2078212062
 21
139.142245509
 31
0.0
  0
LINE
  5
3FA
100
AcDbEntity
  8
0
100
AcDbLine
 10
371.2078212062
 20
139.142245509
 30
0.0
 11
274.197623611
 21
139.142245509
 31
0.0
  0
POINT
  5
3FB
100
AcDbEntity
  8
0
 62
         7
100
AcDbPoint
 10
273.197623611
 20
139.142245509
 30
0.0
  0
POINT
  5
3FC
100
AcDbEntity
  8
0
 62
         7
100
AcDbPoint
 10
381.2078212062
 20
141.1452754558
 30
0.0
  0
ENDBLK
  5
3FD
100
AcDbEntity
  8
0
100
AcDbBlockEnd
  0
BLOCK
  5
400
100
AcDbEntity
  8
0
 62
       255
100
AcDbBlockBegin
  2
*D10
 70
         1
 10
0.0
 20
0.0
 30
0.0
  3
*D10
  1

  0
MTEXT
  5
401
100
AcDbEntity
  8
0
 62
         7
100
AcDbMText
 10
382.7953212062
 20
152.865295509
 30
0.0
 40
3.5
 41
0.0
 71
         7
 72
         1
  1
25
  7
SLDTEXTSTYLE0
 73
         1
 44
1.0
  0
LINE
  5
402
100
AcDbEntity
  8
0
100
AcDbLine
 10
272.197623611
 20
154.142245509
 30
0.0
 11
381.2078212062
 21
154.142245509
 31
0.0
  0
POINT
  5
403
100
AcDbEntity
  8
0
 62
         7
100
AcDbPoint
 10
271.197623611
 20
154.142245509
 30
0.0
  0
POINT
  5
404
100
AcDbEntity
  8
0
 62
         7
100
AcDbPoint
 10
381.2078212062
 20
154.142245509
 30
0.0
  0
ENDBLK
  5
405
100
AcDbEntity
  8
0
100
AcDbBlockEnd
  0
BLOCK
  5
408
100
AcDbEntity
  8
0
 62
       255
100
AcDbBlockBegin
  2
*D11
 70
         1
 10
0.0
 20
0.0
 30
0.0
  3
*D11
  1

  0
MTEXT
  5
409
100
AcDbEntity
  8
0
 62
         7
100
AcDbMText
 10
382.7953212062
 20
215.7906517696
 30
0.0
 40
3.5
 41
0.0
 71
         7
 72
         1
  1
90
  7
SLDTEXTSTYLE0
 73
         1
 44
1.0
  0
LINE
  5
40A
100
AcDbEntity
  8
0
100
AcDbLine
 10
376.2078212062
 20
217.0676017696
 30
0.0
 11
381.2078212062
 21
217.0676017696
 31
0.0
  0
LINE
  5
40B
100
AcDbEntity
  8
0
100
AcDbLine
 10
376.2078212062
 20
217.0676017696
 30
0.0
 11
371.2078212062
 21
219.142245509
 31
0.0
  0
LINE
  5
40C
100
AcDbEntity
  8
0
100
AcDbLine
 10
371.2078212062
 20
219.142245509
 30
0.0
 11
274.197623611
 21
219.142245509
 31
0.0
  0
POINT
  5
40D
100
AcDbEntity
  8
0
 62
         7
100
AcDbPoint
 10
273.197623611
 20
219.142245509
 30
0.0
  0
POINT
  5
40E
100
AcDbEntity
  8
0
 62
         7
100
AcDbPoint
 10
381.2078212062
 20
217.0676017696
 30
0.0
  0
ENDBLK
  5
40F
100
AcDbEntity
  8
0
100
AcDbBlockEnd
  0
BLOCK
  5
412
100
AcDbEntity
  8
0
 62
       255
100
AcDbBlockBegin
  2
*D12
 70
         1
 10
0.0
 20
0.0
 30
0.0
  3
*D12
  1

  0
MTEXT
  5
413
100
AcDbEntity
  8
0
 62
         7
100
AcDbMText
 10
382.7953212062
 20
227.865295509
 30
0.0
 40
3.5
 41
0.0
 71
         7
 72
         1
  1
100
  7
SLDTEXTSTYLE0
 73
         1
 44
1.0
  0
LINE
  5
414
100
AcDbEntity
  8
0
100
AcDbLine
 10
364.197623611
 20
229.142245509
 30
0.0
 11
381.2078212062
 21
229.142245509
 31
0.0
  0
POINT
  5
415
100
AcDbEntity
  8
0
 62
         7
100
AcDbPoint
 10
363.197623611
 20
229.142245509
 30
0.0
  0
POINT
  5
416
100
AcDbEntity
  8
0
 62
         7
100
AcDbPoint
 10
381.2078212062
 20
229.142245509
 30
0.0
  0
ENDBLK
  5
417
100
AcDbEntity
  8
0
100
AcDbBlockEnd
  0
BLOCK
  5
41A
100
AcDbEntity
  8
0
 62
       255
100
AcDbBlockBegin
  2
*D13
 70
         1
 10
0.0
 20
0.0
 30
0.0
  3
*D13
  1

  0
MTEXT
  5
41B
100
AcDbEntity
  8
0
 62
         7
100
AcDbMText
 10
382.7953212062
 20
221.8279736393
 30
0.0
 40
3.5
 41
0.0
 71
         7
 72
         1
  1
92
  7
SLDTEXTSTYLE0
 73
         1
 44
1.0
  0
LINE
  5
41C
100
AcDbEntity
  8
0
100
AcDbLine
 10
376.2078212062
 20
223.1049236393
 30
0.0
 11
381.2078212062
 21
223.1049236393
 31
0.0
  0
LINE
  5
41D
100
AcDbEntity
  8
0
100
AcDbLine
 10
376.2078212062
 20
223.1049236393
 30
0.0
 11
371.2078212062
 21
221.142245509
 31
0.0
  0
LINE
  5
41E
100
AcDbEntity
  8
0
100
AcDbLine
 10
371.2078212062
 20
221.142245509
 30
0.0
 11
329.197623611
 21
221.142245509
 31
0.0
  0
POINT
  5
41F
100
AcDbEntity
  8
0
 62
         7
100
AcDbPoint
 10
328.197623611
 20
221.142245509
 30
0.0
  0
POINT
  5
420
100
AcDbEntity
  8
0
 62
         7
100
AcDbPoint
 10
381.2078212062
 20
223.1049236393
 30
0.0
  0
ENDBLK
  5
421
100
AcDbEntity
  8
0
100
AcDbBlockEnd
  0
BLOCK
  5
424
100
AcDbEntity
  8
0
 62
       255
100
AcDbBlockBegin
  2
*D14
 70
         1
 10
0.0
 20
0.0
 30
0.0
  3
*D14
  1

  0
MTEXT
  5
425
100
AcDbEntity
  8
0
 62
         7
100
AcDbMText
 10
382.7953212062
 20
177.865295509
 30
0.0
 40
3.5
 41
0.0
 71
         7
 72
         1
  1
50
  7
SLDTEXTSTYLE0
 73
         1
 44
1.0
  0
LINE
  5
426
100
AcDbEntity
  8
0
100
AcDbLine
 10
314.197623611
 20
179.142245509
 30
0.0
 11
381.2078212062
 21
179.142245509
 31
0.0
  0
POINT
  5
427
100
AcDbEntity
  8
0
 62
         7
100
AcDbPoint
 10
313.197623611
 20
179.142245509
 30
0.0
  0
POINT
  5
428
100
AcDbEntity
  8
0
 62
         7
100
AcDbPoint
 10
381.2078212062
 20
179.142245509
 30
0.0
  0
ENDBLK
  5
429
100
AcDbEntity
  8
0
100
AcDbBlockEnd
  0
BLOCK
  5
42C
100
AcDbEntity
  8
0
 62
       255
100
AcDbBlockBegin
  2
*D15
 70
         1
 10
0.0
 20
0.0
 30
0.0
  3
*D15
  1

  0
MTEXT
  5
42D
100
AcDbEntity
  8
0
 62
         7
100
AcDbMText
 10
241.037325
 20
193.97305
 30
0.0
 40
3.5
 41
0.0
 71
         7
 72
         1
  1
%%c
  7
SLDTEXTSTYLE0
 73
         1
 44
1.0
  0
MTEXT
  5
42E
100
AcDbEntity
  8
0
 62
         7
100
AcDbMText
 10
246.0349
 20
193.97305
 30
0.0
 40
3.5
 41
0.0
 71
         7
 72
         1
  1
8
  7
SLDTEXTSTYLE0
 73
         1
 44
1.0
  0
LINE
  5
42F
100
AcDbEntity
  8
0
100
AcDbLine
 10
309.2886863293
 20
179.9908969854
 30
0.0
 11
251.795175
 21
192.47305
 31
0.0
  0
LINE
  5
430
100
AcDbEntity
  8
0
100
AcDbLine
 10
317.1065608926
 20
178.2935940326
 30
0.0
 11
309.2886863293
 21
179.9908969854
 31
0.0
  0
LINE
  5
431
100
AcDbEntity
  8
0
100
AcDbLine
 10
251.795175
 20
192.47305
 30
0.0
 11
239.449825
 21
192.47305
 31
0.0
  0
SOLID
  5
432
100
AcDbEntity
  8
0
 62
       255
100
AcDbTrace
 10
309.2886863293
 20
179.9908969854
 30
0.0
 11
306.4524566592
 21
181.0671410369
 31
0.0
 12
306.261510077
 22
180.1876301485
 32
0.0
 13
306.261510077
 23
180.1876301485
 33
0.0
  0
POINT
  5
434
100
AcDbEntity
  8
0
 62
         7
100
AcDbPoint
 10
309.2886863293
 20
179.9908969854
 30
0.0
  0
POINT
  5
435
100
AcDbEntity
  8
0
 62
         7
100
AcDbPoint
 10
317.1065608926
 20
178.2935940326
 30
0.0
  0
ENDBLK
  5
436
100
AcDbEntity
  8
0
100
AcDbBlockEnd
  0
BLOCK
  5
439
100
AcDbEntity
  8
0
 62
       255
100
AcDbBlockBegin
  2
*D16
 70
         1
 10
0.0
 20
0.0
 30
0.0
  3
*D16
  1

  0
MTEXT
  5
43A
100
AcDbEntity
  8
0
 62
         7
100
AcDbMText
 10
324.6976886563
 20
245.7804044487
 30
0.0
 40
3.5
 41
0.0
 71
         7
 72
         1
  1
4x %%c
  7
SLDTEXTSTYLE0
 73
         1
 44
1.0
  0
MTEXT
  5
43B
100
AcDbEntity
  8
0
 62
         7
100
AcDbMText
 10
335.8101636563
 20
245.7804044487
 30
0.0
 40
3.5
 41
0.0
 71
         7
 72
         1
  1
8,50
  7
SLDTEXTSTYLE0
 73
         1
 44
1.0
  0
LINE
  5
43C
100
AcDbEntity
  8
0
100
AcDbLine
 10
352.3420553307
 20
223.3052375721
 30
0.0
 11
348.0312886563
 21
244.2804044487
 31
0.0
  0
LINE
  5
43D
100
AcDbEntity
  8
0
100
AcDbLine
 10
354.0531918912
 20
214.9792534458
 30
0.0
 11
353.3510219708
 21
218.3958455202
 31
0.0
  0
LINE
  5
43E
100
AcDbEntity
  8
0
100
AcDbLine
 10
353.0442252511
 20
219.8886454977
 30
0.0
 11
352.3420553307
 21
223.3052375721
 31
0.0
  0
LINE
  5
43F
100
AcDbEntity
  8
0
100
AcDbLine
 10
348.0312886563
 20
244.2804044487
 30
0.0
 11
323.1101886563
 21
244.2804044487
 31
0.0
  0
SOLID
  5
440
100
AcDbEntity
  8
0
 62
       255
100
AcDbTrace
 10
352.3420553307
 20
223.3052375721
 30
0.0
 11
352.1789121749
 21
226.3344097876
 31
0.0
 12
351.2973373851
 22
226.1532306223
 32
0.0
 13
351.2973373851
 23
226.1532306223
 33
0.0
  0
POINT
  5
441
100
AcDbEntity
  8
0
 62
         7
100
AcDbPoint
 10
352.3420553307
 20
223.3052375721
 30
0.0
  0
POINT
  5
442
100
AcDbEntity
  8
0
 62
         7
100
AcDbPoint
 10
354.0531918912
 20
214.9792534458
 30
0.0
  0
ENDBLK
  5
443
100
AcDbEntity
  8
0
100
AcDbBlockEnd
  0
BLOCK
  5
446
100
AcDbEntity
  8
0
 62
       255
100
AcDbBlockBegin
  2
*D17
 70
         1
 10
0.0
 20
0.0
 30
0.0
  3
*D17
  1

  0
MTEXT
  5
447
100
AcDbEntity
  8
0
 62
         7
100
AcDbMText
 10
298.1662839485
 20
240.4006126836
 30
0.0
 40
3.5
 41
0.0
 71
         7
 72
         1
  1
%%c
  7
SLDTEXTSTYLE0
 73
         1
 44
1.0
  0
MTEXT
  5
448
100
AcDbEntity
  8
0
 62
         7
100
AcDbMText
 10
303.1638589485
 20
240.4006126836
 30
0.0
 40
3.5
 41
0.0
 71
         7
 72
         1
  1
8,50
  7
SLDTEXTSTYLE0
 73
         1
 44
1.0
  0
LINE
  5
449
100
AcDbEntity
  8
0
100
AcDbLine
 10
325.7109277744
 20
224.5888153714
 30
0.0
 11
315.3849839485
 21
238.9006126836
 31
0.0
  0
LINE
  5
44A
100
AcDbEntity
  8
0
100
AcDbLine
 10
330.6843194476
 20
217.6956756466
 30
0.0
 11
325.7109277744
 21
224.5888153714
 31
0.0
  0
LINE
  5
44B
100
AcDbEntity
  8
0
100
AcDbLine
 10
315.3849839485
 20
238.9006126836
 30
0.0
 11
296.5787839485
 21
238.9006126836
 31
0.0
  0
SOLID
  5
44C
100
AcDbEntity
  8
0
 62
       255
100
AcDbTrace
 10
325.7109277744
 20
224.5888153714
 30
0.0
 11
324.3205439928
 21
227.2849854216
 31
0.0
 12
323.5906821396
 22
226.7583910092
 32
0.0
 13
323.5906821396
 23
226.7583910092
 33
0.0
  0
POINT
  5
44D
100
AcDbEntity
  8
0
 62
         7
100
AcDbPoint
 10
325.7109277744
 20
224.5888153714
 30
0.0
  0
POINT
  5
44E
100
AcDbEntity
  8
0
 62
         7
100
AcDbPoint
 10
330.6843194476
 20
217.6956756466
 30
0.0
  0
ENDBLK
  5
44F
100
AcDbEntity
  8
0
100
AcDbBlockEnd
  0
BLOCK
  5
452
100
AcDbEntity
  8
0
 62
       255
100
AcDbBlockBegin
  2
*D18
 70
         1
 10
0.0
 20
0.0
 30
0.0
  3
*D18
  1

  0
MTEXT
  5
453
100
AcDbEntity
  8
0
 62
         7
100
AcDbMText
 10
234.804292049
 20
170.4633197379
 30
0.0
 40
3.5
 41
0.0
 71
         7
 72
         1
  1
%%c
  7
SLDTEXTSTYLE0
 73
         1
 44
1.0
  0
MTEXT
  5
454
100
AcDbEntity
  8
0
 62
         7
100
AcDbMText
 10
239.801867049
 20
170.4633197379
 30
0.0
 40
3.5
 41
0.0
 71
         7
 72
         1
  1
8,50
  7
SLDTEXTSTYLE0
 73
         1
 44
1.0
  0
LINE
  5
455
100
AcDbEntity
  8
0
100
AcDbLine
 10
267.8350283766
 20
156.7413709946
 30
0.0
 11
252.022992049
 21
168.9633197379
 31
0.0
  0
LINE
  5
456
100
AcDbEntity
  8
0
100
AcDbLine
 10
274.5602188453
 20
151.5431200234
 30
0.0
 11
267.8350283766
 21
156.7413709946
 31
0.0
  0
LINE
  5
457
100
AcDbEntity
  8
0
100
AcDbLine
 10
252.022992049
 20
168.9633197379
 30
0.0
 11
233.216792049
 21
168.9633197379
 31
0.0
  0
SOLID
  5
458
100
AcDbEntity
  8
0
 62
       255
100
AcDbTrace
 10
267.8350283766
 20
156.7413709946
 30
0.0
 11
265.7366332626
 21
158.9320873034
 31
0.0
 12
265.1862302186
 22
158.2200083126
 32
0.0
 13
265.1862302186
 23
158.2200083126
 33
0.0
  0
POINT
  5
459
100
AcDbEntity
  8
0
 62
         7
100
AcDbPoint
 10
267.8350283766
 20
156.7413709946
 30
0.0
  0
POINT
  5
45A
100
AcDbEntity
  8
0
 62
         7
100
AcDbPoint
 10
274.5602188453
 20
151.5431200234
 30
0.0
  0
ENDBLK
  5
45B
100
AcDbEntity
  8
0
100
AcDbBlockEnd
  0
BLOCK
  5
45E
100
AcDbEntity
  8
0
 62
       255
100
AcDbBlockBegin
  2
*D19
 70
         1
 10
0.0
 20
0.0
 30
0.0
  3
*D19
  1

  0
MTEXT
  5
45F
100
AcDbEntity
  8
0
 62
         7
100
AcDbMText
 10
374.1859712062
 20
167.4745465351
 30
0.0
 40
3.5
 41
0.0
 71
         7
 72
         1
  1
%%c
  7
SLDTEXTSTYLE0
 73
         1
 44
1.0
  0
MTEXT
  5
460
100
AcDbEntity
  8
0
 62
         7
100
AcDbMText
 10
379.1835462062
 20
167.4745465351
 30
0.0
 40
3.5
 41
0.0
 71
         7
 72
         1
  1
8,50
  7
SLDTEXTSTYLE0
 73
         1
 44
1.0
  0
LINE
  5
461
100
AcDbEntity
  8
0
100
AcDbLine
 10
358.6004836224
 20
156.6884276986
 30
0.0
 11
371.0109712062
 21
165.9745465351
 31
0.0
  0
LINE
  5
462
100
AcDbEntity
  8
0
100
AcDbLine
 10
351.7947635995
 20
151.5960633194
 30
0.0
 11
358.6004836224
 21
156.6884276986
 31
0.0
  0
LINE
  5
463
100
AcDbEntity
  8
0
100
AcDbLine
 10
371.0109712062
 20
165.9745465351
 30
0.0
 11
389.8171712062
 21
165.9745465351
 31
0.0
  0
SOLID
  5
464
100
AcDbEntity
  8
0
 62
       255
100
AcDbTrace
 10
358.6004836224
 20
156.6884276986
 30
0.0
 11
361.2720982152
 21
158.1254299488
 31
0.0
 12
360.7329066927
 22
158.8460355983
 32
0.0
 13
360.7329066927
 23
158.8460355983
 33
0.0
  0
POINT
  5
465
100
AcDbEntity
  8
0
 62
         7
100
AcDbPoint
 10
358.6004836224
 20
156.6884276986
 30
0.0
  0
POINT
  5
466
100
AcDbEntity
  8
0
 62
         7
100
AcDbPoint
 10
351.7947635995
 20
151.5960633194
 30
0.0
  0
ENDBLK
  5
467
100
AcDbEntity
  8
0
100
AcDbBlockEnd
  0
BLOCK
  5
4BA
100
AcDbEntity
  8
0
 62
       255
100
AcDbBlockBegin
  2
*D20
 70
         1
 10
0.0
 20
0.0
 30
0.0
  3
*D20
  1

  0
MTEXT
  5
4BB
100
AcDbEntity
  8
0
 62
         7
100
AcDbMText
 10
163.6768189687
 20
80.3763744795
 30
0.0
 40
3.5
 41
0.0
 71
         7
 72
         1
  1
10
  7
SLDTEXTSTYLE0
 11
0.0
 21
1.0
 31
0.0
 73
         1
 44
1.0
  0
LINE
  5
4BC
100
AcDbEntity
  8
0
100
AcDbLine
 10
153.433008982
 20
87.6475
 30
0.0
 11
166.1768189687
 21
87.6475
 31
0.0
  0
LINE
  5
4BD
100
AcDbEntity
  8
0
100
AcDbLine
 10
153.433008982
 20
77.6475
 30
0.0
 11
166.1768189687
 21
77.6475
 31
0.0
  0
LINE
  5
4BE
100
AcDbEntity
  8
0
100
AcDbLine
 10
165.1768189687
 20
87.6475
 30
0.0
 11
165.1768189687
 21
92.6475
 31
0.0
  0
LINE
  5
4BF
100
AcDbEntity
  8
0
100
AcDbLine
 10
165.1768189687
 20
87.6475
 30
0.0
 11
165.1768189687
 21
77.6475
 31
0.0
  0
LINE
  5
4C0
100
AcDbEntity
  8
0
100
AcDbLine
 10
165.1768189687
 20
77.6475
 30
0.0
 11
165.1768189687
 21
72.6475
 31
0.0
  0
SOLID
  5
4C1
100
AcDbEntity
  8
0
 62
       255
100
AcDbTrace
 10
165.1768189687
 20
87.6475
 30
0.0
 11
165.6268189687
 21
90.6475
 31
0.0
 12
164.7268189687
 22
90.6475
 32
0.0
 13
164.7268189687
 23
90.6475
 33
0.0
  0
SOLID
  5
4C2
100
AcDbEntity
  8
0
 62
       255
100
AcDbTrace
 10
165.1768189687
 20
77.6475
 30
0.0
 11
164.7268189687
 21
74.6475
 31
0.0
 12
165.6268189687
 22
74.6475
 32
0.0
 13
165.6268189687
 23
74.6475
 33
0.0
  0
POINT
  5
4C4
100
AcDbEntity
  8
0
 62
         7
100
AcDbPoint
 10
152.433008982
 20
87.6475
 30
0.0
  0
POINT
  5
4C5
100
AcDbEntity
  8
0
 62
         7
100
AcDbPoint
 10
152.433008982
 20
77.6475
 30
0.0
  0
ENDBLK
  5
4C6
100
AcDbEntity
  8
0
 62
       255
100
AcDbBlockEnd
  0
BLOCK
  5
4C9
100
AcDbEntity
  8
0
 62
       255
100
AcDbBlockBegin
  2
*D21
 70
         1
 10
0.0
 20
0.0
 30
0.0
  3
*D21
  1

  0
MTEXT
  5
4CA
100
AcDbEntity
  8
0
 62
         7
100
AcDbMText
 10
135.3899447606
 20
64.1296695944
 30
0.0
 40
3.5
 41
0.0
 71
         7
 72
         1
  1
4
  7
SLDTEXTSTYLE0
 11
0.0
 21
1.0
 31
0.0
 73
         1
 44
1.0
  0
LINE
  5
4CB
100
AcDbEntity
  8
0
100
AcDbLine
 10
136.8899447606
 20
81.6475
 30
0.0
 11
136.8899447606
 21
86.6475
 31
0.0
  0
LINE
  5
4CC
100
AcDbEntity
  8
0
100
AcDbLine
 10
136.8899447606
 20
81.6475
 30
0.0
 11
136.8899447606
 21
77.6475
 31
0.0
  0
LINE
  5
4CD
100
AcDbEntity
  8
0
100
AcDbLine
 10
136.8899447606
 20
77.6475
 30
0.0
 11
136.8899447606
 21
62.5421695944
 31
0.0
  0
SOLID
  5
4CE
100
AcDbEntity
  8
0
 62
       255
100
AcDbTrace
 10
136.8899447606
 20
81.6475
 30
0.0
 11
137.3399447606
 21
84.6475
 31
0.0
 12
136.4399447606
 22
84.6475
 32
0.0
 13
136.4399447606
 23
84.6475
 33
0.0
  0
SOLID
  5
4CF
100
AcDbEntity
  8
0
 62
       255
100
AcDbTrace
 10
136.8899447606
 20
77.6475
 30
0.0
 11
136.4399447606
 21
74.6475
 31
0.0
 12
137.3399447606
 22
74.6475
 32
0.0
 13
137.3399447606
 23
74.6475
 33
0.0
  0
POINT
  5
4D0
100
AcDbEntity
  8
0
 62
         7
100
AcDbPoint
 10
143.033008982
 20
81.6475
 30
0.0
  0
POINT
  5
4D1
100
AcDbEntity
  8
0
 62
         7
100
AcDbPoint
 10
142.1782032746
 20
77.6475
 30
0.0
  0
ENDBLK
  5
4D2
100
AcDbEntity
  8
0
 62
       255
100
AcDbBlockEnd
  0
BLOCK
  5
4D5
100
AcDbEntity
  8
0
 62
       255
100
AcDbBlockBegin
  2
*D22
 70
         1
 10
0.0
 20
0.0
 30
0.0
  3
*D22
  1

  0
MTEXT
  5
4D6
100
AcDbEntity
  8
0
 62
         7
100
AcDbMText
 10
95.3711931468
 20
64.6893724141
 30
0.0
 40
3.5
 41
0.0
 71
         7
 72
         1
  1
2
  7
SLDTEXTSTYLE0
 11
0.0
 21
1.0
 31
0.0
 73
         1
 44
1.0
  0
LINE
  5
4D7
100
AcDbEntity
  8
0
100
AcDbLine
 10
96.8711931468
 20
79.6475
 30
0.0
 11
96.8711931468
 21
84.6475
 31
0.0
  0
LINE
  5
4D8
100
AcDbEntity
  8
0
100
AcDbLine
 10
96.8711931468
 20
79.6475
 30
0.0
 11
96.8711931468
 21
77.6475
 31
0.0
  0
LINE
  5
4D9
100
AcDbEntity
  8
0
100
AcDbLine
 10
96.8711931468
 20
77.6475
 30
0.0
 11
96.8711931468
 21
63.1018724141
 31
0.0
  0
SOLID
  5
4DA
100
AcDbEntity
  8
0
 62
       255
100
AcDbTrace
 10
96.8711931468
 20
79.6475
 30
0.0
 11
97.3211931468
 21
82.6475
 31
0.0
 12
96.4211931468
 22
82.6475
 32
0.0
 13
96.4211931468
 23
82.6475
 33
0.0
  0
SOLID
  5
4DB
100
AcDbEntity
  8
0
 62
       255
100
AcDbTrace
 10
96.8711931468
 20
77.6475
 30
0.0
 11
96.4211931468
 21
74.6475
 31
0.0
 12
97.3211931468
 22
74.6475
 32
0.0
 13
97.3211931468
 23
74.6475
 33
0.0
  0
POINT
  5
4DC
100
AcDbEntity
  8
0
 62
         7
100
AcDbPoint
 10
98.433008982
 20
79.6475
 30
0.0
  0
POINT
  5
4DD
100
AcDbEntity
  8
0
 62
         7
100
AcDbPoint
 10
93.3353245236
 20
77.6475
 30
0.0
  0
ENDBLK
  5
4DE
100
AcDbEntity
  8
0
 62
       255
100
AcDbBlockEnd
  0
ENDSEC
  0
SECTION
  2
ENTITIES
  0
LINE
  5
30
100
AcDbEntity
  8
0
370
         0
  6
Continuous
 62
         7
100
AcDbLine
 10
12.0
 20
279.0
 30
0.0
 11
408.0
 21
279.0
 31
0.0
  0
LINE
  5
31
100
AcDbEntity
  8
0
370
         0
  6
Continuous
 62
         7
100
AcDbLine
 10
12.0
 20
279.0
 30
0.0
 11
12.0
 21
18.0
 31
0.0
  0
LINE
  5
32
100
AcDbEntity
  8
0
370
         0
  6
Continuous
 62
         7
100
AcDbLine
 10
12.0
 20
18.0
 30
0.0
 11
408.0
 21
18.0
 31
0.0
  0
LINE
  5
33
100
AcDbEntity
  8
0
370
         0
  6
Continuous
 62
         7
100
AcDbLine
 10
408.0
 20
279.0
 30
0.0
 11
408.0
 21
18.0
 31
0.0
  0
LINE
  5
34
100
AcDbEntity
  8
0
370
         0
  6
Continuous
 62
         7
100
AcDbLine
 10
230.084092326
 20
18.2522667599
 30
0.0
 11
407.7493469813
 21
18.2522667599
 31
0.0
  0
LINE
  5
35
100
AcDbEntity
  8
0
370
         0
  6
Continuous
 62
         7
100
AcDbLine
 10
408.0
 20
58.3068354107
 30
0.0
 11
230.084092326
 21
58.3068354107
 31
0.0
  0
LINE
  5
36
100
AcDbEntity
  8
0
370
         0
  6
Continuous
 62
         7
100
AcDbLine
 10
366.4090916959
 20
58.3068354107
 30
0.0
 11
366.4090916959
 21
38.2795510853
 31
0.0
  0
LINE
  5
37
100
AcDbEntity
  8
0
370
         0
  6
Continuous
 62
         7
100
AcDbLine
 10
407.7493469813
 20
18.2522667599
 30
0.0
 11
288.5242550027
 21
18.2522667599
 31
0.0
  0
LINE
  5
38
100
AcDbEntity
  8
0
370
         0
  6
Continuous
 62
         7
100
AcDbLine
 10
407.7493469813
 20
18.2522667599
 30
0.0
 11
407.7493469813
 21
38.2795510853
 31
0.0
  0
LINE
  5
39
100
AcDbEntity
  8
0
370
         0
  6
Continuous
 62
         7
100
AcDbLine
 10
407.7493469813
 20
38.2795510853
 30
0.0
 11
288.5242550027
 21
38.2795510853
 31
0.0
  0
LINE
  5
3A
100
AcDbEntity
  8
0
370
         0
  6
Continuous
 62
         7
100
AcDbLine
 10
288.5242550027
 20
18.2522667599
 30
0.0
 11
288.5242550027
 21
38.2795510853
 31
0.0
  0
LINE
  5
3B
100
AcDbEntity
  8
0
370
         0
  6
Continuous
 62
         7
100
AcDbLine
 10
288.5242550027
 20
18.2522667599
 30
0.0
 11
230.084092326
 21
18.2522667599
 31
0.0
  0
LINE
  5
3C
100
AcDbEntity
  8
0
370
         0
  6
Continuous
 62
         7
100
AcDbLine
 10
288.5242550027
 20
18.2522667599
 30
0.0
 11
288.5242550027
 21
58.3068354107
 31
0.0
  0
LINE
  5
3D
100
AcDbEntity
  8
0
370
         0
  6
Continuous
 62
         7
100
AcDbLine
 10
288.5242550027
 20
58.3068354107
 30
0.0
 11
230.084092326
 21
58.3068354107
 31
0.0
  0
LINE
  5
3E
100
AcDbEntity
  8
0
370
         0
  6
Continuous
 62
         7
100
AcDbLine
 10
230.084092326
 20
18.2522667599
 30
0.0
 11
230.084092326
 21
58.3068354107
 31
0.0
  0
LINE
  5
3F
100
AcDbEntity
  8
0
370
         0
  6
Continuous
 62
         7
100
AcDbLine
 10
366.4090916959
 20
48.293193248
 30
0.0
 11
408.0
 21
48.293193248
 31
0.0
  0
LINE
  5
40
100
AcDbEntity
  8
0
370
         0
  6
Continuous
 62
         7
100
AcDbLine
 10
366.4090916959
 20
48.293193248
 30
0.0
 11
288.5242550027
 21
48.293193248
 31
0.0
  0
LINE
  5
41
100
AcDbEntity
  8
0
370
         0
  6
Continuous
 62
         7
100
AcDbLine
 10
288.5242550027
 20
38.2795510853
 30
0.0
 11
230.084092326
 21
38.2795510853
 31
0.0
  0
LINE
  5
42
100
AcDbEntity
  8
0
370
         0
  6
CENTERX2
 62
         7
100
AcDbLine
 10
231.5034756363
 20
52.6447098121
 30
0.0
 11
241.8262640213
 21
52.6447098121
 31
0.0
  0
LINE
  5
43
100
AcDbEntity
  8
0
370
         0
  6
CENTERX2
 62
         7
100
AcDbLine
 10
254.0649093727
 20
52.6447098121
 30
0.0
 11
245.9934787816
 21
52.6447098121
 31
0.0
  0
LINE
  5
44
100
AcDbEntity
  8
0
370
         0
  6
CENTERX2
 62
         7
100
AcDbLine
 10
250.0291940771
 20
55.6569677112
 30
0.0
 11
250.0291940771
 21
49.632451913
 31
0.0
  0
LINE
  5
45
100
AcDbEntity
  8
0
370
         0
  6
Continuous
 62
         7
100
AcDbLine
 10
233.7155017188
 20
51.4968023375
 30
0.0
 11
233.7155017188
 21
53.7926172867
 31
0.0
  0
LINE
  5
46
100
AcDbEntity
  8
0
370
         0
  6
Continuous
 62
         7
100
AcDbLine
 10
233.7155017188
 20
53.7926172867
 30
0.0
 11
238.7847281578
 21
55.3594690952
 31
0.0
  0
LINE
  5
47
100
AcDbEntity
  8
0
370
         0
  6
Continuous
 62
         7
100
AcDbLine
 10
238.7847281578
 20
55.3594690952
 30
0.0
 11
238.7847281578
 21
49.9299505291
 31
0.0
  0
LINE
  5
48
100
AcDbEntity
  8
0
370
         0
  6
Continuous
 62
         7
100
AcDbLine
 10
238.7847281578
 20
49.9299505291
 30
0.0
 11
233.7155017188
 21
51.4968023375
 31
0.0
  0
CIRCLE
  5
49
100
AcDbEntity
  8
0
370
         0
  6
Continuous
 62
         5
100
AcDbCircle
 10
250.0291940771
 20
52.6447098121
 30
0.0
 40
3.1391205675
  0
CIRCLE
  5
4A
100
AcDbEntity
  8
0
370
         0
  6
Continuous
 62
         5
100
AcDbCircle
 10
250.0291940771
 20
52.6447098121
 30
0.0
 40
1.5
  0
MTEXT
  5
4C
100
AcDbEntity
  8
0
 62
         7
100
AcDbMText
 10
321.3289280526
 20
44.4688155428
 30
0.0
 40
3.5
 41
0.0
 71
         1
 72
         1
  1
   
  7
SLDTEXTSTYLE0
 73
         1
 44
1.0
  0
MTEXT
  5
4D
100
AcDbEntity
  8
0
 62
         7
100
AcDbMText
 10
314.4447636363
 20
55.7845976875
 30
0.0
 40
3.5
 41
0.0
 71
         1
 72
         1
  1
ALU 2017 - AU4G
  7
SLDTEXTSTYLE0
 73
         1
 44
1.0
  0
MTEXT
  5
4E
100
AcDbEntity
  8
0
 62
         7
100
AcDbMText
 10
397.3299847037
 20
55.629067595
 30
0.0
 40
3.5
 41
0.0
 71
         1
 72
         1
  1
01
  7
SLDTEXTSTYLE0
 73
         1
 44
1.0
  0
MTEXT
  5
4F
100
AcDbEntity
  8
0
 62
         7
100
AcDbMText
 10
367.499804219
 20
55.6184159535
 30
0.0
 40
3.5
 41
0.0
 71
         1
 72
         1
  1
Quantité:
  7
SLDTEXTSTYLE0
 73
         1
 44
1.0
  0
MTEXT
  5
50
100
AcDbEntity
  8
0
 62
         7
100
AcDbMText
 10
289.4619428465
 20
55.2778536138
 30
0.0
 40
3.5
 41
0.0
 71
         1
 72
         1
  1
Matière:
  7
SLDTEXTSTYLE0
 73
         1
 44
1.0
  0
MTEXT
  5
51
100
AcDbEntity
  8
0
 62
         7
100
AcDbMText
 10
289.4390372629
 20
44.699460691
 30
0.0
 40
3.5
 41
0.0
 71
         1
 72
         1
  1
Observation:
  7
SLDTEXTSTYLE0
 73
         1
 44
1.0
  0
MTEXT
  5
52
100
AcDbEntity
  8
0
 62
         7
100
AcDbMText
 10
289.7346356121
 20
35.1462952525
 30
0.0
 40
3.5
 41
0.0
 71
         1
 72
         1
  1
Désignation:
  7
SLDTEXTSTYLE0
 73
         1
 44
1.0
  0
MTEXT
  5
53
100
AcDbEntity
  8
0
 62
         7
100
AcDbMText
 10
240.0342250463
 20
45.4874721265
 30
0.0
 40
3.5
 41
0.0
 71
         1
 72
         1
  1
Tol Gén: +/-0.2
  7
SLDTEXTSTYLE0
 73
         1
 44
1.0
  0
MTEXT
  5
54
100
AcDbEntity
  8
0
 62
         7
100
AcDbMText
 10
270.3659973884
 20
57.292987735
 30
0.0
 40
3.5
 41
0.0
 71
         2
 72
         1
  1
A3 \PEchelle 1:1
  7
SLDTEXTSTYLE0
 73
         1
 44
1.0
  0
MTEXT
  5
55
100
AcDbEntity
  8
0
 62
         7
100
AcDbMText
 10
374.545001106
 20
45.7319305088
 30
0.0
 40
3.5
 41
0.0
 71
         1
 72
         1
  1
24/02/2023
  7
SLDTEXTSTYLE0
 73
         1
 44
1.0
  0
MTEXT
  5
56
100
AcDbEntity
  8
0
 62
         7
100
AcDbMText
 10
305.7392518586
 20
27.8230098604
 30
0.0
 40
5.2916666667
 41
0.0
 71
         1
 72
         1
  1
ARL-PIMER01-02-A-couvercle
  7
SLDTEXTSTYLE0
 73
         1
 44
1.0
  0
MTEXT
  5
57
100
AcDbEntity
  8
0
 62
         7
100
AcDbMText
 10
323.7867495045
 20
47.8558472993
 30
0.0
 40
3.5
 41
0.0
 71
         1
 72
         1
  1
-
  7
SLDTEXTSTYLE0
 73
         1
 44
1.0
  0
LINE
  5
58
100
AcDbEntity
  8
0
370
        15
  6
Continuous
 62
         7
100
AcDbLine
 10
132.8386005731
 20
148.736653918
 30
0.0
 11
131.4243870107
 21
147.3224403556
 31
0.0
  0
LINE
  5
59
100
AcDbEntity
  8
0
370
        15
  6
Continuous
 62
         7
100
AcDbLine
 10
133.1214432855
 20
145.6253840807
 30
0.0
 11
131.4243870107
 21
147.3224403556
 31
0.0
  0
ARC
  5
5A
100
AcDbEntity
  8
0
370
        15
  6
Continuous
 62
         7
100
AcDbCircle
 10
134.8184995604
 20
147.3224403556
 30
0.0
 40
1.6
100
AcDbArc
 50
315.0
 51
45.0
  0
ARC
  5
5B
100
AcDbEntity
  8
0
370
        15
  6
Continuous
 62
         7
100
AcDbCircle
 10
134.2528141354
 20
146.7567549306
 30
0.0
 40
1.6
100
AcDbArc
 50
225.0
 51
315.0
  0
LINE
  5
5C
100
AcDbEntity
  8
0
370
        15
  6
Continuous
 62
         7
100
AcDbLine
 10
135.9498704103
 20
146.1910695057
 30
0.0
 11
135.3841849853
 21
145.6253840807
 31
0.0
  0
LINE
  5
5D
100
AcDbEntity
  8
0
370
        15
  6
Continuous
 62
         7
100
AcDbLine
 10
134.2528141354
 20
150.1508674803
 30
0.0
 11
135.9498704103
 21
148.4538112055
 31
0.0
  0
LINE
  5
5E
100
AcDbEntity
  8
0
370
        15
  6
Continuous
 62
         7
100
AcDbLine
 10
134.2528141354
 20
150.1508674803
 30
0.0
 11
132.8386005731
 21
148.736653918
 31
0.0
  0
CIRCLE
  5
5F
100
AcDbEntity
  8
0
370
        15
  6
Continuous
 62
         7
100
AcDbCircle
 10
62.433008982
 20
139.142245509
 30
0.0
 40
4.25
  0
CIRCLE
  5
60
100
AcDbEntity
  8
0
370
        15
  6
Continuous
 62
         7
100
AcDbCircle
 10
62.433008982
 20
219.142245509
 30
0.0
 40
4.25
  0
ARC
  5
61
100
AcDbEntity
  8
0
370
        15
  6
Continuous
 62
         7
100
AcDbCircle
 10
123.033008982
 20
173.442245509
 30
0.0
 40
1.6
100
AcDbArc
 50
190.8069228749
 51
225.0
  0
LINE
  5
62
100
AcDbEntity
  8
0
370
        15
  6
Continuous
 62
         7
100
AcDbLine
 10
122.7016381321
 20
171.5108746591
 30
0.0
 11
121.9016381321
 21
172.3108746591
 31
0.0
  0
ARC
  5
63
100
AcDbEntity
  8
0
370
        15
  6
Continuous
 62
         7
100
AcDbCircle
 10
123.833008982
 20
172.642245509
 30
0.0
 40
1.6
100
AcDbArc
 50
225.0
 51
0.0
  0
LINE
  5
64
100
AcDbEntity
  8
0
370
        15
  6
Continuous
 62
         7
100
AcDbLine
 10
125.433008982
 20
177.142245509
 30
0.0
 11
125.433008982
 21
172.642245509
 31
0.0
  0
LINE
  5
65
100
AcDbEntity
  8
0
370
        15
  6
Continuous
 62
         7
100
AcDbLine
 10
128.433008982
 20
177.142245509
 30
0.0
 11
125.433008982
 21
177.142245509
 31
0.0
  0
LINE
  5
66
100
AcDbEntity
  8
0
370
        15
  6
Continuous
 62
         7
100
AcDbLine
 10
128.433008982
 20
173.142245509
 30
0.0
 11
128.433008982
 21
177.142245509
 31
0.0
  0
ARC
  5
67
100
AcDbEntity
  8
0
370
        15
  6
Continuous
 62
         7
100
AcDbCircle
 10
130.033008982
 20
173.142245509
 30
0.0
 40
1.6
100
AcDbArc
 50
180.0
 51
297.7585406011
  0
LINE
  5
68
100
AcDbEntity
  8
0
370
        15
  6
Continuous
 62
         7
100
AcDbLine
 10
142.1782032746
 20
177.7263763532
 30
0.0
 11
130.7782032746
 21
171.7263763532
 31
0.0
  0
ARC
  5
69
100
AcDbEntity
  8
0
370
        15
  6
Continuous
 62
         7
100
AcDbCircle
 10
141.433008982
 20
179.142245509
 30
0.0
 40
1.6
100
AcDbArc
 50
297.7585406011
 51
23.6309644341
  0
ARC
  5
6A
100
AcDbEntity
  8
0
370
        15
  6
Continuous
 62
         7
100
AcDbCircle
 10
129.1566494385
 20
173.7709331594
 30
0.0
 40
15.0
100
AcDbArc
 50
23.6309644341
 51
86.2501816321
  0
ARC
  5
6B
100
AcDbEntity
  8
0
370
        15
  6
Continuous
 62
         7
100
AcDbCircle
 10
130.033008982
 20
187.142245509
 30
0.0
 40
1.6
100
AcDbArc
 50
86.2501816321
 51
180.0
  0
LINE
  5
6C
100
AcDbEntity
  8
0
370
        15
  6
Continuous
 62
         7
100
AcDbLine
 10
128.433008982
 20
181.142245509
 30
0.0
 11
128.433008982
 21
187.142245509
 31
0.0
  0
LINE
  5
6D
100
AcDbEntity
  8
0
370
        15
  6
Continuous
 62
         7
100
AcDbLine
 10
125.433008982
 20
181.142245509
 30
0.0
 11
128.433008982
 21
181.142245509
 31
0.0
  0
LINE
  5
6E
100
AcDbEntity
  8
0
370
        15
  6
Continuous
 62
         7
100
AcDbLine
 10
125.433008982
 20
185.642245509
 30
0.0
 11
125.433008982
 21
181.142245509
 31
0.0
  0
ARC
  5
6F
100
AcDbEntity
  8
0
370
        15
  6
Continuous
 62
         7
100
AcDbCircle
 10
123.833008982
 20
185.642245509
 30
0.0
 40
1.6
100
AcDbArc
 50
0.0
 51
135.0
  0
LINE
  5
70
100
AcDbEntity
  8
0
370
        15
  6
Continuous
 62
         7
100
AcDbLine
 10
121.9016381321
 20
185.9736163589
 30
0.0
 11
122.7016381321
 21
186.7736163589
 31
0.0
  0
ARC
  5
71
100
AcDbEntity
  8
0
370
        15
  6
Continuous
 62
         7
100
AcDbCircle
 10
123.033008982
 20
184.842245509
 30
0.0
 40
1.6
100
AcDbArc
 50
135.0
 51
169.1930771251
  0
LINE
  5
72
100
AcDbEntity
  8
0
370
        15
  6
Continuous
 62
         7
100
AcDbLine
 10
121.433008982
 20
185.142245509
 30
0.0
 11
121.4613856175
 21
185.142245509
 31
0.0
  0
LINE
  5
73
100
AcDbEntity
  8
0
370
        15
  6
Continuous
 62
         7
100
AcDbLine
 10
121.433008982
 20
181.142245509
 30
0.0
 11
121.433008982
 21
185.142245509
 31
0.0
  0
LINE
  5
74
100
AcDbEntity
  8
0
370
        15
  6
Continuous
 62
         7
100
AcDbLine
 10
121.433008982
 20
181.142245509
 30
0.0
 11
117.2990777294
 21
181.142245509
 31
0.0
  0
ARC
  5
75
100
AcDbEntity
  8
0
370
        15
  6
Continuous
 62
         7
100
AcDbCircle
 10
102.433008982
 20
179.142245509
 30
0.0
 40
15.0
100
AcDbArc
 50
7.6622556608
 51
37.3377443392
  0
LINE
  5
76
100
AcDbEntity
  8
0
370
        15
  6
Continuous
 62
         7
100
AcDbLine
 10
114.3591205652
 20
188.2399299674
 30
0.0
 11
117.282251387
 21
191.1630607892
 31
0.0
  0
LINE
  5
77
100
AcDbEntity
  8
0
370
        15
  6
Continuous
 62
         7
100
AcDbLine
 10
118.6964649493
 20
189.7488472268
 30
0.0
 11
117.282251387
 21
191.1630607892
 31
0.0
  0
ARC
  5
78
100
AcDbEntity
  8
0
370
        15
  6
Continuous
 62
         7
100
AcDbCircle
 10
119.4035717305
 20
190.455954008
 30
0.0
 40
1.0
100
AcDbArc
 50
225.0
 51
33.4630409672
  0
LINE
  5
79
100
AcDbEntity
  8
0
370
        15
  6
Continuous
 62
         7
100
AcDbLine
 10
130.0649670201
 20
202.425926548
 30
0.0
 11
120.2378134098
 21
191.0073529748
 31
0.0
  0
ARC
  5
7A
100
AcDbEntity
  8
0
370
        15
  6
Continuous
 62
         7
100
AcDbCircle
 10
130.7172802295
 20
203.1838760693
 30
0.0
 40
1.0
100
AcDbArc
 50
229.2837641521
 51
45.0
  0
LINE
  5
7B
100
AcDbEntity
  8
0
370
        15
  6
Continuous
 62
         7
100
AcDbLine
 10
131.0708336201
 20
204.2445362411
 30
0.0
 11
131.4243870107
 21
203.8909828505
 31
0.0
  0
LINE
  5
7C
100
AcDbEntity
  8
0
370
        15
  6
Continuous
 62
         7
100
AcDbLine
 10
133.1921539637
 20
206.3658565847
 30
0.0
 11
131.0708336201
 21
204.2445362411
 31
0.0
  0
LINE
  5
7D
100
AcDbEntity
  8
0
370
        15
  6
Continuous
 62
         7
100
AcDbLine
 10
133.5457073542
 20
206.0123031941
 30
0.0
 11
133.1921539637
 21
206.3658565847
 31
0.0
  0
ARC
  5
7E
100
AcDbEntity
  8
0
370
        15
  6
Continuous
 62
         7
100
AcDbCircle
 10
134.2528141354
 20
206.7194099753
 30
0.0
 40
1.0
100
AcDbArc
 50
225.0
 51
45.0
  0
LINE
  5
7F
100
AcDbEntity
  8
0
370
        15
  6
Continuous
 62
         7
100
AcDbLine
 10
134.2528141354
 20
208.1336235376
 30
0.0
 11
134.9599209166
 21
207.4265167564
 31
0.0
  0
LINE
  5
80
100
AcDbEntity
  8
0
370
        15
  6
Continuous
 62
         7
100
AcDbLine
 10
135.9498704103
 20
209.8306798125
 30
0.0
 11
134.2528141354
 21
208.1336235376
 31
0.0
  0
ARC
  5
81
100
AcDbEntity
  8
0
370
        15
  6
Continuous
 62
         7
100
AcDbCircle
 10
134.8184995604
 20
210.9620506624
 30
0.0
 40
1.6
100
AcDbArc
 50
315.0
 51
45.0
  0
LINE
  5
82
100
AcDbEntity
  8
0
370
        15
  6
Continuous
 62
         7
100
AcDbLine
 10
135.3841849853
 20
212.6591069372
 30
0.0
 11
135.9498704103
 21
212.0934215123
 31
0.0
  0
ARC
  5
83
100
AcDbEntity
  8
0
370
        15
  6
Continuous
 62
         7
100
AcDbCircle
 10
134.2528141354
 20
211.5277360873
 30
0.0
 40
1.6
100
AcDbArc
 50
45.0
 51
135.0
  0
LINE
  5
84
100
AcDbEntity
  8
0
370
        15
  6
Continuous
 62
         7
100
AcDbLine
 10
131.4243870107
 20
210.9620506624
 30
0.0
 11
133.1214432855
 21
212.6591069372
 31
0.0
  0
LINE
  5
85
100
AcDbEntity
  8
0
370
        15
  6
Continuous
 62
         7
100
AcDbLine
 10
130.7172802295
 20
211.6691574436
 30
0.0
 11
131.4243870107
 21
210.9620506624
 31
0.0
  0
ARC
  5
86
100
AcDbEntity
  8
0
370
        15
  6
Continuous
 62
         7
100
AcDbCircle
 10
130.0101734483
 20
210.9620506624
 30
0.0
 40
1.0
100
AcDbArc
 50
45.0
 51
225.0
  0
LINE
  5
87
100
AcDbEntity
  8
0
370
        15
  6
Continuous
 62
         7
100
AcDbLine
 10
129.6566200577
 20
209.9013904906
 30
0.0
 11
129.3030666671
 21
210.2549438812
 31
0.0
  0
LINE
  5
88
100
AcDbEntity
  8
0
370
        15
  6
Continuous
 62
         7
100
AcDbLine
 10
127.5352997142
 20
207.780070147
 30
0.0
 11
129.6566200577
 21
209.9013904906
 31
0.0
  0
LINE
  5
89
100
AcDbEntity
  8
0
370
        15
  6
Continuous
 62
         7
100
AcDbLine
 10
127.1817463236
 20
208.1336235376
 30
0.0
 11
127.5352997142
 21
207.780070147
 31
0.0
  0
ARC
  5
8A
100
AcDbEntity
  8
0
370
        15
  6
Continuous
 62
         7
100
AcDbCircle
 10
126.4746395424
 20
207.4265167564
 30
0.0
 40
1.0
100
AcDbArc
 50
45.0
 51
220.7162358479
  0
LINE
  5
8B
100
AcDbEntity
  8
0
370
        15
  6
Continuous
 62
         7
100
AcDbLine
 10
114.2981164478
 20
196.9470499367
 30
0.0
 11
125.7166900211
 21
206.774203547
 31
0.0
  0
ARC
  5
8C
100
AcDbEntity
  8
0
370
        15
  6
Continuous
 62
         7
100
AcDbCircle
 10
113.746717481
 20
196.1128082575
 30
0.0
 40
1.0
100
AcDbArc
 50
56.5369590328
 51
225.0
  0
LINE
  5
8D
100
AcDbEntity
  8
0
370
        15
  6
Continuous
 62
         7
100
AcDbLine
 10
114.4538242622
 20
193.9914879139
 30
0.0
 11
113.0396106998
 21
195.4057014763
 31
0.0
  0
LINE
  5
8E
100
AcDbEntity
  8
0
370
        15
  6
Continuous
 62
         7
100
AcDbLine
 10
114.4538242622
 20
193.9914879139
 30
0.0
 11
111.5306934405
 21
191.0683570922
 31
0.0
  0
ARC
  5
8F
100
AcDbEntity
  8
0
370
        15
  6
Continuous
 62
         7
100
AcDbCircle
 10
102.433008982
 20
179.142245509
 30
0.0
 40
15.0
100
AcDbArc
 50
52.6622556608
 51
82.3377443392
  0
ARC
  5
90
100
AcDbEntity
  8
0
370
        15
  6
Continuous
 62
         7
100
AcDbCircle
 10
102.433008982
 20
205.892245509
 30
0.0
 40
8.5
100
AcDbArc
 50
283.6089606308
 51
345.359889027
  0
ARC
  5
91
100
AcDbEntity
  8
0
370
        15
  6
Continuous
 62
         7
100
AcDbCircle
 10
109.883008982
 20
203.9460954634
 30
0.0
 40
0.8
100
AcDbArc
 50
345.359889027
 51
118.1329425436
  0
ARC
  5
92
100
AcDbEntity
  8
0
370
        15
  6
Continuous
 62
         7
100
AcDbCircle
 10
102.433008982
 20
217.8794188286
 30
0.0
 40
15.0
100
AcDbArc
 50
275.7391704773
 51
298.1329425436
  0
LINE
  5
93
100
AcDbEntity
  8
0
370
        15
  6
Continuous
 62
         7
100
AcDbLine
 10
103.933008982
 20
213.142245509
 30
0.0
 11
103.933008982
 21
202.954607272
 31
0.0
  0
LINE
  5
94
100
AcDbEntity
  8
0
370
        15
  6
Continuous
 62
         7
100
AcDbLine
 10
105.433008982
 20
213.142245509
 30
0.0
 11
103.933008982
 21
213.142245509
 31
0.0
  0
ARC
  5
95
100
AcDbEntity
  8
0
370
        15
  6
Continuous
 62
         7
100
AcDbCircle
 10
105.433008982
 20
214.142245509
 30
0.0
 40
1.0
100
AcDbArc
 50
270.0
 51
90.0
  0
LINE
  5
96
100
AcDbEntity
  8
0
370
        15
  6
Continuous
 62
         7
100
AcDbLine
 10
103.933008982
 20
215.142245509
 30
0.0
 11
105.433008982
 21
215.142245509
 31
0.0
  0
LINE
  5
97
100
AcDbEntity
  8
0
370
        15
  6
Continuous
 62
         7
100
AcDbLine
 10
103.933008982
 20
216.4651945259
 30
0.0
 11
103.933008982
 21
215.142245509
 31
0.0
  0
ARC
  5
98
100
AcDbEntity
  8
0
370
        15
  6
Continuous
 62
         7
100
AcDbCircle
 10
102.433008982
 20
218.142245509
 30
0.0
 40
2.25
100
AcDbArc
 50
311.8103148958
 51
228.1896851042
  0
LINE
  5
99
100
AcDbEntity
  8
0
370
        15
  6
Continuous
 62
         7
100
AcDbLine
 10
100.933008982
 20
215.142245509
 30
0.0
 11
100.933008982
 21
216.4651945259
 31
0.0
  0
LINE
  5
9A
100
AcDbEntity
  8
0
370
        15
  6
Continuous
 62
         7
100
AcDbLine
 10
99.433008982
 20
215.142245509
 30
0.0
 11
100.933008982
 21
215.142245509
 31
0.0
  0
ARC
  5
9B
100
AcDbEntity
  8
0
370
        15
  6
Continuous
 62
         7
100
AcDbCircle
 10
99.433008982
 20
214.142245509
 30
0.0
 40
1.0
100
AcDbArc
 50
90.0
 51
270.0
  0
LINE
  5
9C
100
AcDbEntity
  8
0
370
        15
  6
Continuous
 62
         7
100
AcDbLine
 10
100.933008982
 20
213.142245509
 30
0.0
 11
99.433008982
 21
213.142245509
 31
0.0
  0
LINE
  5
9D
100
AcDbEntity
  8
0
370
        15
  6
Continuous
 62
         7
100
AcDbLine
 10
100.933008982
 20
202.954607272
 30
0.0
 11
100.933008982
 21
213.142245509
 31
0.0
  0
ARC
  5
9E
100
AcDbEntity
  8
0
370
        15
  6
Continuous
 62
         7
100
AcDbCircle
 10
102.433008982
 20
217.8794188286
 30
0.0
 40
15.0
100
AcDbArc
 50
241.8670574564
 51
264.2608295227
  0
ARC
  5
9F
100
AcDbEntity
  8
0
370
        15
  6
Continuous
 62
         7
100
AcDbCircle
 10
94.983008982
 20
203.9460954634
 30
0.0
 40
0.8
100
AcDbArc
 50
61.8670574564
 51
194.640110973
  0
ARC
  5
A0
100
AcDbEntity
  8
0
370
        15
  6
Continuous
 62
         7
100
AcDbCircle
 10
102.433008982
 20
205.892245509
 30
0.0
 40
8.5
100
AcDbArc
 50
194.640110973
 51
256.3910393692
  0
ARC
  5
A1
100
AcDbEntity
  8
0
370
        15
  6
Continuous
 62
         7
100
AcDbCircle
 10
102.433008982
 20
179.142245509
 30
0.0
 40
15.0
100
AcDbArc
 50
97.6622556608
 51
127.3377443392
  0
LINE
  5
A2
100
AcDbEntity
  8
0
370
        15
  6
Continuous
 62
         7
100
AcDbLine
 10
93.3353245236
 20
191.0683570922
 30
0.0
 11
90.7737768704
 21
193.6299047453
 31
0.0
  0
ARC
  5
A3
100
AcDbEntity
  8
0
370
        15
  6
Continuous
 62
         7
100
AcDbCircle
 10
83.5179025853
 20
198.0573519057
 30
0.0
 40
8.5
100
AcDbArc
 50
328.6089606308
 51
30.359889027
  0
ARC
  5
A4
100
AcDbEntity
  8
0
370
        15
  6
Continuous
 62
         7
100
AcDbCircle
 10
90.1619839996
 20
201.9491615311
 30
0.0
 40
0.8
100
AcDbArc
 50
30.359889027
 51
163.1329425436
  0
ARC
  5
A5
100
AcDbEntity
  8
0
370
        15
  6
Continuous
 62
         7
100
AcDbCircle
 10
75.0416910437
 20
206.5335634473
 30
0.0
 40
15.0
100
AcDbArc
 50
320.7391704773
 51
343.1329425436
  0
LINE
  5
A6
100
AcDbEntity
  8
0
370
        15
  6
Continuous
 62
         7
100
AcDbLine
 10
79.4520385935
 20
204.2445362411
 30
0.0
 11
86.6557866751
 21
197.0407881595
 31
0.0
  0
LINE
  5
A7
100
AcDbEntity
  8
0
370
        15
  6
Continuous
 62
         7
100
AcDbLine
 10
80.5126987653
 20
205.3051964129
 30
0.0
 11
79.4520385935
 21
204.2445362411
 31
0.0
  0
ARC
  5
A8
100
AcDbEntity
  8
0
370
        15
  6
Continuous
 62
         7
100
AcDbCircle
 10
79.8055919841
 20
206.0123031941
 30
0.0
 40
1.0
100
AcDbArc
 50
315.0
 51
135.0
  0
LINE
  5
A9
100
AcDbEntity
  8
0
370
        15
  6
Continuous
 62
         7
100
AcDbLine
 10
78.0378250311
 20
205.6587498035
 30
0.0
 11
79.0984852029
 21
206.7194099753
 31
0.0
  0
LINE
  5
AA
100
AcDbEntity
  8
0
370
        15
  6
Continuous
 62
         7
100
AcDbLine
 10
77.1023588101
 20
206.5942160245
 30
0.0
 11
78.0378250311
 21
205.6587498035
 31
0.0
  0
ARC
  5
AB
100
AcDbEntity
  8
0
370
        15
  6
Continuous
 62
         7
100
AcDbCircle
 10
74.8558445158
 20
206.7194099753
 30
0.0
 40
2.25
100
AcDbArc
 50
356.8103148958
 51
273.1896851042
  0
LINE
  5
AC
100
AcDbEntity
  8
0
370
        15
  6
Continuous
 62
         7
100
AcDbLine
 10
75.9165046875
 20
203.5374294599
 30
0.0
 11
74.9810384665
 21
204.4728956809
 31
0.0
  0
LINE
  5
AD
100
AcDbEntity
  8
0
370
        15
  6
Continuous
 62
         7
100
AcDbLine
 10
74.8558445158
 20
202.4767692881
 30
0.0
 11
75.9165046875
 21
203.5374294599
 31
0.0
  0
ARC
  5
AE
100
AcDbEntity
  8
0
370
        15
  6
Continuous
 62
         7
100
AcDbCircle
 10
75.5629512969
 20
201.769662507
 30
0.0
 40
1.0
100
AcDbArc
 50
135.0
 51
315.0
  0
LINE
  5
AF
100
AcDbEntity
  8
0
370
        15
  6
Continuous
 62
         7
100
AcDbLine
 10
77.3307182499
 20
202.1232158975
 30
0.0
 11
76.2700580781
 21
201.0625557258
 31
0.0
  0
LINE
  5
B0
100
AcDbEntity
  8
0
370
        15
  6
Continuous
 62
         7
100
AcDbLine
 10
84.5344663316
 20
194.9194678159
 30
0.0
 11
77.3307182499
 21
202.1232158975
 31
0.0
  0
ARC
  5
B1
100
AcDbEntity
  8
0
370
        15
  6
Continuous
 62
         7
100
AcDbCircle
 10
75.0416910437
 20
206.5335634473
 30
0.0
 40
15.0
100
AcDbArc
 50
286.8670574564
 51
309.2608295227
  0
ARC
  5
B2
100
AcDbEntity
  8
0
370
        15
  6
Continuous
 62
         7
100
AcDbCircle
 10
79.6260929599
 20
191.4132704914
 30
0.0
 40
0.8
100
AcDbArc
 50
106.8670574564
 51
239.640110973
  0
ARC
  5
B3
100
AcDbEntity
  8
0
370
        15
  6
Continuous
 62
         7
100
AcDbCircle
 10
83.5179025853
 20
198.0573519057
 30
0.0
 40
8.5
100
AcDbArc
 50
239.640110973
 51
301.3910393692
  0
LINE
  5
B4
100
AcDbEntity
  8
0
370
        15
  6
Continuous
 62
         7
100
AcDbLine
 10
87.9453497457
 20
190.8014776206
 30
0.0
 11
90.5068973988
 21
188.2399299674
 31
0.0
  0
ARC
  5
B5
100
AcDbEntity
  8
0
370
        15
  6
Continuous
 62
         7
100
AcDbCircle
 10
102.433008982
 20
179.142245509
 30
0.0
 40
15.0
100
AcDbArc
 50
142.6622556608
 51
172.3377443392
  0
LINE
  5
B6
100
AcDbEntity
  8
0
370
        15
  6
Continuous
 62
         7
100
AcDbLine
 10
87.5669402347
 20
181.142245509
 30
0.0
 11
83.0031578124
 21
181.142245509
 31
0.0
  0
POLYLINE
  5
B7
100
AcDbEntity
  8
0
370
        15
  6
Continuous
 62
         7
100
AcDb2dPolyline
 66
         1
 10
0.0
 20
0.0
 30
0.0
 70
       128
  0
VERTEX
  5
B8
100
AcDbEntity
  8
0
100
AcDbVertex
100
AcDb2dVertex
 10
67.1765978032
 20
182.7214379359
 30
0.0
  0
VERTEX
  5
B9
100
AcDbEntity
  8
0
100
AcDbVertex
100
AcDb2dVertex
 10
67.8836624834
 20
183.4049173483
 30
0.0
  0
VERTEX
  5
BA
100
AcDbEntity
  8
0
100
AcDbVertex
100
AcDb2dVertex
 10
68.7072823537
 20
184.0141202107
 30
0.0
  0
VERTEX
  5
BB
100
AcDbEntity
  8
0
100
AcDbVertex
100
AcDb2dVertex
 10
69.6331059355
 20
184.5384312355
 30
0.0
  0
VERTEX
  5
BC
100
AcDbEntity
  8
0
100
AcDbVertex
100
AcDb2dVertex
 10
70.6450008632
 20
184.9687143655
 30
0.0
  0
VERTEX
  5
BD
100
AcDbEntity
  8
0
100
AcDbVertex
100
AcDb2dVertex
 10
71.7253349878
 20
185.2974719684
 30
0.0
  0
VERTEX
  5
BE
100
AcDbEntity
  8
0
100
AcDbVertex
100
AcDb2dVertex
 10
72.8552836156
 20
185.5189754819
 30
0.0
  0
VERTEX
  5
BF
100
AcDbEntity
  8
0
100
AcDbVertex
100
AcDb2dVertex
 10
74.0151575263
 20
185.6293652337
 30
0.0
  0
VERTEX
  5
C0
100
AcDbEntity
  8
0
100
AcDbVertex
100
AcDb2dVertex
 10
75.1847460547
 20
185.6267176955
 30
0.0
  0
VERTEX
  5
C1
100
AcDbEntity
  8
0
100
AcDbVertex
100
AcDb2dVertex
 10
76.3436692598
 20
185.5110790003
 30
0.0
  0
VERTEX
  5
C2
100
AcDbEntity
  8
0
100
AcDbVertex
100
AcDb2dVertex
 10
77.4717330425
 20
185.2844641387
 30
0.0
  0
VERTEX
  5
C3
100
AcDbEntity
  8
0
100
AcDbVertex
100
AcDb2dVertex
 10
78.5492810254
 20
184.9508218476
 30
0.0
  0
VERTEX
  5
C4
100
AcDbEntity
  8
0
100
AcDbVertex
100
AcDb2dVertex
 10
79.5575370632
 20
184.5159658043
 30
0.0
  0
VERTEX
  5
C5
100
AcDbEntity
  8
0
100
AcDbVertex
100
AcDb2dVertex
 10
80.4789324142
 20
183.9874733237
 30
0.0
  0
VERTEX
  5
C6
100
AcDbEntity
  8
0
100
AcDbVertex
100
AcDb2dVertex
 10
81.2974118739
 20
183.3745533244
 30
0.0
  0
VERTEX
  5
C7
100
AcDbEntity
  8
0
100
AcDbVertex
100
AcDb2dVertex
 10
81.9987135351
 20
182.6878858646
 30
0.0
  0
VERTEX
  5
C8
100
AcDbEntity
  8
0
100
AcDbVertex
100
AcDb2dVertex
 10
82.5706172996
 20
181.939436043
 30
0.0
  0
VERTEX
  5
C9
100
AcDbEntity
  8
0
100
AcDbVertex
100
AcDb2dVertex
 10
83.0031578124
 20
181.142245509
 30
0.0
  0
SEQEND
  5
CA
100
AcDbEntity
  8
0
  0
ARC
  5
CB
100
AcDbEntity
  8
0
370
        15
  6
Continuous
 62
         7
100
AcDbCircle
 10
66.4330089821
 20
183.3900750164
 30
0.0
 40
0.9999999402
100
AcDbArc
 50
218.9463309255
 51
318.0380359367
  0
ARC
  5
CC
100
AcDbEntity
  8
0
370
        15
  6
Continuous
 62
         7
100
AcDbCircle
 10
57.8779206586
 20
176.4755595046
 30
0.0
 40
10.0000028319
100
AcDbArc
 50
38.9463309254
 51
63.6159402483
  0
ARC
  5
CD
100
AcDbEntity
  8
0
370
        15
  6
Continuous
 62
         7
100
AcDbCircle
 10
61.4330094421
 20
183.642245049
 30
0.0
 40
2.00000046
100
AcDbArc
 50
63.6159402483
 51
220.0051928092
  0
ARC
  5
CE
100
AcDbEntity
  8
0
370
        15
  6
Continuous
 62
         7
100
AcDbCircle
 10
56.071105808
 20
179.142245509
 30
0.0
 40
5.0
100
AcDbArc
 50
319.9948071908
 51
40.0051928092
  0
ARC
  5
CF
100
AcDbEntity
  8
0
370
        15
  6
Continuous
 62
         7
100
AcDbCircle
 10
61.4330094421
 20
174.642245969
 30
0.0
 40
2.00000046
100
AcDbArc
 50
139.9948071908
 51
296.3840597516
  0
ARC
  5
D0
100
AcDbEntity
  8
0
370
        15
  6
Continuous
 62
         7
100
AcDbCircle
 10
57.8779206586
 20
181.8089315133
 30
0.0
 40
10.0000028319
100
AcDbArc
 50
296.3840597517
 51
321.0536690745
  0
ARC
  5
D1
100
AcDbEntity
  8
0
370
        15
  6
Continuous
 62
         7
100
AcDbCircle
 10
66.433008982
 20
174.8944160015
 30
0.0
 40
0.9999999402
100
AcDbArc
 50
41.9619640632
 51
141.0536690712
  0
POLYLINE
  5
D2
100
AcDbEntity
  8
0
370
        15
  6
Continuous
 62
         7
100
AcDb2dPolyline
 66
         1
 10
0.0
 20
0.0
 30
0.0
 70
       128
  0
VERTEX
  5
D3
100
AcDbEntity
  8
0
100
AcDbVertex
100
AcDb2dVertex
 10
83.0031578124
 20
177.142245509
 30
0.0
  0
VERTEX
  5
D4
100
AcDbEntity
  8
0
100
AcDbVertex
100
AcDb2dVertex
 10
82.5706172996
 20
176.3450549749
 30
0.0
  0
VERTEX
  5
D5
100
AcDbEntity
  8
0
100
AcDbVertex
100
AcDb2dVertex
 10
81.9987135351
 20
175.5966051534
 30
0.0
  0
VERTEX
  5
D6
100
AcDbEntity
  8
0
100
AcDbVertex
100
AcDb2dVertex
 10
81.2974118739
 20
174.9099376936
 30
0.0
  0
VERTEX
  5
D7
100
AcDbEntity
  8
0
100
AcDbVertex
100
AcDb2dVertex
 10
80.4789324142
 20
174.2970176943
 30
0.0
  0
VERTEX
  5
D8
100
AcDbEntity
  8
0
100
AcDbVertex
100
AcDb2dVertex
 10
79.5575370632
 20
173.7685252137
 30
0.0
  0
VERTEX
  5
D9
100
AcDbEntity
  8
0
100
AcDbVertex
100
AcDb2dVertex
 10
78.5492810254
 20
173.3336691704
 30
0.0
  0
VERTEX
  5
DA
100
AcDbEntity
  8
0
100
AcDbVertex
100
AcDb2dVertex
 10
77.4717330424
 20
173.0000268793
 30
0.0
  0
VERTEX
  5
DB
100
AcDbEntity
  8
0
100
AcDbVertex
100
AcDb2dVertex
 10
76.3436692598
 20
172.7734120176
 30
0.0
  0
VERTEX
  5
DC
100
AcDbEntity
  8
0
100
AcDbVertex
100
AcDb2dVertex
 10
75.1847460547
 20
172.6577733224
 30
0.0
  0
VERTEX
  5
DD
100
AcDbEntity
  8
0
100
AcDbVertex
100
AcDb2dVertex
 10
74.0151575263
 20
172.6551257842
 30
0.0
  0
VERTEX
  5
DE
100
AcDbEntity
  8
0
100
AcDbVertex
100
AcDb2dVertex
 10
72.8552836156
 20
172.765515536
 30
0.0
  0
VERTEX
  5
DF
100
AcDbEntity
  8
0
100
AcDbVertex
100
AcDb2dVertex
 10
71.7253349877
 20
172.9870190496
 30
0.0
  0
VERTEX
  5
E0
100
AcDbEntity
  8
0
100
AcDbVertex
100
AcDb2dVertex
 10
70.6450008631
 20
173.3157766524
 30
0.0
  0
VERTEX
  5
E1
100
AcDbEntity
  8
0
100
AcDbVertex
100
AcDb2dVertex
 10
69.6331059355
 20
173.7460597825
 30
0.0
  0
VERTEX
  5
E2
100
AcDbEntity
  8
0
100
AcDbVertex
100
AcDb2dVertex
 10
68.7072823536
 20
174.2703708073
 30
0.0
  0
VERTEX
  5
E3
100
AcDbEntity
  8
0
100
AcDbVertex
100
AcDb2dVertex
 10
67.8836624834
 20
174.8795736697
 30
0.0
  0
VERTEX
  5
E4
100
AcDbEntity
  8
0
100
AcDbVertex
100
AcDb2dVertex
 10
67.1765978032
 20
175.5630530821
 30
0.0
  0
SEQEND
  5
E5
100
AcDbEntity
  8
0
  0
LINE
  5
E6
100
AcDbEntity
  8
0
370
        15
  6
Continuous
 62
         7
100
AcDbLine
 10
83.0031578124
 20
177.142245509
 30
0.0
 11
87.5669402347
 21
177.142245509
 31
0.0
  0
ARC
  5
E7
100
AcDbEntity
  8
0
370
        15
  6
Continuous
 62
         7
100
AcDbCircle
 10
102.433008982
 20
179.142245509
 30
0.0
 40
15.0
100
AcDbArc
 50
187.6622556608
 51
217.3377443392
  0
LINE
  5
E8
100
AcDbEntity
  8
0
370
        15
  6
Continuous
 62
         7
100
AcDbLine
 10
90.5068973988
 20
170.0445610505
 30
0.0
 11
87.5837665771
 21
167.1214302288
 31
0.0
  0
LINE
  5
E9
100
AcDbEntity
  8
0
370
        15
  6
Continuous
 62
         7
100
AcDbLine
 10
84.7553394524
 20
169.9498573536
 30
0.0
 11
87.5837665771
 21
167.1214302288
 31
0.0
  0
LINE
  5
EA
100
AcDbEntity
  8
0
370
        15
  6
Continuous
 62
         7
100
AcDbLine
 10
84.735274141
 20
169.9297920422
 30
0.0
 11
84.7553394524
 21
169.9498573536
 31
0.0
  0
ARC
  5
EB
100
AcDbEntity
  8
0
370
        15
  6
Continuous
 62
         7
100
AcDbCircle
 10
83.8361006368
 20
168.6063544693
 30
0.0
 40
1.6
100
AcDbArc
 50
55.8069228749
 51
90.0
  0
LINE
  5
EC
100
AcDbEntity
  8
0
370
        15
  6
Continuous
 62
         7
100
AcDbLine
 10
82.7047297869
 20
170.2063544693
 30
0.0
 11
83.8361006368
 21
170.2063544693
 31
0.0
  0
ARC
  5
ED
100
AcDbEntity
  8
0
370
        15
  6
Continuous
 62
         7
100
AcDbCircle
 10
82.7047297869
 20
168.6063544693
 30
0.0
 40
1.6
100
AcDbArc
 50
90.0
 51
225.0
  0
LINE
  5
EE
100
AcDbEntity
  8
0
370
        15
  6
Continuous
 62
         7
100
AcDbLine
 10
84.7553394524
 20
164.2930031041
 30
0.0
 11
81.573358937
 21
167.4749836194
 31
0.0
  0
LINE
  5
EF
100
AcDbEntity
  8
0
370
        15
  6
Continuous
 62
         7
100
AcDbLine
 10
82.6340191088
 20
162.1716827605
 30
0.0
 11
84.7553394524
 21
164.2930031041
 31
0.0
  0
LINE
  5
F0
100
AcDbEntity
  8
0
370
        15
  6
Continuous
 62
         7
100
AcDbLine
 10
79.8055919841
 20
165.0001098853
 30
0.0
 11
82.6340191088
 21
162.1716827605
 31
0.0
  0
ARC
  5
F1
100
AcDbEntity
  8
0
370
        15
  6
Continuous
 62
         7
100
AcDbCircle
 10
78.6742211342
 20
163.8687390354
 30
0.0
 40
1.6
100
AcDbArc
 50
45.0
 51
162.7585406011
  0
LINE
  5
F2
100
AcDbEntity
  8
0
370
        15
  6
Continuous
 62
         7
100
AcDbLine
 10
73.3277418969
 20
152.0393197865
 30
0.0
 11
77.1461185153
 21
164.3429777791
 31
0.0
  0
ARC
  5
F3
100
AcDbEntity
  8
0
370
        15
  6
Continuous
 62
         7
100
AcDbCircle
 10
74.8558445158
 20
151.5650810427
 30
0.0
 40
1.6
100
AcDbArc
 50
162.7585406011
 51
248.6309644341
  0
ARC
  5
F4
100
AcDbEntity
  8
0
370
        15
  6
Continuous
 62
         7
100
AcDbCircle
 10
79.738450211
 20
164.0438695105
 30
0.0
 40
15.0
100
AcDbArc
 50
248.6309644341
 51
311.2501816321
  0
ARC
  5
F5
100
AcDbEntity
  8
0
370
        15
  6
Continuous
 62
         7
100
AcDbCircle
 10
88.5737160708
 20
153.9692440987
 30
0.0
 40
1.6
100
AcDbArc
 50
311.2501816321
 51
45.0
  0
LINE
  5
F6
100
AcDbEntity
  8
0
370
        15
  6
Continuous
 62
         7
100
AcDbLine
 10
85.4624462336
 20
159.3432556358
 30
0.0
 11
89.7050869207
 21
155.1006149486
 31
0.0
  0
LINE
  5
F7
100
AcDbEntity
  8
0
370
        15
  6
Continuous
 62
         7
100
AcDbLine
 10
87.5837665771
 20
161.4645759793
 30
0.0
 11
85.4624462336
 21
159.3432556358
 31
0.0
  0
LINE
  5
F8
100
AcDbEntity
  8
0
370
        15
  6
Continuous
 62
         7
100
AcDbLine
 10
90.7657470925
 20
158.282595464
 30
0.0
 11
87.5837665771
 21
161.4645759793
 31
0.0
  0
ARC
  5
F9
100
AcDbEntity
  8
0
370
        15
  6
Continuous
 62
         7
100
AcDbCircle
 10
91.8971179424
 20
159.4139663139
 30
0.0
 40
1.6
100
AcDbArc
 50
225.0
 51
360.0
  0
LINE
  5
FA
100
AcDbEntity
  8
0
370
        15
  6
Continuous
 62
         7
100
AcDbLine
 10
93.4971179424
 20
160.5453371638
 30
0.0
 11
93.4971179424
 21
159.4139663139
 31
0.0
  0
ARC
  5
FB
100
AcDbEntity
  8
0
370
        15
  6
Continuous
 62
         7
100
AcDbCircle
 10
91.8971179424
 20
160.5453371638
 30
0.0
 40
1.6
100
AcDbArc
 50
360.0
 51
34.1930771251
  0
LINE
  5
FC
100
AcDbEntity
  8
0
370
        15
  6
Continuous
 62
         7
100
AcDbLine
 10
93.2406208266
 20
161.4645759793
 30
0.0
 11
93.2205555153
 21
161.444510668
 31
0.0
  0
LINE
  5
FD
100
AcDbEntity
  8
0
370
        15
  6
Continuous
 62
         7
100
AcDbLine
 10
90.4121937019
 20
164.2930031041
 30
0.0
 11
93.2406208266
 21
161.4645759793
 31
0.0
  0
LINE
  5
FE
100
AcDbEntity
  8
0
370
        15
  6
Continuous
 62
         7
100
AcDbLine
 10
90.4121937019
 20
164.2930031041
 30
0.0
 11
93.3353245236
 21
167.2161339258
 31
0.0
  0
ARC
  5
FF
100
AcDbEntity
  8
0
370
        15
  6
Continuous
 62
         7
100
AcDbCircle
 10
102.433008982
 20
179.142245509
 30
0.0
 40
15.0
100
AcDbArc
 50
232.6622556608
 51
262.3377443392
  0
POLYLINE
  5
100
100
AcDbEntity
  8
0
370
        15
  6
Continuous
 62
         7
100
AcDb2dPolyline
 66
         1
 10
0.0
 20
0.0
 30
0.0
 70
       128
  0
VERTEX
  5
101
100
AcDbEntity
  8
0
100
AcDbVertex
100
AcDb2dVertex
 10
98.8538165551
 20
143.8858343301
 30
0.0
  0
VERTEX
  5
102
100
AcDbEntity
  8
0
100
AcDbVertex
100
AcDb2dVertex
 10
98.1703371427
 20
144.5928990104
 30
0.0
  0
VERTEX
  5
103
100
AcDbEntity
  8
0
100
AcDbVertex
100
AcDb2dVertex
 10
97.5611342804
 20
145.4165188806
 30
0.0
  0
VERTEX
  5
104
100
AcDbEntity
  8
0
100
AcDbVertex
100
AcDb2dVertex
 10
97.0368232555
 20
146.3423424625
 30
0.0
  0
VERTEX
  5
105
100
AcDbEntity
  8
0
100
AcDbVertex
100
AcDb2dVertex
 10
96.6065401255
 20
147.3542373901
 30
0.0
  0
VERTEX
  5
106
100
AcDbEntity
  8
0
100
AcDbVertex
100
AcDb2dVertex
 10
96.2777825226
 20
148.4345715147
 30
0.0
  0
VERTEX
  5
107
100
AcDbEntity
  8
0
100
AcDbVertex
100
AcDb2dVertex
 10
96.0562790091
 20
149.5645201426
 30
0.0
  0
VERTEX
  5
108
100
AcDbEntity
  8
0
100
AcDbVertex
100
AcDb2dVertex
 10
95.9458892573
 20
150.7243940532
 30
0.0
  0
VERTEX
  5
109
100
AcDbEntity
  8
0
100
AcDbVertex
100
AcDb2dVertex
 10
95.9485367955
 20
151.8939825816
 30
0.0
  0
VERTEX
  5
10A
100
AcDbEntity
  8
0
100
AcDbVertex
100
AcDb2dVertex
 10
96.0641754907
 20
153.0529057867
 30
0.0
  0
VERTEX
  5
10B
100
AcDbEntity
  8
0
100
AcDbVertex
100
AcDb2dVertex
 10
96.2907903523
 20
154.1809695694
 30
0.0
  0
VERTEX
  5
10C
100
AcDbEntity
  8
0
100
AcDbVertex
100
AcDb2dVertex
 10
96.6244326434
 20
155.2585175524
 30
0.0
  0
VERTEX
  5
10D
100
AcDbEntity
  8
0
100
AcDbVertex
100
AcDb2dVertex
 10
97.0592886867
 20
156.2667735902
 30
0.0
  0
VERTEX
  5
10E
100
AcDbEntity
  8
0
100
AcDbVertex
100
AcDb2dVertex
 10
97.5877811673
 20
157.1881689411
 30
0.0
  0
VERTEX
  5
10F
100
AcDbEntity
  8
0
100
AcDbVertex
100
AcDb2dVertex
 10
98.2007011666
 20
158.0066484008
 30
0.0
  0
VERTEX
  5
110
100
AcDbEntity
  8
0
100
AcDbVertex
100
AcDb2dVertex
 10
98.8873686265
 20
158.707950062
 30
0.0
  0
VERTEX
  5
111
100
AcDbEntity
  8
0
100
AcDbVertex
100
AcDb2dVertex
 10
99.635818448
 20
159.2798538265
 30
0.0
  0
VERTEX
  5
112
100
AcDbEntity
  8
0
100
AcDbVertex
100
AcDb2dVertex
 10
100.433008982
 20
159.7123943393
 30
0.0
  0
SEQEND
  5
113
100
AcDbEntity
  8
0
  0
ARC
  5
114
100
AcDbEntity
  8
0
370
        15
  6
Continuous
 62
         7
100
AcDbCircle
 10
98.1851794746
 20
143.142245509
 30
0.0
 40
0.9999999402
100
AcDbArc
 50
308.9463309253
 51
48.0380359367
  0
ARC
  5
115
100
AcDbEntity
  8
0
370
        15
  6
Continuous
 62
         7
100
AcDbCircle
 10
105.0996949864
 20
134.5871571856
 30
0.0
 40
10.0000028319
100
AcDbArc
 50
128.9463309254
 51
153.6159402483
  0
ARC
  5
116
100
AcDbEntity
  8
0
370
        15
  6
Continuous
 62
         7
100
AcDbCircle
 10
97.9330094421
 20
138.142245969
 30
0.0
 40
2.00000046
100
AcDbArc
 50
153.6159402483
 51
310.0051928092
  0
ARC
  5
117
100
AcDbEntity
  8
0
370
        15
  6
Continuous
 62
         7
100
AcDbCircle
 10
102.433008982
 20
132.780342335
 30
0.0
 40
5.0
100
AcDbArc
 50
49.9948071908
 51
130.0051928092
  0
ARC
  5
118
100
AcDbEntity
  8
0
370
        15
  6
Continuous
 62
         7
100
AcDbCircle
 10
106.933008522
 20
138.142245969
 30
0.0
 40
2.00000046
100
AcDbArc
 50
229.9948071908
 51
26.3840597518
  0
ARC
  5
119
100
AcDbEntity
  8
0
370
        15
  6
Continuous
 62
         7
100
AcDbCircle
 10
99.7663229777
 20
134.5871571856
 30
0.0
 40
10.0000028319
100
AcDbArc
 50
26.3840597517
 51
51.0536690745
  0
ARC
  5
11A
100
AcDbEntity
  8
0
370
        15
  6
Continuous
 62
         7
100
AcDbCircle
 10
106.6808384895
 20
143.142245509
 30
0.0
 40
0.9999999402
100
AcDbArc
 50
131.9619640632
 51
231.0536690767
  0
POLYLINE
  5
11B
100
AcDbEntity
  8
0
370
        15
  6
Continuous
 62
         7
100
AcDb2dPolyline
 66
         1
 10
0.0
 20
0.0
 30
0.0
 70
       128
  0
VERTEX
  5
11C
100
AcDbEntity
  8
0
100
AcDbVertex
100
AcDb2dVertex
 10
104.433008982
 20
159.7123943393
 30
0.0
  0
VERTEX
  5
11D
100
AcDbEntity
  8
0
100
AcDbVertex
100
AcDb2dVertex
 10
105.2301995161
 20
159.2798538265
 30
0.0
  0
VERTEX
  5
11E
100
AcDbEntity
  8
0
100
AcDbVertex
100
AcDb2dVertex
 10
105.9786493376
 20
158.707950062
 30
0.0
  0
VERTEX
  5
11F
100
AcDbEntity
  8
0
100
AcDbVertex
100
AcDb2dVertex
 10
106.6653167975
 20
158.0066484008
 30
0.0
  0
VERTEX
  5
120
100
AcDbEntity
  8
0
100
AcDbVertex
100
AcDb2dVertex
 10
107.2782367967
 20
157.1881689411
 30
0.0
  0
VERTEX
  5
121
100
AcDbEntity
  8
0
100
AcDbVertex
100
AcDb2dVertex
 10
107.8067292773
 20
156.2667735902
 30
0.0
  0
VERTEX
  5
122
100
AcDbEntity
  8
0
100
AcDbVertex
100
AcDb2dVertex
 10
108.2415853206
 20
155.2585175524
 30
0.0
  0
VERTEX
  5
123
100
AcDbEntity
  8
0
100
AcDbVertex
100
AcDb2dVertex
 10
108.5752276117
 20
154.1809695694
 30
0.0
  0
VERTEX
  5
124
100
AcDbEntity
  8
0
100
AcDbVertex
100
AcDb2dVertex
 10
108.8018424734
 20
153.0529057867
 30
0.0
  0
VERTEX
  5
125
100
AcDbEntity
  8
0
100
AcDbVertex
100
AcDb2dVertex
 10
108.9174811686
 20
151.8939825816
 30
0.0
  0
VERTEX
  5
126
100
AcDbEntity
  8
0
100
AcDbVertex
100
AcDb2dVertex
 10
108.9201287068
 20
150.7243940532
 30
0.0
  0
VERTEX
  5
127
100
AcDbEntity
  8
0
100
AcDbVertex
100
AcDb2dVertex
 10
108.809738955
 20
149.5645201426
 30
0.0
  0
VERTEX
  5
128
100
AcDbEntity
  8
0
100
AcDbVertex
100
AcDb2dVertex
 10
108.5882354414
 20
148.4345715147
 30
0.0
  0
VERTEX
  5
129
100
AcDbEntity
  8
0
100
AcDbVertex
100
AcDb2dVertex
 10
108.2594778386
 20
147.3542373901
 30
0.0
  0
VERTEX
  5
12A
100
AcDbEntity
  8
0
100
AcDbVertex
100
AcDb2dVertex
 10
107.8291947085
 20
146.3423424624
 30
0.0
  0
VERTEX
  5
12B
100
AcDbEntity
  8
0
100
AcDbVertex
100
AcDb2dVertex
 10
107.3048836837
 20
145.4165188806
 30
0.0
  0
VERTEX
  5
12C
100
AcDbEntity
  8
0
100
AcDbVertex
100
AcDb2dVertex
 10
106.6956808214
 20
144.5928990104
 30
0.0
  0
VERTEX
  5
12D
100
AcDbEntity
  8
0
100
AcDbVertex
100
AcDb2dVertex
 10
106.012201409
 20
143.8858343301
 30
0.0
  0
SEQEND
  5
12E
100
AcDbEntity
  8
0
  0
ARC
  5
12F
100
AcDbEntity
  8
0
370
        15
  6
Continuous
 62
         7
100
AcDbCircle
 10
102.433008982
 20
179.142245509
 30
0.0
 40
15.0
100
AcDbArc
 50
277.6622556608
 51
307.3377443392
  0
LINE
  5
130
100
AcDbEntity
  8
0
370
        15
  6
Continuous
 62
         7
100
AcDbLine
 10
113.0396106998
 20
162.8787895417
 30
0.0
 11
114.4538242622
 21
164.2930031041
 31
0.0
  0
ARC
  5
131
100
AcDbEntity
  8
0
370
        15
  6
Continuous
 62
         7
100
AcDbCircle
 10
113.746717481
 20
162.1716827605
 30
0.0
 40
1.0
100
AcDbArc
 50
135.0
 51
303.4630409672
  0
LINE
  5
132
100
AcDbEntity
  8
0
370
        15
  6
Continuous
 62
         7
100
AcDbLine
 10
125.7166900211
 20
151.5102874709
 30
0.0
 11
114.2981164478
 21
161.3374410812
 31
0.0
  0
ARC
  5
133
100
AcDbEntity
  8
0
370
        15
  6
Continuous
 62
         7
100
AcDbCircle
 10
126.4746395424
 20
150.8579742615
 30
0.0
 40
1.0
100
AcDbArc
 50
139.2837641521
 51
315.0
  0
LINE
  5
134
100
AcDbEntity
  8
0
370
        15
  6
Continuous
 62
         7
100
AcDbLine
 10
127.5352997142
 20
150.5044208709
 30
0.0
 11
127.1817463236
 21
150.1508674803
 31
0.0
  0
LINE
  5
135
100
AcDbEntity
  8
0
370
        15
  6
Continuous
 62
         7
100
AcDbLine
 10
129.6566200577
 20
148.3831005274
 30
0.0
 11
127.5352997142
 21
150.5044208709
 31
0.0
  0
LINE
  5
136
100
AcDbEntity
  8
0
370
        15
  6
Continuous
 62
         7
100
AcDbLine
 10
129.3030666671
 20
148.0295471368
 30
0.0
 11
129.6566200577
 21
148.3831005274
 31
0.0
  0
ARC
  5
137
100
AcDbEntity
  8
0
370
        15
  6
Continuous
 62
         7
100
AcDbCircle
 10
130.0101734483
 20
147.3224403556
 30
0.0
 40
1.0
100
AcDbArc
 50
135.0
 51
315.0
  0
ARC
  5
138
100
AcDbEntity
  8
0
370
        15
  6
Continuous
 62
         7
100
AcDbCircle
 10
134.2528141354
 20
151.5650810427
 30
0.0
 40
1.0
100
AcDbArc
 50
315.0
 51
135.0
  0
LINE
  5
139
100
AcDbEntity
  8
0
370
        15
  6
Continuous
 62
         7
100
AcDbLine
 10
133.1921539637
 20
151.9186344333
 30
0.0
 11
133.5457073542
 21
152.2721878239
 31
0.0
  0
LINE
  5
13A
100
AcDbEntity
  8
0
370
        15
  6
Continuous
 62
         7
100
AcDbLine
 10
131.0708336201
 20
154.0399547769
 30
0.0
 11
133.1921539637
 21
151.9186344333
 31
0.0
  0
LINE
  5
13B
100
AcDbEntity
  8
0
370
        15
  6
Continuous
 62
         7
100
AcDbLine
 10
131.4243870107
 20
154.3935081675
 30
0.0
 11
131.0708336201
 21
154.0399547769
 31
0.0
  0
ARC
  5
13C
100
AcDbEntity
  8
0
370
        15
  6
Continuous
 62
         7
100
AcDbCircle
 10
130.7172802295
 20
155.1006149486
 30
0.0
 40
1.0
100
AcDbArc
 50
315.0
 51
130.7162358479
  0
LINE
  5
13D
100
AcDbEntity
  8
0
370
        15
  6
Continuous
 62
         7
100
AcDbLine
 10
120.2378134098
 20
167.2771380432
 30
0.0
 11
130.0649670201
 21
155.8585644699
 31
0.0
  0
ARC
  5
13E
100
AcDbEntity
  8
0
370
        15
  6
Continuous
 62
         7
100
AcDbCircle
 10
119.4035717305
 20
167.82853701
 30
0.0
 40
1.0
100
AcDbArc
 50
326.5369590328
 51
135.0
  0
LINE
  5
13F
100
AcDbEntity
  8
0
370
        15
  6
Continuous
 62
         7
100
AcDbLine
 10
117.282251387
 20
167.1214302288
 30
0.0
 11
118.6964649493
 21
168.5356437912
 31
0.0
  0
LINE
  5
140
100
AcDbEntity
  8
0
370
        15
  6
Continuous
 62
         7
100
AcDbLine
 10
117.282251387
 20
167.1214302288
 30
0.0
 11
114.3591205652
 21
170.0445610505
 31
0.0
  0
ARC
  5
141
100
AcDbEntity
  8
0
370
        15
  6
Continuous
 62
         7
100
AcDbCircle
 10
102.433008982
 20
179.142245509
 30
0.0
 40
15.0
100
AcDbArc
 50
322.6622556608
 51
352.3377443392
  0
LINE
  5
142
100
AcDbEntity
  8
0
370
        15
  6
Continuous
 62
         7
100
AcDbLine
 10
117.2990777294
 20
177.142245509
 30
0.0
 11
121.433008982
 21
177.142245509
 31
0.0
  0
LINE
  5
143
100
AcDbEntity
  8
0
370
        15
  6
Continuous
 62
         7
100
AcDbLine
 10
121.433008982
 20
173.142245509
 30
0.0
 11
121.433008982
 21
177.142245509
 31
0.0
  0
LINE
  5
144
100
AcDbEntity
  8
0
370
        15
  6
Continuous
 62
         7
100
AcDbLine
 10
121.4613856175
 20
173.142245509
 30
0.0
 11
121.433008982
 21
173.142245509
 31
0.0
  0
LINE
  5
145
100
AcDbEntity
  8
0
370
        15
  6
Continuous
 62
         7
100
AcDbLine
 10
152.433008982
 20
229.142245509
 30
0.0
 11
52.433008982
 21
229.142245509
 31
0.0
  0
LINE
  5
146
100
AcDbEntity
  8
0
370
        15
  6
Continuous
 62
         7
100
AcDbLine
 10
152.433008982
 20
129.142245509
 30
0.0
 11
152.433008982
 21
229.142245509
 31
0.0
  0
LINE
  5
147
100
AcDbEntity
  8
0
370
        15
  6
Continuous
 62
         7
100
AcDbLine
 10
52.433008982
 20
129.142245509
 30
0.0
 11
152.433008982
 21
129.142245509
 31
0.0
  0
LINE
  5
148
100
AcDbEntity
  8
0
370
        15
  6
Continuous
 62
         7
100
AcDbLine
 10
52.433008982
 20
229.142245509
 30
0.0
 11
52.433008982
 21
129.142245509
 31
0.0
  0
CIRCLE
  5
149
100
AcDbEntity
  8
0
370
        15
  6
Continuous
 62
         7
100
AcDbCircle
 10
142.433008982
 20
219.142245509
 30
0.0
 40
4.25
  0
CIRCLE
  5
14A
100
AcDbEntity
  8
0
370
        15
  6
Continuous
 62
         7
100
AcDbCircle
 10
142.433008982
 20
139.142245509
 30
0.0
 40
4.25
  0
CIRCLE
  5
14B
100
AcDbEntity
  8
0
370
        15
  6
Continuous
 62
         7
100
AcDbCircle
 10
87.433008982
 20
221.142245509
 30
0.0
 40
4.25
  0
CIRCLE
  5
14C
100
AcDbEntity
  8
0
370
        15
  6
Continuous
 62
         7
100
AcDbCircle
 10
144.433008982
 20
154.142245509
 30
0.0
 40
4.25
  0
CIRCLE
  5
14D
100
AcDbEntity
  8
0
370
        15
  6
Continuous
 62
         7
100
AcDbCircle
 10
60.433008982
 20
154.142245509
 30
0.0
 40
4.25
  0
LINE
  5
14E
100
AcDbEntity
  8
0
370
        15
  6
Continuous
 62
         7
100
AcDbLine
 10
104.433008982
 20
194.0083142563
 30
0.0
 11
104.433008982
 21
197.6308896881
 31
0.0
  0
LINE
  5
14F
100
AcDbEntity
  8
0
370
        15
  6
Continuous
 62
         7
100
AcDbLine
 10
100.433008982
 20
197.6308896881
 30
0.0
 11
100.433008982
 21
194.0083142563
 31
0.0
  0
LINE
  5
150
100
AcDbEntity
  8
0
370
        15
  6
Continuous
 62
         7
100
AcDbLine
 10
100.433008982
 20
164.2761767617
 30
0.0
 11
100.433008982
 21
159.7123943393
 31
0.0
  0
LINE
  5
151
100
AcDbEntity
  8
0
370
        15
  6
Continuous
 62
         7
100
AcDbLine
 10
104.433008982
 20
159.7123943393
 30
0.0
 11
104.433008982
 21
164.2761767617
 31
0.0
  0
LINE
  5
152
100
AcDbEntity
  8
0
370
        15
  6
Continuous
 62
         7
100
AcDbLine
 10
111.5306934405
 20
167.2161339258
 30
0.0
 11
114.4538242622
 21
164.2930031041
 31
0.0
  0
LINE
  5
153
100
AcDbEntity
  8
0
370
        15
  6
Continuous
 62
         7
100
AcDbLine
 10
134.9599209166
 20
150.8579742615
 30
0.0
 11
134.2528141354
 21
150.1508674803
 31
0.0
  0
LINE
  5
154
100
AcDbEntity
  8
0
370
        15
  6
Continuous
 62
         7
100
AcDbLine
 10
131.4243870107
 20
147.3224403556
 30
0.0
 11
130.7172802295
 21
146.6153335744
 31
0.0
  0
LINE
  5
155
100
AcDbEntity
  8
0
370
        15
  6
Continuous
 62
         7
100
AcDbLine
 10
132.8386005731
 20
209.5478371
 30
0.0
 11
134.2528141354
 21
208.1336235376
 31
0.0
  0
LINE
  5
156
100
AcDbEntity
  8
0
370
        15
  6
Continuous
 62
         7
100
AcDbLine
 10
131.4243870107
 20
210.9620506624
 30
0.0
 11
132.8386005731
 21
209.5478371
 31
0.0
  0
CIRCLE
  5
157
100
AcDbEntity
  8
0
370
        15
  6
Continuous
 62
         7
100
AcDbCircle
 10
102.433008982
 20
179.142245509
 30
0.0
 40
4.0
  0
LINE
  5
158
100
AcDbEntity
  8
0
370
        15
  6
Continuous
 62
         7
100
AcDbLine
 10
121.433008982
 20
177.142245509
 30
0.0
 11
121.433008982
 21
181.142245509
 31
0.0
  0
LINE
  5
159
100
AcDbEntity
  8
0
370
        15
  6
Continuous
 62
         7
100
AcDbLine
 10
114.4538242622
 20
164.2930031041
 30
0.0
 11
117.282251387
 21
167.1214302288
 31
0.0
  0
POLYLINE
  5
15A
100
AcDbEntity
  8
0
370
        15
  6
Continuous
 62
         7
100
AcDb2dPolyline
 66
         1
 10
0.0
 20
0.0
 30
0.0
 70
       128
  0
VERTEX
  5
15B
100
AcDbEntity
  8
0
100
AcDbVertex
100
AcDb2dVertex
 10
83.0031578124
 20
181.142245509
 30
0.0
  0
VERTEX
  5
15C
100
AcDbEntity
  8
0
100
AcDbVertex
100
AcDb2dVertex
 10
83.3248864814
 20
180.1545992392
 30
0.0
  0
VERTEX
  5
15D
100
AcDbEntity
  8
0
100
AcDbVertex
100
AcDb2dVertex
 10
83.433008982
 20
179.142245509
 30
0.0
  0
VERTEX
  5
15E
100
AcDbEntity
  8
0
100
AcDbVertex
100
AcDb2dVertex
 10
83.3248864814
 20
178.1298917788
 30
0.0
  0
VERTEX
  5
15F
100
AcDbEntity
  8
0
100
AcDbVertex
100
AcDb2dVertex
 10
83.0031578124
 20
177.142245509
 30
0.0
  0
SEQEND
  5
160
100
AcDbEntity
  8
0
  0
POLYLINE
  5
161
100
AcDbEntity
  8
0
370
        15
  6
Continuous
 62
         7
100
AcDb2dPolyline
 66
         1
 10
0.0
 20
0.0
 30
0.0
 70
       128
  0
VERTEX
  5
162
100
AcDbEntity
  8
0
100
AcDbVertex
100
AcDb2dVertex
 10
100.433008982
 20
159.7123943393
 30
0.0
  0
VERTEX
  5
163
100
AcDbEntity
  8
0
100
AcDbVertex
100
AcDb2dVertex
 10
101.4206552518
 20
160.0341230083
 30
0.0
  0
VERTEX
  5
164
100
AcDbEntity
  8
0
100
AcDbVertex
100
AcDb2dVertex
 10
102.433008982
 20
160.142245509
 30
0.0
  0
VERTEX
  5
165
100
AcDbEntity
  8
0
100
AcDbVertex
100
AcDb2dVertex
 10
103.4453627123
 20
160.0341230083
 30
0.0
  0
VERTEX
  5
166
100
AcDbEntity
  8
0
100
AcDbVertex
100
AcDb2dVertex
 10
104.433008982
 20
159.7123943393
 30
0.0
  0
SEQEND
  5
167
100
AcDbEntity
  8
0
  0
ARC
  5
168
100
AcDbEntity
  8
0
370
        15
  6
Continuous
 62
         7
100
AcDbCircle
 10
102.433008982
 20
205.892245509
 30
0.0
 40
8.5
100
AcDbArc
 50
256.3910393692
 51
283.6089606308
  0
LINE
  5
169
100
AcDbEntity
  8
0
370
        15
  6
Continuous
 62
         7
100
AcDbLine
 10
117.282251387
 20
191.1630607892
 30
0.0
 11
114.4538242622
 21
193.9914879139
 31
0.0
  0
ARC
  5
16A
100
AcDbEntity
  8
0
370
        15
  6
Continuous
 62
         7
100
AcDbCircle
 10
83.5179025853
 20
198.0573519057
 30
0.0
 40
8.5
100
AcDbArc
 50
301.3910393692
 51
328.6089606308
  0
LINE
  5
16B
100
AcDbEntity
  8
0
370
        15
  6
Continuous
 62
         7
100
AcDbLine
 10
87.5837665771
 20
167.1214302288
 30
0.0
 11
90.4121937019
 21
164.2930031041
 31
0.0
  0
LEADER
  5
16C
100
AcDbEntity
  8
0
 62
       255
100
AcDbLeader
  3
SLDDIMSTYLE0
 73
         3
 74
         0
 75
         0
 40
0.0
 76
         2
 10
104.5953258677
 20
218.7642468642
 30
0.0
 10
117.0869375
 20
254.701975
 30
0.0
 77
       256
340
16E
  0
MTEXT
  5
16E
102
{ACAD_REACTORS
330
16C
102
}
100
AcDbEntity
  8
0
 62
         7
100
AcDbMText
 10
117.5884007349
 20
256.9539500061
 30
0.0
 40
3.5
 41
0.0
 71
         1
 72
         1
  1
forme suivant fichiers dxf-step
  7
SLDTEXTSTYLE0
 73
         1
 44
1.0
  0
LINE
  5
16F
100
AcDbEntity
  8
0
  6
CENTER
 62
         7
100
AcDbLine
 10
25.805
 20
179.142245509
 30
0.0
 11
179.0610179641
 21
179.142245509
 31
0.0
  0
SOLID
  5
170
100
AcDbEntity
  8
0
  6
Continuous
 62
         7
100
AcDbTrace
 10
27.805
 20
179.142245509
 30
0.0
 11
28.805
 21
183.142245509
 31
0.0
 12
26.805
 22
183.142245509
 32
0.0
 13
26.805
 23
183.142245509
 33
0.0
  0
LINE
  5
171
100
AcDbEntity
  8
0
  6
Continuous
 62
         7
100
AcDbLine
 10
27.805
 20
191.142245509
 30
0.0
 11
27.805
 21
179.142245509
 31
0.0
  0
SOLID
  5
172
100
AcDbEntity
  8
0
  6
Continuous
 62
         7
100
AcDbTrace
 10
177.0610179641
 20
179.142245509
 30
0.0
 11
178.0610179641
 21
183.142245509
 31
0.0
 12
176.0610179641
 22
183.142245509
 32
0.0
 13
176.0610179641
 23
183.142245509
 33
0.0
  0
LINE
  5
173
100
AcDbEntity
  8
0
  6
Continuous
 62
         7
100
AcDbLine
 10
177.0610179641
 20
191.142245509
 30
0.0
 11
177.0610179641
 21
179.142245509
 31
0.0
  0
MTEXT
  5
174
100
AcDbEntity
  8
0
100
AcDbMText
 10
30.3108
 20
191.142245509
 30
0.0
 40
6.35
 41
0.0
 71
         1
 72
         1
  1
A
 73
         1
 44
1.0
  0
MTEXT
  5
175
100
AcDbEntity
  8
0
100
AcDbMText
 10
179.5668179641
 20
191.142245509
 30
0.0
 40
6.35
 41
0.0
 71
         1
 72
         1
  1
A
 73
         1
 44
1.0
  0
LINE
  5
176
100
AcDbEntity
  8
0
370
        15
  6
Continuous
 62
         7
100
AcDbLine
 10
203.3005778767
 20
229.142245509
 30
0.0
 11
203.3005778767
 21
129.142245509
 31
0.0
  0
LINE
  5
177
100
AcDbEntity
  8
0
370
        15
  6
Continuous
 62
         7
100
AcDbLine
 10
203.3005778767
 20
129.142245509
 30
0.0
 11
193.3005778767
 21
129.142245509
 31
0.0
  0
LINE
  5
178
100
AcDbEntity
  8
0
370
        15
  6
Continuous
 62
         7
100
AcDbLine
 10
193.3005778767
 20
229.142245509
 30
0.0
 11
193.3005778767
 21
129.142245509
 31
0.0
  0
LINE
  5
179
100
AcDbEntity
  8
0
370
        15
  6
Continuous
 62
         7
100
AcDbLine
 10
203.3005778767
 20
229.142245509
 30
0.0
 11
193.3005778767
 21
229.142245509
 31
0.0
  0
LINE
  5
17A
100
AcDbEntity
  8
0
370
         0
  6
HIDDEN
 62
         9
100
AcDbLine
 10
199.3005778767
 20
172.642245509
 30
0.0
 11
199.3005778767
 21
175.9279603345
 31
0.0
  0
LINE
  5
17B
100
AcDbEntity
  8
0
370
         0
  6
HIDDEN
 62
         9
100
AcDbLine
 10
199.3005778767
 20
182.3565306834
 30
0.0
 11
199.3005778767
 21
185.642245509
 31
0.0
  0
LINE
  5
17C
100
AcDbEntity
  8
0
370
         0
  6
HIDDEN
 62
         9
100
AcDbLine
 10
199.3005778767
 20
175.9279603345
 30
0.0
 11
199.3005778767
 21
182.3565306834
 31
0.0
  0
LINE
  5
17D
100
AcDbEntity
  8
0
370
         0
  6
HIDDEN
 62
         9
100
AcDbLine
 10
201.3005778767
 20
181.142245509
 30
0.0
 11
203.3005778767
 21
181.142245509
 31
0.0
  0
LINE
  5
17E
100
AcDbEntity
  8
0
370
         0
  6
HIDDEN
 62
         9
100
AcDbLine
 10
201.3005778767
 20
181.142245509
 30
0.0
 11
201.3005778767
 21
177.142245509
 31
0.0
  0
LINE
  5
17F
100
AcDbEntity
  8
0
370
         0
  6
HIDDEN
 62
         9
100
AcDbLine
 10
203.3005778767
 20
177.142245509
 30
0.0
 11
201.3005778767
 21
177.142245509
 31
0.0
  0
LINE
  5
180
100
AcDbEntity
  8
0
370
         0
  6
HIDDEN
 62
         9
100
AcDbLine
 10
199.3005778767
 20
206.5942160245
 30
0.0
 11
203.3005778767
 21
206.5942160245
 31
0.0
  0
LINE
  5
181
100
AcDbEntity
  8
0
370
         0
  6
HIDDEN
 62
         9
100
AcDbLine
 10
199.3005778767
 20
204.4694099753
 30
0.0
 11
199.3005778767
 21
208.9694099753
 31
0.0
  0
LINE
  5
182
100
AcDbEntity
  8
0
370
         0
  6
HIDDEN
 62
         9
100
AcDbLine
 10
199.3005778767
 20
204.4728956809
 30
0.0
 11
203.3005778767
 21
204.4728956809
 31
0.0
  0
LINE
  5
183
100
AcDbEntity
  8
0
370
         0
  6
HIDDEN
 62
         9
100
AcDbLine
 10
199.3005778767
 20
150.0750764495
 30
0.0
 11
199.3005778767
 21
152.0393197865
 31
0.0
  0
LINE
  5
184
100
AcDbEntity
  8
0
370
         0
  6
HIDDEN
 62
         9
100
AcDbLine
 10
199.3005778767
 20
152.0393197865
 30
0.0
 11
199.3005778767
 21
164.3429777791
 31
0.0
  0
LINE
  5
185
100
AcDbEntity
  8
0
370
         0
  6
HIDDEN
 62
         9
100
AcDbLine
 10
199.3005778767
 20
149.0438695105
 30
0.0
 11
199.3005778767
 21
150.0750764495
 31
0.0
  0
LINE
  5
186
100
AcDbEntity
  8
0
370
         0
  6
HIDDEN
 62
         9
100
AcDbLine
 10
199.3005778767
 20
200.769662507
 30
0.0
 11
199.3005778767
 21
202.4767692881
 31
0.0
  0
LINE
  5
187
100
AcDbEntity
  8
0
370
         0
  6
HIDDEN
 62
         9
100
AcDbLine
 10
199.3005778767
 20
202.4767692881
 30
0.0
 11
199.3005778767
 21
203.5374294599
 31
0.0
  0
LINE
  5
188
100
AcDbEntity
  8
0
370
         0
  6
HIDDEN
 62
         9
100
AcDbLine
 10
199.3005778767
 20
203.5374294599
 30
0.0
 11
203.3005778767
 21
203.5374294599
 31
0.0
  0
LINE
  5
189
100
AcDbEntity
  8
0
370
         0
  6
HIDDEN
 62
         9
100
AcDbLine
 10
199.3005778767
 20
203.5374294599
 30
0.0
 11
199.3005778767
 21
204.4694099753
 31
0.0
  0
LINE
  5
18A
100
AcDbEntity
  8
0
370
         0
  6
HIDDEN
 62
         9
100
AcDbLine
 10
199.3005778767
 20
202.1232158975
 30
0.0
 11
203.3005778767
 21
202.1232158975
 31
0.0
  0
LINE
  5
18B
100
AcDbEntity
  8
0
370
         0
  6
HIDDEN
 62
         9
100
AcDbLine
 10
199.3005778767
 20
205.6587498035
 30
0.0
 11
203.3005778767
 21
205.6587498035
 31
0.0
  0
LINE
  5
18C
100
AcDbEntity
  8
0
370
         0
  6
HIDDEN
 62
         9
100
AcDbLine
 10
199.3005778767
 20
164.3429777791
 30
0.0
 11
199.3005778767
 21
165.4687390354
 31
0.0
  0
LINE
  5
18D
100
AcDbEntity
  8
0
370
         0
  6
HIDDEN
 62
         9
100
AcDbLine
 10
199.3005778767
 20
194.9194678159
 30
0.0
 11
199.3005778767
 21
200.769662507
 31
0.0
  0
LINE
  5
18E
100
AcDbEntity
  8
0
370
         0
  6
HIDDEN
 62
         9
100
AcDbLine
 10
199.3005778767
 20
190.7229763185
 30
0.0
 11
199.3005778767
 21
192.1788549449
 31
0.0
  0
LINE
  5
18F
100
AcDbEntity
  8
0
370
         0
  6
HIDDEN
 62
         9
100
AcDbLine
 10
201.3005778767
 20
193.6299047453
 30
0.0
 11
203.3005778767
 21
193.6299047453
 31
0.0
  0
LINE
  5
190
100
AcDbEntity
  8
0
370
         0
  6
HIDDEN
 62
         9
100
AcDbLine
 10
201.3005778767
 20
193.6299047453
 30
0.0
 11
201.3005778767
 21
190.8014776206
 31
0.0
  0
LINE
  5
191
100
AcDbEntity
  8
0
370
         0
  6
HIDDEN
 62
         9
100
AcDbLine
 10
203.3005778767
 20
190.8014776206
 30
0.0
 11
201.3005778767
 21
190.8014776206
 31
0.0
  0
LINE
  5
192
100
AcDbEntity
  8
0
370
         0
  6
HIDDEN
 62
         9
100
AcDbLine
 10
199.3005778767
 20
189.5573519057
 30
0.0
 11
199.3005778767
 21
190.7229763185
 31
0.0
  0
LINE
  5
193
100
AcDbEntity
  8
0
370
         0
  6
HIDDEN
 62
         9
100
AcDbLine
 10
199.3005778767
 20
194.9194678159
 30
0.0
 11
203.3005778767
 21
194.9194678159
 31
0.0
  0
LINE
  5
194
100
AcDbEntity
  8
0
370
         0
  6
HIDDEN
 62
         9
100
AcDbLine
 10
199.3005778767
 20
192.1788549449
 30
0.0
 11
199.3005778767
 21
194.9194678159
 31
0.0
  0
LINE
  5
195
100
AcDbEntity
  8
0
370
         0
  6
HIDDEN
 62
         9
100
AcDbLine
 10
199.3005778767
 20
204.2445362411
 30
0.0
 11
203.3005778767
 21
204.2445362411
 31
0.0
  0
LINE
  5
196
100
AcDbEntity
  8
0
370
         0
  6
HIDDEN
 62
         9
100
AcDbLine
 10
199.3005778767
 20
197.0407881595
 30
0.0
 11
203.3005778767
 21
197.0407881595
 31
0.0
  0
LINE
  5
197
100
AcDbEntity
  8
0
370
         0
  6
HIDDEN
 62
         9
100
AcDbLine
 10
199.3005778767
 20
162.1716827605
 30
0.0
 11
203.3005778767
 21
162.1716827605
 31
0.0
  0
LINE
  5
198
100
AcDbEntity
  8
0
370
         0
  6
HIDDEN
 62
         9
100
AcDbLine
 10
199.3005778767
 20
170.2063544693
 30
0.0
 11
203.3005778767
 21
170.2063544693
 31
0.0
  0
LINE
  5
199
100
AcDbEntity
  8
0
370
         0
  6
HIDDEN
 62
         9
100
AcDbLine
 10
199.3005778767
 20
167.4749836194
 30
0.0
 11
199.3005778767
 21
170.2063544693
 31
0.0
  0
LINE
  5
19A
100
AcDbEntity
  8
0
370
         0
  6
HIDDEN
 62
         9
100
AcDbLine
 10
199.3005778767
 20
165.4687390354
 30
0.0
 11
199.3005778767
 21
167.4749836194
 31
0.0
  0
LINE
  5
19B
100
AcDbEntity
  8
0
370
         0
  6
HIDDEN
 62
         9
100
AcDbLine
 10
199.3005778767
 20
164.2930031041
 30
0.0
 11
203.3005778767
 21
164.2930031041
 31
0.0
  0
LINE
  5
19C
100
AcDbEntity
  8
0
370
         0
  6
HIDDEN
 62
         9
100
AcDbLine
 10
203.3005778767
 20
169.9297920422
 30
0.0
 11
199.3005778767
 21
169.9297920422
 31
0.0
  0
LINE
  5
19D
100
AcDbEntity
  8
0
370
         0
  6
HIDDEN
 62
         9
100
AcDbLine
 10
201.3005778767
 20
167.1214302288
 30
0.0
 11
203.3005778767
 21
167.1214302288
 31
0.0
  0
LINE
  5
19E
100
AcDbEntity
  8
0
370
         0
  6
HIDDEN
 62
         9
100
AcDbLine
 10
203.3005778767
 20
169.9498573536
 30
0.0
 11
199.3005778767
 21
169.9498573536
 31
0.0
  0
LINE
  5
19F
100
AcDbEntity
  8
0
370
         0
  6
HIDDEN
 62
         9
100
AcDbLine
 10
201.3005778767
 20
167.1214302288
 30
0.0
 11
201.3005778767
 21
164.2930031041
 31
0.0
  0
LINE
  5
1A0
100
AcDbEntity
  8
0
370
         0
  6
HIDDEN
 62
         9
100
AcDbLine
 10
199.3005778767
 20
159.3432556358
 30
0.0
 11
203.3005778767
 21
159.3432556358
 31
0.0
  0
LINE
  5
1A1
100
AcDbEntity
  8
0
370
         0
  6
HIDDEN
 62
         9
100
AcDbLine
 10
199.3005778767
 20
161.4645759793
 30
0.0
 11
203.3005778767
 21
161.4645759793
 31
0.0
  0
LINE
  5
1A2
100
AcDbEntity
  8
0
370
         0
  6
HIDDEN
 62
         9
100
AcDbLine
 10
201.3005778767
 20
188.2399299674
 30
0.0
 11
201.3005778767
 21
181.142245509
 31
0.0
  0
LINE
  5
1A3
100
AcDbEntity
  8
0
370
         0
  6
HIDDEN
 62
         9
100
AcDbLine
 10
201.3005778767
 20
177.142245509
 30
0.0
 11
201.3005778767
 21
170.0445610505
 31
0.0
  0
LINE
  5
1A4
100
AcDbEntity
  8
0
370
         0
  6
HIDDEN
 62
         9
100
AcDbLine
 10
203.3005778767
 20
170.0445610505
 30
0.0
 11
201.3005778767
 21
170.0445610505
 31
0.0
  0
LINE
  5
1A5
100
AcDbEntity
  8
0
370
         0
  6
HIDDEN
 62
         9
100
AcDbLine
 10
201.3005778767
 20
170.0445610505
 30
0.0
 11
201.3005778767
 21
167.1214302288
 31
0.0
  0
LINE
  5
1A6
100
AcDbEntity
  8
0
370
         0
  6
HIDDEN
 62
         9
100
AcDbLine
 10
201.3005778767
 20
188.2399299674
 30
0.0
 11
203.3005778767
 21
188.2399299674
 31
0.0
  0
LINE
  5
1A7
100
AcDbEntity
  8
0
370
         0
  6
HIDDEN
 62
         9
100
AcDbLine
 10
201.3005778767
 20
190.8014776206
 30
0.0
 11
201.3005778767
 21
188.2399299674
 31
0.0
  0
LINE
  5
1A8
100
AcDbEntity
  8
0
370
         0
  6
HIDDEN
 62
         9
100
AcDbLine
 10
201.3005778767
 20
167.2161339258
 30
0.0
 11
203.3005778767
 21
167.2161339258
 31
0.0
  0
LINE
  5
1A9
100
AcDbEntity
  8
0
370
         0
  6
HIDDEN
 62
         9
100
AcDbLine
 10
203.3005778767
 20
191.0683570922
 30
0.0
 11
201.3005778767
 21
191.0683570922
 31
0.0
  0
LINE
  5
1AA
100
AcDbEntity
  8
0
370
         0
  6
HIDDEN
 62
         9
100
AcDbLine
 10
199.3005778767
 20
161.444510668
 30
0.0
 11
203.3005778767
 21
161.444510668
 31
0.0
  0
LINE
  5
1AB
100
AcDbEntity
  8
0
370
         0
  6
HIDDEN
 62
         9
100
AcDbLine
 10
201.3005778767
 20
194.0083142563
 30
0.0
 11
201.3005778767
 21
193.6299047453
 31
0.0
  0
LINE
  5
1AC
100
AcDbEntity
  8
0
370
         0
  6
HIDDEN
 62
         9
100
AcDbLine
 10
201.3005778767
 20
164.2930031041
 30
0.0
 11
201.3005778767
 21
164.2761767617
 31
0.0
  0
LINE
  5
1AD
100
AcDbEntity
  8
0
370
         0
  6
HIDDEN
 62
         9
100
AcDbLine
 10
203.3005778767
 20
197.6308896881
 30
0.0
 11
201.3005778767
 21
197.6308896881
 31
0.0
  0
LINE
  5
1AE
100
AcDbEntity
  8
0
370
         0
  6
HIDDEN
 62
         9
100
AcDbLine
 10
199.3005778767
 20
202.954607272
 30
0.0
 11
203.3005778767
 21
202.954607272
 31
0.0
  0
LINE
  5
1AF
100
AcDbEntity
  8
0
370
         0
  6
HIDDEN
 62
         9
100
AcDbLine
 10
199.3005778767
 20
136.142245509
 30
0.0
 11
199.3005778767
 21
139.0310181058
 31
0.0
  0
LINE
  5
1B0
100
AcDbEntity
  8
0
370
         0
  6
HIDDEN
 62
         9
100
AcDbLine
 10
201.3005778767
 20
159.7123943393
 30
0.0
 11
203.3005778767
 21
159.7123943393
 31
0.0
  0
LINE
  5
1B1
100
AcDbEntity
  8
0
370
         0
  6
HIDDEN
 62
         9
100
AcDbLine
 10
199.3005778767
 20
143.8858343301
 30
0.0
 11
199.3005778767
 21
149.0438695105
 31
0.0
  0
LINE
  5
1B2
100
AcDbEntity
  8
0
370
         0
  6
HIDDEN
 62
         9
100
AcDbLine
 10
199.3005778767
 20
139.0310181058
 30
0.0
 11
199.3005778767
 21
142.3645104494
 31
0.0
  0
LINE
  5
1B3
100
AcDbEntity
  8
0
370
         0
  6
HIDDEN
 62
         9
100
AcDbLine
 10
199.3005778767
 20
215.142245509
 30
0.0
 11
203.3005778767
 21
215.142245509
 31
0.0
  0
LINE
  5
1B4
100
AcDbEntity
  8
0
370
         0
  6
HIDDEN
 62
         9
100
AcDbLine
 10
199.3005778767
 20
213.142245509
 30
0.0
 11
203.3005778767
 21
213.142245509
 31
0.0
  0
LINE
  5
1B5
100
AcDbEntity
  8
0
370
         0
  6
HIDDEN
 62
         9
100
AcDbLine
 10
199.3005778767
 20
213.142245509
 30
0.0
 11
199.3005778767
 21
215.142245509
 31
0.0
  0
LINE
  5
1B6
100
AcDbEntity
  8
0
370
         0
  6
HIDDEN
 62
         9
100
AcDbLine
 10
199.3005778767
 20
142.3645104494
 30
0.0
 11
199.3005778767
 21
143.8858343301
 31
0.0
  0
LINE
  5
1B7
100
AcDbEntity
  8
0
370
         0
  6
HIDDEN
 62
         9
100
AcDbLine
 10
199.3005778767
 20
216.4651945259
 30
0.0
 11
203.3005778767
 21
216.4651945259
 31
0.0
  0
LINE
  5
1B8
100
AcDbEntity
  8
0
370
         0
  6
HIDDEN
 62
         9
100
AcDbLine
 10
199.3005778767
 20
216.4651945259
 30
0.0
 11
203.3005778767
 21
216.4651945259
 31
0.0
  0
LINE
  5
1B9
100
AcDbEntity
  8
0
370
         0
  6
HIDDEN
 62
         9
100
AcDbLine
 10
199.3005778767
 20
216.4651945259
 30
0.0
 11
199.3005778767
 21
220.392245509
 31
0.0
  0
LINE
  5
1BA
100
AcDbEntity
  8
0
370
         0
  6
HIDDEN
 62
         9
100
AcDbLine
 10
201.3005778767
 20
194.0083142563
 30
0.0
 11
203.3005778767
 21
194.0083142563
 31
0.0
  0
LINE
  5
1BB
100
AcDbEntity
  8
0
370
         0
  6
HIDDEN
 62
         9
100
AcDbLine
 10
201.3005778767
 20
197.6308896881
 30
0.0
 11
201.3005778767
 21
194.0083142563
 31
0.0
  0
LINE
  5
1BC
100
AcDbEntity
  8
0
370
         0
  6
HIDDEN
 62
         9
100
AcDbLine
 10
203.3005778767
 20
164.2761767617
 30
0.0
 11
201.3005778767
 21
164.2761767617
 31
0.0
  0
LINE
  5
1BD
100
AcDbEntity
  8
0
370
         0
  6
HIDDEN
 62
         9
100
AcDbLine
 10
201.3005778767
 20
164.2761767617
 30
0.0
 11
201.3005778767
 21
159.7123943393
 31
0.0
  0
LINE
  5
1BE
100
AcDbEntity
  8
0
370
         0
  6
HIDDEN
 62
         9
100
AcDbLine
 10
199.3005778767
 20
208.9694099753
 30
0.0
 11
199.3005778767
 21
213.142245509
 31
0.0
  0
LINE
  5
1BF
100
AcDbEntity
  8
0
370
         0
  6
HIDDEN
 62
         9
100
AcDbLine
 10
199.3005778767
 20
215.142245509
 30
0.0
 11
199.3005778767
 21
216.4651945259
 31
0.0
  0
LINE
  5
1C0
100
AcDbEntity
  8
0
370
         0
  6
HIDDEN
 62
         9
100
AcDbLine
 10
199.3005778767
 20
161.3374410812
 30
0.0
 11
203.3005778767
 21
161.3374410812
 31
0.0
  0
LINE
  5
1C1
100
AcDbEntity
  8
0
370
         0
  6
HIDDEN
 62
         9
100
AcDbLine
 10
199.3005778767
 20
196.9470499367
 30
0.0
 11
203.3005778767
 21
196.9470499367
 31
0.0
  0
LINE
  5
1C2
100
AcDbEntity
  8
0
370
         0
  6
HIDDEN
 62
         9
100
AcDbLine
 10
203.3005778767
 20
193.9914879139
 30
0.0
 11
201.3005778767
 21
193.9914879139
 31
0.0
  0
LINE
  5
1C3
100
AcDbEntity
  8
0
370
         0
  6
HIDDEN
 62
         9
100
AcDbLine
 10
201.3005778767
 20
191.1630607892
 30
0.0
 11
203.3005778767
 21
191.1630607892
 31
0.0
  0
LINE
  5
1C4
100
AcDbEntity
  8
0
370
         0
  6
HIDDEN
 62
         9
100
AcDbLine
 10
199.3005778767
 20
167.2771380432
 30
0.0
 11
203.3005778767
 21
167.2771380432
 31
0.0
  0
LINE
  5
1C5
100
AcDbEntity
  8
0
370
         0
  6
HIDDEN
 62
         9
100
AcDbLine
 10
199.3005778767
 20
191.0073529748
 30
0.0
 11
203.3005778767
 21
191.0073529748
 31
0.0
  0
LINE
  5
1C6
100
AcDbEntity
  8
0
370
         0
  6
HIDDEN
 62
         9
100
AcDbLine
 10
199.3005778767
 20
189.455954008
 30
0.0
 11
199.3005778767
 21
189.5573519057
 31
0.0
  0
LINE
  5
1C7
100
AcDbEntity
  8
0
370
         0
  6
HIDDEN
 62
         9
100
AcDbLine
 10
199.3005778767
 20
155.8585644699
 30
0.0
 11
203.3005778767
 21
155.8585644699
 31
0.0
  0
LINE
  5
1C8
100
AcDbEntity
  8
0
370
         0
  6
HIDDEN
 62
         9
100
AcDbLine
 10
199.3005778767
 20
202.425926548
 30
0.0
 11
203.3005778767
 21
202.425926548
 31
0.0
  0
LINE
  5
1C9
100
AcDbEntity
  8
0
370
         0
  6
HIDDEN
 62
         9
100
AcDbLine
 10
203.3005778767
 20
173.142245509
 30
0.0
 11
199.3005778767
 21
173.142245509
 31
0.0
  0
LINE
  5
1CA
100
AcDbEntity
  8
0
370
         0
  6
HIDDEN
 62
         9
100
AcDbLine
 10
199.3005778767
 20
185.142245509
 30
0.0
 11
203.3005778767
 21
185.142245509
 31
0.0
  0
LINE
  5
1CB
100
AcDbEntity
  8
0
370
         0
  6
HIDDEN
 62
         9
100
AcDbLine
 10
199.3005778767
 20
172.3108746591
 30
0.0
 11
199.3005778767
 21
172.642245509
 31
0.0
  0
LINE
  5
1CC
100
AcDbEntity
  8
0
370
         0
  6
HIDDEN
 62
         9
100
AcDbLine
 10
199.3005778767
 20
185.642245509
 30
0.0
 11
199.3005778767
 21
185.9736163589
 31
0.0
  0
LINE
  5
1CD
100
AcDbEntity
  8
0
370
         0
  6
HIDDEN
 62
         9
100
AcDbLine
 10
199.3005778767
 20
171.5108746591
 30
0.0
 11
199.3005778767
 21
172.3108746591
 31
0.0
  0
LINE
  5
1CE
100
AcDbEntity
  8
0
370
         0
  6
HIDDEN
 62
         9
100
AcDbLine
 10
199.3005778767
 20
185.9736163589
 30
0.0
 11
199.3005778767
 21
186.7736163589
 31
0.0
  0
LINE
  5
1CF
100
AcDbEntity
  8
0
370
         0
  6
HIDDEN
 62
         9
100
AcDbLine
 10
199.3005778767
 20
171.042245509
 30
0.0
 11
199.3005778767
 21
171.5108746591
 31
0.0
  0
LINE
  5
1D0
100
AcDbEntity
  8
0
370
         0
  6
HIDDEN
 62
         9
100
AcDbLine
 10
199.3005778767
 20
186.7736163589
 30
0.0
 11
199.3005778767
 21
187.242245509
 31
0.0
  0
LINE
  5
1D1
100
AcDbEntity
  8
0
370
         0
  6
HIDDEN
 62
         9
100
AcDbLine
 10
199.3005778767
 20
177.142245509
 30
0.0
 11
201.3005778767
 21
177.142245509
 31
0.0
  0
LINE
  5
1D2
100
AcDbEntity
  8
0
370
         0
  6
HIDDEN
 62
         9
100
AcDbLine
 10
199.3005778767
 20
181.142245509
 30
0.0
 11
201.3005778767
 21
181.142245509
 31
0.0
  0
LINE
  5
1D3
100
AcDbEntity
  8
0
370
         0
  6
HIDDEN
 62
         9
100
AcDbLine
 10
199.3005778767
 20
151.5102874709
 30
0.0
 11
203.3005778767
 21
151.5102874709
 31
0.0
  0
LINE
  5
1D4
100
AcDbEntity
  8
0
370
         0
  6
HIDDEN
 62
         9
100
AcDbLine
 10
199.3005778767
 20
206.774203547
 30
0.0
 11
203.3005778767
 21
206.774203547
 31
0.0
  0
LINE
  5
1D5
100
AcDbEntity
  8
0
370
         0
  6
HIDDEN
 62
         9
100
AcDbLine
 10
199.3005778767
 20
150.5044208709
 30
0.0
 11
203.3005778767
 21
150.5044208709
 31
0.0
  0
LINE
  5
1D6
100
AcDbEntity
  8
0
370
         0
  6
HIDDEN
 62
         9
100
AcDbLine
 10
199.3005778767
 20
207.780070147
 30
0.0
 11
203.3005778767
 21
207.780070147
 31
0.0
  0
LINE
  5
1D7
100
AcDbEntity
  8
0
370
         0
  6
HIDDEN
 62
         9
100
AcDbLine
 10
199.3005778767
 20
187.242245509
 30
0.0
 11
199.3005778767
 21
188.742245509
 31
0.0
  0
LINE
  5
1D8
100
AcDbEntity
  8
0
370
         0
  6
HIDDEN
 62
         9
100
AcDbLine
 10
199.3005778767
 20
148.3831005274
 30
0.0
 11
203.3005778767
 21
148.3831005274
 31
0.0
  0
LINE
  5
1D9
100
AcDbEntity
  8
0
370
         0
  6
HIDDEN
 62
         9
100
AcDbLine
 10
199.3005778767
 20
209.9013904906
 30
0.0
 11
203.3005778767
 21
209.9013904906
 31
0.0
  0
POLYLINE
  5
1DA
100
AcDbEntity
  8
0
370
         0
  6
HIDDEN
 62
         9
100
AcDb2dPolyline
 66
         1
 10
0.0
 20
0.0
 30
0.0
 70
       128
  0
VERTEX
  5
1DB
100
AcDbEntity
  8
0
100
AcDbVertex
100
AcDb2dVertex
 10
203.3005778767
 20
150.1508674803
 30
0.0
  0
VERTEX
  5
1DC
100
AcDbEntity
  8
0
100
AcDbVertex
100
AcDb2dVertex
 10
202.9103972327
 20
150.1236937633
 30
0.0
  0
VERTEX
  5
1DD
100
AcDbEntity
  8
0
100
AcDbVertex
100
AcDb2dVertex
 10
202.535211012
 20
150.0432168828
 30
0.0
  0
VERTEX
  5
1DE
100
AcDbEntity
  8
0
100
AcDbVertex
100
AcDb2dVertex
 10
202.1894374107
 20
149.9125295204
 30
0.0
  0
VERTEX
  5
1DF
100
AcDbEntity
  8
0
100
AcDbVertex
100
AcDb2dVertex
 10
201.8863643143
 20
149.736653918
 30
0.0
  0
VERTEX
  5
1E0
100
AcDbEntity
  8
0
100
AcDbVertex
100
AcDb2dVertex
 10
201.6376386521
 20
149.5223488763
 30
0.0
  0
VERTEX
  5
1E1
100
AcDbEntity
  8
0
100
AcDbVertex
100
AcDb2dVertex
 10
201.4528188117
 20
149.2778500181
 30
0.0
  0
VERTEX
  5
1E2
100
AcDbEntity
  8
0
100
AcDbVertex
100
AcDb2dVertex
 10
201.3390073159
 20
149.0125532972
 30
0.0
  0
VERTEX
  5
1E3
100
AcDbEntity
  8
0
100
AcDbVertex
100
AcDb2dVertex
 10
201.3005778767
 20
148.736653918
 30
0.0
  0
SEQEND
  5
1E4
100
AcDbEntity
  8
0
  0
POLYLINE
  5
1E5
100
AcDbEntity
  8
0
370
         0
  6
HIDDEN
 62
         9
100
AcDb2dPolyline
 66
         1
 10
0.0
 20
0.0
 30
0.0
 70
       128
  0
VERTEX
  5
1E6
100
AcDbEntity
  8
0
100
AcDbVertex
100
AcDb2dVertex
 10
201.3005778767
 20
148.736653918
 30
0.0
  0
VERTEX
  5
1E7
100
AcDbEntity
  8
0
100
AcDbVertex
100
AcDb2dVertex
 10
201.3390073159
 20
148.4607545387
 30
0.0
  0
VERTEX
  5
1E8
100
AcDbEntity
  8
0
100
AcDbVertex
100
AcDb2dVertex
 10
201.4528188117
 20
148.1954578178
 30
0.0
  0
VERTEX
  5
1E9
100
AcDbEntity
  8
0
100
AcDbVertex
100
AcDb2dVertex
 10
201.6376386521
 20
147.9509589596
 30
0.0
  0
VERTEX
  5
1EA
100
AcDbEntity
  8
0
100
AcDbVertex
100
AcDb2dVertex
 10
201.8863643143
 20
147.736653918
 30
0.0
  0
VERTEX
  5
1EB
100
AcDbEntity
  8
0
100
AcDbVertex
100
AcDb2dVertex
 10
202.1894374107
 20
147.5607783155
 30
0.0
  0
VERTEX
  5
1EC
100
AcDbEntity
  8
0
100
AcDbVertex
100
AcDb2dVertex
 10
202.535211012
 20
147.4300909531
 30
0.0
  0
VERTEX
  5
1ED
100
AcDbEntity
  8
0
100
AcDbVertex
100
AcDb2dVertex
 10
202.9103972327
 20
147.3496140726
 30
0.0
  0
VERTEX
  5
1EE
100
AcDbEntity
  8
0
100
AcDbVertex
100
AcDb2dVertex
 10
203.3005778767
 20
147.3224403556
 30
0.0
  0
SEQEND
  5
1EF
100
AcDbEntity
  8
0
  0
POLYLINE
  5
1F0
100
AcDbEntity
  8
0
370
         0
  6
HIDDEN
 62
         9
100
AcDb2dPolyline
 66
         1
 10
0.0
 20
0.0
 30
0.0
 70
       128
  0
VERTEX
  5
1F1
100
AcDbEntity
  8
0
100
AcDbVertex
100
AcDb2dVertex
 10
203.3005778767
 20
210.9620506624
 30
0.0
  0
VERTEX
  5
1F2
100
AcDbEntity
  8
0
100
AcDbVertex
100
AcDb2dVertex
 10
202.9103972327
 20
210.9348769453
 30
0.0
  0
VERTEX
  5
1F3
100
AcDbEntity
  8
0
100
AcDbVertex
100
AcDb2dVertex
 10
202.535211012
 20
210.8544000649
 30
0.0
  0
VERTEX
  5
1F4
100
AcDbEntity
  8
0
100
AcDbVertex
100
AcDb2dVertex
 10
202.1894374107
 20
210.7237127024
 30
0.0
  0
VERTEX
  5
1F5
100
AcDbEntity
  8
0
100
AcDbVertex
100
AcDb2dVertex
 10
201.8863643143
 20
210.5478371
 30
0.0
  0
VERTEX
  5
1F6
100
AcDbEntity
  8
0
100
AcDbVertex
100
AcDb2dVertex
 10
201.6376386521
 20
210.3335320584
 30
0.0
  0
VERTEX
  5
1F7
100
AcDbEntity
  8
0
100
AcDbVertex
100
AcDb2dVertex
 10
201.4528188117
 20
210.0890332001
 30
0.0
  0
VERTEX
  5
1F8
100
AcDbEntity
  8
0
100
AcDbVertex
100
AcDb2dVertex
 10
201.3390073159
 20
209.8237364793
 30
0.0
  0
VERTEX
  5
1F9
100
AcDbEntity
  8
0
100
AcDbVertex
100
AcDb2dVertex
 10
201.3005778767
 20
209.5478371
 30
0.0
  0
SEQEND
  5
1FA
100
AcDbEntity
  8
0
  0
POLYLINE
  5
1FB
100
AcDbEntity
  8
0
370
         0
  6
HIDDEN
 62
         9
100
AcDb2dPolyline
 66
         1
 10
0.0
 20
0.0
 30
0.0
 70
       128
  0
VERTEX
  5
1FC
100
AcDbEntity
  8
0
100
AcDbVertex
100
AcDb2dVertex
 10
201.3005778767
 20
209.5478371
 30
0.0
  0
VERTEX
  5
1FD
100
AcDbEntity
  8
0
100
AcDbVertex
100
AcDb2dVertex
 10
201.3390073159
 20
209.2719377207
 30
0.0
  0
VERTEX
  5
1FE
100
AcDbEntity
  8
0
100
AcDbVertex
100
AcDb2dVertex
 10
201.4528188117
 20
209.0066409999
 30
0.0
  0
VERTEX
  5
1FF
100
AcDbEntity
  8
0
100
AcDbVertex
100
AcDb2dVertex
 10
201.6376386521
 20
208.7621421416
 30
0.0
  0
VERTEX
  5
200
100
AcDbEntity
  8
0
100
AcDbVertex
100
AcDb2dVertex
 10
201.8863643143
 20
208.5478371
 30
0.0
  0
VERTEX
  5
201
100
AcDbEntity
  8
0
100
AcDbVertex
100
AcDb2dVertex
 10
202.1894374107
 20
208.3719614976
 30
0.0
  0
VERTEX
  5
202
100
AcDbEntity
  8
0
100
AcDbVertex
100
AcDb2dVertex
 10
202.535211012
 20
208.2412741351
 30
0.0
  0
VERTEX
  5
203
100
AcDbEntity
  8
0
100
AcDbVertex
100
AcDb2dVertex
 10
202.9103972327
 20
208.1607972547
 30
0.0
  0
VERTEX
  5
204
100
AcDbEntity
  8
0
100
AcDbVertex
100
AcDb2dVertex
 10
203.3005778767
 20
208.1336235376
 30
0.0
  0
SEQEND
  5
205
100
AcDbEntity
  8
0
  0
LINE
  5
206
100
AcDbEntity
  8
0
370
         0
  6
HIDDEN
 62
         9
100
AcDbLine
 10
199.3005778767
 20
151.9186344333
 30
0.0
 11
203.3005778767
 21
151.9186344333
 31
0.0
  0
LINE
  5
207
100
AcDbEntity
  8
0
370
         0
  6
HIDDEN
 62
         9
100
AcDbLine
 10
199.3005778767
 20
154.0399547769
 30
0.0
 11
203.3005778767
 21
154.0399547769
 31
0.0
  0
LINE
  5
208
100
AcDbEntity
  8
0
370
         0
  6
HIDDEN
 62
         9
100
AcDbLine
 10
199.3005778767
 20
206.3658565847
 30
0.0
 11
203.3005778767
 21
206.3658565847
 31
0.0
  0
LINE
  5
209
100
AcDbEntity
  8
0
370
         0
  6
HIDDEN
 62
         9
100
AcDbLine
 10
201.3005778767
 20
147.3224403556
 30
0.0
 11
201.3005778767
 21
148.736653918
 31
0.0
  0
LINE
  5
20A
100
AcDbEntity
  8
0
370
         0
  6
HIDDEN
 62
         9
100
AcDbLine
 10
201.3005778767
 20
210.9620506624
 30
0.0
 11
201.3005778767
 21
209.5478371
 31
0.0
  0
LINE
  5
20B
100
AcDbEntity
  8
0
370
         0
  6
HIDDEN
 62
         9
100
AcDbLine
 10
203.3005778767
 20
158.392245509
 30
0.0
 11
193.3005778767
 21
158.392245509
 31
0.0
  0
LINE
  5
20C
100
AcDbEntity
  8
0
370
         0
  6
HIDDEN
 62
         9
100
AcDbLine
 10
193.3005778767
 20
149.892245509
 30
0.0
 11
203.3005778767
 21
149.892245509
 31
0.0
  0
LINE
  5
20D
100
AcDbEntity
  8
0
370
         0
  6
HIDDEN
 62
         9
100
AcDbLine
 10
203.3005778767
 20
143.392245509
 30
0.0
 11
193.3005778767
 21
143.392245509
 31
0.0
  0
LINE
  5
20E
100
AcDbEntity
  8
0
370
         0
  6
HIDDEN
 62
         9
100
AcDbLine
 10
193.3005778767
 20
134.892245509
 30
0.0
 11
203.3005778767
 21
134.892245509
 31
0.0
  0
LINE
  5
20F
100
AcDbEntity
  8
0
370
         0
  6
HIDDEN
 62
         9
100
AcDbLine
 10
203.3005778767
 20
223.392245509
 30
0.0
 11
193.3005778767
 21
223.392245509
 31
0.0
  0
LINE
  5
210
100
AcDbEntity
  8
0
370
         0
  6
HIDDEN
 62
         9
100
AcDbLine
 10
193.3005778767
 20
214.892245509
 30
0.0
 11
203.3005778767
 21
214.892245509
 31
0.0
  0
LINE
  5
211
100
AcDbEntity
  8
0
370
         0
  6
HIDDEN
 62
         9
100
AcDbLine
 10
199.3005778767
 20
172.642245509
 30
0.0
 11
203.3005778767
 21
172.642245509
 31
0.0
  0
LINE
  5
212
100
AcDbEntity
  8
0
370
         0
  6
HIDDEN
 62
         9
100
AcDbLine
 10
203.3005778767
 20
185.642245509
 30
0.0
 11
199.3005778767
 21
185.642245509
 31
0.0
  0
LINE
  5
213
100
AcDbEntity
  8
0
370
         0
  6
HIDDEN
 62
         9
100
AcDbLine
 10
203.3005778767
 20
175.8944159417
 30
0.0
 11
199.3005778767
 21
175.8944159417
 31
0.0
  0
LINE
  5
214
100
AcDbEntity
  8
0
370
         0
  6
HIDDEN
 62
         9
100
AcDbLine
 10
199.3005778767
 20
182.3900750763
 30
0.0
 11
203.3005778767
 21
182.3900750763
 31
0.0
  0
LINE
  5
215
100
AcDbEntity
  8
0
370
         0
  6
HIDDEN
 62
         9
100
AcDbLine
 10
203.3005778767
 20
208.9694099753
 30
0.0
 11
199.3005778767
 21
208.9694099753
 31
0.0
  0
LINE
  5
216
100
AcDbEntity
  8
0
370
         0
  6
HIDDEN
 62
         9
100
AcDbLine
 10
199.3005778767
 20
204.4694099753
 30
0.0
 11
203.3005778767
 21
204.4694099753
 31
0.0
  0
LINE
  5
217
100
AcDbEntity
  8
0
370
         0
  6
HIDDEN
 62
         9
100
AcDbLine
 10
199.3005778767
 20
149.0438695105
 30
0.0
 11
203.3005778767
 21
149.0438695105
 31
0.0
  0
LINE
  5
218
100
AcDbEntity
  8
0
370
         0
  6
HIDDEN
 62
         9
100
AcDbLine
 10
199.3005778767
 20
200.769662507
 30
0.0
 11
203.3005778767
 21
200.769662507
 31
0.0
  0
LINE
  5
219
100
AcDbEntity
  8
0
370
         0
  6
HIDDEN
 62
         9
100
AcDbLine
 10
203.3005778767
 20
165.4687390354
 30
0.0
 11
199.3005778767
 21
165.4687390354
 31
0.0
  0
LINE
  5
21A
100
AcDbEntity
  8
0
370
         0
  6
HIDDEN
 62
         9
100
AcDbLine
 10
203.3005778767
 20
207.0123031941
 30
0.0
 11
199.3005778767
 21
207.0123031941
 31
0.0
  0
LINE
  5
21B
100
AcDbEntity
  8
0
370
         0
  6
HIDDEN
 62
         9
100
AcDbLine
 10
199.3005778767
 20
189.5573519057
 30
0.0
 11
203.3005778767
 21
189.5573519057
 31
0.0
  0
LINE
  5
21C
100
AcDbEntity
  8
0
370
         0
  6
HIDDEN
 62
         9
100
AcDbLine
 10
203.3005778767
 20
225.392245509
 30
0.0
 11
193.3005778767
 21
225.392245509
 31
0.0
  0
LINE
  5
21D
100
AcDbEntity
  8
0
370
         0
  6
HIDDEN
 62
         9
100
AcDbLine
 10
193.3005778767
 20
216.892245509
 30
0.0
 11
203.3005778767
 21
216.892245509
 31
0.0
  0
LINE
  5
21E
100
AcDbEntity
  8
0
370
         0
  6
HIDDEN
 62
         9
100
AcDbLine
 10
203.3005778767
 20
202.7491615311
 30
0.0
 11
199.3005778767
 21
202.7491615311
 31
0.0
  0
LINE
  5
21F
100
AcDbEntity
  8
0
370
         0
  6
HIDDEN
 62
         9
100
AcDbLine
 10
199.3005778767
 20
157.8139663139
 30
0.0
 11
203.3005778767
 21
157.8139663139
 31
0.0
  0
LINE
  5
220
100
AcDbEntity
  8
0
370
         0
  6
HIDDEN
 62
         9
100
AcDbLine
 10
203.3005778767
 20
204.7460954634
 30
0.0
 11
199.3005778767
 21
204.7460954634
 31
0.0
  0
LINE
  5
221
100
AcDbEntity
  8
0
370
         0
  6
HIDDEN
 62
         9
100
AcDbLine
 10
199.3005778767
 20
197.392245509
 30
0.0
 11
201.3005778767
 21
197.392245509
 31
0.0
  0
LINE
  5
222
100
AcDbEntity
  8
0
370
         0
  6
HIDDEN
 62
         9
100
AcDbLine
 10
199.3005778767
 20
136.142245509
 30
0.0
 11
203.3005778767
 21
136.142245509
 31
0.0
  0
LINE
  5
223
100
AcDbEntity
  8
0
370
         0
  6
HIDDEN
 62
         9
100
AcDbLine
 10
201.3005778767
 20
160.142245509
 30
0.0
 11
199.3005778767
 21
160.142245509
 31
0.0
  0
LINE
  5
224
100
AcDbEntity
  8
0
370
         0
  6
HIDDEN
 62
         9
100
AcDbLine
 10
193.3005778767
 20
175.142245509
 30
0.0
 11
201.3005778767
 21
175.142245509
 31
0.0
  0
LINE
  5
225
100
AcDbEntity
  8
0
370
         0
  6
HIDDEN
 62
         9
100
AcDbLine
 10
201.3005778767
 20
183.142245509
 30
0.0
 11
193.3005778767
 21
183.142245509
 31
0.0
  0
LINE
  5
226
100
AcDbEntity
  8
0
370
         0
  6
HIDDEN
 62
         9
100
AcDbLine
 10
203.3005778767
 20
137.780342335
 30
0.0
 11
199.3005778767
 21
137.780342335
 31
0.0
  0
LINE
  5
227
100
AcDbEntity
  8
0
370
         0
  6
HIDDEN
 62
         9
100
AcDbLine
 10
203.3005778767
 20
220.392245509
 30
0.0
 11
199.3005778767
 21
220.392245509
 31
0.0
  0
LINE
  5
228
100
AcDbEntity
  8
0
370
         0
  6
HIDDEN
 62
         9
100
AcDbLine
 10
199.3005778767
 20
161.1716827605
 30
0.0
 11
203.3005778767
 21
161.1716827605
 31
0.0
  0
LINE
  5
229
100
AcDbEntity
  8
0
370
         0
  6
HIDDEN
 62
         9
100
AcDbLine
 10
203.3005778767
 20
197.1128082575
 30
0.0
 11
199.3005778767
 21
197.1128082575
 31
0.0
  0
LINE
  5
22A
100
AcDbEntity
  8
0
370
         0
  6
HIDDEN
 62
         9
100
AcDbLine
 10
203.3005778767
 20
168.82853701
 30
0.0
 11
199.3005778767
 21
168.82853701
 31
0.0
  0
LINE
  5
22B
100
AcDbEntity
  8
0
370
         0
  6
HIDDEN
 62
         9
100
AcDbLine
 10
199.3005778767
 20
189.455954008
 30
0.0
 11
203.3005778767
 21
189.455954008
 31
0.0
  0
LINE
  5
22C
100
AcDbEntity
  8
0
370
         0
  6
HIDDEN
 62
         9
100
AcDbLine
 10
199.3005778767
 20
171.042245509
 30
0.0
 11
203.3005778767
 21
171.042245509
 31
0.0
  0
LINE
  5
22D
100
AcDbEntity
  8
0
370
         0
  6
HIDDEN
 62
         9
100
AcDbLine
 10
203.3005778767
 20
187.242245509
 30
0.0
 11
199.3005778767
 21
187.242245509
 31
0.0
  0
LINE
  5
22E
100
AcDbEntity
  8
0
370
         0
  6
HIDDEN
 62
         9
100
AcDbLine
 10
199.3005778767
 20
149.8579742615
 30
0.0
 11
203.3005778767
 21
149.8579742615
 31
0.0
  0
LINE
  5
22F
100
AcDbEntity
  8
0
370
         0
  6
HIDDEN
 62
         9
100
AcDbLine
 10
203.3005778767
 20
208.4265167564
 30
0.0
 11
199.3005778767
 21
208.4265167564
 31
0.0
  0
LINE
  5
230
100
AcDbEntity
  8
0
370
         0
  6
HIDDEN
 62
         9
100
AcDbLine
 10
199.3005778767
 20
171.542245509
 30
0.0
 11
203.3005778767
 21
171.542245509
 31
0.0
  0
LINE
  5
231
100
AcDbEntity
  8
0
370
         0
  6
HIDDEN
 62
         9
100
AcDbLine
 10
203.3005778767
 20
188.742245509
 30
0.0
 11
199.3005778767
 21
188.742245509
 31
0.0
  0
LINE
  5
232
100
AcDbEntity
  8
0
370
         0
  6
HIDDEN
 62
         9
100
AcDbLine
 10
199.3005778767
 20
146.3224403556
 30
0.0
 11
203.3005778767
 21
146.3224403556
 31
0.0
  0
LINE
  5
233
100
AcDbEntity
  8
0
370
         0
  6
HIDDEN
 62
         9
100
AcDbLine
 10
203.3005778767
 20
211.9620506624
 30
0.0
 11
199.3005778767
 21
211.9620506624
 31
0.0
  0
LINE
  5
234
100
AcDbEntity
  8
0
370
         0
  6
HIDDEN
 62
         9
100
AcDbLine
 10
203.3005778767
 20
156.1006149486
 30
0.0
 11
199.3005778767
 21
156.1006149486
 31
0.0
  0
LINE
  5
235
100
AcDbEntity
  8
0
370
         0
  6
HIDDEN
 62
         9
100
AcDbLine
 10
199.3005778767
 20
202.1838760693
 30
0.0
 11
203.3005778767
 21
202.1838760693
 31
0.0
  0
POLYLINE
  5
236
100
AcDbEntity
  8
0
370
         0
  6
HIDDEN
 62
         9
100
AcDb2dPolyline
 66
         1
 10
0.0
 20
0.0
 30
0.0
 70
       128
  0
VERTEX
  5
237
100
AcDbEntity
  8
0
100
AcDbVertex
100
AcDb2dVertex
 10
201.3005778767
 20
147.3224403556
 30
0.0
  0
VERTEX
  5
238
100
AcDbEntity
  8
0
100
AcDbVertex
100
AcDb2dVertex
 10
201.352113367
 20
146.8286371402
 30
0.0
  0
VERTEX
  5
239
100
AcDbEntity
  8
0
100
AcDbVertex
100
AcDb2dVertex
 10
201.5109460181
 20
146.3469569268
 30
0.0
  0
VERTEX
  5
23A
100
AcDbEntity
  8
0
100
AcDbVertex
100
AcDb2dVertex
 10
201.7634589001
 20
145.92812833
 30
0.0
  0
VERTEX
  5
23B
100
AcDbEntity
  8
0
100
AcDbVertex
100
AcDb2dVertex
 10
202.0953521602
 20
145.5877387973
 30
0.0
  0
VERTEX
  5
23C
100
AcDbEntity
  8
0
100
AcDbVertex
100
AcDb2dVertex
 10
202.4916814044
 20
145.3386064699
 30
0.0
  0
VERTEX
  5
23D
100
AcDbEntity
  8
0
100
AcDbVertex
100
AcDb2dVertex
 10
202.9336619994
 20
145.1928253394
 30
0.0
  0
VERTEX
  5
23E
100
AcDbEntity
  8
0
100
AcDbVertex
100
AcDb2dVertex
 10
203.3005778767
 20
145.1567549306
 30
0.0
  0
SEQEND
  5
23F
100
AcDbEntity
  8
0
  0
POLYLINE
  5
240
100
AcDbEntity
  8
0
370
         0
  6
HIDDEN
 62
         9
100
AcDb2dPolyline
 66
         1
 10
0.0
 20
0.0
 30
0.0
 70
       128
  0
VERTEX
  5
241
100
AcDbEntity
  8
0
100
AcDbVertex
100
AcDb2dVertex
 10
203.3005778767
 20
213.1277360873
 30
0.0
  0
VERTEX
  5
242
100
AcDbEntity
  8
0
100
AcDbVertex
100
AcDb2dVertex
 10
202.8352732853
 20
213.0694062567
 30
0.0
  0
VERTEX
  5
243
100
AcDbEntity
  8
0
100
AcDbVertex
100
AcDb2dVertex
 10
202.398421246
 20
212.8987844198
 30
0.0
  0
VERTEX
  5
244
100
AcDbEntity
  8
0
100
AcDbVertex
100
AcDb2dVertex
 10
202.0253630767
 20
212.6374005916
 30
0.0
  0
VERTEX
  5
245
100
AcDbEntity
  8
0
100
AcDbVertex
100
AcDb2dVertex
 10
201.7215331503
 20
212.3000995358
 30
0.0
  0
VERTEX
  5
246
100
AcDbEntity
  8
0
100
AcDbVertex
100
AcDb2dVertex
 10
201.4923461598
 20
211.895897186
 30
0.0
  0
VERTEX
  5
247
100
AcDbEntity
  8
0
100
AcDbVertex
100
AcDb2dVertex
 10
201.3469428052
 20
211.4307664368
 30
0.0
  0
VERTEX
  5
248
100
AcDbEntity
  8
0
100
AcDbVertex
100
AcDb2dVertex
 10
201.3005778767
 20
210.9620506624
 30
0.0
  0
SEQEND
  5
249
100
AcDbEntity
  8
0
  0
LINE
  5
24A
100
AcDbEntity
  8
0
370
         0
  6
HIDDEN
 62
         9
100
AcDbLine
 10
203.3005778767
 20
152.5650810427
 30
0.0
 11
199.3005778767
 21
152.5650810427
 31
0.0
  0
LINE
  5
24B
100
AcDbEntity
  8
0
370
         0
  6
HIDDEN
 62
         9
100
AcDbLine
 10
199.3005778767
 20
205.7194099753
 30
0.0
 11
203.3005778767
 21
205.7194099753
 31
0.0
  0
CIRCLE
  5
24C
100
AcDbEntity
  8
0
370
        15
  6
Continuous
 62
         7
100
AcDbCircle
 10
353.197623611
 20
139.142245509
 30
0.0
 40
4.25
  0
CIRCLE
  5
24D
100
AcDbEntity
  8
0
370
        15
  6
Continuous
 62
         7
100
AcDbCircle
 10
353.197623611
 20
219.142245509
 30
0.0
 40
4.25
  0
LINE
  5
24E
100
AcDbEntity
  8
0
370
        15
  6
Continuous
 62
         7
100
AcDbLine
 10
263.197623611
 20
129.142245509
 30
0.0
 11
263.197623611
 21
229.142245509
 31
0.0
  0
LINE
  5
24F
100
AcDbEntity
  8
0
370
        15
  6
Continuous
 62
         7
100
AcDbLine
 10
263.197623611
 20
229.142245509
 30
0.0
 11
363.197623611
 21
229.142245509
 31
0.0
  0
LINE
  5
250
100
AcDbEntity
  8
0
370
        15
  6
Continuous
 62
         7
100
AcDbLine
 10
363.197623611
 20
229.142245509
 30
0.0
 11
363.197623611
 21
129.142245509
 31
0.0
  0
CIRCLE
  5
251
100
AcDbEntity
  8
0
370
        15
  6
Continuous
 62
         7
100
AcDbCircle
 10
313.197623611
 20
179.142245509
 30
0.0
 40
4.0
  0
CIRCLE
  5
252
100
AcDbEntity
  8
0
370
        15
  6
Continuous
 62
         7
100
AcDbCircle
 10
273.197623611
 20
219.142245509
 30
0.0
 40
4.25
  0
CIRCLE
  5
253
100
AcDbEntity
  8
0
370
        15
  6
Continuous
 62
         7
100
AcDbCircle
 10
273.197623611
 20
139.142245509
 30
0.0
 40
4.25
  0
CIRCLE
  5
254
100
AcDbEntity
  8
0
370
        15
  6
Continuous
 62
         7
100
AcDbCircle
 10
328.197623611
 20
221.142245509
 30
0.0
 40
4.25
  0
CIRCLE
  5
255
100
AcDbEntity
  8
0
370
        15
  6
Continuous
 62
         7
100
AcDbCircle
 10
271.197623611
 20
154.142245509
 30
0.0
 40
4.25
  0
CIRCLE
  5
256
100
AcDbEntity
  8
0
370
        15
  6
Continuous
 62
         7
100
AcDbCircle
 10
355.197623611
 20
154.142245509
 30
0.0
 40
4.25
  0
LINE
  5
257
100
AcDbEntity
  8
0
370
        15
  6
Continuous
 62
         7
100
AcDbLine
 10
363.197623611
 20
129.142245509
 30
0.0
 11
263.197623611
 21
129.142245509
 31
0.0
  0
ARC
  5
258
100
AcDbEntity
  8
0
370
         0
  6
HIDDEN
 62
         9
100
AcDbCircle
 10
286.4739831545
 20
173.7709331594
 30
0.0
 40
15.0
100
AcDbArc
 50
93.7498183679
 51
156.3690355659
  0
ARC
  5
259
100
AcDbEntity
  8
0
370
         0
  6
HIDDEN
 62
         9
100
AcDbCircle
 10
274.197623611
 20
179.142245509
 30
0.0
 40
1.6
100
AcDbArc
 50
156.3690355659
 51
242.2414593989
  0
LINE
  5
25A
100
AcDbEntity
  8
0
370
         0
  6
HIDDEN
 62
         9
100
AcDbLine
 10
273.4524293184
 20
177.7263763532
 30
0.0
 11
284.8524293184
 21
171.7263763532
 31
0.0
  0
ARC
  5
25B
100
AcDbEntity
  8
0
370
         0
  6
HIDDEN
 62
         9
100
AcDbCircle
 10
281.3778184576
 20
206.7194099753
 30
0.0
 40
1.0
100
AcDbArc
 50
135.0
 51
315.0
  0
LINE
  5
25C
100
AcDbEntity
  8
0
370
         0
  6
HIDDEN
 62
         9
100
AcDbLine
 10
284.9133523635
 20
211.6691574436
 30
0.0
 11
280.6707116764
 21
207.4265167564
 31
0.0
  0
LINE
  5
25D
100
AcDbEntity
  8
0
370
         0
  6
HIDDEN
 62
         9
100
AcDbLine
 10
282.0849252387
 20
206.0123031941
 30
0.0
 11
282.4384786293
 21
206.3658565847
 31
0.0
  0
LINE
  5
25E
100
AcDbEntity
  8
0
370
         0
  6
HIDDEN
 62
         9
100
AcDbLine
 10
282.4384786293
 20
206.3658565847
 30
0.0
 11
284.5597989729
 21
204.2445362411
 31
0.0
  0
ARC
  5
25F
100
AcDbEntity
  8
0
370
         0
  6
HIDDEN
 62
         9
100
AcDbCircle
 10
281.3778184576
 20
151.5650810427
 30
0.0
 40
1.0
100
AcDbArc
 50
45.0
 51
225.0
  0
ARC
  5
260
100
AcDbEntity
  8
0
370
         0
  6
HIDDEN
 62
         9
100
AcDbCircle
 10
284.9133523635
 20
203.1838760693
 30
0.0
 40
1.0
100
AcDbArc
 50
135.0
 51
310.7162358479
  0
LINE
  5
261
100
AcDbEntity
  8
0
370
         0
  6
HIDDEN
 62
         9
100
AcDbLine
 10
284.5597989729
 20
204.2445362411
 30
0.0
 11
284.2062455823
 21
203.8909828505
 31
0.0
  0
LINE
  5
262
100
AcDbEntity
  8
0
370
         0
  6
HIDDEN
 62
         9
100
AcDbLine
 10
280.6707116764
 20
150.8579742615
 30
0.0
 11
284.9133523635
 21
146.6153335744
 31
0.0
  0
ARC
  5
263
100
AcDbEntity
  8
0
370
         0
  6
HIDDEN
 62
         9
100
AcDbCircle
 10
285.6204591447
 20
210.9620506624
 30
0.0
 40
1.0
100
AcDbArc
 50
315.0
 51
135.0
  0
ARC
  5
264
100
AcDbEntity
  8
0
370
         0
  6
HIDDEN
 62
         9
100
AcDbCircle
 10
285.597623611
 20
173.142245509
 30
0.0
 40
1.6
100
AcDbArc
 50
242.2414593989
 51
0.0
  0
LINE
  5
265
100
AcDbEntity
  8
0
370
         0
  6
HIDDEN
 62
         9
100
AcDbLine
 10
284.5597989729
 20
154.0399547769
 30
0.0
 11
282.4384786293
 21
151.9186344333
 31
0.0
  0
LINE
  5
266
100
AcDbEntity
  8
0
370
         0
  6
HIDDEN
 62
         9
100
AcDbLine
 10
282.4384786293
 20
151.9186344333
 30
0.0
 11
282.0849252387
 21
152.2721878239
 31
0.0
  0
LINE
  5
267
100
AcDbEntity
  8
0
370
         0
  6
HIDDEN
 62
         9
100
AcDbLine
 10
285.5656655729
 20
202.425926548
 30
0.0
 11
295.3928191832
 21
191.0073529748
 31
0.0
  0
ARC
  5
268
100
AcDbEntity
  8
0
370
         0
  6
HIDDEN
 62
         9
100
AcDbCircle
 10
285.597623611
 20
187.142245509
 30
0.0
 40
1.6
100
AcDbArc
 50
0.0
 51
93.7498183679
  0
LINE
  5
269
100
AcDbEntity
  8
0
370
         0
  6
HIDDEN
 62
         9
100
AcDbLine
 10
295.3928191832
 20
167.2771380432
 30
0.0
 11
285.5656655729
 21
155.8585644699
 31
0.0
  0
LINE
  5
26A
100
AcDbEntity
  8
0
370
         0
  6
HIDDEN
 62
         9
100
AcDbLine
 10
288.0953328788
 20
207.780070147
 30
0.0
 11
285.9740125353
 21
209.9013904906
 31
0.0
  0
LINE
  5
26B
100
AcDbEntity
  8
0
370
         0
  6
HIDDEN
 62
         9
100
AcDbLine
 10
285.9740125353
 20
209.9013904906
 30
0.0
 11
286.3275659259
 21
210.2549438812
 31
0.0
  0
ARC
  5
26C
100
AcDbEntity
  8
0
370
         0
  6
HIDDEN
 62
         9
100
AcDbCircle
 10
284.9133523635
 20
155.1006149486
 30
0.0
 40
1.0
100
AcDbArc
 50
49.2837641521
 51
225.0
  0
LINE
  5
26D
100
AcDbEntity
  8
0
370
         0
  6
HIDDEN
 62
         9
100
AcDbLine
 10
284.2062455823
 20
154.3935081675
 30
0.0
 11
284.5597989729
 21
154.0399547769
 31
0.0
  0
LINE
  5
26E
100
AcDbEntity
  8
0
370
         0
  6
HIDDEN
 62
         9
100
AcDbLine
 10
287.197623611
 20
181.142245509
 30
0.0
 11
287.197623611
 21
187.142245509
 31
0.0
  0
LINE
  5
26F
100
AcDbEntity
  8
0
370
         0
  6
HIDDEN
 62
         9
100
AcDbLine
 10
287.197623611
 20
177.142245509
 30
0.0
 11
290.197623611
 21
177.142245509
 31
0.0
  0
LINE
  5
270
100
AcDbEntity
  8
0
370
         0
  6
HIDDEN
 62
         9
100
AcDbLine
 10
287.197623611
 20
173.142245509
 30
0.0
 11
287.197623611
 21
177.142245509
 31
0.0
  0
LINE
  5
271
100
AcDbEntity
  8
0
370
         0
  6
HIDDEN
 62
         9
100
AcDbLine
 10
290.197623611
 20
181.142245509
 30
0.0
 11
287.197623611
 21
181.142245509
 31
0.0
  0
LINE
  5
272
100
AcDbEntity
  8
0
370
         0
  6
HIDDEN
 62
         9
100
AcDbLine
 10
288.4488862694
 20
208.1336235376
 30
0.0
 11
288.0953328788
 21
207.780070147
 31
0.0
  0
ARC
  5
273
100
AcDbEntity
  8
0
370
         0
  6
HIDDEN
 62
         9
100
AcDbCircle
 10
289.1559930506
 20
207.4265167564
 30
0.0
 40
1.0
100
AcDbArc
 50
319.2837641521
 51
135.0
  0
ARC
  5
274
100
AcDbEntity
  8
0
370
         0
  6
HIDDEN
 62
         9
100
AcDbCircle
 10
285.6204591447
 20
147.3224403556
 30
0.0
 40
1.0
100
AcDbArc
 50
225.0
 51
45.0
  0
LINE
  5
275
100
AcDbEntity
  8
0
370
         0
  6
HIDDEN
 62
         9
100
AcDbLine
 10
285.9740125353
 20
148.3831005274
 30
0.0
 11
288.0953328788
 21
150.5044208709
 31
0.0
  0
LINE
  5
276
100
AcDbEntity
  8
0
370
         0
  6
HIDDEN
 62
         9
100
AcDbLine
 10
286.3275659259
 20
148.0295471368
 30
0.0
 11
285.9740125353
 21
148.3831005274
 31
0.0
  0
LINE
  5
277
100
AcDbEntity
  8
0
370
         0
  6
HIDDEN
 62
         9
100
AcDbLine
 10
301.3325161452
 20
196.9470499367
 30
0.0
 11
289.9139425719
 21
206.774203547
 31
0.0
  0
LINE
  5
278
100
AcDbEntity
  8
0
370
         0
  6
HIDDEN
 62
         9
100
AcDbLine
 10
290.197623611
 20
185.642245509
 30
0.0
 11
290.197623611
 21
181.142245509
 31
0.0
  0
ARC
  5
279
100
AcDbEntity
  8
0
370
         0
  6
HIDDEN
 62
         9
100
AcDbCircle
 10
291.797623611
 20
185.642245509
 30
0.0
 40
1.6
100
AcDbArc
 50
45.0
 51
180.0
  0
LINE
  5
27A
100
AcDbEntity
  8
0
370
         0
  6
HIDDEN
 62
         9
100
AcDbLine
 10
290.197623611
 20
177.142245509
 30
0.0
 11
290.197623611
 21
172.642245509
 31
0.0
  0
ARC
  5
27B
100
AcDbEntity
  8
0
370
         0
  6
HIDDEN
 62
         9
100
AcDbCircle
 10
291.797623611
 20
172.642245509
 30
0.0
 40
1.6
100
AcDbArc
 50
180.0
 51
315.0
  0
LINE
  5
27C
100
AcDbEntity
  8
0
370
         0
  6
HIDDEN
 62
         9
100
AcDbLine
 10
289.9139425719
 20
151.5102874709
 30
0.0
 11
301.3325161452
 21
161.3374410812
 31
0.0
  0
LINE
  5
27D
100
AcDbEntity
  8
0
370
         0
  6
HIDDEN
 62
         9
100
AcDbLine
 10
288.0953328788
 20
150.5044208709
 30
0.0
 11
288.4488862694
 21
150.1508674803
 31
0.0
  0
ARC
  5
27E
100
AcDbEntity
  8
0
370
         0
  6
HIDDEN
 62
         9
100
AcDbCircle
 10
289.1559930506
 20
150.8579742615
 30
0.0
 40
1.0
100
AcDbArc
 50
225.0
 51
40.7162358479
  0
LINE
  5
27F
100
AcDbEntity
  8
0
370
         0
  6
HIDDEN
 62
         9
100
AcDbLine
 10
293.7289944609
 20
185.9736163589
 30
0.0
 11
292.9289944609
 21
186.7736163589
 31
0.0
  0
LINE
  5
280
100
AcDbEntity
  8
0
370
         0
  6
HIDDEN
 62
         9
100
AcDbLine
 10
292.9289944609
 20
171.5108746591
 30
0.0
 11
293.7289944609
 21
172.3108746591
 31
0.0
  0
ARC
  5
281
100
AcDbEntity
  8
0
370
         0
  6
HIDDEN
 62
         9
100
AcDbCircle
 10
292.597623611
 20
184.842245509
 30
0.0
 40
1.6
100
AcDbArc
 50
10.8069228749
 51
45.0
  0
ARC
  5
282
100
AcDbEntity
  8
0
370
         0
  6
HIDDEN
 62
         9
100
AcDbCircle
 10
292.597623611
 20
173.442245509
 30
0.0
 40
1.6
100
AcDbArc
 50
315.0
 51
349.1930771251
  0
LINE
  5
283
100
AcDbEntity
  8
0
370
         0
  6
HIDDEN
 62
         9
100
AcDbLine
 10
294.197623611
 20
173.142245509
 30
0.0
 11
294.197623611
 21
185.142245509
 31
0.0
  0
LINE
  5
284
100
AcDbEntity
  8
0
370
         0
  6
HIDDEN
 62
         9
100
AcDbLine
 10
294.1692469755
 20
185.142245509
 30
0.0
 11
294.197623611
 21
185.142245509
 31
0.0
  0
LINE
  5
285
100
AcDbEntity
  8
0
370
         0
  6
HIDDEN
 62
         9
100
AcDbLine
 10
294.1692469755
 20
173.142245509
 30
0.0
 11
294.197623611
 21
173.142245509
 31
0.0
  0
ARC
  5
286
100
AcDbEntity
  8
0
370
         0
  6
HIDDEN
 62
         9
100
AcDbCircle
 10
296.2270608625
 20
167.82853701
 30
0.0
 40
1.0
100
AcDbArc
 50
45.0
 51
213.4630409672
  0
ARC
  5
287
100
AcDbEntity
  8
0
370
         0
  6
HIDDEN
 62
         9
100
AcDbCircle
 10
296.2270608625
 20
190.455954008
 30
0.0
 40
1.0
100
AcDbArc
 50
146.5369590328
 51
315.0
  0
LINE
  5
288
100
AcDbEntity
  8
0
370
         0
  6
HIDDEN
 62
         9
100
AcDbLine
 10
296.9341676437
 20
189.7488472268
 30
0.0
 11
302.5910218932
 21
195.4057014763
 31
0.0
  0
LINE
  5
289
100
AcDbEntity
  8
0
370
         0
  6
HIDDEN
 62
         9
100
AcDbLine
 10
302.5910218932
 20
162.8787895417
 30
0.0
 11
296.9341676437
 21
168.5356437912
 31
0.0
  0
ARC
  5
28A
100
AcDbEntity
  8
0
370
         0
  6
HIDDEN
 62
         9
100
AcDbCircle
 10
301.883915112
 20
196.1128082575
 30
0.0
 40
1.0
100
AcDbArc
 50
315.0
 51
123.4630409672
  0
ARC
  5
28B
100
AcDbEntity
  8
0
370
         0
  6
HIDDEN
 62
         9
100
AcDbCircle
 10
301.883915112
 20
162.1716827605
 30
0.0
 40
1.0
100
AcDbArc
 50
236.5369590328
 51
45.0
  0
ARC
  5
28C
100
AcDbEntity
  8
0
370
         0
  6
HIDDEN
 62
         9
100
AcDbCircle
 10
313.197623611
 20
205.892245509
 30
0.0
 40
8.5
100
AcDbArc
 50
194.640110973
 51
345.359889027
  0
ARC
  5
28D
100
AcDbEntity
  8
0
370
         0
  6
HIDDEN
 62
         9
100
AcDbCircle
 10
305.747623611
 20
203.9460954634
 30
0.0
 40
0.8
100
AcDbArc
 50
61.8670574564
 51
194.640110973
  0
ARC
  5
28E
100
AcDbEntity
  8
0
370
         0
  6
HIDDEN
 62
         9
100
AcDbCircle
 10
313.197623611
 20
217.8794188286
 30
0.0
 40
15.0
100
AcDbArc
 50
241.8670574564
 51
264.2608295227
  0
ARC
  5
28F
100
AcDbEntity
  8
0
370
         0
  6
HIDDEN
 62
         9
100
AcDbCircle
 10
308.697624071
 20
138.142245969
 30
0.0
 40
2.00000046
100
AcDbArc
 50
153.6159402482
 51
310.0051928092
  0
ARC
  5
290
100
AcDbEntity
  8
0
370
         0
  6
HIDDEN
 62
         9
100
AcDbCircle
 10
315.8643096153
 20
134.5871571856
 30
0.0
 40
10.0000028319
100
AcDbArc
 50
128.9463309255
 51
153.6159402483
  0
POLYLINE
  5
291
100
AcDbEntity
  8
0
370
         0
  6
HIDDEN
 62
         9
100
AcDb2dPolyline
 66
         1
 10
0.0
 20
0.0
 30
0.0
 70
       128
  0
VERTEX
  5
292
100
AcDbEntity
  8
0
100
AcDbVertex
100
AcDb2dVertex
 10
316.7768160379
 20
143.8858343301
 30
0.0
  0
VERTEX
  5
293
100
AcDbEntity
  8
0
100
AcDbVertex
100
AcDb2dVertex
 10
317.439763492
 20
144.5686891734
 30
0.0
  0
VERTEX
  5
294
100
AcDbEntity
  8
0
100
AcDbVertex
100
AcDb2dVertex
 10
318.0333861578
 20
145.361251028
 30
0.0
  0
VERTEX
  5
295
100
AcDbEntity
  8
0
100
AcDbVertex
100
AcDb2dVertex
 10
318.5479830903
 20
146.250567897
 30
0.0
  0
VERTEX
  5
296
100
AcDbEntity
  8
0
100
AcDbVertex
100
AcDb2dVertex
 10
318.9751447781
 20
147.222106619
 30
0.0
  0
VERTEX
  5
297
100
AcDbEntity
  8
0
100
AcDbVertex
100
AcDb2dVertex
 10
319.3078905714
 20
148.259990368
 30
0.0
  0
VERTEX
  5
298
100
AcDbEntity
  8
0
100
AcDbVertex
100
AcDb2dVertex
 10
319.5407827587
 20
149.3472581119
 30
0.0
  0
VERTEX
  5
299
100
AcDbEntity
  8
0
100
AcDbVertex
100
AcDb2dVertex
 10
319.6700154305
 20
150.4661417883
 30
0.0
  0
VERTEX
  5
29A
100
AcDbEntity
  8
0
100
AcDbVertex
100
AcDb2dVertex
 10
319.6934766743
 20
151.5983566691
 30
0.0
  0
VERTEX
  5
29B
100
AcDbEntity
  8
0
100
AcDbVertex
100
AcDb2dVertex
 10
319.6107830879
 20
152.7254001686
 30
0.0
  0
VERTEX
  5
29C
100
AcDbEntity
  8
0
100
AcDbVertex
100
AcDb2dVertex
 10
319.4232860449
 20
153.8288542113
 30
0.0
  0
VERTEX
  5
29D
100
AcDbEntity
  8
0
100
AcDbVertex
100
AcDb2dVertex
 10
319.1340496103
 20
154.8906862194
 30
0.0
  0
VERTEX
  5
29E
100
AcDbEntity
  8
0
100
AcDbVertex
100
AcDb2dVertex
 10
318.7478004681
 20
155.8935437997
 30
0.0
  0
VERTEX
  5
29F
100
AcDbEntity
  8
0
100
AcDbVertex
100
AcDb2dVertex
 10
318.270850678
 20
156.8210383154
 30
0.0
  0
VERTEX
  5
2A0
100
AcDbEntity
  8
0
100
AcDbVertex
100
AcDb2dVertex
 10
317.710994524
 20
157.6580127084
 30
0.0
  0
VERTEX
  5
2A1
100
AcDbEntity
  8
0
100
AcDbVertex
100
AcDb2dVertex
 10
317.0773811409
 20
158.3907891948
 30
0.0
  0
VERTEX
  5
2A2
100
AcDbEntity
  8
0
100
AcDbVertex
100
AcDb2dVertex
 10
316.3803649995
 20
159.0073927864
 30
0.0
  0
VERTEX
  5
2A3
100
AcDbEntity
  8
0
100
AcDbVertex
100
AcDb2dVertex
 10
315.6313366947
 20
159.4977469853
 30
0.0
  0
VERTEX
  5
2A4
100
AcDbEntity
  8
0
100
AcDbVertex
100
AcDb2dVertex
 10
314.8425368007
 20
159.8538384534
 30
0.0
  0
VERTEX
  5
2A5
100
AcDbEntity
  8
0
100
AcDbVertex
100
AcDb2dVertex
 10
314.0268558367
 20
160.069847966
 30
0.0
  0
VERTEX
  5
2A6
100
AcDbEntity
  8
0
100
AcDbVertex
100
AcDb2dVertex
 10
313.1976236109
 20
160.142245509
 30
0.0
  0
VERTEX
  5
2A7
100
AcDbEntity
  8
0
100
AcDbVertex
100
AcDb2dVertex
 10
312.3683913851
 20
160.069847966
 30
0.0
  0
VERTEX
  5
2A8
100
AcDbEntity
  8
0
100
AcDbVertex
100
AcDb2dVertex
 10
311.5527104212
 20
159.8538384534
 30
0.0
  0
VERTEX
  5
2A9
100
AcDbEntity
  8
0
100
AcDbVertex
100
AcDb2dVertex
 10
310.7639105272
 20
159.4977469853
 30
0.0
  0
VERTEX
  5
2AA
100
AcDbEntity
  8
0
100
AcDbVertex
100
AcDb2dVertex
 10
310.0148822224
 20
159.0073927863
 30
0.0
  0
VERTEX
  5
2AB
100
AcDbEntity
  8
0
100
AcDbVertex
100
AcDb2dVertex
 10
309.317866081
 20
158.3907891948
 30
0.0
  0
VERTEX
  5
2AC
100
AcDbEntity
  8
0
100
AcDbVertex
100
AcDb2dVertex
 10
308.6842526979
 20
157.6580127084
 30
0.0
  0
VERTEX
  5
2AD
100
AcDbEntity
  8
0
100
AcDbVertex
100
AcDb2dVertex
 10
308.1243965439
 20
156.8210383154
 30
0.0
  0
VERTEX
  5
2AE
100
AcDbEntity
  8
0
100
AcDbVertex
100
AcDb2dVertex
 10
307.6474467538
 20
155.8935437997
 30
0.0
  0
VERTEX
  5
2AF
100
AcDbEntity
  8
0
100
AcDbVertex
100
AcDb2dVertex
 10
307.2611976116
 20
154.8906862194
 30
0.0
  0
VERTEX
  5
2B0
100
AcDbEntity
  8
0
100
AcDbVertex
100
AcDb2dVertex
 10
306.971961177
 20
153.8288542113
 30
0.0
  0
VERTEX
  5
2B1
100
AcDbEntity
  8
0
100
AcDbVertex
100
AcDb2dVertex
 10
306.784464134
 20
152.7254001685
 30
0.0
  0
VERTEX
  5
2B2
100
AcDbEntity
  8
0
100
AcDbVertex
100
AcDb2dVertex
 10
306.7017705476
 20
151.5983566691
 30
0.0
  0
VERTEX
  5
2B3
100
AcDbEntity
  8
0
100
AcDbVertex
100
AcDb2dVertex
 10
306.7252317914
 20
150.4661417883
 30
0.0
  0
VERTEX
  5
2B4
100
AcDbEntity
  8
0
100
AcDbVertex
100
AcDb2dVertex
 10
306.8544644632
 20
149.3472581119
 30
0.0
  0
VERTEX
  5
2B5
100
AcDbEntity
  8
0
100
AcDbVertex
100
AcDb2dVertex
 10
307.0873566506
 20
148.259990368
 30
0.0
  0
VERTEX
  5
2B6
100
AcDbEntity
  8
0
100
AcDbVertex
100
AcDb2dVertex
 10
307.4201024438
 20
147.2221066189
 30
0.0
  0
VERTEX
  5
2B7
100
AcDbEntity
  8
0
100
AcDbVertex
100
AcDb2dVertex
 10
307.8472641316
 20
146.250567897
 30
0.0
  0
VERTEX
  5
2B8
100
AcDbEntity
  8
0
100
AcDbVertex
100
AcDb2dVertex
 10
308.3618610641
 20
145.361251028
 30
0.0
  0
VERTEX
  5
2B9
100
AcDbEntity
  8
0
100
AcDbVertex
100
AcDb2dVertex
 10
308.9554837299
 20
144.5686891734
 30
0.0
  0
VERTEX
  5
2BA
100
AcDbEntity
  8
0
100
AcDbVertex
100
AcDb2dVertex
 10
309.618431184
 20
143.8858343301
 30
0.0
  0
SEQEND
  5
2BB
100
AcDbEntity
  8
0
  0
ARC
  5
2BC
100
AcDbEntity
  8
0
370
         0
  6
HIDDEN
 62
         9
100
AcDbCircle
 10
310.197623611
 20
214.142245509
 30
0.0
 40
1.0
100
AcDbArc
 50
90.0
 51
270.0
  0
ARC
  5
2BD
100
AcDbEntity
  8
0
370
         0
  6
HIDDEN
 62
         9
100
AcDbCircle
 10
308.9497941035
 20
143.142245509
 30
0.0
 40
0.9999999402
100
AcDbArc
 50
308.9463309233
 51
48.0380359368
  0
LINE
  5
2BE
100
AcDbEntity
  8
0
370
         0
  6
HIDDEN
 62
         9
100
AcDbLine
 10
310.197623611
 20
213.142245509
 30
0.0
 11
311.697623611
 21
213.142245509
 31
0.0
  0
LINE
  5
2BF
100
AcDbEntity
  8
0
370
         0
  6
HIDDEN
 62
         9
100
AcDbLine
 10
311.697623611
 20
215.142245509
 30
0.0
 11
310.197623611
 21
215.142245509
 31
0.0
  0
ARC
  5
2C0
100
AcDbEntity
  8
0
370
         0
  6
HIDDEN
 62
         9
100
AcDbCircle
 10
313.197623611
 20
132.780342335
 30
0.0
 40
5.0
100
AcDbArc
 50
49.9948071908
 51
130.0051928092
  0
ARC
  5
2C1
100
AcDbEntity
  8
0
370
         0
  6
HIDDEN
 62
         9
100
AcDbCircle
 10
313.197623611
 20
218.142245509
 30
0.0
 40
2.25
100
AcDbArc
 50
311.8103148958
 51
228.1896851042
  0
LINE
  5
2C2
100
AcDbEntity
  8
0
370
         0
  6
HIDDEN
 62
         9
100
AcDbLine
 10
311.697623611
 20
213.142245509
 30
0.0
 11
311.697623611
 21
202.954607272
 31
0.0
  0
LINE
  5
2C3
100
AcDbEntity
  8
0
370
         0
  6
HIDDEN
 62
         9
100
AcDbLine
 10
311.697623611
 20
216.4651945259
 30
0.0
 11
311.697623611
 21
215.142245509
 31
0.0
  0
LINE
  5
2C4
100
AcDbEntity
  8
0
370
         0
  6
HIDDEN
 62
         9
100
AcDbLine
 10
314.697623611
 20
202.954607272
 30
0.0
 11
314.697623611
 21
213.142245509
 31
0.0
  0
ARC
  5
2C5
100
AcDbEntity
  8
0
370
         0
  6
HIDDEN
 62
         9
100
AcDbCircle
 10
313.197623611
 20
217.8794188286
 30
0.0
 40
15.0
100
AcDbArc
 50
275.7391704773
 51
298.1329425436
  0
LINE
  5
2C6
100
AcDbEntity
  8
0
370
         0
  6
HIDDEN
 62
         9
100
AcDbLine
 10
316.197623611
 20
215.142245509
 30
0.0
 11
314.697623611
 21
215.142245509
 31
0.0
  0
LINE
  5
2C7
100
AcDbEntity
  8
0
370
         0
  6
HIDDEN
 62
         9
100
AcDbLine
 10
314.697623611
 20
215.142245509
 30
0.0
 11
314.697623611
 21
216.4651945259
 31
0.0
  0
LINE
  5
2C8
100
AcDbEntity
  8
0
370
         0
  6
HIDDEN
 62
         9
100
AcDbLine
 10
314.697623611
 20
213.142245509
 30
0.0
 11
316.197623611
 21
213.142245509
 31
0.0
  0
ARC
  5
2C9
100
AcDbEntity
  8
0
370
         0
  6
HIDDEN
 62
         9
100
AcDbCircle
 10
316.197623611
 20
214.142245509
 30
0.0
 40
1.0
100
AcDbArc
 50
270.0
 51
90.0
  0
ARC
  5
2CA
100
AcDbEntity
  8
0
370
         0
  6
HIDDEN
 62
         9
100
AcDbCircle
 10
317.6976231509
 20
138.142245969
 30
0.0
 40
2.00000046
100
AcDbArc
 50
229.9948071909
 51
26.3840597517
  0
ARC
  5
2CB
100
AcDbEntity
  8
0
370
         0
  6
HIDDEN
 62
         9
100
AcDbCircle
 10
317.4454531184
 20
143.142245509
 30
0.0
 40
0.9999999402
100
AcDbArc
 50
131.9619640633
 51
231.0536690747
  0
ARC
  5
2CC
100
AcDbEntity
  8
0
370
         0
  6
HIDDEN
 62
         9
100
AcDbCircle
 10
310.5309376066
 20
134.5871571856
 30
0.0
 40
10.0000028319
100
AcDbArc
 50
26.3840597517
 51
51.0536690746
  0
ARC
  5
2CD
100
AcDbEntity
  8
0
370
         0
  6
HIDDEN
 62
         9
100
AcDbCircle
 10
320.647623611
 20
203.9460954634
 30
0.0
 40
0.8
100
AcDbArc
 50
345.359889027
 51
118.1329425436
  0
ARC
  5
2CE
100
AcDbEntity
  8
0
370
         0
  6
HIDDEN
 62
         9
100
AcDbCircle
 10
323.7335146506
 20
160.5453371638
 30
0.0
 40
1.6
100
AcDbArc
 50
145.8069228749
 51
180.0
  0
ARC
  5
2CF
100
AcDbEntity
  8
0
370
         0
  6
HIDDEN
 62
         9
100
AcDbCircle
 10
323.7335146506
 20
159.4139663139
 30
0.0
 40
1.6
100
AcDbArc
 50
180.0
 51
315.0
  0
LINE
  5
2D0
100
AcDbEntity
  8
0
370
         0
  6
HIDDEN
 62
         9
100
AcDbLine
 10
322.1335146506
 20
160.5453371638
 30
0.0
 11
322.1335146506
 21
159.4139663139
 31
0.0
  0
LINE
  5
2D1
100
AcDbEntity
  8
0
370
         0
  6
HIDDEN
 62
         9
100
AcDbLine
 10
330.8752931406
 20
169.9498573536
 30
0.0
 11
322.3900117664
 21
161.4645759793
 31
0.0
  0
LINE
  5
2D2
100
AcDbEntity
  8
0
370
         0
  6
HIDDEN
 62
         9
100
AcDbLine
 10
322.4100770777
 20
161.444510668
 30
0.0
 11
322.3900117664
 21
161.4645759793
 31
0.0
  0
ARC
  5
2D3
100
AcDbEntity
  8
0
370
         0
  6
HIDDEN
 62
         9
100
AcDbCircle
 10
332.1127300077
 20
198.0573519057
 30
0.0
 40
8.5
100
AcDbArc
 50
149.640110973
 51
300.359889027
  0
ARC
  5
2D4
100
AcDbEntity
  8
0
370
         0
  6
HIDDEN
 62
         9
100
AcDbCircle
 10
325.4686485934
 20
201.9491615311
 30
0.0
 40
0.8
100
AcDbArc
 50
16.8670574564
 51
149.640110973
  0
LINE
  5
2D5
100
AcDbEntity
  8
0
370
         0
  6
HIDDEN
 62
         9
100
AcDbLine
 10
324.8648855005
 20
158.282595464
 30
0.0
 11
328.0468660159
 21
161.4645759793
 31
0.0
  0
ARC
  5
2D6
100
AcDbEntity
  8
0
370
         0
  6
HIDDEN
 62
         9
100
AcDbCircle
 10
340.5889415493
 20
206.5335634473
 30
0.0
 40
15.0
100
AcDbArc
 50
196.8670574564
 51
219.2608295227
  0
ARC
  5
2D7
100
AcDbEntity
  8
0
370
         0
  6
HIDDEN
 62
         9
100
AcDbCircle
 10
327.0569165222
 20
153.9692440987
 30
0.0
 40
1.6
100
AcDbArc
 50
135.0
 51
228.7498183679
  0
LINE
  5
2D8
100
AcDbEntity
  8
0
370
         0
  6
HIDDEN
 62
         9
100
AcDbLine
 10
330.1681863594
 20
159.3432556358
 30
0.0
 11
325.9255456723
 21
155.1006149486
 31
0.0
  0
ARC
  5
2D9
100
AcDbEntity
  8
0
370
         0
  6
HIDDEN
 62
         9
100
AcDbCircle
 10
335.892182382
 20
164.0438695105
 30
0.0
 40
15.0
100
AcDbArc
 50
228.7498183679
 51
291.3690355659
  0
LINE
  5
2DA
100
AcDbEntity
  8
0
370
         0
  6
HIDDEN
 62
         9
100
AcDbLine
 10
328.0468660159
 20
161.4645759793
 30
0.0
 11
330.1681863594
 21
159.3432556358
 31
0.0
  0
LINE
  5
2DB
100
AcDbEntity
  8
0
370
         0
  6
HIDDEN
 62
         9
100
AcDbLine
 10
336.1785939995
 20
204.2445362411
 30
0.0
 11
328.9748459179
 21
197.0407881595
 31
0.0
  0
LINE
  5
2DC
100
AcDbEntity
  8
0
370
         0
  6
HIDDEN
 62
         9
100
AcDbLine
 10
331.0961662614
 20
194.9194678159
 30
0.0
 11
338.2999143431
 21
202.1232158975
 31
0.0
  0
ARC
  5
2DD
100
AcDbEntity
  8
0
370
         0
  6
HIDDEN
 62
         9
100
AcDbCircle
 10
340.5889415493
 20
206.5335634473
 30
0.0
 40
15.0
100
AcDbArc
 50
230.7391704773
 51
253.1329425436
  0
LINE
  5
2DE
100
AcDbEntity
  8
0
370
         0
  6
HIDDEN
 62
         9
100
AcDbLine
 10
330.8752931406
 20
164.2930031041
 30
0.0
 11
334.057273656
 21
167.4749836194
 31
0.0
  0
ARC
  5
2DF
100
AcDbEntity
  8
0
370
         0
  6
HIDDEN
 62
         9
100
AcDbCircle
 10
331.7945319562
 20
168.6063544693
 30
0.0
 40
1.6
100
AcDbArc
 50
90.0
 51
124.1930771251
  0
LINE
  5
2E0
100
AcDbEntity
  8
0
370
         0
  6
HIDDEN
 62
         9
100
AcDbLine
 10
330.895358452
 20
169.9297920422
 30
0.0
 11
330.8752931406
 21
169.9498573536
 31
0.0
  0
LINE
  5
2E1
100
AcDbEntity
  8
0
370
         0
  6
HIDDEN
 62
         9
100
AcDbLine
 10
332.9966134842
 20
162.1716827605
 30
0.0
 11
330.8752931406
 21
164.2930031041
 31
0.0
  0
LINE
  5
2E2
100
AcDbEntity
  8
0
370
         0
  6
HIDDEN
 62
         9
100
AcDbLine
 10
332.9259028061
 20
170.2063544693
 30
0.0
 11
331.7945319562
 21
170.2063544693
 31
0.0
  0
POLYLINE
  5
2E3
100
AcDbEntity
  8
0
370
         0
  6
HIDDEN
 62
         9
100
AcDb2dPolyline
 66
         1
 10
0.0
 20
0.0
 30
0.0
 70
       128
  0
VERTEX
  5
2E4
100
AcDbEntity
  8
0
100
AcDbVertex
100
AcDb2dVertex
 10
348.4540347898
 20
182.7214379359
 30
0.0
  0
VERTEX
  5
2E5
100
AcDbEntity
  8
0
100
AcDbVertex
100
AcDb2dVertex
 10
347.7711799466
 20
183.38438539
 30
0.0
  0
VERTEX
  5
2E6
100
AcDbEntity
  8
0
100
AcDbVertex
100
AcDb2dVertex
 10
346.9786180919
 20
183.9780080559
 30
0.0
  0
VERTEX
  5
2E7
100
AcDbEntity
  8
0
100
AcDbVertex
100
AcDb2dVertex
 10
346.0893012229
 20
184.4926049883
 30
0.0
  0
VERTEX
  5
2E8
100
AcDbEntity
  8
0
100
AcDbVertex
100
AcDb2dVertex
 10
345.117762501
 20
184.9197666762
 30
0.0
  0
VERTEX
  5
2E9
100
AcDbEntity
  8
0
100
AcDbVertex
100
AcDb2dVertex
 10
344.0798787519
 20
185.2525124694
 30
0.0
  0
VERTEX
  5
2EA
100
AcDbEntity
  8
0
100
AcDbVertex
100
AcDb2dVertex
 10
342.992611008
 20
185.4854046567
 30
0.0
  0
VERTEX
  5
2EB
100
AcDbEntity
  8
0
100
AcDbVertex
100
AcDb2dVertex
 10
341.8737273316
 20
185.6146373285
 30
0.0
  0
VERTEX
  5
2EC
100
AcDbEntity
  8
0
100
AcDbVertex
100
AcDb2dVertex
 10
340.7415124508
 20
185.6380985723
 30
0.0
  0
VERTEX
  5
2ED
100
AcDbEntity
  8
0
100
AcDbVertex
100
AcDb2dVertex
 10
339.6144689514
 20
185.5554049859
 30
0.0
  0
VERTEX
  5
2EE
100
AcDbEntity
  8
0
100
AcDbVertex
100
AcDb2dVertex
 10
338.5110149086
 20
185.3679079429
 30
0.0
  0
VERTEX
  5
2EF
100
AcDbEntity
  8
0
100
AcDbVertex
100
AcDb2dVertex
 10
337.4491829005
 20
185.0786715083
 30
0.0
  0
VERTEX
  5
2F0
100
AcDbEntity
  8
0
100
AcDbVertex
100
AcDb2dVertex
 10
336.4463253203
 20
184.6924223661
 30
0.0
  0
VERTEX
  5
2F1
100
AcDbEntity
  8
0
100
AcDbVertex
100
AcDb2dVertex
 10
335.5188308045
 20
184.215472576
 30
0.0
  0
VERTEX
  5
2F2
100
AcDbEntity
  8
0
100
AcDbVertex
100
AcDb2dVertex
 10
334.6818564115
 20
183.655616422
 30
0.0
  0
VERTEX
  5
2F3
100
AcDbEntity
  8
0
100
AcDbVertex
100
AcDb2dVertex
 10
333.9490799252
 20
183.0220030389
 30
0.0
  0
VERTEX
  5
2F4
100
AcDbEntity
  8
0
100
AcDbVertex
100
AcDb2dVertex
 10
333.3324763336
 20
182.3249868976
 30
0.0
  0
VERTEX
  5
2F5
100
AcDbEntity
  8
0
100
AcDbVertex
100
AcDb2dVertex
 10
332.8421221347
 20
181.5759585927
 30
0.0
  0
VERTEX
  5
2F6
100
AcDbEntity
  8
0
100
AcDbVertex
100
AcDb2dVertex
 10
332.4860306665
 20
180.7871586987
 30
0.0
  0
VERTEX
  5
2F7
100
AcDbEntity
  8
0
100
AcDbVertex
100
AcDb2dVertex
 10
332.2700211539
 20
179.9714777348
 30
0.0
  0
VERTEX
  5
2F8
100
AcDbEntity
  8
0
100
AcDbVertex
100
AcDb2dVertex
 10
332.197623611
 20
179.142245509
 30
0.0
  0
VERTEX
  5
2F9
100
AcDbEntity
  8
0
100
AcDbVertex
100
AcDb2dVertex
 10
332.2700211539
 20
178.3130132832
 30
0.0
  0
VERTEX
  5
2FA
100
AcDbEntity
  8
0
100
AcDbVertex
100
AcDb2dVertex
 10
332.4860306665
 20
177.4973323193
 30
0.0
  0
VERTEX
  5
2FB
100
AcDbEntity
  8
0
100
AcDbVertex
100
AcDb2dVertex
 10
332.8421221347
 20
176.7085324253
 30
0.0
  0
VERTEX
  5
2FC
100
AcDbEntity
  8
0
100
AcDbVertex
100
AcDb2dVertex
 10
333.3324763336
 20
175.9595041204
 30
0.0
  0
VERTEX
  5
2FD
100
AcDbEntity
  8
0
100
AcDbVertex
100
AcDb2dVertex
 10
333.9490799252
 20
175.262487979
 30
0.0
  0
VERTEX
  5
2FE
100
AcDbEntity
  8
0
100
AcDbVertex
100
AcDb2dVertex
 10
334.6818564115
 20
174.6288745959
 30
0.0
  0
VERTEX
  5
2FF
100
AcDbEntity
  8
0
100
AcDbVertex
100
AcDb2dVertex
 10
335.5188308045
 20
174.069018442
 30
0.0
  0
VERTEX
  5
300
100
AcDbEntity
  8
0
100
AcDbVertex
100
AcDb2dVertex
 10
336.4463253203
 20
173.5920686519
 30
0.0
  0
VERTEX
  5
301
100
AcDbEntity
  8
0
100
AcDbVertex
100
AcDb2dVertex
 10
337.4491829006
 20
173.2058195097
 30
0.0
  0
VERTEX
  5
302
100
AcDbEntity
  8
0
100
AcDbVertex
100
AcDb2dVertex
 10
338.5110149087
 20
172.9165830751
 30
0.0
  0
VERTEX
  5
303
100
AcDbEntity
  8
0
100
AcDbVertex
100
AcDb2dVertex
 10
339.6144689514
 20
172.729086032
 30
0.0
  0
VERTEX
  5
304
100
AcDbEntity
  8
0
100
AcDbVertex
100
AcDb2dVertex
 10
340.7415124508
 20
172.6463924457
 30
0.0
  0
VERTEX
  5
305
100
AcDbEntity
  8
0
100
AcDbVertex
100
AcDb2dVertex
 10
341.8737273316
 20
172.6698536895
 30
0.0
  0
VERTEX
  5
306
100
AcDbEntity
  8
0
100
AcDbVertex
100
AcDb2dVertex
 10
342.992611008
 20
172.7990863612
 30
0.0
  0
VERTEX
  5
307
100
AcDbEntity
  8
0
100
AcDbVertex
100
AcDb2dVertex
 10
344.0798787519
 20
173.0319785486
 30
0.0
  0
VERTEX
  5
308
100
AcDbEntity
  8
0
100
AcDbVertex
100
AcDb2dVertex
 10
345.117762501
 20
173.3647243418
 30
0.0
  0
VERTEX
  5
309
100
AcDbEntity
  8
0
100
AcDbVertex
100
AcDb2dVertex
 10
346.089301223
 20
173.7918860296
 30
0.0
  0
VERTEX
  5
30A
100
AcDbEntity
  8
0
100
AcDbVertex
100
AcDb2dVertex
 10
346.978618092
 20
174.3064829621
 30
0.0
  0
VERTEX
  5
30B
100
AcDbEntity
  8
0
100
AcDbVertex
100
AcDb2dVertex
 10
347.7711799466
 20
174.9001056279
 30
0.0
  0
VERTEX
  5
30C
100
AcDbEntity
  8
0
100
AcDbVertex
100
AcDb2dVertex
 10
348.4540347898
 20
175.5630530821
 30
0.0
  0
SEQEND
  5
30D
100
AcDbEntity
  8
0
  0
ARC
  5
30E
100
AcDbEntity
  8
0
370
         0
  6
HIDDEN
 62
         9
100
AcDbCircle
 10
332.9259028061
 20
168.6063544693
 30
0.0
 40
1.6
100
AcDbArc
 50
315.0
 51
90.0
  0
LINE
  5
30F
100
AcDbEntity
  8
0
370
         0
  6
HIDDEN
 62
         9
100
AcDbLine
 10
335.8250406089
 20
165.0001098853
 30
0.0
 11
332.9966134842
 21
162.1716827605
 31
0.0
  0
ARC
  5
310
100
AcDbEntity
  8
0
370
         0
  6
HIDDEN
 62
         9
100
AcDbCircle
 10
335.8250406089
 20
206.0123031941
 30
0.0
 40
1.0
100
AcDbArc
 50
45.0
 51
225.0
  0
LINE
  5
311
100
AcDbEntity
  8
0
370
         0
  6
HIDDEN
 62
         9
100
AcDbLine
 10
335.1179338277
 20
205.3051964129
 30
0.0
 11
336.1785939995
 21
204.2445362411
 31
0.0
  0
ARC
  5
312
100
AcDbEntity
  8
0
370
         0
  6
HIDDEN
 62
         9
100
AcDbCircle
 10
336.0045396331
 20
191.4132704914
 30
0.0
 40
0.8
100
AcDbArc
 50
300.359889027
 51
73.1329425436
  0
ARC
  5
313
100
AcDbEntity
  8
0
370
         0
  6
HIDDEN
 62
         9
100
AcDbCircle
 10
336.9564114588
 20
163.8687390354
 30
0.0
 40
1.6
100
AcDbArc
 50
17.2414593989
 51
135.0
  0
LINE
  5
314
100
AcDbEntity
  8
0
370
         0
  6
HIDDEN
 62
         9
100
AcDbLine
 10
337.5928075619
 20
205.6587498035
 30
0.0
 11
336.5321473901
 21
206.7194099753
 31
0.0
  0
LINE
  5
315
100
AcDbEntity
  8
0
370
         0
  6
HIDDEN
 62
         9
100
AcDbLine
 10
338.5282737829
 20
206.5942160245
 30
0.0
 11
337.5928075619
 21
205.6587498035
 31
0.0
  0
LINE
  5
316
100
AcDbEntity
  8
0
370
         0
  6
HIDDEN
 62
         9
100
AcDbLine
 10
338.2999143431
 20
202.1232158975
 30
0.0
 11
339.3605745149
 21
201.0625557258
 31
0.0
  0
ARC
  5
317
100
AcDbEntity
  8
0
370
         0
  6
HIDDEN
 62
         9
100
AcDbCircle
 10
340.7747880772
 20
206.7194099753
 30
0.0
 40
2.25
100
AcDbArc
 50
266.8103148958
 51
183.1896851042
  0
LINE
  5
318
100
AcDbEntity
  8
0
370
         0
  6
HIDDEN
 62
         9
100
AcDbLine
 10
342.3028906961
 20
152.0393197865
 30
0.0
 11
338.4845140777
 21
164.3429777791
 31
0.0
  0
ARC
  5
319
100
AcDbEntity
  8
0
370
         0
  6
HIDDEN
 62
         9
100
AcDbCircle
 10
340.067681296
 20
201.769662507
 30
0.0
 40
1.0
100
AcDbArc
 50
225.0
 51
45.0
  0
LINE
  5
31A
100
AcDbEntity
  8
0
370
         0
  6
HIDDEN
 62
         9
100
AcDbLine
 10
340.7747880772
 20
202.4767692881
 30
0.0
 11
339.7141279054
 21
203.5374294599
 31
0.0
  0
LINE
  5
31B
100
AcDbEntity
  8
0
370
         0
  6
HIDDEN
 62
         9
100
AcDbLine
 10
339.7141279054
 20
203.5374294599
 30
0.0
 11
340.6495941264
 21
204.4728956809
 31
0.0
  0
ARC
  5
31C
100
AcDbEntity
  8
0
370
         0
  6
HIDDEN
 62
         9
100
AcDbCircle
 10
340.7747880772
 20
151.5650810427
 30
0.0
 40
1.6
100
AcDbArc
 50
291.3690355659
 51
17.2414593989
  0
ARC
  5
31D
100
AcDbEntity
  8
0
370
         0
  6
HIDDEN
 62
         9
100
AcDbCircle
 10
349.1976236109
 20
183.3900750164
 30
0.0
 40
0.9999999402
100
AcDbArc
 50
221.9619640633
 51
321.0536690745
  0
ARC
  5
31E
100
AcDbEntity
  8
0
370
         0
  6
HIDDEN
 62
         9
100
AcDbCircle
 10
349.197623611
 20
174.8944160015
 30
0.0
 40
0.9999999402
100
AcDbArc
 50
38.9463309288
 51
138.0380359368
  0
ARC
  5
31F
100
AcDbEntity
  8
0
370
         0
  6
HIDDEN
 62
         9
100
AcDbCircle
 10
357.7527119344
 20
176.4755595046
 30
0.0
 40
10.0000028319
100
AcDbArc
 50
116.3840597517
 51
141.0536690746
  0
ARC
  5
320
100
AcDbEntity
  8
0
370
         0
  6
HIDDEN
 62
         9
100
AcDbCircle
 10
357.7527119344
 20
181.8089315133
 30
0.0
 40
10.0000028319
100
AcDbArc
 50
218.9463309255
 51
243.6159402483
  0
ARC
  5
321
100
AcDbEntity
  8
0
370
         0
  6
HIDDEN
 62
         9
100
AcDbCircle
 10
354.1976231509
 20
183.642245049
 30
0.0
 40
2.00000046
100
AcDbArc
 50
319.9948071908
 51
116.3840597517
  0
ARC
  5
322
100
AcDbEntity
  8
0
370
         0
  6
HIDDEN
 62
         9
100
AcDbCircle
 10
354.1976231509
 20
174.642245969
 30
0.0
 40
2.00000046
100
AcDbArc
 50
243.6159402484
 51
40.0051928092
  0
ARC
  5
323
100
AcDbEntity
  8
0
370
         0
  6
HIDDEN
 62
         9
100
AcDbCircle
 10
359.559526785
 20
179.142245509
 30
0.0
 40
5.0
100
AcDbArc
 50
139.9948071908
 51
220.0051928092
  0
ARC
  5
324
100
AcDbEntity
  8
0
370
         0
  6
HIDDEN
 62
         9
100
AcDbCircle
 10
280.8121330326
 20
210.9620506624
 30
0.0
 40
1.6
100
AcDbArc
 50
135.0
 51
225.0
  0
LINE
  5
325
100
AcDbEntity
  8
0
370
         0
  6
HIDDEN
 62
         9
100
AcDbLine
 10
279.6807621827
 20
209.8306798125
 30
0.0
 11
281.3778184576
 21
208.1336235376
 31
0.0
  0
LINE
  5
326
100
AcDbEntity
  8
0
370
         0
  6
HIDDEN
 62
         9
100
AcDbLine
 10
280.2464476077
 20
212.6591069372
 30
0.0
 11
279.6807621827
 21
212.0934215123
 31
0.0
  0
ARC
  5
327
100
AcDbEntity
  8
0
370
         0
  6
HIDDEN
 62
         9
100
AcDbCircle
 10
281.3778184576
 20
211.5277360873
 30
0.0
 40
1.6
100
AcDbArc
 50
45.0
 51
135.0
  0
LINE
  5
328
100
AcDbEntity
  8
0
370
         0
  6
HIDDEN
 62
         9
100
AcDbLine
 10
284.2062455823
 20
210.9620506624
 30
0.0
 11
282.5091893075
 21
212.6591069372
 31
0.0
  0
ARC
  5
329
100
AcDbEntity
  8
0
370
         0
  6
HIDDEN
 62
         9
100
AcDbCircle
 10
280.8121330326
 20
147.3224403556
 30
0.0
 40
1.6
100
AcDbArc
 50
135.0
 51
225.0
  0
LINE
  5
32A
100
AcDbEntity
  8
0
370
         0
  6
HIDDEN
 62
         9
100
AcDbLine
 10
281.3778184576
 20
150.1508674803
 30
0.0
 11
279.6807621827
 21
148.4538112055
 31
0.0
  0
LINE
  5
32B
100
AcDbEntity
  8
0
370
         0
  6
HIDDEN
 62
         9
100
AcDbLine
 10
279.6807621827
 20
146.1910695057
 30
0.0
 11
280.2464476077
 21
145.6253840807
 31
0.0
  0
ARC
  5
32C
100
AcDbEntity
  8
0
370
         0
  6
HIDDEN
 62
         9
100
AcDbCircle
 10
281.3778184576
 20
146.7567549306
 30
0.0
 40
1.6
100
AcDbArc
 50
225.0
 51
315.0
  0
LINE
  5
32D
100
AcDbEntity
  8
0
370
         0
  6
HIDDEN
 62
         9
100
AcDbLine
 10
282.5091893075
 20
145.6253840807
 30
0.0
 11
284.2062455823
 21
147.3224403556
 31
0.0
  0
LINE
  5
32E
100
AcDbEntity
  8
0
370
         0
  6
HIDDEN
 62
         9
100
AcDbLine
 10
294.197623611
 20
181.142245509
 30
0.0
 11
298.3315548636
 21
181.142245509
 31
0.0
  0
POLYLINE
  5
32F
100
AcDbEntity
  8
0
370
         0
  6
HIDDEN
 62
         9
100
AcDb2dPolyline
 66
         1
 10
0.0
 20
0.0
 30
0.0
 70
       128
  0
VERTEX
  5
330
100
AcDbEntity
  8
0
100
AcDbVertex
100
AcDb2dVertex
 10
332.6274747806
 20
181.142245509
 30
0.0
  0
VERTEX
  5
331
100
AcDbEntity
  8
0
100
AcDbVertex
100
AcDb2dVertex
 10
332.3057461116
 20
180.1545992392
 30
0.0
  0
VERTEX
  5
332
100
AcDbEntity
  8
0
100
AcDbVertex
100
AcDb2dVertex
 10
332.197623611
 20
179.142245509
 30
0.0
  0
VERTEX
  5
333
100
AcDbEntity
  8
0
100
AcDbVertex
100
AcDb2dVertex
 10
332.3057461116
 20
178.1298917788
 30
0.0
  0
VERTEX
  5
334
100
AcDbEntity
  8
0
100
AcDbVertex
100
AcDb2dVertex
 10
332.6274747806
 20
177.142245509
 30
0.0
  0
SEQEND
  5
335
100
AcDbEntity
  8
0
  0
POLYLINE
  5
336
100
AcDbEntity
  8
0
370
         0
  6
HIDDEN
 62
         9
100
AcDb2dPolyline
 66
         1
 10
0.0
 20
0.0
 30
0.0
 70
       128
  0
VERTEX
  5
337
100
AcDbEntity
  8
0
100
AcDbVertex
100
AcDb2dVertex
 10
315.197623611
 20
159.7123943393
 30
0.0
  0
VERTEX
  5
338
100
AcDbEntity
  8
0
100
AcDbVertex
100
AcDb2dVertex
 10
314.2099773412
 20
160.0341230083
 30
0.0
  0
VERTEX
  5
339
100
AcDbEntity
  8
0
100
AcDbVertex
100
AcDb2dVertex
 10
313.197623611
 20
160.142245509
 30
0.0
  0
VERTEX
  5
33A
100
AcDbEntity
  8
0
100
AcDbVertex
100
AcDb2dVertex
 10
312.1852698807
 20
160.0341230083
 30
0.0
  0
VERTEX
  5
33B
100
AcDbEntity
  8
0
100
AcDbVertex
100
AcDb2dVertex
 10
311.197623611
 20
159.7123943393
 30
0.0
  0
SEQEND
  5
33C
100
AcDbEntity
  8
0
  0
LINE
  5
33D
100
AcDbEntity
  8
0
370
         0
  6
HIDDEN
 62
         9
100
AcDbLine
 10
298.3315548636
 20
177.142245509
 30
0.0
 11
294.197623611
 21
177.142245509
 31
0.0
  0
ARC
  5
33E
100
AcDbEntity
  8
0
370
         0
  6
HIDDEN
 62
         9
100
AcDbCircle
 10
313.197623611
 20
179.142245509
 30
0.0
 40
15.0
100
AcDbArc
 50
142.6622556608
 51
172.3377443392
  0
ARC
  5
33F
100
AcDbEntity
  8
0
370
         0
  6
HIDDEN
 62
         9
100
AcDbCircle
 10
313.197623611
 20
179.142245509
 30
0.0
 40
15.0
100
AcDbArc
 50
187.6622556608
 51
217.3377443392
  0
LINE
  5
340
100
AcDbEntity
  8
0
370
         0
  6
HIDDEN
 62
         9
100
AcDbLine
 10
298.348381206
 20
167.1214302288
 30
0.0
 11
301.2715120278
 21
170.0445610505
 31
0.0
  0
LINE
  5
341
100
AcDbEntity
  8
0
370
         0
  6
HIDDEN
 62
         9
100
AcDbLine
 10
301.2715120278
 20
188.2399299674
 30
0.0
 11
298.348381206
 21
191.1630607892
 31
0.0
  0
LINE
  5
342
100
AcDbEntity
  8
0
370
         0
  6
HIDDEN
 62
         9
100
AcDbLine
 10
301.1768083308
 20
193.9914879139
 30
0.0
 11
304.0999391525
 21
191.0683570922
 31
0.0
  0
LINE
  5
343
100
AcDbEntity
  8
0
370
         0
  6
HIDDEN
 62
         9
100
AcDbLine
 10
304.0999391525
 20
167.2161339258
 30
0.0
 11
301.1768083308
 21
164.2930031041
 31
0.0
  0
ARC
  5
344
100
AcDbEntity
  8
0
370
         0
  6
HIDDEN
 62
         9
100
AcDbCircle
 10
313.197623611
 20
179.142245509
 30
0.0
 40
15.0
100
AcDbArc
 50
97.6622556608
 51
127.3377443392
  0
ARC
  5
345
100
AcDbEntity
  8
0
370
         0
  6
HIDDEN
 62
         9
100
AcDbCircle
 10
313.197623611
 20
179.142245509
 30
0.0
 40
15.0
100
AcDbArc
 50
232.6622556608
 51
262.3377443392
  0
LINE
  5
346
100
AcDbEntity
  8
0
370
         0
  6
HIDDEN
 62
         9
100
AcDbLine
 10
311.197623611
 20
194.0083142563
 30
0.0
 11
311.197623611
 21
197.6308896881
 31
0.0
  0
LINE
  5
347
100
AcDbEntity
  8
0
370
         0
  6
HIDDEN
 62
         9
100
AcDbLine
 10
311.197623611
 20
159.7123943393
 30
0.0
 11
311.197623611
 21
164.2761767617
 31
0.0
  0
ARC
  5
348
100
AcDbEntity
  8
0
370
         0
  6
HIDDEN
 62
         9
100
AcDbCircle
 10
313.197623611
 20
179.142245509
 30
0.0
 40
15.0
100
AcDbArc
 50
277.6622556608
 51
307.3377443392
  0
LINE
  5
349
100
AcDbEntity
  8
0
370
         0
  6
HIDDEN
 62
         9
100
AcDbLine
 10
315.197623611
 20
197.6308896881
 30
0.0
 11
315.197623611
 21
194.0083142563
 31
0.0
  0
LINE
  5
34A
100
AcDbEntity
  8
0
370
         0
  6
HIDDEN
 62
         9
100
AcDbLine
 10
315.197623611
 20
164.2761767617
 30
0.0
 11
315.197623611
 21
159.7123943393
 31
0.0
  0
ARC
  5
34B
100
AcDbEntity
  8
0
370
         0
  6
HIDDEN
 62
         9
100
AcDbCircle
 10
313.197623611
 20
179.142245509
 30
0.0
 40
15.0
100
AcDbArc
 50
52.6622556608
 51
82.3377443392
  0
LINE
  5
34C
100
AcDbEntity
  8
0
370
         0
  6
HIDDEN
 62
         9
100
AcDbLine
 10
325.2184388911
 20
164.2930031041
 30
0.0
 11
322.2953080694
 21
167.2161339258
 31
0.0
  0
LINE
  5
34D
100
AcDbEntity
  8
0
370
         0
  6
HIDDEN
 62
         9
100
AcDbLine
 10
322.2953080694
 20
191.0683570922
 30
0.0
 11
324.8568557225
 21
193.6299047453
 31
0.0
  0
LINE
  5
34E
100
AcDbEntity
  8
0
370
         0
  6
HIDDEN
 62
         9
100
AcDbLine
 10
327.6852828473
 20
190.8014776206
 30
0.0
 11
325.1237351941
 21
188.2399299674
 31
0.0
  0
ARC
  5
34F
100
AcDbEntity
  8
0
370
         0
  6
HIDDEN
 62
         9
100
AcDbCircle
 10
313.197623611
 20
179.142245509
 30
0.0
 40
15.0
100
AcDbArc
 50
322.6622556608
 51
352.3377443392
  0
LINE
  5
350
100
AcDbEntity
  8
0
370
         0
  6
HIDDEN
 62
         9
100
AcDbLine
 10
325.1237351941
 20
170.0445610505
 30
0.0
 11
328.0468660159
 21
167.1214302288
 31
0.0
  0
ARC
  5
351
100
AcDbEntity
  8
0
370
         0
  6
HIDDEN
 62
         9
100
AcDbCircle
 10
313.197623611
 20
179.142245509
 30
0.0
 40
15.0
100
AcDbArc
 50
7.6622556608
 51
37.3377443392
  0
LINE
  5
352
100
AcDbEntity
  8
0
370
         0
  6
HIDDEN
 62
         9
100
AcDbLine
 10
332.6274747806
 20
177.142245509
 30
0.0
 11
328.0636923583
 21
177.142245509
 31
0.0
  0
LINE
  5
353
100
AcDbEntity
  8
0
370
         0
  6
HIDDEN
 62
         9
100
AcDbLine
 10
328.0636923583
 20
181.142245509
 30
0.0
 11
332.6274747806
 21
181.142245509
 31
0.0
  0
POLYLINE
  5
354
100
AcDbEntity
  8
0
370
         0
  6
HIDDEN
 62
         9
100
AcDb2dPolyline
 66
         1
 10
0.0
 20
0.0
 30
0.0
 70
       128
  0
VERTEX
  5
355
100
AcDbEntity
  8
0
100
AcDbVertex
100
AcDb2dVertex
 10
332.6274747806
 20
177.142245509
 30
0.0
  0
VERTEX
  5
356
100
AcDbEntity
  8
0
100
AcDbVertex
100
AcDb2dVertex
 10
333.0600152934
 20
176.3450549749
 30
0.0
  0
VERTEX
  5
357
100
AcDbEntity
  8
0
100
AcDbVertex
100
AcDb2dVertex
 10
333.6319190579
 20
175.5966051534
 30
0.0
  0
VERTEX
  5
358
100
AcDbEntity
  8
0
100
AcDbVertex
100
AcDb2dVertex
 10
334.3332207191
 20
174.9099376936
 30
0.0
  0
VERTEX
  5
359
100
AcDbEntity
  8
0
100
AcDbVertex
100
AcDb2dVertex
 10
335.1517001788
 20
174.2970176943
 30
0.0
  0
VERTEX
  5
35A
100
AcDbEntity
  8
0
100
AcDbVertex
100
AcDb2dVertex
 10
336.0730955298
 20
173.7685252137
 30
0.0
  0
VERTEX
  5
35B
100
AcDbEntity
  8
0
100
AcDbVertex
100
AcDb2dVertex
 10
337.0813515676
 20
173.3336691704
 30
0.0
  0
VERTEX
  5
35C
100
AcDbEntity
  8
0
100
AcDbVertex
100
AcDb2dVertex
 10
338.1588995505
 20
173.0000268793
 30
0.0
  0
VERTEX
  5
35D
100
AcDbEntity
  8
0
100
AcDbVertex
100
AcDb2dVertex
 10
339.2869633332
 20
172.7734120176
 30
0.0
  0
VERTEX
  5
35E
100
AcDbEntity
  8
0
100
AcDbVertex
100
AcDb2dVertex
 10
340.4458865383
 20
172.6577733224
 30
0.0
  0
VERTEX
  5
35F
100
AcDbEntity
  8
0
100
AcDbVertex
100
AcDb2dVertex
 10
341.6154750667
 20
172.6551257842
 30
0.0
  0
VERTEX
  5
360
100
AcDbEntity
  8
0
100
AcDbVertex
100
AcDb2dVertex
 10
342.7753489774
 20
172.765515536
 30
0.0
  0
VERTEX
  5
361
100
AcDbEntity
  8
0
100
AcDbVertex
100
AcDb2dVertex
 10
343.9052976052
 20
172.9870190496
 30
0.0
  0
VERTEX
  5
362
100
AcDbEntity
  8
0
100
AcDbVertex
100
AcDb2dVertex
 10
344.9856317299
 20
173.3157766524
 30
0.0
  0
VERTEX
  5
363
100
AcDbEntity
  8
0
100
AcDbVertex
100
AcDb2dVertex
 10
345.9975266575
 20
173.7460597825
 30
0.0
  0
VERTEX
  5
364
100
AcDbEntity
  8
0
100
AcDbVertex
100
AcDb2dVertex
 10
346.9233502394
 20
174.2703708073
 30
0.0
  0
VERTEX
  5
365
100
AcDbEntity
  8
0
100
AcDbVertex
100
AcDb2dVertex
 10
347.7469701096
 20
174.8795736697
 30
0.0
  0
VERTEX
  5
366
100
AcDbEntity
  8
0
100
AcDbVertex
100
AcDb2dVertex
 10
348.4540347898
 20
175.5630530821
 30
0.0
  0
SEQEND
  5
367
100
AcDbEntity
  8
0
  0
POLYLINE
  5
368
100
AcDbEntity
  8
0
370
         0
  6
HIDDEN
 62
         9
100
AcDb2dPolyline
 66
         1
 10
0.0
 20
0.0
 30
0.0
 70
       128
  0
VERTEX
  5
369
100
AcDbEntity
  8
0
100
AcDbVertex
100
AcDb2dVertex
 10
348.4540347898
 20
182.7214379359
 30
0.0
  0
VERTEX
  5
36A
100
AcDbEntity
  8
0
100
AcDbVertex
100
AcDb2dVertex
 10
347.7469701096
 20
183.4049173483
 30
0.0
  0
VERTEX
  5
36B
100
AcDbEntity
  8
0
100
AcDbVertex
100
AcDb2dVertex
 10
346.9233502393
 20
184.0141202107
 30
0.0
  0
VERTEX
  5
36C
100
AcDbEntity
  8
0
100
AcDbVertex
100
AcDb2dVertex
 10
345.9975266575
 20
184.5384312355
 30
0.0
  0
VERTEX
  5
36D
100
AcDbEntity
  8
0
100
AcDbVertex
100
AcDb2dVertex
 10
344.9856317298
 20
184.9687143655
 30
0.0
  0
VERTEX
  5
36E
100
AcDbEntity
  8
0
100
AcDbVertex
100
AcDb2dVertex
 10
343.9052976052
 20
185.2974719684
 30
0.0
  0
VERTEX
  5
36F
100
AcDbEntity
  8
0
100
AcDbVertex
100
AcDb2dVertex
 10
342.7753489773
 20
185.5189754819
 30
0.0
  0
VERTEX
  5
370
100
AcDbEntity
  8
0
100
AcDbVertex
100
AcDb2dVertex
 10
341.6154750667
 20
185.6293652337
 30
0.0
  0
VERTEX
  5
371
100
AcDbEntity
  8
0
100
AcDbVertex
100
AcDb2dVertex
 10
340.4458865383
 20
185.6267176955
 30
0.0
  0
VERTEX
  5
372
100
AcDbEntity
  8
0
100
AcDbVertex
100
AcDb2dVertex
 10
339.2869633332
 20
185.5110790003
 30
0.0
  0
VERTEX
  5
373
100
AcDbEntity
  8
0
100
AcDbVertex
100
AcDb2dVertex
 10
338.1588995505
 20
185.2844641387
 30
0.0
  0
VERTEX
  5
374
100
AcDbEntity
  8
0
100
AcDbVertex
100
AcDb2dVertex
 10
337.0813515675
 20
184.9508218476
 30
0.0
  0
VERTEX
  5
375
100
AcDbEntity
  8
0
100
AcDbVertex
100
AcDb2dVertex
 10
336.0730955298
 20
184.5159658043
 30
0.0
  0
VERTEX
  5
376
100
AcDbEntity
  8
0
100
AcDbVertex
100
AcDb2dVertex
 10
335.1517001788
 20
183.9874733237
 30
0.0
  0
VERTEX
  5
377
100
AcDbEntity
  8
0
100
AcDbVertex
100
AcDb2dVertex
 10
334.3332207191
 20
183.3745533244
 30
0.0
  0
VERTEX
  5
378
100
AcDbEntity
  8
0
100
AcDbVertex
100
AcDb2dVertex
 10
333.6319190579
 20
182.6878858646
 30
0.0
  0
VERTEX
  5
379
100
AcDbEntity
  8
0
100
AcDbVertex
100
AcDb2dVertex
 10
333.0600152934
 20
181.939436043
 30
0.0
  0
VERTEX
  5
37A
100
AcDbEntity
  8
0
100
AcDbVertex
100
AcDb2dVertex
 10
332.6274747806
 20
181.142245509
 30
0.0
  0
SEQEND
  5
37B
100
AcDbEntity
  8
0
  0
POLYLINE
  5
37C
100
AcDbEntity
  8
0
370
         0
  6
HIDDEN
 62
         9
100
AcDb2dPolyline
 66
         1
 10
0.0
 20
0.0
 30
0.0
 70
       128
  0
VERTEX
  5
37D
100
AcDbEntity
  8
0
100
AcDbVertex
100
AcDb2dVertex
 10
311.197623611
 20
159.7123943393
 30
0.0
  0
VERTEX
  5
37E
100
AcDbEntity
  8
0
100
AcDbVertex
100
AcDb2dVertex
 10
310.4004330769
 20
159.2798538265
 30
0.0
  0
VERTEX
  5
37F
100
AcDbEntity
  8
0
100
AcDbVertex
100
AcDb2dVertex
 10
309.6519832554
 20
158.707950062
 30
0.0
  0
VERTEX
  5
380
100
AcDbEntity
  8
0
100
AcDbVertex
100
AcDb2dVertex
 10
308.9653157955
 20
158.0066484008
 30
0.0
  0
VERTEX
  5
381
100
AcDbEntity
  8
0
100
AcDbVertex
100
AcDb2dVertex
 10
308.3523957963
 20
157.1881689411
 30
0.0
  0
VERTEX
  5
382
100
AcDbEntity
  8
0
100
AcDbVertex
100
AcDb2dVertex
 10
307.8239033156
 20
156.2667735902
 30
0.0
  0
VERTEX
  5
383
100
AcDbEntity
  8
0
100
AcDbVertex
100
AcDb2dVertex
 10
307.3890472724
 20
155.2585175524
 30
0.0
  0
VERTEX
  5
384
100
AcDbEntity
  8
0
100
AcDbVertex
100
AcDb2dVertex
 10
307.0554049813
 20
154.1809695694
 30
0.0
  0
VERTEX
  5
385
100
AcDbEntity
  8
0
100
AcDbVertex
100
AcDb2dVertex
 10
306.8287901196
 20
153.0529057867
 30
0.0
  0
VERTEX
  5
386
100
AcDbEntity
  8
0
100
AcDbVertex
100
AcDb2dVertex
 10
306.7131514244
 20
151.8939825816
 30
0.0
  0
VERTEX
  5
387
100
AcDbEntity
  8
0
100
AcDbVertex
100
AcDb2dVertex
 10
306.7105038862
 20
150.7243940532
 30
0.0
  0
VERTEX
  5
388
100
AcDbEntity
  8
0
100
AcDbVertex
100
AcDb2dVertex
 10
306.820893638
 20
149.5645201426
 30
0.0
  0
VERTEX
  5
389
100
AcDbEntity
  8
0
100
AcDbVertex
100
AcDb2dVertex
 10
307.0423971515
 20
148.4345715147
 30
0.0
  0
VERTEX
  5
38A
100
AcDbEntity
  8
0
100
AcDbVertex
100
AcDb2dVertex
 10
307.3711547544
 20
147.3542373901
 30
0.0
  0
VERTEX
  5
38B
100
AcDbEntity
  8
0
100
AcDbVertex
100
AcDb2dVertex
 10
307.8014378844
 20
146.3423424624
 30
0.0
  0
VERTEX
  5
38C
100
AcDbEntity
  8
0
100
AcDbVertex
100
AcDb2dVertex
 10
308.3257489093
 20
145.4165188806
 30
0.0
  0
VERTEX
  5
38D
100
AcDbEntity
  8
0
100
AcDbVertex
100
AcDb2dVertex
 10
308.9349517716
 20
144.5928990104
 30
0.0
  0
VERTEX
  5
38E
100
AcDbEntity
  8
0
100
AcDbVertex
100
AcDb2dVertex
 10
309.618431184
 20
143.8858343301
 30
0.0
  0
SEQEND
  5
38F
100
AcDbEntity
  8
0
  0
POLYLINE
  5
390
100
AcDbEntity
  8
0
370
         0
  6
HIDDEN
 62
         9
100
AcDb2dPolyline
 66
         1
 10
0.0
 20
0.0
 30
0.0
 70
       128
  0
VERTEX
  5
391
100
AcDbEntity
  8
0
100
AcDbVertex
100
AcDb2dVertex
 10
316.7768160379
 20
143.8858343301
 30
0.0
  0
VERTEX
  5
392
100
AcDbEntity
  8
0
100
AcDbVertex
100
AcDb2dVertex
 10
317.4602954503
 20
144.5928990104
 30
0.0
  0
VERTEX
  5
393
100
AcDbEntity
  8
0
100
AcDbVertex
100
AcDb2dVertex
 10
318.0694983126
 20
145.4165188806
 30
0.0
  0
VERTEX
  5
394
100
AcDbEntity
  8
0
100
AcDbVertex
100
AcDb2dVertex
 10
318.5938093375
 20
146.3423424625
 30
0.0
  0
VERTEX
  5
395
100
AcDbEntity
  8
0
100
AcDbVertex
100
AcDb2dVertex
 10
319.0240924675
 20
147.3542373901
 30
0.0
  0
VERTEX
  5
396
100
AcDbEntity
  8
0
100
AcDbVertex
100
AcDb2dVertex
 10
319.3528500704
 20
148.4345715147
 30
0.0
  0
VERTEX
  5
397
100
AcDbEntity
  8
0
100
AcDbVertex
100
AcDb2dVertex
 10
319.5743535839
 20
149.5645201426
 30
0.0
  0
VERTEX
  5
398
100
AcDbEntity
  8
0
100
AcDbVertex
100
AcDb2dVertex
 10
319.6847433357
 20
150.7243940532
 30
0.0
  0
VERTEX
  5
399
100
AcDbEntity
  8
0
100
AcDbVertex
100
AcDb2dVertex
 10
319.6820957975
 20
151.8939825816
 30
0.0
  0
VERTEX
  5
39A
100
AcDbEntity
  8
0
100
AcDbVertex
100
AcDb2dVertex
 10
319.5664571023
 20
153.0529057867
 30
0.0
  0
VERTEX
  5
39B
100
AcDbEntity
  8
0
100
AcDbVertex
100
AcDb2dVertex
 10
319.3398422406
 20
154.1809695694
 30
0.0
  0
VERTEX
  5
39C
100
AcDbEntity
  8
0
100
AcDbVertex
100
AcDb2dVertex
 10
319.0061999495
 20
155.2585175524
 30
0.0
  0
VERTEX
  5
39D
100
AcDbEntity
  8
0
100
AcDbVertex
100
AcDb2dVertex
 10
318.5713439063
 20
156.2667735902
 30
0.0
  0
VERTEX
  5
39E
100
AcDbEntity
  8
0
100
AcDbVertex
100
AcDb2dVertex
 10
318.0428514257
 20
157.1881689411
 30
0.0
  0
VERTEX
  5
39F
100
AcDbEntity
  8
0
100
AcDbVertex
100
AcDb2dVertex
 10
317.4299314264
 20
158.0066484008
 30
0.0
  0
VERTEX
  5
3A0
100
AcDbEntity
  8
0
100
AcDbVertex
100
AcDb2dVertex
 10
316.7432639665
 20
158.707950062
 30
0.0
  0
VERTEX
  5
3A1
100
AcDbEntity
  8
0
100
AcDbVertex
100
AcDb2dVertex
 10
315.994814145
 20
159.2798538265
 30
0.0
  0
VERTEX
  5
3A2
100
AcDbEntity
  8
0
100
AcDbVertex
100
AcDb2dVertex
 10
315.197623611
 20
159.7123943393
 30
0.0
  0
SEQEND
  5
3A3
100
AcDbEntity
  8
0
  0
DIMENSION
  5
3B1
100
AcDbEntity
  8
0
100
AcDbDimension
  2
*D0
 10
263.197623611
 20
129.142245509
 30
0.0
 11
263.197623611
 21
108.0985587446
 31
0.0
 70
       230
 71
         5
 72
         1
 41
1.0
 42
0.0
  3
SLDDIMSTYLE1
100
AcDbOrdinateDimension
 13
263.197623611
 23
129.142245509
 33
0.0
 14
263.197623611
 24
108.0985587446
 34
0.0
  0
DIMENSION
  5
3BC
100
AcDbEntity
  8
0
100
AcDbDimension
  2
*D2
 10
263.197623611
 20
129.142245509
 30
0.0
 11
269.2349454806
 21
108.0985587446
 31
0.0
 70
       230
 71
         5
 72
         1
 41
1.0
 42
0.0
  3
SLDDIMSTYLE2
100
AcDbOrdinateDimension
 13
271.197623611
 23
154.142245509
 33
0.0
 14
269.2349454806
 24
108.0985587446
 34
0.0
  0
DIMENSION
  5
3C6
100
AcDbEntity
  8
0
100
AcDbDimension
  2
*D3
 10
263.197623611
 20
129.142245509
 30
0.0
 11
275.2722673503
 21
108.0985587446
 31
0.0
 70
       230
 71
         5
 72
         1
 41
1.0
 42
0.0
  3
SLDDIMSTYLE2
100
AcDbOrdinateDimension
 13
273.197623611
 23
219.142245509
 33
0.0
 14
275.2722673503
 24
108.0985587446
 34
0.0
  0
DIMENSION
  5
3D0
100
AcDbEntity
  8
0
100
AcDbDimension
  2
*D4
 10
263.197623611
 20
129.142245509
 30
0.0
 11
351.1229798716
 21
108.0985587446
 31
0.0
 70
       230
 71
         5
 72
         1
 41
1.0
 42
0.0
  3
SLDDIMSTYLE2
100
AcDbOrdinateDimension
 13
353.197623611
 23
219.142245509
 33
0.0
 14
351.1229798716
 24
108.0985587446
 34
0.0
  0
DIMENSION
  5
3DA
100
AcDbEntity
  8
0
100
AcDbDimension
  2
*D5
 10
263.197623611
 20
129.142245509
 30
0.0
 11
357.1603017413
 21
108.0985587446
 31
0.0
 70
       230
 71
         5
 72
         1
 41
1.0
 42
0.0
  3
SLDDIMSTYLE2
100
AcDbOrdinateDimension
 13
355.197623611
 23
154.142245509
 33
0.0
 14
357.1603017413
 24
108.0985587446
 34
0.0
  0
DIMENSION
  5
3E2
100
AcDbEntity
  8
0
100
AcDbDimension
  2
*D6
 10
263.197623611
 20
129.142245509
 30
0.0
 11
363.197623611
 21
108.0985587446
 31
0.0
 70
       230
 71
         5
 72
         1
 41
1.0
 42
0.0
  3
SLDDIMSTYLE2
100
AcDbOrdinateDimension
 13
363.197623611
 23
129.142245509
 33
0.0
 14
363.197623611
 24
108.0985587446
 34
0.0
  0
DIMENSION
  5
3EA
100
AcDbEntity
  8
0
100
AcDbDimension
  2
*D7
 10
263.197623611
 20
129.142245509
 30
0.0
 11
313.197623611
 21
108.0985587446
 31
0.0
 70
       230
 71
         5
 72
         1
 41
1.0
 42
0.0
  3
SLDDIMSTYLE2
100
AcDbOrdinateDimension
 13
313.197623611
 23
179.142245509
 33
0.0
 14
313.197623611
 24
108.0985587446
 34
0.0
  0
DIMENSION
  5
3F4
100
AcDbEntity
  8
0
100
AcDbDimension
  2
*D8
 10
363.197623611
 20
129.142245509
 30
0.0
 11
381.2078212062
 21
129.142245509
 31
0.0
 70
       166
 71
         5
 72
         1
 41
1.0
 42
0.0
  3
SLDDIMSTYLE1
100
AcDbOrdinateDimension
 13
363.197623611
 23
129.142245509
 33
0.0
 14
381.2078212062
 24
129.142245509
 34
0.0
  0
DIMENSION
  5
3FE
100
AcDbEntity
  8
0
100
AcDbDimension
  2
*D9
 10
363.197623611
 20
129.142245509
 30
0.0
 11
381.2078212062
 21
141.1452754558
 31
0.0
 70
       166
 71
         5
 72
         1
 41
1.0
 42
0.0
  3
SLDDIMSTYLE2
100
AcDbOrdinateDimension
 13
273.197623611
 23
139.142245509
 33
0.0
 14
381.2078212062
 24
141.1452754558
 34
0.0
  0
DIMENSION
  5
406
100
AcDbEntity
  8
0
100
AcDbDimension
  2
*D10
 10
363.197623611
 20
129.142245509
 30
0.0
 11
381.2078212062
 21
154.142245509
 31
0.0
 70
       166
 71
         5
 72
         1
 41
1.0
 42
0.0
  3
SLDDIMSTYLE2
100
AcDbOrdinateDimension
 13
271.197623611
 23
154.142245509
 33
0.0
 14
381.2078212062
 24
154.142245509
 34
0.0
  0
DIMENSION
  5
410
100
AcDbEntity
  8
0
100
AcDbDimension
  2
*D11
 10
363.197623611
 20
129.142245509
 30
0.0
 11
381.2078212062
 21
217.0676017696
 31
0.0
 70
       166
 71
         5
 72
         1
 41
1.0
 42
0.0
  3
SLDDIMSTYLE2
100
AcDbOrdinateDimension
 13
273.197623611
 23
219.142245509
 33
0.0
 14
381.2078212062
 24
217.0676017696
 34
0.0
  0
DIMENSION
  5
418
100
AcDbEntity
  8
0
100
AcDbDimension
  2
*D12
 10
363.197623611
 20
129.142245509
 30
0.0
 11
381.2078212062
 21
229.142245509
 31
0.0
 70
       166
 71
         5
 72
         1
 41
1.0
 42
0.0
  3
SLDDIMSTYLE2
100
AcDbOrdinateDimension
 13
363.197623611
 23
229.142245509
 33
0.0
 14
381.2078212062
 24
229.142245509
 34
0.0
  0
DIMENSION
  5
422
100
AcDbEntity
  8
0
100
AcDbDimension
  2
*D13
 10
363.197623611
 20
129.142245509
 30
0.0
 11
381.2078212062
 21
223.1049236393
 31
0.0
 70
       166
 71
         5
 72
         1
 41
1.0
 42
0.0
  3
SLDDIMSTYLE2
100
AcDbOrdinateDimension
 13
328.197623611
 23
221.142245509
 33
0.0
 14
381.2078212062
 24
223.1049236393
 34
0.0
  0
DIMENSION
  5
42A
100
AcDbEntity
  8
0
100
AcDbDimension
  2
*D14
 10
363.197623611
 20
129.142245509
 30
0.0
 11
381.2078212062
 21
179.142245509
 31
0.0
 70
       166
 71
         5
 72
         1
 41
1.0
 42
0.0
  3
SLDDIMSTYLE2
100
AcDbOrdinateDimension
 13
313.197623611
 23
179.142245509
 33
0.0
 14
381.2078212062
 24
179.142245509
 34
0.0
  0
DIMENSION
  5
437
100
AcDbEntity
  8
0
100
AcDbDimension
  2
*D15
 10
317.1065608926
 20
178.2935940326
 30
0.0
 11
244.82875
 21
195.25
 31
0.0
 70
       163
 71
         5
 72
         1
 41
1.0
 42
0.0
  1
<>
  3
SLDDIMSTYLE3
100
AcDbDiametricDimension
 15
309.2886863293
 25
179.9908969854
 35
0.0
 40
0.0
  0
DIMENSION
  5
444
100
AcDbEntity
  8
0
100
AcDbDimension
  2
*D16
 10
354.0531918912
 20
214.9792534458
 30
0.0
 11
334.7769886563
 21
247.0573544487
 31
0.0
 70
       163
 71
         5
 72
         1
 41
1.0
 42
0.0
  1
4x <>
  3
SLDDIMSTYLE3
100
AcDbDiametricDimension
 15
352.3420553307
 25
223.3052375721
 35
0.0
 40
0.0
  0
DIMENSION
  5
450
100
AcDbEntity
  8
0
100
AcDbDimension
  2
*D17
 10
330.6843194476
 20
217.6956756466
 30
0.0
 11
305.1881339485
 21
241.6775626836
 31
0.0
 70
       163
 71
         5
 72
         1
 41
1.0
 42
0.0
  1
<>
  3
SLDDIMSTYLE3
100
AcDbDiametricDimension
 15
325.7109277744
 25
224.5888153714
 35
0.0
 40
0.0
  0
DIMENSION
  5
45C
100
AcDbEntity
  8
0
100
AcDbDimension
  2
*D18
 10
274.5602188453
 20
151.5431200234
 30
0.0
 11
241.826142049
 21
171.7402697379
 31
0.0
 70
       163
 71
         5
 72
         1
 41
1.0
 42
0.0
  1
<>
  3
SLDDIMSTYLE3
100
AcDbDiametricDimension
 15
267.8350283766
 25
156.7413709946
 35
0.0
 40
0.0
  0
DIMENSION
  5
468
100
AcDbEntity
  8
0
100
AcDbDimension
  2
*D19
 10
351.7947635995
 20
151.5960633194
 30
0.0
 11
381.2078212062
 21
168.7514965351
 31
0.0
 70
       163
 71
         5
 72
         1
 41
1.0
 42
0.0
  1
<>
  3
SLDDIMSTYLE3
100
AcDbDiametricDimension
 15
358.6004836224
 25
156.6884276986
 35
0.0
 40
0.0
  0
LINE
  5
469
100
AcDbEntity
  8
0
370
         0
  6
Continuous
 62
         7
100
AcDbLine
 10
106.9231370426
 20
87.6475
 30
0.0
 11
106.433008982
 21
87.1573719395
 31
0.0
  0
LINE
  5
46A
100
AcDbEntity
  8
0
370
         0
  6
Continuous
 62
         7
100
AcDbLine
 10
111.4132651031
 20
87.6475
 30
0.0
 11
106.433008982
 21
82.6672438789
 31
0.0
  0
LINE
  5
46B
100
AcDbEntity
  8
0
370
         0
  6
Continuous
 62
         7
100
AcDbLine
 10
115.9033931636
 20
87.6475
 30
0.0
 11
107.9033931636
 21
79.6475
 31
0.0
  0
LINE
  5
46C
100
AcDbEntity
  8
0
370
         0
  6
Continuous
 62
         7
100
AcDbLine
 10
120.3935212242
 20
87.6475
 30
0.0
 11
112.3935212242
 21
79.6475
 31
0.0
  0
LINE
  5
46D
100
AcDbEntity
  8
0
370
         0
  6
Continuous
 62
         7
100
AcDbLine
 10
124.8836492847
 20
87.6475
 30
0.0
 11
116.8836492847
 21
79.6475
 31
0.0
  0
LINE
  5
46E
100
AcDbEntity
  8
0
370
         0
  6
Continuous
 62
         7
100
AcDbLine
 10
121.433008982
 20
79.7067316368
 30
0.0
 11
121.3737773452
 21
79.6475
 31
0.0
  0
LINE
  5
46F
100
AcDbEntity
  8
0
370
         0
  6
Continuous
 62
         7
100
AcDbLine
 10
129.3737773452
 20
87.6475
 30
0.0
 11
123.3737773452
 21
81.6475
 31
0.0
  0
LINE
  5
470
100
AcDbEntity
  8
0
370
         0
  6
Continuous
 62
         7
100
AcDbLine
 10
133.8639054058
 20
87.6475
 30
0.0
 11
127.8639054058
 21
81.6475
 31
0.0
  0
LINE
  5
471
100
AcDbEntity
  8
0
370
         0
  6
Continuous
 62
         7
100
AcDbLine
 10
138.3540334663
 20
87.6475
 30
0.0
 11
132.3540334663
 21
81.6475
 31
0.0
  0
LINE
  5
472
100
AcDbEntity
  8
0
370
         0
  6
Continuous
 62
         7
100
AcDbLine
 10
142.8441615268
 20
87.6475
 30
0.0
 11
136.8441615268
 21
81.6475
 31
0.0
  0
LINE
  5
473
100
AcDbEntity
  8
0
370
         0
  6
Continuous
 62
         7
100
AcDbLine
 10
147.3342895874
 20
87.6475
 30
0.0
 11
141.3342895874
 21
81.6475
 31
0.0
  0
LINE
  5
474
100
AcDbEntity
  8
0
370
         0
  6
Continuous
 62
         7
100
AcDbLine
 10
151.8244176479
 20
87.6475
 30
0.0
 11
143.033008982
 21
78.8560913341
 31
0.0
  0
LINE
  5
475
100
AcDbEntity
  8
0
370
         0
  6
Continuous
 62
         7
100
AcDbLine
 10
152.433008982
 20
83.7659632736
 30
0.0
 11
146.3145457085
 21
77.6475
 31
0.0
  0
LINE
  5
476
100
AcDbEntity
  8
0
370
         0
  6
Continuous
 62
         7
100
AcDbLine
 10
152.433008982
 20
79.2758352131
 30
0.0
 11
150.804673769
 21
77.6475
 31
0.0
  0
LINE
  5
477
100
AcDbEntity
  8
0
370
         0
  6
Continuous
 62
         7
100
AcDbLine
 10
53.0416003162
 20
87.6475
 30
0.0
 11
52.433008982
 21
87.0389086659
 31
0.0
  0
LINE
  5
478
100
AcDbEntity
  8
0
370
         0
  6
Continuous
 62
         7
100
AcDbLine
 10
57.5317283767
 20
87.6475
 30
0.0
 11
52.433008982
 21
82.5487806053
 31
0.0
  0
LINE
  5
479
100
AcDbEntity
  8
0
370
         0
  6
Continuous
 62
         7
100
AcDbLine
 10
62.0218564372
 20
87.6475
 30
0.0
 11
52.433008982
 21
78.0586525448
 31
0.0
  0
LINE
  5
47A
100
AcDbEntity
  8
0
370
         0
  6
Continuous
 62
         7
100
AcDbLine
 10
66.5119844978
 20
87.6475
 30
0.0
 11
56.5119844978
 21
77.6475
 31
0.0
  0
LINE
  5
47B
100
AcDbEntity
  8
0
370
         0
  6
Continuous
 62
         7
100
AcDbLine
 10
61.071105808
 20
77.7164932497
 30
0.0
 11
61.0021125583
 21
77.6475
 31
0.0
  0
LINE
  5
47C
100
AcDbEntity
  8
0
370
         0
  6
Continuous
 62
         7
100
AcDbLine
 10
71.0021125583
 20
87.6475
 30
0.0
 11
65.0021125583
 21
81.6475
 31
0.0
  0
LINE
  5
47D
100
AcDbEntity
  8
0
370
         0
  6
Continuous
 62
         7
100
AcDbLine
 10
75.4922406188
 20
87.6475
 30
0.0
 11
69.4922406188
 21
81.6475
 31
0.0
  0
LINE
  5
47E
100
AcDbEntity
  8
0
370
         0
  6
Continuous
 62
         7
100
AcDbLine
 10
79.9823686794
 20
87.6475
 30
0.0
 11
73.9823686794
 21
81.6475
 31
0.0
  0
LINE
  5
47F
100
AcDbEntity
  8
0
370
         0
  6
Continuous
 62
         7
100
AcDbLine
 10
84.4724967399
 20
87.6475
 30
0.0
 11
78.4724967399
 21
81.6475
 31
0.0
  0
LINE
  5
480
100
AcDbEntity
  8
0
370
         0
  6
Continuous
 62
         7
100
AcDbLine
 10
88.9626248004
 20
87.6475
 30
0.0
 11
82.9626248004
 21
81.6475
 31
0.0
  0
LINE
  5
481
100
AcDbEntity
  8
0
370
         0
  6
Continuous
 62
         7
100
AcDbLine
 10
93.452752861
 20
87.6475
 30
0.0
 11
85.452752861
 21
79.6475
 31
0.0
  0
LINE
  5
482
100
AcDbEntity
  8
0
370
         0
  6
Continuous
 62
         7
100
AcDbLine
 10
97.9428809215
 20
87.6475
 30
0.0
 11
89.9428809215
 21
79.6475
 31
0.0
  0
LINE
  5
483
100
AcDbEntity
  8
0
370
         0
  6
Continuous
 62
         7
100
AcDbLine
 10
98.433008982
 20
83.6475
 30
0.0
 11
94.433008982
 21
79.6475
 31
0.0
  0
LINE
  5
484
100
AcDbEntity
  8
0
370
        15
  6
Continuous
 62
         7
100
AcDbLine
 10
143.033008982
 20
81.6475
 30
0.0
 11
121.433008982
 21
81.6475
 31
0.0
  0
LINE
  5
485
100
AcDbEntity
  8
0
370
        15
  6
Continuous
 62
         7
100
AcDbLine
 10
121.433008982
 20
81.6475
 30
0.0
 11
121.433008982
 21
79.6475
 31
0.0
  0
LINE
  5
486
100
AcDbEntity
  8
0
370
        15
  6
Continuous
 62
         7
100
AcDbLine
 10
121.433008982
 20
79.6475
 30
0.0
 11
106.433008982
 21
79.6475
 31
0.0
  0
LINE
  5
487
100
AcDbEntity
  8
0
370
        15
  6
Continuous
 62
         7
100
AcDbLine
 10
106.433008982
 20
87.6475
 30
0.0
 11
106.433008982
 21
79.6475
 31
0.0
  0
LINE
  5
488
100
AcDbEntity
  8
0
370
        15
  6
Continuous
 62
         7
100
AcDbLine
 10
152.433008982
 20
87.6475
 30
0.0
 11
106.433008982
 21
87.6475
 31
0.0
  0
LINE
  5
489
100
AcDbEntity
  8
0
370
        15
  6
Continuous
 62
         7
100
AcDbLine
 10
152.433008982
 20
77.6475
 30
0.0
 11
152.433008982
 21
87.6475
 31
0.0
  0
LINE
  5
48A
100
AcDbEntity
  8
0
370
        15
  6
Continuous
 62
         7
100
AcDbLine
 10
152.433008982
 20
77.6475
 30
0.0
 11
143.033008982
 21
77.6475
 31
0.0
  0
LINE
  5
48B
100
AcDbEntity
  8
0
370
        15
  6
Continuous
 62
         7
100
AcDbLine
 10
143.033008982
 20
77.6475
 30
0.0
 11
143.033008982
 21
81.6475
 31
0.0
  0
LINE
  5
48C
100
AcDbEntity
  8
0
370
        15
  6
Continuous
 62
         7
100
AcDbLine
 10
61.071105808
 20
77.6475
 30
0.0
 11
52.433008982
 21
77.6475
 31
0.0
  0
LINE
  5
48D
100
AcDbEntity
  8
0
370
        15
  6
Continuous
 62
         7
100
AcDbLine
 10
52.433008982
 20
87.6475
 30
0.0
 11
52.433008982
 21
77.6475
 31
0.0
  0
LINE
  5
48E
100
AcDbEntity
  8
0
370
        15
  6
Continuous
 62
         7
100
AcDbLine
 10
98.433008982
 20
87.6475
 30
0.0
 11
52.433008982
 21
87.6475
 31
0.0
  0
LINE
  5
48F
100
AcDbEntity
  8
0
370
        15
  6
Continuous
 62
         7
100
AcDbLine
 10
98.433008982
 20
79.6475
 30
0.0
 11
98.433008982
 21
87.6475
 31
0.0
  0
LINE
  5
490
100
AcDbEntity
  8
0
370
        15
  6
Continuous
 62
         7
100
AcDbLine
 10
98.433008982
 20
79.6475
 30
0.0
 11
83.433008982
 21
79.6475
 31
0.0
  0
LINE
  5
491
100
AcDbEntity
  8
0
370
        15
  6
Continuous
 62
         7
100
AcDbLine
 10
83.433008982
 20
79.6475
 30
0.0
 11
83.433008982
 21
81.6475
 31
0.0
  0
LINE
  5
492
100
AcDbEntity
  8
0
370
        15
  6
Continuous
 62
         7
100
AcDbLine
 10
61.071105808
 20
81.6475
 30
0.0
 11
83.433008982
 21
81.6475
 31
0.0
  0
LINE
  5
493
100
AcDbEntity
  8
0
370
        15
  6
Continuous
 62
         7
100
AcDbLine
 10
61.071105808
 20
81.6475
 30
0.0
 11
61.071105808
 21
77.6475
 31
0.0
  0
LINE
  5
494
100
AcDbEntity
  8
0
370
        15
  6
Continuous
 62
         7
100
AcDbLine
 10
98.433008982
 20
79.6475
 30
0.0
 11
106.433008982
 21
79.6475
 31
0.0
  0
LINE
  5
495
100
AcDbEntity
  8
0
370
        15
  6
Continuous
 62
         7
100
AcDbLine
 10
106.433008982
 20
87.6475
 30
0.0
 11
98.433008982
 21
87.6475
 31
0.0
  0
LINE
  5
496
100
AcDbEntity
  8
0
370
        15
  6
Continuous
 62
         7
100
AcDbLine
 10
83.0031578124
 20
77.6475
 30
0.0
 11
83.0031578124
 21
79.6475
 31
0.0
  0
LINE
  5
497
100
AcDbEntity
  8
0
370
        15
  6
Continuous
 62
         7
100
AcDbLine
 10
83.0031578124
 20
77.6475
 30
0.0
 11
67.1765978032
 21
77.6475
 31
0.0
  0
LINE
  5
498
100
AcDbEntity
  8
0
370
        15
  6
Continuous
 62
         7
100
AcDbLine
 10
83.433008982
 20
79.6475
 30
0.0
 11
83.0031578124
 21
79.6475
 31
0.0
  0
LINE
  5
499
100
AcDbEntity
  8
0
370
        15
  6
Continuous
 62
         7
100
AcDbLine
 10
143.033008982
 20
77.6475
 30
0.0
 11
142.1782032746
 21
77.6475
 31
0.0
  0
LINE
  5
49A
100
AcDbEntity
  8
0
370
        15
  6
Continuous
 62
         7
100
AcDbLine
 10
142.1782032746
 20
77.6475
 30
0.0
 11
130.7782032746
 21
77.6475
 31
0.0
  0
LINE
  5
49B
100
AcDbEntity
  8
0
370
        15
  6
Continuous
 62
         7
100
AcDbLine
 10
117.2990777294
 20
77.6475
 30
0.0
 11
117.2990777294
 21
79.6475
 31
0.0
  0
LINE
  5
49C
100
AcDbEntity
  8
0
370
        15
  6
Continuous
 62
         7
100
AcDbLine
 10
117.2990777294
 20
77.6475
 30
0.0
 11
121.433008982
 21
77.6475
 31
0.0
  0
LINE
  5
49D
100
AcDbEntity
  8
0
370
        15
  6
Continuous
 62
         7
100
AcDbLine
 10
121.433008982
 20
79.6475
 30
0.0
 11
121.433008982
 21
77.6475
 31
0.0
  0
LINE
  5
49E
100
AcDbEntity
  8
0
370
        15
  6
Continuous
 62
         7
100
AcDbLine
 10
114.3591205652
 20
79.6475
 30
0.0
 11
114.3591205652
 21
77.6475
 31
0.0
  0
LINE
  5
49F
100
AcDbEntity
  8
0
370
        15
  6
Continuous
 62
         7
100
AcDbLine
 10
114.3591205652
 20
77.6475
 30
0.0
 11
117.2990777294
 21
77.6475
 31
0.0
  0
LINE
  5
4A0
100
AcDbEntity
  8
0
370
        15
  6
Continuous
 62
         7
100
AcDbLine
 10
128.433008982
 20
81.6475
 30
0.0
 11
128.433008982
 21
77.6475
 31
0.0
  0
LINE
  5
4A1
100
AcDbEntity
  8
0
370
        15
  6
Continuous
 62
         7
100
AcDbLine
 10
125.433008982
 20
81.6475
 30
0.0
 11
125.433008982
 21
77.6475
 31
0.0
  0
LINE
  5
4A2
100
AcDbEntity
  8
0
370
        15
  6
Continuous
 62
         7
100
AcDbLine
 10
128.433008982
 20
77.6475
 30
0.0
 11
125.433008982
 21
77.6475
 31
0.0
  0
LINE
  5
4A3
100
AcDbEntity
  8
0
370
        15
  6
Continuous
 62
         7
100
AcDbLine
 10
90.5068973988
 20
77.6475
 30
0.0
 11
90.5068973988
 21
79.6475
 31
0.0
  0
LINE
  5
4A4
100
AcDbEntity
  8
0
370
        15
  6
Continuous
 62
         7
100
AcDbLine
 10
87.5669402347
 20
79.6475
 30
0.0
 11
87.5669402347
 21
77.6475
 31
0.0
  0
LINE
  5
4A5
100
AcDbEntity
  8
0
370
        15
  6
Continuous
 62
         7
100
AcDbLine
 10
87.5669402347
 20
77.6475
 30
0.0
 11
90.5068973988
 21
77.6475
 31
0.0
  0
LINE
  5
4A6
100
AcDbEntity
  8
0
370
        15
  6
Continuous
 62
         7
100
AcDbLine
 10
83.0031578124
 20
77.6475
 30
0.0
 11
87.5669402347
 21
77.6475
 31
0.0
  0
LINE
  5
4A7
100
AcDbEntity
  8
0
370
        15
  6
Continuous
 62
         7
100
AcDbLine
 10
62.3217815788
 20
77.6475
 30
0.0
 11
61.071105808
 21
77.6475
 31
0.0
  0
LINE
  5
4A8
100
AcDbEntity
  8
0
370
        15
  6
Continuous
 62
         7
100
AcDbLine
 10
67.1765978032
 20
77.6475
 30
0.0
 11
65.6552739224
 21
77.6475
 31
0.0
  0
LINE
  5
4A9
100
AcDbEntity
  8
0
370
        15
  6
Continuous
 62
         7
100
AcDbLine
 10
65.6552739224
 20
77.6475
 30
0.0
 11
62.3217815788
 21
77.6475
 31
0.0
  0
LINE
  5
4AA
100
AcDbEntity
  8
0
370
        15
  6
Continuous
 62
         7
100
AcDbLine
 10
121.4613856175
 20
77.6475
 30
0.0
 11
121.4613856175
 21
81.6475
 31
0.0
  0
LINE
  5
4AB
100
AcDbEntity
  8
0
370
        15
  6
Continuous
 62
         7
100
AcDbLine
 10
121.9016381321
 20
77.6475
 30
0.0
 11
121.4613856175
 21
77.6475
 31
0.0
  0
LINE
  5
4AC
100
AcDbEntity
  8
0
370
        15
  6
Continuous
 62
         7
100
AcDbLine
 10
121.4613856175
 20
77.6475
 30
0.0
 11
121.433008982
 21
77.6475
 31
0.0
  0
LINE
  5
4AD
100
AcDbEntity
  8
0
370
        15
  6
Continuous
 62
         7
100
AcDbLine
 10
130.7782032746
 20
77.6475
 30
0.0
 11
128.433008982
 21
77.6475
 31
0.0
  0
LINE
  5
4AE
100
AcDbEntity
  8
0
370
        15
  6
Continuous
 62
         7
100
AcDbLine
 10
125.433008982
 20
77.6475
 30
0.0
 11
122.7016381321
 21
77.6475
 31
0.0
  0
LINE
  5
4AF
100
AcDbEntity
  8
0
370
        15
  6
Continuous
 62
         7
100
AcDbLine
 10
122.7016381321
 20
77.6475
 30
0.0
 11
121.9016381321
 21
77.6475
 31
0.0
  0
LINE
  5
4B0
100
AcDbEntity
  8
0
370
        15
  6
Continuous
 62
         7
100
AcDbLine
 10
111.5306934405
 20
77.6475
 30
0.0
 11
111.5306934405
 21
79.6475
 31
0.0
  0
LINE
  5
4B1
100
AcDbEntity
  8
0
370
        15
  6
Continuous
 62
         7
100
AcDbLine
 10
104.433008982
 20
79.6475
 30
0.0
 11
104.433008982
 21
77.6475
 31
0.0
  0
LINE
  5
4B2
100
AcDbEntity
  8
0
370
        15
  6
Continuous
 62
         7
100
AcDbLine
 10
104.433008982
 20
77.6475
 30
0.0
 11
111.5306934405
 21
77.6475
 31
0.0
  0
LINE
  5
4B3
100
AcDbEntity
  8
0
370
        15
  6
Continuous
 62
         7
100
AcDbLine
 10
111.5306934405
 20
77.6475
 30
0.0
 11
114.3591205652
 21
77.6475
 31
0.0
  0
LINE
  5
4B4
100
AcDbEntity
  8
0
370
        15
  6
Continuous
 62
         7
100
AcDbLine
 10
100.433008982
 20
77.6475
 30
0.0
 11
100.433008982
 21
79.6475
 31
0.0
  0
LINE
  5
4B5
100
AcDbEntity
  8
0
370
        15
  6
Continuous
 62
         7
100
AcDbLine
 10
93.3353245236
 20
79.6475
 30
0.0
 11
93.3353245236
 21
77.6475
 31
0.0
  0
LINE
  5
4B6
100
AcDbEntity
  8
0
370
        15
  6
Continuous
 62
         7
100
AcDbLine
 10
93.3353245236
 20
77.6475
 30
0.0
 11
100.433008982
 21
77.6475
 31
0.0
  0
LINE
  5
4B7
100
AcDbEntity
  8
0
370
        15
  6
Continuous
 62
         7
100
AcDbLine
 10
90.5068973988
 20
77.6475
 30
0.0
 11
93.3353245236
 21
77.6475
 31
0.0
  0
LINE
  5
4B8
100
AcDbEntity
  8
0
370
        15
  6
Continuous
 62
         7
100
AcDbLine
 10
104.433008982
 20
77.6475
 30
0.0
 11
100.433008982
 21
77.6475
 31
0.0
  0
DIMENSION
  5
4C7
100
AcDbEntity
  8
0
 62
       255
100
AcDbDimension
  2
*D20
 10
165.1768189687
 20
77.6475
 30
0.0
 11
165.1768189687
 21
82.9616494795
 31
0.0
 70
       160
 71
         5
 72
         1
 41
1.0
 42
0.0
  3
SLDDIMSTYLE4
100
AcDbAlignedDimension
 13
152.433008982
 23
87.6475
 33
0.0
 14
152.433008982
 24
77.6475
 34
0.0
 50
90.0
100
AcDbRotatedDimension
  0
DIMENSION
  5
4D3
100
AcDbEntity
  8
0
 62
       255
100
AcDbDimension
  2
*D21
 10
136.8899447606
 20
77.6475
 30
0.0
 11
136.8899447606
 21
65.4223070944
 31
0.0
 70
       160
 71
         5
 72
         1
 41
1.0
 42
0.0
  3
SLDDIMSTYLE4
100
AcDbAlignedDimension
 13
143.033008982
 23
81.6475
 33
0.0
 14
142.1782032746
 24
77.6475
 34
0.0
 50
90.0
100
AcDbRotatedDimension
  0
DIMENSION
  5
4DF
100
AcDbEntity
  8
0
 62
       255
100
AcDbDimension
  2
*D22
 10
96.8711931468
 20
77.6475
 30
0.0
 11
96.8711931468
 21
65.9820099141
 31
0.0
 70
       160
 71
         5
 72
         1
 41
1.0
 42
0.0
  3
SLDDIMSTYLE4
100
AcDbAlignedDimension
 13
98.433008982
 23
79.6475
 33
0.0
 14
93.3353245236
 24
77.6475
 34
0.0
 50
90.0
100
AcDbRotatedDimension
  0
MTEXT
  5
4E0
100
AcDbEntity
  8
0
 62
         7
100
AcDbMText
 10
56.9309743722
 20
66.1705920404
 30
0.0
 40
3.5
 41
0.0
 71
         2
 72
         1
  1
A-A
  7
SLDTEXTSTYLE0
 73
         1
 44
1.0
  0
ENDSEC
  0
SECTION
  2
OBJECTS
  0
DICTIONARY
  5
19
100
AcDbDictionary
280
         0
281
         1
  3
ACAD_GROUP
350
1A
  3
ACAD_MLINESTYLE
350
1B
  3
ACAD_LAYOUT
350
1E
  3
ACAD_PLOTSETTINGS
350
22
  3
ACAD_PLOTSTYLENAME
350
1F
  3
ACAD_WIPEOUT_VARS
350
23
  0
DICTIONARY
  5
1A
102
{ACAD_REACTORS
330
19
102
}
100
AcDbDictionary
280
         0
281
         1
  0
DICTIONARY
  5
1B
102
{ACAD_REACTORS
330
19
102
}
100
AcDbDictionary
280
         0
281
         1
  3
Standard
350
1C
  0
MLINESTYLE
  5
1C
102
{ACAD_REACTORS
330
1B
102
}
100
AcDbMlineStyle
  2
Standard
 70
         0
  3

 62
         0
 51
90.0
 52
90.0
 71
         2
 49
0.5
 62
       256
  6
BYLAYER
 49
-0.5
 62
       256
  6
BYLAYER
  0
ACDBDICTIONARYWDFLT
  5
1F
102
{ACAD_REACTORS
330
19
102
}
100
AcDbDictionary
281
         1
  3
Normal
350
1D
100
AcDbDictionaryWithDefault
340
1D
  0
ACDBPLACEHOLDER
  5
1D
102
{ACAD_REACTORS
330
1F
102
}
  0
LAYOUT
  5
20
102
{ACAD_REACTORS
330
1E
102
}
100
AcDbPlotSettings
  1

  2

  4

  6

 40
0.0
 41
0.0
 42
0.0
 43
0.0
 44
0.0
 45
0.0
 46
0.0
 47
0.0
 48
0.0
 49
0.0
140
0.0
141
0.0
142
1.0
143
1.0
 70
      1024
 72
         0
 73
         0
 74
         0
  7

 75
         0
147
1.0
148
0.0
149
0.0
100
AcDbLayout
  1
Model
 70
         0
 71
         0
 10
0.0
 20
0.0
 11
0.0
 21
0.0
 12
0.0
 22
0.0
 32
0.0
 14
0.0
 24
0.0
 34
0.0
 15
0.0
 25
0.0
 35
0.0
146
0.0
 13
0.0
 23
0.0
 33
0.0
 16
0.0
 26
0.0
 36
0.0
 17
0.0
 27
0.0
 37
0.0
 76
         0
330
A
331
0
345
0
346
0
  0
LAYOUT
  5
21
102
{ACAD_REACTORS
330
1E
102
}
100
AcDbPlotSettings
  1

  2

  4

  6

 40
0.0
 41
0.0
 42
0.0
 43
0.0
 44
0.0
 45
0.0
 46
0.0
 47
0.0
 48
0.0
 49
0.0
140
0.0
141
0.0
142
1.0
143
1.0
 70
         0
 72
         0
 73
         0
 74
         0
  7

 75
         0
147
1.0
148
0.0
149
0.0
100
AcDbLayout
  1
Layout1
 70
         0
 71
         0
 10
0.0
 20
0.0
 11
0.0
 21
0.0
 12
0.0
 22
0.0
 32
0.0
 14
0.0
 24
0.0
 34
0.0
 15
0.0
 25
0.0
 35
0.0
146
0.0
 13
0.0
 23
0.0
 33
0.0
 16
0.0
 26
0.0
 36
0.0
 17
0.0
 27
0.0
 37
0.0
 76
         0
330
B
331
0
345
0
346
0
  0
DICTIONARY
  5
1E
102
{ACAD_REACTORS
330
19
102
}
100
AcDbDictionary
280
         0
281
         1
  3
Layout1
350
21
  3
Model
350
20
  0
DICTIONARY
  5
22
102
{ACAD_REACTORS
330
19
102
}
100
AcDbDictionary
280
         0
281
         1
  0
WIPEOUTVARIABLES
  5
23
100
AcDbWipeoutVariables
 70
         1
  0
ENDSEC
  0
EOF
