  0
SECTION
  2
HEADER
  9
$ACADVER
  1
AC1015
  9
$ACADMAINTVER
 70
         6
  9
$DWGCODEPAGE
  3
ANSI_1252
  9
$INSBASE
 10
0.0
 20
0.0
 30
0.0
  9
$EXTMIN
 10
0.0
 20
0.0
 30
0.0
  9
$EXTMAX
 10
420.0
 20
297.0
 30
0.0
  9
$LIMMIN
 10
0.0
 20
0.0
  9
$LIMMAX
 10
0.0
 20
0.0
  9
$ORTHOMODE
 70
         0
  9
$REGENMODE
 70
         1
  9
$FILLMODE
 70
         1
  9
$QTEXTMODE
 70
         0
  9
$MIRRTEXT
 70
         1
  9
$LTSCALE
 40
1.0
  9
$ATTMODE
 70
         1
  9
$TEXTSIZE
 40
3.5
  9
$TRACEWID
 40
0.05
  9
$TEXTSTYLE
  7
Standard
  9
$CLAYER
  8
0
  9
$CELTYPE
  6
Continuous
  9
$CECOLOR
 62
       256
  9
$CELTSCALE
 40
1.0
  9
$DISPSILH
 70
         0
  9
$DIMSCALE
 40
1.0
  9
$DIMASZ
 40
3.0
  9
$DIMEXO
 40
1.0
  9
$DIMDLI
 40
0.38
  9
$DIMRND
 40
0.0
  9
$DIMDLE
 40
1.0
  9
$DIMEXE
 40
0.18
  9
$DIMTP
 40
0.0
  9
$DIMTM
 40
0.0
  9
$DIMTXT
 40
3.5
  9
$DIMCEN
 40
0.09
  9
$DIMTSZ
 40
0.0
  9
$DIMTOL
 70
         0
  9
$DIMLIM
 70
         0
  9
$DIMTIH
 70
         1
  9
$DIMTOH
 70
         1
  9
$DIMSE1
 70
         0
  9
$DIMSE2
 70
         0
  9
$DIMTAD
 70
         1
  9
$DIMZIN
 70
         0
  9
$DIMBLK
  1

  9
$DIMASO
 70
         1
  9
$DIMSHO
 70
         1
  9
$DIMPOST
  1

  9
$DIMAPOST
  1

  9
$DIMALT
 70
         0
  9
$DIMALTD
 70
         2
  9
$DIMALTF
 40
0.0394
  9
$DIMLFAC
 40
1.0
  9
$DIMTOFL
 70
         0
  9
$DIMTVP
 40
0.0
  9
$DIMTIX
 70
         0
  9
$DIMSOXD
 70
         0
  9
$DIMSAH
 70
         0
  9
$DIMBLK1
  1

  9
$DIMBLK2
  1

  9
$DIMSTYLE
  2
Standard
  9
$DIMCLRD
 70
         0
  9
$DIMCLRE
 70
         0
  9
$DIMCLRT
 70
         0
  9
$DIMTFAC
 40
1.0
  9
$DIMGAP
 40
1.0
  9
$DIMJUST
 70
         0
  9
$DIMSD1
 70
         0
  9
$DIMSD2
 70
         0
  9
$DIMTOLJ
 70
         1
  9
$DIMTZIN
 70
         0
  9
$DIMALTZ
 70
         0
  9
$DIMALTTZ
 70
         0
  9
$DIMUPT
 70
         0
  9
$DIMDEC
 70
         4
  9
$DIMTDEC
 70
         4
  9
$DIMALTU
 70
         2
  9
$DIMALTTD
 70
         2
  9
$DIMTXSTY
  7
Standard
  9
$DIMAUNIT
 70
         0
  9
$DIMADEC
 70
         0
  9
$DIMALTRND
 40
0.0
  9
$DIMAZIN
 70
         0
  9
$DIMDSEP
 70
         0
  9
$DIMATFIT
 70
         3
  9
$DIMFRAC
 70
         0
  9
$DIMLDRBLK
  1

  9
$DIMLUNIT
 70
         2
  9
$DIMLWD
 70
         0
  9
$DIMLWE
 70
         0
  9
$DIMTMOVE
 70
         0
  9
$LUNITS
 70
         2
  9
$LUPREC
 70
         2
  9
$SKETCHINC
 40
0.1
  9
$FILLETRAD
 40
0.0
  9
$AUNITS
 70
         0
  9
$AUPREC
 70
         2
  9
$MENU
  1
acad
  9
$ELEVATION
 40
0.0
  9
$PELEVATION
 40
0.0
  9
$THICKNESS
 40
0.0
  9
$LIMCHECK
 70
         0
  9
$CHAMFERA
 40
0.0
  9
$CHAMFERB
 40
0.0
  9
$CHAMFERC
 40
0.0
  9
$CHAMFERD
 40
0.0
  9
$SKPOLY
 70
         0
  9
$TDCREATE
 40
0.000000000
  9
$TDUCREATE
 40
0.000000000
  9
$TDUPDATE
 40
0.000000000
  9
$TDUUPDATE
 40
0.000000000
  9
$TDINDWG
 40
0.0000000000
  9
$TDUSRTIMER
 40
0.0000000000
  9
$USRTIMER
 70
         1
  9
$ANGBASE
 50
0.0
  9
$ANGDIR
 70
         0
  9
$PDMODE
 70
         0
  9
$PDSIZE
 40
-1.0
  9
$PLINEWID
 40
0.0
  9
$SPLFRAME
 70
         0
  9
$SPLINETYPE
 70
         6
  9
$SPLINESEGS
 70
         8
  9
$HANDSEED
  5
51E
  9
$SURFTAB1
 70
         6
  9
$SURFTAB2
 70
         6
  9
$SURFTYPE
 70
         6
  9
$SURFU
 70
         6
  9
$SURFV
 70
         6
  9
$UCSBASE
  2

  9
$UCSNAME
  2

  9
$UCSORG
 10
0.0
 20
0.0
 30
0.0
  9
$UCSXDIR
 10
1.0
 20
0.0
 30
0.0
  9
$UCSYDIR
 10
0.0
 20
1.0
 30
0.0
  9
$UCSORTHOREF
  2

  9
$UCSORTHOVIEW
 70
         0
  9
$UCSORGTOP
 10
0.0
 20
0.0
 30
0.0
  9
$UCSORGBOTTOM
 10
0.0
 20
0.0
 30
0.0
  9
$UCSORGLEFT
 10
0.0
 20
0.0
 30
0.0
  9
$UCSORGRIGHT
 10
0.0
 20
0.0
 30
0.0
  9
$UCSORGFRONT
 10
0.0
 20
0.0
 30
0.0
  9
$UCSORGBACK
 10
0.0
 20
0.0
 30
0.0
  9
$PUCSBASE
  2

  9
$PUCSNAME
  2

  9
$PUCSORG
 10
0.0
 20
0.0
 30
0.0
  9
$PUCSXDIR
 10
1.0
 20
0.0
 30
0.0
  9
$PUCSYDIR
 10
0.0
 20
1.0
 30
0.0
  9
$PUCSORTHOREF
  2

  9
$PUCSORTHOVIEW
 70
         0
  9
$PUCSORGTOP
 10
0.0
 20
0.0
 30
0.0
  9
$PUCSORGBOTTOM
 10
0.0
 20
0.0
 30
0.0
  9
$PUCSORGLEFT
 10
0.0
 20
0.0
 30
0.0
  9
$PUCSORGRIGHT
 10
0.0
 20
0.0
 30
0.0
  9
$PUCSORGFRONT
 10
0.0
 20
0.0
 30
0.0
  9
$PUCSORGBACK
 10
0.0
 20
0.0
 30
0.0
  9
$USERI1
 70
         0
  9
$USERI2
 70
         0
  9
$USERI3
 70
         0
  9
$USERI4
 70
         0
  9
$USERI5
 70
         0
  9
$USERR1
 40
0.0
  9
$USERR2
 40
0.0
  9
$USERR3
 40
0.0
  9
$USERR4
 40
0.0
  9
$USERR5
 40
0.0
  9
$WORLDVIEW
 70
         1
  9
$SHADEDGE
 70
         3
  9
$SHADEDIF
 70
        70
  9
$TILEMODE
 70
         1
  9
$MAXACTVP
 70
        16
  9
$PINSBASE
 10
0.0
 20
0.0
 30
0.0
  9
$PLIMCHECK
 70
         0
  9
$PEXTMIN
 10
1.0000000000E+20
 20
1.0000000000E+20
 30
1.0000000000E+20
  9
$PEXTMAX
 10
-1.0000000000E+20
 20
-1.0000000000E+20
 30
-1.0000000000E+20
  9
$PLIMMIN
 10
0.0
 20
0.0
  9
$PLIMMAX
 10
12.0
 20
9.0
  9
$UNITMODE
 70
         0
  9
$VISRETAIN
 70
         0
  9
$PLINEGEN
 70
         1
  9
$PSLTSCALE
 70
         1
  9
$TREEDEPTH
 70
      3020
  9
$CMLSTYLE
  2
Standard
  9
$CMLJUST
 70
         0
  9
$CMLSCALE
 40
1.0
  9
$PROXYGRAPHICS
 70
         0
  9
$MEASUREMENT
 70
         0
  9
$CELWEIGHT
370
         0
  9
$ENDCAPS
280
         0
  9
$JOINSTYLE
280
         0
  9
$LWDISPLAY
290
         0
  9
$INSUNITS
 70
         0
  9
$HYPERLINKBASE
  1

  9
$XEDIT
290
         1
  9
$CEPSNTYPE
380
         0
  9
$PSTYLEMODE
290
         1
  9
$FINGERPRINTGUID
  2

  9
$VERSIONGUID
  2

  9
$EXTNAMES
290
         1
  9
$PSVPSCALE
 40
0.0
  0
ENDSEC
  0
SECTION
  2
CLASSES
  0
CLASS
  1
LWPOLYLINE
  2
AcDbPolyline
  3
AutoCAD 2000
 90
    32768
280
         0
281
         1
  0
CLASS
  1
IMAGE
  2
AcDbRasterImage
  3
ISM
 90
    32895
280
         0
281
         1
  0
CLASS
  1
OLE2FRAME
  2
AcDbOle2Frame
  3
AutoCAD 2000
 90
    32768
280
         0
281
         1
  0
CLASS
  1
HATCH
  2
AcDbHatch
  3
AutoCAD 2000
 90
    32768
280
         0
281
         1
  0
CLASS
  1
DICTIONARYVAR
  2
AcDbDictionaryVar
  3
AutoCAD 2000
 90
    32768
280
         0
281
         0
  0
CLASS
  1
RASTERVARIABLES
  2
AcDbRasterVariables
  3
ISM
 90
    32768
280
         0
281
         0
  0
CLASS
  1
IMAGEDEF
  2
AcDbRasterImageDef
  3
ISM
 90
    32768
280
         0
281
         0
  0
CLASS
  1
IMAGEDEF_REACTOR
  2
AcDbRasterImageDefReactor
  3
ISM
 90
    32769
280
         0
281
         0
  0
CLASS
  1
IDBUFFER
  2
AcDbIdBuffer
  3
AutoCAD 2000
 90
    32768
280
         0
281
         0
  0
CLASS
  1
SPATIAL_FILTER
  2
AcDbSpatialFilter
  3
AutoCAD 2000
 90
    32768
280
         0
281
         0
  0
CLASS
  1
XRECORD
  2
AcDbXrecord
  3
AutoCAD 2000
 90
    32768
280
         0
281
         0
  0
CLASS
  1
SORTENTSTABLE
  2
AcDbSortentsTable
  3
AutoCAD 2000
 90
    32768
280
         0
281
         0
  0
CLASS
  1
LAYER_INDEX
  2
AcDbLayerIndex
  3
AutoCAD 2000
 90
    32768
280
         0
281
         0
  0
CLASS
  1
SPATIAL_INDEX
  2
AcDbSpatialIndex
  3
AutoCAD 2000
 90
    32768
280
         0
281
         0
  0
CLASS
  1
OBJECT_PTR
  2
CAseDLPNTableRecord
  3
"ASE-LPNTableRecord"
 90
    32769
280
         0
281
         0
  0
CLASS
  1
LAYOUT
  2
AcDbLayout
  3
AutoCAD 2000
 90
        0
280
         0
281
         0
  0
CLASS
  1
PLOTSETTINGS
  2
AcDbPlotSettings
  3
AutoCAD 2000
 90
    32768
280
         0
281
         0
  0
CLASS
  1
ACDBDICTIONARYWDFLT
  2
AcDbDictionaryWithDefault
  3
AutoCAD 2000
 90
        0
280
         0
281
         0
  0
CLASS
  1
ACDBPLACEHOLDER
  2
AcDbPlaceHolder
  3
AutoCAD 2000
 90
        0
280
         0
281
         0
  0
CLASS
  1
VBA_PROJECT
  2
AcDbVbaProject
  3
acadvba
 90
    32768
280
         0
281
         0
  0
CLASS
  1
WIPEOUT
  2
AcDbWipeout
  3
WipeOut|AutoCAD Express Tool|expresstools@autodesk.com
 90
    32895
280
         0
281
         1
  0
CLASS
  1
WIPEOUTVARIABLES
  2
AcDbWipeoutVariables
  3
WipeOut|AutoCAD Express Tool|expresstools@autodesk.com
 90
        0
280
         0
281
         0
  0
CLASS
  1
RTEXT
  2
RText
  3
RText|AutoCAD Express Tool|expresstools@autodesk.com
 90
    32768
280
         0
281
         1
  0
CLASS
  1
ARCALIGNEDTEXT
  2
AcDbArcAlignedText
  3
ATEXT|AutoCAD Express Tool|expresstools@autodesk.com
 90
    32768
280
         0
281
         1
  0
ENDSEC
  0
SECTION
  2
TABLES
  0
TABLE
  2
VPORT
  5
7
100
AcDbSymbolTable
 70
         1
  0
VPORT
  5
15
100
AcDbSymbolTableRecord
100
AcDbViewportTableRecord
  2
*ACTIVE
 70
         0
 10
0.0
 20
0.0
 11
1.0
 21
1.0
 12
210.0
 22
148.5
 13
0.0
 23
0.0
 14
1.0
 24
1.0
 15
0.0
 25
0.0
 16
0.0
 26
0.0
 36
1.0
 17
0.0
 27
0.0
 37
0.0
 40
297.0
 41
0.7071428571
 42
50.0
 43
0.0
 44
0.0
 50
0.0
 51
0.0
 71
         0
 72
      2000
 73
         1
 74
         1
 75
         0
 76
         0
 77
         0
 78
         0
281
         0
 65
         0
110
0.0
120
0.0
130
0.0
111
1.0
121
0.0
131
0.0
112
0.0
122
1.0
132
0.0
345
0
346
0
 79
         0
146
0.0
  0
ENDTAB
  0
TABLE
  2
LTYPE
  5
4
100
AcDbSymbolTable
 70
         9
  0
LTYPE
  5
11
100
AcDbSymbolTableRecord
100
AcDbLinetypeTableRecord
  2
ByBlock
 70
        64
  3

 72
        65
 73
         0
 40
0.0
  0
LTYPE
  5
12
100
AcDbSymbolTableRecord
100
AcDbLinetypeTableRecord
  2
ByLayer
 70
        64
  3

 72
        65
 73
         0
 40
0.0
  0
LTYPE
  5
13
100
AcDbSymbolTableRecord
100
AcDbLinetypeTableRecord
  2
Continuous
 70
        64
  3
Solid line
 72
        65
 73
         0
 40
0.0
  0
LTYPE
  5
24
100
AcDbSymbolTableRecord
100
AcDbLinetypeTableRecord
  2
CONTINUOUS
 70
        64
  3
Solid line
 72
        65
 73
         1
 40
60.96
 49
60.96
 74
         0
  0
LTYPE
  5
25
100
AcDbSymbolTableRecord
100
AcDbLinetypeTableRecord
  2
HIDDEN
 70
        64
  3
Hidden __ __ __ __ __ __ __ __ __ __ __ __ __ __
 72
        65
 73
         2
 40
1.905
 49
1.27
 74
         0
 49
-0.635
 74
         0
  0
LTYPE
  5
26
100
AcDbSymbolTableRecord
100
AcDbLinetypeTableRecord
  2
PHANTOM
 70
        64
  3
Phantom ______  __  __  ______  __  __  ______
 72
        65
 73
         6
 40
12.7
 49
6.35
 74
         0
 49
-1.27
 74
         0
 49
1.27
 74
         0
 49
-1.27
 74
         0
 49
1.27
 74
         0
 49
-1.27
 74
         0
  0
LTYPE
  5
27
100
AcDbSymbolTableRecord
100
AcDbLinetypeTableRecord
  2
CENTER
 70
        64
  3
Center ____ _ ____ _ ____ _ ____ _ ____ _ ____
 72
        65
 73
         4
 40
10.16
 49
6.35
 74
         0
 49
-1.27
 74
         0
 49
1.27
 74
         0
 49
-1.27
 74
         0
  0
LTYPE
  5
28
100
AcDbSymbolTableRecord
100
AcDbLinetypeTableRecord
  2
CENTERX2
 70
        64
  3
Center (2x) ________  __  ________  __  _____
 72
        65
 73
         4
 40
20.32
 49
12.7
 74
         0
 49
-2.54
 74
         0
 49
2.54
 74
         0
 49
-2.54
 74
         0
  0
LTYPE
  5
29
100
AcDbSymbolTableRecord
100
AcDbLinetypeTableRecord
  2
DOT2
 70
        64
  3
Dot (.5x) ........................................
 72
        65
 73
         2
 40
0.635
 49
0.0
 74
         0
 49
-0.635
 74
         0
  0
ENDTAB
  0
TABLE
  2
LAYER
  5
2
100
AcDbSymbolTable
 70
         1
  0
LAYER
  5
14
100
AcDbSymbolTableRecord
100
AcDbLayerTableRecord
  2
0
 70
         0
 62
         7
  6
Continuous
290
         1
370
        -3
390
1D
  0
ENDTAB
  0
TABLE
  2
STYLE
  5
3
100
AcDbSymbolTable
 70
         2
  0
STYLE
  5
17
100
AcDbSymbolTableRecord
100
AcDbTextStyleTableRecord
  2
Standard
 70
         0
 40
0.0
 41
1.0
 50
0.0
 71
         0
 42
0.0
  3
txt
  4

  0
STYLE
  5
4B
100
AcDbSymbolTableRecord
100
AcDbTextStyleTableRecord
  2
SLDTEXTSTYLE0
 70
         0
 40
0.0
 41
0.75
 50
0.0
 71
         0
 42
0.0
  3
txt
  4

  0
ENDTAB
  0
TABLE
  2
VIEW
  5
5
100
AcDbSymbolTable
 70
         0
  0
ENDTAB
  0
TABLE
  2
UCS
  5
6
100
AcDbSymbolTable
 70
         0
  0
ENDTAB
  0
TABLE
  2
APPID
  5
8
100
AcDbSymbolTable
 70
         1
  0
APPID
  5
16
100
AcDbSymbolTableRecord
100
AcDbRegAppTableRecord
  2
ACAD
 70
         0
  0
ENDTAB
  0
TABLE
  2
DIMSTYLE
  5
9
100
AcDbSymbolTable
 70
         6
100
AcDbDimStyleTable
 71
         0
  0
DIMSTYLE
105
18
100
AcDbSymbolTableRecord
100
AcDbDimStyleTableRecord
  2
Standard
 70
         0
  3

  4

 40
1.0
 41
0.18
 42
0.0625
 43
0.38
 44
0.18
 45
0.0
 46
0.0
 47
0.0
 48
0.0
 71
         0
 72
         0
 73
         1
 74
         1
 75
         0
 76
         0
 77
         0
 78
         0
 79
         0
140
0.18
141
0.09
142
0.0
143
25.4
144
1.0
145
0.0
146
1.0
147
0.09
148
0.0
170
         0
171
         2
172
         0
173
         0
174
         0
175
         0
176
         0
177
         0
178
         0
179
         0
271
         4
272
         4
273
         2
274
         2
275
         0
276
         0
277
         2
278
        46
279
         0
280
         0
281
         0
282
         0
283
         1
284
         0
285
         0
286
         0
288
         0
340
17
341
0
342
0
343
0
344
0
371
        -2
372
        -2
  0
DIMSTYLE
105
171
100
AcDbSymbolTableRecord
100
AcDbDimStyleTableRecord
  2
SLDDIMSTYLE0
 70
         0
  3

  4

 40
1.0
 41
3.0
 42
0.0625
 43
0.38
 44
0.0
 45
0.0
 46
0.0
 47
0.0
 48
0.0
 71
         0
 72
         0
 73
         1
 74
         1
 75
         0
 76
         0
 77
         0
 78
         0
 79
         0
140
6.0
141
0.09
142
0.0
143
25.4
144
1.0
145
0.0
146
1.0
147
1.5
148
0.0
170
         0
171
         2
172
         0
173
         1
174
         0
175
         0
176
         0
177
         0
178
         0
179
         0
271
         0
272
         0
273
         2
274
         2
275
         0
276
         0
277
         2
278
        46
279
         0
280
         0
281
         0
282
         0
283
         1
284
         0
285
         0
286
         0
288
         0
340
17
341
0
342
0
343
0
344
0
371
        -2
372
        -2
  0
DIMSTYLE
105
264
100
AcDbSymbolTableRecord
100
AcDbDimStyleTableRecord
  2
SLDDIMSTYLE1
 70
         0
  3

  4

 40
1.0
 41
3.0
 42
0.0625
 43
0.38
 44
1.0
 45
0.0
 46
0.0
 47
0.0
 48
0.0
 71
         0
 72
         0
 73
         1
 74
         1
 75
         0
 76
         0
 77
         0
 78
        12
 79
         0
140
3.5
141
0.09
142
0.0
143
25.4
144
1.0
145
0.0
146
1.0
147
0.875
148
0.0
170
         0
171
         2
172
         0
173
         1
174
         0
175
         0
176
       255
177
       255
178
       255
179
         0
271
         2
272
         4
273
         2
274
         2
275
         0
276
         0
277
         2
278
        46
279
         0
280
         0
281
         0
282
         0
283
         1
284
        12
285
         0
286
         0
288
         0
340
17
341
0
342
0
343
0
344
0
371
        -2
372
        -2
  0
DIMSTYLE
105
3F5
100
AcDbSymbolTableRecord
100
AcDbDimStyleTableRecord
  2
SLDDIMSTYLE2
 70
         0
  3

  4

 40
1.0
 41
3.0
 42
0.0625
 43
0.38
 44
1.0
 45
0.0
 46
0.0
 47
0.0
 48
0.0
 71
         0
 72
         0
 73
         1
 74
         1
 75
         0
 76
         0
 77
         0
 78
         8
 79
         0
140
3.5
141
0.09
142
0.0
143
25.4
144
1.0
145
0.0
146
1.0
147
0.875
148
0.0
170
         0
171
         2
172
         0
173
         1
174
         0
175
         0
176
       255
177
       255
178
       255
179
         0
271
         0
272
         4
273
         2
274
         2
275
         0
276
         0
277
         2
278
        46
279
         0
280
         0
281
         0
282
         0
283
         1
284
        12
285
         0
286
         0
288
         0
340
17
341
0
342
0
343
3F6
344
3F6
371
        -2
372
        -2
  0
DIMSTYLE
105
403
100
AcDbSymbolTableRecord
100
AcDbDimStyleTableRecord
  2
SLDDIMSTYLE3
 70
         0
  3

  4

 40
1.0
 41
3.0
 42
0.0625
 43
0.38
 44
1.0
 45
0.0
 46
0.0
 47
0.0
 48
0.0
 71
         0
 72
         0
 73
         1
 74
         1
 75
         0
 76
         0
 77
         0
 78
        12
 79
         0
140
3.5
141
0.09
142
0.0
143
25.4
144
1.0
145
0.0
146
1.0
147
0.875
148
0.0
170
         0
171
         2
172
         0
173
         1
174
         0
175
         0
176
       255
177
       255
178
       255
179
         0
271
         2
272
         4
273
         2
274
         2
275
         0
276
         0
277
         2
278
        46
279
         0
280
         0
281
         0
282
         0
283
         1
284
        12
285
         0
286
         0
288
         0
340
17
341
0
342
0
343
3F6
344
3F6
371
        -2
372
        -2
  0
DIMSTYLE
105
489
100
AcDbSymbolTableRecord
100
AcDbDimStyleTableRecord
  2
SLDDIMSTYLE4
 70
         0
  3

  4

 40
1.0
 41
3.0
 42
0.0625
 43
0.38
 44
1.0
 45
0.0
 46
0.0
 47
0.0
 48
0.0
 71
         0
 72
         0
 73
         1
 74
         1
 75
         0
 76
         0
 77
         0
 78
        12
 79
         0
140
3.5
141
0.09
142
0.0
143
25.4
144
1.0
145
0.0
146
1.0
147
0.875
148
0.0
170
         0
171
         2
172
         1
173
         1
174
         0
175
         0
176
       255
177
       255
178
       255
179
         0
271
         2
272
         4
273
         2
274
         2
275
         0
276
         0
277
         2
278
        46
279
         0
280
         0
281
         0
282
         0
283
         1
284
        12
285
         0
286
         0
288
         0
340
17
341
0
342
0
343
0
344
0
371
        -2
372
        -2
  0
ENDTAB
  0
TABLE
  2
BLOCK_RECORD
  5
1
100
AcDbSymbolTable
 70
        22
  0
BLOCK_RECORD
  5
A
100
AcDbSymbolTableRecord
100
AcDbBlockTableRecord
  2
*MODEL_SPACE
340
20
  0
BLOCK_RECORD
  5
B
100
AcDbSymbolTableRecord
100
AcDbBlockTableRecord
  2
*PAPER_SPACE
340
21
  0
BLOCK_RECORD
  5
25A
100
AcDbSymbolTableRecord
100
AcDbBlockTableRecord
  2
*D0
340
0
  0
BLOCK_RECORD
  5
3EF
100
AcDbSymbolTableRecord
100
AcDbBlockTableRecord
  2
*D1
340
0
  0
BLOCK_RECORD
  5
3F6
100
AcDbSymbolTableRecord
100
AcDbBlockTableRecord
  2
_NONE
340
0
  0
BLOCK_RECORD
  5
3FD
100
AcDbSymbolTableRecord
100
AcDbBlockTableRecord
  2
*D3
340
0
  0
BLOCK_RECORD
  5
408
100
AcDbSymbolTableRecord
100
AcDbBlockTableRecord
  2
*D4
340
0
  0
BLOCK_RECORD
  5
412
100
AcDbSymbolTableRecord
100
AcDbBlockTableRecord
  2
*D5
340
0
  0
BLOCK_RECORD
  5
41A
100
AcDbSymbolTableRecord
100
AcDbBlockTableRecord
  2
*D6
340
0
  0
BLOCK_RECORD
  5
422
100
AcDbSymbolTableRecord
100
AcDbBlockTableRecord
  2
*D7
340
0
  0
BLOCK_RECORD
  5
42C
100
AcDbSymbolTableRecord
100
AcDbBlockTableRecord
  2
*D8
340
0
  0
BLOCK_RECORD
  5
436
100
AcDbSymbolTableRecord
100
AcDbBlockTableRecord
  2
*D9
340
0
  0
BLOCK_RECORD
  5
43E
100
AcDbSymbolTableRecord
100
AcDbBlockTableRecord
  2
*D10
340
0
  0
BLOCK_RECORD
  5
448
100
AcDbSymbolTableRecord
100
AcDbBlockTableRecord
  2
*D11
340
0
  0
BLOCK_RECORD
  5
452
100
AcDbSymbolTableRecord
100
AcDbBlockTableRecord
  2
*D12
340
0
  0
BLOCK_RECORD
  5
45A
100
AcDbSymbolTableRecord
100
AcDbBlockTableRecord
  2
*D13
340
0
  0
BLOCK_RECORD
  5
462
100
AcDbSymbolTableRecord
100
AcDbBlockTableRecord
  2
*D14
340
0
  0
BLOCK_RECORD
  5
46C
100
AcDbSymbolTableRecord
100
AcDbBlockTableRecord
  2
*D15
340
0
  0
BLOCK_RECORD
  5
476
100
AcDbSymbolTableRecord
100
AcDbBlockTableRecord
  2
*D16
340
0
  0
BLOCK_RECORD
  5
47E
100
AcDbSymbolTableRecord
100
AcDbBlockTableRecord
  2
*D17
340
0
  0
BLOCK_RECORD
  5
4E9
100
AcDbSymbolTableRecord
100
AcDbBlockTableRecord
  2
*D18
340
0
  0
BLOCK_RECORD
  5
4F5
100
AcDbSymbolTableRecord
100
AcDbBlockTableRecord
  2
*D19
340
0
  0
BLOCK_RECORD
  5
503
100
AcDbSymbolTableRecord
100
AcDbBlockTableRecord
  2
*D20
340
0
  0
BLOCK_RECORD
  5
50F
100
AcDbSymbolTableRecord
100
AcDbBlockTableRecord
  2
*D21
340
0
  0
ENDTAB
  0
ENDSEC
  0
SECTION
  2
BLOCKS
  0
BLOCK
  5
D
100
AcDbEntity
  8
0
100
AcDbBlockBegin
  2
*MODEL_SPACE
 70
         0
 10
0.0
 20
0.0
 30
0.0
  3
*MODEL_SPACE
  1

  0
ENDBLK
  5
E
100
AcDbEntity
  8
0
100
AcDbBlockEnd
  0
BLOCK
  5
F
100
AcDbEntity
 67
         1
  8
0
100
AcDbBlockBegin
  2
*PAPER_SPACE
 70
         0
 10
0.0
 20
0.0
 30
0.0
  3
*PAPER_SPACE
  1

  0
ENDBLK
  5
10
100
AcDbEntity
 67
         1
  8
0
100
AcDbBlockEnd
  0
BLOCK
  5
25B
100
AcDbEntity
  8
0
 62
       255
100
AcDbBlockBegin
  2
*D0
 70
         1
 10
0.0
 20
0.0
 30
0.0
  3
*D0
  1

  0
MTEXT
  5
25C
100
AcDbEntity
  8
0
 62
         7
100
AcDbMText
 10
180.6543104835
 20
121.6082285323
 30
0.0
 40
3.5
 41
0.0
 71
         7
 72
         1
  1
4,50
  7
SLDTEXTSTYLE0
 11
1.0
 21
0.0
 31
0.0
 73
         1
 44
1.0
  0
LINE
  5
25D
100
AcDbEntity
  8
0
100
AcDbLine
 10
197.8005778767
 20
134.767245509
 30
0.0
 11
197.8005778767
 21
119.1082285323
 31
0.0
  0
LINE
  5
25E
100
AcDbEntity
  8
0
100
AcDbLine
 10
193.3005778767
 20
128.142245509
 30
0.0
 11
193.3005778767
 21
119.1082285323
 31
0.0
  0
LINE
  5
25F
100
AcDbEntity
  8
0
100
AcDbLine
 10
197.8005778767
 20
120.1082285323
 30
0.0
 11
202.8005778767
 21
120.1082285323
 31
0.0
  0
LINE
  5
260
100
AcDbEntity
  8
0
100
AcDbLine
 10
197.8005778767
 20
120.1082285323
 30
0.0
 11
193.3005778767
 21
120.1082285323
 31
0.0
  0
LINE
  5
261
100
AcDbEntity
  8
0
100
AcDbLine
 10
193.3005778767
 20
120.1082285323
 30
0.0
 11
179.0668104835
 21
120.1082285323
 31
0.0
  0
SOLID
  5
262
100
AcDbEntity
  8
0
 62
       255
100
AcDbTrace
 10
197.8005778767
 20
120.1082285323
 30
0.0
 11
200.8005778767
 21
119.6582285323
 31
0.0
 12
200.8005778767
 22
120.5582285323
 32
0.0
 13
200.8005778767
 23
120.5582285323
 33
0.0
  0
SOLID
  5
263
100
AcDbEntity
  8
0
 62
       255
100
AcDbTrace
 10
193.3005778767
 20
120.1082285323
 30
0.0
 11
190.3005778767
 21
120.5582285323
 31
0.0
 12
190.3005778767
 22
119.6582285323
 32
0.0
 13
190.3005778767
 23
119.6582285323
 33
0.0
  0
POINT
  5
265
100
AcDbEntity
  8
0
 62
         7
100
AcDbPoint
 10
197.8005778767
 20
135.767245509
 30
0.0
  0
POINT
  5
266
100
AcDbEntity
  8
0
 62
         7
100
AcDbPoint
 10
193.3005778767
 20
129.142245509
 30
0.0
  0
ENDBLK
  5
267
100
AcDbEntity
  8
0
 62
       255
100
AcDbBlockEnd
  0
BLOCK
  5
3F0
100
AcDbEntity
  8
0
 62
       255
100
AcDbBlockBegin
  2
*D1
 70
         1
 10
0.0
 20
0.0
 30
0.0
  3
*D1
  1

  0
MTEXT
  5
3F1
100
AcDbEntity
  8
0
 62
         7
100
AcDbMText
 10
264.474573611
 20
103.9257837446
 30
0.0
 40
3.5
 41
0.0
 71
         7
 72
         1
  1
0
  7
SLDTEXTSTYLE0
 11
0.0
 21
1.0
 31
0.0
 73
         1
 44
1.0
  0
LINE
  5
3F2
100
AcDbEntity
  8
0
100
AcDbLine
 10
263.197623611
 20
113.0985587446
 30
0.0
 11
263.197623611
 21
108.0985587446
 31
0.0
  0
LINE
  5
3F3
100
AcDbEntity
  8
0
100
AcDbLine
 10
263.197623611
 20
113.0985587446
 30
0.0
 11
263.197623611
 21
118.0985587446
 31
0.0
  0
LINE
  5
3F4
100
AcDbEntity
  8
0
100
AcDbLine
 10
263.197623611
 20
118.0985587446
 30
0.0
 11
263.197623611
 21
128.142245509
 31
0.0
  0
POINT
  5
3F9
100
AcDbEntity
  8
0
 62
         7
100
AcDbPoint
 10
263.197623611
 20
129.142245509
 30
0.0
  0
POINT
  5
3FA
100
AcDbEntity
  8
0
 62
         7
100
AcDbPoint
 10
263.197623611
 20
108.0985587446
 30
0.0
  0
ENDBLK
  5
3FB
100
AcDbEntity
  8
0
100
AcDbBlockEnd
  0
BLOCK
  5
3F7
100
AcDbEntity
  8
0
100
AcDbBlockBegin
  2
_NONE
 70
         0
 10
0.0
 20
0.0
 30
0.0
  3
_NONE
  1

  0
ENDBLK
  5
3F8
100
AcDbEntity
  8
0
100
AcDbBlockEnd
  0
BLOCK
  5
3FE
100
AcDbEntity
  8
0
 62
       255
100
AcDbBlockBegin
  2
*D3
 70
         1
 10
0.0
 20
0.0
 30
0.0
  3
*D3
  1

  0
MTEXT
  5
3FF
100
AcDbEntity
  8
0
 62
         7
100
AcDbMText
 10
270.4760885844
 20
103.9257837446
 30
0.0
 40
3.5
 41
0.0
 71
         7
 72
         1
  1
8
  7
SLDTEXTSTYLE0
 11
0.0
 21
1.0
 31
0.0
 73
         1
 44
1.0
  0
LINE
  5
400
100
AcDbEntity
  8
0
100
AcDbLine
 10
269.1991385844
 20
113.0985587446
 30
0.0
 11
269.1991385844
 21
108.0985587446
 31
0.0
  0
LINE
  5
401
100
AcDbEntity
  8
0
100
AcDbLine
 10
269.1991385844
 20
113.0985587446
 30
0.0
 11
271.197623611
 21
118.0985587446
 31
0.0
  0
LINE
  5
402
100
AcDbEntity
  8
0
100
AcDbLine
 10
271.197623611
 20
118.0985587446
 30
0.0
 11
271.197623611
 21
153.142245509
 31
0.0
  0
POINT
  5
404
100
AcDbEntity
  8
0
 62
         7
100
AcDbPoint
 10
271.197623611
 20
154.142245509
 30
0.0
  0
POINT
  5
405
100
AcDbEntity
  8
0
 62
         7
100
AcDbPoint
 10
269.1991385844
 20
108.0985587446
 30
0.0
  0
ENDBLK
  5
406
100
AcDbEntity
  8
0
100
AcDbBlockEnd
  0
BLOCK
  5
409
100
AcDbEntity
  8
0
 62
       255
100
AcDbBlockBegin
  2
*D4
 70
         1
 10
0.0
 20
0.0
 30
0.0
  3
*D4
  1

  0
MTEXT
  5
40A
100
AcDbEntity
  8
0
 62
         7
100
AcDbMText
 10
276.4776035578
 20
101.3405087446
 30
0.0
 40
3.5
 41
0.0
 71
         7
 72
         1
  1
10
  7
SLDTEXTSTYLE0
 11
0.0
 21
1.0
 31
0.0
 73
         1
 44
1.0
  0
LINE
  5
40B
100
AcDbEntity
  8
0
100
AcDbLine
 10
275.2006535578
 20
113.0985587446
 30
0.0
 11
275.2006535578
 21
108.0985587446
 31
0.0
  0
LINE
  5
40C
100
AcDbEntity
  8
0
100
AcDbLine
 10
275.2006535578
 20
113.0985587446
 30
0.0
 11
273.197623611
 21
118.0985587446
 31
0.0
  0
LINE
  5
40D
100
AcDbEntity
  8
0
100
AcDbLine
 10
273.197623611
 20
118.0985587446
 30
0.0
 11
273.197623611
 21
218.142245509
 31
0.0
  0
POINT
  5
40E
100
AcDbEntity
  8
0
 62
         7
100
AcDbPoint
 10
273.197623611
 20
219.142245509
 30
0.0
  0
POINT
  5
40F
100
AcDbEntity
  8
0
 62
         7
100
AcDbPoint
 10
275.2006535578
 20
108.0985587446
 30
0.0
  0
ENDBLK
  5
410
100
AcDbEntity
  8
0
100
AcDbBlockEnd
  0
BLOCK
  5
413
100
AcDbEntity
  8
0
 62
       255
100
AcDbBlockBegin
  2
*D5
 70
         1
 10
0.0
 20
0.0
 30
0.0
  3
*D5
  1

  0
MTEXT
  5
414
100
AcDbEntity
  8
0
 62
         7
100
AcDbMText
 10
299.474573611
 20
101.3405087446
 30
0.0
 40
3.5
 41
0.0
 71
         7
 72
         1
  1
35
  7
SLDTEXTSTYLE0
 11
0.0
 21
1.0
 31
0.0
 73
         1
 44
1.0
  0
LINE
  5
415
100
AcDbEntity
  8
0
100
AcDbLine
 10
298.197623611
 20
220.142245509
 30
0.0
 11
298.197623611
 21
108.0985587446
 31
0.0
  0
POINT
  5
416
100
AcDbEntity
  8
0
 62
         7
100
AcDbPoint
 10
298.197623611
 20
221.142245509
 30
0.0
  0
POINT
  5
417
100
AcDbEntity
  8
0
 62
         7
100
AcDbPoint
 10
298.197623611
 20
108.0985587446
 30
0.0
  0
ENDBLK
  5
418
100
AcDbEntity
  8
0
100
AcDbBlockEnd
  0
BLOCK
  5
41B
100
AcDbEntity
  8
0
 62
       255
100
AcDbBlockBegin
  2
*D6
 70
         1
 10
0.0
 20
0.0
 30
0.0
  3
*D6
  1

  0
MTEXT
  5
41C
100
AcDbEntity
  8
0
 62
         7
100
AcDbMText
 10
314.474573611
 20
101.3405087446
 30
0.0
 40
3.5
 41
0.0
 71
         7
 72
         1
  1
50
  7
SLDTEXTSTYLE0
 11
0.0
 21
1.0
 31
0.0
 73
         1
 44
1.0
  0
LINE
  5
41D
100
AcDbEntity
  8
0
100
AcDbLine
 10
313.197623611
 20
178.142245509
 30
0.0
 11
313.197623611
 21
108.0985587446
 31
0.0
  0
POINT
  5
41E
100
AcDbEntity
  8
0
 62
         7
100
AcDbPoint
 10
313.197623611
 20
179.142245509
 30
0.0
  0
POINT
  5
41F
100
AcDbEntity
  8
0
 62
         7
100
AcDbPoint
 10
313.197623611
 20
108.0985587446
 30
0.0
  0
ENDBLK
  5
420
100
AcDbEntity
  8
0
100
AcDbBlockEnd
  0
BLOCK
  5
423
100
AcDbEntity
  8
0
 62
       255
100
AcDbBlockBegin
  2
*D7
 70
         1
 10
0.0
 20
0.0
 30
0.0
  3
*D7
  1

  0
MTEXT
  5
424
100
AcDbEntity
  8
0
 62
         7
100
AcDbMText
 10
352.4738161242
 20
101.3405087446
 30
0.0
 40
3.5
 41
0.0
 71
         7
 72
         1
  1
90
  7
SLDTEXTSTYLE0
 11
0.0
 21
1.0
 31
0.0
 73
         1
 44
1.0
  0
LINE
  5
425
100
AcDbEntity
  8
0
100
AcDbLine
 10
351.1968661242
 20
113.0985587446
 30
0.0
 11
351.1968661242
 21
108.0985587446
 31
0.0
  0
LINE
  5
426
100
AcDbEntity
  8
0
100
AcDbLine
 10
351.1968661242
 20
113.0985587446
 30
0.0
 11
353.197623611
 21
118.0985587446
 31
0.0
  0
LINE
  5
427
100
AcDbEntity
  8
0
100
AcDbLine
 10
353.197623611
 20
118.0985587446
 30
0.0
 11
353.197623611
 21
218.142245509
 31
0.0
  0
POINT
  5
428
100
AcDbEntity
  8
0
 62
         7
100
AcDbPoint
 10
353.197623611
 20
219.142245509
 30
0.0
  0
POINT
  5
429
100
AcDbEntity
  8
0
 62
         7
100
AcDbPoint
 10
351.1968661242
 20
108.0985587446
 30
0.0
  0
ENDBLK
  5
42A
100
AcDbEntity
  8
0
100
AcDbBlockEnd
  0
BLOCK
  5
42D
100
AcDbEntity
  8
0
 62
       255
100
AcDbBlockBegin
  2
*D8
 70
         1
 10
0.0
 20
0.0
 30
0.0
  3
*D8
  1

  0
MTEXT
  5
42E
100
AcDbEntity
  8
0
 62
         7
100
AcDbMText
 10
358.4753310977
 20
101.3405087446
 30
0.0
 40
3.5
 41
0.0
 71
         7
 72
         1
  1
92
  7
SLDTEXTSTYLE0
 11
0.0
 21
1.0
 31
0.0
 73
         1
 44
1.0
  0
LINE
  5
42F
100
AcDbEntity
  8
0
100
AcDbLine
 10
357.1983810977
 20
113.0985587446
 30
0.0
 11
357.1983810977
 21
108.0985587446
 31
0.0
  0
LINE
  5
430
100
AcDbEntity
  8
0
100
AcDbLine
 10
357.1983810977
 20
113.0985587446
 30
0.0
 11
355.197623611
 21
118.0985587446
 31
0.0
  0
LINE
  5
431
100
AcDbEntity
  8
0
100
AcDbLine
 10
355.197623611
 20
118.0985587446
 30
0.0
 11
355.197623611
 21
153.142245509
 31
0.0
  0
POINT
  5
432
100
AcDbEntity
  8
0
 62
         7
100
AcDbPoint
 10
355.197623611
 20
154.142245509
 30
0.0
  0
POINT
  5
433
100
AcDbEntity
  8
0
 62
         7
100
AcDbPoint
 10
357.1983810977
 20
108.0985587446
 30
0.0
  0
ENDBLK
  5
434
100
AcDbEntity
  8
0
100
AcDbBlockEnd
  0
BLOCK
  5
437
100
AcDbEntity
  8
0
 62
       255
100
AcDbBlockBegin
  2
*D9
 70
         1
 10
0.0
 20
0.0
 30
0.0
  3
*D9
  1

  0
MTEXT
  5
438
100
AcDbEntity
  8
0
 62
         7
100
AcDbMText
 10
364.474573611
 20
98.7552337446
 30
0.0
 40
3.5
 41
0.0
 71
         7
 72
         1
  1
100
  7
SLDTEXTSTYLE0
 11
0.0
 21
1.0
 31
0.0
 73
         1
 44
1.0
  0
LINE
  5
439
100
AcDbEntity
  8
0
100
AcDbLine
 10
363.197623611
 20
128.142245509
 30
0.0
 11
363.197623611
 21
108.0985587446
 31
0.0
  0
POINT
  5
43A
100
AcDbEntity
  8
0
 62
         7
100
AcDbPoint
 10
363.197623611
 20
129.142245509
 30
0.0
  0
POINT
  5
43B
100
AcDbEntity
  8
0
 62
         7
100
AcDbPoint
 10
363.197623611
 20
108.0985587446
 30
0.0
  0
ENDBLK
  5
43C
100
AcDbEntity
  8
0
100
AcDbBlockEnd
  0
BLOCK
  5
43F
100
AcDbEntity
  8
0
 62
       255
100
AcDbBlockBegin
  2
*D10
 70
         1
 10
0.0
 20
0.0
 30
0.0
  3
*D10
  1

  0
MTEXT
  5
440
100
AcDbEntity
  8
0
 62
         7
100
AcDbMText
 10
382.7953212062
 20
127.865295509
 30
0.0
 40
3.5
 41
0.0
 71
         7
 72
         1
  1
0
  7
SLDTEXTSTYLE0
 73
         1
 44
1.0
  0
LINE
  5
441
100
AcDbEntity
  8
0
100
AcDbLine
 10
376.2078212062
 20
129.142245509
 30
0.0
 11
381.2078212062
 21
129.142245509
 31
0.0
  0
LINE
  5
442
100
AcDbEntity
  8
0
100
AcDbLine
 10
376.2078212062
 20
129.142245509
 30
0.0
 11
371.2078212062
 21
129.142245509
 31
0.0
  0
LINE
  5
443
100
AcDbEntity
  8
0
100
AcDbLine
 10
371.2078212062
 20
129.142245509
 30
0.0
 11
364.197623611
 21
129.142245509
 31
0.0
  0
POINT
  5
444
100
AcDbEntity
  8
0
 62
         7
100
AcDbPoint
 10
363.197623611
 20
129.142245509
 30
0.0
  0
POINT
  5
445
100
AcDbEntity
  8
0
 62
         7
100
AcDbPoint
 10
381.2078212062
 20
129.142245509
 30
0.0
  0
ENDBLK
  5
446
100
AcDbEntity
  8
0
100
AcDbBlockEnd
  0
BLOCK
  5
449
100
AcDbEntity
  8
0
 62
       255
100
AcDbBlockBegin
  2
*D11
 70
         1
 10
0.0
 20
0.0
 30
0.0
  3
*D11
  1

  0
MTEXT
  5
44A
100
AcDbEntity
  8
0
 62
         7
100
AcDbMText
 10
382.7953212062
 20
139.8683254558
 30
0.0
 40
3.5
 41
0.0
 71
         7
 72
         1
  1
10
  7
SLDTEXTSTYLE0
 73
         1
 44
1.0
  0
LINE
  5
44B
100
AcDbEntity
  8
0
100
AcDbLine
 10
376.2078212062
 20
141.1452754558
 30
0.0
 11
381.2078212062
 21
141.1452754558
 31
0.0
  0
LINE
  5
44C
100
AcDbEntity
  8
0
100
AcDbLine
 10
376.2078212062
 20
141.1452754558
 30
0.0
 11
371.2078212062
 21
139.142245509
 31
0.0
  0
LINE
  5
44D
100
AcDbEntity
  8
0
100
AcDbLine
 10
371.2078212062
 20
139.142245509
 30
0.0
 11
274.197623611
 21
139.142245509
 31
0.0
  0
POINT
  5
44E
100
AcDbEntity
  8
0
 62
         7
100
AcDbPoint
 10
273.197623611
 20
139.142245509
 30
0.0
  0
POINT
  5
44F
100
AcDbEntity
  8
0
 62
         7
100
AcDbPoint
 10
381.2078212062
 20
141.1452754558
 30
0.0
  0
ENDBLK
  5
450
100
AcDbEntity
  8
0
100
AcDbBlockEnd
  0
BLOCK
  5
453
100
AcDbEntity
  8
0
 62
       255
100
AcDbBlockBegin
  2
*D12
 70
         1
 10
0.0
 20
0.0
 30
0.0
  3
*D12
  1

  0
MTEXT
  5
454
100
AcDbEntity
  8
0
 62
         7
100
AcDbMText
 10
382.7953212062
 20
152.865295509
 30
0.0
 40
3.5
 41
0.0
 71
         7
 72
         1
  1
25
  7
SLDTEXTSTYLE0
 73
         1
 44
1.0
  0
LINE
  5
455
100
AcDbEntity
  8
0
100
AcDbLine
 10
272.197623611
 20
154.142245509
 30
0.0
 11
381.2078212062
 21
154.142245509
 31
0.0
  0
POINT
  5
456
100
AcDbEntity
  8
0
 62
         7
100
AcDbPoint
 10
271.197623611
 20
154.142245509
 30
0.0
  0
POINT
  5
457
100
AcDbEntity
  8
0
 62
         7
100
AcDbPoint
 10
381.2078212062
 20
154.142245509
 30
0.0
  0
ENDBLK
  5
458
100
AcDbEntity
  8
0
100
AcDbBlockEnd
  0
BLOCK
  5
45B
100
AcDbEntity
  8
0
 62
       255
100
AcDbBlockBegin
  2
*D13
 70
         1
 10
0.0
 20
0.0
 30
0.0
  3
*D13
  1

  0
MTEXT
  5
45C
100
AcDbEntity
  8
0
 62
         7
100
AcDbMText
 10
382.7953212062
 20
177.865295509
 30
0.0
 40
3.5
 41
0.0
 71
         7
 72
         1
  1
50
  7
SLDTEXTSTYLE0
 73
         1
 44
1.0
  0
LINE
  5
45D
100
AcDbEntity
  8
0
100
AcDbLine
 10
314.197623611
 20
179.142245509
 30
0.0
 11
381.2078212062
 21
179.142245509
 31
0.0
  0
POINT
  5
45E
100
AcDbEntity
  8
0
 62
         7
100
AcDbPoint
 10
313.197623611
 20
179.142245509
 30
0.0
  0
POINT
  5
45F
100
AcDbEntity
  8
0
 62
         7
100
AcDbPoint
 10
381.2078212062
 20
179.142245509
 30
0.0
  0
ENDBLK
  5
460
100
AcDbEntity
  8
0
100
AcDbBlockEnd
  0
BLOCK
  5
463
100
AcDbEntity
  8
0
 62
       255
100
AcDbBlockBegin
  2
*D14
 70
         1
 10
0.0
 20
0.0
 30
0.0
  3
*D14
  1

  0
MTEXT
  5
464
100
AcDbEntity
  8
0
 62
         7
100
AcDbMText
 10
382.7953212062
 20
215.8645380223
 30
0.0
 40
3.5
 41
0.0
 71
         7
 72
         1
  1
90
  7
SLDTEXTSTYLE0
 73
         1
 44
1.0
  0
LINE
  5
465
100
AcDbEntity
  8
0
100
AcDbLine
 10
376.2078212062
 20
217.1414880223
 30
0.0
 11
381.2078212062
 21
217.1414880223
 31
0.0
  0
LINE
  5
466
100
AcDbEntity
  8
0
100
AcDbLine
 10
376.2078212062
 20
217.1414880223
 30
0.0
 11
371.2078212062
 21
219.142245509
 31
0.0
  0
LINE
  5
467
100
AcDbEntity
  8
0
100
AcDbLine
 10
371.2078212062
 20
219.142245509
 30
0.0
 11
274.197623611
 21
219.142245509
 31
0.0
  0
POINT
  5
468
100
AcDbEntity
  8
0
 62
         7
100
AcDbPoint
 10
273.197623611
 20
219.142245509
 30
0.0
  0
POINT
  5
469
100
AcDbEntity
  8
0
 62
         7
100
AcDbPoint
 10
381.2078212062
 20
217.1414880223
 30
0.0
  0
ENDBLK
  5
46A
100
AcDbEntity
  8
0
100
AcDbBlockEnd
  0
BLOCK
  5
46D
100
AcDbEntity
  8
0
 62
       255
100
AcDbBlockBegin
  2
*D15
 70
         1
 10
0.0
 20
0.0
 30
0.0
  3
*D15
  1

  0
MTEXT
  5
46E
100
AcDbEntity
  8
0
 62
         7
100
AcDbMText
 10
382.7953212062
 20
221.8660529957
 30
0.0
 40
3.5
 41
0.0
 71
         7
 72
         1
  1
92
  7
SLDTEXTSTYLE0
 73
         1
 44
1.0
  0
LINE
  5
46F
100
AcDbEntity
  8
0
100
AcDbLine
 10
376.2078212062
 20
223.1430029957
 30
0.0
 11
381.2078212062
 21
223.1430029957
 31
0.0
  0
LINE
  5
470
100
AcDbEntity
  8
0
100
AcDbLine
 10
376.2078212062
 20
223.1430029957
 30
0.0
 11
371.2078212062
 21
221.142245509
 31
0.0
  0
LINE
  5
471
100
AcDbEntity
  8
0
100
AcDbLine
 10
371.2078212062
 20
221.142245509
 30
0.0
 11
299.197623611
 21
221.142245509
 31
0.0
  0
POINT
  5
472
100
AcDbEntity
  8
0
 62
         7
100
AcDbPoint
 10
298.197623611
 20
221.142245509
 30
0.0
  0
POINT
  5
473
100
AcDbEntity
  8
0
 62
         7
100
AcDbPoint
 10
381.2078212062
 20
223.1430029957
 30
0.0
  0
ENDBLK
  5
474
100
AcDbEntity
  8
0
100
AcDbBlockEnd
  0
BLOCK
  5
477
100
AcDbEntity
  8
0
 62
       255
100
AcDbBlockBegin
  2
*D16
 70
         1
 10
0.0
 20
0.0
 30
0.0
  3
*D16
  1

  0
MTEXT
  5
478
100
AcDbEntity
  8
0
 62
         7
100
AcDbMText
 10
382.7953212062
 20
227.865295509
 30
0.0
 40
3.5
 41
0.0
 71
         7
 72
         1
  1
100
  7
SLDTEXTSTYLE0
 73
         1
 44
1.0
  0
LINE
  5
479
100
AcDbEntity
  8
0
100
AcDbLine
 10
364.197623611
 20
229.142245509
 30
0.0
 11
381.2078212062
 21
229.142245509
 31
0.0
  0
POINT
  5
47A
100
AcDbEntity
  8
0
 62
         7
100
AcDbPoint
 10
363.197623611
 20
229.142245509
 30
0.0
  0
POINT
  5
47B
100
AcDbEntity
  8
0
 62
         7
100
AcDbPoint
 10
381.2078212062
 20
229.142245509
 30
0.0
  0
ENDBLK
  5
47C
100
AcDbEntity
  8
0
100
AcDbBlockEnd
  0
BLOCK
  5
47F
100
AcDbEntity
  8
0
 62
       255
100
AcDbBlockBegin
  2
*D17
 70
         1
 10
0.0
 20
0.0
 30
0.0
  3
*D17
  1

  0
MTEXT
  5
480
100
AcDbEntity
  8
0
 62
         7
100
AcDbMText
 10
217.1142112471
 20
199.1636384834
 30
0.0
 40
3.5
 41
0.0
 71
         7
 72
         1
  1
non débouchant
  7
SLDTEXTSTYLE0
 73
         1
 44
1.0
  0
MTEXT
  5
481
100
AcDbEntity
  8
0
 62
         7
100
AcDbMText
 10
217.1142112471
 20
204.7175384834
 30
0.0
 40
3.5
 41
0.0
 71
         7
 72
         1
  1
%%c
  7
SLDTEXTSTYLE0
 73
         1
 44
1.0
  0
MTEXT
  5
482
100
AcDbEntity
  8
0
 62
         7
100
AcDbMText
 10
222.1117862471
 20
204.7175384834
 30
0.0
 40
3.5
 41
0.0
 71
         7
 72
         1
  1
8,50
  7
SLDTEXTSTYLE0
 73
         1
 44
1.0
  0
LINE
  5
483
100
AcDbEntity
  8
0
100
AcDbLine
 10
309.1765058307
 20
180.5181495017
 30
0.0
 11
298.9185863753
 21
184.0280970104
 31
0.0
  0
LINE
  5
484
100
AcDbEntity
  8
0
100
AcDbLine
 10
297.4766608466
 20
184.5214799951
 30
0.0
 11
273.9185863753
 21
192.5823353334
 31
0.0
  0
LINE
  5
485
100
AcDbEntity
  8
0
100
AcDbLine
 10
272.4766608466
 20
193.075718318
 30
0.0
 11
259.0683362471
 21
197.6636384834
 31
0.0
  0
LINE
  5
486
100
AcDbEntity
  8
0
100
AcDbLine
 10
317.2187413912
 20
177.7663415163
 30
0.0
 11
309.1765058307
 21
180.5181495017
 31
0.0
  0
LINE
  5
487
100
AcDbEntity
  8
0
100
AcDbLine
 10
259.0683362471
 20
197.6636384834
 30
0.0
 11
215.5267112471
 21
197.6636384834
 31
0.0
  0
SOLID
  5
488
100
AcDbEntity
  8
0
 62
       255
100
AcDbTrace
 10
309.1765058307
 20
180.5181495017
 30
0.0
 11
306.4837537026
 21
181.9151412615
 31
0.0
 12
306.1923857983
 22
181.0636104374
 32
0.0
 13
306.1923857983
 23
181.0636104374
 33
0.0
  0
POINT
  5
48A
100
AcDbEntity
  8
0
 62
         7
100
AcDbPoint
 10
309.1765058307
 20
180.5181495017
 30
0.0
  0
POINT
  5
48B
100
AcDbEntity
  8
0
 62
         7
100
AcDbPoint
 10
317.2187413912
 20
177.7663415163
 30
0.0
  0
ENDBLK
  5
48C
100
AcDbEntity
  8
0
100
AcDbBlockEnd
  0
BLOCK
  5
4EA
100
AcDbEntity
  8
0
 62
       255
100
AcDbBlockBegin
  2
*D18
 70
         1
 10
0.0
 20
0.0
 30
0.0
  3
*D18
  1

  0
MTEXT
  5
4EB
100
AcDbEntity
  8
0
 62
         7
100
AcDbMText
 10
90.1774798842
 20
95.5012097375
 30
0.0
 40
3.5
 41
0.0
 71
         7
 72
         1
  1
7
  7
SLDTEXTSTYLE0
 11
0.0
 21
1.0
 31
0.0
 73
         1
 44
1.0
  0
LINE
  5
4EC
100
AcDbEntity
  8
0
100
AcDbLine
 10
97.183008982
 20
80.6475
 30
0.0
 11
90.6774798842
 21
80.6475
 31
0.0
  0
LINE
  5
4ED
100
AcDbEntity
  8
0
100
AcDbLine
 10
91.6774798842
 20
80.6475
 30
0.0
 11
91.6774798842
 21
87.6475
 31
0.0
  0
LINE
  5
4EE
100
AcDbEntity
  8
0
100
AcDbLine
 10
91.6774798842
 20
87.6475
 30
0.0
 11
91.6774798842
 21
99.6739847375
 31
0.0
  0
SOLID
  5
4EF
100
AcDbEntity
  8
0
 62
       255
100
AcDbTrace
 10
91.6774798842
 20
80.6475
 30
0.0
 11
92.1274798842
 21
83.6475
 31
0.0
 12
91.2274798842
 22
83.6475
 32
0.0
 13
91.2274798842
 23
83.6475
 33
0.0
  0
SOLID
  5
4F0
100
AcDbEntity
  8
0
 62
       255
100
AcDbTrace
 10
91.6774798842
 20
87.6475
 30
0.0
 11
91.2274798842
 21
84.6475
 31
0.0
 12
92.1274798842
 22
84.6475
 32
0.0
 13
92.1274798842
 23
84.6475
 33
0.0
  0
POINT
  5
4F1
100
AcDbEntity
  8
0
 62
         7
100
AcDbPoint
 10
98.183008982
 20
80.6475
 30
0.0
  0
POINT
  5
4F2
100
AcDbEntity
  8
0
 62
         7
100
AcDbPoint
 10
98.183008982
 20
87.6475
 30
0.0
  0
ENDBLK
  5
4F3
100
AcDbEntity
  8
0
 62
       255
100
AcDbBlockEnd
  0
BLOCK
  5
4F6
100
AcDbEntity
  8
0
 62
       255
100
AcDbBlockBegin
  2
*D19
 70
         1
 10
0.0
 20
0.0
 30
0.0
  3
*D19
  1

  0
MTEXT
  5
4F7
100
AcDbEntity
  8
0
 62
         7
100
AcDbMText
 10
58.2981807811
 20
66.2785188929
 30
0.0
 40
3.5
 41
0.0
 71
         7
 72
         1
  1
4
  7
SLDTEXTSTYLE0
 11
0.0
 21
1.0
 31
0.0
 73
         1
 44
1.0
  0
LINE
  5
4F8
100
AcDbEntity
  8
0
100
AcDbLine
 10
60.833008982
 20
79.6475
 30
0.0
 11
58.7981807811
 21
79.6475
 31
0.0
  0
LINE
  5
4F9
100
AcDbEntity
  8
0
100
AcDbLine
 10
61.6878146895
 20
75.6475
 30
0.0
 11
58.7981807811
 21
75.6475
 31
0.0
  0
LINE
  5
4FA
100
AcDbEntity
  8
0
100
AcDbLine
 10
59.7981807811
 20
79.6475
 30
0.0
 11
59.7981807811
 21
84.6475
 31
0.0
  0
LINE
  5
4FB
100
AcDbEntity
  8
0
100
AcDbLine
 10
59.7981807811
 20
79.6475
 30
0.0
 11
59.7981807811
 21
75.6475
 31
0.0
  0
LINE
  5
4FC
100
AcDbEntity
  8
0
100
AcDbLine
 10
59.7981807811
 20
75.6475
 30
0.0
 11
59.7981807811
 21
64.6910188929
 31
0.0
  0
SOLID
  5
4FD
100
AcDbEntity
  8
0
 62
       255
100
AcDbTrace
 10
59.7981807811
 20
79.6475
 30
0.0
 11
60.2481807811
 21
82.6475
 31
0.0
 12
59.3481807811
 22
82.6475
 32
0.0
 13
59.3481807811
 23
82.6475
 33
0.0
  0
SOLID
  5
4FE
100
AcDbEntity
  8
0
 62
       255
100
AcDbTrace
 10
59.7981807811
 20
75.6475
 30
0.0
 11
59.3481807811
 21
72.6475
 31
0.0
 12
60.2481807811
 22
72.6475
 32
0.0
 13
60.2481807811
 23
72.6475
 33
0.0
  0
POINT
  5
4FF
100
AcDbEntity
  8
0
 62
         7
100
AcDbPoint
 10
61.833008982
 20
79.6475
 30
0.0
  0
POINT
  5
500
100
AcDbEntity
  8
0
 62
         7
100
AcDbPoint
 10
62.6878146895
 20
75.6475
 30
0.0
  0
ENDBLK
  5
501
100
AcDbEntity
  8
0
 62
       255
100
AcDbBlockEnd
  0
BLOCK
  5
504
100
AcDbEntity
  8
0
 62
       255
100
AcDbBlockBegin
  2
*D20
 70
         1
 10
0.0
 20
0.0
 30
0.0
  3
*D20
  1

  0
MTEXT
  5
505
100
AcDbEntity
  8
0
 62
         7
100
AcDbMText
 10
116.300794427
 20
65.3929828067
 30
0.0
 40
3.5
 41
0.0
 71
         7
 72
         1
  1
2
  7
SLDTEXTSTYLE0
 11
0.0
 21
1.0
 31
0.0
 73
         1
 44
1.0
  0
LINE
  5
506
100
AcDbEntity
  8
0
100
AcDbLine
 10
117.800794427
 20
77.6475
 30
0.0
 11
117.800794427
 21
82.6475
 31
0.0
  0
LINE
  5
507
100
AcDbEntity
  8
0
100
AcDbLine
 10
117.800794427
 20
77.6475
 30
0.0
 11
117.800794427
 21
75.6475
 31
0.0
  0
LINE
  5
508
100
AcDbEntity
  8
0
100
AcDbLine
 10
117.800794427
 20
75.6475
 30
0.0
 11
117.800794427
 21
63.8054828067
 31
0.0
  0
SOLID
  5
509
100
AcDbEntity
  8
0
 62
       255
100
AcDbTrace
 10
117.800794427
 20
77.6475
 30
0.0
 11
118.250794427
 21
80.6475
 31
0.0
 12
117.350794427
 22
80.6475
 32
0.0
 13
117.350794427
 23
80.6475
 33
0.0
  0
SOLID
  5
50A
100
AcDbEntity
  8
0
 62
       255
100
AcDbTrace
 10
117.800794427
 20
75.6475
 30
0.0
 11
117.350794427
 21
72.6475
 31
0.0
 12
118.250794427
 22
72.6475
 32
0.0
 13
118.250794427
 23
72.6475
 33
0.0
  0
POINT
  5
50B
100
AcDbEntity
  8
0
 62
         7
100
AcDbPoint
 10
121.433008982
 20
77.6475
 30
0.0
  0
POINT
  5
50C
100
AcDbEntity
  8
0
 62
         7
100
AcDbPoint
 10
114.7719716613
 20
75.6475
 30
0.0
  0
ENDBLK
  5
50D
100
AcDbEntity
  8
0
 62
       255
100
AcDbBlockEnd
  0
BLOCK
  5
510
100
AcDbEntity
  8
0
 62
       255
100
AcDbBlockBegin
  2
*D21
 70
         1
 10
0.0
 20
0.0
 30
0.0
  3
*D21
  1

  0
MTEXT
  5
511
100
AcDbEntity
  8
0
 62
         7
100
AcDbMText
 10
163.6768189687
 20
79.4392043755
 30
0.0
 40
3.5
 41
0.0
 71
         7
 72
         1
  1
12
  7
SLDTEXTSTYLE0
 11
0.0
 21
1.0
 31
0.0
 73
         1
 44
1.0
  0
LINE
  5
512
100
AcDbEntity
  8
0
100
AcDbLine
 10
153.433008982
 20
87.6475
 30
0.0
 11
166.1768189687
 21
87.6475
 31
0.0
  0
LINE
  5
513
100
AcDbEntity
  8
0
100
AcDbLine
 10
153.433008982
 20
75.6475
 30
0.0
 11
166.1768189687
 21
75.6475
 31
0.0
  0
LINE
  5
514
100
AcDbEntity
  8
0
100
AcDbLine
 10
165.1768189687
 20
87.6475
 30
0.0
 11
165.1768189687
 21
92.6475
 31
0.0
  0
LINE
  5
515
100
AcDbEntity
  8
0
100
AcDbLine
 10
165.1768189687
 20
87.6475
 30
0.0
 11
165.1768189687
 21
75.6475
 31
0.0
  0
LINE
  5
516
100
AcDbEntity
  8
0
100
AcDbLine
 10
165.1768189687
 20
75.6475
 30
0.0
 11
165.1768189687
 21
70.6475
 31
0.0
  0
SOLID
  5
517
100
AcDbEntity
  8
0
 62
       255
100
AcDbTrace
 10
165.1768189687
 20
87.6475
 30
0.0
 11
165.6268189687
 21
90.6475
 31
0.0
 12
164.7268189687
 22
90.6475
 32
0.0
 13
164.7268189687
 23
90.6475
 33
0.0
  0
SOLID
  5
518
100
AcDbEntity
  8
0
 62
       255
100
AcDbTrace
 10
165.1768189687
 20
75.6475
 30
0.0
 11
164.7268189687
 21
72.6475
 31
0.0
 12
165.6268189687
 22
72.6475
 32
0.0
 13
165.6268189687
 23
72.6475
 33
0.0
  0
POINT
  5
519
100
AcDbEntity
  8
0
 62
         7
100
AcDbPoint
 10
152.433008982
 20
87.6475
 30
0.0
  0
POINT
  5
51A
100
AcDbEntity
  8
0
 62
         7
100
AcDbPoint
 10
152.433008982
 20
75.6475
 30
0.0
  0
ENDBLK
  5
51B
100
AcDbEntity
  8
0
 62
       255
100
AcDbBlockEnd
  0
ENDSEC
  0
SECTION
  2
ENTITIES
  0
LINE
  5
30
100
AcDbEntity
  8
0
370
         0
  6
Continuous
 62
         7
100
AcDbLine
 10
12.0
 20
279.0
 30
0.0
 11
408.0
 21
279.0
 31
0.0
  0
LINE
  5
31
100
AcDbEntity
  8
0
370
         0
  6
Continuous
 62
         7
100
AcDbLine
 10
12.0
 20
279.0
 30
0.0
 11
12.0
 21
18.0
 31
0.0
  0
LINE
  5
32
100
AcDbEntity
  8
0
370
         0
  6
Continuous
 62
         7
100
AcDbLine
 10
12.0
 20
18.0
 30
0.0
 11
408.0
 21
18.0
 31
0.0
  0
LINE
  5
33
100
AcDbEntity
  8
0
370
         0
  6
Continuous
 62
         7
100
AcDbLine
 10
408.0
 20
279.0
 30
0.0
 11
408.0
 21
18.0
 31
0.0
  0
LINE
  5
34
100
AcDbEntity
  8
0
370
         0
  6
Continuous
 62
         7
100
AcDbLine
 10
230.084092326
 20
18.2522667599
 30
0.0
 11
407.7493469813
 21
18.2522667599
 31
0.0
  0
LINE
  5
35
100
AcDbEntity
  8
0
370
         0
  6
Continuous
 62
         7
100
AcDbLine
 10
408.0
 20
58.3068354107
 30
0.0
 11
230.084092326
 21
58.3068354107
 31
0.0
  0
LINE
  5
36
100
AcDbEntity
  8
0
370
         0
  6
Continuous
 62
         7
100
AcDbLine
 10
366.4090916959
 20
58.3068354107
 30
0.0
 11
366.4090916959
 21
38.2795510853
 31
0.0
  0
LINE
  5
37
100
AcDbEntity
  8
0
370
         0
  6
Continuous
 62
         7
100
AcDbLine
 10
407.7493469813
 20
18.2522667599
 30
0.0
 11
288.5242550027
 21
18.2522667599
 31
0.0
  0
LINE
  5
38
100
AcDbEntity
  8
0
370
         0
  6
Continuous
 62
         7
100
AcDbLine
 10
407.7493469813
 20
18.2522667599
 30
0.0
 11
407.7493469813
 21
38.2795510853
 31
0.0
  0
LINE
  5
39
100
AcDbEntity
  8
0
370
         0
  6
Continuous
 62
         7
100
AcDbLine
 10
407.7493469813
 20
38.2795510853
 30
0.0
 11
288.5242550027
 21
38.2795510853
 31
0.0
  0
LINE
  5
3A
100
AcDbEntity
  8
0
370
         0
  6
Continuous
 62
         7
100
AcDbLine
 10
288.5242550027
 20
18.2522667599
 30
0.0
 11
288.5242550027
 21
38.2795510853
 31
0.0
  0
LINE
  5
3B
100
AcDbEntity
  8
0
370
         0
  6
Continuous
 62
         7
100
AcDbLine
 10
288.5242550027
 20
18.2522667599
 30
0.0
 11
230.084092326
 21
18.2522667599
 31
0.0
  0
LINE
  5
3C
100
AcDbEntity
  8
0
370
         0
  6
Continuous
 62
         7
100
AcDbLine
 10
288.5242550027
 20
18.2522667599
 30
0.0
 11
288.5242550027
 21
58.3068354107
 31
0.0
  0
LINE
  5
3D
100
AcDbEntity
  8
0
370
         0
  6
Continuous
 62
         7
100
AcDbLine
 10
288.5242550027
 20
58.3068354107
 30
0.0
 11
230.084092326
 21
58.3068354107
 31
0.0
  0
LINE
  5
3E
100
AcDbEntity
  8
0
370
         0
  6
Continuous
 62
         7
100
AcDbLine
 10
230.084092326
 20
18.2522667599
 30
0.0
 11
230.084092326
 21
58.3068354107
 31
0.0
  0
LINE
  5
3F
100
AcDbEntity
  8
0
370
         0
  6
Continuous
 62
         7
100
AcDbLine
 10
366.4090916959
 20
48.293193248
 30
0.0
 11
408.0
 21
48.293193248
 31
0.0
  0
LINE
  5
40
100
AcDbEntity
  8
0
370
         0
  6
Continuous
 62
         7
100
AcDbLine
 10
366.4090916959
 20
48.293193248
 30
0.0
 11
288.5242550027
 21
48.293193248
 31
0.0
  0
LINE
  5
41
100
AcDbEntity
  8
0
370
         0
  6
Continuous
 62
         7
100
AcDbLine
 10
288.5242550027
 20
38.2795510853
 30
0.0
 11
230.084092326
 21
38.2795510853
 31
0.0
  0
LINE
  5
42
100
AcDbEntity
  8
0
370
         0
  6
CENTERX2
 62
         7
100
AcDbLine
 10
231.5034756363
 20
52.6447098121
 30
0.0
 11
241.8262640213
 21
52.6447098121
 31
0.0
  0
LINE
  5
43
100
AcDbEntity
  8
0
370
         0
  6
CENTERX2
 62
         7
100
AcDbLine
 10
254.0649093727
 20
52.6447098121
 30
0.0
 11
245.9934787816
 21
52.6447098121
 31
0.0
  0
LINE
  5
44
100
AcDbEntity
  8
0
370
         0
  6
CENTERX2
 62
         7
100
AcDbLine
 10
250.0291940771
 20
55.6569677112
 30
0.0
 11
250.0291940771
 21
49.632451913
 31
0.0
  0
LINE
  5
45
100
AcDbEntity
  8
0
370
         0
  6
Continuous
 62
         7
100
AcDbLine
 10
233.7155017188
 20
51.4968023375
 30
0.0
 11
233.7155017188
 21
53.7926172867
 31
0.0
  0
LINE
  5
46
100
AcDbEntity
  8
0
370
         0
  6
Continuous
 62
         7
100
AcDbLine
 10
233.7155017188
 20
53.7926172867
 30
0.0
 11
238.7847281578
 21
55.3594690952
 31
0.0
  0
LINE
  5
47
100
AcDbEntity
  8
0
370
         0
  6
Continuous
 62
         7
100
AcDbLine
 10
238.7847281578
 20
55.3594690952
 30
0.0
 11
238.7847281578
 21
49.9299505291
 31
0.0
  0
LINE
  5
48
100
AcDbEntity
  8
0
370
         0
  6
Continuous
 62
         7
100
AcDbLine
 10
238.7847281578
 20
49.9299505291
 30
0.0
 11
233.7155017188
 21
51.4968023375
 31
0.0
  0
CIRCLE
  5
49
100
AcDbEntity
  8
0
370
         0
  6
Continuous
 62
         5
100
AcDbCircle
 10
250.0291940771
 20
52.6447098121
 30
0.0
 40
3.1391205675
  0
CIRCLE
  5
4A
100
AcDbEntity
  8
0
370
         0
  6
Continuous
 62
         5
100
AcDbCircle
 10
250.0291940771
 20
52.6447098121
 30
0.0
 40
1.5
  0
MTEXT
  5
4C
100
AcDbEntity
  8
0
 62
         7
100
AcDbMText
 10
321.3289280526
 20
44.4688155428
 30
0.0
 40
3.5
 41
0.0
 71
         1
 72
         1
  1
   
  7
SLDTEXTSTYLE0
 73
         1
 44
1.0
  0
MTEXT
  5
4D
100
AcDbEntity
  8
0
 62
         7
100
AcDbMText
 10
314.4447636363
 20
55.7845976875
 30
0.0
 40
3.5
 41
0.0
 71
         1
 72
         1
  1
ALU 2017 - AU4G
  7
SLDTEXTSTYLE0
 73
         1
 44
1.0
  0
MTEXT
  5
4E
100
AcDbEntity
  8
0
 62
         7
100
AcDbMText
 10
397.3299847037
 20
55.629067595
 30
0.0
 40
3.5
 41
0.0
 71
         1
 72
         1
  1
01
  7
SLDTEXTSTYLE0
 73
         1
 44
1.0
  0
MTEXT
  5
4F
100
AcDbEntity
  8
0
 62
         7
100
AcDbMText
 10
367.499804219
 20
55.6184159535
 30
0.0
 40
3.5
 41
0.0
 71
         1
 72
         1
  1
Quantité:
  7
SLDTEXTSTYLE0
 73
         1
 44
1.0
  0
MTEXT
  5
50
100
AcDbEntity
  8
0
 62
         7
100
AcDbMText
 10
289.4619428465
 20
55.2778536138
 30
0.0
 40
3.5
 41
0.0
 71
         1
 72
         1
  1
Matière:
  7
SLDTEXTSTYLE0
 73
         1
 44
1.0
  0
MTEXT
  5
51
100
AcDbEntity
  8
0
 62
         7
100
AcDbMText
 10
289.4390372629
 20
44.699460691
 30
0.0
 40
3.5
 41
0.0
 71
         1
 72
         1
  1
Observation:
  7
SLDTEXTSTYLE0
 73
         1
 44
1.0
  0
MTEXT
  5
52
100
AcDbEntity
  8
0
 62
         7
100
AcDbMText
 10
289.7346356121
 20
35.1462952525
 30
0.0
 40
3.5
 41
0.0
 71
         1
 72
         1
  1
Désignation:
  7
SLDTEXTSTYLE0
 73
         1
 44
1.0
  0
MTEXT
  5
53
100
AcDbEntity
  8
0
 62
         7
100
AcDbMText
 10
240.0342250463
 20
45.4874721265
 30
0.0
 40
3.5
 41
0.0
 71
         1
 72
         1
  1
Tol Gén: +/-0.2
  7
SLDTEXTSTYLE0
 73
         1
 44
1.0
  0
MTEXT
  5
54
100
AcDbEntity
  8
0
 62
         7
100
AcDbMText
 10
270.3659973884
 20
57.292987735
 30
0.0
 40
3.5
 41
0.0
 71
         2
 72
         1
  1
A3 \PEchelle 1:1
  7
SLDTEXTSTYLE0
 73
         1
 44
1.0
  0
MTEXT
  5
55
100
AcDbEntity
  8
0
 62
         7
100
AcDbMText
 10
374.545001106
 20
45.7319305088
 30
0.0
 40
3.5
 41
0.0
 71
         1
 72
         1
  1
24/02/2023
  7
SLDTEXTSTYLE0
 73
         1
 44
1.0
  0
MTEXT
  5
56
100
AcDbEntity
  8
0
 62
         7
100
AcDbMText
 10
305.7392518586
 20
27.8230098604
 30
0.0
 40
5.2916666667
 41
0.0
 71
         1
 72
         1
  1
ARL-PIMER01-01-A-base
  7
SLDTEXTSTYLE0
 73
         1
 44
1.0
  0
MTEXT
  5
57
100
AcDbEntity
  8
0
 62
         7
100
AcDbMText
 10
323.7867495045
 20
47.8558472993
 30
0.0
 40
3.5
 41
0.0
 71
         1
 72
         1
  1
-
  7
SLDTEXTSTYLE0
 73
         1
 44
1.0
  0
ARC
  5
58
100
AcDbEntity
  8
0
370
        15
  6
Continuous
 62
         7
100
AcDbCircle
 10
102.433008982
 20
179.142245509
 30
0.0
 40
12.5
100
AcDbArc
 50
189.2068962213
 51
215.7931037787
  0
LINE
  5
59
100
AcDbEntity
  8
0
370
        15
  6
Continuous
 62
         7
100
AcDbLine
 10
92.2938312364
 20
171.831494888
 30
0.0
 11
87.5837665771
 21
167.1214302288
 31
0.0
  0
LINE
  5
5A
100
AcDbEntity
  8
0
370
        15
  6
Continuous
 62
         7
100
AcDbLine
 10
86.1695530147
 20
168.5356437912
 30
0.0
 11
87.5837665771
 21
167.1214302288
 31
0.0
  0
ARC
  5
5B
100
AcDbEntity
  8
0
370
        15
  6
Continuous
 62
         7
100
AcDbCircle
 10
85.4624462336
 20
167.82853701
 30
0.0
 40
1.0
100
AcDbArc
 50
45.0
 51
213.4630409672
  0
LINE
  5
5C
100
AcDbEntity
  8
0
370
        15
  6
Continuous
 62
         7
100
AcDbLine
 10
74.801050944
 20
155.8585644699
 30
0.0
 11
84.6282045543
 21
167.2771380432
 31
0.0
  0
ARC
  5
5D
100
AcDbEntity
  8
0
370
        15
  6
Continuous
 62
         7
100
AcDbCircle
 10
74.1487377346
 20
155.1006149486
 30
0.0
 40
1.0
100
AcDbArc
 50
49.2837641521
 51
225.0
  0
LINE
  5
5E
100
AcDbEntity
  8
0
370
        15
  6
Continuous
 62
         7
100
AcDbLine
 10
73.795184344
 20
154.0399547769
 30
0.0
 11
73.4416309534
 21
154.3935081675
 31
0.0
  0
LINE
  5
5F
100
AcDbEntity
  8
0
370
        15
  6
Continuous
 62
         7
100
AcDbLine
 10
71.6738640004
 20
151.9186344333
 30
0.0
 11
73.795184344
 21
154.0399547769
 31
0.0
  0
LINE
  5
60
100
AcDbEntity
  8
0
370
        15
  6
Continuous
 62
         7
100
AcDbLine
 10
71.3203106098
 20
152.2721878239
 30
0.0
 11
71.6738640004
 21
151.9186344333
 31
0.0
  0
ARC
  5
61
100
AcDbEntity
  8
0
370
        15
  6
Continuous
 62
         7
100
AcDbCircle
 10
70.6132038286
 20
151.5650810427
 30
0.0
 40
1.0
100
AcDbArc
 50
45.0
 51
225.0
  0
LINE
  5
62
100
AcDbEntity
  8
0
370
        15
  6
Continuous
 62
         7
100
AcDbLine
 10
70.6132038286
 20
150.1508674803
 30
0.0
 11
69.9060970475
 21
150.8579742615
 31
0.0
  0
LINE
  5
63
100
AcDbEntity
  8
0
370
        15
  6
Continuous
 62
         7
100
AcDbLine
 10
70.6132038286
 20
150.1508674803
 30
0.0
 11
68.9161475538
 21
148.4538112055
 31
0.0
  0
ARC
  5
64
100
AcDbEntity
  8
0
370
        15
  6
Continuous
 62
         7
100
AcDbCircle
 10
70.0475184037
 20
147.3224403556
 30
0.0
 40
1.6
100
AcDbArc
 50
135.0
 51
225.0
  0
LINE
  5
65
100
AcDbEntity
  8
0
370
        15
  6
Continuous
 62
         7
100
AcDbLine
 10
68.9161475538
 20
146.1910695057
 30
0.0
 11
69.4818329787
 21
145.6253840807
 31
0.0
  0
ARC
  5
66
100
AcDbEntity
  8
0
370
        15
  6
Continuous
 62
         7
100
AcDbCircle
 10
70.6132038286
 20
146.7567549306
 30
0.0
 40
1.6
100
AcDbArc
 50
225.0
 51
315.0
  0
LINE
  5
67
100
AcDbEntity
  8
0
370
        15
  6
Continuous
 62
         7
100
AcDbLine
 10
71.7445746785
 20
145.6253840807
 30
0.0
 11
73.4416309534
 21
147.3224403556
 31
0.0
  0
LINE
  5
68
100
AcDbEntity
  8
0
370
        15
  6
Continuous
 62
         7
100
AcDbLine
 10
74.1487377346
 20
146.6153335744
 30
0.0
 11
73.4416309534
 21
147.3224403556
 31
0.0
  0
ARC
  5
69
100
AcDbEntity
  8
0
370
        15
  6
Continuous
 62
         7
100
AcDbCircle
 10
74.8558445158
 20
147.3224403556
 30
0.0
 40
1.0
100
AcDbArc
 50
225.0
 51
45.0
  0
LINE
  5
6A
100
AcDbEntity
  8
0
370
        15
  6
Continuous
 62
         7
100
AcDbLine
 10
75.2093979064
 20
148.3831005274
 30
0.0
 11
75.5629512969
 21
148.0295471368
 31
0.0
  0
LINE
  5
6B
100
AcDbEntity
  8
0
370
        15
  6
Continuous
 62
         7
100
AcDbLine
 10
77.3307182499
 20
150.5044208709
 30
0.0
 11
75.2093979064
 21
148.3831005274
 31
0.0
  0
LINE
  5
6C
100
AcDbEntity
  8
0
370
        15
  6
Continuous
 62
         7
100
AcDbLine
 10
77.6842716405
 20
150.1508674803
 30
0.0
 11
77.3307182499
 21
150.5044208709
 31
0.0
  0
ARC
  5
6D
100
AcDbEntity
  8
0
370
        15
  6
Continuous
 62
         7
100
AcDbCircle
 10
78.3913784217
 20
150.8579742615
 30
0.0
 40
1.0
100
AcDbArc
 50
225.0
 51
40.7162358479
  0
LINE
  5
6E
100
AcDbEntity
  8
0
370
        15
  6
Continuous
 62
         7
100
AcDbLine
 10
90.5679015163
 20
161.3374410812
 30
0.0
 11
79.149327943
 21
151.5102874709
 31
0.0
  0
ARC
  5
6F
100
AcDbEntity
  8
0
370
        15
  6
Continuous
 62
         7
100
AcDbCircle
 10
91.1193004831
 20
162.1716827605
 30
0.0
 40
1.0
100
AcDbArc
 50
236.5369590328
 51
45.0
  0
LINE
  5
70
100
AcDbEntity
  8
0
370
        15
  6
Continuous
 62
         7
100
AcDbLine
 10
90.4121937019
 20
164.2930031041
 30
0.0
 11
91.8264072642
 21
162.8787895417
 31
0.0
  0
LINE
  5
71
100
AcDbEntity
  8
0
370
        15
  6
Continuous
 62
         7
100
AcDbLine
 10
90.4121937019
 20
164.2930031041
 30
0.0
 11
95.1222583611
 21
169.0030677633
 31
0.0
  0
ARC
  5
72
100
AcDbEntity
  8
0
370
        15
  6
Continuous
 62
         7
100
AcDbCircle
 10
102.433008982
 20
179.142245509
 30
0.0
 40
12.5
100
AcDbArc
 50
234.2068962213
 51
260.7931037787
  0
LINE
  5
73
100
AcDbEntity
  8
0
370
        15
  6
Continuous
 62
         7
100
AcDbLine
 10
100.433008982
 20
166.8032828297
 30
0.0
 11
100.433008982
 21
159.7123943393
 31
0.0
  0
POLYLINE
  5
74
100
AcDbEntity
  8
0
370
        15
  6
Continuous
 62
         7
100
AcDb2dPolyline
 66
         1
 10
0.0
 20
0.0
 30
0.0
 70
       128
  0
VERTEX
  5
75
100
AcDbEntity
  8
0
100
AcDbVertex
100
AcDb2dVertex
 10
98.8538165551
 20
143.8858343301
 30
0.0
  0
VERTEX
  5
76
100
AcDbEntity
  8
0
100
AcDbVertex
100
AcDb2dVertex
 10
98.1703371427
 20
144.5928990104
 30
0.0
  0
VERTEX
  5
77
100
AcDbEntity
  8
0
100
AcDbVertex
100
AcDb2dVertex
 10
97.5611342804
 20
145.4165188806
 30
0.0
  0
VERTEX
  5
78
100
AcDbEntity
  8
0
100
AcDbVertex
100
AcDb2dVertex
 10
97.0368232555
 20
146.3423424624
 30
0.0
  0
VERTEX
  5
79
100
AcDbEntity
  8
0
100
AcDbVertex
100
AcDb2dVertex
 10
96.6065401255
 20
147.3542373901
 30
0.0
  0
VERTEX
  5
7A
100
AcDbEntity
  8
0
100
AcDbVertex
100
AcDb2dVertex
 10
96.2777825226
 20
148.4345715147
 30
0.0
  0
VERTEX
  5
7B
100
AcDbEntity
  8
0
100
AcDbVertex
100
AcDb2dVertex
 10
96.0562790091
 20
149.5645201426
 30
0.0
  0
VERTEX
  5
7C
100
AcDbEntity
  8
0
100
AcDbVertex
100
AcDb2dVertex
 10
95.9458892573
 20
150.7243940532
 30
0.0
  0
VERTEX
  5
7D
100
AcDbEntity
  8
0
100
AcDbVertex
100
AcDb2dVertex
 10
95.9485367955
 20
151.8939825816
 30
0.0
  0
VERTEX
  5
7E
100
AcDbEntity
  8
0
100
AcDbVertex
100
AcDb2dVertex
 10
96.0641754907
 20
153.0529057867
 30
0.0
  0
VERTEX
  5
7F
100
AcDbEntity
  8
0
100
AcDbVertex
100
AcDb2dVertex
 10
96.2907903523
 20
154.1809695694
 30
0.0
  0
VERTEX
  5
80
100
AcDbEntity
  8
0
100
AcDbVertex
100
AcDb2dVertex
 10
96.6244326434
 20
155.2585175524
 30
0.0
  0
VERTEX
  5
81
100
AcDbEntity
  8
0
100
AcDbVertex
100
AcDb2dVertex
 10
97.0592886867
 20
156.2667735902
 30
0.0
  0
VERTEX
  5
82
100
AcDbEntity
  8
0
100
AcDbVertex
100
AcDb2dVertex
 10
97.5877811673
 20
157.1881689411
 30
0.0
  0
VERTEX
  5
83
100
AcDbEntity
  8
0
100
AcDbVertex
100
AcDb2dVertex
 10
98.2007011666
 20
158.0066484008
 30
0.0
  0
VERTEX
  5
84
100
AcDbEntity
  8
0
100
AcDbVertex
100
AcDb2dVertex
 10
98.8873686265
 20
158.707950062
 30
0.0
  0
VERTEX
  5
85
100
AcDbEntity
  8
0
100
AcDbVertex
100
AcDb2dVertex
 10
99.635818448
 20
159.2798538265
 30
0.0
  0
VERTEX
  5
86
100
AcDbEntity
  8
0
100
AcDbVertex
100
AcDb2dVertex
 10
100.433008982
 20
159.7123943393
 30
0.0
  0
SEQEND
  5
87
100
AcDbEntity
  8
0
  0
ARC
  5
88
100
AcDbEntity
  8
0
370
        15
  6
Continuous
 62
         7
100
AcDbCircle
 10
98.1851794746
 20
143.142245509
 30
0.0
 40
0.9999999402
100
AcDbArc
 50
308.9463309233
 51
48.0380359368
  0
ARC
  5
89
100
AcDbEntity
  8
0
370
        15
  6
Continuous
 62
         7
100
AcDbCircle
 10
105.0996949864
 20
134.5871571856
 30
0.0
 40
10.0000028319
100
AcDbArc
 50
128.9463309255
 51
153.6159402483
  0
ARC
  5
8A
100
AcDbEntity
  8
0
370
        15
  6
Continuous
 62
         7
100
AcDbCircle
 10
97.9330094421
 20
138.142245969
 30
0.0
 40
2.00000046
100
AcDbArc
 50
153.6159402482
 51
310.0051928092
  0
ARC
  5
8B
100
AcDbEntity
  8
0
370
        15
  6
Continuous
 62
         7
100
AcDbCircle
 10
102.433008982
 20
132.780342335
 30
0.0
 40
5.0
100
AcDbArc
 50
49.9948071908
 51
130.0051928092
  0
ARC
  5
8C
100
AcDbEntity
  8
0
370
        15
  6
Continuous
 62
         7
100
AcDbCircle
 10
106.933008522
 20
138.142245969
 30
0.0
 40
2.00000046
100
AcDbArc
 50
229.9948071908
 51
26.3840597517
  0
ARC
  5
8D
100
AcDbEntity
  8
0
370
        15
  6
Continuous
 62
         7
100
AcDbCircle
 10
99.7663229777
 20
134.5871571856
 30
0.0
 40
10.0000028319
100
AcDbArc
 50
26.3840597517
 51
51.0536690746
  0
ARC
  5
8E
100
AcDbEntity
  8
0
370
        15
  6
Continuous
 62
         7
100
AcDbCircle
 10
106.6808384895
 20
143.142245509
 30
0.0
 40
0.9999999402
100
AcDbArc
 50
131.9619640633
 51
231.0536690747
  0
POLYLINE
  5
8F
100
AcDbEntity
  8
0
370
        15
  6
Continuous
 62
         7
100
AcDb2dPolyline
 66
         1
 10
0.0
 20
0.0
 30
0.0
 70
       128
  0
VERTEX
  5
90
100
AcDbEntity
  8
0
100
AcDbVertex
100
AcDb2dVertex
 10
104.433008982
 20
159.7123943393
 30
0.0
  0
VERTEX
  5
91
100
AcDbEntity
  8
0
100
AcDbVertex
100
AcDb2dVertex
 10
105.2301995161
 20
159.2798538265
 30
0.0
  0
VERTEX
  5
92
100
AcDbEntity
  8
0
100
AcDbVertex
100
AcDb2dVertex
 10
105.9786493376
 20
158.707950062
 30
0.0
  0
VERTEX
  5
93
100
AcDbEntity
  8
0
100
AcDbVertex
100
AcDb2dVertex
 10
106.6653167975
 20
158.0066484008
 30
0.0
  0
VERTEX
  5
94
100
AcDbEntity
  8
0
100
AcDbVertex
100
AcDb2dVertex
 10
107.2782367967
 20
157.1881689411
 30
0.0
  0
VERTEX
  5
95
100
AcDbEntity
  8
0
100
AcDbVertex
100
AcDb2dVertex
 10
107.8067292773
 20
156.2667735902
 30
0.0
  0
VERTEX
  5
96
100
AcDbEntity
  8
0
100
AcDbVertex
100
AcDb2dVertex
 10
108.2415853206
 20
155.2585175524
 30
0.0
  0
VERTEX
  5
97
100
AcDbEntity
  8
0
100
AcDbVertex
100
AcDb2dVertex
 10
108.5752276117
 20
154.1809695694
 30
0.0
  0
VERTEX
  5
98
100
AcDbEntity
  8
0
100
AcDbVertex
100
AcDb2dVertex
 10
108.8018424734
 20
153.0529057867
 30
0.0
  0
VERTEX
  5
99
100
AcDbEntity
  8
0
100
AcDbVertex
100
AcDb2dVertex
 10
108.9174811686
 20
151.8939825816
 30
0.0
  0
VERTEX
  5
9A
100
AcDbEntity
  8
0
100
AcDbVertex
100
AcDb2dVertex
 10
108.9201287068
 20
150.7243940532
 30
0.0
  0
VERTEX
  5
9B
100
AcDbEntity
  8
0
100
AcDbVertex
100
AcDb2dVertex
 10
108.809738955
 20
149.5645201426
 30
0.0
  0
VERTEX
  5
9C
100
AcDbEntity
  8
0
100
AcDbVertex
100
AcDb2dVertex
 10
108.5882354414
 20
148.4345715147
 30
0.0
  0
VERTEX
  5
9D
100
AcDbEntity
  8
0
100
AcDbVertex
100
AcDb2dVertex
 10
108.2594778386
 20
147.3542373901
 30
0.0
  0
VERTEX
  5
9E
100
AcDbEntity
  8
0
100
AcDbVertex
100
AcDb2dVertex
 10
107.8291947085
 20
146.3423424625
 30
0.0
  0
VERTEX
  5
9F
100
AcDbEntity
  8
0
100
AcDbVertex
100
AcDb2dVertex
 10
107.3048836837
 20
145.4165188806
 30
0.0
  0
VERTEX
  5
A0
100
AcDbEntity
  8
0
100
AcDbVertex
100
AcDb2dVertex
 10
106.6956808214
 20
144.5928990104
 30
0.0
  0
VERTEX
  5
A1
100
AcDbEntity
  8
0
100
AcDbVertex
100
AcDb2dVertex
 10
106.012201409
 20
143.8858343301
 30
0.0
  0
SEQEND
  5
A2
100
AcDbEntity
  8
0
  0
LINE
  5
A3
100
AcDbEntity
  8
0
370
        15
  6
Continuous
 62
         7
100
AcDbLine
 10
104.433008982
 20
159.7123943393
 30
0.0
 11
104.433008982
 21
166.8032828297
 31
0.0
  0
ARC
  5
A4
100
AcDbEntity
  8
0
370
        15
  6
Continuous
 62
         7
100
AcDbCircle
 10
102.433008982
 20
179.142245509
 30
0.0
 40
12.5
100
AcDbArc
 50
279.2068962213
 51
305.7931037787
  0
LINE
  5
A5
100
AcDbEntity
  8
0
370
        15
  6
Continuous
 62
         7
100
AcDbLine
 10
109.743759603
 20
169.0030677633
 30
0.0
 11
114.4538242622
 21
164.2930031041
 31
0.0
  0
LINE
  5
A6
100
AcDbEntity
  8
0
370
        15
  6
Continuous
 62
         7
100
AcDbLine
 10
111.6253971375
 20
161.4645759793
 30
0.0
 11
114.4538242622
 21
164.2930031041
 31
0.0
  0
LINE
  5
A7
100
AcDbEntity
  8
0
370
        15
  6
Continuous
 62
         7
100
AcDbLine
 10
111.6454624488
 20
161.444510668
 30
0.0
 11
111.6253971375
 21
161.4645759793
 31
0.0
  0
ARC
  5
A8
100
AcDbEntity
  8
0
370
        15
  6
Continuous
 62
         7
100
AcDbCircle
 10
112.9689000217
 20
160.5453371638
 30
0.0
 40
1.6
100
AcDbArc
 50
145.8069228749
 51
180.0
  0
LINE
  5
A9
100
AcDbEntity
  8
0
370
        15
  6
Continuous
 62
         7
100
AcDbLine
 10
111.3689000217
 20
159.4139663139
 30
0.0
 11
111.3689000217
 21
160.5453371638
 31
0.0
  0
ARC
  5
AA
100
AcDbEntity
  8
0
370
        15
  6
Continuous
 62
         7
100
AcDbCircle
 10
112.9689000217
 20
159.4139663139
 30
0.0
 40
1.6
100
AcDbArc
 50
180.0
 51
315.0
  0
LINE
  5
AB
100
AcDbEntity
  8
0
370
        15
  6
Continuous
 62
         7
100
AcDbLine
 10
117.282251387
 20
161.4645759793
 30
0.0
 11
114.1002708716
 21
158.282595464
 31
0.0
  0
LINE
  5
AC
100
AcDbEntity
  8
0
370
        15
  6
Continuous
 62
         7
100
AcDbLine
 10
119.4035717305
 20
159.3432556358
 30
0.0
 11
117.282251387
 21
161.4645759793
 31
0.0
  0
LINE
  5
AD
100
AcDbEntity
  8
0
370
        15
  6
Continuous
 62
         7
100
AcDbLine
 10
115.1609310434
 20
155.1006149486
 30
0.0
 11
119.4035717305
 21
159.3432556358
 31
0.0
  0
ARC
  5
AE
100
AcDbEntity
  8
0
370
        15
  6
Continuous
 62
         7
100
AcDbCircle
 10
116.2923018933
 20
153.9692440987
 30
0.0
 40
1.6
100
AcDbArc
 50
135.0
 51
228.7498183679
  0
ARC
  5
AF
100
AcDbEntity
  8
0
370
        15
  6
Continuous
 62
         7
100
AcDbCircle
 10
125.127567753
 20
164.0438695105
 30
0.0
 40
15.0
100
AcDbArc
 50
228.7498183679
 51
291.3690355659
  0
ARC
  5
B0
100
AcDbEntity
  8
0
370
        15
  6
Continuous
 62
         7
100
AcDbCircle
 10
130.0101734483
 20
151.5650810427
 30
0.0
 40
1.6
100
AcDbArc
 50
291.3690355659
 51
17.2414593989
  0
LINE
  5
B1
100
AcDbEntity
  8
0
370
        15
  6
Continuous
 62
         7
100
AcDbLine
 10
127.7198994488
 20
164.3429777791
 30
0.0
 11
131.5382760672
 21
152.0393197865
 31
0.0
  0
ARC
  5
B2
100
AcDbEntity
  8
0
370
        15
  6
Continuous
 62
         7
100
AcDbCircle
 10
126.1917968299
 20
163.8687390354
 30
0.0
 40
1.6
100
AcDbArc
 50
17.2414593989
 51
135.0
  0
LINE
  5
B3
100
AcDbEntity
  8
0
370
        15
  6
Continuous
 62
         7
100
AcDbLine
 10
122.2319988553
 20
162.1716827605
 30
0.0
 11
125.06042598
 21
165.0001098853
 31
0.0
  0
LINE
  5
B4
100
AcDbEntity
  8
0
370
        15
  6
Continuous
 62
         7
100
AcDbLine
 10
120.1106785117
 20
164.2930031041
 30
0.0
 11
122.2319988553
 21
162.1716827605
 31
0.0
  0
LINE
  5
B5
100
AcDbEntity
  8
0
370
        15
  6
Continuous
 62
         7
100
AcDbLine
 10
123.292659027
 20
167.4749836194
 30
0.0
 11
120.1106785117
 21
164.2930031041
 31
0.0
  0
ARC
  5
B6
100
AcDbEntity
  8
0
370
        15
  6
Continuous
 62
         7
100
AcDbCircle
 10
122.1612881771
 20
168.6063544693
 30
0.0
 40
1.6
100
AcDbArc
 50
315.0
 51
90.0
  0
LINE
  5
B7
100
AcDbEntity
  8
0
370
        15
  6
Continuous
 62
         7
100
AcDbLine
 10
121.0299173272
 20
170.2063544693
 30
0.0
 11
122.1612881771
 21
170.2063544693
 31
0.0
  0
ARC
  5
B8
100
AcDbEntity
  8
0
370
        15
  6
Continuous
 62
         7
100
AcDbCircle
 10
121.0299173272
 20
168.6063544693
 30
0.0
 40
1.6
100
AcDbArc
 50
90.0
 51
124.1930771251
  0
LINE
  5
B9
100
AcDbEntity
  8
0
370
        15
  6
Continuous
 62
         7
100
AcDbLine
 10
120.1106785117
 20
169.9498573536
 30
0.0
 11
120.1307438231
 21
169.9297920422
 31
0.0
  0
LINE
  5
BA
100
AcDbEntity
  8
0
370
        15
  6
Continuous
 62
         7
100
AcDbLine
 10
117.282251387
 20
167.1214302288
 30
0.0
 11
120.1106785117
 21
169.9498573536
 31
0.0
  0
LINE
  5
BB
100
AcDbEntity
  8
0
370
        15
  6
Continuous
 62
         7
100
AcDbLine
 10
117.282251387
 20
167.1214302288
 30
0.0
 11
112.5721867277
 21
171.831494888
 31
0.0
  0
ARC
  5
BC
100
AcDbEntity
  8
0
370
        15
  6
Continuous
 62
         7
100
AcDbCircle
 10
102.433008982
 20
179.142245509
 30
0.0
 40
12.5
100
AcDbArc
 50
324.2068962213
 51
350.7931037787
  0
LINE
  5
BD
100
AcDbEntity
  8
0
370
        15
  6
Continuous
 62
         7
100
AcDbLine
 10
114.7719716613
 20
177.142245509
 30
0.0
 11
121.8628601517
 21
177.142245509
 31
0.0
  0
POLYLINE
  5
BE
100
AcDbEntity
  8
0
370
        15
  6
Continuous
 62
         7
100
AcDb2dPolyline
 66
         1
 10
0.0
 20
0.0
 30
0.0
 70
       128
  0
VERTEX
  5
BF
100
AcDbEntity
  8
0
100
AcDbVertex
100
AcDb2dVertex
 10
137.6894201609
 20
175.5630530821
 30
0.0
  0
VERTEX
  5
C0
100
AcDbEntity
  8
0
100
AcDbVertex
100
AcDb2dVertex
 10
136.9823554806
 20
174.8795736697
 30
0.0
  0
VERTEX
  5
C1
100
AcDbEntity
  8
0
100
AcDbVertex
100
AcDb2dVertex
 10
136.1587356104
 20
174.2703708073
 30
0.0
  0
VERTEX
  5
C2
100
AcDbEntity
  8
0
100
AcDbVertex
100
AcDb2dVertex
 10
135.2329120286
 20
173.7460597825
 30
0.0
  0
VERTEX
  5
C3
100
AcDbEntity
  8
0
100
AcDbVertex
100
AcDb2dVertex
 10
134.2210171009
 20
173.3157766524
 30
0.0
  0
VERTEX
  5
C4
100
AcDbEntity
  8
0
100
AcDbVertex
100
AcDb2dVertex
 10
133.1406829763
 20
172.9870190496
 30
0.0
  0
VERTEX
  5
C5
100
AcDbEntity
  8
0
100
AcDbVertex
100
AcDb2dVertex
 10
132.0107343484
 20
172.765515536
 30
0.0
  0
VERTEX
  5
C6
100
AcDbEntity
  8
0
100
AcDbVertex
100
AcDb2dVertex
 10
130.8508604378
 20
172.6551257842
 30
0.0
  0
VERTEX
  5
C7
100
AcDbEntity
  8
0
100
AcDbVertex
100
AcDb2dVertex
 10
129.6812719094
 20
172.6577733224
 30
0.0
  0
VERTEX
  5
C8
100
AcDbEntity
  8
0
100
AcDbVertex
100
AcDb2dVertex
 10
128.5223487043
 20
172.7734120176
 30
0.0
  0
VERTEX
  5
C9
100
AcDbEntity
  8
0
100
AcDbVertex
100
AcDb2dVertex
 10
127.3942849216
 20
173.0000268793
 30
0.0
  0
VERTEX
  5
CA
100
AcDbEntity
  8
0
100
AcDbVertex
100
AcDb2dVertex
 10
126.3167369386
 20
173.3336691704
 30
0.0
  0
VERTEX
  5
CB
100
AcDbEntity
  8
0
100
AcDbVertex
100
AcDb2dVertex
 10
125.3084809009
 20
173.7685252137
 30
0.0
  0
VERTEX
  5
CC
100
AcDbEntity
  8
0
100
AcDbVertex
100
AcDb2dVertex
 10
124.3870855499
 20
174.2970176943
 30
0.0
  0
VERTEX
  5
CD
100
AcDbEntity
  8
0
100
AcDbVertex
100
AcDb2dVertex
 10
123.5686060902
 20
174.9099376936
 30
0.0
  0
VERTEX
  5
CE
100
AcDbEntity
  8
0
100
AcDbVertex
100
AcDb2dVertex
 10
122.867304429
 20
175.5966051534
 30
0.0
  0
VERTEX
  5
CF
100
AcDbEntity
  8
0
100
AcDbVertex
100
AcDb2dVertex
 10
122.2954006645
 20
176.3450549749
 30
0.0
  0
VERTEX
  5
D0
100
AcDbEntity
  8
0
100
AcDbVertex
100
AcDb2dVertex
 10
121.8628601517
 20
177.142245509
 30
0.0
  0
SEQEND
  5
D1
100
AcDbEntity
  8
0
  0
ARC
  5
D2
100
AcDbEntity
  8
0
370
        15
  6
Continuous
 62
         7
100
AcDbCircle
 10
138.433008982
 20
174.8944160015
 30
0.0
 40
0.9999999402
100
AcDbArc
 50
38.9463309288
 51
138.0380359368
  0
ARC
  5
D3
100
AcDbEntity
  8
0
370
        15
  6
Continuous
 62
         7
100
AcDbCircle
 10
146.9880973054
 20
181.8089315133
 30
0.0
 40
10.0000028319
100
AcDbArc
 50
218.9463309255
 51
243.6159402483
  0
ARC
  5
D4
100
AcDbEntity
  8
0
370
        15
  6
Continuous
 62
         7
100
AcDbCircle
 10
143.433008522
 20
174.642245969
 30
0.0
 40
2.00000046
100
AcDbArc
 50
243.6159402484
 51
40.0051928092
  0
ARC
  5
D5
100
AcDbEntity
  8
0
370
        15
  6
Continuous
 62
         7
100
AcDbCircle
 10
148.794912156
 20
179.142245509
 30
0.0
 40
5.0
100
AcDbArc
 50
139.9948071908
 51
220.0051928092
  0
ARC
  5
D6
100
AcDbEntity
  8
0
370
        15
  6
Continuous
 62
         7
100
AcDbCircle
 10
143.433008522
 20
183.642245049
 30
0.0
 40
2.00000046
100
AcDbArc
 50
319.9948071908
 51
116.3840597517
  0
ARC
  5
D7
100
AcDbEntity
  8
0
370
        15
  6
Continuous
 62
         7
100
AcDbCircle
 10
146.9880973054
 20
176.4755595046
 30
0.0
 40
10.0000028319
100
AcDbArc
 50
116.3840597517
 51
141.0536690746
  0
ARC
  5
D8
100
AcDbEntity
  8
0
370
        15
  6
Continuous
 62
         7
100
AcDbCircle
 10
138.433008982
 20
183.3900750164
 30
0.0
 40
0.9999999402
100
AcDbArc
 50
221.9619640633
 51
321.0536690745
  0
POLYLINE
  5
D9
100
AcDbEntity
  8
0
370
        15
  6
Continuous
 62
         7
100
AcDb2dPolyline
 66
         1
 10
0.0
 20
0.0
 30
0.0
 70
       128
  0
VERTEX
  5
DA
100
AcDbEntity
  8
0
100
AcDbVertex
100
AcDb2dVertex
 10
121.8628601517
 20
181.142245509
 30
0.0
  0
VERTEX
  5
DB
100
AcDbEntity
  8
0
100
AcDbVertex
100
AcDb2dVertex
 10
122.2954006645
 20
181.939436043
 30
0.0
  0
VERTEX
  5
DC
100
AcDbEntity
  8
0
100
AcDbVertex
100
AcDb2dVertex
 10
122.867304429
 20
182.6878858646
 30
0.0
  0
VERTEX
  5
DD
100
AcDbEntity
  8
0
100
AcDbVertex
100
AcDb2dVertex
 10
123.5686060902
 20
183.3745533244
 30
0.0
  0
VERTEX
  5
DE
100
AcDbEntity
  8
0
100
AcDbVertex
100
AcDb2dVertex
 10
124.3870855499
 20
183.9874733237
 30
0.0
  0
VERTEX
  5
DF
100
AcDbEntity
  8
0
100
AcDbVertex
100
AcDb2dVertex
 10
125.3084809009
 20
184.5159658043
 30
0.0
  0
VERTEX
  5
E0
100
AcDbEntity
  8
0
100
AcDbVertex
100
AcDb2dVertex
 10
126.3167369386
 20
184.9508218476
 30
0.0
  0
VERTEX
  5
E1
100
AcDbEntity
  8
0
100
AcDbVertex
100
AcDb2dVertex
 10
127.3942849216
 20
185.2844641387
 30
0.0
  0
VERTEX
  5
E2
100
AcDbEntity
  8
0
100
AcDbVertex
100
AcDb2dVertex
 10
128.5223487043
 20
185.5110790003
 30
0.0
  0
VERTEX
  5
E3
100
AcDbEntity
  8
0
100
AcDbVertex
100
AcDb2dVertex
 10
129.6812719094
 20
185.6267176955
 30
0.0
  0
VERTEX
  5
E4
100
AcDbEntity
  8
0
100
AcDbVertex
100
AcDb2dVertex
 10
130.8508604378
 20
185.6293652337
 30
0.0
  0
VERTEX
  5
E5
100
AcDbEntity
  8
0
100
AcDbVertex
100
AcDb2dVertex
 10
132.0107343484
 20
185.5189754819
 30
0.0
  0
VERTEX
  5
E6
100
AcDbEntity
  8
0
100
AcDbVertex
100
AcDb2dVertex
 10
133.1406829763
 20
185.2974719684
 30
0.0
  0
VERTEX
  5
E7
100
AcDbEntity
  8
0
100
AcDbVertex
100
AcDb2dVertex
 10
134.2210171009
 20
184.9687143655
 30
0.0
  0
VERTEX
  5
E8
100
AcDbEntity
  8
0
100
AcDbVertex
100
AcDb2dVertex
 10
135.2329120286
 20
184.5384312355
 30
0.0
  0
VERTEX
  5
E9
100
AcDbEntity
  8
0
100
AcDbVertex
100
AcDb2dVertex
 10
136.1587356104
 20
184.0141202107
 30
0.0
  0
VERTEX
  5
EA
100
AcDbEntity
  8
0
100
AcDbVertex
100
AcDb2dVertex
 10
136.9823554806
 20
183.4049173483
 30
0.0
  0
VERTEX
  5
EB
100
AcDbEntity
  8
0
100
AcDbVertex
100
AcDb2dVertex
 10
137.6894201609
 20
182.7214379359
 30
0.0
  0
SEQEND
  5
EC
100
AcDbEntity
  8
0
  0
LINE
  5
ED
100
AcDbEntity
  8
0
370
        15
  6
Continuous
 62
         7
100
AcDbLine
 10
121.8628601517
 20
181.142245509
 30
0.0
 11
114.7719716613
 21
181.142245509
 31
0.0
  0
ARC
  5
EE
100
AcDbEntity
  8
0
370
        15
  6
Continuous
 62
         7
100
AcDbCircle
 10
102.433008982
 20
179.142245509
 30
0.0
 40
12.5
100
AcDbArc
 50
9.2068962213
 51
35.7931037787
  0
LINE
  5
EF
100
AcDbEntity
  8
0
370
        15
  6
Continuous
 62
         7
100
AcDbLine
 10
112.5721867277
 20
186.4529961299
 30
0.0
 11
116.9206682184
 21
190.8014776206
 31
0.0
  0
ARC
  5
F0
100
AcDbEntity
  8
0
370
        15
  6
Continuous
 62
         7
100
AcDbCircle
 10
121.3481153788
 20
198.0573519057
 30
0.0
 40
8.5
100
AcDbArc
 50
238.6089606308
 51
300.359889027
  0
ARC
  5
F1
100
AcDbEntity
  8
0
370
        15
  6
Continuous
 62
         7
100
AcDbCircle
 10
125.2399250042
 20
191.4132704914
 30
0.0
 40
0.8
100
AcDbArc
 50
300.359889027
 51
73.1329425436
  0
ARC
  5
F2
100
AcDbEntity
  8
0
370
        15
  6
Continuous
 62
         7
100
AcDbCircle
 10
129.8243269203
 20
206.5335634473
 30
0.0
 40
15.0
100
AcDbArc
 50
230.7391704773
 51
253.1329425436
  0
LINE
  5
F3
100
AcDbEntity
  8
0
370
        15
  6
Continuous
 62
         7
100
AcDbLine
 10
127.5352997142
 20
202.1232158975
 30
0.0
 11
120.3315516325
 21
194.9194678159
 31
0.0
  0
LINE
  5
F4
100
AcDbEntity
  8
0
370
        15
  6
Continuous
 62
         7
100
AcDbLine
 10
128.5959598859
 20
201.0625557258
 30
0.0
 11
127.5352997142
 21
202.1232158975
 31
0.0
  0
ARC
  5
F5
100
AcDbEntity
  8
0
370
        15
  6
Continuous
 62
         7
100
AcDbCircle
 10
129.3030666671
 20
201.769662507
 30
0.0
 40
1.0
100
AcDbArc
 50
225.0
 51
45.0
  0
LINE
  5
F6
100
AcDbEntity
  8
0
370
        15
  6
Continuous
 62
         7
100
AcDbLine
 10
128.9495132765
 20
203.5374294599
 30
0.0
 11
130.0101734483
 21
202.4767692881
 31
0.0
  0
LINE
  5
F7
100
AcDbEntity
  8
0
370
        15
  6
Continuous
 62
         7
100
AcDbLine
 10
129.8849794975
 20
204.4728956809
 30
0.0
 11
128.9495132765
 21
203.5374294599
 31
0.0
  0
ARC
  5
F8
100
AcDbEntity
  8
0
370
        15
  6
Continuous
 62
         7
100
AcDbCircle
 10
130.0101734483
 20
206.7194099753
 30
0.0
 40
2.25
100
AcDbArc
 50
266.8103148958
 51
183.1896851042
  0
LINE
  5
F9
100
AcDbEntity
  8
0
370
        15
  6
Continuous
 62
         7
100
AcDbLine
 10
126.828192933
 20
205.6587498035
 30
0.0
 11
127.763659154
 21
206.5942160245
 31
0.0
  0
LINE
  5
FA
100
AcDbEntity
  8
0
370
        15
  6
Continuous
 62
         7
100
AcDbLine
 10
125.7675327612
 20
206.7194099753
 30
0.0
 11
126.828192933
 21
205.6587498035
 31
0.0
  0
ARC
  5
FB
100
AcDbEntity
  8
0
370
        15
  6
Continuous
 62
         7
100
AcDbCircle
 10
125.06042598
 20
206.0123031941
 30
0.0
 40
1.0
100
AcDbArc
 50
45.0
 51
225.0
  0
LINE
  5
FC
100
AcDbEntity
  8
0
370
        15
  6
Continuous
 62
         7
100
AcDbLine
 10
125.4139793706
 20
204.2445362411
 30
0.0
 11
124.3533191988
 21
205.3051964129
 31
0.0
  0
LINE
  5
FD
100
AcDbEntity
  8
0
370
        15
  6
Continuous
 62
         7
100
AcDbLine
 10
118.210231289
 20
197.0407881595
 30
0.0
 11
125.4139793706
 21
204.2445362411
 31
0.0
  0
ARC
  5
FE
100
AcDbEntity
  8
0
370
        15
  6
Continuous
 62
         7
100
AcDbCircle
 10
129.8243269203
 20
206.5335634473
 30
0.0
 40
15.0
100
AcDbArc
 50
196.8670574564
 51
219.2608295227
  0
ARC
  5
FF
100
AcDbEntity
  8
0
370
        15
  6
Continuous
 62
         7
100
AcDbCircle
 10
114.7040339645
 20
201.9491615311
 30
0.0
 40
0.8
100
AcDbArc
 50
16.8670574564
 51
149.640110973
  0
ARC
  5
100
100
AcDbEntity
  8
0
370
        15
  6
Continuous
 62
         7
100
AcDbCircle
 10
121.3481153788
 20
198.0573519057
 30
0.0
 40
8.5
100
AcDbArc
 50
149.640110973
 51
211.3910393692
  0
LINE
  5
101
100
AcDbEntity
  8
0
370
        15
  6
Continuous
 62
         7
100
AcDbLine
 10
114.0922410936
 20
193.6299047453
 30
0.0
 11
109.743759603
 21
189.2814232547
 31
0.0
  0
ARC
  5
102
100
AcDbEntity
  8
0
370
        15
  6
Continuous
 62
         7
100
AcDbCircle
 10
102.433008982
 20
179.142245509
 30
0.0
 40
12.5
100
AcDbArc
 50
54.2068962213
 51
80.7931037787
  0
LINE
  5
103
100
AcDbEntity
  8
0
370
        15
  6
Continuous
 62
         7
100
AcDbLine
 10
104.433008982
 20
191.4812081882
 30
0.0
 11
104.433008982
 21
197.6308896881
 31
0.0
  0
ARC
  5
104
100
AcDbEntity
  8
0
370
        15
  6
Continuous
 62
         7
100
AcDbCircle
 10
102.433008982
 20
205.892245509
 30
0.0
 40
8.5
100
AcDbArc
 50
283.6089606308
 51
345.359889027
  0
ARC
  5
105
100
AcDbEntity
  8
0
370
        15
  6
Continuous
 62
         7
100
AcDbCircle
 10
109.883008982
 20
203.9460954634
 30
0.0
 40
0.8
100
AcDbArc
 50
345.359889027
 51
118.1329425436
  0
ARC
  5
106
100
AcDbEntity
  8
0
370
        15
  6
Continuous
 62
         7
100
AcDbCircle
 10
102.433008982
 20
217.8794188286
 30
0.0
 40
15.0
100
AcDbArc
 50
275.7391704773
 51
298.1329425436
  0
LINE
  5
107
100
AcDbEntity
  8
0
370
        15
  6
Continuous
 62
         7
100
AcDbLine
 10
103.933008982
 20
213.142245509
 30
0.0
 11
103.933008982
 21
202.954607272
 31
0.0
  0
LINE
  5
108
100
AcDbEntity
  8
0
370
        15
  6
Continuous
 62
         7
100
AcDbLine
 10
105.433008982
 20
213.142245509
 30
0.0
 11
103.933008982
 21
213.142245509
 31
0.0
  0
ARC
  5
109
100
AcDbEntity
  8
0
370
        15
  6
Continuous
 62
         7
100
AcDbCircle
 10
105.433008982
 20
214.142245509
 30
0.0
 40
1.0
100
AcDbArc
 50
270.0
 51
90.0
  0
LINE
  5
10A
100
AcDbEntity
  8
0
370
        15
  6
Continuous
 62
         7
100
AcDbLine
 10
103.933008982
 20
215.142245509
 30
0.0
 11
105.433008982
 21
215.142245509
 31
0.0
  0
LINE
  5
10B
100
AcDbEntity
  8
0
370
        15
  6
Continuous
 62
         7
100
AcDbLine
 10
103.933008982
 20
216.4651945259
 30
0.0
 11
103.933008982
 21
215.142245509
 31
0.0
  0
ARC
  5
10C
100
AcDbEntity
  8
0
370
        15
  6
Continuous
 62
         7
100
AcDbCircle
 10
102.433008982
 20
218.142245509
 30
0.0
 40
2.25
100
AcDbArc
 50
311.8103148958
 51
228.1896851042
  0
LINE
  5
10D
100
AcDbEntity
  8
0
370
        15
  6
Continuous
 62
         7
100
AcDbLine
 10
100.933008982
 20
215.142245509
 30
0.0
 11
100.933008982
 21
216.4651945259
 31
0.0
  0
LINE
  5
10E
100
AcDbEntity
  8
0
370
        15
  6
Continuous
 62
         7
100
AcDbLine
 10
99.433008982
 20
215.142245509
 30
0.0
 11
100.933008982
 21
215.142245509
 31
0.0
  0
ARC
  5
10F
100
AcDbEntity
  8
0
370
        15
  6
Continuous
 62
         7
100
AcDbCircle
 10
99.433008982
 20
214.142245509
 30
0.0
 40
1.0
100
AcDbArc
 50
90.0
 51
270.0
  0
LINE
  5
110
100
AcDbEntity
  8
0
370
        15
  6
Continuous
 62
         7
100
AcDbLine
 10
100.933008982
 20
213.142245509
 30
0.0
 11
99.433008982
 21
213.142245509
 31
0.0
  0
LINE
  5
111
100
AcDbEntity
  8
0
370
        15
  6
Continuous
 62
         7
100
AcDbLine
 10
100.933008982
 20
202.954607272
 30
0.0
 11
100.933008982
 21
213.142245509
 31
0.0
  0
ARC
  5
112
100
AcDbEntity
  8
0
370
        15
  6
Continuous
 62
         7
100
AcDbCircle
 10
102.433008982
 20
217.8794188286
 30
0.0
 40
15.0
100
AcDbArc
 50
241.8670574564
 51
264.2608295227
  0
ARC
  5
113
100
AcDbEntity
  8
0
370
        15
  6
Continuous
 62
         7
100
AcDbCircle
 10
94.983008982
 20
203.9460954634
 30
0.0
 40
0.8
100
AcDbArc
 50
61.8670574564
 51
194.640110973
  0
ARC
  5
114
100
AcDbEntity
  8
0
370
        15
  6
Continuous
 62
         7
100
AcDbCircle
 10
102.433008982
 20
205.892245509
 30
0.0
 40
8.5
100
AcDbArc
 50
194.640110973
 51
256.3910393692
  0
LINE
  5
115
100
AcDbEntity
  8
0
370
        15
  6
Continuous
 62
         7
100
AcDbLine
 10
100.433008982
 20
197.6308896881
 30
0.0
 11
100.433008982
 21
191.4812081882
 31
0.0
  0
ARC
  5
116
100
AcDbEntity
  8
0
370
        15
  6
Continuous
 62
         7
100
AcDbCircle
 10
102.433008982
 20
179.142245509
 30
0.0
 40
12.5
100
AcDbArc
 50
99.2068962213
 51
125.7931037787
  0
LINE
  5
117
100
AcDbEntity
  8
0
370
        15
  6
Continuous
 62
         7
100
AcDbLine
 10
95.1222583611
 20
189.2814232547
 30
0.0
 11
90.4121937019
 21
193.9914879139
 31
0.0
  0
LINE
  5
118
100
AcDbEntity
  8
0
370
        15
  6
Continuous
 62
         7
100
AcDbLine
 10
91.8264072642
 20
195.4057014763
 30
0.0
 11
90.4121937019
 21
193.9914879139
 31
0.0
  0
ARC
  5
119
100
AcDbEntity
  8
0
370
        15
  6
Continuous
 62
         7
100
AcDbCircle
 10
91.1193004831
 20
196.1128082575
 30
0.0
 40
1.0
100
AcDbArc
 50
315.0
 51
123.4630409672
  0
LINE
  5
11A
100
AcDbEntity
  8
0
370
        15
  6
Continuous
 62
         7
100
AcDbLine
 10
79.149327943
 20
206.774203547
 30
0.0
 11
90.5679015163
 21
196.9470499367
 31
0.0
  0
ARC
  5
11B
100
AcDbEntity
  8
0
370
        15
  6
Continuous
 62
         7
100
AcDbCircle
 10
78.3913784217
 20
207.4265167564
 30
0.0
 40
1.0
100
AcDbArc
 50
319.2837641521
 51
135.0
  0
LINE
  5
11C
100
AcDbEntity
  8
0
370
        15
  6
Continuous
 62
         7
100
AcDbLine
 10
77.3307182499
 20
207.780070147
 30
0.0
 11
77.6842716405
 21
208.1336235376
 31
0.0
  0
LINE
  5
11D
100
AcDbEntity
  8
0
370
        15
  6
Continuous
 62
         7
100
AcDbLine
 10
75.2093979064
 20
209.9013904906
 30
0.0
 11
77.3307182499
 21
207.780070147
 31
0.0
  0
LINE
  5
11E
100
AcDbEntity
  8
0
370
        15
  6
Continuous
 62
         7
100
AcDbLine
 10
75.5629512969
 20
210.2549438812
 30
0.0
 11
75.2093979064
 21
209.9013904906
 31
0.0
  0
ARC
  5
11F
100
AcDbEntity
  8
0
370
        15
  6
Continuous
 62
         7
100
AcDbCircle
 10
74.8558445158
 20
210.9620506624
 30
0.0
 40
1.0
100
AcDbArc
 50
315.0
 51
135.0
  0
LINE
  5
120
100
AcDbEntity
  8
0
370
        15
  6
Continuous
 62
         7
100
AcDbLine
 10
73.4416309534
 20
210.9620506624
 30
0.0
 11
74.1487377346
 21
211.6691574436
 31
0.0
  0
LINE
  5
121
100
AcDbEntity
  8
0
370
        15
  6
Continuous
 62
         7
100
AcDbLine
 10
73.4416309534
 20
210.9620506624
 30
0.0
 11
71.7445746785
 21
212.6591069372
 31
0.0
  0
ARC
  5
122
100
AcDbEntity
  8
0
370
        15
  6
Continuous
 62
         7
100
AcDbCircle
 10
70.6132038286
 20
211.5277360873
 30
0.0
 40
1.6
100
AcDbArc
 50
45.0
 51
135.0
  0
LINE
  5
123
100
AcDbEntity
  8
0
370
        15
  6
Continuous
 62
         7
100
AcDbLine
 10
69.4818329787
 20
212.6591069372
 30
0.0
 11
68.9161475538
 21
212.0934215123
 31
0.0
  0
ARC
  5
124
100
AcDbEntity
  8
0
370
        15
  6
Continuous
 62
         7
100
AcDbCircle
 10
70.0475184037
 20
210.9620506624
 30
0.0
 40
1.6
100
AcDbArc
 50
135.0
 51
225.0
  0
LINE
  5
125
100
AcDbEntity
  8
0
370
        15
  6
Continuous
 62
         7
100
AcDbLine
 10
68.9161475538
 20
209.8306798125
 30
0.0
 11
70.6132038286
 21
208.1336235376
 31
0.0
  0
LINE
  5
126
100
AcDbEntity
  8
0
370
        15
  6
Continuous
 62
         7
100
AcDbLine
 10
69.9060970475
 20
207.4265167564
 30
0.0
 11
70.6132038286
 21
208.1336235376
 31
0.0
  0
ARC
  5
127
100
AcDbEntity
  8
0
370
        15
  6
Continuous
 62
         7
100
AcDbCircle
 10
70.6132038286
 20
206.7194099753
 30
0.0
 40
1.0
100
AcDbArc
 50
135.0
 51
315.0
  0
LINE
  5
128
100
AcDbEntity
  8
0
370
        15
  6
Continuous
 62
         7
100
AcDbLine
 10
71.6738640004
 20
206.3658565847
 30
0.0
 11
71.3203106098
 21
206.0123031941
 31
0.0
  0
LINE
  5
129
100
AcDbEntity
  8
0
370
        15
  6
Continuous
 62
         7
100
AcDbLine
 10
73.795184344
 20
204.2445362411
 30
0.0
 11
71.6738640004
 21
206.3658565847
 31
0.0
  0
LINE
  5
12A
100
AcDbEntity
  8
0
370
        15
  6
Continuous
 62
         7
100
AcDbLine
 10
73.4416309534
 20
203.8909828505
 30
0.0
 11
73.795184344
 21
204.2445362411
 31
0.0
  0
ARC
  5
12B
100
AcDbEntity
  8
0
370
        15
  6
Continuous
 62
         7
100
AcDbCircle
 10
74.1487377346
 20
203.1838760693
 30
0.0
 40
1.0
100
AcDbArc
 50
135.0
 51
310.7162358479
  0
LINE
  5
12C
100
AcDbEntity
  8
0
370
        15
  6
Continuous
 62
         7
100
AcDbLine
 10
84.6282045543
 20
191.0073529748
 30
0.0
 11
74.801050944
 21
202.425926548
 31
0.0
  0
ARC
  5
12D
100
AcDbEntity
  8
0
370
        15
  6
Continuous
 62
         7
100
AcDbCircle
 10
85.4624462336
 20
190.455954008
 30
0.0
 40
1.0
100
AcDbArc
 50
146.5369590328
 51
315.0
  0
LINE
  5
12E
100
AcDbEntity
  8
0
370
        15
  6
Continuous
 62
         7
100
AcDbLine
 10
87.5837665771
 20
191.1630607892
 30
0.0
 11
86.1695530147
 21
189.7488472268
 31
0.0
  0
LINE
  5
12F
100
AcDbEntity
  8
0
370
        15
  6
Continuous
 62
         7
100
AcDbLine
 10
87.5837665771
 20
191.1630607892
 30
0.0
 11
92.2938312364
 21
186.4529961299
 31
0.0
  0
ARC
  5
130
100
AcDbEntity
  8
0
370
        15
  6
Continuous
 62
         7
100
AcDbCircle
 10
102.433008982
 20
179.142245509
 30
0.0
 40
12.5
100
AcDbArc
 50
144.2068962213
 51
170.7931037787
  0
LINE
  5
131
100
AcDbEntity
  8
0
370
        15
  6
Continuous
 62
         7
100
AcDbLine
 10
90.0940463028
 20
181.142245509
 30
0.0
 11
83.433008982
 21
181.142245509
 31
0.0
  0
LINE
  5
132
100
AcDbEntity
  8
0
370
        15
  6
Continuous
 62
         7
100
AcDbLine
 10
83.433008982
 20
185.142245509
 30
0.0
 11
83.433008982
 21
181.142245509
 31
0.0
  0
LINE
  5
133
100
AcDbEntity
  8
0
370
        15
  6
Continuous
 62
         7
100
AcDbLine
 10
83.4046323466
 20
185.142245509
 30
0.0
 11
83.433008982
 21
185.142245509
 31
0.0
  0
ARC
  5
134
100
AcDbEntity
  8
0
370
        15
  6
Continuous
 62
         7
100
AcDbCircle
 10
81.833008982
 20
184.842245509
 30
0.0
 40
1.6
100
AcDbArc
 50
10.8069228749
 51
45.0
  0
LINE
  5
135
100
AcDbEntity
  8
0
370
        15
  6
Continuous
 62
         7
100
AcDbLine
 10
82.1643798319
 20
186.7736163589
 30
0.0
 11
82.9643798319
 21
185.9736163589
 31
0.0
  0
ARC
  5
136
100
AcDbEntity
  8
0
370
        15
  6
Continuous
 62
         7
100
AcDbCircle
 10
81.033008982
 20
185.642245509
 30
0.0
 40
1.6
100
AcDbArc
 50
45.0
 51
180.0
  0
LINE
  5
137
100
AcDbEntity
  8
0
370
        15
  6
Continuous
 62
         7
100
AcDbLine
 10
79.433008982
 20
181.142245509
 30
0.0
 11
79.433008982
 21
185.642245509
 31
0.0
  0
LINE
  5
138
100
AcDbEntity
  8
0
370
        15
  6
Continuous
 62
         7
100
AcDbLine
 10
76.433008982
 20
181.142245509
 30
0.0
 11
79.433008982
 21
181.142245509
 31
0.0
  0
LINE
  5
139
100
AcDbEntity
  8
0
370
        15
  6
Continuous
 62
         7
100
AcDbLine
 10
76.433008982
 20
187.142245509
 30
0.0
 11
76.433008982
 21
181.142245509
 31
0.0
  0
ARC
  5
13A
100
AcDbEntity
  8
0
370
        15
  6
Continuous
 62
         7
100
AcDbCircle
 10
74.833008982
 20
187.142245509
 30
0.0
 40
1.6
100
AcDbArc
 50
0.0
 51
93.7498183679
  0
ARC
  5
13B
100
AcDbEntity
  8
0
370
        15
  6
Continuous
 62
         7
100
AcDbCircle
 10
75.7093685256
 20
173.7709331594
 30
0.0
 40
15.0
100
AcDbArc
 50
93.7498183679
 51
156.3690355659
  0
ARC
  5
13C
100
AcDbEntity
  8
0
370
        15
  6
Continuous
 62
         7
100
AcDbCircle
 10
63.433008982
 20
179.142245509
 30
0.0
 40
1.6
100
AcDbArc
 50
156.3690355659
 51
242.2414593989
  0
LINE
  5
13D
100
AcDbEntity
  8
0
370
        15
  6
Continuous
 62
         7
100
AcDbLine
 10
74.0878146895
 20
171.7263763532
 30
0.0
 11
62.6878146895
 21
177.7263763532
 31
0.0
  0
ARC
  5
13E
100
AcDbEntity
  8
0
370
        15
  6
Continuous
 62
         7
100
AcDbCircle
 10
74.833008982
 20
173.142245509
 30
0.0
 40
1.6
100
AcDbArc
 50
242.2414593989
 51
0.0
  0
LINE
  5
13F
100
AcDbEntity
  8
0
370
        15
  6
Continuous
 62
         7
100
AcDbLine
 10
76.433008982
 20
177.142245509
 30
0.0
 11
76.433008982
 21
173.142245509
 31
0.0
  0
LINE
  5
140
100
AcDbEntity
  8
0
370
        15
  6
Continuous
 62
         7
100
AcDbLine
 10
79.433008982
 20
177.142245509
 30
0.0
 11
76.433008982
 21
177.142245509
 31
0.0
  0
LINE
  5
141
100
AcDbEntity
  8
0
370
        15
  6
Continuous
 62
         7
100
AcDbLine
 10
79.433008982
 20
172.642245509
 30
0.0
 11
79.433008982
 21
177.142245509
 31
0.0
  0
ARC
  5
142
100
AcDbEntity
  8
0
370
        15
  6
Continuous
 62
         7
100
AcDbCircle
 10
81.033008982
 20
172.642245509
 30
0.0
 40
1.6
100
AcDbArc
 50
180.0
 51
315.0
  0
LINE
  5
143
100
AcDbEntity
  8
0
370
        15
  6
Continuous
 62
         7
100
AcDbLine
 10
82.9643798319
 20
172.3108746591
 30
0.0
 11
82.1643798319
 21
171.5108746591
 31
0.0
  0
ARC
  5
144
100
AcDbEntity
  8
0
370
        15
  6
Continuous
 62
         7
100
AcDbCircle
 10
81.833008982
 20
173.442245509
 30
0.0
 40
1.6
100
AcDbArc
 50
315.0
 51
349.1930771251
  0
LINE
  5
145
100
AcDbEntity
  8
0
370
        15
  6
Continuous
 62
         7
100
AcDbLine
 10
83.433008982
 20
173.142245509
 30
0.0
 11
83.4046323466
 21
173.142245509
 31
0.0
  0
LINE
  5
146
100
AcDbEntity
  8
0
370
        15
  6
Continuous
 62
         7
100
AcDbLine
 10
83.433008982
 20
177.142245509
 30
0.0
 11
83.433008982
 21
173.142245509
 31
0.0
  0
LINE
  5
147
100
AcDbEntity
  8
0
370
        15
  6
Continuous
 62
         7
100
AcDbLine
 10
83.433008982
 20
177.142245509
 30
0.0
 11
90.0940463028
 21
177.142245509
 31
0.0
  0
LINE
  5
148
100
AcDbEntity
  8
0
370
        15
  6
Continuous
 62
         7
100
AcDbLine
 10
152.433008982
 20
229.142245509
 30
0.0
 11
52.433008982
 21
229.142245509
 31
0.0
  0
LINE
  5
149
100
AcDbEntity
  8
0
370
        15
  6
Continuous
 62
         7
100
AcDbLine
 10
152.433008982
 20
129.142245509
 30
0.0
 11
152.433008982
 21
229.142245509
 31
0.0
  0
LINE
  5
14A
100
AcDbEntity
  8
0
370
        15
  6
Continuous
 62
         7
100
AcDbLine
 10
52.433008982
 20
129.142245509
 30
0.0
 11
152.433008982
 21
129.142245509
 31
0.0
  0
LINE
  5
14B
100
AcDbEntity
  8
0
370
        15
  6
Continuous
 62
         7
100
AcDbLine
 10
52.433008982
 20
229.142245509
 30
0.0
 11
52.433008982
 21
129.142245509
 31
0.0
  0
CIRCLE
  5
14C
100
AcDbEntity
  8
0
370
        15
  6
Continuous
 62
         7
100
AcDbCircle
 10
62.433008982
 20
219.142245509
 30
0.0
 40
3.375
  0
CIRCLE
  5
14D
100
AcDbEntity
  8
0
370
        15
  6
Continuous
 62
         7
100
AcDbCircle
 10
142.433008982
 20
139.142245509
 30
0.0
 40
3.375
  0
CIRCLE
  5
14E
100
AcDbEntity
  8
0
370
        15
  6
Continuous
 62
         7
100
AcDbCircle
 10
142.433008982
 20
219.142245509
 30
0.0
 40
3.375
  0
CIRCLE
  5
14F
100
AcDbEntity
  8
0
370
        15
  6
Continuous
 62
         7
100
AcDbCircle
 10
62.433008982
 20
139.142245509
 30
0.0
 40
3.375
  0
CIRCLE
  5
150
100
AcDbEntity
  8
0
370
        15
  6
Continuous
 62
         7
100
AcDbCircle
 10
117.433008982
 20
221.142245509
 30
0.0
 40
2.1
  0
CIRCLE
  5
151
100
AcDbEntity
  8
0
370
        15
  6
Continuous
 62
         7
100
AcDbCircle
 10
60.433008982
 20
154.142245509
 30
0.0
 40
2.1
  0
CIRCLE
  5
152
100
AcDbEntity
  8
0
370
        15
  6
Continuous
 62
         7
100
AcDbCircle
 10
144.433008982
 20
154.142245509
 30
0.0
 40
2.1
  0
LINE
  5
153
100
AcDbEntity
  8
0
370
        15
  6
Continuous
 62
         7
100
AcDbLine
 10
70.6132038286
 20
208.1336235376
 30
0.0
 11
72.027417391
 21
209.5478371
 31
0.0
  0
LINE
  5
154
100
AcDbEntity
  8
0
370
        15
  6
Continuous
 62
         7
100
AcDbLine
 10
72.027417391
 20
209.5478371
 30
0.0
 11
73.4416309534
 21
210.9620506624
 31
0.0
  0
LINE
  5
155
100
AcDbEntity
  8
0
370
        15
  6
Continuous
 62
         7
100
AcDbLine
 10
72.027417391
 20
148.736653918
 30
0.0
 11
70.6132038286
 21
150.1508674803
 31
0.0
  0
LINE
  5
156
100
AcDbEntity
  8
0
370
        15
  6
Continuous
 62
         7
100
AcDbLine
 10
73.4416309534
 20
147.3224403556
 30
0.0
 11
72.027417391
 21
148.736653918
 31
0.0
  0
LINE
  5
157
100
AcDbEntity
  8
0
370
        15
  6
Continuous
 62
         7
100
AcDbLine
 10
87.5837665771
 20
167.1214302288
 30
0.0
 11
90.4121937019
 21
164.2930031041
 31
0.0
  0
ARC
  5
158
100
AcDbEntity
  8
0
370
        15
  6
Continuous
 62
         7
100
AcDbCircle
 10
102.433008982
 20
205.892245509
 30
0.0
 40
8.5
100
AcDbArc
 50
256.3910393692
 51
283.6089606308
  0
LINE
  5
159
100
AcDbEntity
  8
0
370
        15
  6
Continuous
 62
         7
100
AcDbLine
 10
90.4121937019
 20
193.9914879139
 30
0.0
 11
87.5837665771
 21
191.1630607892
 31
0.0
  0
ARC
  5
15A
100
AcDbEntity
  8
0
370
        15
  6
Continuous
 62
         7
100
AcDbCircle
 10
121.3481153788
 20
198.0573519057
 30
0.0
 40
8.5
100
AcDbArc
 50
211.3910393692
 51
238.6089606308
  0
LINE
  5
15B
100
AcDbEntity
  8
0
370
        15
  6
Continuous
 62
         7
100
AcDbLine
 10
83.433008982
 20
181.142245509
 30
0.0
 11
83.433008982
 21
177.142245509
 31
0.0
  0
POLYLINE
  5
15C
100
AcDbEntity
  8
0
370
        15
  6
Continuous
 62
         7
100
AcDb2dPolyline
 66
         1
 10
0.0
 20
0.0
 30
0.0
 70
       128
  0
VERTEX
  5
15D
100
AcDbEntity
  8
0
100
AcDbVertex
100
AcDb2dVertex
 10
121.8628601517
 20
177.142245509
 30
0.0
  0
VERTEX
  5
15E
100
AcDbEntity
  8
0
100
AcDbVertex
100
AcDb2dVertex
 10
121.5411314827
 20
178.1298917788
 30
0.0
  0
VERTEX
  5
15F
100
AcDbEntity
  8
0
100
AcDbVertex
100
AcDb2dVertex
 10
121.433008982
 20
179.142245509
 30
0.0
  0
VERTEX
  5
160
100
AcDbEntity
  8
0
100
AcDbVertex
100
AcDb2dVertex
 10
121.5411314827
 20
180.1545992392
 30
0.0
  0
VERTEX
  5
161
100
AcDbEntity
  8
0
100
AcDbVertex
100
AcDb2dVertex
 10
121.8628601517
 20
181.142245509
 30
0.0
  0
SEQEND
  5
162
100
AcDbEntity
  8
0
  0
LINE
  5
163
100
AcDbEntity
  8
0
370
        15
  6
Continuous
 62
         7
100
AcDbLine
 10
114.4538242622
 20
164.2930031041
 30
0.0
 11
117.282251387
 21
167.1214302288
 31
0.0
  0
POLYLINE
  5
164
100
AcDbEntity
  8
0
370
        15
  6
Continuous
 62
         7
100
AcDb2dPolyline
 66
         1
 10
0.0
 20
0.0
 30
0.0
 70
       128
  0
VERTEX
  5
165
100
AcDbEntity
  8
0
100
AcDbVertex
100
AcDb2dVertex
 10
100.433008982
 20
159.7123943393
 30
0.0
  0
VERTEX
  5
166
100
AcDbEntity
  8
0
100
AcDbVertex
100
AcDb2dVertex
 10
101.4206552518
 20
160.0341230083
 30
0.0
  0
VERTEX
  5
167
100
AcDbEntity
  8
0
100
AcDbVertex
100
AcDb2dVertex
 10
102.433008982
 20
160.142245509
 30
0.0
  0
VERTEX
  5
168
100
AcDbEntity
  8
0
100
AcDbVertex
100
AcDb2dVertex
 10
103.4453627123
 20
160.0341230083
 30
0.0
  0
VERTEX
  5
169
100
AcDbEntity
  8
0
100
AcDbVertex
100
AcDb2dVertex
 10
104.433008982
 20
159.7123943393
 30
0.0
  0
SEQEND
  5
16A
100
AcDbEntity
  8
0
  0
CIRCLE
  5
16B
100
AcDbEntity
  8
0
370
         0
  6
HIDDEN
 62
         9
100
AcDbCircle
 10
102.433008982
 20
179.142245509
 30
0.0
 40
4.25
  0
CIRCLE
  5
16C
100
AcDbEntity
  8
0
370
         0
  6
HIDDEN
 62
         9
100
AcDbCircle
 10
62.433008982
 20
139.142245509
 30
0.0
 40
7.875
  0
CIRCLE
  5
16D
100
AcDbEntity
  8
0
370
         0
  6
HIDDEN
 62
         9
100
AcDbCircle
 10
142.433008982
 20
139.142245509
 30
0.0
 40
7.875
  0
CIRCLE
  5
16E
100
AcDbEntity
  8
0
370
         0
  6
HIDDEN
 62
         9
100
AcDbCircle
 10
142.433008982
 20
219.142245509
 30
0.0
 40
7.875
  0
CIRCLE
  5
16F
100
AcDbEntity
  8
0
370
         0
  6
HIDDEN
 62
         9
100
AcDbCircle
 10
62.433008982
 20
219.142245509
 30
0.0
 40
7.875
  0
LEADER
  5
170
100
AcDbEntity
  8
0
 62
       255
100
AcDbLeader
  3
SLDDIMSTYLE0
 73
         3
 74
         0
 75
         0
 40
0.0
 76
         2
 10
104.1677051537
 20
219.575189748
 30
0.0
 10
116.659175
 20
255.047925
 30
0.0
 77
       256
340
172
  0
MTEXT
  5
172
102
{ACAD_REACTORS
330
170
102
}
100
AcDbEntity
  8
0
 62
         7
100
AcDbMText
 10
117.1607800208
 20
257.2973928898
 30
0.0
 40
3.5
 41
0.0
 71
         1
 72
         1
  1
forme suivant fichiers dxf-step
  7
SLDTEXTSTYLE0
 73
         1
 44
1.0
  0
LINE
  5
173
100
AcDbEntity
  8
0
  6
CENTER
 62
         7
100
AcDbLine
 10
25.805
 20
179.142245509
 30
0.0
 11
179.0610179641
 21
179.142245509
 31
0.0
  0
SOLID
  5
174
100
AcDbEntity
  8
0
  6
Continuous
 62
         7
100
AcDbTrace
 10
27.805
 20
179.142245509
 30
0.0
 11
28.805
 21
183.142245509
 31
0.0
 12
26.805
 22
183.142245509
 32
0.0
 13
26.805
 23
183.142245509
 33
0.0
  0
LINE
  5
175
100
AcDbEntity
  8
0
  6
Continuous
 62
         7
100
AcDbLine
 10
27.805
 20
191.142245509
 30
0.0
 11
27.805
 21
179.142245509
 31
0.0
  0
SOLID
  5
176
100
AcDbEntity
  8
0
  6
Continuous
 62
         7
100
AcDbTrace
 10
177.0610179641
 20
179.142245509
 30
0.0
 11
178.0610179641
 21
183.142245509
 31
0.0
 12
176.0610179641
 22
183.142245509
 32
0.0
 13
176.0610179641
 23
183.142245509
 33
0.0
  0
LINE
  5
177
100
AcDbEntity
  8
0
  6
Continuous
 62
         7
100
AcDbLine
 10
177.0610179641
 20
191.142245509
 30
0.0
 11
177.0610179641
 21
179.142245509
 31
0.0
  0
MTEXT
  5
178
100
AcDbEntity
  8
0
100
AcDbMText
 10
30.3108
 20
191.142245509
 30
0.0
 40
6.35
 41
0.0
 71
         1
 72
         1
  1
A
 73
         1
 44
1.0
  0
MTEXT
  5
179
100
AcDbEntity
  8
0
100
AcDbMText
 10
179.5668179641
 20
191.142245509
 30
0.0
 40
6.35
 41
0.0
 71
         1
 72
         1
  1
A
 73
         1
 44
1.0
  0
ARC
  5
17A
100
AcDbEntity
  8
0
  6
Continuous
 62
         7
100
AcDbCircle
 10
142.433008982
 20
139.142245509
 30
0.0
 40
4.0
100
AcDbArc
 50
255.0
 51
195.0
  0
ARC
  5
17B
100
AcDbEntity
  8
0
  6
Continuous
 62
         7
100
AcDbCircle
 10
62.433008982
 20
139.142245509
 30
0.0
 40
4.0
100
AcDbArc
 50
255.0
 51
195.0
  0
ARC
  5
17C
100
AcDbEntity
  8
0
  6
Continuous
 62
         7
100
AcDbCircle
 10
62.433008982
 20
219.142245509
 30
0.0
 40
4.0
100
AcDbArc
 50
255.0
 51
195.0
  0
ARC
  5
17D
100
AcDbEntity
  8
0
  6
Continuous
 62
         7
100
AcDbCircle
 10
142.433008982
 20
219.142245509
 30
0.0
 40
4.0
100
AcDbArc
 50
255.0
 51
195.0
  0
ARC
  5
17E
100
AcDbEntity
  8
0
  6
Continuous
 62
         7
100
AcDbCircle
 10
60.433008982
 20
154.142245509
 30
0.0
 40
2.5
100
AcDbArc
 50
255.0
 51
195.0
  0
ARC
  5
17F
100
AcDbEntity
  8
0
  6
Continuous
 62
         7
100
AcDbCircle
 10
144.433008982
 20
154.142245509
 30
0.0
 40
2.5
100
AcDbArc
 50
255.0
 51
195.0
  0
ARC
  5
180
100
AcDbEntity
  8
0
  6
Continuous
 62
         7
100
AcDbCircle
 10
117.433008982
 20
221.142245509
 30
0.0
 40
2.5
100
AcDbArc
 50
255.0
 51
195.0
  0
LINE
  5
181
100
AcDbEntity
  8
0
370
        15
  6
Continuous
 62
         7
100
AcDbLine
 10
205.3005778767
 20
229.142245509
 30
0.0
 11
205.3005778767
 21
129.142245509
 31
0.0
  0
LINE
  5
182
100
AcDbEntity
  8
0
370
        15
  6
Continuous
 62
         7
100
AcDbLine
 10
205.3005778767
 20
129.142245509
 30
0.0
 11
193.3005778767
 21
129.142245509
 31
0.0
  0
LINE
  5
183
100
AcDbEntity
  8
0
370
        15
  6
Continuous
 62
         7
100
AcDbLine
 10
205.3005778767
 20
229.142245509
 30
0.0
 11
193.3005778767
 21
229.142245509
 31
0.0
  0
LINE
  5
184
100
AcDbEntity
  8
0
370
        15
  6
Continuous
 62
         7
100
AcDbLine
 10
193.3005778767
 20
229.142245509
 30
0.0
 11
193.3005778767
 21
129.142245509
 31
0.0
  0
LINE
  5
185
100
AcDbEntity
  8
0
370
         0
  6
HIDDEN
 62
         9
100
AcDbLine
 10
197.8005778767
 20
135.767245509
 30
0.0
 11
197.8005778767
 21
142.517245509
 31
0.0
  0
LINE
  5
186
100
AcDbEntity
  8
0
370
         0
  6
HIDDEN
 62
         9
100
AcDbLine
 10
197.8005778767
 20
215.767245509
 30
0.0
 11
197.8005778767
 21
222.517245509
 31
0.0
  0
LINE
  5
187
100
AcDbEntity
  8
0
370
         0
  6
HIDDEN
 62
         9
100
AcDbLine
 10
201.3005778767
 20
179.7835962373
 30
0.0
 11
201.3005778767
 21
177.7263763532
 31
0.0
  0
LINE
  5
188
100
AcDbEntity
  8
0
370
         0
  6
HIDDEN
 62
         9
100
AcDbLine
 10
201.3005778767
 20
188.7388201179
 30
0.0
 11
201.3005778767
 21
179.7835962373
 31
0.0
  0
LINE
  5
189
100
AcDbEntity
  8
0
370
         0
  6
HIDDEN
 62
         9
100
AcDbLine
 10
201.3005778767
 20
177.7263763532
 30
0.0
 11
201.3005778767
 21
171.7263763532
 31
0.0
  0
POLYLINE
  5
18A
100
AcDbEntity
  8
0
370
         0
  6
HIDDEN
 62
         9
100
AcDb2dPolyline
 66
         1
 10
0.0
 20
0.0
 30
0.0
 70
       128
  0
VERTEX
  5
18B
100
AcDbEntity
  8
0
100
AcDbVertex
100
AcDb2dVertex
 10
205.3005778767
 20
208.1336235376
 30
0.0
  0
VERTEX
  5
18C
100
AcDbEntity
  8
0
100
AcDbVertex
100
AcDb2dVertex
 10
204.9103972327
 20
208.1607972547
 30
0.0
  0
VERTEX
  5
18D
100
AcDbEntity
  8
0
100
AcDbVertex
100
AcDb2dVertex
 10
204.535211012
 20
208.2412741351
 30
0.0
  0
VERTEX
  5
18E
100
AcDbEntity
  8
0
100
AcDbVertex
100
AcDb2dVertex
 10
204.1894374107
 20
208.3719614976
 30
0.0
  0
VERTEX
  5
18F
100
AcDbEntity
  8
0
100
AcDbVertex
100
AcDb2dVertex
 10
203.8863643143
 20
208.5478371
 30
0.0
  0
VERTEX
  5
190
100
AcDbEntity
  8
0
100
AcDbVertex
100
AcDb2dVertex
 10
203.6376386521
 20
208.7621421416
 30
0.0
  0
VERTEX
  5
191
100
AcDbEntity
  8
0
100
AcDbVertex
100
AcDb2dVertex
 10
203.4528188117
 20
209.0066409999
 30
0.0
  0
VERTEX
  5
192
100
AcDbEntity
  8
0
100
AcDbVertex
100
AcDb2dVertex
 10
203.3390073159
 20
209.2719377207
 30
0.0
  0
VERTEX
  5
193
100
AcDbEntity
  8
0
100
AcDbVertex
100
AcDb2dVertex
 10
203.3005778767
 20
209.5478371
 30
0.0
  0
SEQEND
  5
194
100
AcDbEntity
  8
0
  0
LINE
  5
195
100
AcDbEntity
  8
0
370
         0
  6
HIDDEN
 62
         9
100
AcDbLine
 10
203.3005778767
 20
209.5478371
 30
0.0
 11
203.3005778767
 21
210.9620506624
 31
0.0
  0
LINE
  5
196
100
AcDbEntity
  8
0
370
         0
  6
HIDDEN
 62
         9
100
AcDbLine
 10
203.3005778767
 20
148.736653918
 30
0.0
 11
203.3005778767
 21
147.3224403556
 31
0.0
  0
POLYLINE
  5
197
100
AcDbEntity
  8
0
370
         0
  6
HIDDEN
 62
         9
100
AcDb2dPolyline
 66
         1
 10
0.0
 20
0.0
 30
0.0
 70
       128
  0
VERTEX
  5
198
100
AcDbEntity
  8
0
100
AcDbVertex
100
AcDb2dVertex
 10
203.3005778767
 20
148.736653918
 30
0.0
  0
VERTEX
  5
199
100
AcDbEntity
  8
0
100
AcDbVertex
100
AcDb2dVertex
 10
203.3390073159
 20
149.0125532972
 30
0.0
  0
VERTEX
  5
19A
100
AcDbEntity
  8
0
100
AcDbVertex
100
AcDb2dVertex
 10
203.4528188117
 20
149.2778500181
 30
0.0
  0
VERTEX
  5
19B
100
AcDbEntity
  8
0
100
AcDbVertex
100
AcDb2dVertex
 10
203.6376386521
 20
149.5223488763
 30
0.0
  0
VERTEX
  5
19C
100
AcDbEntity
  8
0
100
AcDbVertex
100
AcDb2dVertex
 10
203.8863643143
 20
149.736653918
 30
0.0
  0
VERTEX
  5
19D
100
AcDbEntity
  8
0
100
AcDbVertex
100
AcDb2dVertex
 10
204.1894374107
 20
149.9125295204
 30
0.0
  0
VERTEX
  5
19E
100
AcDbEntity
  8
0
100
AcDbVertex
100
AcDb2dVertex
 10
204.535211012
 20
150.0432168828
 30
0.0
  0
VERTEX
  5
19F
100
AcDbEntity
  8
0
100
AcDbVertex
100
AcDb2dVertex
 10
204.9103972327
 20
150.1236937633
 30
0.0
  0
VERTEX
  5
1A0
100
AcDbEntity
  8
0
100
AcDbVertex
100
AcDb2dVertex
 10
205.3005778767
 20
150.1508674803
 30
0.0
  0
SEQEND
  5
1A1
100
AcDbEntity
  8
0
  0
LINE
  5
1A2
100
AcDbEntity
  8
0
370
         0
  6
HIDDEN
 62
         9
100
AcDbLine
 10
201.3005778767
 20
152.5650810427
 30
0.0
 11
201.3005778767
 21
150.8579742615
 31
0.0
  0
LINE
  5
1A3
100
AcDbEntity
  8
0
370
         0
  6
HIDDEN
 62
         9
100
AcDbLine
 10
201.3005778767
 20
207.4265167564
 30
0.0
 11
201.3005778767
 21
205.7194099753
 31
0.0
  0
LINE
  5
1A4
100
AcDbEntity
  8
0
370
         0
  6
HIDDEN
 62
         9
100
AcDbLine
 10
201.3005778767
 20
211.6691574436
 30
0.0
 11
201.3005778767
 21
207.4265167564
 31
0.0
  0
LINE
  5
1A5
100
AcDbEntity
  8
0
370
         0
  6
HIDDEN
 62
         9
100
AcDbLine
 10
201.3005778767
 20
150.8579742615
 30
0.0
 11
201.3005778767
 21
146.6153335744
 31
0.0
  0
POLYLINE
  5
1A6
100
AcDbEntity
  8
0
370
         0
  6
HIDDEN
 62
         9
100
AcDb2dPolyline
 66
         1
 10
0.0
 20
0.0
 30
0.0
 70
       128
  0
VERTEX
  5
1A7
100
AcDbEntity
  8
0
100
AcDbVertex
100
AcDb2dVertex
 10
203.3005778767
 20
209.5478371
 30
0.0
  0
VERTEX
  5
1A8
100
AcDbEntity
  8
0
100
AcDbVertex
100
AcDb2dVertex
 10
203.3390073159
 20
209.8237364793
 30
0.0
  0
VERTEX
  5
1A9
100
AcDbEntity
  8
0
100
AcDbVertex
100
AcDb2dVertex
 10
203.4528188117
 20
210.0890332001
 30
0.0
  0
VERTEX
  5
1AA
100
AcDbEntity
  8
0
100
AcDbVertex
100
AcDb2dVertex
 10
203.6376386521
 20
210.3335320584
 30
0.0
  0
VERTEX
  5
1AB
100
AcDbEntity
  8
0
100
AcDbVertex
100
AcDb2dVertex
 10
203.8863643143
 20
210.5478371
 30
0.0
  0
VERTEX
  5
1AC
100
AcDbEntity
  8
0
100
AcDbVertex
100
AcDb2dVertex
 10
204.1894374107
 20
210.7237127024
 30
0.0
  0
VERTEX
  5
1AD
100
AcDbEntity
  8
0
100
AcDbVertex
100
AcDb2dVertex
 10
204.535211012
 20
210.8544000649
 30
0.0
  0
VERTEX
  5
1AE
100
AcDbEntity
  8
0
100
AcDbVertex
100
AcDb2dVertex
 10
204.9103972327
 20
210.9348769453
 30
0.0
  0
VERTEX
  5
1AF
100
AcDbEntity
  8
0
100
AcDbVertex
100
AcDb2dVertex
 10
205.3005778767
 20
210.9620506624
 30
0.0
  0
SEQEND
  5
1B0
100
AcDbEntity
  8
0
  0
POLYLINE
  5
1B1
100
AcDbEntity
  8
0
370
         0
  6
HIDDEN
 62
         9
100
AcDb2dPolyline
 66
         1
 10
0.0
 20
0.0
 30
0.0
 70
       128
  0
VERTEX
  5
1B2
100
AcDbEntity
  8
0
100
AcDbVertex
100
AcDb2dVertex
 10
205.3005778767
 20
147.3224403556
 30
0.0
  0
VERTEX
  5
1B3
100
AcDbEntity
  8
0
100
AcDbVertex
100
AcDb2dVertex
 10
204.9103972327
 20
147.3496140726
 30
0.0
  0
VERTEX
  5
1B4
100
AcDbEntity
  8
0
100
AcDbVertex
100
AcDb2dVertex
 10
204.535211012
 20
147.4300909531
 30
0.0
  0
VERTEX
  5
1B5
100
AcDbEntity
  8
0
100
AcDbVertex
100
AcDb2dVertex
 10
204.1894374107
 20
147.5607783155
 30
0.0
  0
VERTEX
  5
1B6
100
AcDbEntity
  8
0
100
AcDbVertex
100
AcDb2dVertex
 10
203.8863643143
 20
147.736653918
 30
0.0
  0
VERTEX
  5
1B7
100
AcDbEntity
  8
0
100
AcDbVertex
100
AcDb2dVertex
 10
203.6376386521
 20
147.9509589596
 30
0.0
  0
VERTEX
  5
1B8
100
AcDbEntity
  8
0
100
AcDbVertex
100
AcDb2dVertex
 10
203.4528188117
 20
148.1954578178
 30
0.0
  0
VERTEX
  5
1B9
100
AcDbEntity
  8
0
100
AcDbVertex
100
AcDb2dVertex
 10
203.3390073159
 20
148.4607545387
 30
0.0
  0
VERTEX
  5
1BA
100
AcDbEntity
  8
0
100
AcDbVertex
100
AcDb2dVertex
 10
203.3005778767
 20
148.736653918
 30
0.0
  0
SEQEND
  5
1BB
100
AcDbEntity
  8
0
  0
LINE
  5
1BC
100
AcDbEntity
  8
0
370
         0
  6
HIDDEN
 62
         9
100
AcDbLine
 10
205.3005778767
 20
206.3658565847
 30
0.0
 11
201.3005778767
 21
206.3658565847
 31
0.0
  0
LINE
  5
1BD
100
AcDbEntity
  8
0
370
         0
  6
HIDDEN
 62
         9
100
AcDbLine
 10
205.3005778767
 20
151.9186344333
 30
0.0
 11
201.3005778767
 21
151.9186344333
 31
0.0
  0
LINE
  5
1BE
100
AcDbEntity
  8
0
370
         0
  6
HIDDEN
 62
         9
100
AcDbLine
 10
201.3005778767
 20
205.7194099753
 30
0.0
 11
201.3005778767
 21
204.2445362411
 31
0.0
  0
LINE
  5
1BF
100
AcDbEntity
  8
0
370
         0
  6
HIDDEN
 62
         9
100
AcDbLine
 10
201.3005778767
 20
154.0399547769
 30
0.0
 11
201.3005778767
 21
152.5650810427
 31
0.0
  0
LINE
  5
1C0
100
AcDbEntity
  8
0
370
         0
  6
HIDDEN
 62
         9
100
AcDbLine
 10
205.3005778767
 20
202.425926548
 30
0.0
 11
201.3005778767
 21
202.425926548
 31
0.0
  0
LINE
  5
1C1
100
AcDbEntity
  8
0
370
         0
  6
HIDDEN
 62
         9
100
AcDbLine
 10
201.3005778767
 20
203.8909828505
 30
0.0
 11
201.3005778767
 21
202.1838760693
 31
0.0
  0
LINE
  5
1C2
100
AcDbEntity
  8
0
370
         0
  6
HIDDEN
 62
         9
100
AcDbLine
 10
205.3005778767
 20
155.8585644699
 30
0.0
 11
201.3005778767
 21
155.8585644699
 31
0.0
  0
LINE
  5
1C3
100
AcDbEntity
  8
0
370
         0
  6
HIDDEN
 62
         9
100
AcDbLine
 10
201.3005778767
 20
156.1006149486
 30
0.0
 11
201.3005778767
 21
154.3935081675
 31
0.0
  0
LINE
  5
1C4
100
AcDbEntity
  8
0
370
         0
  6
HIDDEN
 62
         9
100
AcDbLine
 10
205.3005778767
 20
204.2445362411
 30
0.0
 11
201.3005778767
 21
204.2445362411
 31
0.0
  0
LINE
  5
1C5
100
AcDbEntity
  8
0
370
         0
  6
HIDDEN
 62
         9
100
AcDbLine
 10
201.3005778767
 20
204.2445362411
 30
0.0
 11
201.3005778767
 21
203.8909828505
 31
0.0
  0
LINE
  5
1C6
100
AcDbEntity
  8
0
370
         0
  6
HIDDEN
 62
         9
100
AcDbLine
 10
205.3005778767
 20
154.0399547769
 30
0.0
 11
201.3005778767
 21
154.0399547769
 31
0.0
  0
LINE
  5
1C7
100
AcDbEntity
  8
0
370
         0
  6
HIDDEN
 62
         9
100
AcDbLine
 10
201.3005778767
 20
154.3935081675
 30
0.0
 11
201.3005778767
 21
154.0399547769
 31
0.0
  0
LINE
  5
1C8
100
AcDbEntity
  8
0
370
         0
  6
HIDDEN
 62
         9
100
AcDbLine
 10
201.3005778767
 20
171.7263763532
 30
0.0
 11
201.3005778767
 21
171.542245509
 31
0.0
  0
LINE
  5
1C9
100
AcDbEntity
  8
0
370
         0
  6
HIDDEN
 62
         9
100
AcDbLine
 10
201.3005778767
 20
211.9620506624
 30
0.0
 11
201.3005778767
 21
211.6691574436
 31
0.0
  0
LINE
  5
1CA
100
AcDbEntity
  8
0
370
         0
  6
HIDDEN
 62
         9
100
AcDbLine
 10
201.3005778767
 20
146.6153335744
 30
0.0
 11
201.3005778767
 21
146.3224403556
 31
0.0
  0
LINE
  5
1CB
100
AcDbEntity
  8
0
370
         0
  6
HIDDEN
 62
         9
100
AcDbLine
 10
201.3005778767
 20
188.742245509
 30
0.0
 11
201.3005778767
 21
188.7388201179
 31
0.0
  0
LINE
  5
1CC
100
AcDbEntity
  8
0
370
         0
  6
HIDDEN
 62
         9
100
AcDbLine
 10
201.3005778767
 20
202.1838760693
 30
0.0
 11
201.3005778767
 21
191.0073529748
 31
0.0
  0
LINE
  5
1CD
100
AcDbEntity
  8
0
370
         0
  6
HIDDEN
 62
         9
100
AcDbLine
 10
201.3005778767
 20
167.2771380432
 30
0.0
 11
201.3005778767
 21
156.1006149486
 31
0.0
  0
LINE
  5
1CE
100
AcDbEntity
  8
0
370
         0
  6
HIDDEN
 62
         9
100
AcDbLine
 10
205.3005778767
 20
209.9013904906
 30
0.0
 11
201.3005778767
 21
209.9013904906
 31
0.0
  0
LINE
  5
1CF
100
AcDbEntity
  8
0
370
         0
  6
HIDDEN
 62
         9
100
AcDbLine
 10
205.3005778767
 20
207.780070147
 30
0.0
 11
201.3005778767
 21
207.780070147
 31
0.0
  0
LINE
  5
1D0
100
AcDbEntity
  8
0
370
         0
  6
HIDDEN
 62
         9
100
AcDbLine
 10
205.3005778767
 20
148.3831005274
 30
0.0
 11
201.3005778767
 21
148.3831005274
 31
0.0
  0
LINE
  5
1D1
100
AcDbEntity
  8
0
370
         0
  6
HIDDEN
 62
         9
100
AcDbLine
 10
205.3005778767
 20
150.5044208709
 30
0.0
 11
201.3005778767
 21
150.5044208709
 31
0.0
  0
LINE
  5
1D2
100
AcDbEntity
  8
0
370
         0
  6
HIDDEN
 62
         9
100
AcDbLine
 10
205.3005778767
 20
181.142245509
 30
0.0
 11
201.3005778767
 21
181.142245509
 31
0.0
  0
LINE
  5
1D3
100
AcDbEntity
  8
0
370
         0
  6
HIDDEN
 62
         9
100
AcDbLine
 10
205.3005778767
 20
177.142245509
 30
0.0
 11
201.3005778767
 21
177.142245509
 31
0.0
  0
LINE
  5
1D4
100
AcDbEntity
  8
0
370
         0
  6
HIDDEN
 62
         9
100
AcDbLine
 10
205.3005778767
 20
206.774203547
 30
0.0
 11
201.3005778767
 21
206.774203547
 31
0.0
  0
LINE
  5
1D5
100
AcDbEntity
  8
0
370
         0
  6
HIDDEN
 62
         9
100
AcDbLine
 10
205.3005778767
 20
151.5102874709
 30
0.0
 11
201.3005778767
 21
151.5102874709
 31
0.0
  0
LINE
  5
1D6
100
AcDbEntity
  8
0
370
         0
  6
HIDDEN
 62
         9
100
AcDbLine
 10
205.3005778767
 20
196.9470499367
 30
0.0
 11
201.3005778767
 21
196.9470499367
 31
0.0
  0
LINE
  5
1D7
100
AcDbEntity
  8
0
370
         0
  6
HIDDEN
 62
         9
100
AcDbLine
 10
205.3005778767
 20
161.3374410812
 30
0.0
 11
201.3005778767
 21
161.3374410812
 31
0.0
  0
LINE
  5
1D8
100
AcDbEntity
  8
0
370
         0
  6
HIDDEN
 62
         9
100
AcDbLine
 10
201.3005778767
 20
171.542245509
 30
0.0
 11
201.3005778767
 21
171.042245509
 31
0.0
  0
LINE
  5
1D9
100
AcDbEntity
  8
0
370
         0
  6
HIDDEN
 62
         9
100
AcDbLine
 10
205.3005778767
 20
185.142245509
 30
0.0
 11
201.3005778767
 21
185.142245509
 31
0.0
  0
LINE
  5
1DA
100
AcDbEntity
  8
0
370
         0
  6
HIDDEN
 62
         9
100
AcDbLine
 10
201.3005778767
 20
173.142245509
 30
0.0
 11
205.3005778767
 21
173.142245509
 31
0.0
  0
LINE
  5
1DB
100
AcDbEntity
  8
0
370
         0
  6
HIDDEN
 62
         9
100
AcDbLine
 10
203.3005778767
 20
181.142245509
 30
0.0
 11
203.3005778767
 21
177.142245509
 31
0.0
  0
LINE
  5
1DC
100
AcDbEntity
  8
0
370
         0
  6
HIDDEN
 62
         9
100
AcDbLine
 10
205.3005778767
 20
167.2771380432
 30
0.0
 11
201.3005778767
 21
167.2771380432
 31
0.0
  0
LINE
  5
1DD
100
AcDbEntity
  8
0
370
         0
  6
HIDDEN
 62
         9
100
AcDbLine
 10
201.3005778767
 20
168.82853701
 30
0.0
 11
201.3005778767
 21
167.2771380432
 31
0.0
  0
LINE
  5
1DE
100
AcDbEntity
  8
0
370
         0
  6
HIDDEN
 62
         9
100
AcDbLine
 10
205.3005778767
 20
191.0073529748
 30
0.0
 11
201.3005778767
 21
191.0073529748
 31
0.0
  0
LINE
  5
1DF
100
AcDbEntity
  8
0
370
         0
  6
HIDDEN
 62
         9
100
AcDbLine
 10
201.3005778767
 20
191.0073529748
 30
0.0
 11
201.3005778767
 21
189.455954008
 31
0.0
  0
LINE
  5
1E0
100
AcDbEntity
  8
0
370
         0
  6
HIDDEN
 62
         9
100
AcDbLine
 10
203.3005778767
 20
167.1214302288
 30
0.0
 11
205.3005778767
 21
167.1214302288
 31
0.0
  0
LINE
  5
1E1
100
AcDbEntity
  8
0
370
         0
  6
HIDDEN
 62
         9
100
AcDbLine
 10
205.3005778767
 20
164.2930031041
 30
0.0
 11
203.3005778767
 21
164.2930031041
 31
0.0
  0
LINE
  5
1E2
100
AcDbEntity
  8
0
370
         0
  6
HIDDEN
 62
         9
100
AcDbLine
 10
203.3005778767
 20
167.1214302288
 30
0.0
 11
203.3005778767
 21
164.2930031041
 31
0.0
  0
LINE
  5
1E3
100
AcDbEntity
  8
0
370
         0
  6
HIDDEN
 62
         9
100
AcDbLine
 10
203.3005778767
 20
193.9914879139
 30
0.0
 11
205.3005778767
 21
193.9914879139
 31
0.0
  0
LINE
  5
1E4
100
AcDbEntity
  8
0
370
         0
  6
HIDDEN
 62
         9
100
AcDbLine
 10
205.3005778767
 20
191.1630607892
 30
0.0
 11
203.3005778767
 21
191.1630607892
 31
0.0
  0
LINE
  5
1E5
100
AcDbEntity
  8
0
370
         0
  6
HIDDEN
 62
         9
100
AcDbLine
 10
203.3005778767
 20
193.9914879139
 30
0.0
 11
203.3005778767
 21
191.1630607892
 31
0.0
  0
LINE
  5
1E6
100
AcDbEntity
  8
0
370
         0
  6
HIDDEN
 62
         9
100
AcDbLine
 10
203.3005778767
 20
191.1630607892
 30
0.0
 11
203.3005778767
 21
186.4529961299
 31
0.0
  0
LINE
  5
1E7
100
AcDbEntity
  8
0
370
         0
  6
HIDDEN
 62
         9
100
AcDbLine
 10
203.3005778767
 20
171.831494888
 30
0.0
 11
203.3005778767
 21
167.1214302288
 31
0.0
  0
LINE
  5
1E8
100
AcDbEntity
  8
0
370
         0
  6
HIDDEN
 62
         9
100
AcDbLine
 10
203.3005778767
 20
186.4529961299
 30
0.0
 11
205.3005778767
 21
186.4529961299
 31
0.0
  0
LINE
  5
1E9
100
AcDbEntity
  8
0
370
         0
  6
HIDDEN
 62
         9
100
AcDbLine
 10
203.3005778767
 20
186.4529961299
 30
0.0
 11
203.3005778767
 21
181.142245509
 31
0.0
  0
LINE
  5
1EA
100
AcDbEntity
  8
0
370
         0
  6
HIDDEN
 62
         9
100
AcDbLine
 10
205.3005778767
 20
171.831494888
 30
0.0
 11
203.3005778767
 21
171.831494888
 31
0.0
  0
LINE
  5
1EB
100
AcDbEntity
  8
0
370
         0
  6
HIDDEN
 62
         9
100
AcDbLine
 10
203.3005778767
 20
177.142245509
 30
0.0
 11
203.3005778767
 21
171.831494888
 31
0.0
  0
LINE
  5
1EC
100
AcDbEntity
  8
0
370
         0
  6
HIDDEN
 62
         9
100
AcDbLine
 10
205.3005778767
 20
189.2814232547
 30
0.0
 11
203.3005778767
 21
189.2814232547
 31
0.0
  0
LINE
  5
1ED
100
AcDbEntity
  8
0
370
         0
  6
HIDDEN
 62
         9
100
AcDbLine
 10
203.3005778767
 20
169.0030677633
 30
0.0
 11
205.3005778767
 21
169.0030677633
 31
0.0
  0
LINE
  5
1EE
100
AcDbEntity
  8
0
370
         0
  6
HIDDEN
 62
         9
100
AcDbLine
 10
205.3005778767
 20
197.6308896881
 30
0.0
 11
203.3005778767
 21
197.6308896881
 31
0.0
  0
LINE
  5
1EF
100
AcDbEntity
  8
0
370
         0
  6
HIDDEN
 62
         9
100
AcDbLine
 10
205.3005778767
 20
202.954607272
 30
0.0
 11
201.3005778767
 21
202.954607272
 31
0.0
  0
LINE
  5
1F0
100
AcDbEntity
  8
0
370
         0
  6
HIDDEN
 62
         9
100
AcDbLine
 10
201.3005778767
 20
139.0310181058
 30
0.0
 11
201.3005778767
 21
136.142245509
 31
0.0
  0
LINE
  5
1F1
100
AcDbEntity
  8
0
370
         0
  6
HIDDEN
 62
         9
100
AcDbLine
 10
203.3005778767
 20
159.7123943393
 30
0.0
 11
205.3005778767
 21
159.7123943393
 31
0.0
  0
LINE
  5
1F2
100
AcDbEntity
  8
0
370
         0
  6
HIDDEN
 62
         9
100
AcDbLine
 10
201.3005778767
 20
146.3224403556
 30
0.0
 11
201.3005778767
 21
143.8858343301
 31
0.0
  0
LINE
  5
1F3
100
AcDbEntity
  8
0
370
         0
  6
HIDDEN
 62
         9
100
AcDbLine
 10
201.3005778767
 20
142.3645104494
 30
0.0
 11
201.3005778767
 21
139.0310181058
 31
0.0
  0
LINE
  5
1F4
100
AcDbEntity
  8
0
370
         0
  6
HIDDEN
 62
         9
100
AcDbLine
 10
200.3005778767
 20
179.142245509
 30
0.0
 11
200.3005778767
 21
183.392245509
 31
0.0
  0
LINE
  5
1F5
100
AcDbEntity
  8
0
370
         0
  6
HIDDEN
 62
         9
100
AcDbLine
 10
200.3005778767
 20
174.892245509
 30
0.0
 11
200.3005778767
 21
179.142245509
 31
0.0
  0
LINE
  5
1F6
100
AcDbEntity
  8
0
370
         0
  6
HIDDEN
 62
         9
100
AcDbLine
 10
205.3005778767
 20
215.142245509
 30
0.0
 11
201.3005778767
 21
215.142245509
 31
0.0
  0
LINE
  5
1F7
100
AcDbEntity
  8
0
370
         0
  6
HIDDEN
 62
         9
100
AcDbLine
 10
205.3005778767
 20
213.142245509
 30
0.0
 11
201.3005778767
 21
213.142245509
 31
0.0
  0
LINE
  5
1F8
100
AcDbEntity
  8
0
370
         0
  6
HIDDEN
 62
         9
100
AcDbLine
 10
201.3005778767
 20
215.142245509
 30
0.0
 11
201.3005778767
 21
213.142245509
 31
0.0
  0
LINE
  5
1F9
100
AcDbEntity
  8
0
370
         0
  6
HIDDEN
 62
         9
100
AcDbLine
 10
201.3005778767
 20
143.8858343301
 30
0.0
 11
201.3005778767
 21
142.3645104494
 31
0.0
  0
LINE
  5
1FA
100
AcDbEntity
  8
0
370
         0
  6
HIDDEN
 62
         9
100
AcDbLine
 10
205.3005778767
 20
216.4651945259
 30
0.0
 11
201.3005778767
 21
216.4651945259
 31
0.0
  0
LINE
  5
1FB
100
AcDbEntity
  8
0
370
         0
  6
HIDDEN
 62
         9
100
AcDbLine
 10
201.3005778767
 20
220.392245509
 30
0.0
 11
201.3005778767
 21
216.4651945259
 31
0.0
  0
LINE
  5
1FC
100
AcDbEntity
  8
0
370
         0
  6
HIDDEN
 62
         9
100
AcDbLine
 10
203.3005778767
 20
191.4812081882
 30
0.0
 11
205.3005778767
 21
191.4812081882
 31
0.0
  0
LINE
  5
1FD
100
AcDbEntity
  8
0
370
         0
  6
HIDDEN
 62
         9
100
AcDbLine
 10
203.3005778767
 20
197.6308896881
 30
0.0
 11
203.3005778767
 21
193.9914879139
 31
0.0
  0
LINE
  5
1FE
100
AcDbEntity
  8
0
370
         0
  6
HIDDEN
 62
         9
100
AcDbLine
 10
205.3005778767
 20
166.8032828297
 30
0.0
 11
203.3005778767
 21
166.8032828297
 31
0.0
  0
LINE
  5
1FF
100
AcDbEntity
  8
0
370
         0
  6
HIDDEN
 62
         9
100
AcDbLine
 10
203.3005778767
 20
164.2930031041
 30
0.0
 11
203.3005778767
 21
159.7123943393
 31
0.0
  0
LINE
  5
200
100
AcDbEntity
  8
0
370
         0
  6
HIDDEN
 62
         9
100
AcDbLine
 10
201.3005778767
 20
216.4651945259
 30
0.0
 11
201.3005778767
 21
215.142245509
 31
0.0
  0
LINE
  5
201
100
AcDbEntity
  8
0
370
         0
  6
HIDDEN
 62
         9
100
AcDbLine
 10
201.3005778767
 20
213.142245509
 30
0.0
 11
201.3005778767
 21
211.9620506624
 31
0.0
  0
LINE
  5
202
100
AcDbEntity
  8
0
370
         0
  6
HIDDEN
 62
         9
100
AcDbLine
 10
205.3005778767
 20
161.444510668
 30
0.0
 11
201.3005778767
 21
161.444510668
 31
0.0
  0
LINE
  5
203
100
AcDbEntity
  8
0
370
         0
  6
HIDDEN
 62
         9
100
AcDbLine
 10
205.3005778767
 20
161.4645759793
 30
0.0
 11
201.3005778767
 21
161.4645759793
 31
0.0
  0
LINE
  5
204
100
AcDbEntity
  8
0
370
         0
  6
HIDDEN
 62
         9
100
AcDbLine
 10
201.3005778767
 20
168.82853701
 30
0.0
 11
201.3005778767
 21
169.9498573536
 31
0.0
  0
LINE
  5
205
100
AcDbEntity
  8
0
370
         0
  6
HIDDEN
 62
         9
100
AcDbLine
 10
203.3005778767
 20
190.8014776206
 30
0.0
 11
205.3005778767
 21
190.8014776206
 31
0.0
  0
LINE
  5
206
100
AcDbEntity
  8
0
370
         0
  6
HIDDEN
 62
         9
100
AcDbLine
 10
205.3005778767
 20
193.6299047453
 30
0.0
 11
203.3005778767
 21
193.6299047453
 31
0.0
  0
LINE
  5
207
100
AcDbEntity
  8
0
370
         0
  6
HIDDEN
 62
         9
100
AcDbLine
 10
205.3005778767
 20
197.0407881595
 30
0.0
 11
201.3005778767
 21
197.0407881595
 31
0.0
  0
LINE
  5
208
100
AcDbEntity
  8
0
370
         0
  6
HIDDEN
 62
         9
100
AcDbLine
 10
205.3005778767
 20
159.3432556358
 30
0.0
 11
201.3005778767
 21
159.3432556358
 31
0.0
  0
LINE
  5
209
100
AcDbEntity
  8
0
370
         0
  6
HIDDEN
 62
         9
100
AcDbLine
 10
201.3005778767
 20
169.9297920422
 30
0.0
 11
205.3005778767
 21
169.9297920422
 31
0.0
  0
LINE
  5
20A
100
AcDbEntity
  8
0
370
         0
  6
HIDDEN
 62
         9
100
AcDbLine
 10
201.3005778767
 20
169.9498573536
 30
0.0
 11
205.3005778767
 21
169.9498573536
 31
0.0
  0
LINE
  5
20B
100
AcDbEntity
  8
0
370
         0
  6
HIDDEN
 62
         9
100
AcDbLine
 10
203.3005778767
 20
164.2930031041
 30
0.0
 11
201.3005778767
 21
164.2930031041
 31
0.0
  0
LINE
  5
20C
100
AcDbEntity
  8
0
370
         0
  6
HIDDEN
 62
         9
100
AcDbLine
 10
205.3005778767
 20
162.1716827605
 30
0.0
 11
201.3005778767
 21
162.1716827605
 31
0.0
  0
LINE
  5
20D
100
AcDbEntity
  8
0
370
         0
  6
HIDDEN
 62
         9
100
AcDbLine
 10
205.3005778767
 20
170.2063544693
 30
0.0
 11
201.3005778767
 21
170.2063544693
 31
0.0
  0
LINE
  5
20E
100
AcDbEntity
  8
0
370
         0
  6
HIDDEN
 62
         9
100
AcDbLine
 10
201.3005778767
 20
170.2063544693
 30
0.0
 11
201.3005778767
 21
169.9498573536
 31
0.0
  0
LINE
  5
20F
100
AcDbEntity
  8
0
370
         0
  6
HIDDEN
 62
         9
100
AcDbLine
 10
205.3005778767
 20
194.9194678159
 30
0.0
 11
201.3005778767
 21
194.9194678159
 31
0.0
  0
LINE
  5
210
100
AcDbEntity
  8
0
370
         0
  6
HIDDEN
 62
         9
100
AcDbLine
 10
205.3005778767
 20
202.1232158975
 30
0.0
 11
201.3005778767
 21
202.1232158975
 31
0.0
  0
LINE
  5
211
100
AcDbEntity
  8
0
370
         0
  6
HIDDEN
 62
         9
100
AcDbLine
 10
205.3005778767
 20
205.6587498035
 30
0.0
 11
201.3005778767
 21
205.6587498035
 31
0.0
  0
LINE
  5
212
100
AcDbEntity
  8
0
370
         0
  6
HIDDEN
 62
         9
100
AcDbLine
 10
205.3005778767
 20
204.4728956809
 30
0.0
 11
201.3005778767
 21
204.4728956809
 31
0.0
  0
LINE
  5
213
100
AcDbEntity
  8
0
370
         0
  6
HIDDEN
 62
         9
100
AcDbLine
 10
205.3005778767
 20
206.5942160245
 30
0.0
 11
201.3005778767
 21
206.5942160245
 31
0.0
  0
LINE
  5
214
100
AcDbEntity
  8
0
370
         0
  6
HIDDEN
 62
         9
100
AcDbLine
 10
205.3005778767
 20
203.5374294599
 30
0.0
 11
201.3005778767
 21
203.5374294599
 31
0.0
  0
LINE
  5
215
100
AcDbEntity
  8
0
370
         0
  6
HIDDEN
 62
         9
100
AcDbLine
 10
193.3005778767
 20
131.267245509
 30
0.0
 11
197.8005778767
 21
135.767245509
 31
0.0
  0
LINE
  5
216
100
AcDbEntity
  8
0
370
         0
  6
HIDDEN
 62
         9
100
AcDbLine
 10
197.8005778767
 20
142.517245509
 30
0.0
 11
193.3005778767
 21
147.017245509
 31
0.0
  0
LINE
  5
217
100
AcDbEntity
  8
0
370
         0
  6
HIDDEN
 62
         9
100
AcDbLine
 10
193.3005778767
 20
211.267245509
 30
0.0
 11
197.8005778767
 21
215.767245509
 31
0.0
  0
LINE
  5
218
100
AcDbEntity
  8
0
370
         0
  6
HIDDEN
 62
         9
100
AcDbLine
 10
197.8005778767
 20
222.517245509
 30
0.0
 11
193.3005778767
 21
227.017245509
 31
0.0
  0
LINE
  5
219
100
AcDbEntity
  8
0
370
         0
  6
HIDDEN
 62
         9
100
AcDbLine
 10
205.3005778767
 20
156.242245509
 30
0.0
 11
193.3005778767
 21
156.242245509
 31
0.0
  0
LINE
  5
21A
100
AcDbEntity
  8
0
370
         0
  6
HIDDEN
 62
         9
100
AcDbLine
 10
193.3005778767
 20
152.042245509
 30
0.0
 11
205.3005778767
 21
152.042245509
 31
0.0
  0
LINE
  5
21B
100
AcDbEntity
  8
0
370
         0
  6
HIDDEN
 62
         9
100
AcDbLine
 10
205.3005778766
 20
222.517245509
 30
0.0
 11
197.8005778767
 21
222.517245509
 31
0.0
  0
LINE
  5
21C
100
AcDbEntity
  8
0
370
         0
  6
HIDDEN
 62
         9
100
AcDbLine
 10
197.8005778767
 20
215.767245509
 30
0.0
 11
205.3005778766
 21
215.767245509
 31
0.0
  0
LINE
  5
21D
100
AcDbEntity
  8
0
370
         0
  6
HIDDEN
 62
         9
100
AcDbLine
 10
205.3005778766
 20
142.517245509
 30
0.0
 11
197.8005778767
 21
142.517245509
 31
0.0
  0
LINE
  5
21E
100
AcDbEntity
  8
0
370
         0
  6
HIDDEN
 62
         9
100
AcDbLine
 10
197.8005778767
 20
135.767245509
 30
0.0
 11
205.3005778766
 21
135.767245509
 31
0.0
  0
POLYLINE
  5
21F
100
AcDbEntity
  8
0
370
         0
  6
HIDDEN
 62
         9
100
AcDb2dPolyline
 66
         1
 10
0.0
 20
0.0
 30
0.0
 70
       128
  0
VERTEX
  5
220
100
AcDbEntity
  8
0
100
AcDbVertex
100
AcDb2dVertex
 10
205.3005778767
 20
213.1277360873
 30
0.0
  0
VERTEX
  5
221
100
AcDbEntity
  8
0
100
AcDbVertex
100
AcDb2dVertex
 10
204.8350203071
 20
213.0693418789
 30
0.0
  0
VERTEX
  5
222
100
AcDbEntity
  8
0
100
AcDbVertex
100
AcDb2dVertex
 10
204.3979832336
 20
212.8985480753
 30
0.0
  0
VERTEX
  5
223
100
AcDbEntity
  8
0
100
AcDbVertex
100
AcDb2dVertex
 10
204.0248247282
 20
212.6369222898
 30
0.0
  0
VERTEX
  5
224
100
AcDbEntity
  8
0
100
AcDbVertex
100
AcDb2dVertex
 10
203.7209768656
 20
212.2993261368
 30
0.0
  0
VERTEX
  5
225
100
AcDbEntity
  8
0
100
AcDbVertex
100
AcDb2dVertex
 10
203.4918608183
 20
211.8947794581
 30
0.0
  0
VERTEX
  5
226
100
AcDbEntity
  8
0
100
AcDbVertex
100
AcDb2dVertex
 10
203.3466412629
 20
211.4292594595
 30
0.0
  0
VERTEX
  5
227
100
AcDbEntity
  8
0
100
AcDbVertex
100
AcDb2dVertex
 10
203.3005778767
 20
210.9620506624
 30
0.0
  0
SEQEND
  5
228
100
AcDbEntity
  8
0
  0
POLYLINE
  5
229
100
AcDbEntity
  8
0
370
         0
  6
HIDDEN
 62
         9
100
AcDb2dPolyline
 66
         1
 10
0.0
 20
0.0
 30
0.0
 70
       128
  0
VERTEX
  5
22A
100
AcDbEntity
  8
0
100
AcDbVertex
100
AcDb2dVertex
 10
203.3005778767
 20
147.3224403556
 30
0.0
  0
VERTEX
  5
22B
100
AcDbEntity
  8
0
100
AcDbVertex
100
AcDb2dVertex
 10
203.3521678931
 20
146.8283797496
 30
0.0
  0
VERTEX
  5
22C
100
AcDbEntity
  8
0
100
AcDbVertex
100
AcDb2dVertex
 10
203.5111646018
 20
146.346480879
 30
0.0
  0
VERTEX
  5
22D
100
AcDbEntity
  8
0
100
AcDbVertex
100
AcDb2dVertex
 10
203.7639255674
 20
145.9275236334
 30
0.0
  0
VERTEX
  5
22E
100
AcDbEntity
  8
0
100
AcDbVertex
100
AcDb2dVertex
 10
204.0961291899
 20
145.5871102669
 30
0.0
  0
VERTEX
  5
22F
100
AcDbEntity
  8
0
100
AcDbVertex
100
AcDb2dVertex
 10
204.4928048232
 20
145.3380771993
 30
0.0
  0
VERTEX
  5
230
100
AcDbEntity
  8
0
100
AcDbVertex
100
AcDb2dVertex
 10
204.935127015
 20
145.1925353036
 30
0.0
  0
VERTEX
  5
231
100
AcDbEntity
  8
0
100
AcDbVertex
100
AcDb2dVertex
 10
205.3005778767
 20
145.1567549306
 30
0.0
  0
SEQEND
  5
232
100
AcDbEntity
  8
0
  0
LINE
  5
233
100
AcDbEntity
  8
0
370
         0
  6
HIDDEN
 62
         9
100
AcDbLine
 10
205.3005778767
 20
152.5650810427
 30
0.0
 11
201.3005778767
 21
152.5650810427
 31
0.0
  0
LINE
  5
234
100
AcDbEntity
  8
0
370
         0
  6
HIDDEN
 62
         9
100
AcDbLine
 10
201.3005778767
 20
205.7194099753
 30
0.0
 11
205.3005778767
 21
205.7194099753
 31
0.0
  0
LINE
  5
235
100
AcDbEntity
  8
0
370
         0
  6
HIDDEN
 62
         9
100
AcDbLine
 10
201.3005778767
 20
202.1838760693
 30
0.0
 11
205.3005778767
 21
202.1838760693
 31
0.0
  0
LINE
  5
236
100
AcDbEntity
  8
0
370
         0
  6
HIDDEN
 62
         9
100
AcDbLine
 10
205.3005778767
 20
156.1006149486
 30
0.0
 11
201.3005778767
 21
156.1006149486
 31
0.0
  0
LINE
  5
237
100
AcDbEntity
  8
0
370
         0
  6
HIDDEN
 62
         9
100
AcDbLine
 10
201.3005778767
 20
171.542245509
 30
0.0
 11
205.3005778767
 21
171.542245509
 31
0.0
  0
LINE
  5
238
100
AcDbEntity
  8
0
370
         0
  6
HIDDEN
 62
         9
100
AcDbLine
 10
205.3005778767
 20
211.9620506624
 30
0.0
 11
201.3005778767
 21
211.9620506624
 31
0.0
  0
LINE
  5
239
100
AcDbEntity
  8
0
370
         0
  6
HIDDEN
 62
         9
100
AcDbLine
 10
201.3005778767
 20
146.3224403556
 30
0.0
 11
205.3005778767
 21
146.3224403556
 31
0.0
  0
LINE
  5
23A
100
AcDbEntity
  8
0
370
         0
  6
HIDDEN
 62
         9
100
AcDbLine
 10
205.3005778767
 20
188.742245509
 30
0.0
 11
201.3005778767
 21
188.742245509
 31
0.0
  0
LINE
  5
23B
100
AcDbEntity
  8
0
370
         0
  6
HIDDEN
 62
         9
100
AcDbLine
 10
205.3005778767
 20
208.4265167564
 30
0.0
 11
201.3005778767
 21
208.4265167564
 31
0.0
  0
LINE
  5
23C
100
AcDbEntity
  8
0
370
         0
  6
HIDDEN
 62
         9
100
AcDbLine
 10
201.3005778767
 20
149.8579742615
 30
0.0
 11
205.3005778767
 21
149.8579742615
 31
0.0
  0
LINE
  5
23D
100
AcDbEntity
  8
0
370
         0
  6
HIDDEN
 62
         9
100
AcDbLine
 10
205.3005778767
 20
187.242245509
 30
0.0
 11
201.3005778767
 21
187.242245509
 31
0.0
  0
LINE
  5
23E
100
AcDbEntity
  8
0
370
         0
  6
HIDDEN
 62
         9
100
AcDbLine
 10
201.3005778767
 20
171.042245509
 30
0.0
 11
205.3005778767
 21
171.042245509
 31
0.0
  0
LINE
  5
23F
100
AcDbEntity
  8
0
370
         0
  6
HIDDEN
 62
         9
100
AcDbLine
 10
205.3005778767
 20
168.82853701
 30
0.0
 11
201.3005778767
 21
168.82853701
 31
0.0
  0
LINE
  5
240
100
AcDbEntity
  8
0
370
         0
  6
HIDDEN
 62
         9
100
AcDbLine
 10
201.3005778767
 20
189.455954008
 30
0.0
 11
205.3005778767
 21
189.455954008
 31
0.0
  0
LINE
  5
241
100
AcDbEntity
  8
0
370
         0
  6
HIDDEN
 62
         9
100
AcDbLine
 10
201.3005778767
 20
161.1716827605
 30
0.0
 11
205.3005778767
 21
161.1716827605
 31
0.0
  0
LINE
  5
242
100
AcDbEntity
  8
0
370
         0
  6
HIDDEN
 62
         9
100
AcDbLine
 10
205.3005778767
 20
197.1128082575
 30
0.0
 11
201.3005778767
 21
197.1128082575
 31
0.0
  0
LINE
  5
243
100
AcDbEntity
  8
0
370
         0
  6
HIDDEN
 62
         9
100
AcDbLine
 10
205.3005778767
 20
204.7460954634
 30
0.0
 11
201.3005778767
 21
204.7460954634
 31
0.0
  0
LINE
  5
244
100
AcDbEntity
  8
0
370
         0
  6
HIDDEN
 62
         9
100
AcDbLine
 10
201.3005778767
 20
197.392245509
 30
0.0
 11
203.3005778767
 21
197.392245509
 31
0.0
  0
LINE
  5
245
100
AcDbEntity
  8
0
370
         0
  6
HIDDEN
 62
         9
100
AcDbLine
 10
201.3005778767
 20
136.142245509
 30
0.0
 11
205.3005778767
 21
136.142245509
 31
0.0
  0
LINE
  5
246
100
AcDbEntity
  8
0
370
         0
  6
HIDDEN
 62
         9
100
AcDbLine
 10
203.3005778767
 20
160.142245509
 30
0.0
 11
201.3005778767
 21
160.142245509
 31
0.0
  0
LINE
  5
247
100
AcDbEntity
  8
0
370
         0
  6
HIDDEN
 62
         9
100
AcDbLine
 10
193.3005778767
 20
174.892245509
 30
0.0
 11
200.3005778767
 21
174.892245509
 31
0.0
  0
LINE
  5
248
100
AcDbEntity
  8
0
370
         0
  6
HIDDEN
 62
         9
100
AcDbLine
 10
200.3005778767
 20
183.392245509
 30
0.0
 11
193.3005778767
 21
183.392245509
 31
0.0
  0
LINE
  5
249
100
AcDbEntity
  8
0
370
         0
  6
HIDDEN
 62
         9
100
AcDbLine
 10
205.3005778767
 20
137.780342335
 30
0.0
 11
201.3005778767
 21
137.780342335
 31
0.0
  0
LINE
  5
24A
100
AcDbEntity
  8
0
370
         0
  6
HIDDEN
 62
         9
100
AcDbLine
 10
205.3005778767
 20
220.392245509
 30
0.0
 11
201.3005778767
 21
220.392245509
 31
0.0
  0
LINE
  5
24B
100
AcDbEntity
  8
0
370
         0
  6
HIDDEN
 62
         9
100
AcDbLine
 10
201.3005778767
 20
157.8139663139
 30
0.0
 11
205.3005778767
 21
157.8139663139
 31
0.0
  0
LINE
  5
24C
100
AcDbEntity
  8
0
370
         0
  6
HIDDEN
 62
         9
100
AcDbLine
 10
201.3005778767
 20
189.5573519057
 30
0.0
 11
205.3005778767
 21
189.5573519057
 31
0.0
  0
LINE
  5
24D
100
AcDbEntity
  8
0
370
         0
  6
HIDDEN
 62
         9
100
AcDbLine
 10
205.3005778767
 20
202.7491615311
 30
0.0
 11
201.3005778767
 21
202.7491615311
 31
0.0
  0
LINE
  5
24E
100
AcDbEntity
  8
0
370
         0
  6
HIDDEN
 62
         9
100
AcDbLine
 10
201.3005778767
 20
149.0438695105
 30
0.0
 11
205.3005778767
 21
149.0438695105
 31
0.0
  0
LINE
  5
24F
100
AcDbEntity
  8
0
370
         0
  6
HIDDEN
 62
         9
100
AcDbLine
 10
205.3005778767
 20
223.242245509
 30
0.0
 11
193.3005778767
 21
223.242245509
 31
0.0
  0
LINE
  5
250
100
AcDbEntity
  8
0
370
         0
  6
HIDDEN
 62
         9
100
AcDbLine
 10
193.3005778767
 20
219.042245509
 30
0.0
 11
205.3005778767
 21
219.042245509
 31
0.0
  0
LINE
  5
251
100
AcDbEntity
  8
0
370
         0
  6
HIDDEN
 62
         9
100
AcDbLine
 10
205.3005778767
 20
185.642245509
 30
0.0
 11
201.3005778767
 21
185.642245509
 31
0.0
  0
LINE
  5
252
100
AcDbEntity
  8
0
370
         0
  6
HIDDEN
 62
         9
100
AcDbLine
 10
201.3005778767
 20
172.642245509
 30
0.0
 11
205.3005778767
 21
172.642245509
 31
0.0
  0
LINE
  5
253
100
AcDbEntity
  8
0
370
         0
  6
HIDDEN
 62
         9
100
AcDbLine
 10
205.3005778767
 20
207.0123031941
 30
0.0
 11
201.3005778767
 21
207.0123031941
 31
0.0
  0
LINE
  5
254
100
AcDbEntity
  8
0
370
         0
  6
HIDDEN
 62
         9
100
AcDbLine
 10
205.3005778767
 20
165.4687390354
 30
0.0
 11
201.3005778767
 21
165.4687390354
 31
0.0
  0
LINE
  5
255
100
AcDbEntity
  8
0
370
         0
  6
HIDDEN
 62
         9
100
AcDbLine
 10
201.3005778767
 20
204.4694099753
 30
0.0
 11
205.3005778767
 21
204.4694099753
 31
0.0
  0
LINE
  5
256
100
AcDbEntity
  8
0
370
         0
  6
HIDDEN
 62
         9
100
AcDbLine
 10
205.3005778767
 20
208.9694099753
 30
0.0
 11
201.3005778767
 21
208.9694099753
 31
0.0
  0
LINE
  5
257
100
AcDbEntity
  8
0
370
         0
  6
HIDDEN
 62
         9
100
AcDbLine
 10
201.3005778767
 20
200.769662507
 30
0.0
 11
205.3005778767
 21
200.769662507
 31
0.0
  0
LINE
  5
258
100
AcDbEntity
  8
0
370
         0
  6
HIDDEN
 62
         9
100
AcDbLine
 10
201.3005778767
 20
182.3900750763
 30
0.0
 11
205.3005778767
 21
182.3900750763
 31
0.0
  0
LINE
  5
259
100
AcDbEntity
  8
0
370
         0
  6
HIDDEN
 62
         9
100
AcDbLine
 10
205.3005778767
 20
175.8944159417
 30
0.0
 11
201.3005778767
 21
175.8944159417
 31
0.0
  0
DIMENSION
  5
268
100
AcDbEntity
  8
0
 62
       255
100
AcDbDimension
  2
*D0
 10
193.3005778767
 20
120.1082285323
 30
0.0
 11
185.1773729835
 21
120.1082285323
 31
0.0
 70
       160
 71
         5
 72
         1
 41
1.0
 42
0.0
  3
SLDDIMSTYLE1
100
AcDbAlignedDimension
 13
197.8005778767
 23
135.767245509
 33
0.0
 14
193.3005778767
 24
129.142245509
 34
0.0
100
AcDbRotatedDimension
  0
LINE
  5
269
100
AcDbEntity
  8
0
  6
HIDDEN
 62
       255
100
AcDbLine
 10
197.1755778767
 20
135.142245509
 30
0.0
 11
205.3005778766
 21
135.142245509
 31
0.0
  0
LINE
  5
26A
100
AcDbEntity
  8
0
  6
HIDDEN
 62
       255
100
AcDbLine
 10
205.3005778766
 20
135.142245509
 30
0.0
 11
205.3005778766
 21
135.142245509
 31
0.0
  0
LINE
  5
26B
100
AcDbEntity
  8
0
  6
HIDDEN
 62
       255
100
AcDbLine
 10
197.1755778767
 20
143.142245509
 30
0.0
 11
205.3005778766
 21
143.142245509
 31
0.0
  0
LINE
  5
26C
100
AcDbEntity
  8
0
  6
HIDDEN
 62
       255
100
AcDbLine
 10
205.3005778766
 20
143.142245509
 30
0.0
 11
205.3005778766
 21
143.142245509
 31
0.0
  0
LINE
  5
26D
100
AcDbEntity
  8
0
  6
HIDDEN
 62
       255
100
AcDbLine
 10
205.3005778766
 20
135.142245509
 30
0.0
 11
205.3005778766
 21
135.142245509
 31
0.0
  0
LINE
  5
26E
100
AcDbEntity
  8
0
  6
HIDDEN
 62
       255
100
AcDbLine
 10
205.3005778766
 20
135.142245509
 30
0.0
 11
205.3005778766
 21
135.142245509
 31
0.0
  0
LINE
  5
26F
100
AcDbEntity
  8
0
  6
HIDDEN
 62
       255
100
AcDbLine
 10
197.1755778767
 20
135.142245509
 30
0.0
 11
205.3005778766
 21
135.142245509
 31
0.0
  0
LINE
  5
270
100
AcDbEntity
  8
0
  6
HIDDEN
 62
       255
100
AcDbLine
 10
205.3005778766
 20
135.142245509
 30
0.0
 11
205.3005778766
 21
135.142245509
 31
0.0
  0
LINE
  5
271
100
AcDbEntity
  8
0
  6
HIDDEN
 62
       255
100
AcDbLine
 10
197.1755778767
 20
143.142245509
 30
0.0
 11
205.3005778766
 21
143.142245509
 31
0.0
  0
LINE
  5
272
100
AcDbEntity
  8
0
  6
HIDDEN
 62
       255
100
AcDbLine
 10
205.3005778766
 20
143.142245509
 30
0.0
 11
205.3005778766
 21
143.142245509
 31
0.0
  0
LINE
  5
273
100
AcDbEntity
  8
0
  6
HIDDEN
 62
       255
100
AcDbLine
 10
205.3005778766
 20
135.142245509
 30
0.0
 11
205.3005778766
 21
135.142245509
 31
0.0
  0
LINE
  5
274
100
AcDbEntity
  8
0
  6
HIDDEN
 62
       255
100
AcDbLine
 10
205.3005778766
 20
135.142245509
 30
0.0
 11
205.3005778766
 21
135.142245509
 31
0.0
  0
LINE
  5
275
100
AcDbEntity
  8
0
  6
HIDDEN
 62
       255
100
AcDbLine
 10
197.1755778767
 20
215.142245509
 30
0.0
 11
205.3005778766
 21
215.142245509
 31
0.0
  0
LINE
  5
276
100
AcDbEntity
  8
0
  6
HIDDEN
 62
       255
100
AcDbLine
 10
205.3005778766
 20
215.142245509
 30
0.0
 11
205.3005778766
 21
215.142245509
 31
0.0
  0
LINE
  5
277
100
AcDbEntity
  8
0
  6
HIDDEN
 62
       255
100
AcDbLine
 10
197.1755778767
 20
223.142245509
 30
0.0
 11
205.3005778766
 21
223.142245509
 31
0.0
  0
LINE
  5
278
100
AcDbEntity
  8
0
  6
HIDDEN
 62
       255
100
AcDbLine
 10
205.3005778766
 20
223.142245509
 30
0.0
 11
205.3005778766
 21
223.142245509
 31
0.0
  0
LINE
  5
279
100
AcDbEntity
  8
0
  6
HIDDEN
 62
       255
100
AcDbLine
 10
205.3005778766
 20
215.142245509
 30
0.0
 11
205.3005778766
 21
215.142245509
 31
0.0
  0
LINE
  5
27A
100
AcDbEntity
  8
0
  6
HIDDEN
 62
       255
100
AcDbLine
 10
205.3005778766
 20
215.142245509
 30
0.0
 11
205.3005778766
 21
215.142245509
 31
0.0
  0
LINE
  5
27B
100
AcDbEntity
  8
0
  6
HIDDEN
 62
       255
100
AcDbLine
 10
197.1755778767
 20
215.142245509
 30
0.0
 11
205.3005778766
 21
215.142245509
 31
0.0
  0
LINE
  5
27C
100
AcDbEntity
  8
0
  6
HIDDEN
 62
       255
100
AcDbLine
 10
205.3005778766
 20
215.142245509
 30
0.0
 11
205.3005778766
 21
215.142245509
 31
0.0
  0
LINE
  5
27D
100
AcDbEntity
  8
0
  6
HIDDEN
 62
       255
100
AcDbLine
 10
197.1755778767
 20
223.142245509
 30
0.0
 11
205.3005778766
 21
223.142245509
 31
0.0
  0
LINE
  5
27E
100
AcDbEntity
  8
0
  6
HIDDEN
 62
       255
100
AcDbLine
 10
205.3005778766
 20
223.142245509
 30
0.0
 11
205.3005778766
 21
223.142245509
 31
0.0
  0
LINE
  5
27F
100
AcDbEntity
  8
0
  6
HIDDEN
 62
       255
100
AcDbLine
 10
205.3005778766
 20
215.142245509
 30
0.0
 11
205.3005778766
 21
215.142245509
 31
0.0
  0
LINE
  5
280
100
AcDbEntity
  8
0
  6
HIDDEN
 62
       255
100
AcDbLine
 10
205.3005778766
 20
215.142245509
 30
0.0
 11
205.3005778766
 21
215.142245509
 31
0.0
  0
LINE
  5
281
100
AcDbEntity
  8
0
  6
HIDDEN
 62
       255
100
AcDbLine
 10
205.3005778767
 20
156.642245509
 30
0.0
 11
193.3005778767
 21
156.642245509
 31
0.0
  0
LINE
  5
282
100
AcDbEntity
  8
0
  6
HIDDEN
 62
       255
100
AcDbLine
 10
193.3005778767
 20
156.642245509
 30
0.0
 11
193.3005778767
 21
156.642245509
 31
0.0
  0
LINE
  5
283
100
AcDbEntity
  8
0
  6
HIDDEN
 62
       255
100
AcDbLine
 10
205.3005778767
 20
151.642245509
 30
0.0
 11
193.3005778767
 21
151.642245509
 31
0.0
  0
LINE
  5
284
100
AcDbEntity
  8
0
  6
HIDDEN
 62
       255
100
AcDbLine
 10
193.3005778767
 20
151.642245509
 30
0.0
 11
193.3005778767
 21
151.642245509
 31
0.0
  0
LINE
  5
285
100
AcDbEntity
  8
0
  6
HIDDEN
 62
       255
100
AcDbLine
 10
193.3005778767
 20
156.642245509
 30
0.0
 11
193.3005778767
 21
156.642245509
 31
0.0
  0
LINE
  5
286
100
AcDbEntity
  8
0
  6
HIDDEN
 62
       255
100
AcDbLine
 10
193.3005778767
 20
156.642245509
 30
0.0
 11
193.3005778767
 21
156.642245509
 31
0.0
  0
LINE
  5
287
100
AcDbEntity
  8
0
  6
HIDDEN
 62
       255
100
AcDbLine
 10
205.3005778767
 20
156.642245509
 30
0.0
 11
193.3005778767
 21
156.642245509
 31
0.0
  0
LINE
  5
288
100
AcDbEntity
  8
0
  6
HIDDEN
 62
       255
100
AcDbLine
 10
193.3005778767
 20
156.642245509
 30
0.0
 11
193.3005778767
 21
156.642245509
 31
0.0
  0
LINE
  5
289
100
AcDbEntity
  8
0
  6
HIDDEN
 62
       255
100
AcDbLine
 10
205.3005778767
 20
151.642245509
 30
0.0
 11
193.3005778767
 21
151.642245509
 31
0.0
  0
LINE
  5
28A
100
AcDbEntity
  8
0
  6
HIDDEN
 62
       255
100
AcDbLine
 10
193.3005778767
 20
151.642245509
 30
0.0
 11
193.3005778767
 21
151.642245509
 31
0.0
  0
LINE
  5
28B
100
AcDbEntity
  8
0
  6
HIDDEN
 62
       255
100
AcDbLine
 10
193.3005778767
 20
156.642245509
 30
0.0
 11
193.3005778767
 21
156.642245509
 31
0.0
  0
LINE
  5
28C
100
AcDbEntity
  8
0
  6
HIDDEN
 62
       255
100
AcDbLine
 10
193.3005778767
 20
156.642245509
 30
0.0
 11
193.3005778767
 21
156.642245509
 31
0.0
  0
LINE
  5
28D
100
AcDbEntity
  8
0
  6
HIDDEN
 62
       255
100
AcDbLine
 10
205.3005778767
 20
223.642245509
 30
0.0
 11
193.3005778767
 21
223.642245509
 31
0.0
  0
LINE
  5
28E
100
AcDbEntity
  8
0
  6
HIDDEN
 62
       255
100
AcDbLine
 10
193.3005778767
 20
223.642245509
 30
0.0
 11
193.3005778767
 21
223.642245509
 31
0.0
  0
LINE
  5
28F
100
AcDbEntity
  8
0
  6
HIDDEN
 62
       255
100
AcDbLine
 10
205.3005778767
 20
218.642245509
 30
0.0
 11
193.3005778767
 21
218.642245509
 31
0.0
  0
LINE
  5
290
100
AcDbEntity
  8
0
  6
HIDDEN
 62
       255
100
AcDbLine
 10
193.3005778767
 20
218.642245509
 30
0.0
 11
193.3005778767
 21
218.642245509
 31
0.0
  0
LINE
  5
291
100
AcDbEntity
  8
0
  6
HIDDEN
 62
       255
100
AcDbLine
 10
193.3005778767
 20
223.642245509
 30
0.0
 11
193.3005778767
 21
223.642245509
 31
0.0
  0
LINE
  5
292
100
AcDbEntity
  8
0
  6
HIDDEN
 62
       255
100
AcDbLine
 10
193.3005778767
 20
223.642245509
 30
0.0
 11
193.3005778767
 21
223.642245509
 31
0.0
  0
LINE
  5
293
100
AcDbEntity
  8
0
370
        15
  6
Continuous
 62
         7
100
AcDbLine
 10
363.197623611
 20
129.142245509
 30
0.0
 11
263.197623611
 21
129.142245509
 31
0.0
  0
LINE
  5
294
100
AcDbEntity
  8
0
370
        15
  6
Continuous
 62
         7
100
AcDbLine
 10
363.197623611
 20
229.142245509
 30
0.0
 11
363.197623611
 21
129.142245509
 31
0.0
  0
CIRCLE
  5
295
100
AcDbEntity
  8
0
370
        15
  6
Continuous
 62
         7
100
AcDbCircle
 10
353.197623611
 20
219.142245509
 30
0.0
 40
7.875
  0
CIRCLE
  5
296
100
AcDbEntity
  8
0
370
        15
  6
Continuous
 62
         7
100
AcDbCircle
 10
353.197623611
 20
139.142245509
 30
0.0
 40
7.875
  0
CIRCLE
  5
297
100
AcDbEntity
  8
0
370
        15
  6
Continuous
 62
         7
100
AcDbCircle
 10
273.197623611
 20
139.142245509
 30
0.0
 40
7.875
  0
CIRCLE
  5
298
100
AcDbEntity
  8
0
370
        15
  6
Continuous
 62
         7
100
AcDbCircle
 10
273.197623611
 20
219.142245509
 30
0.0
 40
7.875
  0
CIRCLE
  5
299
100
AcDbEntity
  8
0
370
        15
  6
Continuous
 62
         7
100
AcDbCircle
 10
298.197623611
 20
221.142245509
 30
0.0
 40
2.1
  0
CIRCLE
  5
29A
100
AcDbEntity
  8
0
370
        15
  6
Continuous
 62
         7
100
AcDbCircle
 10
355.197623611
 20
154.142245509
 30
0.0
 40
2.1
  0
CIRCLE
  5
29B
100
AcDbEntity
  8
0
370
        15
  6
Continuous
 62
         7
100
AcDbCircle
 10
271.197623611
 20
154.142245509
 30
0.0
 40
2.1
  0
CIRCLE
  5
29C
100
AcDbEntity
  8
0
370
        15
  6
Continuous
 62
         7
100
AcDbCircle
 10
313.197623611
 20
179.142245509
 30
0.0
 40
4.25
  0
LINE
  5
29D
100
AcDbEntity
  8
0
370
        15
  6
Continuous
 62
         7
100
AcDbLine
 10
263.197623611
 20
229.142245509
 30
0.0
 11
363.197623611
 21
229.142245509
 31
0.0
  0
LINE
  5
29E
100
AcDbEntity
  8
0
370
        15
  6
Continuous
 62
         7
100
AcDbLine
 10
263.197623611
 20
129.142245509
 30
0.0
 11
263.197623611
 21
229.142245509
 31
0.0
  0
CIRCLE
  5
29F
100
AcDbEntity
  8
0
370
        15
  6
Continuous
 62
         7
100
AcDbCircle
 10
273.197623611
 20
219.142245509
 30
0.0
 40
3.375
  0
CIRCLE
  5
2A0
100
AcDbEntity
  8
0
370
        15
  6
Continuous
 62
         7
100
AcDbCircle
 10
273.197623611
 20
139.142245509
 30
0.0
 40
3.375
  0
CIRCLE
  5
2A1
100
AcDbEntity
  8
0
370
        15
  6
Continuous
 62
         7
100
AcDbCircle
 10
353.197623611
 20
139.142245509
 30
0.0
 40
3.375
  0
CIRCLE
  5
2A2
100
AcDbEntity
  8
0
370
        15
  6
Continuous
 62
         7
100
AcDbCircle
 10
353.197623611
 20
219.142245509
 30
0.0
 40
3.375
  0
ARC
  5
2A3
100
AcDbEntity
  8
0
370
         0
  6
HIDDEN
 62
         9
100
AcDbCircle
 10
272.197624071
 20
183.642245049
 30
0.0
 40
2.00000046
100
AcDbArc
 50
63.6159402483
 51
220.0051928092
  0
ARC
  5
2A4
100
AcDbEntity
  8
0
370
         0
  6
HIDDEN
 62
         9
100
AcDbCircle
 10
272.197624071
 20
174.642245969
 30
0.0
 40
2.00000046
100
AcDbArc
 50
139.9948071908
 51
296.3840597516
  0
ARC
  5
2A5
100
AcDbEntity
  8
0
370
         0
  6
HIDDEN
 62
         9
100
AcDbCircle
 10
266.8357204369
 20
179.142245509
 30
0.0
 40
5.0
100
AcDbArc
 50
319.9948071908
 51
40.0051928092
  0
ARC
  5
2A6
100
AcDbEntity
  8
0
370
         0
  6
HIDDEN
 62
         9
100
AcDbCircle
 10
268.6425352876
 20
181.8089315133
 30
0.0
 40
10.0000028319
100
AcDbArc
 50
296.3840597517
 51
321.0536690745
  0
ARC
  5
2A7
100
AcDbEntity
  8
0
370
         0
  6
HIDDEN
 62
         9
100
AcDbCircle
 10
268.6425352876
 20
176.4755595046
 30
0.0
 40
10.0000028319
100
AcDbArc
 50
38.9463309254
 51
63.6159402483
  0
ARC
  5
2A8
100
AcDbEntity
  8
0
370
         0
  6
HIDDEN
 62
         9
100
AcDbCircle
 10
277.197623611
 20
183.3900750164
 30
0.0
 40
0.9999999402
100
AcDbArc
 50
218.9463309255
 51
318.0380359367
  0
ARC
  5
2A9
100
AcDbEntity
  8
0
370
         0
  6
HIDDEN
 62
         9
100
AcDbCircle
 10
277.197623611
 20
174.8944160015
 30
0.0
 40
0.9999999402
100
AcDbArc
 50
41.9619640632
 51
141.0536690712
  0
POLYLINE
  5
2AA
100
AcDbEntity
  8
0
370
         0
  6
HIDDEN
 62
         9
100
AcDb2dPolyline
 66
         1
 10
0.0
 20
0.0
 30
0.0
 70
       128
  0
VERTEX
  5
2AB
100
AcDbEntity
  8
0
100
AcDbVertex
100
AcDb2dVertex
 10
277.9412124321
 20
182.7214379359
 30
0.0
  0
VERTEX
  5
2AC
100
AcDbEntity
  8
0
100
AcDbVertex
100
AcDb2dVertex
 10
278.6240672754
 20
183.38438539
 30
0.0
  0
VERTEX
  5
2AD
100
AcDbEntity
  8
0
100
AcDbVertex
100
AcDb2dVertex
 10
279.41662913
 20
183.9780080559
 30
0.0
  0
VERTEX
  5
2AE
100
AcDbEntity
  8
0
100
AcDbVertex
100
AcDb2dVertex
 10
280.305945999
 20
184.4926049883
 30
0.0
  0
VERTEX
  5
2AF
100
AcDbEntity
  8
0
100
AcDbVertex
100
AcDb2dVertex
 10
281.2774847209
 20
184.9197666762
 30
0.0
  0
VERTEX
  5
2B0
100
AcDbEntity
  8
0
100
AcDbVertex
100
AcDb2dVertex
 10
282.31536847
 20
185.2525124694
 30
0.0
  0
VERTEX
  5
2B1
100
AcDbEntity
  8
0
100
AcDbVertex
100
AcDb2dVertex
 10
283.4026362139
 20
185.4854046567
 30
0.0
  0
VERTEX
  5
2B2
100
AcDbEntity
  8
0
100
AcDbVertex
100
AcDb2dVertex
 10
284.5215198903
 20
185.6146373285
 30
0.0
  0
VERTEX
  5
2B3
100
AcDbEntity
  8
0
100
AcDbVertex
100
AcDb2dVertex
 10
285.6537347711
 20
185.6380985723
 30
0.0
  0
VERTEX
  5
2B4
100
AcDbEntity
  8
0
100
AcDbVertex
100
AcDb2dVertex
 10
286.7807782705
 20
185.5554049859
 30
0.0
  0
VERTEX
  5
2B5
100
AcDbEntity
  8
0
100
AcDbVertex
100
AcDb2dVertex
 10
287.8842323133
 20
185.3679079429
 30
0.0
  0
VERTEX
  5
2B6
100
AcDbEntity
  8
0
100
AcDbVertex
100
AcDb2dVertex
 10
288.9460643214
 20
185.0786715083
 30
0.0
  0
VERTEX
  5
2B7
100
AcDbEntity
  8
0
100
AcDbVertex
100
AcDb2dVertex
 10
289.9489219017
 20
184.6924223661
 30
0.0
  0
VERTEX
  5
2B8
100
AcDbEntity
  8
0
100
AcDbVertex
100
AcDb2dVertex
 10
290.8764164174
 20
184.215472576
 30
0.0
  0
VERTEX
  5
2B9
100
AcDbEntity
  8
0
100
AcDbVertex
100
AcDb2dVertex
 10
291.7133908104
 20
183.655616422
 30
0.0
  0
VERTEX
  5
2BA
100
AcDbEntity
  8
0
100
AcDbVertex
100
AcDb2dVertex
 10
292.4461672968
 20
183.0220030389
 30
0.0
  0
VERTEX
  5
2BB
100
AcDbEntity
  8
0
100
AcDbVertex
100
AcDb2dVertex
 10
293.0627708883
 20
182.3249868976
 30
0.0
  0
VERTEX
  5
2BC
100
AcDbEntity
  8
0
100
AcDbVertex
100
AcDb2dVertex
 10
293.5531250872
 20
181.5759585927
 30
0.0
  0
VERTEX
  5
2BD
100
AcDbEntity
  8
0
100
AcDbVertex
100
AcDb2dVertex
 10
293.9092165554
 20
180.7871586987
 30
0.0
  0
VERTEX
  5
2BE
100
AcDbEntity
  8
0
100
AcDbVertex
100
AcDb2dVertex
 10
294.125226068
 20
179.9714777348
 30
0.0
  0
VERTEX
  5
2BF
100
AcDbEntity
  8
0
100
AcDbVertex
100
AcDb2dVertex
 10
294.197623611
 20
179.142245509
 30
0.0
  0
VERTEX
  5
2C0
100
AcDbEntity
  8
0
100
AcDbVertex
100
AcDb2dVertex
 10
294.125226068
 20
178.3130132832
 30
0.0
  0
VERTEX
  5
2C1
100
AcDbEntity
  8
0
100
AcDbVertex
100
AcDb2dVertex
 10
293.9092165554
 20
177.4973323193
 30
0.0
  0
VERTEX
  5
2C2
100
AcDbEntity
  8
0
100
AcDbVertex
100
AcDb2dVertex
 10
293.5531250872
 20
176.7085324253
 30
0.0
  0
VERTEX
  5
2C3
100
AcDbEntity
  8
0
100
AcDbVertex
100
AcDb2dVertex
 10
293.0627708883
 20
175.9595041204
 30
0.0
  0
VERTEX
  5
2C4
100
AcDbEntity
  8
0
100
AcDbVertex
100
AcDb2dVertex
 10
292.4461672967
 20
175.262487979
 30
0.0
  0
VERTEX
  5
2C5
100
AcDbEntity
  8
0
100
AcDbVertex
100
AcDb2dVertex
 10
291.7133908104
 20
174.6288745959
 30
0.0
  0
VERTEX
  5
2C6
100
AcDbEntity
  8
0
100
AcDbVertex
100
AcDb2dVertex
 10
290.8764164174
 20
174.069018442
 30
0.0
  0
VERTEX
  5
2C7
100
AcDbEntity
  8
0
100
AcDbVertex
100
AcDb2dVertex
 10
289.9489219016
 20
173.5920686519
 30
0.0
  0
VERTEX
  5
2C8
100
AcDbEntity
  8
0
100
AcDbVertex
100
AcDb2dVertex
 10
288.9460643213
 20
173.2058195097
 30
0.0
  0
VERTEX
  5
2C9
100
AcDbEntity
  8
0
100
AcDbVertex
100
AcDb2dVertex
 10
287.8842323132
 20
172.9165830751
 30
0.0
  0
VERTEX
  5
2CA
100
AcDbEntity
  8
0
100
AcDbVertex
100
AcDb2dVertex
 10
286.7807782705
 20
172.729086032
 30
0.0
  0
VERTEX
  5
2CB
100
AcDbEntity
  8
0
100
AcDbVertex
100
AcDb2dVertex
 10
285.6537347711
 20
172.6463924457
 30
0.0
  0
VERTEX
  5
2CC
100
AcDbEntity
  8
0
100
AcDbVertex
100
AcDb2dVertex
 10
284.5215198903
 20
172.6698536895
 30
0.0
  0
VERTEX
  5
2CD
100
AcDbEntity
  8
0
100
AcDbVertex
100
AcDb2dVertex
 10
283.4026362139
 20
172.7990863612
 30
0.0
  0
VERTEX
  5
2CE
100
AcDbEntity
  8
0
100
AcDbVertex
100
AcDb2dVertex
 10
282.31536847
 20
173.0319785486
 30
0.0
  0
VERTEX
  5
2CF
100
AcDbEntity
  8
0
100
AcDbVertex
100
AcDb2dVertex
 10
281.2774847209
 20
173.3647243418
 30
0.0
  0
VERTEX
  5
2D0
100
AcDbEntity
  8
0
100
AcDbVertex
100
AcDb2dVertex
 10
280.3059459989
 20
173.7918860296
 30
0.0
  0
VERTEX
  5
2D1
100
AcDbEntity
  8
0
100
AcDbVertex
100
AcDb2dVertex
 10
279.4166291299
 20
174.3064829621
 30
0.0
  0
VERTEX
  5
2D2
100
AcDbEntity
  8
0
100
AcDbVertex
100
AcDb2dVertex
 10
278.6240672753
 20
174.9001056279
 30
0.0
  0
VERTEX
  5
2D3
100
AcDbEntity
  8
0
100
AcDbVertex
100
AcDb2dVertex
 10
277.9412124321
 20
175.5630530821
 30
0.0
  0
SEQEND
  5
2D4
100
AcDbEntity
  8
0
  0
ARC
  5
2D5
100
AcDbEntity
  8
0
370
         0
  6
HIDDEN
 62
         9
100
AcDbCircle
 10
285.6204591447
 20
206.7194099753
 30
0.0
 40
2.25
100
AcDbArc
 50
356.8103148958
 51
273.1896851042
  0
ARC
  5
2D6
100
AcDbEntity
  8
0
370
         0
  6
HIDDEN
 62
         9
100
AcDbCircle
 10
285.6204591447
 20
151.5650810427
 30
0.0
 40
1.6
100
AcDbArc
 50
162.7585406011
 51
248.6309644341
  0
LINE
  5
2D7
100
AcDbEntity
  8
0
370
         0
  6
HIDDEN
 62
         9
100
AcDbLine
 10
284.0923565258
 20
152.0393197865
 30
0.0
 11
287.9107331442
 21
164.3429777791
 31
0.0
  0
ARC
  5
2D8
100
AcDbEntity
  8
0
370
         0
  6
HIDDEN
 62
         9
100
AcDbCircle
 10
290.50306484
 20
164.0438695105
 30
0.0
 40
15.0
100
AcDbArc
 50
248.6309644341
 51
311.2501816321
  0
ARC
  5
2D9
100
AcDbEntity
  8
0
370
         0
  6
HIDDEN
 62
         9
100
AcDbCircle
 10
286.3275659259
 20
201.769662507
 30
0.0
 40
1.0
100
AcDbArc
 50
135.0
 51
315.0
  0
LINE
  5
2DA
100
AcDbEntity
  8
0
370
         0
  6
HIDDEN
 62
         9
100
AcDbLine
 10
285.6204591447
 20
202.4767692881
 30
0.0
 11
286.6811193165
 21
203.5374294599
 31
0.0
  0
LINE
  5
2DB
100
AcDbEntity
  8
0
370
         0
  6
HIDDEN
 62
         9
100
AcDbLine
 10
286.6811193165
 20
203.5374294599
 30
0.0
 11
285.7456530955
 21
204.4728956809
 31
0.0
  0
LINE
  5
2DC
100
AcDbEntity
  8
0
370
         0
  6
HIDDEN
 62
         9
100
AcDbLine
 10
288.0953328788
 20
202.1232158975
 30
0.0
 11
287.0346727071
 21
201.0625557258
 31
0.0
  0
LINE
  5
2DD
100
AcDbEntity
  8
0
370
         0
  6
HIDDEN
 62
         9
100
AcDbLine
 10
287.866973439
 20
206.5942160245
 30
0.0
 11
288.80243966
 21
205.6587498035
 31
0.0
  0
ARC
  5
2DE
100
AcDbEntity
  8
0
370
         0
  6
HIDDEN
 62
         9
100
AcDbCircle
 10
289.4388357631
 20
163.8687390354
 30
0.0
 40
1.6
100
AcDbArc
 50
45.0
 51
162.7585406011
  0
LINE
  5
2DF
100
AcDbEntity
  8
0
370
         0
  6
HIDDEN
 62
         9
100
AcDbLine
 10
295.2990809605
 20
194.9194678159
 30
0.0
 11
288.0953328788
 21
202.1232158975
 31
0.0
  0
LINE
  5
2E0
100
AcDbEntity
  8
0
370
         0
  6
HIDDEN
 62
         9
100
AcDbLine
 10
288.80243966
 20
205.6587498035
 30
0.0
 11
289.8630998318
 21
206.7194099753
 31
0.0
  0
ARC
  5
2E1
100
AcDbEntity
  8
0
370
         0
  6
HIDDEN
 62
         9
100
AcDbCircle
 10
290.3907075888
 20
191.4132704914
 30
0.0
 40
0.8
100
AcDbArc
 50
106.8670574564
 51
239.640110973
  0
ARC
  5
2E2
100
AcDbEntity
  8
0
370
         0
  6
HIDDEN
 62
         9
100
AcDbCircle
 10
290.570206613
 20
206.0123031941
 30
0.0
 40
1.0
100
AcDbArc
 50
315.0
 51
135.0
  0
ARC
  5
2E3
100
AcDbEntity
  8
0
370
         0
  6
HIDDEN
 62
         9
100
AcDbCircle
 10
294.2825172142
 20
198.0573519057
 30
0.0
 40
8.5
100
AcDbArc
 50
239.640110973
 51
30.359889027
  0
LINE
  5
2E4
100
AcDbEntity
  8
0
370
         0
  6
HIDDEN
 62
         9
100
AcDbLine
 10
291.2773133942
 20
205.3051964129
 30
0.0
 11
290.2166532224
 21
204.2445362411
 31
0.0
  0
LINE
  5
2E5
100
AcDbEntity
  8
0
370
         0
  6
HIDDEN
 62
         9
100
AcDbLine
 10
290.2166532224
 20
204.2445362411
 30
0.0
 11
297.420401304
 21
197.0407881595
 31
0.0
  0
ARC
  5
2E6
100
AcDbEntity
  8
0
370
         0
  6
HIDDEN
 62
         9
100
AcDbCircle
 10
285.8063056726
 20
206.5335634473
 30
0.0
 40
15.0
100
AcDbArc
 50
286.8670574564
 51
309.2608295227
  0
LINE
  5
2E7
100
AcDbEntity
  8
0
370
         0
  6
HIDDEN
 62
         9
100
AcDbLine
 10
290.570206613
 20
165.0001098853
 30
0.0
 11
293.3986337377
 21
162.1716827605
 31
0.0
  0
ARC
  5
2E8
100
AcDbEntity
  8
0
370
         0
  6
HIDDEN
 62
         9
100
AcDbCircle
 10
293.4693444158
 20
168.6063544693
 30
0.0
 40
1.6
100
AcDbArc
 50
90.0
 51
225.0
  0
LINE
  5
2E9
100
AcDbEntity
  8
0
370
         0
  6
HIDDEN
 62
         9
100
AcDbLine
 10
295.5199540813
 20
164.2930031041
 30
0.0
 11
292.337973566
 21
167.4749836194
 31
0.0
  0
LINE
  5
2EA
100
AcDbEntity
  8
0
370
         0
  6
HIDDEN
 62
         9
100
AcDbLine
 10
293.3986337377
 20
162.1716827605
 30
0.0
 11
295.5199540813
 21
164.2930031041
 31
0.0
  0
LINE
  5
2EB
100
AcDbEntity
  8
0
370
         0
  6
HIDDEN
 62
         9
100
AcDbLine
 10
293.4693444158
 20
170.2063544693
 30
0.0
 11
294.6007152657
 21
170.2063544693
 31
0.0
  0
ARC
  5
2EC
100
AcDbEntity
  8
0
370
         0
  6
HIDDEN
 62
         9
100
AcDbCircle
 10
294.6007152657
 20
168.6063544693
 30
0.0
 40
1.6
100
AcDbArc
 50
55.8069228749
 51
90.0
  0
LINE
  5
2ED
100
AcDbEntity
  8
0
370
         0
  6
HIDDEN
 62
         9
100
AcDbLine
 10
304.0052354555
 20
161.4645759793
 30
0.0
 11
295.5199540813
 21
169.9498573536
 31
0.0
  0
LINE
  5
2EE
100
AcDbEntity
  8
0
370
         0
  6
HIDDEN
 62
         9
100
AcDbLine
 10
295.4998887699
 20
169.9297920422
 30
0.0
 11
295.5199540813
 21
169.9498573536
 31
0.0
  0
LINE
  5
2EF
100
AcDbEntity
  8
0
370
         0
  6
HIDDEN
 62
         9
100
AcDbLine
 10
298.348381206
 20
161.4645759793
 30
0.0
 11
296.2270608625
 21
159.3432556358
 31
0.0
  0
LINE
  5
2F0
100
AcDbEntity
  8
0
370
         0
  6
HIDDEN
 62
         9
100
AcDbLine
 10
296.2270608625
 20
159.3432556358
 30
0.0
 11
300.4697015496
 21
155.1006149486
 31
0.0
  0
ARC
  5
2F1
100
AcDbEntity
  8
0
370
         0
  6
HIDDEN
 62
         9
100
AcDbCircle
 10
285.8063056726
 20
206.5335634473
 30
0.0
 40
15.0
100
AcDbArc
 50
320.7391704773
 51
343.1329425436
  0
LINE
  5
2F2
100
AcDbEntity
  8
0
370
         0
  6
HIDDEN
 62
         9
100
AcDbLine
 10
301.5303617214
 20
158.282595464
 30
0.0
 11
298.348381206
 21
161.4645759793
 31
0.0
  0
ARC
  5
2F3
100
AcDbEntity
  8
0
370
         0
  6
HIDDEN
 62
         9
100
AcDbCircle
 10
300.9265986285
 20
201.9491615311
 30
0.0
 40
0.8
100
AcDbArc
 50
30.359889027
 51
163.1329425436
  0
ARC
  5
2F4
100
AcDbEntity
  8
0
370
         0
  6
HIDDEN
 62
         9
100
AcDbCircle
 10
299.3383306997
 20
153.9692440987
 30
0.0
 40
1.6
100
AcDbArc
 50
311.2501816321
 51
45.0
  0
ARC
  5
2F5
100
AcDbEntity
  8
0
370
         0
  6
HIDDEN
 62
         9
100
AcDbCircle
 10
302.6617325713
 20
159.4139663139
 30
0.0
 40
1.6
100
AcDbArc
 50
225.0
 51
360.0
  0
ARC
  5
2F6
100
AcDbEntity
  8
0
370
         0
  6
HIDDEN
 62
         9
100
AcDbCircle
 10
302.6617325713
 20
160.5453371638
 30
0.0
 40
1.6
100
AcDbArc
 50
0.0
 51
34.1930771251
  0
LINE
  5
2F7
100
AcDbEntity
  8
0
370
         0
  6
HIDDEN
 62
         9
100
AcDbLine
 10
303.9851701442
 20
161.444510668
 30
0.0
 11
304.0052354555
 21
161.4645759793
 31
0.0
  0
LINE
  5
2F8
100
AcDbEntity
  8
0
370
         0
  6
HIDDEN
 62
         9
100
AcDbLine
 10
304.2617325713
 20
160.5453371638
 30
0.0
 11
304.2617325713
 21
159.4139663139
 31
0.0
  0
ARC
  5
2F9
100
AcDbEntity
  8
0
370
         0
  6
HIDDEN
 62
         9
100
AcDbCircle
 10
305.747623611
 20
203.9460954634
 30
0.0
 40
0.8
100
AcDbArc
 50
61.8670574564
 51
194.640110973
  0
ARC
  5
2FA
100
AcDbEntity
  8
0
370
         0
  6
HIDDEN
 62
         9
100
AcDbCircle
 10
313.197623611
 20
205.892245509
 30
0.0
 40
8.5
100
AcDbArc
 50
194.640110973
 51
345.359889027
  0
ARC
  5
2FB
100
AcDbEntity
  8
0
370
         0
  6
HIDDEN
 62
         9
100
AcDbCircle
 10
313.197623611
 20
217.8794188286
 30
0.0
 40
15.0
100
AcDbArc
 50
241.8670574564
 51
264.2608295227
  0
ARC
  5
2FC
100
AcDbEntity
  8
0
370
         0
  6
HIDDEN
 62
         9
100
AcDbCircle
 10
308.697624071
 20
138.142245969
 30
0.0
 40
2.00000046
100
AcDbArc
 50
153.6159402483
 51
310.0051928092
  0
POLYLINE
  5
2FD
100
AcDbEntity
  8
0
370
         0
  6
HIDDEN
 62
         9
100
AcDb2dPolyline
 66
         1
 10
0.0
 20
0.0
 30
0.0
 70
       128
  0
VERTEX
  5
2FE
100
AcDbEntity
  8
0
100
AcDbVertex
100
AcDb2dVertex
 10
309.618431184
 20
143.8858343301
 30
0.0
  0
VERTEX
  5
2FF
100
AcDbEntity
  8
0
100
AcDbVertex
100
AcDb2dVertex
 10
308.9554837299
 20
144.5686891734
 30
0.0
  0
VERTEX
  5
300
100
AcDbEntity
  8
0
100
AcDbVertex
100
AcDb2dVertex
 10
308.3618610641
 20
145.361251028
 30
0.0
  0
VERTEX
  5
301
100
AcDbEntity
  8
0
100
AcDbVertex
100
AcDb2dVertex
 10
307.8472641316
 20
146.250567897
 30
0.0
  0
VERTEX
  5
302
100
AcDbEntity
  8
0
100
AcDbVertex
100
AcDb2dVertex
 10
307.4201024438
 20
147.222106619
 30
0.0
  0
VERTEX
  5
303
100
AcDbEntity
  8
0
100
AcDbVertex
100
AcDb2dVertex
 10
307.0873566506
 20
148.259990368
 30
0.0
  0
VERTEX
  5
304
100
AcDbEntity
  8
0
100
AcDbVertex
100
AcDb2dVertex
 10
306.8544644632
 20
149.3472581119
 30
0.0
  0
VERTEX
  5
305
100
AcDbEntity
  8
0
100
AcDbVertex
100
AcDb2dVertex
 10
306.7252317914
 20
150.4661417883
 30
0.0
  0
VERTEX
  5
306
100
AcDbEntity
  8
0
100
AcDbVertex
100
AcDb2dVertex
 10
306.7017705476
 20
151.5983566691
 30
0.0
  0
VERTEX
  5
307
100
AcDbEntity
  8
0
100
AcDbVertex
100
AcDb2dVertex
 10
306.784464134
 20
152.7254001686
 30
0.0
  0
VERTEX
  5
308
100
AcDbEntity
  8
0
100
AcDbVertex
100
AcDb2dVertex
 10
306.9719611771
 20
153.8288542113
 30
0.0
  0
VERTEX
  5
309
100
AcDbEntity
  8
0
100
AcDbVertex
100
AcDb2dVertex
 10
307.2611976117
 20
154.8906862194
 30
0.0
  0
VERTEX
  5
30A
100
AcDbEntity
  8
0
100
AcDbVertex
100
AcDb2dVertex
 10
307.6474467538
 20
155.8935437997
 30
0.0
  0
VERTEX
  5
30B
100
AcDbEntity
  8
0
100
AcDbVertex
100
AcDb2dVertex
 10
308.1243965439
 20
156.8210383154
 30
0.0
  0
VERTEX
  5
30C
100
AcDbEntity
  8
0
100
AcDbVertex
100
AcDb2dVertex
 10
308.6842526979
 20
157.6580127084
 30
0.0
  0
VERTEX
  5
30D
100
AcDbEntity
  8
0
100
AcDbVertex
100
AcDb2dVertex
 10
309.317866081
 20
158.3907891948
 30
0.0
  0
VERTEX
  5
30E
100
AcDbEntity
  8
0
100
AcDbVertex
100
AcDb2dVertex
 10
310.0148822224
 20
159.0073927864
 30
0.0
  0
VERTEX
  5
30F
100
AcDbEntity
  8
0
100
AcDbVertex
100
AcDb2dVertex
 10
310.7639105273
 20
159.4977469853
 30
0.0
  0
VERTEX
  5
310
100
AcDbEntity
  8
0
100
AcDbVertex
100
AcDb2dVertex
 10
311.5527104213
 20
159.8538384534
 30
0.0
  0
VERTEX
  5
311
100
AcDbEntity
  8
0
100
AcDbVertex
100
AcDb2dVertex
 10
312.3683913852
 20
160.069847966
 30
0.0
  0
VERTEX
  5
312
100
AcDbEntity
  8
0
100
AcDbVertex
100
AcDb2dVertex
 10
313.197623611
 20
160.142245509
 30
0.0
  0
VERTEX
  5
313
100
AcDbEntity
  8
0
100
AcDbVertex
100
AcDb2dVertex
 10
314.0268558368
 20
160.069847966
 30
0.0
  0
VERTEX
  5
314
100
AcDbEntity
  8
0
100
AcDbVertex
100
AcDb2dVertex
 10
314.8425368007
 20
159.8538384534
 30
0.0
  0
VERTEX
  5
315
100
AcDbEntity
  8
0
100
AcDbVertex
100
AcDb2dVertex
 10
315.6313366947
 20
159.4977469853
 30
0.0
  0
VERTEX
  5
316
100
AcDbEntity
  8
0
100
AcDbVertex
100
AcDb2dVertex
 10
316.3803649995
 20
159.0073927863
 30
0.0
  0
VERTEX
  5
317
100
AcDbEntity
  8
0
100
AcDbVertex
100
AcDb2dVertex
 10
317.0773811409
 20
158.3907891948
 30
0.0
  0
VERTEX
  5
318
100
AcDbEntity
  8
0
100
AcDbVertex
100
AcDb2dVertex
 10
317.710994524
 20
157.6580127084
 30
0.0
  0
VERTEX
  5
319
100
AcDbEntity
  8
0
100
AcDbVertex
100
AcDb2dVertex
 10
318.270850678
 20
156.8210383154
 30
0.0
  0
VERTEX
  5
31A
100
AcDbEntity
  8
0
100
AcDbVertex
100
AcDb2dVertex
 10
318.7478004681
 20
155.8935437997
 30
0.0
  0
VERTEX
  5
31B
100
AcDbEntity
  8
0
100
AcDbVertex
100
AcDb2dVertex
 10
319.1340496103
 20
154.8906862194
 30
0.0
  0
VERTEX
  5
31C
100
AcDbEntity
  8
0
100
AcDbVertex
100
AcDb2dVertex
 10
319.4232860449
 20
153.8288542113
 30
0.0
  0
VERTEX
  5
31D
100
AcDbEntity
  8
0
100
AcDbVertex
100
AcDb2dVertex
 10
319.6107830879
 20
152.7254001685
 30
0.0
  0
VERTEX
  5
31E
100
AcDbEntity
  8
0
100
AcDbVertex
100
AcDb2dVertex
 10
319.6934766743
 20
151.5983566691
 30
0.0
  0
VERTEX
  5
31F
100
AcDbEntity
  8
0
100
AcDbVertex
100
AcDb2dVertex
 10
319.6700154305
 20
150.4661417883
 30
0.0
  0
VERTEX
  5
320
100
AcDbEntity
  8
0
100
AcDbVertex
100
AcDb2dVertex
 10
319.5407827587
 20
149.3472581119
 30
0.0
  0
VERTEX
  5
321
100
AcDbEntity
  8
0
100
AcDbVertex
100
AcDb2dVertex
 10
319.3078905713
 20
148.259990368
 30
0.0
  0
VERTEX
  5
322
100
AcDbEntity
  8
0
100
AcDbVertex
100
AcDb2dVertex
 10
318.9751447781
 20
147.2221066189
 30
0.0
  0
VERTEX
  5
323
100
AcDbEntity
  8
0
100
AcDbVertex
100
AcDb2dVertex
 10
318.5479830903
 20
146.250567897
 30
0.0
  0
VERTEX
  5
324
100
AcDbEntity
  8
0
100
AcDbVertex
100
AcDb2dVertex
 10
318.0333861578
 20
145.361251028
 30
0.0
  0
VERTEX
  5
325
100
AcDbEntity
  8
0
100
AcDbVertex
100
AcDb2dVertex
 10
317.439763492
 20
144.5686891734
 30
0.0
  0
VERTEX
  5
326
100
AcDbEntity
  8
0
100
AcDbVertex
100
AcDb2dVertex
 10
316.7768160379
 20
143.8858343301
 30
0.0
  0
SEQEND
  5
327
100
AcDbEntity
  8
0
  0
ARC
  5
328
100
AcDbEntity
  8
0
370
         0
  6
HIDDEN
 62
         9
100
AcDbCircle
 10
315.8643096153
 20
134.5871571856
 30
0.0
 40
10.0000028319
100
AcDbArc
 50
128.9463309254
 51
153.6159402483
  0
ARC
  5
329
100
AcDbEntity
  8
0
370
         0
  6
HIDDEN
 62
         9
100
AcDbCircle
 10
310.197623611
 20
214.142245509
 30
0.0
 40
1.0
100
AcDbArc
 50
90.0
 51
270.0
  0
ARC
  5
32A
100
AcDbEntity
  8
0
370
         0
  6
HIDDEN
 62
         9
100
AcDbCircle
 10
308.9497941035
 20
143.142245509
 30
0.0
 40
0.9999999402
100
AcDbArc
 50
308.9463309253
 51
48.0380359367
  0
LINE
  5
32B
100
AcDbEntity
  8
0
370
         0
  6
HIDDEN
 62
         9
100
AcDbLine
 10
310.197623611
 20
215.142245509
 30
0.0
 11
311.697623611
 21
215.142245509
 31
0.0
  0
ARC
  5
32C
100
AcDbEntity
  8
0
370
         0
  6
HIDDEN
 62
         9
100
AcDbCircle
 10
313.197623611
 20
132.780342335
 30
0.0
 40
5.0
100
AcDbArc
 50
49.9948071908
 51
130.0051928092
  0
LINE
  5
32D
100
AcDbEntity
  8
0
370
         0
  6
HIDDEN
 62
         9
100
AcDbLine
 10
311.697623611
 20
213.142245509
 30
0.0
 11
310.197623611
 21
213.142245509
 31
0.0
  0
ARC
  5
32E
100
AcDbEntity
  8
0
370
         0
  6
HIDDEN
 62
         9
100
AcDbCircle
 10
313.197623611
 20
218.142245509
 30
0.0
 40
2.25
100
AcDbArc
 50
311.8103148958
 51
228.1896851042
  0
LINE
  5
32F
100
AcDbEntity
  8
0
370
         0
  6
HIDDEN
 62
         9
100
AcDbLine
 10
311.697623611
 20
202.954607272
 30
0.0
 11
311.697623611
 21
213.142245509
 31
0.0
  0
LINE
  5
330
100
AcDbEntity
  8
0
370
         0
  6
HIDDEN
 62
         9
100
AcDbLine
 10
311.697623611
 20
215.142245509
 30
0.0
 11
311.697623611
 21
216.4651945259
 31
0.0
  0
LINE
  5
331
100
AcDbEntity
  8
0
370
         0
  6
HIDDEN
 62
         9
100
AcDbLine
 10
314.697623611
 20
215.142245509
 30
0.0
 11
316.197623611
 21
215.142245509
 31
0.0
  0
LINE
  5
332
100
AcDbEntity
  8
0
370
         0
  6
HIDDEN
 62
         9
100
AcDbLine
 10
316.197623611
 20
213.142245509
 30
0.0
 11
314.697623611
 21
213.142245509
 31
0.0
  0
LINE
  5
333
100
AcDbEntity
  8
0
370
         0
  6
HIDDEN
 62
         9
100
AcDbLine
 10
314.697623611
 20
216.4651945259
 30
0.0
 11
314.697623611
 21
215.142245509
 31
0.0
  0
ARC
  5
334
100
AcDbEntity
  8
0
370
         0
  6
HIDDEN
 62
         9
100
AcDbCircle
 10
313.197623611
 20
217.8794188286
 30
0.0
 40
15.0
100
AcDbArc
 50
275.7391704773
 51
298.1329425436
  0
LINE
  5
335
100
AcDbEntity
  8
0
370
         0
  6
HIDDEN
 62
         9
100
AcDbLine
 10
314.697623611
 20
213.142245509
 30
0.0
 11
314.697623611
 21
202.954607272
 31
0.0
  0
ARC
  5
336
100
AcDbEntity
  8
0
370
         0
  6
HIDDEN
 62
         9
100
AcDbCircle
 10
316.197623611
 20
214.142245509
 30
0.0
 40
1.0
100
AcDbArc
 50
270.0
 51
90.0
  0
ARC
  5
337
100
AcDbEntity
  8
0
370
         0
  6
HIDDEN
 62
         9
100
AcDbCircle
 10
317.4454531184
 20
143.142245509
 30
0.0
 40
0.9999999402
100
AcDbArc
 50
131.9619640632
 51
231.0536690767
  0
ARC
  5
338
100
AcDbEntity
  8
0
370
         0
  6
HIDDEN
 62
         9
100
AcDbCircle
 10
317.6976231509
 20
138.142245969
 30
0.0
 40
2.00000046
100
AcDbArc
 50
229.9948071908
 51
26.3840597518
  0
ARC
  5
339
100
AcDbEntity
  8
0
370
         0
  6
HIDDEN
 62
         9
100
AcDbCircle
 10
310.5309376066
 20
134.5871571856
 30
0.0
 40
10.0000028319
100
AcDbArc
 50
26.3840597517
 51
51.0536690745
  0
ARC
  5
33A
100
AcDbEntity
  8
0
370
         0
  6
HIDDEN
 62
         9
100
AcDbCircle
 10
320.647623611
 20
203.9460954634
 30
0.0
 40
0.8
100
AcDbArc
 50
345.359889027
 51
118.1329425436
  0
ARC
  5
33B
100
AcDbEntity
  8
0
370
         0
  6
HIDDEN
 62
         9
100
AcDbCircle
 10
324.5113321099
 20
162.1716827605
 30
0.0
 40
1.0
100
AcDbArc
 50
135.0
 51
303.4630409672
  0
LINE
  5
33C
100
AcDbEntity
  8
0
370
         0
  6
HIDDEN
 62
         9
100
AcDbLine
 10
336.48130465
 20
151.5102874709
 30
0.0
 11
325.0627310767
 21
161.3374410812
 31
0.0
  0
LINE
  5
33D
100
AcDbEntity
  8
0
370
         0
  6
HIDDEN
 62
         9
100
AcDbLine
 10
323.8042253288
 20
162.8787895417
 30
0.0
 11
329.4610795782
 21
168.5356437912
 31
0.0
  0
ARC
  5
33E
100
AcDbEntity
  8
0
370
         0
  6
HIDDEN
 62
         9
100
AcDbCircle
 10
324.5113321099
 20
196.1128082575
 30
0.0
 40
1.0
100
AcDbArc
 50
56.5369590328
 51
225.0
  0
LINE
  5
33F
100
AcDbEntity
  8
0
370
         0
  6
HIDDEN
 62
         9
100
AcDbLine
 10
329.4610795782
 20
189.7488472268
 30
0.0
 11
323.8042253288
 21
195.4057014763
 31
0.0
  0
LINE
  5
340
100
AcDbEntity
  8
0
370
         0
  6
HIDDEN
 62
         9
100
AcDbLine
 10
325.0627310767
 20
196.9470499367
 30
0.0
 11
336.48130465
 21
206.774203547
 31
0.0
  0
LINE
  5
341
100
AcDbEntity
  8
0
370
         0
  6
HIDDEN
 62
         9
100
AcDbLine
 10
331.0024280387
 20
167.2771380432
 30
0.0
 11
340.829581649
 21
155.8585644699
 31
0.0
  0
ARC
  5
342
100
AcDbEntity
  8
0
370
         0
  6
HIDDEN
 62
         9
100
AcDbCircle
 10
330.1681863594
 20
190.455954008
 30
0.0
 40
1.0
100
AcDbArc
 50
225.0
 51
33.4630409672
  0
ARC
  5
343
100
AcDbEntity
  8
0
370
         0
  6
HIDDEN
 62
         9
100
AcDbCircle
 10
330.1681863594
 20
167.82853701
 30
0.0
 40
1.0
100
AcDbArc
 50
326.5369590328
 51
135.0
  0
LINE
  5
344
100
AcDbEntity
  8
0
370
         0
  6
HIDDEN
 62
         9
100
AcDbLine
 10
340.829581649
 20
202.425926548
 30
0.0
 11
331.0024280387
 21
191.0073529748
 31
0.0
  0
LINE
  5
345
100
AcDbEntity
  8
0
370
         0
  6
HIDDEN
 62
         9
100
AcDbLine
 10
332.2260002464
 20
173.142245509
 30
0.0
 11
332.197623611
 21
173.142245509
 31
0.0
  0
LINE
  5
346
100
AcDbEntity
  8
0
370
         0
  6
HIDDEN
 62
         9
100
AcDbLine
 10
332.2260002464
 20
185.142245509
 30
0.0
 11
332.197623611
 21
185.142245509
 31
0.0
  0
LINE
  5
347
100
AcDbEntity
  8
0
370
         0
  6
HIDDEN
 62
         9
100
AcDbLine
 10
332.197623611
 20
185.142245509
 30
0.0
 11
332.197623611
 21
173.142245509
 31
0.0
  0
ARC
  5
348
100
AcDbEntity
  8
0
370
         0
  6
HIDDEN
 62
         9
100
AcDbCircle
 10
333.797623611
 20
173.442245509
 30
0.0
 40
1.6
100
AcDbArc
 50
190.8069228749
 51
225.0
  0
ARC
  5
349
100
AcDbEntity
  8
0
370
         0
  6
HIDDEN
 62
         9
100
AcDbCircle
 10
333.797623611
 20
184.842245509
 30
0.0
 40
1.6
100
AcDbArc
 50
135.0
 51
169.1930771251
  0
LINE
  5
34A
100
AcDbEntity
  8
0
370
         0
  6
HIDDEN
 62
         9
100
AcDbLine
 10
333.4662527611
 20
171.5108746591
 30
0.0
 11
332.6662527611
 21
172.3108746591
 31
0.0
  0
LINE
  5
34B
100
AcDbEntity
  8
0
370
         0
  6
HIDDEN
 62
         9
100
AcDbLine
 10
332.6662527611
 20
185.9736163589
 30
0.0
 11
333.4662527611
 21
186.7736163589
 31
0.0
  0
ARC
  5
34C
100
AcDbEntity
  8
0
370
         0
  6
HIDDEN
 62
         9
100
AcDbCircle
 10
337.2392541713
 20
150.8579742615
 30
0.0
 40
1.0
100
AcDbArc
 50
139.2837641521
 51
315.0
  0
ARC
  5
34D
100
AcDbEntity
  8
0
370
         0
  6
HIDDEN
 62
         9
100
AcDbCircle
 10
334.597623611
 20
185.642245509
 30
0.0
 40
1.6
100
AcDbArc
 50
0.0
 51
135.0
  0
ARC
  5
34E
100
AcDbEntity
  8
0
370
         0
  6
HIDDEN
 62
         9
100
AcDbCircle
 10
334.597623611
 20
172.642245509
 30
0.0
 40
1.6
100
AcDbArc
 50
225.0
 51
0.0
  0
LINE
  5
34F
100
AcDbEntity
  8
0
370
         0
  6
HIDDEN
 62
         9
100
AcDbLine
 10
340.4212346866
 20
148.3831005274
 30
0.0
 11
338.2999143431
 21
150.5044208709
 31
0.0
  0
LINE
  5
350
100
AcDbEntity
  8
0
370
         0
  6
HIDDEN
 62
         9
100
AcDbLine
 10
338.2999143431
 20
150.5044208709
 30
0.0
 11
337.9463609525
 21
150.1508674803
 31
0.0
  0
LINE
  5
351
100
AcDbEntity
  8
0
370
         0
  6
HIDDEN
 62
         9
100
AcDbLine
 10
336.197623611
 20
185.642245509
 30
0.0
 11
336.197623611
 21
181.142245509
 31
0.0
  0
LINE
  5
352
100
AcDbEntity
  8
0
370
         0
  6
HIDDEN
 62
         9
100
AcDbLine
 10
336.197623611
 20
177.142245509
 30
0.0
 11
336.197623611
 21
172.642245509
 31
0.0
  0
ARC
  5
353
100
AcDbEntity
  8
0
370
         0
  6
HIDDEN
 62
         9
100
AcDbCircle
 10
340.7747880772
 20
147.3224403556
 30
0.0
 40
1.0
100
AcDbArc
 50
135.0
 51
315.0
  0
ARC
  5
354
100
AcDbEntity
  8
0
370
         0
  6
HIDDEN
 62
         9
100
AcDbCircle
 10
337.2392541713
 20
207.4265167564
 30
0.0
 40
1.0
100
AcDbArc
 50
45.0
 51
220.7162358479
  0
LINE
  5
355
100
AcDbEntity
  8
0
370
         0
  6
HIDDEN
 62
         9
100
AcDbLine
 10
336.197623611
 20
181.142245509
 30
0.0
 11
339.197623611
 21
181.142245509
 31
0.0
  0
LINE
  5
356
100
AcDbEntity
  8
0
370
         0
  6
HIDDEN
 62
         9
100
AcDbLine
 10
339.197623611
 20
177.142245509
 30
0.0
 11
336.197623611
 21
177.142245509
 31
0.0
  0
LINE
  5
357
100
AcDbEntity
  8
0
370
         0
  6
HIDDEN
 62
         9
100
AcDbLine
 10
340.067681296
 20
148.0295471368
 30
0.0
 11
340.4212346866
 21
148.3831005274
 31
0.0
  0
LINE
  5
358
100
AcDbEntity
  8
0
370
         0
  6
HIDDEN
 62
         9
100
AcDbLine
 10
345.7245355455
 20
150.8579742615
 30
0.0
 11
341.4818948584
 21
146.6153335744
 31
0.0
  0
LINE
  5
359
100
AcDbEntity
  8
0
370
         0
  6
HIDDEN
 62
         9
100
AcDbLine
 10
337.9463609525
 20
208.1336235376
 30
0.0
 11
338.2999143431
 21
207.780070147
 31
0.0
  0
ARC
  5
35A
100
AcDbEntity
  8
0
370
         0
  6
HIDDEN
 62
         9
100
AcDbCircle
 10
341.4818948584
 20
155.1006149486
 30
0.0
 40
1.0
100
AcDbArc
 50
315.0
 51
130.7162358479
  0
LINE
  5
35B
100
AcDbEntity
  8
0
370
         0
  6
HIDDEN
 62
         9
100
AcDbLine
 10
338.2999143431
 20
207.780070147
 30
0.0
 11
340.4212346866
 21
209.9013904906
 31
0.0
  0
LINE
  5
35C
100
AcDbEntity
  8
0
370
         0
  6
HIDDEN
 62
         9
100
AcDbLine
 10
341.835448249
 20
154.0399547769
 30
0.0
 11
343.9567685926
 21
151.9186344333
 31
0.0
  0
LINE
  5
35D
100
AcDbEntity
  8
0
370
         0
  6
HIDDEN
 62
         9
100
AcDbLine
 10
342.1890016396
 20
154.3935081675
 30
0.0
 11
341.835448249
 21
154.0399547769
 31
0.0
  0
ARC
  5
35E
100
AcDbEntity
  8
0
370
         0
  6
HIDDEN
 62
         9
100
AcDbCircle
 10
340.797623611
 20
187.142245509
 30
0.0
 40
1.6
100
AcDbArc
 50
86.2501816321
 51
180.0
  0
LINE
  5
35F
100
AcDbEntity
  8
0
370
         0
  6
HIDDEN
 62
         9
100
AcDbLine
 10
339.197623611
 20
181.142245509
 30
0.0
 11
339.197623611
 21
187.142245509
 31
0.0
  0
LINE
  5
360
100
AcDbEntity
  8
0
370
         0
  6
HIDDEN
 62
         9
100
AcDbLine
 10
339.197623611
 20
173.142245509
 30
0.0
 11
339.197623611
 21
177.142245509
 31
0.0
  0
ARC
  5
361
100
AcDbEntity
  8
0
370
         0
  6
HIDDEN
 62
         9
100
AcDbCircle
 10
340.797623611
 20
173.142245509
 30
0.0
 40
1.6
100
AcDbArc
 50
180.0
 51
297.7585406011
  0
ARC
  5
362
100
AcDbEntity
  8
0
370
         0
  6
HIDDEN
 62
         9
100
AcDbCircle
 10
340.7747880772
 20
210.9620506624
 30
0.0
 40
1.0
100
AcDbArc
 50
45.0
 51
225.0
  0
LINE
  5
363
100
AcDbEntity
  8
0
370
         0
  6
HIDDEN
 62
         9
100
AcDbLine
 10
340.4212346866
 20
209.9013904906
 30
0.0
 11
340.067681296
 21
210.2549438812
 31
0.0
  0
ARC
  5
364
100
AcDbEntity
  8
0
370
         0
  6
HIDDEN
 62
         9
100
AcDbCircle
 10
341.4818948584
 20
203.1838760693
 30
0.0
 40
1.0
100
AcDbArc
 50
229.2837641521
 51
45.0
  0
ARC
  5
365
100
AcDbEntity
  8
0
370
         0
  6
HIDDEN
 62
         9
100
AcDbCircle
 10
339.9212640674
 20
173.7709331594
 30
0.0
 40
15.0
100
AcDbArc
 50
23.6309644341
 51
86.2501816321
  0
LINE
  5
366
100
AcDbEntity
  8
0
370
         0
  6
HIDDEN
 62
         9
100
AcDbLine
 10
343.9567685926
 20
151.9186344333
 30
0.0
 11
344.3103219832
 21
152.2721878239
 31
0.0
  0
ARC
  5
367
100
AcDbEntity
  8
0
370
         0
  6
HIDDEN
 62
         9
100
AcDbCircle
 10
345.0174287643
 20
151.5650810427
 30
0.0
 40
1.0
100
AcDbArc
 50
315.0
 51
135.0
  0
LINE
  5
368
100
AcDbEntity
  8
0
370
         0
  6
HIDDEN
 62
         9
100
AcDbLine
 10
341.4818948584
 20
211.6691574436
 30
0.0
 11
345.7245355455
 21
207.4265167564
 31
0.0
  0
LINE
  5
369
100
AcDbEntity
  8
0
370
         0
  6
HIDDEN
 62
         9
100
AcDbLine
 10
352.9428179035
 20
177.7263763532
 30
0.0
 11
341.5428179035
 21
171.7263763532
 31
0.0
  0
LINE
  5
36A
100
AcDbEntity
  8
0
370
         0
  6
HIDDEN
 62
         9
100
AcDbLine
 10
341.835448249
 20
204.2445362411
 30
0.0
 11
342.1890016396
 21
203.8909828505
 31
0.0
  0
LINE
  5
36B
100
AcDbEntity
  8
0
370
         0
  6
HIDDEN
 62
         9
100
AcDbLine
 10
343.9567685926
 20
206.3658565847
 30
0.0
 11
341.835448249
 21
204.2445362411
 31
0.0
  0
LINE
  5
36C
100
AcDbEntity
  8
0
370
         0
  6
HIDDEN
 62
         9
100
AcDbLine
 10
344.3103219832
 20
206.0123031941
 30
0.0
 11
343.9567685926
 21
206.3658565847
 31
0.0
  0
ARC
  5
36D
100
AcDbEntity
  8
0
370
         0
  6
HIDDEN
 62
         9
100
AcDbCircle
 10
345.0174287643
 20
206.7194099753
 30
0.0
 40
1.0
100
AcDbArc
 50
225.0
 51
45.0
  0
ARC
  5
36E
100
AcDbEntity
  8
0
370
         0
  6
HIDDEN
 62
         9
100
AcDbCircle
 10
352.197623611
 20
179.142245509
 30
0.0
 40
1.6
100
AcDbArc
 50
297.7585406011
 51
23.6309644341
  0
LINE
  5
36F
100
AcDbEntity
  8
0
370
         0
  6
HIDDEN
 62
         9
100
AcDbLine
 10
300.8586609317
 20
177.142245509
 30
0.0
 11
293.7677724413
 21
177.142245509
 31
0.0
  0
POLYLINE
  5
370
100
AcDbEntity
  8
0
370
         0
  6
HIDDEN
 62
         9
100
AcDb2dPolyline
 66
         1
 10
0.0
 20
0.0
 30
0.0
 70
       128
  0
VERTEX
  5
371
100
AcDbEntity
  8
0
100
AcDbVertex
100
AcDb2dVertex
 10
315.197623611
 20
159.7123943393
 30
0.0
  0
VERTEX
  5
372
100
AcDbEntity
  8
0
100
AcDbVertex
100
AcDb2dVertex
 10
314.2099773412
 20
160.0341230083
 30
0.0
  0
VERTEX
  5
373
100
AcDbEntity
  8
0
100
AcDbVertex
100
AcDb2dVertex
 10
313.197623611
 20
160.142245509
 30
0.0
  0
VERTEX
  5
374
100
AcDbEntity
  8
0
100
AcDbVertex
100
AcDb2dVertex
 10
312.1852698807
 20
160.0341230083
 30
0.0
  0
VERTEX
  5
375
100
AcDbEntity
  8
0
100
AcDbVertex
100
AcDb2dVertex
 10
311.197623611
 20
159.7123943393
 30
0.0
  0
SEQEND
  5
376
100
AcDbEntity
  8
0
  0
POLYLINE
  5
377
100
AcDbEntity
  8
0
370
         0
  6
HIDDEN
 62
         9
100
AcDb2dPolyline
 66
         1
 10
0.0
 20
0.0
 30
0.0
 70
       128
  0
VERTEX
  5
378
100
AcDbEntity
  8
0
100
AcDbVertex
100
AcDb2dVertex
 10
293.7677724413
 20
177.142245509
 30
0.0
  0
VERTEX
  5
379
100
AcDbEntity
  8
0
100
AcDbVertex
100
AcDb2dVertex
 10
294.0895011103
 20
178.1298917788
 30
0.0
  0
VERTEX
  5
37A
100
AcDbEntity
  8
0
100
AcDbVertex
100
AcDb2dVertex
 10
294.197623611
 20
179.142245509
 30
0.0
  0
VERTEX
  5
37B
100
AcDbEntity
  8
0
100
AcDbVertex
100
AcDb2dVertex
 10
294.0895011103
 20
180.1545992392
 30
0.0
  0
VERTEX
  5
37C
100
AcDbEntity
  8
0
100
AcDbVertex
100
AcDb2dVertex
 10
293.7677724413
 20
181.142245509
 30
0.0
  0
SEQEND
  5
37D
100
AcDbEntity
  8
0
  0
LINE
  5
37E
100
AcDbEntity
  8
0
370
         0
  6
HIDDEN
 62
         9
100
AcDbLine
 10
293.7677724413
 20
181.142245509
 30
0.0
 11
300.8586609317
 21
181.142245509
 31
0.0
  0
LINE
  5
37F
100
AcDbEntity
  8
0
370
         0
  6
HIDDEN
 62
         9
100
AcDbLine
 10
298.348381206
 20
167.1214302288
 30
0.0
 11
303.0584458653
 21
171.831494888
 31
0.0
  0
LINE
  5
380
100
AcDbEntity
  8
0
370
         0
  6
HIDDEN
 62
         9
100
AcDbLine
 10
303.0584458653
 20
186.4529961299
 30
0.0
 11
298.7099643746
 21
190.8014776206
 31
0.0
  0
ARC
  5
381
100
AcDbEntity
  8
0
370
         0
  6
HIDDEN
 62
         9
100
AcDbCircle
 10
313.197623611
 20
179.142245509
 30
0.0
 40
12.5
100
AcDbArc
 50
144.2068962213
 51
170.7931037787
  0
ARC
  5
382
100
AcDbEntity
  8
0
370
         0
  6
HIDDEN
 62
         9
100
AcDbCircle
 10
313.197623611
 20
179.142245509
 30
0.0
 40
12.5
100
AcDbArc
 50
189.2068962213
 51
215.7931037787
  0
LINE
  5
383
100
AcDbEntity
  8
0
370
         0
  6
HIDDEN
 62
         9
100
AcDbLine
 10
305.88687299
 20
169.0030677633
 30
0.0
 11
301.1768083308
 21
164.2930031041
 31
0.0
  0
LINE
  5
384
100
AcDbEntity
  8
0
370
         0
  6
HIDDEN
 62
         9
100
AcDbLine
 10
301.5383914994
 20
193.6299047453
 30
0.0
 11
305.88687299
 21
189.2814232547
 31
0.0
  0
ARC
  5
385
100
AcDbEntity
  8
0
370
         0
  6
HIDDEN
 62
         9
100
AcDbCircle
 10
313.197623611
 20
179.142245509
 30
0.0
 40
12.5
100
AcDbArc
 50
234.2068962213
 51
260.7931037787
  0
ARC
  5
386
100
AcDbEntity
  8
0
370
         0
  6
HIDDEN
 62
         9
100
AcDbCircle
 10
313.197623611
 20
179.142245509
 30
0.0
 40
12.5
100
AcDbArc
 50
99.2068962213
 51
125.7931037787
  0
LINE
  5
387
100
AcDbEntity
  8
0
370
         0
  6
HIDDEN
 62
         9
100
AcDbLine
 10
311.197623611
 20
159.7123943393
 30
0.0
 11
311.197623611
 21
166.8032828297
 31
0.0
  0
LINE
  5
388
100
AcDbEntity
  8
0
370
         0
  6
HIDDEN
 62
         9
100
AcDbLine
 10
311.197623611
 20
191.4812081882
 30
0.0
 11
311.197623611
 21
197.6308896881
 31
0.0
  0
ARC
  5
389
100
AcDbEntity
  8
0
370
         0
  6
HIDDEN
 62
         9
100
AcDbCircle
 10
313.197623611
 20
179.142245509
 30
0.0
 40
12.5
100
AcDbArc
 50
54.2068962213
 51
80.7931037787
  0
ARC
  5
38A
100
AcDbEntity
  8
0
370
         0
  6
HIDDEN
 62
         9
100
AcDbCircle
 10
313.197623611
 20
179.142245509
 30
0.0
 40
12.5
100
AcDbArc
 50
279.2068962213
 51
305.7931037787
  0
LINE
  5
38B
100
AcDbEntity
  8
0
370
         0
  6
HIDDEN
 62
         9
100
AcDbLine
 10
315.197623611
 20
166.8032828297
 30
0.0
 11
315.197623611
 21
159.7123943393
 31
0.0
  0
LINE
  5
38C
100
AcDbEntity
  8
0
370
         0
  6
HIDDEN
 62
         9
100
AcDbLine
 10
315.197623611
 20
197.6308896881
 30
0.0
 11
315.197623611
 21
191.4812081882
 31
0.0
  0
LINE
  5
38D
100
AcDbEntity
  8
0
370
         0
  6
HIDDEN
 62
         9
100
AcDbLine
 10
325.2184388911
 20
164.2930031041
 30
0.0
 11
320.5083742319
 21
169.0030677633
 31
0.0
  0
LINE
  5
38E
100
AcDbEntity
  8
0
370
         0
  6
HIDDEN
 62
         9
100
AcDbLine
 10
320.5083742319
 20
189.2814232547
 30
0.0
 11
325.2184388911
 21
193.9914879139
 31
0.0
  0
LINE
  5
38F
100
AcDbEntity
  8
0
370
         0
  6
HIDDEN
 62
         9
100
AcDbLine
 10
323.3368013566
 20
171.831494888
 30
0.0
 11
328.0468660159
 21
167.1214302288
 31
0.0
  0
ARC
  5
390
100
AcDbEntity
  8
0
370
         0
  6
HIDDEN
 62
         9
100
AcDbCircle
 10
313.197623611
 20
179.142245509
 30
0.0
 40
12.5
100
AcDbArc
 50
9.2068962213
 51
35.7931037787
  0
LINE
  5
391
100
AcDbEntity
  8
0
370
         0
  6
HIDDEN
 62
         9
100
AcDbLine
 10
328.0468660159
 20
191.1630607892
 30
0.0
 11
323.3368013566
 21
186.4529961299
 31
0.0
  0
ARC
  5
392
100
AcDbEntity
  8
0
370
         0
  6
HIDDEN
 62
         9
100
AcDbCircle
 10
313.197623611
 20
179.142245509
 30
0.0
 40
12.5
100
AcDbArc
 50
324.2068962213
 51
350.7931037787
  0
LINE
  5
393
100
AcDbEntity
  8
0
370
         0
  6
HIDDEN
 62
         9
100
AcDbLine
 10
332.197623611
 20
177.142245509
 30
0.0
 11
325.5365862902
 21
177.142245509
 31
0.0
  0
LINE
  5
394
100
AcDbEntity
  8
0
370
         0
  6
HIDDEN
 62
         9
100
AcDbLine
 10
325.5365862902
 20
181.142245509
 30
0.0
 11
332.197623611
 21
181.142245509
 31
0.0
  0
LINE
  5
395
100
AcDbEntity
  8
0
370
         0
  6
HIDDEN
 62
         9
100
AcDbLine
 10
343.8860579144
 20
145.6253840807
 30
0.0
 11
342.1890016396
 21
147.3224403556
 31
0.0
  0
LINE
  5
396
100
AcDbEntity
  8
0
370
         0
  6
HIDDEN
 62
         9
100
AcDbLine
 10
345.0174287643
 20
150.1508674803
 30
0.0
 11
346.7144850392
 21
148.4538112055
 31
0.0
  0
ARC
  5
397
100
AcDbEntity
  8
0
370
         0
  6
HIDDEN
 62
         9
100
AcDbCircle
 10
345.0174287643
 20
146.7567549306
 30
0.0
 40
1.6
100
AcDbArc
 50
225.0
 51
315.0
  0
ARC
  5
398
100
AcDbEntity
  8
0
370
         0
  6
HIDDEN
 62
         9
100
AcDbCircle
 10
345.5831141893
 20
147.3224403556
 30
0.0
 40
1.6
100
AcDbArc
 50
315.0
 51
45.0
  0
LINE
  5
399
100
AcDbEntity
  8
0
370
         0
  6
HIDDEN
 62
         9
100
AcDbLine
 10
346.7144850392
 20
146.1910695057
 30
0.0
 11
346.1487996142
 21
145.6253840807
 31
0.0
  0
LINE
  5
39A
100
AcDbEntity
  8
0
370
         0
  6
HIDDEN
 62
         9
100
AcDbLine
 10
342.1890016396
 20
210.9620506624
 30
0.0
 11
343.8860579144
 21
212.6591069372
 31
0.0
  0
LINE
  5
39B
100
AcDbEntity
  8
0
370
         0
  6
HIDDEN
 62
         9
100
AcDbLine
 10
346.7144850392
 20
209.8306798125
 30
0.0
 11
345.0174287643
 21
208.1336235376
 31
0.0
  0
ARC
  5
39C
100
AcDbEntity
  8
0
370
         0
  6
HIDDEN
 62
         9
100
AcDbCircle
 10
345.0174287643
 20
211.5277360873
 30
0.0
 40
1.6
100
AcDbArc
 50
45.0
 51
135.0
  0
LINE
  5
39D
100
AcDbEntity
  8
0
370
         0
  6
HIDDEN
 62
         9
100
AcDbLine
 10
346.1487996142
 20
212.6591069372
 30
0.0
 11
346.7144850392
 21
212.0934215123
 31
0.0
  0
ARC
  5
39E
100
AcDbEntity
  8
0
370
         0
  6
HIDDEN
 62
         9
100
AcDbCircle
 10
345.5831141893
 20
210.9620506624
 30
0.0
 40
1.6
100
AcDbArc
 50
315.0
 51
45.0
  0
POLYLINE
  5
39F
100
AcDbEntity
  8
0
370
         0
  6
HIDDEN
 62
         9
100
AcDb2dPolyline
 66
         1
 10
0.0
 20
0.0
 30
0.0
 70
       128
  0
VERTEX
  5
3A0
100
AcDbEntity
  8
0
100
AcDbVertex
100
AcDb2dVertex
 10
311.197623611
 20
159.7123943393
 30
0.0
  0
VERTEX
  5
3A1
100
AcDbEntity
  8
0
100
AcDbVertex
100
AcDb2dVertex
 10
310.4004330769
 20
159.2798538265
 30
0.0
  0
VERTEX
  5
3A2
100
AcDbEntity
  8
0
100
AcDbVertex
100
AcDb2dVertex
 10
309.6519832554
 20
158.707950062
 30
0.0
  0
VERTEX
  5
3A3
100
AcDbEntity
  8
0
100
AcDbVertex
100
AcDb2dVertex
 10
308.9653157955
 20
158.0066484008
 30
0.0
  0
VERTEX
  5
3A4
100
AcDbEntity
  8
0
100
AcDbVertex
100
AcDb2dVertex
 10
308.3523957963
 20
157.1881689411
 30
0.0
  0
VERTEX
  5
3A5
100
AcDbEntity
  8
0
100
AcDbVertex
100
AcDb2dVertex
 10
307.8239033156
 20
156.2667735902
 30
0.0
  0
VERTEX
  5
3A6
100
AcDbEntity
  8
0
100
AcDbVertex
100
AcDb2dVertex
 10
307.3890472724
 20
155.2585175524
 30
0.0
  0
VERTEX
  5
3A7
100
AcDbEntity
  8
0
100
AcDbVertex
100
AcDb2dVertex
 10
307.0554049813
 20
154.1809695694
 30
0.0
  0
VERTEX
  5
3A8
100
AcDbEntity
  8
0
100
AcDbVertex
100
AcDb2dVertex
 10
306.8287901196
 20
153.0529057867
 30
0.0
  0
VERTEX
  5
3A9
100
AcDbEntity
  8
0
100
AcDbVertex
100
AcDb2dVertex
 10
306.7131514244
 20
151.8939825816
 30
0.0
  0
VERTEX
  5
3AA
100
AcDbEntity
  8
0
100
AcDbVertex
100
AcDb2dVertex
 10
306.7105038862
 20
150.7243940532
 30
0.0
  0
VERTEX
  5
3AB
100
AcDbEntity
  8
0
100
AcDbVertex
100
AcDb2dVertex
 10
306.820893638
 20
149.5645201426
 30
0.0
  0
VERTEX
  5
3AC
100
AcDbEntity
  8
0
100
AcDbVertex
100
AcDb2dVertex
 10
307.0423971515
 20
148.4345715147
 30
0.0
  0
VERTEX
  5
3AD
100
AcDbEntity
  8
0
100
AcDbVertex
100
AcDb2dVertex
 10
307.3711547544
 20
147.3542373901
 30
0.0
  0
VERTEX
  5
3AE
100
AcDbEntity
  8
0
100
AcDbVertex
100
AcDb2dVertex
 10
307.8014378844
 20
146.3423424625
 30
0.0
  0
VERTEX
  5
3AF
100
AcDbEntity
  8
0
100
AcDbVertex
100
AcDb2dVertex
 10
308.3257489093
 20
145.4165188806
 30
0.0
  0
VERTEX
  5
3B0
100
AcDbEntity
  8
0
100
AcDbVertex
100
AcDb2dVertex
 10
308.9349517716
 20
144.5928990104
 30
0.0
  0
VERTEX
  5
3B1
100
AcDbEntity
  8
0
100
AcDbVertex
100
AcDb2dVertex
 10
309.618431184
 20
143.8858343301
 30
0.0
  0
SEQEND
  5
3B2
100
AcDbEntity
  8
0
  0
POLYLINE
  5
3B3
100
AcDbEntity
  8
0
370
         0
  6
HIDDEN
 62
         9
100
AcDb2dPolyline
 66
         1
 10
0.0
 20
0.0
 30
0.0
 70
       128
  0
VERTEX
  5
3B4
100
AcDbEntity
  8
0
100
AcDbVertex
100
AcDb2dVertex
 10
316.7768160379
 20
143.8858343301
 30
0.0
  0
VERTEX
  5
3B5
100
AcDbEntity
  8
0
100
AcDbVertex
100
AcDb2dVertex
 10
317.4602954503
 20
144.5928990104
 30
0.0
  0
VERTEX
  5
3B6
100
AcDbEntity
  8
0
100
AcDbVertex
100
AcDb2dVertex
 10
318.0694983126
 20
145.4165188806
 30
0.0
  0
VERTEX
  5
3B7
100
AcDbEntity
  8
0
100
AcDbVertex
100
AcDb2dVertex
 10
318.5938093375
 20
146.3423424624
 30
0.0
  0
VERTEX
  5
3B8
100
AcDbEntity
  8
0
100
AcDbVertex
100
AcDb2dVertex
 10
319.0240924675
 20
147.3542373901
 30
0.0
  0
VERTEX
  5
3B9
100
AcDbEntity
  8
0
100
AcDbVertex
100
AcDb2dVertex
 10
319.3528500704
 20
148.4345715147
 30
0.0
  0
VERTEX
  5
3BA
100
AcDbEntity
  8
0
100
AcDbVertex
100
AcDb2dVertex
 10
319.5743535839
 20
149.5645201426
 30
0.0
  0
VERTEX
  5
3BB
100
AcDbEntity
  8
0
100
AcDbVertex
100
AcDb2dVertex
 10
319.6847433357
 20
150.7243940532
 30
0.0
  0
VERTEX
  5
3BC
100
AcDbEntity
  8
0
100
AcDbVertex
100
AcDb2dVertex
 10
319.6820957975
 20
151.8939825816
 30
0.0
  0
VERTEX
  5
3BD
100
AcDbEntity
  8
0
100
AcDbVertex
100
AcDb2dVertex
 10
319.5664571023
 20
153.0529057867
 30
0.0
  0
VERTEX
  5
3BE
100
AcDbEntity
  8
0
100
AcDbVertex
100
AcDb2dVertex
 10
319.3398422406
 20
154.1809695694
 30
0.0
  0
VERTEX
  5
3BF
100
AcDbEntity
  8
0
100
AcDbVertex
100
AcDb2dVertex
 10
319.0061999495
 20
155.2585175524
 30
0.0
  0
VERTEX
  5
3C0
100
AcDbEntity
  8
0
100
AcDbVertex
100
AcDb2dVertex
 10
318.5713439063
 20
156.2667735902
 30
0.0
  0
VERTEX
  5
3C1
100
AcDbEntity
  8
0
100
AcDbVertex
100
AcDb2dVertex
 10
318.0428514257
 20
157.1881689411
 30
0.0
  0
VERTEX
  5
3C2
100
AcDbEntity
  8
0
100
AcDbVertex
100
AcDb2dVertex
 10
317.4299314264
 20
158.0066484008
 30
0.0
  0
VERTEX
  5
3C3
100
AcDbEntity
  8
0
100
AcDbVertex
100
AcDb2dVertex
 10
316.7432639665
 20
158.707950062
 30
0.0
  0
VERTEX
  5
3C4
100
AcDbEntity
  8
0
100
AcDbVertex
100
AcDb2dVertex
 10
315.994814145
 20
159.2798538265
 30
0.0
  0
VERTEX
  5
3C5
100
AcDbEntity
  8
0
100
AcDbVertex
100
AcDb2dVertex
 10
315.197623611
 20
159.7123943393
 30
0.0
  0
SEQEND
  5
3C6
100
AcDbEntity
  8
0
  0
POLYLINE
  5
3C7
100
AcDbEntity
  8
0
370
         0
  6
HIDDEN
 62
         9
100
AcDb2dPolyline
 66
         1
 10
0.0
 20
0.0
 30
0.0
 70
       128
  0
VERTEX
  5
3C8
100
AcDbEntity
  8
0
100
AcDbVertex
100
AcDb2dVertex
 10
293.7677724413
 20
181.142245509
 30
0.0
  0
VERTEX
  5
3C9
100
AcDbEntity
  8
0
100
AcDbVertex
100
AcDb2dVertex
 10
293.3352319285
 20
181.939436043
 30
0.0
  0
VERTEX
  5
3CA
100
AcDbEntity
  8
0
100
AcDbVertex
100
AcDb2dVertex
 10
292.763328164
 20
182.6878858646
 30
0.0
  0
VERTEX
  5
3CB
100
AcDbEntity
  8
0
100
AcDbVertex
100
AcDb2dVertex
 10
292.0620265028
 20
183.3745533244
 30
0.0
  0
VERTEX
  5
3CC
100
AcDbEntity
  8
0
100
AcDbVertex
100
AcDb2dVertex
 10
291.2435470431
 20
183.9874733237
 30
0.0
  0
VERTEX
  5
3CD
100
AcDbEntity
  8
0
100
AcDbVertex
100
AcDb2dVertex
 10
290.3221516921
 20
184.5159658043
 30
0.0
  0
VERTEX
  5
3CE
100
AcDbEntity
  8
0
100
AcDbVertex
100
AcDb2dVertex
 10
289.3138956544
 20
184.9508218476
 30
0.0
  0
VERTEX
  5
3CF
100
AcDbEntity
  8
0
100
AcDbVertex
100
AcDb2dVertex
 10
288.2363476714
 20
185.2844641387
 30
0.0
  0
VERTEX
  5
3D0
100
AcDbEntity
  8
0
100
AcDbVertex
100
AcDb2dVertex
 10
287.1082838887
 20
185.5110790003
 30
0.0
  0
VERTEX
  5
3D1
100
AcDbEntity
  8
0
100
AcDbVertex
100
AcDb2dVertex
 10
285.9493606836
 20
185.6267176955
 30
0.0
  0
VERTEX
  5
3D2
100
AcDbEntity
  8
0
100
AcDbVertex
100
AcDb2dVertex
 10
284.7797721552
 20
185.6293652337
 30
0.0
  0
VERTEX
  5
3D3
100
AcDbEntity
  8
0
100
AcDbVertex
100
AcDb2dVertex
 10
283.6198982446
 20
185.5189754819
 30
0.0
  0
VERTEX
  5
3D4
100
AcDbEntity
  8
0
100
AcDbVertex
100
AcDb2dVertex
 10
282.4899496167
 20
185.2974719684
 30
0.0
  0
VERTEX
  5
3D5
100
AcDbEntity
  8
0
100
AcDbVertex
100
AcDb2dVertex
 10
281.4096154921
 20
184.9687143655
 30
0.0
  0
VERTEX
  5
3D6
100
AcDbEntity
  8
0
100
AcDbVertex
100
AcDb2dVertex
 10
280.3977205644
 20
184.5384312355
 30
0.0
  0
VERTEX
  5
3D7
100
AcDbEntity
  8
0
100
AcDbVertex
100
AcDb2dVertex
 10
279.4718969826
 20
184.0141202107
 30
0.0
  0
VERTEX
  5
3D8
100
AcDbEntity
  8
0
100
AcDbVertex
100
AcDb2dVertex
 10
278.6482771124
 20
183.4049173483
 30
0.0
  0
VERTEX
  5
3D9
100
AcDbEntity
  8
0
100
AcDbVertex
100
AcDb2dVertex
 10
277.9412124321
 20
182.7214379359
 30
0.0
  0
SEQEND
  5
3DA
100
AcDbEntity
  8
0
  0
POLYLINE
  5
3DB
100
AcDbEntity
  8
0
370
         0
  6
HIDDEN
 62
         9
100
AcDb2dPolyline
 66
         1
 10
0.0
 20
0.0
 30
0.0
 70
       128
  0
VERTEX
  5
3DC
100
AcDbEntity
  8
0
100
AcDbVertex
100
AcDb2dVertex
 10
277.9412124321
 20
175.5630530821
 30
0.0
  0
VERTEX
  5
3DD
100
AcDbEntity
  8
0
100
AcDbVertex
100
AcDb2dVertex
 10
278.6482771123
 20
174.8795736697
 30
0.0
  0
VERTEX
  5
3DE
100
AcDbEntity
  8
0
100
AcDbVertex
100
AcDb2dVertex
 10
279.4718969826
 20
174.2703708073
 30
0.0
  0
VERTEX
  5
3DF
100
AcDbEntity
  8
0
100
AcDbVertex
100
AcDb2dVertex
 10
280.3977205644
 20
173.7460597825
 30
0.0
  0
VERTEX
  5
3E0
100
AcDbEntity
  8
0
100
AcDbVertex
100
AcDb2dVertex
 10
281.4096154921
 20
173.3157766524
 30
0.0
  0
VERTEX
  5
3E1
100
AcDbEntity
  8
0
100
AcDbVertex
100
AcDb2dVertex
 10
282.4899496167
 20
172.9870190496
 30
0.0
  0
VERTEX
  5
3E2
100
AcDbEntity
  8
0
100
AcDbVertex
100
AcDb2dVertex
 10
283.6198982446
 20
172.765515536
 30
0.0
  0
VERTEX
  5
3E3
100
AcDbEntity
  8
0
100
AcDbVertex
100
AcDb2dVertex
 10
284.7797721552
 20
172.6551257842
 30
0.0
  0
VERTEX
  5
3E4
100
AcDbEntity
  8
0
100
AcDbVertex
100
AcDb2dVertex
 10
285.9493606836
 20
172.6577733224
 30
0.0
  0
VERTEX
  5
3E5
100
AcDbEntity
  8
0
100
AcDbVertex
100
AcDb2dVertex
 10
287.1082838887
 20
172.7734120176
 30
0.0
  0
VERTEX
  5
3E6
100
AcDbEntity
  8
0
100
AcDbVertex
100
AcDb2dVertex
 10
288.2363476714
 20
173.0000268793
 30
0.0
  0
VERTEX
  5
3E7
100
AcDbEntity
  8
0
100
AcDbVertex
100
AcDb2dVertex
 10
289.3138956544
 20
173.3336691704
 30
0.0
  0
VERTEX
  5
3E8
100
AcDbEntity
  8
0
100
AcDbVertex
100
AcDb2dVertex
 10
290.3221516921
 20
173.7685252137
 30
0.0
  0
VERTEX
  5
3E9
100
AcDbEntity
  8
0
100
AcDbVertex
100
AcDb2dVertex
 10
291.2435470431
 20
174.2970176943
 30
0.0
  0
VERTEX
  5
3EA
100
AcDbEntity
  8
0
100
AcDbVertex
100
AcDb2dVertex
 10
292.0620265028
 20
174.9099376936
 30
0.0
  0
VERTEX
  5
3EB
100
AcDbEntity
  8
0
100
AcDbVertex
100
AcDb2dVertex
 10
292.763328164
 20
175.5966051534
 30
0.0
  0
VERTEX
  5
3EC
100
AcDbEntity
  8
0
100
AcDbVertex
100
AcDb2dVertex
 10
293.3352319285
 20
176.3450549749
 30
0.0
  0
VERTEX
  5
3ED
100
AcDbEntity
  8
0
100
AcDbVertex
100
AcDb2dVertex
 10
293.7677724413
 20
177.142245509
 30
0.0
  0
SEQEND
  5
3EE
100
AcDbEntity
  8
0
  0
DIMENSION
  5
3FC
100
AcDbEntity
  8
0
100
AcDbDimension
  2
*D1
 10
263.197623611
 20
129.142245509
 30
0.0
 11
263.197623611
 21
108.0985587446
 31
0.0
 70
       230
 71
         5
 72
         1
 41
1.0
 42
0.0
  3
SLDDIMSTYLE2
100
AcDbOrdinateDimension
 13
263.197623611
 23
129.142245509
 33
0.0
 14
263.197623611
 24
108.0985587446
 34
0.0
  0
DIMENSION
  5
407
100
AcDbEntity
  8
0
100
AcDbDimension
  2
*D3
 10
263.197623611
 20
129.142245509
 30
0.0
 11
269.1991385844
 21
108.0985587446
 31
0.0
 70
       230
 71
         5
 72
         1
 41
1.0
 42
0.0
  3
SLDDIMSTYLE3
100
AcDbOrdinateDimension
 13
271.197623611
 23
154.142245509
 33
0.0
 14
269.1991385844
 24
108.0985587446
 34
0.0
  0
DIMENSION
  5
411
100
AcDbEntity
  8
0
100
AcDbDimension
  2
*D4
 10
263.197623611
 20
129.142245509
 30
0.0
 11
275.2006535578
 21
108.0985587446
 31
0.0
 70
       230
 71
         5
 72
         1
 41
1.0
 42
0.0
  3
SLDDIMSTYLE3
100
AcDbOrdinateDimension
 13
273.197623611
 23
219.142245509
 33
0.0
 14
275.2006535578
 24
108.0985587446
 34
0.0
  0
DIMENSION
  5
419
100
AcDbEntity
  8
0
100
AcDbDimension
  2
*D5
 10
263.197623611
 20
129.142245509
 30
0.0
 11
298.197623611
 21
108.0985587446
 31
0.0
 70
       230
 71
         5
 72
         1
 41
1.0
 42
0.0
  3
SLDDIMSTYLE3
100
AcDbOrdinateDimension
 13
298.197623611
 23
221.142245509
 33
0.0
 14
298.197623611
 24
108.0985587446
 34
0.0
  0
DIMENSION
  5
421
100
AcDbEntity
  8
0
100
AcDbDimension
  2
*D6
 10
263.197623611
 20
129.142245509
 30
0.0
 11
313.197623611
 21
108.0985587446
 31
0.0
 70
       230
 71
         5
 72
         1
 41
1.0
 42
0.0
  3
SLDDIMSTYLE3
100
AcDbOrdinateDimension
 13
313.197623611
 23
179.142245509
 33
0.0
 14
313.197623611
 24
108.0985587446
 34
0.0
  0
DIMENSION
  5
42B
100
AcDbEntity
  8
0
100
AcDbDimension
  2
*D7
 10
263.197623611
 20
129.142245509
 30
0.0
 11
351.1968661242
 21
108.0985587446
 31
0.0
 70
       230
 71
         5
 72
         1
 41
1.0
 42
0.0
  3
SLDDIMSTYLE3
100
AcDbOrdinateDimension
 13
353.197623611
 23
219.142245509
 33
0.0
 14
351.1968661242
 24
108.0985587446
 34
0.0
  0
DIMENSION
  5
435
100
AcDbEntity
  8
0
100
AcDbDimension
  2
*D8
 10
263.197623611
 20
129.142245509
 30
0.0
 11
357.1983810977
 21
108.0985587446
 31
0.0
 70
       230
 71
         5
 72
         1
 41
1.0
 42
0.0
  3
SLDDIMSTYLE3
100
AcDbOrdinateDimension
 13
355.197623611
 23
154.142245509
 33
0.0
 14
357.1983810977
 24
108.0985587446
 34
0.0
  0
DIMENSION
  5
43D
100
AcDbEntity
  8
0
100
AcDbDimension
  2
*D9
 10
263.197623611
 20
129.142245509
 30
0.0
 11
363.197623611
 21
108.0985587446
 31
0.0
 70
       230
 71
         5
 72
         1
 41
1.0
 42
0.0
  3
SLDDIMSTYLE3
100
AcDbOrdinateDimension
 13
363.197623611
 23
129.142245509
 33
0.0
 14
363.197623611
 24
108.0985587446
 34
0.0
  0
DIMENSION
  5
447
100
AcDbEntity
  8
0
100
AcDbDimension
  2
*D10
 10
363.197623611
 20
129.142245509
 30
0.0
 11
381.2078212062
 21
129.142245509
 31
0.0
 70
       166
 71
         5
 72
         1
 41
1.0
 42
0.0
  3
SLDDIMSTYLE2
100
AcDbOrdinateDimension
 13
363.197623611
 23
129.142245509
 33
0.0
 14
381.2078212062
 24
129.142245509
 34
0.0
  0
DIMENSION
  5
451
100
AcDbEntity
  8
0
100
AcDbDimension
  2
*D11
 10
363.197623611
 20
129.142245509
 30
0.0
 11
381.2078212062
 21
141.1452754558
 31
0.0
 70
       166
 71
         5
 72
         1
 41
1.0
 42
0.0
  3
SLDDIMSTYLE3
100
AcDbOrdinateDimension
 13
273.197623611
 23
139.142245509
 33
0.0
 14
381.2078212062
 24
141.1452754558
 34
0.0
  0
DIMENSION
  5
459
100
AcDbEntity
  8
0
100
AcDbDimension
  2
*D12
 10
363.197623611
 20
129.142245509
 30
0.0
 11
381.2078212062
 21
154.142245509
 31
0.0
 70
       166
 71
         5
 72
         1
 41
1.0
 42
0.0
  3
SLDDIMSTYLE3
100
AcDbOrdinateDimension
 13
271.197623611
 23
154.142245509
 33
0.0
 14
381.2078212062
 24
154.142245509
 34
0.0
  0
DIMENSION
  5
461
100
AcDbEntity
  8
0
100
AcDbDimension
  2
*D13
 10
363.197623611
 20
129.142245509
 30
0.0
 11
381.2078212062
 21
179.142245509
 31
0.0
 70
       166
 71
         5
 72
         1
 41
1.0
 42
0.0
  3
SLDDIMSTYLE3
100
AcDbOrdinateDimension
 13
313.197623611
 23
179.142245509
 33
0.0
 14
381.2078212062
 24
179.142245509
 34
0.0
  0
DIMENSION
  5
46B
100
AcDbEntity
  8
0
100
AcDbDimension
  2
*D14
 10
363.197623611
 20
129.142245509
 30
0.0
 11
381.2078212062
 21
217.1414880223
 31
0.0
 70
       166
 71
         5
 72
         1
 41
1.0
 42
0.0
  3
SLDDIMSTYLE3
100
AcDbOrdinateDimension
 13
273.197623611
 23
219.142245509
 33
0.0
 14
381.2078212062
 24
217.1414880223
 34
0.0
  0
DIMENSION
  5
475
100
AcDbEntity
  8
0
100
AcDbDimension
  2
*D15
 10
363.197623611
 20
129.142245509
 30
0.0
 11
381.2078212062
 21
223.1430029957
 31
0.0
 70
       166
 71
         5
 72
         1
 41
1.0
 42
0.0
  3
SLDDIMSTYLE3
100
AcDbOrdinateDimension
 13
298.197623611
 23
221.142245509
 33
0.0
 14
381.2078212062
 24
223.1430029957
 34
0.0
  0
DIMENSION
  5
47D
100
AcDbEntity
  8
0
100
AcDbDimension
  2
*D16
 10
363.197623611
 20
129.142245509
 30
0.0
 11
381.2078212062
 21
229.142245509
 31
0.0
 70
       166
 71
         5
 72
         1
 41
1.0
 42
0.0
  3
SLDDIMSTYLE3
100
AcDbOrdinateDimension
 13
363.197623611
 23
229.142245509
 33
0.0
 14
381.2078212062
 24
229.142245509
 34
0.0
  0
DIMENSION
  5
48D
100
AcDbEntity
  8
0
100
AcDbDimension
  2
*D17
 10
317.2187413912
 20
177.7663415163
 30
0.0
 11
236.5037737471
 21
203.2175384834
 31
0.0
 70
       163
 71
         5
 72
         1
 41
1.0
 42
0.0
  1
<>\Pnon débouchant
  3
SLDDIMSTYLE4
100
AcDbDiametricDimension
 15
309.1765058307
 25
180.5181495017
 35
0.0
 40
0.0
  0
LEADER
  5
48E
100
AcDbEntity
  8
0
 62
       255
100
AcDbLeader
  3
SLDDIMSTYLE0
 73
         3
 74
         0
 75
         0
 40
0.0
 76
         3
 10
273.197623611
 20
223.142245509
 30
0.0
 10
278.899025
 20
247.4604
 30
0.0
 10
285.249025
 20
247.4604
 30
0.0
 77
       256
340
48F
  0
MTEXT
  5
48F
102
{ACAD_REACTORS
330
48E
102
}
100
AcDbEntity
  8
0
 62
         7
100
AcDbMText
 10
316.437558631
 20
249.7108037333
 30
0.0
 40
3.5
 41
0.0
 71
         2
 72
         1
  1
4 M8 + logement vis FHC M8
  7
SLDTEXTSTYLE0
 73
         1
 44
1.0
  0
LEADER
  5
490
100
AcDbEntity
  8
0
 62
       255
100
AcDbLeader
  3
SLDDIMSTYLE0
 73
         3
 74
         1
 75
         0
 40
0.0
 76
         3
 10
271.197623611
 20
156.642245509
 30
0.0
 10
265.6009
 20
167.9667
 30
0.0
 10
259.2509
 20
167.9667
 30
0.0
 77
       256
340
491
  0
MTEXT
  5
491
102
{ACAD_REACTORS
330
490
102
}
100
AcDbEntity
  8
0
 62
         7
100
AcDbMText
 10
253.5792786716
 20
170.2198942433
 30
0.0
 40
3.5
 41
0.0
 71
         2
 72
         1
  1
3 M5
  7
SLDTEXTSTYLE0
 73
         1
 44
1.0
  0
ARC
  5
492
100
AcDbEntity
  8
0
  6
Continuous
 62
         7
100
AcDbCircle
 10
273.197623611
 20
139.142245509
 30
0.0
 40
4.0
100
AcDbArc
 50
255.0
 51
195.0
  0
ARC
  5
493
100
AcDbEntity
  8
0
  6
Continuous
 62
         7
100
AcDbCircle
 10
353.197623611
 20
139.142245509
 30
0.0
 40
4.0
100
AcDbArc
 50
255.0
 51
195.0
  0
ARC
  5
494
100
AcDbEntity
  8
0
  6
Continuous
 62
         7
100
AcDbCircle
 10
353.197623611
 20
219.142245509
 30
0.0
 40
4.0
100
AcDbArc
 50
255.0
 51
195.0
  0
ARC
  5
495
100
AcDbEntity
  8
0
  6
Continuous
 62
         7
100
AcDbCircle
 10
273.197623611
 20
219.142245509
 30
0.0
 40
4.0
100
AcDbArc
 50
255.0
 51
195.0
  0
ARC
  5
496
100
AcDbEntity
  8
0
  6
Continuous
 62
         7
100
AcDbCircle
 10
355.197623611
 20
154.142245509
 30
0.0
 40
2.5
100
AcDbArc
 50
255.0
 51
195.0
  0
ARC
  5
497
100
AcDbEntity
  8
0
  6
Continuous
 62
         7
100
AcDbCircle
 10
271.197623611
 20
154.142245509
 30
0.0
 40
2.5
100
AcDbArc
 50
255.0
 51
195.0
  0
ARC
  5
498
100
AcDbEntity
  8
0
  6
Continuous
 62
         7
100
AcDbCircle
 10
298.197623611
 20
221.142245509
 30
0.0
 40
2.5
100
AcDbArc
 50
255.0
 51
195.0
  0
LINE
  5
499
100
AcDbEntity
  8
0
370
         0
  6
Continuous
 62
         7
100
AcDbLine
 10
53.0416003162
 20
87.6475
 30
0.0
 11
52.433008982
 21
87.0389086659
 31
0.0
  0
LINE
  5
49A
100
AcDbEntity
  8
0
370
         0
  6
Continuous
 62
         7
100
AcDbLine
 10
57.5317283767
 20
87.6475
 30
0.0
 11
52.433008982
 21
82.5487806053
 31
0.0
  0
LINE
  5
49B
100
AcDbEntity
  8
0
370
         0
  6
Continuous
 62
         7
100
AcDbLine
 10
62.0218564372
 20
87.6475
 30
0.0
 11
52.433008982
 21
78.0586525448
 31
0.0
  0
LINE
  5
49C
100
AcDbEntity
  8
0
370
         0
  6
Continuous
 62
         7
100
AcDbLine
 10
66.5119844978
 20
87.6475
 30
0.0
 11
54.5119844978
 21
75.6475
 31
0.0
  0
LINE
  5
49D
100
AcDbEntity
  8
0
370
         0
  6
Continuous
 62
         7
100
AcDbLine
 10
61.833008982
 20
78.4783964237
 30
0.0
 11
59.0021125583
 21
75.6475
 31
0.0
  0
LINE
  5
49E
100
AcDbEntity
  8
0
370
         0
  6
Continuous
 62
         7
100
AcDbLine
 10
71.0021125583
 20
87.6475
 30
0.0
 11
63.0021125583
 21
79.6475
 31
0.0
  0
LINE
  5
49F
100
AcDbEntity
  8
0
370
         0
  6
Continuous
 62
         7
100
AcDbLine
 10
75.4922406188
 20
87.6475
 30
0.0
 11
67.4922406188
 21
79.6475
 31
0.0
  0
LINE
  5
4A0
100
AcDbEntity
  8
0
370
         0
  6
Continuous
 62
         7
100
AcDbLine
 10
79.9823686794
 20
87.6475
 30
0.0
 11
71.9823686794
 21
79.6475
 31
0.0
  0
LINE
  5
4A1
100
AcDbEntity
  8
0
370
         0
  6
Continuous
 62
         7
100
AcDbLine
 10
84.4724967399
 20
87.6475
 30
0.0
 11
76.4724967399
 21
79.6475
 31
0.0
  0
LINE
  5
4A2
100
AcDbEntity
  8
0
370
         0
  6
Continuous
 62
         7
100
AcDbLine
 10
88.9626248004
 20
87.6475
 30
0.0
 11
80.9626248004
 21
79.6475
 31
0.0
  0
LINE
  5
4A3
100
AcDbEntity
  8
0
370
         0
  6
Continuous
 62
         7
100
AcDbLine
 10
93.452752861
 20
87.6475
 30
0.0
 11
83.452752861
 21
77.6475
 31
0.0
  0
LINE
  5
4A4
100
AcDbEntity
  8
0
370
         0
  6
Continuous
 62
         7
100
AcDbLine
 10
97.9428809215
 20
87.6475
 30
0.0
 11
87.9428809215
 21
77.6475
 31
0.0
  0
LINE
  5
4A5
100
AcDbEntity
  8
0
370
         0
  6
Continuous
 62
         7
100
AcDbLine
 10
98.183008982
 20
83.3975
 30
0.0
 11
92.433008982
 21
77.6475
 31
0.0
  0
LINE
  5
4A6
100
AcDbEntity
  8
0
370
         0
  6
Continuous
 62
         7
100
AcDbLine
 10
99.9231370426
 20
80.6475
 30
0.0
 11
96.9231370426
 21
77.6475
 31
0.0
  0
LINE
  5
4A7
100
AcDbEntity
  8
0
370
         0
  6
Continuous
 62
         7
100
AcDbLine
 10
106.9231370426
 20
87.6475
 30
0.0
 11
106.683008982
 21
87.4073719395
 31
0.0
  0
LINE
  5
4A8
100
AcDbEntity
  8
0
370
         0
  6
Continuous
 62
         7
100
AcDbLine
 10
104.4132651031
 20
80.6475
 30
0.0
 11
101.4132651031
 21
77.6475
 31
0.0
  0
LINE
  5
4A9
100
AcDbEntity
  8
0
370
         0
  6
Continuous
 62
         7
100
AcDbLine
 10
111.4132651031
 20
87.6475
 30
0.0
 11
106.683008982
 21
82.9172438789
 31
0.0
  0
LINE
  5
4AA
100
AcDbEntity
  8
0
370
         0
  6
Continuous
 62
         7
100
AcDbLine
 10
115.9033931636
 20
87.6475
 30
0.0
 11
105.9033931636
 21
77.6475
 31
0.0
  0
LINE
  5
4AB
100
AcDbEntity
  8
0
370
         0
  6
Continuous
 62
         7
100
AcDbLine
 10
120.3935212242
 20
87.6475
 30
0.0
 11
110.3935212242
 21
77.6475
 31
0.0
  0
LINE
  5
4AC
100
AcDbEntity
  8
0
370
         0
  6
Continuous
 62
         7
100
AcDbLine
 10
124.8836492847
 20
87.6475
 30
0.0
 11
114.8836492847
 21
77.6475
 31
0.0
  0
LINE
  5
4AD
100
AcDbEntity
  8
0
370
         0
  6
Continuous
 62
         7
100
AcDbLine
 10
129.3737773452
 20
87.6475
 30
0.0
 11
119.3737773452
 21
77.6475
 31
0.0
  0
LINE
  5
4AE
100
AcDbEntity
  8
0
370
         0
  6
Continuous
 62
         7
100
AcDbLine
 10
133.8639054058
 20
87.6475
 30
0.0
 11
125.8639054058
 21
79.6475
 31
0.0
  0
LINE
  5
4AF
100
AcDbEntity
  8
0
370
         0
  6
Continuous
 62
         7
100
AcDbLine
 10
138.3540334663
 20
87.6475
 30
0.0
 11
130.3540334663
 21
79.6475
 31
0.0
  0
LINE
  5
4B0
100
AcDbEntity
  8
0
370
         0
  6
Continuous
 62
         7
100
AcDbLine
 10
142.8441615268
 20
87.6475
 30
0.0
 11
134.8441615268
 21
79.6475
 31
0.0
  0
LINE
  5
4B1
100
AcDbEntity
  8
0
370
         0
  6
Continuous
 62
         7
100
AcDbLine
 10
147.3342895874
 20
87.6475
 30
0.0
 11
139.3342895874
 21
79.6475
 31
0.0
  0
LINE
  5
4B2
100
AcDbEntity
  8
0
370
         0
  6
Continuous
 62
         7
100
AcDbLine
 10
151.8244176479
 20
87.6475
 30
0.0
 11
143.794912156
 21
79.6179945081
 31
0.0
  0
LINE
  5
4B3
100
AcDbEntity
  8
0
370
         0
  6
Continuous
 62
         7
100
AcDbLine
 10
152.433008982
 20
83.7659632736
 30
0.0
 11
144.3145457085
 21
75.6475
 31
0.0
  0
LINE
  5
4B4
100
AcDbEntity
  8
0
370
         0
  6
Continuous
 62
         7
100
AcDbLine
 10
152.433008982
 20
79.2758352131
 30
0.0
 11
148.804673769
 21
75.6475
 31
0.0
  0
LINE
  5
4B5
100
AcDbEntity
  8
0
370
        15
  6
Continuous
 62
         7
100
AcDbLine
 10
83.433008982
 20
77.6475
 30
0.0
 11
83.433008982
 21
79.6475
 31
0.0
  0
LINE
  5
4B6
100
AcDbEntity
  8
0
370
        15
  6
Continuous
 62
         7
100
AcDbLine
 10
83.433008982
 20
79.6475
 30
0.0
 11
61.833008982
 21
79.6475
 31
0.0
  0
LINE
  5
4B7
100
AcDbEntity
  8
0
370
        15
  6
Continuous
 62
         7
100
AcDbLine
 10
61.833008982
 20
79.6475
 30
0.0
 11
61.833008982
 21
75.6475
 31
0.0
  0
LINE
  5
4B8
100
AcDbEntity
  8
0
370
        15
  6
Continuous
 62
         7
100
AcDbLine
 10
61.833008982
 20
75.6475
 30
0.0
 11
52.433008982
 21
75.6475
 31
0.0
  0
LINE
  5
4B9
100
AcDbEntity
  8
0
370
        15
  6
Continuous
 62
         7
100
AcDbLine
 10
52.433008982
 20
87.6475
 30
0.0
 11
52.433008982
 21
75.6475
 31
0.0
  0
LINE
  5
4BA
100
AcDbEntity
  8
0
370
        15
  6
Continuous
 62
         7
100
AcDbLine
 10
98.183008982
 20
87.6475
 30
0.0
 11
52.433008982
 21
87.6475
 31
0.0
  0
LINE
  5
4BB
100
AcDbEntity
  8
0
370
        15
  6
Continuous
 62
         7
100
AcDbLine
 10
98.183008982
 20
80.6475
 30
0.0
 11
98.183008982
 21
87.6475
 31
0.0
  0
LINE
  5
4BC
100
AcDbEntity
  8
0
370
        15
  6
Continuous
 62
         7
100
AcDbLine
 10
98.183008982
 20
80.6475
 30
0.0
 11
106.683008982
 21
80.6475
 31
0.0
  0
LINE
  5
4BD
100
AcDbEntity
  8
0
370
        15
  6
Continuous
 62
         7
100
AcDbLine
 10
106.683008982
 20
87.6475
 30
0.0
 11
106.683008982
 21
80.6475
 31
0.0
  0
LINE
  5
4BE
100
AcDbEntity
  8
0
370
        15
  6
Continuous
 62
         7
100
AcDbLine
 10
152.433008982
 20
87.6475
 30
0.0
 11
106.683008982
 21
87.6475
 31
0.0
  0
LINE
  5
4BF
100
AcDbEntity
  8
0
370
        15
  6
Continuous
 62
         7
100
AcDbLine
 10
152.433008982
 20
75.6475
 30
0.0
 11
152.433008982
 21
87.6475
 31
0.0
  0
LINE
  5
4C0
100
AcDbEntity
  8
0
370
        15
  6
Continuous
 62
         7
100
AcDbLine
 10
152.433008982
 20
75.6475
 30
0.0
 11
143.794912156
 21
75.6475
 31
0.0
  0
LINE
  5
4C1
100
AcDbEntity
  8
0
370
        15
  6
Continuous
 62
         7
100
AcDbLine
 10
143.794912156
 20
75.6475
 30
0.0
 11
143.794912156
 21
79.6475
 31
0.0
  0
LINE
  5
4C2
100
AcDbEntity
  8
0
370
        15
  6
Continuous
 62
         7
100
AcDbLine
 10
143.794912156
 20
79.6475
 30
0.0
 11
121.433008982
 21
79.6475
 31
0.0
  0
LINE
  5
4C3
100
AcDbEntity
  8
0
370
        15
  6
Continuous
 62
         7
100
AcDbLine
 10
121.433008982
 20
79.6475
 30
0.0
 11
121.433008982
 21
77.6475
 31
0.0
  0
LINE
  5
4C4
100
AcDbEntity
  8
0
370
        15
  6
Continuous
 62
         7
100
AcDbLine
 10
121.433008982
 20
77.6475
 30
0.0
 11
83.433008982
 21
77.6475
 31
0.0
  0
LINE
  5
4C5
100
AcDbEntity
  8
0
370
        15
  6
Continuous
 62
         7
100
AcDbLine
 10
106.683008982
 20
87.6475
 30
0.0
 11
98.183008982
 21
87.6475
 31
0.0
  0
LINE
  5
4C6
100
AcDbEntity
  8
0
370
        15
  6
Continuous
 62
         7
100
AcDbLine
 10
62.6878146895
 20
75.6475
 30
0.0
 11
61.833008982
 21
75.6475
 31
0.0
  0
LINE
  5
4C7
100
AcDbEntity
  8
0
370
        15
  6
Continuous
 62
         7
100
AcDbLine
 10
137.6894201609
 20
75.6475
 30
0.0
 11
121.8628601517
 21
75.6475
 31
0.0
  0
LINE
  5
4C8
100
AcDbEntity
  8
0
370
        15
  6
Continuous
 62
         7
100
AcDbLine
 10
121.8628601517
 20
77.6475
 30
0.0
 11
121.8628601517
 21
75.6475
 31
0.0
  0
LINE
  5
4C9
100
AcDbEntity
  8
0
370
        15
  6
Continuous
 62
         7
100
AcDbLine
 10
121.8628601517
 20
77.6475
 30
0.0
 11
121.433008982
 21
77.6475
 31
0.0
  0
LINE
  5
4CA
100
AcDbEntity
  8
0
370
        15
  6
Continuous
 62
         7
100
AcDbLine
 10
74.0878146895
 20
75.6475
 30
0.0
 11
62.6878146895
 21
75.6475
 31
0.0
  0
LINE
  5
4CB
100
AcDbEntity
  8
0
370
        15
  6
Continuous
 62
         7
100
AcDbLine
 10
114.7719716613
 20
75.6475
 30
0.0
 11
114.7719716613
 21
77.6475
 31
0.0
  0
LINE
  5
4CC
100
AcDbEntity
  8
0
370
        15
  6
Continuous
 62
         7
100
AcDbLine
 10
114.7719716613
 20
75.6475
 30
0.0
 11
121.8628601517
 21
75.6475
 31
0.0
  0
LINE
  5
4CD
100
AcDbEntity
  8
0
370
        15
  6
Continuous
 62
         7
100
AcDbLine
 10
112.5721867277
 20
77.6475
 30
0.0
 11
112.5721867277
 21
75.6475
 31
0.0
  0
LINE
  5
4CE
100
AcDbEntity
  8
0
370
        15
  6
Continuous
 62
         7
100
AcDbLine
 10
112.5721867277
 20
75.6475
 30
0.0
 11
114.7719716613
 21
75.6475
 31
0.0
  0
LINE
  5
4CF
100
AcDbEntity
  8
0
370
        15
  6
Continuous
 62
         7
100
AcDbLine
 10
76.433008982
 20
75.6475
 30
0.0
 11
76.433008982
 21
79.6475
 31
0.0
  0
LINE
  5
4D0
100
AcDbEntity
  8
0
370
        15
  6
Continuous
 62
         7
100
AcDbLine
 10
79.433008982
 20
75.6475
 30
0.0
 11
79.433008982
 21
79.6475
 31
0.0
  0
LINE
  5
4D1
100
AcDbEntity
  8
0
370
        15
  6
Continuous
 62
         7
100
AcDbLine
 10
79.433008982
 20
75.6475
 30
0.0
 11
76.433008982
 21
75.6475
 31
0.0
  0
LINE
  5
4D2
100
AcDbEntity
  8
0
370
        15
  6
Continuous
 62
         7
100
AcDbLine
 10
90.0940463028
 20
77.6475
 30
0.0
 11
90.0940463028
 21
75.6475
 31
0.0
  0
LINE
  5
4D3
100
AcDbEntity
  8
0
370
        15
  6
Continuous
 62
         7
100
AcDbLine
 10
83.433008982
 20
75.6475
 30
0.0
 11
90.0940463028
 21
75.6475
 31
0.0
  0
LINE
  5
4D4
100
AcDbEntity
  8
0
370
        15
  6
Continuous
 62
         7
100
AcDbLine
 10
83.433008982
 20
75.6475
 30
0.0
 11
83.433008982
 21
77.6475
 31
0.0
  0
LINE
  5
4D5
100
AcDbEntity
  8
0
370
        15
  6
Continuous
 62
         7
100
AcDbLine
 10
92.2938312364
 20
75.6475
 30
0.0
 11
92.2938312364
 21
77.6475
 31
0.0
  0
LINE
  5
4D6
100
AcDbEntity
  8
0
370
        15
  6
Continuous
 62
         7
100
AcDbLine
 10
90.0940463028
 20
75.6475
 30
0.0
 11
92.2938312364
 21
75.6475
 31
0.0
  0
LINE
  5
4D7
100
AcDbEntity
  8
0
370
        15
  6
Continuous
 62
         7
100
AcDbLine
 10
143.794912156
 20
75.6475
 30
0.0
 11
142.5442363852
 21
75.6475
 31
0.0
  0
LINE
  5
4D8
100
AcDbEntity
  8
0
370
        15
  6
Continuous
 62
         7
100
AcDbLine
 10
139.2107440416
 20
75.6475
 30
0.0
 11
137.6894201609
 21
75.6475
 31
0.0
  0
LINE
  5
4D9
100
AcDbEntity
  8
0
370
        15
  6
Continuous
 62
         7
100
AcDbLine
 10
142.5442363852
 20
75.6475
 30
0.0
 11
139.2107440416
 21
75.6475
 31
0.0
  0
LINE
  5
4DA
100
AcDbEntity
  8
0
370
        15
  6
Continuous
 62
         7
100
AcDbLine
 10
83.4046323466
 20
79.6475
 30
0.0
 11
83.4046323466
 21
75.6475
 31
0.0
  0
LINE
  5
4DB
100
AcDbEntity
  8
0
370
        15
  6
Continuous
 62
         7
100
AcDbLine
 10
83.4046323466
 20
75.6475
 30
0.0
 11
82.9643798319
 21
75.6475
 31
0.0
  0
LINE
  5
4DC
100
AcDbEntity
  8
0
370
        15
  6
Continuous
 62
         7
100
AcDbLine
 10
83.433008982
 20
75.6475
 30
0.0
 11
83.4046323466
 21
75.6475
 31
0.0
  0
LINE
  5
4DD
100
AcDbEntity
  8
0
370
        15
  6
Continuous
 62
         7
100
AcDbLine
 10
76.433008982
 20
75.6475
 30
0.0
 11
74.0878146895
 21
75.6475
 31
0.0
  0
LINE
  5
4DE
100
AcDbEntity
  8
0
370
        15
  6
Continuous
 62
         7
100
AcDbLine
 10
82.1643798319
 20
75.6475
 30
0.0
 11
79.433008982
 21
75.6475
 31
0.0
  0
LINE
  5
4DF
100
AcDbEntity
  8
0
370
        15
  6
Continuous
 62
         7
100
AcDbLine
 10
82.9643798319
 20
75.6475
 30
0.0
 11
82.1643798319
 21
75.6475
 31
0.0
  0
LINE
  5
4E0
100
AcDbEntity
  8
0
370
        15
  6
Continuous
 62
         7
100
AcDbLine
 10
109.743759603
 20
75.6475
 30
0.0
 11
109.743759603
 21
77.6475
 31
0.0
  0
LINE
  5
4E1
100
AcDbEntity
  8
0
370
        15
  6
Continuous
 62
         7
100
AcDbLine
 10
109.743759603
 20
75.6475
 30
0.0
 11
112.5721867277
 21
75.6475
 31
0.0
  0
LINE
  5
4E2
100
AcDbEntity
  8
0
370
        15
  6
Continuous
 62
         7
100
AcDbLine
 10
104.433008982
 20
77.6475
 30
0.0
 11
104.433008982
 21
75.6475
 31
0.0
  0
LINE
  5
4E3
100
AcDbEntity
  8
0
370
        15
  6
Continuous
 62
         7
100
AcDbLine
 10
104.433008982
 20
75.6475
 30
0.0
 11
109.743759603
 21
75.6475
 31
0.0
  0
LINE
  5
4E4
100
AcDbEntity
  8
0
370
        15
  6
Continuous
 62
         7
100
AcDbLine
 10
95.1222583611
 20
77.6475
 30
0.0
 11
95.1222583611
 21
75.6475
 31
0.0
  0
LINE
  5
4E5
100
AcDbEntity
  8
0
370
        15
  6
Continuous
 62
         7
100
AcDbLine
 10
92.2938312364
 20
75.6475
 30
0.0
 11
95.1222583611
 21
75.6475
 31
0.0
  0
LINE
  5
4E6
100
AcDbEntity
  8
0
370
        15
  6
Continuous
 62
         7
100
AcDbLine
 10
100.433008982
 20
75.6475
 30
0.0
 11
100.433008982
 21
77.6475
 31
0.0
  0
LINE
  5
4E7
100
AcDbEntity
  8
0
370
        15
  6
Continuous
 62
         7
100
AcDbLine
 10
95.1222583611
 20
75.6475
 30
0.0
 11
100.433008982
 21
75.6475
 31
0.0
  0
LINE
  5
4E8
100
AcDbEntity
  8
0
370
        15
  6
Continuous
 62
         7
100
AcDbLine
 10
104.433008982
 20
75.6475
 30
0.0
 11
100.433008982
 21
75.6475
 31
0.0
  0
DIMENSION
  5
4F4
100
AcDbEntity
  8
0
 62
       255
100
AcDbDimension
  2
*D18
 10
91.6774798842
 20
87.6475
 30
0.0
 11
91.6774798842
 21
96.7938472375
 31
0.0
 70
       160
 71
         5
 72
         1
 41
1.0
 42
0.0
  3
SLDDIMSTYLE1
100
AcDbAlignedDimension
 13
98.183008982
 23
80.6475
 33
0.0
 14
98.183008982
 24
87.6475
 34
0.0
 50
90.0
100
AcDbRotatedDimension
  0
DIMENSION
  5
502
100
AcDbEntity
  8
0
 62
       255
100
AcDbDimension
  2
*D19
 10
59.7981807811
 20
75.6475
 30
0.0
 11
59.7981807811
 21
67.5711563929
 31
0.0
 70
       160
 71
         5
 72
         1
 41
1.0
 42
0.0
  3
SLDDIMSTYLE1
100
AcDbAlignedDimension
 13
61.833008982
 23
79.6475
 33
0.0
 14
62.6878146895
 24
75.6475
 34
0.0
 50
90.0
100
AcDbRotatedDimension
  0
DIMENSION
  5
50E
100
AcDbEntity
  8
0
 62
       255
100
AcDbDimension
  2
*D20
 10
117.800794427
 20
75.6475
 30
0.0
 11
117.800794427
 21
66.6856203067
 31
0.0
 70
       160
 71
         5
 72
         1
 41
1.0
 42
0.0
  3
SLDDIMSTYLE1
100
AcDbAlignedDimension
 13
121.433008982
 23
77.6475
 33
0.0
 14
114.7719716613
 24
75.6475
 34
0.0
 50
90.0
100
AcDbRotatedDimension
  0
DIMENSION
  5
51C
100
AcDbEntity
  8
0
 62
       255
100
AcDbDimension
  2
*D21
 10
165.1768189687
 20
75.6475
 30
0.0
 11
165.1768189687
 21
82.0244793755
 31
0.0
 70
       160
 71
         5
 72
         1
 41
1.0
 42
0.0
  3
SLDDIMSTYLE1
100
AcDbAlignedDimension
 13
152.433008982
 23
87.6475
 33
0.0
 14
152.433008982
 24
75.6475
 34
0.0
 50
90.0
100
AcDbRotatedDimension
  0
MTEXT
  5
51D
100
AcDbEntity
  8
0
 62
         7
100
AcDbMText
 10
74.9813903099
 20
67.9368290245
 30
0.0
 40
3.5
 41
0.0
 71
         2
 72
         1
  1
A-A
  7
SLDTEXTSTYLE0
 73
         1
 44
1.0
  0
ENDSEC
  0
SECTION
  2
OBJECTS
  0
DICTIONARY
  5
19
100
AcDbDictionary
280
         0
281
         1
  3
ACAD_GROUP
350
1A
  3
ACAD_MLINESTYLE
350
1B
  3
ACAD_LAYOUT
350
1E
  3
ACAD_PLOTSETTINGS
350
22
  3
ACAD_PLOTSTYLENAME
350
1F
  3
ACAD_WIPEOUT_VARS
350
23
  0
DICTIONARY
  5
1A
102
{ACAD_REACTORS
330
19
102
}
100
AcDbDictionary
280
         0
281
         1
  0
DICTIONARY
  5
1B
102
{ACAD_REACTORS
330
19
102
}
100
AcDbDictionary
280
         0
281
         1
  3
Standard
350
1C
  0
MLINESTYLE
  5
1C
102
{ACAD_REACTORS
330
1B
102
}
100
AcDbMlineStyle
  2
Standard
 70
         0
  3

 62
         0
 51
90.0
 52
90.0
 71
         2
 49
0.5
 62
       256
  6
BYLAYER
 49
-0.5
 62
       256
  6
BYLAYER
  0
ACDBDICTIONARYWDFLT
  5
1F
102
{ACAD_REACTORS
330
19
102
}
100
AcDbDictionary
281
         1
  3
Normal
350
1D
100
AcDbDictionaryWithDefault
340
1D
  0
ACDBPLACEHOLDER
  5
1D
102
{ACAD_REACTORS
330
1F
102
}
  0
LAYOUT
  5
20
102
{ACAD_REACTORS
330
1E
102
}
100
AcDbPlotSettings
  1

  2

  4

  6

 40
0.0
 41
0.0
 42
0.0
 43
0.0
 44
0.0
 45
0.0
 46
0.0
 47
0.0
 48
0.0
 49
0.0
140
0.0
141
0.0
142
1.0
143
1.0
 70
      1024
 72
         0
 73
         0
 74
         0
  7

 75
         0
147
1.0
148
0.0
149
0.0
100
AcDbLayout
  1
Model
 70
         0
 71
         0
 10
0.0
 20
0.0
 11
0.0
 21
0.0
 12
0.0
 22
0.0
 32
0.0
 14
0.0
 24
0.0
 34
0.0
 15
0.0
 25
0.0
 35
0.0
146
0.0
 13
0.0
 23
0.0
 33
0.0
 16
0.0
 26
0.0
 36
0.0
 17
0.0
 27
0.0
 37
0.0
 76
         0
330
A
331
0
345
0
346
0
  0
LAYOUT
  5
21
102
{ACAD_REACTORS
330
1E
102
}
100
AcDbPlotSettings
  1

  2

  4

  6

 40
0.0
 41
0.0
 42
0.0
 43
0.0
 44
0.0
 45
0.0
 46
0.0
 47
0.0
 48
0.0
 49
0.0
140
0.0
141
0.0
142
1.0
143
1.0
 70
         0
 72
         0
 73
         0
 74
         0
  7

 75
         0
147
1.0
148
0.0
149
0.0
100
AcDbLayout
  1
Layout1
 70
         0
 71
         0
 10
0.0
 20
0.0
 11
0.0
 21
0.0
 12
0.0
 22
0.0
 32
0.0
 14
0.0
 24
0.0
 34
0.0
 15
0.0
 25
0.0
 35
0.0
146
0.0
 13
0.0
 23
0.0
 33
0.0
 16
0.0
 26
0.0
 36
0.0
 17
0.0
 27
0.0
 37
0.0
 76
         0
330
B
331
0
345
0
346
0
  0
DICTIONARY
  5
1E
102
{ACAD_REACTORS
330
19
102
}
100
AcDbDictionary
280
         0
281
         1
  3
Layout1
350
21
  3
Model
350
20
  0
DICTIONARY
  5
22
102
{ACAD_REACTORS
330
19
102
}
100
AcDbDictionary
280
         0
281
         1
  0
WIPEOUTVARIABLES
  5
23
100
AcDbWipeoutVariables
 70
         1
  0
ENDSEC
  0
EOF
