  0
SECTION
  2
HEADER
  9
$ACADVER
  1
AC1015
  9
$ACADMAINTVER
 70
         6
  9
$DWGCODEPAGE
  3
ANSI_1252
  9
$INSBASE
 10
0.0
 20
0.0
 30
0.0
  9
$EXTMIN
 10
0.0
 20
0.0
 30
0.0
  9
$EXTMAX
 10
420.0
 20
297.0
 30
0.0
  9
$LIMMIN
 10
0.0
 20
0.0
  9
$LIMMAX
 10
0.0
 20
0.0
  9
$ORTHOMODE
 70
         0
  9
$REGENMODE
 70
         1
  9
$FILLMODE
 70
         1
  9
$QTEXTMODE
 70
         0
  9
$MIRRTEXT
 70
         1
  9
$LTSCALE
 40
1.0
  9
$ATTMODE
 70
         1
  9
$TEXTSIZE
 40
3.5
  9
$TRACEWID
 40
0.05
  9
$TEXTSTYLE
  7
Standard
  9
$CLAYER
  8
0
  9
$CELTYPE
  6
Continuous
  9
$CECOLOR
 62
       256
  9
$CELTSCALE
 40
1.0
  9
$DISPSILH
 70
         0
  9
$DIMSCALE
 40
1.0
  9
$DIMASZ
 40
3.0
  9
$DIMEXO
 40
1.0
  9
$DIMDLI
 40
0.38
  9
$DIMRND
 40
0.0
  9
$DIMDLE
 40
1.0
  9
$DIMEXE
 40
0.18
  9
$DIMTP
 40
0.0
  9
$DIMTM
 40
0.0
  9
$DIMTXT
 40
3.5
  9
$DIMCEN
 40
0.09
  9
$DIMTSZ
 40
0.0
  9
$DIMTOL
 70
         0
  9
$DIMLIM
 70
         0
  9
$DIMTIH
 70
         1
  9
$DIMTOH
 70
         1
  9
$DIMSE1
 70
         0
  9
$DIMSE2
 70
         0
  9
$DIMTAD
 70
         1
  9
$DIMZIN
 70
         0
  9
$DIMBLK
  1

  9
$DIMASO
 70
         1
  9
$DIMSHO
 70
         1
  9
$DIMPOST
  1

  9
$DIMAPOST
  1

  9
$DIMALT
 70
         0
  9
$DIMALTD
 70
         2
  9
$DIMALTF
 40
0.0394
  9
$DIMLFAC
 40
1.0
  9
$DIMTOFL
 70
         0
  9
$DIMTVP
 40
0.0
  9
$DIMTIX
 70
         0
  9
$DIMSOXD
 70
         0
  9
$DIMSAH
 70
         0
  9
$DIMBLK1
  1

  9
$DIMBLK2
  1

  9
$DIMSTYLE
  2
Standard
  9
$DIMCLRD
 70
         0
  9
$DIMCLRE
 70
         0
  9
$DIMCLRT
 70
         0
  9
$DIMTFAC
 40
1.0
  9
$DIMGAP
 40
1.0
  9
$DIMJUST
 70
         0
  9
$DIMSD1
 70
         0
  9
$DIMSD2
 70
         0
  9
$DIMTOLJ
 70
         1
  9
$DIMTZIN
 70
         0
  9
$DIMALTZ
 70
         0
  9
$DIMALTTZ
 70
         0
  9
$DIMUPT
 70
         0
  9
$DIMDEC
 70
         4
  9
$DIMTDEC
 70
         4
  9
$DIMALTU
 70
         2
  9
$DIMALTTD
 70
         2
  9
$DIMTXSTY
  7
Standard
  9
$DIMAUNIT
 70
         0
  9
$DIMADEC
 70
         0
  9
$DIMALTRND
 40
0.0
  9
$DIMAZIN
 70
         0
  9
$DIMDSEP
 70
         0
  9
$DIMATFIT
 70
         3
  9
$DIMFRAC
 70
         0
  9
$DIMLDRBLK
  1

  9
$DIMLUNIT
 70
         2
  9
$DIMLWD
 70
         0
  9
$DIMLWE
 70
         0
  9
$DIMTMOVE
 70
         0
  9
$LUNITS
 70
         2
  9
$LUPREC
 70
         2
  9
$SKETCHINC
 40
0.1
  9
$FILLETRAD
 40
0.0
  9
$AUNITS
 70
         0
  9
$AUPREC
 70
         2
  9
$MENU
  1
acad
  9
$ELEVATION
 40
0.0
  9
$PELEVATION
 40
0.0
  9
$THICKNESS
 40
0.0
  9
$LIMCHECK
 70
         0
  9
$CHAMFERA
 40
0.0
  9
$CHAMFERB
 40
0.0
  9
$CHAMFERC
 40
0.0
  9
$CHAMFERD
 40
0.0
  9
$SKPOLY
 70
         0
  9
$TDCREATE
 40
0.000000000
  9
$TDUCREATE
 40
0.000000000
  9
$TDUPDATE
 40
0.000000000
  9
$TDUUPDATE
 40
0.000000000
  9
$TDINDWG
 40
0.0000000000
  9
$TDUSRTIMER
 40
0.0000000000
  9
$USRTIMER
 70
         1
  9
$ANGBASE
 50
0.0
  9
$ANGDIR
 70
         0
  9
$PDMODE
 70
         0
  9
$PDSIZE
 40
-1.0
  9
$PLINEWID
 40
0.0
  9
$SPLFRAME
 70
         0
  9
$SPLINETYPE
 70
         6
  9
$SPLINESEGS
 70
         8
  9
$HANDSEED
  5
89A
  9
$SURFTAB1
 70
         6
  9
$SURFTAB2
 70
         6
  9
$SURFTYPE
 70
         6
  9
$SURFU
 70
         6
  9
$SURFV
 70
         6
  9
$UCSBASE
  2

  9
$UCSNAME
  2

  9
$UCSORG
 10
0.0
 20
0.0
 30
0.0
  9
$UCSXDIR
 10
1.0
 20
0.0
 30
0.0
  9
$UCSYDIR
 10
0.0
 20
1.0
 30
0.0
  9
$UCSORTHOREF
  2

  9
$UCSORTHOVIEW
 70
         0
  9
$UCSORGTOP
 10
0.0
 20
0.0
 30
0.0
  9
$UCSORGBOTTOM
 10
0.0
 20
0.0
 30
0.0
  9
$UCSORGLEFT
 10
0.0
 20
0.0
 30
0.0
  9
$UCSORGRIGHT
 10
0.0
 20
0.0
 30
0.0
  9
$UCSORGFRONT
 10
0.0
 20
0.0
 30
0.0
  9
$UCSORGBACK
 10
0.0
 20
0.0
 30
0.0
  9
$PUCSBASE
  2

  9
$PUCSNAME
  2

  9
$PUCSORG
 10
0.0
 20
0.0
 30
0.0
  9
$PUCSXDIR
 10
1.0
 20
0.0
 30
0.0
  9
$PUCSYDIR
 10
0.0
 20
1.0
 30
0.0
  9
$PUCSORTHOREF
  2

  9
$PUCSORTHOVIEW
 70
         0
  9
$PUCSORGTOP
 10
0.0
 20
0.0
 30
0.0
  9
$PUCSORGBOTTOM
 10
0.0
 20
0.0
 30
0.0
  9
$PUCSORGLEFT
 10
0.0
 20
0.0
 30
0.0
  9
$PUCSORGRIGHT
 10
0.0
 20
0.0
 30
0.0
  9
$PUCSORGFRONT
 10
0.0
 20
0.0
 30
0.0
  9
$PUCSORGBACK
 10
0.0
 20
0.0
 30
0.0
  9
$USERI1
 70
         0
  9
$USERI2
 70
         0
  9
$USERI3
 70
         0
  9
$USERI4
 70
         0
  9
$USERI5
 70
         0
  9
$USERR1
 40
0.0
  9
$USERR2
 40
0.0
  9
$USERR3
 40
0.0
  9
$USERR4
 40
0.0
  9
$USERR5
 40
0.0
  9
$WORLDVIEW
 70
         1
  9
$SHADEDGE
 70
         3
  9
$SHADEDIF
 70
        70
  9
$TILEMODE
 70
         1
  9
$MAXACTVP
 70
        16
  9
$PINSBASE
 10
0.0
 20
0.0
 30
0.0
  9
$PLIMCHECK
 70
         0
  9
$PEXTMIN
 10
1.0000000000E+20
 20
1.0000000000E+20
 30
1.0000000000E+20
  9
$PEXTMAX
 10
-1.0000000000E+20
 20
-1.0000000000E+20
 30
-1.0000000000E+20
  9
$PLIMMIN
 10
0.0
 20
0.0
  9
$PLIMMAX
 10
12.0
 20
9.0
  9
$UNITMODE
 70
         0
  9
$VISRETAIN
 70
         0
  9
$PLINEGEN
 70
         1
  9
$PSLTSCALE
 70
         1
  9
$TREEDEPTH
 70
      3020
  9
$CMLSTYLE
  2
Standard
  9
$CMLJUST
 70
         0
  9
$CMLSCALE
 40
1.0
  9
$PROXYGRAPHICS
 70
         0
  9
$MEASUREMENT
 70
         0
  9
$CELWEIGHT
370
         0
  9
$ENDCAPS
280
         0
  9
$JOINSTYLE
280
         0
  9
$LWDISPLAY
290
         0
  9
$INSUNITS
 70
         0
  9
$HYPERLINKBASE
  1

  9
$XEDIT
290
         1
  9
$CEPSNTYPE
380
         0
  9
$PSTYLEMODE
290
         1
  9
$FINGERPRINTGUID
  2

  9
$VERSIONGUID
  2

  9
$EXTNAMES
290
         1
  9
$PSVPSCALE
 40
0.0
  0
ENDSEC
  0
SECTION
  2
CLASSES
  0
CLASS
  1
LWPOLYLINE
  2
AcDbPolyline
  3
AutoCAD 2000
 90
    32768
280
         0
281
         1
  0
CLASS
  1
IMAGE
  2
AcDbRasterImage
  3
ISM
 90
    32895
280
         0
281
         1
  0
CLASS
  1
OLE2FRAME
  2
AcDbOle2Frame
  3
AutoCAD 2000
 90
    32768
280
         0
281
         1
  0
CLASS
  1
HATCH
  2
AcDbHatch
  3
AutoCAD 2000
 90
    32768
280
         0
281
         1
  0
CLASS
  1
DICTIONARYVAR
  2
AcDbDictionaryVar
  3
AutoCAD 2000
 90
    32768
280
         0
281
         0
  0
CLASS
  1
RASTERVARIABLES
  2
AcDbRasterVariables
  3
ISM
 90
    32768
280
         0
281
         0
  0
CLASS
  1
IMAGEDEF
  2
AcDbRasterImageDef
  3
ISM
 90
    32768
280
         0
281
         0
  0
CLASS
  1
IMAGEDEF_REACTOR
  2
AcDbRasterImageDefReactor
  3
ISM
 90
    32769
280
         0
281
         0
  0
CLASS
  1
IDBUFFER
  2
AcDbIdBuffer
  3
AutoCAD 2000
 90
    32768
280
         0
281
         0
  0
CLASS
  1
SPATIAL_FILTER
  2
AcDbSpatialFilter
  3
AutoCAD 2000
 90
    32768
280
         0
281
         0
  0
CLASS
  1
XRECORD
  2
AcDbXrecord
  3
AutoCAD 2000
 90
    32768
280
         0
281
         0
  0
CLASS
  1
SORTENTSTABLE
  2
AcDbSortentsTable
  3
AutoCAD 2000
 90
    32768
280
         0
281
         0
  0
CLASS
  1
LAYER_INDEX
  2
AcDbLayerIndex
  3
AutoCAD 2000
 90
    32768
280
         0
281
         0
  0
CLASS
  1
SPATIAL_INDEX
  2
AcDbSpatialIndex
  3
AutoCAD 2000
 90
    32768
280
         0
281
         0
  0
CLASS
  1
OBJECT_PTR
  2
CAseDLPNTableRecord
  3
"ASE-LPNTableRecord"
 90
    32769
280
         0
281
         0
  0
CLASS
  1
LAYOUT
  2
AcDbLayout
  3
AutoCAD 2000
 90
        0
280
         0
281
         0
  0
CLASS
  1
PLOTSETTINGS
  2
AcDbPlotSettings
  3
AutoCAD 2000
 90
    32768
280
         0
281
         0
  0
CLASS
  1
ACDBDICTIONARYWDFLT
  2
AcDbDictionaryWithDefault
  3
AutoCAD 2000
 90
        0
280
         0
281
         0
  0
CLASS
  1
ACDBPLACEHOLDER
  2
AcDbPlaceHolder
  3
AutoCAD 2000
 90
        0
280
         0
281
         0
  0
CLASS
  1
VBA_PROJECT
  2
AcDbVbaProject
  3
acadvba
 90
    32768
280
         0
281
         0
  0
CLASS
  1
WIPEOUT
  2
AcDbWipeout
  3
WipeOut|AutoCAD Express Tool|expresstools@autodesk.com
 90
    32895
280
         0
281
         1
  0
CLASS
  1
WIPEOUTVARIABLES
  2
AcDbWipeoutVariables
  3
WipeOut|AutoCAD Express Tool|expresstools@autodesk.com
 90
        0
280
         0
281
         0
  0
CLASS
  1
RTEXT
  2
RText
  3
RText|AutoCAD Express Tool|expresstools@autodesk.com
 90
    32768
280
         0
281
         1
  0
CLASS
  1
ARCALIGNEDTEXT
  2
AcDbArcAlignedText
  3
ATEXT|AutoCAD Express Tool|expresstools@autodesk.com
 90
    32768
280
         0
281
         1
  0
ENDSEC
  0
SECTION
  2
TABLES
  0
TABLE
  2
VPORT
  5
7
100
AcDbSymbolTable
 70
         1
  0
VPORT
  5
15
100
AcDbSymbolTableRecord
100
AcDbViewportTableRecord
  2
*ACTIVE
 70
         0
 10
0.0
 20
0.0
 11
1.0
 21
1.0
 12
210.0
 22
148.5
 13
0.0
 23
0.0
 14
1.0
 24
1.0
 15
0.0
 25
0.0
 16
0.0
 26
0.0
 36
1.0
 17
0.0
 27
0.0
 37
0.0
 40
297.0
 41
0.7071428571
 42
50.0
 43
0.0
 44
0.0
 50
0.0
 51
0.0
 71
         0
 72
      2000
 73
         1
 74
         1
 75
         0
 76
         0
 77
         0
 78
         0
281
         0
 65
         0
110
0.0
120
0.0
130
0.0
111
1.0
121
0.0
131
0.0
112
0.0
122
1.0
132
0.0
345
0
346
0
 79
         0
146
0.0
  0
ENDTAB
  0
TABLE
  2
LTYPE
  5
4
100
AcDbSymbolTable
 70
         9
  0
LTYPE
  5
11
100
AcDbSymbolTableRecord
100
AcDbLinetypeTableRecord
  2
ByBlock
 70
        64
  3

 72
        65
 73
         0
 40
0.0
  0
LTYPE
  5
12
100
AcDbSymbolTableRecord
100
AcDbLinetypeTableRecord
  2
ByLayer
 70
        64
  3

 72
        65
 73
         0
 40
0.0
  0
LTYPE
  5
13
100
AcDbSymbolTableRecord
100
AcDbLinetypeTableRecord
  2
Continuous
 70
        64
  3
Solid line
 72
        65
 73
         0
 40
0.0
  0
LTYPE
  5
24
100
AcDbSymbolTableRecord
100
AcDbLinetypeTableRecord
  2
CONTINUOUS
 70
        64
  3
Solid line
 72
        65
 73
         1
 40
60.96
 49
60.96
 74
         0
  0
LTYPE
  5
25
100
AcDbSymbolTableRecord
100
AcDbLinetypeTableRecord
  2
HIDDEN
 70
        64
  3
Hidden __ __ __ __ __ __ __ __ __ __ __ __ __ __
 72
        65
 73
         2
 40
1.905
 49
1.27
 74
         0
 49
-0.635
 74
         0
  0
LTYPE
  5
26
100
AcDbSymbolTableRecord
100
AcDbLinetypeTableRecord
  2
PHANTOM
 70
        64
  3
Phantom ______  __  __  ______  __  __  ______
 72
        65
 73
         6
 40
12.7
 49
6.35
 74
         0
 49
-1.27
 74
         0
 49
1.27
 74
         0
 49
-1.27
 74
         0
 49
1.27
 74
         0
 49
-1.27
 74
         0
  0
LTYPE
  5
27
100
AcDbSymbolTableRecord
100
AcDbLinetypeTableRecord
  2
CENTER
 70
        64
  3
Center ____ _ ____ _ ____ _ ____ _ ____ _ ____
 72
        65
 73
         4
 40
10.16
 49
6.35
 74
         0
 49
-1.27
 74
         0
 49
1.27
 74
         0
 49
-1.27
 74
         0
  0
LTYPE
  5
28
100
AcDbSymbolTableRecord
100
AcDbLinetypeTableRecord
  2
CENTERX2
 70
        64
  3
Center (2x) ________  __  ________  __  _____
 72
        65
 73
         4
 40
20.32
 49
12.7
 74
         0
 49
-2.54
 74
         0
 49
2.54
 74
         0
 49
-2.54
 74
         0
  0
LTYPE
  5
29
100
AcDbSymbolTableRecord
100
AcDbLinetypeTableRecord
  2
DOT2
 70
        64
  3
Dot (.5x) ........................................
 72
        65
 73
         2
 40
0.635
 49
0.0
 74
         0
 49
-0.635
 74
         0
  0
ENDTAB
  0
TABLE
  2
LAYER
  5
2
100
AcDbSymbolTable
 70
         1
  0
LAYER
  5
14
100
AcDbSymbolTableRecord
100
AcDbLayerTableRecord
  2
0
 70
         0
 62
         7
  6
Continuous
290
         1
370
        -3
390
1D
  0
ENDTAB
  0
TABLE
  2
STYLE
  5
3
100
AcDbSymbolTable
 70
         2
  0
STYLE
  5
17
100
AcDbSymbolTableRecord
100
AcDbTextStyleTableRecord
  2
Standard
 70
         0
 40
0.0
 41
1.0
 50
0.0
 71
         0
 42
0.0
  3
txt
  4

  0
STYLE
  5
4B
100
AcDbSymbolTableRecord
100
AcDbTextStyleTableRecord
  2
SLDTEXTSTYLE0
 70
         0
 40
0.0
 41
0.75
 50
0.0
 71
         0
 42
0.0
  3
txt
  4

  0
ENDTAB
  0
TABLE
  2
VIEW
  5
5
100
AcDbSymbolTable
 70
         0
  0
ENDTAB
  0
TABLE
  2
UCS
  5
6
100
AcDbSymbolTable
 70
         0
  0
ENDTAB
  0
TABLE
  2
APPID
  5
8
100
AcDbSymbolTable
 70
         1
  0
APPID
  5
16
100
AcDbSymbolTableRecord
100
AcDbRegAppTableRecord
  2
ACAD
 70
         0
  0
ENDTAB
  0
TABLE
  2
DIMSTYLE
  5
9
100
AcDbSymbolTable
 70
         6
100
AcDbDimStyleTable
 71
         0
  0
DIMSTYLE
105
18
100
AcDbSymbolTableRecord
100
AcDbDimStyleTableRecord
  2
Standard
 70
         0
  3

  4

 40
1.0
 41
0.18
 42
0.0625
 43
0.38
 44
0.18
 45
0.0
 46
0.0
 47
0.0
 48
0.0
 71
         0
 72
         0
 73
         1
 74
         1
 75
         0
 76
         0
 77
         0
 78
         0
 79
         0
140
0.18
141
0.09
142
0.0
143
25.4
144
1.0
145
0.0
146
1.0
147
0.09
148
0.0
170
         0
171
         2
172
         0
173
         0
174
         0
175
         0
176
         0
177
         0
178
         0
179
         0
271
         4
272
         4
273
         2
274
         2
275
         0
276
         0
277
         2
278
        46
279
         0
280
         0
281
         0
282
         0
283
         1
284
         0
285
         0
286
         0
288
         0
340
17
341
0
342
0
343
0
344
0
371
        -2
372
        -2
  0
DIMSTYLE
105
10D
100
AcDbSymbolTableRecord
100
AcDbDimStyleTableRecord
  2
SLDDIMSTYLE0
 70
         0
  3

  4

 40
1.0
 41
3.0
 42
0.0625
 43
0.38
 44
1.0
 45
0.0
 46
0.0
 47
0.0
 48
0.0
 71
         0
 72
         0
 73
         1
 74
         1
 75
         0
 76
         0
 77
         0
 78
         8
 79
         0
140
3.5
141
0.09
142
0.0
143
25.4
144
1.0
145
0.0
146
1.0
147
0.875
148
0.0
170
         0
171
         2
172
         0
173
         1
174
         0
175
         0
176
       255
177
       255
178
       255
179
         0
271
         0
272
         4
273
         2
274
         2
275
         0
276
         0
277
         2
278
        46
279
         0
280
         0
281
         0
282
         0
283
         1
284
        12
285
         0
286
         0
288
         0
340
17
341
0
342
0
343
10E
344
10E
371
        -2
372
        -2
  0
DIMSTYLE
105
119
100
AcDbSymbolTableRecord
100
AcDbDimStyleTableRecord
  2
SLDDIMSTYLE1
 70
         0
  3

  4

 40
1.0
 41
3.0
 42
0.0625
 43
0.38
 44
1.0
 45
0.0
 46
0.0
 47
0.0
 48
0.0
 71
         0
 72
         0
 73
         1
 74
         1
 75
         0
 76
         0
 77
         0
 78
        12
 79
         0
140
3.5
141
0.09
142
0.0
143
25.4
144
1.0
145
0.0
146
1.0
147
0.875
148
0.0
170
         0
171
         2
172
         0
173
         1
174
         0
175
         0
176
       255
177
       255
178
       255
179
         0
271
         2
272
         4
273
         2
274
         2
275
         0
276
         0
277
         2
278
        46
279
         0
280
         0
281
         0
282
         0
283
         1
284
        12
285
         0
286
         0
288
         0
340
17
341
0
342
0
343
10E
344
10E
371
        -2
372
        -2
  0
DIMSTYLE
105
17B
100
AcDbSymbolTableRecord
100
AcDbDimStyleTableRecord
  2
SLDDIMSTYLE2
 70
         0
  3

  4

 40
1.0
 41
3.0
 42
0.0625
 43
0.38
 44
0.0
 45
0.0
 46
0.0
 47
0.0
 48
0.0
 71
         0
 72
         0
 73
         1
 74
         1
 75
         0
 76
         0
 77
         0
 78
         0
 79
         0
140
6.0
141
0.09
142
0.0
143
25.4
144
1.0
145
0.0
146
1.0
147
1.5
148
0.0
170
         0
171
         2
172
         0
173
         1
174
         0
175
         0
176
         0
177
         0
178
         0
179
         0
271
         0
272
         0
273
         2
274
         2
275
         0
276
         0
277
         2
278
        46
279
         0
280
         0
281
         0
282
         0
283
         1
284
         0
285
         0
286
         0
288
         0
340
17
341
0
342
0
343
0
344
0
371
        -2
372
        -2
  0
DIMSTYLE
105
18C
100
AcDbSymbolTableRecord
100
AcDbDimStyleTableRecord
  2
SLDDIMSTYLE3
 70
         0
  3

  4

 40
1.0
 41
1.0
 42
0.0625
 43
0.38
 44
0.0
 45
0.0
 46
0.0
 47
0.0
 48
0.0
 71
         0
 72
         0
 73
         1
 74
         1
 75
         0
 76
         0
 77
         0
 78
         0
 79
         0
140
6.0
141
0.09
142
0.0
143
25.4
144
1.0
145
0.0
146
1.0
147
1.5
148
0.0
170
         0
171
         2
172
         0
173
         1
174
         0
175
         0
176
         0
177
         0
178
         0
179
         0
271
         0
272
         0
273
         2
274
         2
275
         0
276
         0
277
         2
278
        46
279
         0
280
         0
281
         0
282
         0
283
         1
284
         0
285
         0
286
         0
288
         0
340
17
341
0
342
0
343
184
344
184
371
        -2
372
        -2
  0
DIMSTYLE
105
23C
100
AcDbSymbolTableRecord
100
AcDbDimStyleTableRecord
  2
SLDDIMSTYLE4
 70
         0
  3

  4

 40
1.0
 41
3.0
 42
0.0625
 43
0.38
 44
1.0
 45
0.0
 46
0.0
 47
0.0
 48
0.0
 71
         0
 72
         0
 73
         1
 74
         1
 75
         0
 76
         0
 77
         0
 78
        12
 79
         0
140
3.5
141
0.09
142
0.0
143
25.4
144
1.0
145
0.0
146
1.0
147
0.875
148
0.0
170
         0
171
         2
172
         0
173
         1
174
         0
175
         0
176
       255
177
       255
178
       255
179
         0
271
         2
272
         4
273
         2
274
         2
275
         0
276
         0
277
         2
278
        46
279
         0
280
         0
281
         0
282
         0
283
         1
284
        12
285
         0
286
         0
288
         0
340
17
341
0
342
0
343
0
344
0
371
        -2
372
        -2
  0
ENDTAB
  0
TABLE
  2
BLOCK_RECORD
  5
1
100
AcDbSymbolTable
 70
        26
  0
BLOCK_RECORD
  5
A
100
AcDbSymbolTableRecord
100
AcDbBlockTableRecord
  2
*MODEL_SPACE
340
20
  0
BLOCK_RECORD
  5
B
100
AcDbSymbolTableRecord
100
AcDbBlockTableRecord
  2
*PAPER_SPACE
340
21
  0
BLOCK_RECORD
  5
109
100
AcDbSymbolTableRecord
100
AcDbBlockTableRecord
  2
*D0
340
0
  0
BLOCK_RECORD
  5
10E
100
AcDbSymbolTableRecord
100
AcDbBlockTableRecord
  2
_NONE
340
0
  0
BLOCK_RECORD
  5
115
100
AcDbSymbolTableRecord
100
AcDbBlockTableRecord
  2
*D2
340
0
  0
BLOCK_RECORD
  5
11E
100
AcDbSymbolTableRecord
100
AcDbBlockTableRecord
  2
*D3
340
0
  0
BLOCK_RECORD
  5
126
100
AcDbSymbolTableRecord
100
AcDbBlockTableRecord
  2
*D4
340
0
  0
BLOCK_RECORD
  5
12E
100
AcDbSymbolTableRecord
100
AcDbBlockTableRecord
  2
*D5
340
0
  0
BLOCK_RECORD
  5
136
100
AcDbSymbolTableRecord
100
AcDbBlockTableRecord
  2
*D6
340
0
  0
BLOCK_RECORD
  5
13E
100
AcDbSymbolTableRecord
100
AcDbBlockTableRecord
  2
*D7
340
0
  0
BLOCK_RECORD
  5
146
100
AcDbSymbolTableRecord
100
AcDbBlockTableRecord
  2
*D8
340
0
  0
BLOCK_RECORD
  5
14E
100
AcDbSymbolTableRecord
100
AcDbBlockTableRecord
  2
*D9
340
0
  0
BLOCK_RECORD
  5
156
100
AcDbSymbolTableRecord
100
AcDbBlockTableRecord
  2
*D10
340
0
  0
BLOCK_RECORD
  5
160
100
AcDbSymbolTableRecord
100
AcDbBlockTableRecord
  2
*D11
340
0
  0
BLOCK_RECORD
  5
168
100
AcDbSymbolTableRecord
100
AcDbBlockTableRecord
  2
*D12
340
0
  0
BLOCK_RECORD
  5
170
100
AcDbSymbolTableRecord
100
AcDbBlockTableRecord
  2
*D13
340
0
  0
BLOCK_RECORD
  5
184
100
AcDbSymbolTableRecord
100
AcDbBlockTableRecord
  2
_DOT
340
0
  0
BLOCK_RECORD
  5
232
100
AcDbSymbolTableRecord
100
AcDbBlockTableRecord
  2
*D15
340
0
  0
BLOCK_RECORD
  5
241
100
AcDbSymbolTableRecord
100
AcDbBlockTableRecord
  2
*D16
340
0
  0
BLOCK_RECORD
  5
24F
100
AcDbSymbolTableRecord
100
AcDbBlockTableRecord
  2
*D17
340
0
  0
BLOCK_RECORD
  5
25D
100
AcDbSymbolTableRecord
100
AcDbBlockTableRecord
  2
*D18
340
0
  0
BLOCK_RECORD
  5
26A
100
AcDbSymbolTableRecord
100
AcDbBlockTableRecord
  2
*D19
340
0
  0
BLOCK_RECORD
  5
277
100
AcDbSymbolTableRecord
100
AcDbBlockTableRecord
  2
*D20
340
0
  0
BLOCK_RECORD
  5
285
100
AcDbSymbolTableRecord
100
AcDbBlockTableRecord
  2
*D21
340
0
  0
BLOCK_RECORD
  5
292
100
AcDbSymbolTableRecord
100
AcDbBlockTableRecord
  2
*D22
340
0
  0
BLOCK_RECORD
  5
2EE
100
AcDbSymbolTableRecord
100
AcDbBlockTableRecord
  2
*D23
340
0
  0
BLOCK_RECORD
  5
2FC
100
AcDbSymbolTableRecord
100
AcDbBlockTableRecord
  2
*D24
340
0
  0
BLOCK_RECORD
  5
309
100
AcDbSymbolTableRecord
100
AcDbBlockTableRecord
  2
*D25
340
0
  0
ENDTAB
  0
ENDSEC
  0
SECTION
  2
BLOCKS
  0
BLOCK
  5
D
100
AcDbEntity
  8
0
100
AcDbBlockBegin
  2
*MODEL_SPACE
 70
         0
 10
0.0
 20
0.0
 30
0.0
  3
*MODEL_SPACE
  1

  0
ENDBLK
  5
E
100
AcDbEntity
  8
0
100
AcDbBlockEnd
  0
BLOCK
  5
F
100
AcDbEntity
 67
         1
  8
0
100
AcDbBlockBegin
  2
*PAPER_SPACE
 70
         0
 10
0.0
 20
0.0
 30
0.0
  3
*PAPER_SPACE
  1

  0
ENDBLK
  5
10
100
AcDbEntity
 67
         1
  8
0
100
AcDbBlockEnd
  0
BLOCK
  5
10A
100
AcDbEntity
  8
0
 62
       255
100
AcDbBlockBegin
  2
*D0
 70
         1
 10
0.0
 20
0.0
 30
0.0
  3
*D0
  1

  0
MTEXT
  5
10B
100
AcDbEntity
  8
0
 62
         7
100
AcDbMText
 10
48.9762936479
 20
168.7824694269
 30
0.0
 40
3.5
 41
0.0
 71
         7
 72
         1
  1
0
  7
SLDTEXTSTYLE0
 11
0.0
 21
1.0
 31
0.0
 73
         1
 44
1.0
  0
LINE
  5
10C
100
AcDbEntity
  8
0
100
AcDbLine
 10
47.6977153346
 20
178.8529726674
 30
0.0
 11
47.6977153346
 21
172.9549935233
 31
0.0
  0
POINT
  5
111
100
AcDbEntity
  8
0
 62
         7
100
AcDbPoint
 10
47.6977153346
 20
179.8529726674
 30
0.0
  0
POINT
  5
112
100
AcDbEntity
  8
0
 62
         7
100
AcDbPoint
 10
47.6977153346
 20
172.9549935233
 30
0.0
  0
ENDBLK
  5
113
100
AcDbEntity
  8
0
100
AcDbBlockEnd
  0
BLOCK
  5
10F
100
AcDbEntity
  8
0
100
AcDbBlockBegin
  2
_NONE
 70
         0
 10
0.0
 20
0.0
 30
0.0
  3
_NONE
  1

  0
ENDBLK
  5
110
100
AcDbEntity
  8
0
100
AcDbBlockEnd
  0
BLOCK
  5
116
100
AcDbEntity
  8
0
 62
       255
100
AcDbBlockBegin
  2
*D2
 70
         1
 10
0.0
 20
0.0
 30
0.0
  3
*D2
  1

  0
MTEXT
  5
117
100
AcDbEntity
  8
0
 62
         7
100
AcDbMText
 10
58.9762936479
 20
166.1974453305
 30
0.0
 40
3.5
 41
0.0
 71
         7
 72
         1
  1
10
  7
SLDTEXTSTYLE0
 11
0.0
 21
1.0
 31
0.0
 73
         1
 44
1.0
  0
LINE
  5
118
100
AcDbEntity
  8
0
100
AcDbLine
 10
57.6977153346
 20
188.8529726674
 30
0.0
 11
57.6977153346
 21
172.9549935233
 31
0.0
  0
POINT
  5
11A
100
AcDbEntity
  8
0
 62
         7
100
AcDbPoint
 10
57.6977153346
 20
189.8529726674
 30
0.0
  0
POINT
  5
11B
100
AcDbEntity
  8
0
 62
         7
100
AcDbPoint
 10
57.6977153346
 20
172.9549935233
 30
0.0
  0
ENDBLK
  5
11C
100
AcDbEntity
  8
0
100
AcDbBlockEnd
  0
BLOCK
  5
11F
100
AcDbEntity
  8
0
 62
       255
100
AcDbBlockBegin
  2
*D3
 70
         1
 10
0.0
 20
0.0
 30
0.0
  3
*D3
  1

  0
MTEXT
  5
120
100
AcDbEntity
  8
0
 62
         7
100
AcDbMText
 10
93.9762936479
 20
166.1974453305
 30
0.0
 40
3.5
 41
0.0
 71
         7
 72
         1
  1
45
  7
SLDTEXTSTYLE0
 11
0.0
 21
1.0
 31
0.0
 73
         1
 44
1.0
  0
LINE
  5
121
100
AcDbEntity
  8
0
100
AcDbLine
 10
92.6977153346
 20
213.8529726674
 30
0.0
 11
92.6977153346
 21
172.9549935233
 31
0.0
  0
POINT
  5
122
100
AcDbEntity
  8
0
 62
         7
100
AcDbPoint
 10
92.6977153346
 20
214.8529726674
 30
0.0
  0
POINT
  5
123
100
AcDbEntity
  8
0
 62
         7
100
AcDbPoint
 10
92.6977153346
 20
172.9549935233
 30
0.0
  0
ENDBLK
  5
124
100
AcDbEntity
  8
0
100
AcDbBlockEnd
  0
BLOCK
  5
127
100
AcDbEntity
  8
0
 62
       255
100
AcDbBlockBegin
  2
*D4
 70
         1
 10
0.0
 20
0.0
 30
0.0
  3
*D4
  1

  0
MTEXT
  5
128
100
AcDbEntity
  8
0
 62
         7
100
AcDbMText
 10
168.9762936479
 20
163.6124212342
 30
0.0
 40
3.5
 41
0.0
 71
         7
 72
         1
  1
120
  7
SLDTEXTSTYLE0
 11
0.0
 21
1.0
 31
0.0
 73
         1
 44
1.0
  0
LINE
  5
129
100
AcDbEntity
  8
0
100
AcDbLine
 10
167.6977153346
 20
213.8529726674
 30
0.0
 11
167.6977153346
 21
172.9549935233
 31
0.0
  0
POINT
  5
12A
100
AcDbEntity
  8
0
 62
         7
100
AcDbPoint
 10
167.6977153346
 20
214.8529726674
 30
0.0
  0
POINT
  5
12B
100
AcDbEntity
  8
0
 62
         7
100
AcDbPoint
 10
167.6977153346
 20
172.9549935233
 30
0.0
  0
ENDBLK
  5
12C
100
AcDbEntity
  8
0
100
AcDbBlockEnd
  0
BLOCK
  5
12F
100
AcDbEntity
  8
0
 62
       255
100
AcDbBlockBegin
  2
*D5
 70
         1
 10
0.0
 20
0.0
 30
0.0
  3
*D5
  1

  0
MTEXT
  5
130
100
AcDbEntity
  8
0
 62
         7
100
AcDbMText
 10
188.9762936479
 20
163.6124212342
 30
0.0
 40
3.5
 41
0.0
 71
         7
 72
         1
  1
140
  7
SLDTEXTSTYLE0
 11
0.0
 21
1.0
 31
0.0
 73
         1
 44
1.0
  0
LINE
  5
131
100
AcDbEntity
  8
0
100
AcDbLine
 10
187.6977153346
 20
238.8529726674
 30
0.0
 11
187.6977153346
 21
172.9549935233
 31
0.0
  0
POINT
  5
132
100
AcDbEntity
  8
0
 62
         7
100
AcDbPoint
 10
187.6977153346
 20
239.8529726674
 30
0.0
  0
POINT
  5
133
100
AcDbEntity
  8
0
 62
         7
100
AcDbPoint
 10
187.6977153346
 20
172.9549935233
 30
0.0
  0
ENDBLK
  5
134
100
AcDbEntity
  8
0
100
AcDbBlockEnd
  0
BLOCK
  5
137
100
AcDbEntity
  8
0
 62
       255
100
AcDbBlockBegin
  2
*D6
 70
         1
 10
0.0
 20
0.0
 30
0.0
  3
*D6
  1

  0
MTEXT
  5
138
100
AcDbEntity
  8
0
 62
         7
100
AcDbMText
 10
198.9762936479
 20
163.6124212342
 30
0.0
 40
3.5
 41
0.0
 71
         7
 72
         1
  1
150
  7
SLDTEXTSTYLE0
 11
0.0
 21
1.0
 31
0.0
 73
         1
 44
1.0
  0
LINE
  5
139
100
AcDbEntity
  8
0
100
AcDbLine
 10
197.6977153346
 20
178.8529726674
 30
0.0
 11
197.6977153346
 21
172.9549935233
 31
0.0
  0
POINT
  5
13A
100
AcDbEntity
  8
0
 62
         7
100
AcDbPoint
 10
197.6977153346
 20
179.8529726674
 30
0.0
  0
POINT
  5
13B
100
AcDbEntity
  8
0
 62
         7
100
AcDbPoint
 10
197.6977153346
 20
172.9549935233
 30
0.0
  0
ENDBLK
  5
13C
100
AcDbEntity
  8
0
100
AcDbBlockEnd
  0
BLOCK
  5
13F
100
AcDbEntity
  8
0
 62
       255
100
AcDbBlockBegin
  2
*D7
 70
         1
 10
0.0
 20
0.0
 30
0.0
  3
*D7
  1

  0
MTEXT
  5
140
100
AcDbEntity
  8
0
 62
         7
100
AcDbMText
 10
72.0600102898
 20
159.737035692
 30
0.0
 40
3.5
 41
0.0
 71
         7
 72
         1
  1
23,08
  7
SLDTEXTSTYLE0
 11
0.0
 21
1.0
 31
0.0
 73
         1
 44
1.0
  0
LINE
  5
141
100
AcDbEntity
  8
0
100
AcDbLine
 10
70.7814319766
 20
211.9355463269
 30
0.0
 11
70.7814319766
 21
172.9549935233
 31
0.0
  0
POINT
  5
142
100
AcDbEntity
  8
0
 62
         7
100
AcDbPoint
 10
70.7814319766
 20
212.9355463269
 30
0.0
  0
POINT
  5
143
100
AcDbEntity
  8
0
 62
         7
100
AcDbPoint
 10
70.7814319766
 20
172.9549935233
 30
0.0
  0
ENDBLK
  5
144
100
AcDbEntity
  8
0
100
AcDbBlockEnd
  0
BLOCK
  5
147
100
AcDbEntity
  8
0
 62
       255
100
AcDbBlockBegin
  2
*D8
 70
         1
 10
0.0
 20
0.0
 30
0.0
  3
*D8
  1

  0
MTEXT
  5
148
100
AcDbEntity
  8
0
 62
         7
100
AcDbMText
 10
211.9816620849
 20
178.5743943541
 30
0.0
 40
3.5
 41
0.0
 71
         7
 72
         1
  1
0
  7
SLDTEXTSTYLE0
 73
         1
 44
1.0
  0
LINE
  5
149
100
AcDbEntity
  8
0
100
AcDbLine
 10
198.6977153346
 20
179.8529726674
 30
0.0
 11
210.3941620849
 21
179.8529726674
 31
0.0
  0
POINT
  5
14A
100
AcDbEntity
  8
0
 62
         7
100
AcDbPoint
 10
197.6977153346
 20
179.8529726674
 30
0.0
  0
POINT
  5
14B
100
AcDbEntity
  8
0
 62
         7
100
AcDbPoint
 10
210.3941620849
 20
179.8529726674
 30
0.0
  0
ENDBLK
  5
14C
100
AcDbEntity
  8
0
100
AcDbBlockEnd
  0
BLOCK
  5
14F
100
AcDbEntity
  8
0
 62
       255
100
AcDbBlockBegin
  2
*D9
 70
         1
 10
0.0
 20
0.0
 30
0.0
  3
*D9
  1

  0
MTEXT
  5
150
100
AcDbEntity
  8
0
 62
         7
100
AcDbMText
 10
211.9816620849
 20
238.5743943541
 30
0.0
 40
3.5
 41
0.0
 71
         7
 72
         1
  1
60
  7
SLDTEXTSTYLE0
 73
         1
 44
1.0
  0
LINE
  5
151
100
AcDbEntity
  8
0
100
AcDbLine
 10
188.6977153346
 20
239.8529726674
 30
0.0
 11
210.3941620849
 21
239.8529726674
 31
0.0
  0
POINT
  5
152
100
AcDbEntity
  8
0
 62
         7
100
AcDbPoint
 10
187.6977153346
 20
239.8529726674
 30
0.0
  0
POINT
  5
153
100
AcDbEntity
  8
0
 62
         7
100
AcDbPoint
 10
210.3941620849
 20
239.8529726674
 30
0.0
  0
ENDBLK
  5
154
100
AcDbEntity
  8
0
100
AcDbBlockEnd
  0
BLOCK
  5
157
100
AcDbEntity
  8
0
 62
       255
100
AcDbBlockBegin
  2
*D10
 70
         1
 10
0.0
 20
0.0
 30
0.0
  3
*D10
  1

  0
MTEXT
  5
158
100
AcDbEntity
  8
0
 62
         7
100
AcDbMText
 10
211.9816620849
 20
220.5752615058
 30
0.0
 40
3.5
 41
0.0
 71
         7
 72
         1
  1
35
  7
SLDTEXTSTYLE0
 73
         1
 44
1.0
  0
LINE
  5
159
100
AcDbEntity
  8
0
100
AcDbLine
 10
205.3941620849
 20
221.8538398191
 30
0.0
 11
210.3941620849
 21
221.8538398191
 31
0.0
  0
LINE
  5
15A
100
AcDbEntity
  8
0
100
AcDbLine
 10
205.3941620849
 20
221.8538398191
 30
0.0
 11
200.3941620849
 21
214.8529726674
 31
0.0
  0
LINE
  5
15B
100
AcDbEntity
  8
0
100
AcDbLine
 10
200.3941620849
 20
214.8529726674
 30
0.0
 11
93.6977153346
 21
214.8529726674
 31
0.0
  0
POINT
  5
15C
100
AcDbEntity
  8
0
 62
         7
100
AcDbPoint
 10
92.6977153346
 20
214.8529726674
 30
0.0
  0
POINT
  5
15D
100
AcDbEntity
  8
0
 62
         7
100
AcDbPoint
 10
210.3941620849
 20
221.8538398191
 30
0.0
  0
ENDBLK
  5
15E
100
AcDbEntity
  8
0
100
AcDbBlockEnd
  0
BLOCK
  5
161
100
AcDbEntity
  8
0
 62
       255
100
AcDbBlockBegin
  2
*D11
 70
         1
 10
0.0
 20
0.0
 30
0.0
  3
*D11
  1

  0
MTEXT
  5
162
100
AcDbEntity
  8
0
 62
         7
100
AcDbMText
 10
211.9816620849
 20
188.5743943541
 30
0.0
 40
3.5
 41
0.0
 71
         7
 72
         1
  1
10
  7
SLDTEXTSTYLE0
 73
         1
 44
1.0
  0
LINE
  5
163
100
AcDbEntity
  8
0
100
AcDbLine
 10
58.6977153346
 20
189.8529726674
 30
0.0
 11
210.3941620849
 21
189.8529726674
 31
0.0
  0
POINT
  5
164
100
AcDbEntity
  8
0
 62
         7
100
AcDbPoint
 10
57.6977153346
 20
189.8529726674
 30
0.0
  0
POINT
  5
165
100
AcDbEntity
  8
0
 62
         7
100
AcDbPoint
 10
210.3941620849
 20
189.8529726674
 30
0.0
  0
ENDBLK
  5
166
100
AcDbEntity
  8
0
100
AcDbBlockEnd
  0
BLOCK
  5
169
100
AcDbEntity
  8
0
 62
       255
100
AcDbBlockBegin
  2
*D12
 70
         1
 10
0.0
 20
0.0
 30
0.0
  3
*D12
  1

  0
MTEXT
  5
16A
100
AcDbEntity
  8
0
 62
         7
100
AcDbMText
 10
211.9816620849
 20
248.5743943541
 30
0.0
 40
3.5
 41
0.0
 71
         7
 72
         1
  1
70
  7
SLDTEXTSTYLE0
 73
         1
 44
1.0
  0
LINE
  5
16B
100
AcDbEntity
  8
0
100
AcDbLine
 10
198.6977153346
 20
249.8529726674
 30
0.0
 11
210.3941620849
 21
249.8529726674
 31
0.0
  0
POINT
  5
16C
100
AcDbEntity
  8
0
 62
         7
100
AcDbPoint
 10
197.6977153346
 20
249.8529726674
 30
0.0
  0
POINT
  5
16D
100
AcDbEntity
  8
0
 62
         7
100
AcDbPoint
 10
210.3941620849
 20
249.8529726674
 30
0.0
  0
ENDBLK
  5
16E
100
AcDbEntity
  8
0
100
AcDbBlockEnd
  0
BLOCK
  5
171
100
AcDbEntity
  8
0
 62
       255
100
AcDbBlockBegin
  2
*D13
 70
         1
 10
0.0
 20
0.0
 30
0.0
  3
*D13
  1

  0
MTEXT
  5
172
100
AcDbEntity
  8
0
 62
         7
100
AcDbMText
 10
211.9816620849
 20
203.4778934311
 30
0.0
 40
3.5
 41
0.0
 71
         7
 72
         1
  1
33,08
  7
SLDTEXTSTYLE0
 73
         1
 44
1.0
  0
LINE
  5
173
100
AcDbEntity
  8
0
100
AcDbLine
 10
205.3941620849
 20
204.7564717443
 30
0.0
 11
210.3941620849
 21
204.7564717443
 31
0.0
  0
LINE
  5
174
100
AcDbEntity
  8
0
100
AcDbLine
 10
205.3941620849
 20
204.7564717443
 30
0.0
 11
200.3941620849
 21
212.9355463269
 31
0.0
  0
LINE
  5
175
100
AcDbEntity
  8
0
100
AcDbLine
 10
200.3941620849
 20
212.9355463269
 30
0.0
 11
71.7814319766
 21
212.9355463269
 31
0.0
  0
POINT
  5
176
100
AcDbEntity
  8
0
 62
         7
100
AcDbPoint
 10
70.7814319766
 20
212.9355463269
 30
0.0
  0
POINT
  5
177
100
AcDbEntity
  8
0
 62
         7
100
AcDbPoint
 10
210.3941620849
 20
204.7564717443
 30
0.0
  0
ENDBLK
  5
178
100
AcDbEntity
  8
0
100
AcDbBlockEnd
  0
BLOCK
  5
185
100
AcDbEntity
  8
0
100
AcDbBlockBegin
  2
_DOT
 70
         0
 10
0.0
 20
0.0
 30
0.0
  3
_DOT
  1

  0
POLYLINE
  5
186
100
AcDbEntity
  8
0
100
AcDb2dPolyline
 66
         1
 10
0.0
 20
0.0
 30
0.0
 70
         1
 40
0.5
 41
0.5
  0
VERTEX
  5
187
100
AcDbEntity
  8
0
100
AcDbVertex
100
AcDb2dVertex
 10
-0.25
 20
0.0
 30
0.0
 42
1.0
  0
VERTEX
  5
188
100
AcDbEntity
  8
0
100
AcDbVertex
100
AcDb2dVertex
 10
0.25
 20
0.0
 30
0.0
 42
1.0
  0
SEQEND
  5
189
100
AcDbEntity
  8
0
  0
LINE
  5
18A
100
AcDbEntity
  8
0
100
AcDbLine
 10
-0.5
 20
0.0
 30
0.0
 11
-1.0
 21
0.0
 31
0.0
  0
ENDBLK
  5
18B
100
AcDbEntity
  8
0
100
AcDbBlockEnd
  0
BLOCK
  5
233
100
AcDbEntity
  8
0
 62
       255
100
AcDbBlockBegin
  2
*D15
 70
         1
 10
0.0
 20
0.0
 30
0.0
  3
*D15
  1

  0
MTEXT
  5
234
100
AcDbEntity
  8
0
 62
         7
100
AcDbMText
 10
219.1550786592
 20
100.5752852895
 30
0.0
 40
3.5
 41
0.0
 71
         7
 72
         1
  1
15
  7
SLDTEXTSTYLE0
 11
0.0
 21
1.0
 31
0.0
 73
         1
 44
1.0
  0
LINE
  5
235
100
AcDbEntity
  8
0
100
AcDbLine
 10
228.3338302157
 20
109.2791810176
 30
0.0
 11
219.6568243345
 21
109.2791810176
 31
0.0
  0
LINE
  5
236
100
AcDbEntity
  8
0
100
AcDbLine
 10
228.3338302157
 20
94.2791810176
 30
0.0
 11
219.6568243345
 21
94.2791810176
 31
0.0
  0
LINE
  5
237
100
AcDbEntity
  8
0
100
AcDbLine
 10
220.6550786592
 20
109.2791810176
 30
0.0
 11
220.6550786592
 21
114.2791810176
 31
0.0
  0
LINE
  5
238
100
AcDbEntity
  8
0
100
AcDbLine
 10
220.6550786592
 20
109.2791810176
 30
0.0
 11
220.6550786592
 21
94.2791810176
 31
0.0
  0
LINE
  5
239
100
AcDbEntity
  8
0
100
AcDbLine
 10
220.6550786592
 20
94.2791810176
 30
0.0
 11
220.6550786592
 21
89.2791810176
 31
0.0
  0
SOLID
  5
23A
100
AcDbEntity
  8
0
 62
       255
100
AcDbTrace
 10
220.6550786592
 20
109.2791810176
 30
0.0
 11
221.1050786592
 21
112.2791810176
 31
0.0
 12
220.2050786592
 22
112.2791810176
 32
0.0
 13
220.2050786592
 23
112.2791810176
 33
0.0
  0
SOLID
  5
23B
100
AcDbEntity
  8
0
 62
       255
100
AcDbTrace
 10
220.6550786592
 20
94.2791810176
 30
0.0
 11
220.2050786592
 21
91.2791810176
 31
0.0
 12
221.1050786592
 22
91.2791810176
 32
0.0
 13
221.1050786592
 23
91.2791810176
 33
0.0
  0
POINT
  5
23D
100
AcDbEntity
  8
0
 62
         7
100
AcDbPoint
 10
229.3320845404
 20
109.2791810176
 30
0.0
  0
POINT
  5
23E
100
AcDbEntity
  8
0
 62
         7
100
AcDbPoint
 10
229.3320845404
 20
94.2791810176
 30
0.0
  0
ENDBLK
  5
23F
100
AcDbEntity
  8
0
 62
       255
100
AcDbBlockEnd
  0
BLOCK
  5
242
100
AcDbEntity
  8
0
 62
       255
100
AcDbBlockBegin
  2
*D16
 70
         1
 10
0.0
 20
0.0
 30
0.0
  3
*D16
  1

  0
MTEXT
  5
243
100
AcDbEntity
  8
0
 62
         7
100
AcDbMText
 10
235.4863866544
 20
84.9631298758
 30
0.0
 40
3.5
 41
0.0
 71
         7
 72
         1
  1
6
  7
SLDTEXTSTYLE0
 11
0.0
 21
1.0
 31
0.0
 73
         1
 44
1.0
  0
LINE
  5
244
100
AcDbEntity
  8
0
100
AcDbLine
 10
247.5573696413
 20
100.2791810176
 30
0.0
 11
235.9881323296
 21
100.2791810176
 31
0.0
  0
LINE
  5
245
100
AcDbEntity
  8
0
100
AcDbLine
 10
247.5573696413
 20
94.2791810176
 30
0.0
 11
235.9881323296
 21
94.2791810176
 31
0.0
  0
LINE
  5
246
100
AcDbEntity
  8
0
100
AcDbLine
 10
236.9863866544
 20
100.2791810176
 30
0.0
 11
236.9863866544
 21
105.2791810176
 31
0.0
  0
LINE
  5
247
100
AcDbEntity
  8
0
100
AcDbLine
 10
236.9863866544
 20
100.2791810176
 30
0.0
 11
236.9863866544
 21
94.2791810176
 31
0.0
  0
LINE
  5
248
100
AcDbEntity
  8
0
100
AcDbLine
 10
236.9863866544
 20
94.2791810176
 30
0.0
 11
236.9863866544
 21
83.3756298758
 31
0.0
  0
SOLID
  5
249
100
AcDbEntity
  8
0
 62
       255
100
AcDbTrace
 10
236.9863866544
 20
100.2791810176
 30
0.0
 11
237.4363866544
 21
103.2791810176
 31
0.0
 12
236.5363866544
 22
103.2791810176
 32
0.0
 13
236.5363866544
 23
103.2791810176
 33
0.0
  0
SOLID
  5
24A
100
AcDbEntity
  8
0
 62
       255
100
AcDbTrace
 10
236.9863866544
 20
94.2791810176
 30
0.0
 11
236.5363866544
 21
91.2791810176
 31
0.0
 12
237.4363866544
 22
91.2791810176
 32
0.0
 13
237.4363866544
 23
91.2791810176
 33
0.0
  0
POINT
  5
24B
100
AcDbEntity
  8
0
 62
         7
100
AcDbPoint
 10
248.555623966
 20
100.2791810176
 30
0.0
  0
POINT
  5
24C
100
AcDbEntity
  8
0
 62
         7
100
AcDbPoint
 10
248.555623966
 20
94.2791810176
 30
0.0
  0
ENDBLK
  5
24D
100
AcDbEntity
  8
0
 62
       255
100
AcDbBlockEnd
  0
BLOCK
  5
250
100
AcDbEntity
  8
0
 62
       255
100
AcDbBlockBegin
  2
*D17
 70
         1
 10
0.0
 20
0.0
 30
0.0
  3
*D17
  1

  0
MTEXT
  5
251
100
AcDbEntity
  8
0
 62
         7
100
AcDbMText
 10
242.08388909
 20
112.0138352777
 30
0.0
 40
3.5
 41
0.0
 71
         7
 72
         1
  1
3,50
  7
SLDTEXTSTYLE0
 11
0.0
 21
1.0
 31
0.0
 73
         1
 44
1.0
  0
LINE
  5
252
100
AcDbEntity
  8
0
100
AcDbLine
 10
245.6714822779
 20
105.7791810176
 30
0.0
 11
242.5856347652
 21
105.7791810176
 31
0.0
  0
LINE
  5
253
100
AcDbEntity
  8
0
100
AcDbLine
 10
249.6076214445
 20
109.2791810176
 30
0.0
 11
242.5856347652
 21
109.2791810176
 31
0.0
  0
LINE
  5
254
100
AcDbEntity
  8
0
100
AcDbLine
 10
243.58388909
 20
105.7791810176
 30
0.0
 11
243.58388909
 21
100.7791810176
 31
0.0
  0
LINE
  5
255
100
AcDbEntity
  8
0
100
AcDbLine
 10
243.58388909
 20
105.7791810176
 30
0.0
 11
243.58388909
 21
109.2791810176
 31
0.0
  0
LINE
  5
256
100
AcDbEntity
  8
0
100
AcDbLine
 10
243.58388909
 20
109.2791810176
 30
0.0
 11
243.58388909
 21
122.6467690126
 31
0.0
  0
SOLID
  5
257
100
AcDbEntity
  8
0
 62
       255
100
AcDbTrace
 10
243.58388909
 20
105.7791810176
 30
0.0
 11
243.13388909
 21
102.7791810176
 31
0.0
 12
244.03388909
 22
102.7791810176
 32
0.0
 13
244.03388909
 23
102.7791810176
 33
0.0
  0
SOLID
  5
258
100
AcDbEntity
  8
0
 62
       255
100
AcDbTrace
 10
243.58388909
 20
109.2791810176
 30
0.0
 11
244.03388909
 21
112.2791810176
 31
0.0
 12
243.13388909
 22
112.2791810176
 32
0.0
 13
243.13388909
 23
112.2791810176
 33
0.0
  0
POINT
  5
259
100
AcDbEntity
  8
0
 62
         7
100
AcDbPoint
 10
246.6697366027
 20
105.7791810176
 30
0.0
  0
POINT
  5
25A
100
AcDbEntity
  8
0
 62
         7
100
AcDbPoint
 10
250.6058757692
 20
109.2791810176
 30
0.0
  0
ENDBLK
  5
25B
100
AcDbEntity
  8
0
 62
       255
100
AcDbBlockEnd
  0
BLOCK
  5
25E
100
AcDbEntity
  8
0
 62
       255
100
AcDbBlockBegin
  2
*D18
 70
         1
 10
0.0
 20
0.0
 30
0.0
  3
*D18
  1

  0
MTEXT
  5
25F
100
AcDbEntity
  8
0
 62
         7
100
AcDbMText
 10
293.2265243273
 20
116.1585332255
 30
0.0
 40
3.5
 41
0.0
 71
         7
 72
         1
  1
6
  7
SLDTEXTSTYLE0
 11
0.0
 21
1.0
 31
0.0
 73
         1
 44
1.0
  0
LINE
  5
260
100
AcDbEntity
  8
0
100
AcDbLine
 10
288.5266219631
 20
103.2791810176
 30
0.0
 11
295.7247786521
 21
103.2791810176
 31
0.0
  0
LINE
  5
261
100
AcDbEntity
  8
0
100
AcDbLine
 10
294.7265243273
 20
103.2791810176
 30
0.0
 11
294.7265243273
 21
98.2791810176
 31
0.0
  0
LINE
  5
262
100
AcDbEntity
  8
0
100
AcDbLine
 10
294.7265243273
 20
103.2791810176
 30
0.0
 11
294.7265243273
 21
109.2791810176
 31
0.0
  0
LINE
  5
263
100
AcDbEntity
  8
0
100
AcDbLine
 10
294.7265243273
 20
109.2791810176
 30
0.0
 11
294.7265243273
 21
120.3310573218
 31
0.0
  0
SOLID
  5
264
100
AcDbEntity
  8
0
 62
       255
100
AcDbTrace
 10
294.7265243273
 20
103.2791810176
 30
0.0
 11
294.2765243273
 21
100.2791810176
 31
0.0
 12
295.1765243273
 22
100.2791810176
 32
0.0
 13
295.1765243273
 23
100.2791810176
 33
0.0
  0
SOLID
  5
265
100
AcDbEntity
  8
0
 62
       255
100
AcDbTrace
 10
294.7265243273
 20
109.2791810176
 30
0.0
 11
295.1765243273
 21
112.2791810176
 31
0.0
 12
294.2765243273
 22
112.2791810176
 32
0.0
 13
294.2765243273
 23
112.2791810176
 33
0.0
  0
POINT
  5
266
100
AcDbEntity
  8
0
 62
         7
100
AcDbPoint
 10
287.5283676383
 20
103.2791810176
 30
0.0
  0
POINT
  5
267
100
AcDbEntity
  8
0
 62
         7
100
AcDbPoint
 10
288.5248793352
 20
109.2791810176
 30
0.0
  0
ENDBLK
  5
268
100
AcDbEntity
  8
0
 62
       255
100
AcDbBlockEnd
  0
BLOCK
  5
26B
100
AcDbEntity
  8
0
 62
       255
100
AcDbBlockBegin
  2
*D19
 70
         1
 10
0.0
 20
0.0
 30
0.0
  3
*D19
  1

  0
MTEXT
  5
26C
100
AcDbEntity
  8
0
 62
         7
100
AcDbMText
 10
265.4503688153
 20
115.8068593459
 30
0.0
 40
3.5
 41
0.0
 71
         7
 72
         1
  1
6
  7
SLDTEXTSTYLE0
 11
0.0
 21
1.0
 31
0.0
 73
         1
 44
1.0
  0
LINE
  5
26D
100
AcDbEntity
  8
0
100
AcDbLine
 10
263.2152248623
 20
103.2791810176
 30
0.0
 11
267.94862314
 21
103.2791810176
 31
0.0
  0
LINE
  5
26E
100
AcDbEntity
  8
0
100
AcDbLine
 10
266.9503688153
 20
103.2791810176
 30
0.0
 11
266.9503688153
 21
98.2791810176
 31
0.0
  0
LINE
  5
26F
100
AcDbEntity
  8
0
100
AcDbLine
 10
266.9503688153
 20
103.2791810176
 30
0.0
 11
266.9503688153
 21
109.2791810176
 31
0.0
  0
LINE
  5
270
100
AcDbEntity
  8
0
100
AcDbLine
 10
266.9503688153
 20
109.2791810176
 30
0.0
 11
266.9503688153
 21
119.9793834423
 31
0.0
  0
SOLID
  5
271
100
AcDbEntity
  8
0
 62
       255
100
AcDbTrace
 10
266.9503688153
 20
103.2791810176
 30
0.0
 11
266.5003688153
 21
100.2791810176
 31
0.0
 12
267.4003688153
 22
100.2791810176
 32
0.0
 13
267.4003688153
 23
100.2791810176
 33
0.0
  0
SOLID
  5
272
100
AcDbEntity
  8
0
 62
       255
100
AcDbTrace
 10
266.9503688153
 20
109.2791810176
 30
0.0
 11
267.4003688153
 21
112.2791810176
 31
0.0
 12
266.5003688153
 22
112.2791810176
 32
0.0
 13
266.5003688153
 23
112.2791810176
 33
0.0
  0
POINT
  5
273
100
AcDbEntity
  8
0
 62
         7
100
AcDbPoint
 10
262.2169705375
 20
103.2791810176
 30
0.0
  0
POINT
  5
274
100
AcDbEntity
  8
0
 62
         7
100
AcDbPoint
 10
263.2134822344
 20
109.2791810176
 30
0.0
  0
ENDBLK
  5
275
100
AcDbEntity
  8
0
 62
       255
100
AcDbBlockEnd
  0
BLOCK
  5
278
100
AcDbEntity
  8
0
 62
       255
100
AcDbBlockBegin
  2
*D20
 70
         1
 10
0.0
 20
0.0
 30
0.0
  3
*D20
  1

  0
MTEXT
  5
279
100
AcDbEntity
  8
0
 62
         7
100
AcDbMText
 10
373.3550492077
 20
115.0367364673
 30
0.0
 40
3.5
 41
0.0
 71
         7
 72
         1
  1
6
  7
SLDTEXTSTYLE0
 11
0.0
 21
1.0
 31
0.0
 73
         1
 44
1.0
  0
LINE
  5
27A
100
AcDbEntity
  8
0
100
AcDbLine
 10
369.1774349096
 20
103.2791810176
 30
0.0
 11
375.8533035324
 21
103.2791810176
 31
0.0
  0
LINE
  5
27B
100
AcDbEntity
  8
0
100
AcDbLine
 10
346.548515514
 20
109.2791810176
 30
0.0
 11
375.8533035324
 21
109.2791810176
 31
0.0
  0
LINE
  5
27C
100
AcDbEntity
  8
0
100
AcDbLine
 10
374.8550492077
 20
103.2791810176
 30
0.0
 11
374.8550492077
 21
98.2791810176
 31
0.0
  0
LINE
  5
27D
100
AcDbEntity
  8
0
100
AcDbLine
 10
374.8550492077
 20
103.2791810176
 30
0.0
 11
374.8550492077
 21
109.2791810176
 31
0.0
  0
LINE
  5
27E
100
AcDbEntity
  8
0
100
AcDbLine
 10
374.8550492077
 20
109.2791810176
 30
0.0
 11
374.8550492077
 21
119.2092605637
 31
0.0
  0
SOLID
  5
27F
100
AcDbEntity
  8
0
 62
       255
100
AcDbTrace
 10
374.8550492077
 20
103.2791810176
 30
0.0
 11
374.4050492077
 21
100.2791810176
 31
0.0
 12
375.3050492077
 22
100.2791810176
 32
0.0
 13
375.3050492077
 23
100.2791810176
 33
0.0
  0
SOLID
  5
280
100
AcDbEntity
  8
0
 62
       255
100
AcDbTrace
 10
374.8550492077
 20
109.2791810176
 30
0.0
 11
375.3050492077
 21
112.2791810176
 31
0.0
 12
374.4050492077
 22
112.2791810176
 32
0.0
 13
374.4050492077
 23
112.2791810176
 33
0.0
  0
POINT
  5
281
100
AcDbEntity
  8
0
 62
         7
100
AcDbPoint
 10
368.1791805849
 20
103.2791810176
 30
0.0
  0
POINT
  5
282
100
AcDbEntity
  8
0
 62
         7
100
AcDbPoint
 10
345.5502611892
 20
109.2791810176
 30
0.0
  0
ENDBLK
  5
283
100
AcDbEntity
  8
0
 62
       255
100
AcDbBlockEnd
  0
BLOCK
  5
286
100
AcDbEntity
  8
0
 62
       255
100
AcDbBlockBegin
  2
*D21
 70
         1
 10
0.0
 20
0.0
 30
0.0
  3
*D21
  1

  0
MTEXT
  5
287
100
AcDbEntity
  8
0
 62
         7
100
AcDbMText
 10
340.5158585723
 20
78.8550636107
 30
0.0
 40
3.5
 41
0.0
 71
         7
 72
         1
  1
6,50
  7
SLDTEXTSTYLE0
 11
0.0
 21
1.0
 31
0.0
 73
         1
 44
1.0
  0
LINE
  5
288
100
AcDbEntity
  8
0
100
AcDbLine
 10
344.6954618065
 20
100.7791810176
 30
0.0
 11
341.0158585723
 21
100.7791810176
 31
0.0
  0
LINE
  5
289
100
AcDbEntity
  8
0
100
AcDbLine
 10
342.0158585723
 20
100.7791810176
 30
0.0
 11
342.0158585723
 21
105.7791810176
 31
0.0
  0
LINE
  5
28A
100
AcDbEntity
  8
0
100
AcDbLine
 10
342.0158585723
 20
100.7791810176
 30
0.0
 11
342.0158585723
 21
94.2791810176
 31
0.0
  0
LINE
  5
28B
100
AcDbEntity
  8
0
100
AcDbLine
 10
342.0158585723
 20
94.2791810176
 30
0.0
 11
342.0158585723
 21
77.2675636107
 31
0.0
  0
SOLID
  5
28C
100
AcDbEntity
  8
0
 62
       255
100
AcDbTrace
 10
342.0158585723
 20
100.7791810176
 30
0.0
 11
342.4658585723
 21
103.7791810176
 31
0.0
 12
341.5658585723
 22
103.7791810176
 32
0.0
 13
341.5658585723
 23
103.7791810176
 33
0.0
  0
SOLID
  5
28D
100
AcDbEntity
  8
0
 62
       255
100
AcDbTrace
 10
342.0158585723
 20
94.2791810176
 30
0.0
 11
341.5658585723
 21
91.2791810176
 31
0.0
 12
342.4658585723
 22
91.2791810176
 32
0.0
 13
342.4658585723
 23
91.2791810176
 33
0.0
  0
POINT
  5
28E
100
AcDbEntity
  8
0
 62
         7
100
AcDbPoint
 10
345.6954618065
 20
100.7791810176
 30
0.0
  0
POINT
  5
28F
100
AcDbEntity
  8
0
 62
         7
100
AcDbPoint
 10
339.1954618065
 20
94.2791810176
 30
0.0
  0
ENDBLK
  5
290
100
AcDbEntity
  8
0
 62
       255
100
AcDbBlockEnd
  0
BLOCK
  5
293
100
AcDbEntity
  8
0
 62
       255
100
AcDbBlockBegin
  2
*D22
 70
         1
 10
0.0
 20
0.0
 30
0.0
  3
*D22
  1

  0
MTEXT
  5
294
100
AcDbEntity
  8
0
 62
         7
100
AcDbMText
 10
279.0132310203
 20
78.8550636107
 30
0.0
 40
3.5
 41
0.0
 71
         7
 72
         1
  1
6,50
  7
SLDTEXTSTYLE0
 11
0.0
 21
1.0
 31
0.0
 73
         1
 44
1.0
  0
LINE
  5
295
100
AcDbEntity
  8
0
100
AcDbLine
 10
278.4454618065
 20
100.7791810176
 30
0.0
 11
281.5132310203
 21
100.7791810176
 31
0.0
  0
LINE
  5
296
100
AcDbEntity
  8
0
100
AcDbLine
 10
280.5132310203
 20
100.7791810176
 30
0.0
 11
280.5132310203
 21
105.7791810176
 31
0.0
  0
LINE
  5
297
100
AcDbEntity
  8
0
100
AcDbLine
 10
280.5132310203
 20
100.7791810176
 30
0.0
 11
280.5132310203
 21
94.2791810176
 31
0.0
  0
LINE
  5
298
100
AcDbEntity
  8
0
100
AcDbLine
 10
280.5132310203
 20
94.2791810176
 30
0.0
 11
280.5132310203
 21
77.2675636107
 31
0.0
  0
SOLID
  5
299
100
AcDbEntity
  8
0
 62
       255
100
AcDbTrace
 10
280.5132310203
 20
100.7791810176
 30
0.0
 11
280.9632310203
 21
103.7791810176
 31
0.0
 12
280.0632310203
 22
103.7791810176
 32
0.0
 13
280.0632310203
 23
103.7791810176
 33
0.0
  0
SOLID
  5
29A
100
AcDbEntity
  8
0
 62
       255
100
AcDbTrace
 10
280.5132310203
 20
94.2791810176
 30
0.0
 11
280.0632310203
 21
91.2791810176
 31
0.0
 12
280.9632310203
 22
91.2791810176
 32
0.0
 13
280.9632310203
 23
91.2791810176
 33
0.0
  0
POINT
  5
29B
100
AcDbEntity
  8
0
 62
         7
100
AcDbPoint
 10
277.4454618065
 20
100.7791810176
 30
0.0
  0
POINT
  5
29C
100
AcDbEntity
  8
0
 62
         7
100
AcDbPoint
 10
283.9454618065
 20
94.2791810176
 30
0.0
  0
ENDBLK
  5
29D
100
AcDbEntity
  8
0
 62
       255
100
AcDbBlockEnd
  0
BLOCK
  5
2EF
100
AcDbEntity
  8
0
 62
       255
100
AcDbBlockBegin
  2
*D23
 70
         1
 10
0.0
 20
0.0
 30
0.0
  3
*D23
  1

  0
MTEXT
  5
2F0
100
AcDbEntity
  8
0
 62
         7
100
AcDbMText
 10
33.8751101036
 20
138.8932854891
 30
0.0
 40
3.5
 41
0.0
 71
         7
 72
         1
  1
15
  7
SLDTEXTSTYLE0
 11
0.0
 21
1.0
 31
0.0
 73
         1
 44
1.0
  0
LINE
  5
2F1
100
AcDbEntity
  8
0
100
AcDbLine
 10
46.6977153346
 20
149.6303618706
 30
0.0
 11
34.3751101036
 21
149.6303618706
 31
0.0
  0
LINE
  5
2F2
100
AcDbEntity
  8
0
100
AcDbLine
 10
46.6977153346
 20
134.6303618706
 30
0.0
 11
34.3751101036
 21
134.6303618706
 31
0.0
  0
LINE
  5
2F3
100
AcDbEntity
  8
0
100
AcDbLine
 10
35.3751101036
 20
149.6303618706
 30
0.0
 11
35.3751101036
 21
154.6303618706
 31
0.0
  0
LINE
  5
2F4
100
AcDbEntity
  8
0
100
AcDbLine
 10
35.3751101036
 20
149.6303618706
 30
0.0
 11
35.3751101036
 21
134.6303618706
 31
0.0
  0
LINE
  5
2F5
100
AcDbEntity
  8
0
100
AcDbLine
 10
35.3751101036
 20
134.6303618706
 30
0.0
 11
35.3751101036
 21
129.6303618706
 31
0.0
  0
SOLID
  5
2F6
100
AcDbEntity
  8
0
 62
       255
100
AcDbTrace
 10
35.3751101036
 20
149.6303618706
 30
0.0
 11
35.8251101036
 21
152.6303618706
 31
0.0
 12
34.9251101036
 22
152.6303618706
 32
0.0
 13
34.9251101036
 23
152.6303618706
 33
0.0
  0
SOLID
  5
2F7
100
AcDbEntity
  8
0
 62
       255
100
AcDbTrace
 10
35.3751101036
 20
134.6303618706
 30
0.0
 11
34.9251101036
 21
131.6303618706
 31
0.0
 12
35.8251101036
 22
131.6303618706
 32
0.0
 13
35.8251101036
 23
131.6303618706
 33
0.0
  0
POINT
  5
2F8
100
AcDbEntity
  8
0
 62
         7
100
AcDbPoint
 10
47.6977153346
 20
149.6303618706
 30
0.0
  0
POINT
  5
2F9
100
AcDbEntity
  8
0
 62
         7
100
AcDbPoint
 10
47.6977153346
 20
134.6303618706
 30
0.0
  0
ENDBLK
  5
2FA
100
AcDbEntity
  8
0
 62
       255
100
AcDbBlockEnd
  0
BLOCK
  5
2FD
100
AcDbEntity
  8
0
 62
       255
100
AcDbBlockBegin
  2
*D24
 70
         1
 10
0.0
 20
0.0
 30
0.0
  3
*D24
  1

  0
MTEXT
  5
2FE
100
AcDbEntity
  8
0
 62
         7
100
AcDbMText
 10
110.4275210508
 20
153.0254855046
 30
0.0
 40
3.5
 41
0.0
 71
         7
 72
         1
  1
6,50
  7
SLDTEXTSTYLE0
 11
0.0
 21
1.0
 31
0.0
 73
         1
 44
1.0
  0
LINE
  5
2FF
100
AcDbEntity
  8
0
100
AcDbLine
 10
97.0727153346
 20
143.1303618706
 30
0.0
 11
112.9275210508
 21
143.1303618706
 31
0.0
  0
LINE
  5
300
100
AcDbEntity
  8
0
100
AcDbLine
 10
111.9275210508
 20
143.1303618706
 30
0.0
 11
111.9275210508
 21
138.1303618706
 31
0.0
  0
LINE
  5
301
100
AcDbEntity
  8
0
100
AcDbLine
 10
111.9275210508
 20
143.1303618706
 30
0.0
 11
111.9275210508
 21
149.6303618706
 31
0.0
  0
LINE
  5
302
100
AcDbEntity
  8
0
100
AcDbLine
 10
111.9275210508
 20
149.6303618706
 30
0.0
 11
111.9275210508
 21
163.6584192395
 31
0.0
  0
SOLID
  5
303
100
AcDbEntity
  8
0
 62
       255
100
AcDbTrace
 10
111.9275210508
 20
143.1303618706
 30
0.0
 11
111.4775210508
 21
140.1303618706
 31
0.0
 12
112.3775210508
 22
140.1303618706
 32
0.0
 13
112.3775210508
 23
140.1303618706
 33
0.0
  0
SOLID
  5
304
100
AcDbEntity
  8
0
 62
       255
100
AcDbTrace
 10
111.9275210508
 20
149.6303618706
 30
0.0
 11
112.3775210508
 21
152.6303618706
 31
0.0
 12
111.4775210508
 22
152.6303618706
 32
0.0
 13
111.4775210508
 23
152.6303618706
 33
0.0
  0
POINT
  5
305
100
AcDbEntity
  8
0
 62
         7
100
AcDbPoint
 10
96.0727153346
 20
143.1303618706
 30
0.0
  0
POINT
  5
306
100
AcDbEntity
  8
0
 62
         7
100
AcDbPoint
 10
47.6977153346
 20
149.6303618706
 30
0.0
  0
ENDBLK
  5
307
100
AcDbEntity
  8
0
 62
       255
100
AcDbBlockEnd
  0
BLOCK
  5
30A
100
AcDbEntity
  8
0
 62
       255
100
AcDbBlockBegin
  2
*D25
 70
         1
 10
0.0
 20
0.0
 30
0.0
  3
*D25
  1

  0
MTEXT
  5
30B
100
AcDbEntity
  8
0
 62
         7
100
AcDbMText
 10
148.2161721362
 20
154.4818173477
 30
0.0
 40
3.5
 41
0.0
 71
         7
 72
         1
  1
6,50
  7
SLDTEXTSTYLE0
 11
0.0
 21
1.0
 31
0.0
 73
         1
 44
1.0
  0
LINE
  5
30C
100
AcDbEntity
  8
0
100
AcDbLine
 10
163.3227153346
 20
143.1303618706
 30
0.0
 11
148.7161721362
 21
143.1303618706
 31
0.0
  0
LINE
  5
30D
100
AcDbEntity
  8
0
100
AcDbLine
 10
149.7161721362
 20
143.1303618706
 30
0.0
 11
149.7161721362
 21
138.1303618706
 31
0.0
  0
LINE
  5
30E
100
AcDbEntity
  8
0
100
AcDbLine
 10
149.7161721362
 20
143.1303618706
 30
0.0
 11
149.7161721362
 21
149.6303618706
 31
0.0
  0
LINE
  5
30F
100
AcDbEntity
  8
0
100
AcDbLine
 10
149.7161721362
 20
149.6303618706
 30
0.0
 11
149.7161721362
 21
165.1147510826
 31
0.0
  0
SOLID
  5
310
100
AcDbEntity
  8
0
 62
       255
100
AcDbTrace
 10
149.7161721362
 20
143.1303618706
 30
0.0
 11
149.2661721362
 21
140.1303618706
 31
0.0
 12
150.1661721362
 22
140.1303618706
 32
0.0
 13
150.1661721362
 23
140.1303618706
 33
0.0
  0
SOLID
  5
311
100
AcDbEntity
  8
0
 62
       255
100
AcDbTrace
 10
149.7161721362
 20
149.6303618706
 30
0.0
 11
150.1661721362
 21
152.6303618706
 31
0.0
 12
149.2661721362
 22
152.6303618706
 32
0.0
 13
149.2661721362
 23
152.6303618706
 33
0.0
  0
POINT
  5
312
100
AcDbEntity
  8
0
 62
         7
100
AcDbPoint
 10
164.3227153346
 20
143.1303618706
 30
0.0
  0
POINT
  5
313
100
AcDbEntity
  8
0
 62
         7
100
AcDbPoint
 10
197.6977153346
 20
149.6303618706
 30
0.0
  0
ENDBLK
  5
314
100
AcDbEntity
  8
0
 62
       255
100
AcDbBlockEnd
  0
ENDSEC
  0
SECTION
  2
ENTITIES
  0
LINE
  5
30
100
AcDbEntity
  8
0
370
         0
  6
Continuous
 62
         7
100
AcDbLine
 10
12.0
 20
279.0
 30
0.0
 11
408.0
 21
279.0
 31
0.0
  0
LINE
  5
31
100
AcDbEntity
  8
0
370
         0
  6
Continuous
 62
         7
100
AcDbLine
 10
12.0
 20
279.0
 30
0.0
 11
12.0
 21
18.0
 31
0.0
  0
LINE
  5
32
100
AcDbEntity
  8
0
370
         0
  6
Continuous
 62
         7
100
AcDbLine
 10
12.0
 20
18.0
 30
0.0
 11
408.0
 21
18.0
 31
0.0
  0
LINE
  5
33
100
AcDbEntity
  8
0
370
         0
  6
Continuous
 62
         7
100
AcDbLine
 10
408.0
 20
279.0
 30
0.0
 11
408.0
 21
18.0
 31
0.0
  0
LINE
  5
34
100
AcDbEntity
  8
0
370
         0
  6
Continuous
 62
         7
100
AcDbLine
 10
230.084092326
 20
18.2522667599
 30
0.0
 11
407.7493469813
 21
18.2522667599
 31
0.0
  0
LINE
  5
35
100
AcDbEntity
  8
0
370
         0
  6
Continuous
 62
         7
100
AcDbLine
 10
408.0
 20
58.3068354107
 30
0.0
 11
230.084092326
 21
58.3068354107
 31
0.0
  0
LINE
  5
36
100
AcDbEntity
  8
0
370
         0
  6
Continuous
 62
         7
100
AcDbLine
 10
366.4090916959
 20
58.3068354107
 30
0.0
 11
366.4090916959
 21
38.2795510853
 31
0.0
  0
LINE
  5
37
100
AcDbEntity
  8
0
370
         0
  6
Continuous
 62
         7
100
AcDbLine
 10
407.7493469813
 20
18.2522667599
 30
0.0
 11
288.5242550027
 21
18.2522667599
 31
0.0
  0
LINE
  5
38
100
AcDbEntity
  8
0
370
         0
  6
Continuous
 62
         7
100
AcDbLine
 10
407.7493469813
 20
18.2522667599
 30
0.0
 11
407.7493469813
 21
38.2795510853
 31
0.0
  0
LINE
  5
39
100
AcDbEntity
  8
0
370
         0
  6
Continuous
 62
         7
100
AcDbLine
 10
407.7493469813
 20
38.2795510853
 30
0.0
 11
288.5242550027
 21
38.2795510853
 31
0.0
  0
LINE
  5
3A
100
AcDbEntity
  8
0
370
         0
  6
Continuous
 62
         7
100
AcDbLine
 10
288.5242550027
 20
18.2522667599
 30
0.0
 11
288.5242550027
 21
38.2795510853
 31
0.0
  0
LINE
  5
3B
100
AcDbEntity
  8
0
370
         0
  6
Continuous
 62
         7
100
AcDbLine
 10
288.5242550027
 20
18.2522667599
 30
0.0
 11
230.084092326
 21
18.2522667599
 31
0.0
  0
LINE
  5
3C
100
AcDbEntity
  8
0
370
         0
  6
Continuous
 62
         7
100
AcDbLine
 10
288.5242550027
 20
18.2522667599
 30
0.0
 11
288.5242550027
 21
58.3068354107
 31
0.0
  0
LINE
  5
3D
100
AcDbEntity
  8
0
370
         0
  6
Continuous
 62
         7
100
AcDbLine
 10
288.5242550027
 20
58.3068354107
 30
0.0
 11
230.084092326
 21
58.3068354107
 31
0.0
  0
LINE
  5
3E
100
AcDbEntity
  8
0
370
         0
  6
Continuous
 62
         7
100
AcDbLine
 10
230.084092326
 20
18.2522667599
 30
0.0
 11
230.084092326
 21
58.3068354107
 31
0.0
  0
LINE
  5
3F
100
AcDbEntity
  8
0
370
         0
  6
Continuous
 62
         7
100
AcDbLine
 10
366.4090916959
 20
48.293193248
 30
0.0
 11
408.0
 21
48.293193248
 31
0.0
  0
LINE
  5
40
100
AcDbEntity
  8
0
370
         0
  6
Continuous
 62
         7
100
AcDbLine
 10
366.4090916959
 20
48.293193248
 30
0.0
 11
288.5242550027
 21
48.293193248
 31
0.0
  0
LINE
  5
41
100
AcDbEntity
  8
0
370
         0
  6
Continuous
 62
         7
100
AcDbLine
 10
288.5242550027
 20
38.2795510853
 30
0.0
 11
230.084092326
 21
38.2795510853
 31
0.0
  0
LINE
  5
42
100
AcDbEntity
  8
0
370
         0
  6
CENTERX2
 62
         7
100
AcDbLine
 10
231.5034756363
 20
52.6447098121
 30
0.0
 11
241.8262640213
 21
52.6447098121
 31
0.0
  0
LINE
  5
43
100
AcDbEntity
  8
0
370
         0
  6
CENTERX2
 62
         7
100
AcDbLine
 10
254.0649093727
 20
52.6447098121
 30
0.0
 11
245.9934787816
 21
52.6447098121
 31
0.0
  0
LINE
  5
44
100
AcDbEntity
  8
0
370
         0
  6
CENTERX2
 62
         7
100
AcDbLine
 10
250.0291940771
 20
55.6569677112
 30
0.0
 11
250.0291940771
 21
49.632451913
 31
0.0
  0
LINE
  5
45
100
AcDbEntity
  8
0
370
         0
  6
Continuous
 62
         7
100
AcDbLine
 10
233.7155017188
 20
51.4968023375
 30
0.0
 11
233.7155017188
 21
53.7926172867
 31
0.0
  0
LINE
  5
46
100
AcDbEntity
  8
0
370
         0
  6
Continuous
 62
         7
100
AcDbLine
 10
233.7155017188
 20
53.7926172867
 30
0.0
 11
238.7847281578
 21
55.3594690952
 31
0.0
  0
LINE
  5
47
100
AcDbEntity
  8
0
370
         0
  6
Continuous
 62
         7
100
AcDbLine
 10
238.7847281578
 20
55.3594690952
 30
0.0
 11
238.7847281578
 21
49.9299505291
 31
0.0
  0
LINE
  5
48
100
AcDbEntity
  8
0
370
         0
  6
Continuous
 62
         7
100
AcDbLine
 10
238.7847281578
 20
49.9299505291
 30
0.0
 11
233.7155017188
 21
51.4968023375
 31
0.0
  0
CIRCLE
  5
49
100
AcDbEntity
  8
0
370
         0
  6
Continuous
 62
         5
100
AcDbCircle
 10
250.0291940771
 20
52.6447098121
 30
0.0
 40
3.1391205675
  0
CIRCLE
  5
4A
100
AcDbEntity
  8
0
370
         0
  6
Continuous
 62
         5
100
AcDbCircle
 10
250.0291940771
 20
52.6447098121
 30
0.0
 40
1.5
  0
MTEXT
  5
4C
100
AcDbEntity
  8
0
 62
         7
100
AcDbMText
 10
321.3289280526
 20
44.4688155428
 30
0.0
 40
3.5
 41
0.0
 71
         1
 72
         1
  1
   
  7
SLDTEXTSTYLE0
 73
         1
 44
1.0
  0
MTEXT
  5
4D
100
AcDbEntity
  8
0
 62
         7
100
AcDbMText
 10
312.5436188746
 20
55.2185907877
 30
0.0
 40
3.5
 41
0.0
 71
         1
 72
         1
  1
ALU AU4G - 2017
  7
SLDTEXTSTYLE0
 73
         1
 44
1.0
  0
MTEXT
  5
4E
100
AcDbEntity
  8
0
 62
         7
100
AcDbMText
 10
397.3299847037
 20
55.629067595
 30
0.0
 40
3.5
 41
0.0
 71
         1
 72
         1
  1
1
  7
SLDTEXTSTYLE0
 73
         1
 44
1.0
  0
MTEXT
  5
4F
100
AcDbEntity
  8
0
 62
         7
100
AcDbMText
 10
367.499804219
 20
55.6184159535
 30
0.0
 40
3.5
 41
0.0
 71
         1
 72
         1
  1
Quantité:
  7
SLDTEXTSTYLE0
 73
         1
 44
1.0
  0
MTEXT
  5
50
100
AcDbEntity
  8
0
 62
         7
100
AcDbMText
 10
289.4619428465
 20
55.2778536138
 30
0.0
 40
3.5
 41
0.0
 71
         1
 72
         1
  1
Matière:
  7
SLDTEXTSTYLE0
 73
         1
 44
1.0
  0
MTEXT
  5
51
100
AcDbEntity
  8
0
 62
         7
100
AcDbMText
 10
289.4390372629
 20
44.699460691
 30
0.0
 40
3.5
 41
0.0
 71
         1
 72
         1
  1
Observation:
  7
SLDTEXTSTYLE0
 73
         1
 44
1.0
  0
MTEXT
  5
52
100
AcDbEntity
  8
0
 62
         7
100
AcDbMText
 10
289.7346356121
 20
35.1462952525
 30
0.0
 40
3.5
 41
0.0
 71
         1
 72
         1
  1
Désignation:
  7
SLDTEXTSTYLE0
 73
         1
 44
1.0
  0
MTEXT
  5
53
100
AcDbEntity
  8
0
 62
         7
100
AcDbMText
 10
240.0342250463
 20
45.4874721265
 30
0.0
 40
3.5
 41
0.0
 71
         1
 72
         1
  1
Tol Gén: +/-0.2
  7
SLDTEXTSTYLE0
 73
         1
 44
1.0
  0
MTEXT
  5
54
100
AcDbEntity
  8
0
 62
         7
100
AcDbMText
 10
270.3659973884
 20
57.292987735
 30
0.0
 40
3.5
 41
0.0
 71
         2
 72
         1
  1
A3 \PEchelle 1:1
  7
SLDTEXTSTYLE0
 73
         1
 44
1.0
  0
MTEXT
  5
55
100
AcDbEntity
  8
0
 62
         7
100
AcDbMText
 10
374.545001106
 20
45.7319305088
 30
0.0
 40
3.5
 41
0.0
 71
         1
 72
         1
  1
15/02/2023
  7
SLDTEXTSTYLE0
 73
         1
 44
1.0
  0
MTEXT
  5
56
100
AcDbEntity
  8
0
 62
         7
100
AcDbMText
 10
305.7392518586
 20
27.8230098604
 30
0.0
 40
5.2916666667
 41
0.0
 71
         1
 72
         1
  1
ARL-CLIP1-01-B-MOULE BAS
  7
SLDTEXTSTYLE0
 73
         1
 44
1.0
  0
MTEXT
  5
57
100
AcDbEntity
  8
0
 62
         7
100
AcDbMText
 10
323.7867495045
 20
47.8558472993
 30
0.0
 40
3.5
 41
0.0
 71
         1
 72
         1
  1
-
  7
SLDTEXTSTYLE0
 73
         1
 44
1.0
  0
POINT
  5
58
100
AcDbEntity
  8
0
 62
       255
100
AcDbPoint
 10
92.6977153346
 20
214.8529726674
 30
0.0
  0
LINE
  5
59
100
AcDbEntity
  8
0
370
        15
  6
Continuous
 62
         7
100
AcDbLine
 10
197.6977153346
 20
249.8529726674
 30
0.0
 11
47.6977153346
 21
249.8529726674
 31
0.0
  0
LINE
  5
5A
100
AcDbEntity
  8
0
370
        15
  6
Continuous
 62
         7
100
AcDbLine
 10
197.6977153346
 20
179.8529726674
 30
0.0
 11
197.6977153346
 21
249.8529726674
 31
0.0
  0
LINE
  5
5B
100
AcDbEntity
  8
0
370
        15
  6
Continuous
 62
         7
100
AcDbLine
 10
47.6977153346
 20
179.8529726674
 30
0.0
 11
197.6977153346
 21
179.8529726674
 31
0.0
  0
LINE
  5
5C
100
AcDbEntity
  8
0
370
        15
  6
Continuous
 62
         7
100
AcDbLine
 10
47.6977153346
 20
249.8529726674
 30
0.0
 11
47.6977153346
 21
179.8529726674
 31
0.0
  0
CIRCLE
  5
5D
100
AcDbEntity
  8
0
370
        15
  6
Continuous
 62
         7
100
AcDbCircle
 10
187.6977153346
 20
239.8529726674
 30
0.0
 40
2.5
  0
CIRCLE
  5
5E
100
AcDbEntity
  8
0
370
        15
  6
Continuous
 62
         7
100
AcDbCircle
 10
57.6977153346
 20
189.8529726674
 30
0.0
 40
2.5
  0
CIRCLE
  5
5F
100
AcDbEntity
  8
0
370
        15
  6
Continuous
 62
         7
100
AcDbCircle
 10
92.6977153346
 20
214.8529726674
 30
0.0
 40
3.375
  0
CIRCLE
  5
60
100
AcDbEntity
  8
0
370
        15
  6
Continuous
 62
         7
100
AcDbCircle
 10
167.6977153346
 20
214.8529726674
 30
0.0
 40
3.375
  0
LINE
  5
61
100
AcDbEntity
  8
0
370
        15
  6
Continuous
 62
         7
100
AcDbLine
 10
77.2041809124
 20
220.7983277653
 30
0.0
 11
69.2761688254
 21
218.7436598628
 31
0.0
  0
ARC
  5
62
100
AcDbEntity
  8
0
370
        15
  6
Continuous
 62
         7
100
AcDbCircle
 10
70.7814319766
 20
212.9355463269
 30
0.0
 40
6.0
100
AcDbArc
 50
104.5294259417
 51
265.4705740583
  0
LINE
  5
63
100
AcDbEntity
  8
0
370
        15
  6
Continuous
 62
         7
100
AcDbLine
 10
70.3076054862
 20
206.9542848833
 30
0.0
 11
78.4719625924
 21
206.3075168544
 31
0.0
  0
ARC
  5
64
100
AcDbEntity
  8
0
370
        15
  6
Continuous
 62
         7
100
AcDbCircle
 10
78.2350493472
 20
203.3168861326
 30
0.0
 40
3.0
100
AcDbArc
 50
38.5774706019
 51
85.4705740583
  0
ARC
  5
65
100
AcDbEntity
  8
0
370
        15
  6
Continuous
 62
         7
100
AcDbCircle
 10
92.6977153346
 20
214.8529726674
 30
0.0
 40
15.5
100
AcDbArc
 50
218.5774706019
 51
281.4501747879
  0
ARC
  5
66
100
AcDbEntity
  8
0
370
        15
  6
Continuous
 62
         7
100
AcDbCircle
 10
115.6262790193
 20
101.6516874831
 30
0.0
 40
100.0
100
AcDbArc
 50
80.0
 51
101.4501747879
  0
LINE
  5
67
100
AcDbEntity
  8
0
370
        15
  6
Continuous
 62
         7
100
AcDbLine
 10
178.9447632449
 20
192.0295915252
 30
0.0
 11
132.991096786
 21
200.1324627844
 31
0.0
  0
ARC
  5
68
100
AcDbEntity
  8
0
370
        15
  6
Continuous
 62
         7
100
AcDbCircle
 10
179.8130041332
 20
196.9536302902
 30
0.0
 40
5.0
100
AcDbArc
 50
260.0
 51
350.0
  0
LINE
  5
69
100
AcDbEntity
  8
0
370
        15
  6
Continuous
 62
         7
100
AcDbLine
 10
188.0885511687
 20
215.092737324
 30
0.0
 11
184.7370428983
 21
196.0853894019
 31
0.0
  0
ARC
  5
6A
100
AcDbEntity
  8
0
370
        15
  6
Continuous
 62
         7
100
AcDbCircle
 10
184.937724648
 20
215.6483130511
 30
0.0
 40
3.1994330985
100
AcDbArc
 50
350.0
 51
160.0
  0
LINE
  5
6B
100
AcDbEntity
  8
0
370
        15
  6
Continuous
 62
         7
100
AcDbLine
 10
179.3748130884
 20
209.7188557264
 30
0.0
 11
181.9312409746
 21
216.742583618
 31
0.0
  0
ARC
  5
6C
100
AcDbEntity
  8
0
370
        15
  6
Continuous
 62
         7
100
AcDbCircle
 10
180.9722905438
 20
209.1374214827
 30
0.0
 40
1.7
100
AcDbArc
 50
160.0
 51
260.0
  0
LINE
  5
6D
100
AcDbEntity
  8
0
370
        15
  6
Continuous
 62
         7
100
AcDbLine
 10
181.6363099987
 20
207.2941116969
 30
0.0
 11
180.6770886417
 21
207.4632483026
 31
0.0
  0
ARC
  5
6E
100
AcDbEntity
  8
0
370
        15
  6
Continuous
 62
         7
100
AcDbCircle
 10
181.4626618211
 20
206.3093039439
 30
0.0
 40
1.0
100
AcDbArc
 50
350.0
 51
80.0
  0
LINE
  5
6F
100
AcDbEntity
  8
0
370
        15
  6
Continuous
 62
         7
100
AcDbLine
 10
181.2319323304
 20
199.2420014951
 30
0.0
 11
182.4474695741
 21
206.1356557662
 31
0.0
  0
ARC
  5
70
100
AcDbEntity
  8
0
370
        15
  6
Continuous
 62
         7
100
AcDbCircle
 10
179.2623168244
 20
199.5892978504
 30
0.0
 40
2.0
100
AcDbArc
 50
260.0
 51
349.9999999999
  0
LINE
  5
71
100
AcDbEntity
  8
0
370
        15
  6
Continuous
 62
         7
100
AcDbLine
 10
176.3087184728
 20
198.0792437062
 30
0.0
 11
178.9150204691
 21
197.6196823444
 31
0.0
  0
ARC
  5
72
100
AcDbEntity
  8
0
370
        15
  6
Continuous
 62
         7
100
AcDbCircle
 10
176.8296630058
 20
201.0336669653
 30
0.0
 40
3.0
100
AcDbArc
 50
189.4712206345
 51
260.0
  0
ARC
  5
73
100
AcDbEntity
  8
0
370
        15
  6
Continuous
 62
         7
100
AcDbCircle
 10
170.9114527279
 20
200.046353891
 30
0.0
 40
3.0
100
AcDbArc
 50
9.4712206345
 51
150.5287793655
  0
ARC
  5
74
100
AcDbEntity
  8
0
370
        15
  6
Continuous
 62
         7
100
AcDbCircle
 10
165.6878351607
 20
202.9982718288
 30
0.0
 40
3.0
100
AcDbArc
 50
189.4712206345
 51
330.5287793655
  0
ARC
  5
75
100
AcDbEntity
  8
0
370
        15
  6
Continuous
 62
         7
100
AcDbCircle
 10
159.7696248828
 20
202.0109587545
 30
0.0
 40
3.0
100
AcDbArc
 50
9.4712206345
 51
150.5287793655
  0
ARC
  5
76
100
AcDbEntity
  8
0
370
        15
  6
Continuous
 62
         7
100
AcDbCircle
 10
154.5460073156
 20
204.9628766923
 30
0.0
 40
3.0
100
AcDbArc
 50
189.4712206345
 51
330.5287793655
  0
ARC
  5
77
100
AcDbEntity
  8
0
370
        15
  6
Continuous
 62
         7
100
AcDbCircle
 10
148.6277970377
 20
203.975563618
 30
0.0
 40
3.0
100
AcDbArc
 50
9.4712206345
 51
150.5287793655
  0
ARC
  5
78
100
AcDbEntity
  8
0
370
        15
  6
Continuous
 62
         7
100
AcDbCircle
 10
143.4041794704
 20
206.9274815558
 30
0.0
 40
3.0
100
AcDbArc
 50
189.4712206345
 51
330.5287793655
  0
ARC
  5
79
100
AcDbEntity
  8
0
370
        15
  6
Continuous
 62
         7
100
AcDbCircle
 10
137.4859691925
 20
205.9401684815
 30
0.0
 40
3.0
100
AcDbArc
 50
9.4712206345
 51
150.5287793655
  0
ARC
  5
7A
100
AcDbEntity
  8
0
370
        15
  6
Continuous
 62
         7
100
AcDbCircle
 10
132.2623516253
 20
208.8920864193
 30
0.0
 40
3.0
100
AcDbArc
 50
189.4712206345
 51
330.5287793655
  0
ARC
  5
7B
100
AcDbEntity
  8
0
370
        15
  6
Continuous
 62
         7
100
AcDbCircle
 10
126.3441413474
 20
207.904773345
 30
0.0
 40
3.0
100
AcDbArc
 50
9.4712206345
 51
150.5287793655
  0
ARC
  5
7C
100
AcDbEntity
  8
0
370
        15
  6
Continuous
 62
         7
100
AcDbCircle
 10
121.1205237802
 20
210.8566912828
 30
0.0
 40
3.0
100
AcDbArc
 50
189.4712206345
 51
330.5287793655
  0
ARC
  5
7D
100
AcDbEntity
  8
0
370
        15
  6
Continuous
 62
         7
100
AcDbCircle
 10
115.2023135023
 20
209.8693782085
 30
0.0
 40
3.0
100
AcDbArc
 50
9.4712206345
 51
150.5287793655
  0
ARC
  5
7E
100
AcDbEntity
  8
0
370
        15
  6
Continuous
 62
         7
100
AcDbCircle
 10
109.9786959351
 20
212.8212961463
 30
0.0
 40
3.0
100
AcDbArc
 50
173.2946762815
 51
330.5287793655
  0
ARC
  5
7F
100
AcDbEntity
  8
0
370
        15
  6
Continuous
 62
         7
100
AcDbCircle
 10
92.6977153346
 20
214.8529726674
 30
0.0
 40
14.4
100
AcDbArc
 50
353.2946762815
 51
5.0607180285
  0
ARC
  5
80
100
AcDbEntity
  8
0
370
        15
  6
Continuous
 62
         7
100
AcDbCircle
 10
105.3482079053
 20
215.9732573271
 30
0.0
 40
1.7
100
AcDbArc
 50
5.0607180285
 51
185.0607180285
  0
ARC
  5
81
100
AcDbEntity
  8
0
370
        15
  6
Continuous
 62
         7
100
AcDbCircle
 10
92.6977153346
 20
214.8529726674
 30
0.0
 40
11.0
100
AcDbArc
 50
53.0065184092
 51
5.0607180285
  0
ARC
  5
82
100
AcDbEntity
  8
0
370
        15
  6
Continuous
 62
         7
100
AcDbCircle
 10
103.8296123007
 20
229.6289961492
 30
0.0
 40
7.5
100
AcDbArc
 50
233.0065184092
 51
271.7352673521
  0
ARC
  5
83
100
AcDbEntity
  8
0
370
        15
  6
Continuous
 62
         7
100
AcDbCircle
 10
104.1893181581
 20
217.7557100583
 30
0.0
 40
4.3787335562
100
AcDbArc
 50
5.9694916952
 51
91.7352673521
  0
ARC
  5
84
100
AcDbEntity
  8
0
370
        15
  6
Continuous
 62
         7
100
AcDbCircle
 10
110.5334624747
 20
218.4190912999
 30
0.0
 40
2.0
100
AcDbArc
 50
185.9694916952
 51
334.1826174555
  0
ARC
  5
85
100
AcDbEntity
  8
0
370
        15
  6
Continuous
 62
         7
100
AcDbCircle
 10
109.6332757863
 20
218.8545955203
 30
0.0
 40
3.0
100
AcDbArc
 50
334.1826174555
 51
350.5287793655
  0
ARC
  5
86
100
AcDbEntity
  8
0
370
        15
  6
Continuous
 62
         7
100
AcDbCircle
 10
115.5514860642
 20
217.867282446
 30
0.0
 40
3.0
100
AcDbArc
 50
29.4712206345
 51
170.5287793655
  0
ARC
  5
87
100
AcDbEntity
  8
0
370
        15
  6
Continuous
 62
         7
100
AcDbCircle
 10
120.7751036314
 20
220.8192003838
 30
0.0
 40
3.0
100
AcDbArc
 50
209.4712206345
 51
350.5287793655
  0
ARC
  5
88
100
AcDbEntity
  8
0
370
        15
  6
Continuous
 62
         7
100
AcDbCircle
 10
126.6933139093
 20
219.8318873095
 30
0.0
 40
3.0
100
AcDbArc
 50
29.4712206345
 51
170.5287793655
  0
ARC
  5
89
100
AcDbEntity
  8
0
370
        15
  6
Continuous
 62
         7
100
AcDbCircle
 10
131.9169314765
 20
222.7838052473
 30
0.0
 40
3.0
100
AcDbArc
 50
209.4712206345
 51
350.5287793655
  0
ARC
  5
8A
100
AcDbEntity
  8
0
370
        15
  6
Continuous
 62
         7
100
AcDbCircle
 10
137.8351417544
 20
221.796492173
 30
0.0
 40
3.0
100
AcDbArc
 50
29.4712206345
 51
170.5287793655
  0
ARC
  5
8B
100
AcDbEntity
  8
0
370
        15
  6
Continuous
 62
         7
100
AcDbCircle
 10
143.0587593216
 20
224.7484101108
 30
0.0
 40
3.0
100
AcDbArc
 50
209.4712206345
 51
350.5287793655
  0
ARC
  5
8C
100
AcDbEntity
  8
0
370
        15
  6
Continuous
 62
         7
100
AcDbCircle
 10
148.9769695995
 20
223.7610970365
 30
0.0
 40
3.0
100
AcDbArc
 50
29.4712206345
 51
170.5287793655
  0
ARC
  5
8D
100
AcDbEntity
  8
0
370
        15
  6
Continuous
 62
         7
100
AcDbCircle
 10
154.2005871667
 20
226.7130149743
 30
0.0
 40
3.0
100
AcDbArc
 50
209.4712206345
 51
350.5287793655
  0
ARC
  5
8E
100
AcDbEntity
  8
0
370
        15
  6
Continuous
 62
         7
100
AcDbCircle
 10
160.1187974446
 20
225.7257019
 30
0.0
 40
3.0
100
AcDbArc
 50
29.4712206345
 51
170.5287793655
  0
ARC
  5
8F
100
AcDbEntity
  8
0
370
        15
  6
Continuous
 62
         7
100
AcDbCircle
 10
165.3424150119
 20
228.6776198378
 30
0.0
 40
3.0
100
AcDbArc
 50
209.4712206345
 51
350.5287793655
  0
ARC
  5
90
100
AcDbEntity
  8
0
370
        15
  6
Continuous
 62
         7
100
AcDbCircle
 10
171.2606252898
 20
227.6903067635
 30
0.0
 40
3.0
100
AcDbArc
 50
29.4712206346
 51
170.5287793655
  0
ARC
  5
91
100
AcDbEntity
  8
0
370
        15
  6
Continuous
 62
         7
100
AcDbCircle
 10
176.512852354
 20
230.6583922109
 30
0.0
 40
3.0328617054
100
AcDbArc
 50
209.4712206346
 51
273.109154394
  0
ARC
  5
92
100
AcDbEntity
  8
0
370
        15
  6
Continuous
 62
         7
100
AcDbCircle
 10
176.1564052441
 20
230.5844180849
 30
0.0
 40
3.0
100
AcDbArc
 50
280.0
 51
355.0
  0
LINE
  5
93
100
AcDbEntity
  8
0
370
        15
  6
Continuous
 62
         7
100
AcDbLine
 10
179.6084539119
 20
235.6203751725
 30
0.0
 11
179.1449893384
 21
230.3229508566
 31
0.0
  0
ARC
  5
94
100
AcDbEntity
  8
0
370
        15
  6
Continuous
 62
         7
100
AcDbCircle
 10
177.9149229252
 20
235.7685399351
 30
0.0
 40
1.7
100
AcDbArc
 50
355.0
 51
100.0
  0
LINE
  5
95
100
AcDbEntity
  8
0
370
        15
  6
Continuous
 62
         7
100
AcDbLine
 10
132.991096786
 20
229.5734825504
 30
0.0
 11
177.6197210232
 21
237.4427131153
 31
0.0
  0
ARC
  5
96
100
AcDbEntity
  8
0
370
        15
  6
Continuous
 62
         7
100
AcDbCircle
 10
115.6262790193
 20
328.0542578516
 30
0.0
 40
100.0
100
AcDbArc
 50
258.5498252121
 51
280.0
  0
ARC
  5
97
100
AcDbEntity
  8
0
370
        15
  6
Continuous
 62
         7
100
AcDbCircle
 10
92.6977153346
 20
214.8529726674
 30
0.0
 40
15.5
100
AcDbArc
 50
78.5498252121
 51
151.4225293981
  0
ARC
  5
98
100
AcDbEntity
  8
0
370
        15
  6
Continuous
 62
         7
100
AcDbCircle
 10
76.4515493368
 20
223.7023845333
 30
0.0
 40
3.0
100
AcDbArc
 50
284.5294259417
 51
331.4225293981
  0
ARC
  5
99
100
AcDbEntity
  8
0
370
        15
  6
Continuous
 62
         7
100
AcDbCircle
 10
92.6977153346
 20
214.8529726674
 30
0.0
 40
15.5
100
AcDbArc
 50
151.4225293981
 51
218.5774706019
  0
POLYLINE
  5
9A
100
AcDbEntity
  8
0
370
        15
  6
Continuous
 62
         7
100
AcDb2dPolyline
 66
         1
 10
0.0
 20
0.0
 30
0.0
 70
       128
  0
VERTEX
  5
9B
100
AcDbEntity
  8
0
100
AcDbVertex
100
AcDb2dVertex
 10
176.5628093854
 20
228.6261444385
 30
0.0
  0
VERTEX
  5
9C
100
AcDbEntity
  8
0
100
AcDbVertex
100
AcDb2dVertex
 10
176.5645183759
 20
228.6112970529
 30
0.0
  0
VERTEX
  5
9D
100
AcDbEntity
  8
0
100
AcDbVertex
100
AcDb2dVertex
 10
176.5882717734
 20
228.4048662744
 30
0.0
  0
VERTEX
  5
9E
100
AcDbEntity
  8
0
100
AcDbVertex
100
AcDb2dVertex
 10
176.6237654583
 20
228.0962244484
 30
0.0
  0
VERTEX
  5
9F
100
AcDbEntity
  8
0
100
AcDbVertex
100
AcDb2dVertex
 10
176.6523695311
 20
227.8473776768
 30
0.0
  0
VERTEX
  5
A0
100
AcDbEntity
  8
0
100
AcDbVertex
100
AcDb2dVertex
 10
176.6709226722
 20
227.6859294929
 30
0.0
  0
VERTEX
  5
A1
100
AcDbEntity
  8
0
100
AcDbVertex
100
AcDb2dVertex
 10
176.6773497771
 20
227.6299948258
 30
0.0
  0
SEQEND
  5
A2
100
AcDbEntity
  8
0
  0
ARC
  5
A3
100
AcDbEntity
  8
0
370
        15
  6
Continuous
 62
         7
100
AcDbCircle
 10
176.1564052441
 20
230.5844180849
 30
0.0
 40
2.0
100
AcDbArc
 50
281.7242701822
 51
355.0
  0
LINE
  5
A4
100
AcDbEntity
  8
0
370
        15
  6
Continuous
 62
         7
100
AcDbLine
 10
178.1487946403
 20
230.4101065994
 30
0.0
 11
179.1449893384
 21
230.3229508566
 31
0.0
  0
LINE
  5
A5
100
AcDbEntity
  8
0
370
        15
  6
Continuous
 62
         7
100
AcDbLine
 10
174.7430370012
 20
229.6582520554
 30
0.0
 11
173.8724340734
 21
229.1662657324
 31
0.0
  0
ARC
  5
A6
100
AcDbEntity
  8
0
370
        15
  6
Continuous
 62
         7
100
AcDbCircle
 10
176.512852354
 20
230.6583922109
 30
0.0
 40
2.0328617054
100
AcDbArc
 50
209.4712206346
 51
271.408170183
  0
LINE
  5
A7
100
AcDbEntity
  8
0
370
        15
  6
Continuous
 62
         7
100
AcDbLine
 10
95.5761930266
 20
229.0643894221
 30
0.0
 11
95.7747087295
 21
230.0444871293
 31
0.0
  0
ARC
  5
A8
100
AcDbEntity
  8
0
370
        15
  6
Continuous
 62
         7
100
AcDbCircle
 10
92.6977153346
 20
214.8529726674
 30
0.0
 40
14.5
100
AcDbArc
 50
78.5498252121
 51
281.4501747879
  0
LINE
  5
A9
100
AcDbEntity
  8
0
370
        15
  6
Continuous
 62
         7
100
AcDbLine
 10
95.5761930266
 20
200.6415559126
 30
0.0
 11
95.7747087295
 21
199.6614582054
 31
0.0
  0
LINE
  5
AA
100
AcDbEntity
  8
0
370
        15
  6
Continuous
 62
         7
100
AcDbLine
 10
133.1647449636
 20
228.5886747973
 30
0.0
 11
132.991096786
 21
229.5734825504
 31
0.0
  0
ARC
  5
AB
100
AcDbEntity
  8
0
370
        15
  6
Continuous
 62
         7
100
AcDbCircle
 10
115.6262790193
 20
328.0542578516
 30
0.0
 40
101.0
100
AcDbArc
 50
258.5498252121
 51
280.0
  0
LINE
  5
AC
100
AcDbEntity
  8
0
370
        15
  6
Continuous
 62
         7
100
AcDbLine
 10
177.7933692008
 20
236.4579053623
 30
0.0
 11
177.6197210232
 21
237.4427131153
 31
0.0
  0
LINE
  5
AD
100
AcDbEntity
  8
0
370
        15
  6
Continuous
 62
         7
100
AcDbLine
 10
133.1647449636
 20
228.5886747973
 30
0.0
 11
177.7933692008
 21
236.4579053623
 31
0.0
  0
ARC
  5
AE
100
AcDbEntity
  8
0
370
        15
  6
Continuous
 62
         7
100
AcDbCircle
 10
110.5334624747
 20
218.4190912999
 30
0.0
 40
1.0
100
AcDbArc
 50
185.9694916952
 51
334.1826174555
  0
LINE
  5
AF
100
AcDbEntity
  8
0
370
        15
  6
Continuous
 62
         7
100
AcDbLine
 10
112.3338358515
 20
217.548082859
 30
0.0
 11
111.4336491631
 21
217.9835870794
 31
0.0
  0
LINE
  5
B0
100
AcDbEntity
  8
0
370
        15
  6
Continuous
 62
         7
100
AcDbLine
 10
108.5443076493
 20
218.2110935098
 30
0.0
 11
109.538885062
 21
218.3150924048
 31
0.0
  0
ARC
  5
B1
100
AcDbEntity
  8
0
370
        15
  6
Continuous
 62
         7
100
AcDbCircle
 10
103.8296123007
 20
229.6289961492
 30
0.0
 40
6.5
100
AcDbArc
 50
233.0065184092
 51
271.7352673521
  0
LINE
  5
B2
100
AcDbEntity
  8
0
370
        15
  6
Continuous
 62
         7
100
AcDbLine
 10
104.0567235426
 20
222.1324355723
 30
0.0
 11
104.0264420437
 21
223.1319769825
 31
0.0
  0
LINE
  5
B3
100
AcDbEntity
  8
0
370
        15
  6
Continuous
 62
         7
100
AcDbLine
 10
99.3166810982
 20
223.6387163593
 30
0.0
 11
99.9184052586
 21
224.4374203313
 31
0.0
  0
ARC
  5
B4
100
AcDbEntity
  8
0
370
        15
  6
Continuous
 62
         7
100
AcDbCircle
 10
104.1893181581
 20
217.7557100583
 30
0.0
 40
5.3787335562
100
AcDbArc
 50
5.9694916952
 51
91.7352673521
  0
ARC
  5
B5
100
AcDbEntity
  8
0
370
        15
  6
Continuous
 62
         7
100
AcDbCircle
 10
92.6977153346
 20
214.8529726674
 30
0.0
 40
12.0
100
AcDbArc
 50
53.0065184092
 51
5.0607180285
  0
LINE
  5
B6
100
AcDbEntity
  8
0
370
        15
  6
Continuous
 62
         7
100
AcDbLine
 10
103.654834884
 20
215.8232979632
 30
0.0
 11
104.6509366613
 21
215.9115093537
 31
0.0
  0
ARC
  5
B7
100
AcDbEntity
  8
0
370
        15
  6
Continuous
 62
         7
100
AcDbCircle
 10
105.3482079053
 20
215.9732573271
 30
0.0
 40
0.7
100
AcDbArc
 50
5.0607180285
 51
185.0607180285
  0
LINE
  5
B8
100
AcDbEntity
  8
0
370
        15
  6
Continuous
 62
         7
100
AcDbLine
 10
107.0415809266
 20
216.123216691
 30
0.0
 11
106.0454791494
 21
216.0350053005
 31
0.0
  0
ARC
  5
B9
100
AcDbEntity
  8
0
370
        15
  6
Continuous
 62
         7
100
AcDbCircle
 10
92.6977153346
 20
214.8529726674
 30
0.0
 40
13.4
100
AcDbArc
 50
353.2946762815
 51
5.0607180285
  0
LINE
  5
BA
100
AcDbEntity
  8
0
370
        15
  6
Continuous
 62
         7
100
AcDbLine
 10
106.9992165212
 20
213.1715852016
 30
0.0
 11
106.0060567166
 21
213.2883482201
 31
0.0
  0
LINE
  5
BB
100
AcDbEntity
  8
0
370
        15
  6
Continuous
 62
         7
100
AcDbLine
 10
178.6122592139
 20
235.7075309152
 30
0.0
 11
179.6084539119
 21
235.6203751725
 31
0.0
  0
ARC
  5
BC
100
AcDbEntity
  8
0
370
        15
  6
Continuous
 62
         7
100
AcDbCircle
 10
177.9149229252
 20
235.7685399351
 30
0.0
 40
0.7
100
AcDbArc
 50
355.0
 51
100.0
  0
LINE
  5
BD
100
AcDbEntity
  8
0
370
        15
  6
Continuous
 62
         7
100
AcDbLine
 10
178.6122592139
 20
235.7075309152
 30
0.0
 11
178.1487946403
 21
230.4101065994
 31
0.0
  0
ARC
  5
BE
100
AcDbEntity
  8
0
370
        15
  6
Continuous
 62
         7
100
AcDbCircle
 10
109.6332757863
 20
218.8545955203
 30
0.0
 40
2.0
100
AcDbArc
 50
334.1826174555
 51
350.5287793655
  0
LINE
  5
BF
100
AcDbEntity
  8
0
370
        15
  6
Continuous
 62
         7
100
AcDbLine
 10
112.5923809252
 20
218.3609389831
 30
0.0
 11
111.6060125456
 21
218.5254911622
 31
0.0
  0
ARC
  5
C0
100
AcDbEntity
  8
0
370
        15
  6
Continuous
 62
         7
100
AcDbCircle
 10
109.9786959351
 20
212.8212961463
 30
0.0
 40
4.0
100
AcDbArc
 50
173.2946762815
 51
330.5287793655
  0
LINE
  5
C1
100
AcDbEntity
  8
0
370
        15
  6
Continuous
 62
         7
100
AcDbLine
 10
112.5905047187
 20
211.3453371774
 30
0.0
 11
113.4611076466
 21
210.8533508544
 31
0.0
  0
ARC
  5
C2
100
AcDbEntity
  8
0
370
        15
  6
Continuous
 62
         7
100
AcDbCircle
 10
115.6262790193
 20
101.6516874831
 30
0.0
 40
101.0
100
AcDbArc
 50
80.0
 51
101.4501747879
  0
LINE
  5
C3
100
AcDbEntity
  8
0
370
        15
  6
Continuous
 62
         7
100
AcDbLine
 10
133.1647449636
 20
201.1172705374
 30
0.0
 11
132.991096786
 21
200.1324627844
 31
0.0
  0
ARC
  5
C4
100
AcDbEntity
  8
0
370
        15
  6
Continuous
 62
         7
100
AcDbCircle
 10
115.5514860642
 20
217.867282446
 30
0.0
 40
4.0
100
AcDbArc
 50
29.4712206345
 51
170.5287793655
  0
LINE
  5
C5
100
AcDbEntity
  8
0
370
        15
  6
Continuous
 62
         7
100
AcDbLine
 10
119.0338977756
 20
219.8352277379
 30
0.0
 11
118.1632948478
 21
219.3432414149
 31
0.0
  0
ARC
  5
C6
100
AcDbEntity
  8
0
370
        15
  6
Continuous
 62
         7
100
AcDbCircle
 10
120.7751036314
 20
220.8192003838
 30
0.0
 40
2.0
100
AcDbArc
 50
209.4712206345
 51
350.5287793655
  0
LINE
  5
C7
100
AcDbEntity
  8
0
370
        15
  6
Continuous
 62
         7
100
AcDbLine
 10
122.7478403907
 20
220.4900960257
 30
0.0
 11
123.7342087703
 21
220.3255438467
 31
0.0
  0
ARC
  5
C8
100
AcDbEntity
  8
0
370
        15
  6
Continuous
 62
         7
100
AcDbCircle
 10
126.6933139093
 20
219.8318873095
 30
0.0
 40
4.0
100
AcDbArc
 50
29.4712206345
 51
170.5287793655
  0
LINE
  5
C9
100
AcDbEntity
  8
0
370
        15
  6
Continuous
 62
         7
100
AcDbLine
 10
130.1757256208
 20
221.7998326014
 30
0.0
 11
129.3051226929
 21
221.3078462784
 31
0.0
  0
ARC
  5
CA
100
AcDbEntity
  8
0
370
        15
  6
Continuous
 62
         7
100
AcDbCircle
 10
131.9169314765
 20
222.7838052473
 30
0.0
 40
2.0
100
AcDbArc
 50
209.4712206345
 51
350.5287793655
  0
LINE
  5
CB
100
AcDbEntity
  8
0
370
        15
  6
Continuous
 62
         7
100
AcDbLine
 10
133.8896682358
 20
222.4547008892
 30
0.0
 11
134.8760366154
 21
222.2901487102
 31
0.0
  0
ARC
  5
CC
100
AcDbEntity
  8
0
370
        15
  6
Continuous
 62
         7
100
AcDbCircle
 10
115.2023135023
 20
209.8693782085
 30
0.0
 40
2.0
100
AcDbArc
 50
9.4712206345
 51
150.5287793655
  0
LINE
  5
CD
100
AcDbEntity
  8
0
370
        15
  6
Continuous
 62
         7
100
AcDbLine
 10
118.1614186413
 20
210.3630347456
 30
0.0
 11
117.1750502616
 21
210.1984825666
 31
0.0
  0
ARC
  5
CE
100
AcDbEntity
  8
0
370
        15
  6
Continuous
 62
         7
100
AcDbCircle
 10
137.8351417544
 20
221.796492173
 30
0.0
 40
4.0
100
AcDbArc
 50
29.4712206345
 51
170.5287793655
  0
LINE
  5
CF
100
AcDbEntity
  8
0
370
        15
  6
Continuous
 62
         7
100
AcDbLine
 10
141.3175534659
 20
223.7644374649
 30
0.0
 11
140.446950538
 21
223.2724511419
 31
0.0
  0
LINE
  5
D0
100
AcDbEntity
  8
0
370
        15
  6
Continuous
 62
         7
100
AcDbLine
 10
163.6012091561
 20
227.6936471919
 30
0.0
 11
162.7306062282
 21
227.2016608689
 31
0.0
  0
ARC
  5
D1
100
AcDbEntity
  8
0
370
        15
  6
Continuous
 62
         7
100
AcDbCircle
 10
165.3424150119
 20
228.6776198378
 30
0.0
 40
2.0
100
AcDbArc
 50
209.4712206345
 51
350.5287793655
  0
LINE
  5
D2
100
AcDbEntity
  8
0
370
        15
  6
Continuous
 62
         7
100
AcDbLine
 10
167.3151517712
 20
228.3485154797
 30
0.0
 11
168.3015201508
 21
228.1839633007
 31
0.0
  0
ARC
  5
D3
100
AcDbEntity
  8
0
370
        15
  6
Continuous
 62
         7
100
AcDbCircle
 10
143.0587593216
 20
224.7484101108
 30
0.0
 40
2.0
100
AcDbArc
 50
209.4712206345
 51
350.5287793655
  0
LINE
  5
D4
100
AcDbEntity
  8
0
370
        15
  6
Continuous
 62
         7
100
AcDbLine
 10
145.0314960809
 20
224.4193057527
 30
0.0
 11
146.0178644606
 21
224.2547535737
 31
0.0
  0
ARC
  5
D5
100
AcDbEntity
  8
0
370
        15
  6
Continuous
 62
         7
100
AcDbCircle
 10
121.1205237802
 20
210.8566912828
 30
0.0
 40
4.0
100
AcDbArc
 50
189.4712206345
 51
330.5287793655
  0
LINE
  5
D6
100
AcDbEntity
  8
0
370
        15
  6
Continuous
 62
         7
100
AcDbLine
 10
123.7323325638
 20
209.3807323139
 30
0.0
 11
124.6029354917
 21
208.8887459909
 31
0.0
  0
LINE
  5
D7
100
AcDbEntity
  8
0
370
        15
  6
Continuous
 62
         7
100
AcDbLine
 10
156.173323926
 20
226.3839106162
 30
0.0
 11
157.1596923057
 21
226.2193584372
 31
0.0
  0
ARC
  5
D8
100
AcDbEntity
  8
0
370
        15
  6
Continuous
 62
         7
100
AcDbCircle
 10
160.1187974446
 20
225.7257019
 30
0.0
 40
4.0
100
AcDbArc
 50
29.4712206345
 51
170.5287793655
  0
LINE
  5
D9
100
AcDbEntity
  8
0
370
        15
  6
Continuous
 62
         7
100
AcDbLine
 10
152.459381311
 20
225.7290423284
 30
0.0
 11
151.5887783831
 21
225.2370560054
 31
0.0
  0
ARC
  5
DA
100
AcDbEntity
  8
0
370
        15
  6
Continuous
 62
         7
100
AcDbCircle
 10
154.2005871667
 20
226.7130149743
 30
0.0
 40
2.0
100
AcDbArc
 50
209.4712206345
 51
350.5287793655
  0
ARC
  5
DB
100
AcDbEntity
  8
0
370
        15
  6
Continuous
 62
         7
100
AcDbCircle
 10
148.9769695995
 20
223.7610970365
 30
0.0
 40
4.0
100
AcDbArc
 50
29.4712206345
 51
170.5287793655
  0
ARC
  5
DC
100
AcDbEntity
  8
0
370
        15
  6
Continuous
 62
         7
100
AcDbCircle
 10
171.2606252898
 20
227.6903067635
 30
0.0
 40
4.0
100
AcDbArc
 50
29.4712206346
 51
170.5287793655
  0
ARC
  5
DD
100
AcDbEntity
  8
0
370
        15
  6
Continuous
 62
         7
100
AcDbCircle
 10
126.3441413474
 20
207.904773345
 30
0.0
 40
2.0
100
AcDbArc
 50
9.4712206345
 51
150.5287793655
  0
LINE
  5
DE
100
AcDbEntity
  8
0
370
        15
  6
Continuous
 62
         7
100
AcDbLine
 10
129.3032464864
 20
208.3984298821
 30
0.0
 11
128.3168781067
 21
208.2338777031
 31
0.0
  0
LINE
  5
DF
100
AcDbEntity
  8
0
370
        15
  6
Continuous
 62
         7
100
AcDbLine
 10
179.1184114226
 20
193.0143992782
 30
0.0
 11
133.1647449636
 21
201.1172705374
 31
0.0
  0
LINE
  5
E0
100
AcDbEntity
  8
0
370
        15
  6
Continuous
 62
         7
100
AcDbLine
 10
179.1184114226
 20
193.0143992782
 30
0.0
 11
178.9447632449
 21
192.0295915252
 31
0.0
  0
ARC
  5
E1
100
AcDbEntity
  8
0
370
        15
  6
Continuous
 62
         7
100
AcDbCircle
 10
132.2623516253
 20
208.8920864193
 30
0.0
 40
4.0
100
AcDbArc
 50
189.4712206345
 51
330.5287793655
  0
LINE
  5
E2
100
AcDbEntity
  8
0
370
        15
  6
Continuous
 62
         7
100
AcDbLine
 10
134.8741604089
 20
207.4161274504
 30
0.0
 11
135.7447633368
 21
206.9241411274
 31
0.0
  0
LINE
  5
E3
100
AcDbEntity
  8
0
370
        15
  6
Continuous
 62
         7
100
AcDbLine
 10
187.1037434157
 20
215.2663855017
 30
0.0
 11
188.0885511687
 21
215.092737324
 31
0.0
  0
ARC
  5
E4
100
AcDbEntity
  8
0
370
        15
  6
Continuous
 62
         7
100
AcDbCircle
 10
184.937724648
 20
215.6483130511
 30
0.0
 40
2.1994330985
100
AcDbArc
 50
350.0
 51
160.0
  0
LINE
  5
E5
100
AcDbEntity
  8
0
370
        15
  6
Continuous
 62
         7
100
AcDbLine
 10
182.8709335954
 20
216.4005634747
 30
0.0
 11
181.9312409746
 21
216.742583618
 31
0.0
  0
LINE
  5
E6
100
AcDbEntity
  8
0
370
        15
  6
Continuous
 62
         7
100
AcDbLine
 10
180.3145057092
 20
209.376835583
 30
0.0
 11
182.8709335954
 21
216.4005634747
 31
0.0
  0
LINE
  5
E7
100
AcDbEntity
  8
0
370
        15
  6
Continuous
 62
         7
100
AcDbLine
 10
180.3145057092
 20
209.376835583
 30
0.0
 11
179.3748130884
 21
209.7188557264
 31
0.0
  0
ARC
  5
E8
100
AcDbEntity
  8
0
370
        15
  6
Continuous
 62
         7
100
AcDbCircle
 10
137.4859691925
 20
205.9401684815
 30
0.0
 40
2.0
100
AcDbArc
 50
9.4712206345
 51
150.5287793655
  0
LINE
  5
E9
100
AcDbEntity
  8
0
370
        15
  6
Continuous
 62
         7
100
AcDbLine
 10
140.4450743315
 20
206.4338250186
 30
0.0
 11
139.4587059518
 21
206.2692728396
 31
0.0
  0
ARC
  5
EA
100
AcDbEntity
  8
0
370
        15
  6
Continuous
 62
         7
100
AcDbCircle
 10
180.9722905438
 20
209.1374214827
 30
0.0
 40
0.7
100
AcDbArc
 50
160.0
 51
260.0
  0
LINE
  5
EB
100
AcDbEntity
  8
0
370
        15
  6
Continuous
 62
         7
100
AcDbLine
 10
180.8507368194
 20
208.4480560556
 30
0.0
 11
180.6770886417
 21
207.4632483026
 31
0.0
  0
LINE
  5
EC
100
AcDbEntity
  8
0
370
        15
  6
Continuous
 62
         7
100
AcDbLine
 10
183.7522351453
 20
196.2590375796
 30
0.0
 11
184.7370428983
 21
196.0853894019
 31
0.0
  0
LINE
  5
ED
100
AcDbEntity
  8
0
370
        15
  6
Continuous
 62
         7
100
AcDbLine
 10
187.1037434157
 20
215.2663855017
 30
0.0
 11
183.7522351453
 21
196.2590375796
 31
0.0
  0
ARC
  5
EE
100
AcDbEntity
  8
0
370
        15
  6
Continuous
 62
         7
100
AcDbCircle
 10
143.4041794704
 20
206.9274815558
 30
0.0
 40
4.0
100
AcDbArc
 50
189.4712206345
 51
330.5287793655
  0
LINE
  5
EF
100
AcDbEntity
  8
0
370
        15
  6
Continuous
 62
         7
100
AcDbLine
 10
146.0159882541
 20
205.4515225869
 30
0.0
 11
146.8865911819
 21
204.9595362639
 31
0.0
  0
ARC
  5
F0
100
AcDbEntity
  8
0
370
        15
  6
Continuous
 62
         7
100
AcDbCircle
 10
148.6277970377
 20
203.975563618
 30
0.0
 40
2.0
100
AcDbArc
 50
9.4712206345
 51
150.5287793655
  0
LINE
  5
F1
100
AcDbEntity
  8
0
370
        15
  6
Continuous
 62
         7
100
AcDbLine
 10
151.5869021766
 20
204.4692201551
 30
0.0
 11
150.600533797
 21
204.3046679761
 31
0.0
  0
LINE
  5
F2
100
AcDbEntity
  8
0
370
        15
  6
Continuous
 62
         7
100
AcDbLine
 10
181.8099581764
 20
208.2789194499
 30
0.0
 11
180.8507368194
 21
208.4480560556
 31
0.0
  0
LINE
  5
F3
100
AcDbEntity
  8
0
370
        15
  6
Continuous
 62
         7
100
AcDbLine
 10
181.6363099987
 20
207.2941116969
 30
0.0
 11
181.8099581764
 21
208.2789194499
 31
0.0
  0
ARC
  5
F4
100
AcDbEntity
  8
0
370
        15
  6
Continuous
 62
         7
100
AcDbCircle
 10
181.4626618211
 20
206.3093039439
 30
0.0
 40
2.0
100
AcDbArc
 50
350.0
 51
80.0
  0
LINE
  5
F5
100
AcDbEntity
  8
0
370
        15
  6
Continuous
 62
         7
100
AcDbLine
 10
182.4474695741
 20
206.1356557662
 30
0.0
 11
183.4322773271
 21
205.9620075885
 31
0.0
  0
LINE
  5
F6
100
AcDbEntity
  8
0
370
        15
  6
Continuous
 62
         7
100
AcDbLine
 10
182.2167400834
 20
199.0683533174
 30
0.0
 11
183.4322773271
 21
205.9620075885
 31
0.0
  0
LINE
  5
F7
100
AcDbEntity
  8
0
370
        15
  6
Continuous
 62
         7
100
AcDbLine
 10
181.2319323304
 20
199.2420014951
 30
0.0
 11
182.2167400834
 21
199.0683533174
 31
0.0
  0
ARC
  5
F8
100
AcDbEntity
  8
0
370
        15
  6
Continuous
 62
         7
100
AcDbCircle
 10
159.7696248828
 20
202.0109587545
 30
0.0
 40
2.0
100
AcDbArc
 50
9.4712206345
 51
150.5287793655
  0
LINE
  5
F9
100
AcDbEntity
  8
0
370
        15
  6
Continuous
 62
         7
100
AcDbLine
 10
157.1578160992
 20
203.4869177234
 30
0.0
 11
158.028419027
 21
202.9949314004
 31
0.0
  0
LINE
  5
FA
100
AcDbEntity
  8
0
370
        15
  6
Continuous
 62
         7
100
AcDbLine
 10
162.7287300217
 20
202.5046152916
 30
0.0
 11
161.7423616421
 21
202.3400631126
 31
0.0
  0
ARC
  5
FB
100
AcDbEntity
  8
0
370
        15
  6
Continuous
 62
         7
100
AcDbCircle
 10
154.5460073156
 20
204.9628766923
 30
0.0
 40
4.0
100
AcDbArc
 50
189.4712206345
 51
330.5287793655
  0
ARC
  5
FC
100
AcDbEntity
  8
0
370
        15
  6
Continuous
 62
         7
100
AcDbCircle
 10
179.2623168244
 20
199.5892978504
 30
0.0
 40
3.0
100
AcDbArc
 50
260.0
 51
350.0
  0
LINE
  5
FD
100
AcDbEntity
  8
0
370
        15
  6
Continuous
 62
         7
100
AcDbLine
 10
178.9150204691
 20
197.6196823444
 30
0.0
 11
178.7413722914
 21
196.6348745914
 31
0.0
  0
ARC
  5
FE
100
AcDbEntity
  8
0
370
        15
  6
Continuous
 62
         7
100
AcDbCircle
 10
179.8130041332
 20
196.9536302902
 30
0.0
 40
4.0
100
AcDbArc
 50
260.0
 51
350.0
  0
LINE
  5
FF
100
AcDbEntity
  8
0
370
        15
  6
Continuous
 62
         7
100
AcDbLine
 10
176.1350702951
 20
197.0944359532
 30
0.0
 11
178.7413722914
 21
196.6348745914
 31
0.0
  0
LINE
  5
100
100
AcDbEntity
  8
0
370
        15
  6
Continuous
 62
         7
100
AcDbLine
 10
176.3087184728
 20
198.0792437062
 30
0.0
 11
176.1350702951
 21
197.0944359532
 31
0.0
  0
ARC
  5
101
100
AcDbEntity
  8
0
370
        15
  6
Continuous
 62
         7
100
AcDbCircle
 10
170.9114527279
 20
200.046353891
 30
0.0
 40
2.0
100
AcDbArc
 50
9.4712206345
 51
150.5287793655
  0
LINE
  5
102
100
AcDbEntity
  8
0
370
        15
  6
Continuous
 62
         7
100
AcDbLine
 10
168.2996439443
 20
201.5223128599
 30
0.0
 11
169.1702468722
 21
201.0303265369
 31
0.0
  0
LINE
  5
103
100
AcDbEntity
  8
0
370
        15
  6
Continuous
 62
         7
100
AcDbLine
 10
173.8705578669
 20
200.5400104281
 30
0.0
 11
172.8841894872
 21
200.3754582491
 31
0.0
  0
ARC
  5
104
100
AcDbEntity
  8
0
370
        15
  6
Continuous
 62
         7
100
AcDbCircle
 10
165.6878351607
 20
202.9982718288
 30
0.0
 40
4.0
100
AcDbArc
 50
189.4712206345
 51
330.5287793655
  0
ARC
  5
105
100
AcDbEntity
  8
0
370
        15
  6
Continuous
 62
         7
100
AcDbCircle
 10
176.8296630058
 20
201.0336669653
 30
0.0
 40
4.0
100
AcDbArc
 50
189.4712206345
 51
260.0
  0
CIRCLE
  5
106
100
AcDbEntity
  8
0
370
         0
  6
HIDDEN
 62
         9
100
AcDbCircle
 10
70.7814319766
 20
212.9355463269
 30
0.0
 40
4.25
  0
CIRCLE
  5
107
100
AcDbEntity
  8
0
370
         0
  6
HIDDEN
 62
         9
100
AcDbCircle
 10
92.6977153346
 20
214.8529726674
 30
0.0
 40
9.875
  0
CIRCLE
  5
108
100
AcDbEntity
  8
0
370
         0
  6
HIDDEN
 62
         9
100
AcDbCircle
 10
167.6977153346
 20
214.8529726674
 30
0.0
 40
9.875
  0
DIMENSION
  5
114
100
AcDbEntity
  8
0
100
AcDbDimension
  2
*D0
 10
47.6977153346
 20
179.8529726674
 30
0.0
 11
47.6977153346
 21
172.9549935233
 31
0.0
 70
       230
 71
         5
 72
         1
 41
1.0
 42
0.0
  3
SLDDIMSTYLE0
100
AcDbOrdinateDimension
 13
47.6977153346
 23
179.8529726674
 33
0.0
 14
47.6977153346
 24
172.9549935233
 34
0.0
  0
DIMENSION
  5
11D
100
AcDbEntity
  8
0
100
AcDbDimension
  2
*D2
 10
47.6977153346
 20
179.8529726674
 30
0.0
 11
57.6977153346
 21
172.9549935233
 31
0.0
 70
       230
 71
         5
 72
         1
 41
1.0
 42
0.0
  3
SLDDIMSTYLE1
100
AcDbOrdinateDimension
 13
57.6977153346
 23
189.8529726674
 33
0.0
 14
57.6977153346
 24
172.9549935233
 34
0.0
  0
DIMENSION
  5
125
100
AcDbEntity
  8
0
100
AcDbDimension
  2
*D3
 10
47.6977153346
 20
179.8529726674
 30
0.0
 11
92.6977153346
 21
172.9549935233
 31
0.0
 70
       230
 71
         5
 72
         1
 41
1.0
 42
0.0
  3
SLDDIMSTYLE1
100
AcDbOrdinateDimension
 13
92.6977153346
 23
214.8529726674
 33
0.0
 14
92.6977153346
 24
172.9549935233
 34
0.0
  0
DIMENSION
  5
12D
100
AcDbEntity
  8
0
100
AcDbDimension
  2
*D4
 10
47.6977153346
 20
179.8529726674
 30
0.0
 11
167.6977153346
 21
172.9549935233
 31
0.0
 70
       230
 71
         5
 72
         1
 41
1.0
 42
0.0
  3
SLDDIMSTYLE1
100
AcDbOrdinateDimension
 13
167.6977153346
 23
214.8529726674
 33
0.0
 14
167.6977153346
 24
172.9549935233
 34
0.0
  0
DIMENSION
  5
135
100
AcDbEntity
  8
0
100
AcDbDimension
  2
*D5
 10
47.6977153346
 20
179.8529726674
 30
0.0
 11
187.6977153346
 21
172.9549935233
 31
0.0
 70
       230
 71
         5
 72
         1
 41
1.0
 42
0.0
  3
SLDDIMSTYLE1
100
AcDbOrdinateDimension
 13
187.6977153346
 23
239.8529726674
 33
0.0
 14
187.6977153346
 24
172.9549935233
 34
0.0
  0
DIMENSION
  5
13D
100
AcDbEntity
  8
0
100
AcDbDimension
  2
*D6
 10
47.6977153346
 20
179.8529726674
 30
0.0
 11
197.6977153346
 21
172.9549935233
 31
0.0
 70
       230
 71
         5
 72
         1
 41
1.0
 42
0.0
  3
SLDDIMSTYLE1
100
AcDbOrdinateDimension
 13
197.6977153346
 23
179.8529726674
 33
0.0
 14
197.6977153346
 24
172.9549935233
 34
0.0
  0
DIMENSION
  5
145
100
AcDbEntity
  8
0
100
AcDbDimension
  2
*D7
 10
47.6977153346
 20
179.8529726674
 30
0.0
 11
70.7814319766
 21
172.9549935233
 31
0.0
 70
       230
 71
         5
 72
         1
 41
1.0
 42
0.0
  3
SLDDIMSTYLE1
100
AcDbOrdinateDimension
 13
70.7814319766
 23
212.9355463269
 33
0.0
 14
70.7814319766
 24
172.9549935233
 34
0.0
  0
DIMENSION
  5
14D
100
AcDbEntity
  8
0
100
AcDbDimension
  2
*D8
 10
197.6977153346
 20
179.8529726674
 30
0.0
 11
210.3941620849
 21
179.8529726674
 31
0.0
 70
       166
 71
         5
 72
         1
 41
1.0
 42
0.0
  3
SLDDIMSTYLE0
100
AcDbOrdinateDimension
 13
197.6977153346
 23
179.8529726674
 33
0.0
 14
210.3941620849
 24
179.8529726674
 34
0.0
  0
DIMENSION
  5
155
100
AcDbEntity
  8
0
100
AcDbDimension
  2
*D9
 10
197.6977153346
 20
179.8529726674
 30
0.0
 11
210.3941620849
 21
239.8529726674
 31
0.0
 70
       166
 71
         5
 72
         1
 41
1.0
 42
0.0
  3
SLDDIMSTYLE1
100
AcDbOrdinateDimension
 13
187.6977153346
 23
239.8529726674
 33
0.0
 14
210.3941620849
 24
239.8529726674
 34
0.0
  0
DIMENSION
  5
15F
100
AcDbEntity
  8
0
100
AcDbDimension
  2
*D10
 10
197.6977153346
 20
179.8529726674
 30
0.0
 11
210.3941620849
 21
221.8538398191
 31
0.0
 70
       166
 71
         5
 72
         1
 41
1.0
 42
0.0
  3
SLDDIMSTYLE1
100
AcDbOrdinateDimension
 13
92.6977153346
 23
214.8529726674
 33
0.0
 14
210.3941620849
 24
221.8538398191
 34
0.0
  0
DIMENSION
  5
167
100
AcDbEntity
  8
0
100
AcDbDimension
  2
*D11
 10
197.6977153346
 20
179.8529726674
 30
0.0
 11
210.3941620849
 21
189.8529726674
 31
0.0
 70
       166
 71
         5
 72
         1
 41
1.0
 42
0.0
  3
SLDDIMSTYLE1
100
AcDbOrdinateDimension
 13
57.6977153346
 23
189.8529726674
 33
0.0
 14
210.3941620849
 24
189.8529726674
 34
0.0
  0
DIMENSION
  5
16F
100
AcDbEntity
  8
0
100
AcDbDimension
  2
*D12
 10
197.6977153346
 20
179.8529726674
 30
0.0
 11
210.3941620849
 21
249.8529726674
 31
0.0
 70
       166
 71
         5
 72
         1
 41
1.0
 42
0.0
  3
SLDDIMSTYLE1
100
AcDbOrdinateDimension
 13
197.6977153346
 23
249.8529726674
 33
0.0
 14
210.3941620849
 24
249.8529726674
 34
0.0
  0
DIMENSION
  5
179
100
AcDbEntity
  8
0
100
AcDbDimension
  2
*D13
 10
197.6977153346
 20
179.8529726674
 30
0.0
 11
210.3941620849
 21
204.7564717443
 31
0.0
 70
       166
 71
         5
 72
         1
 41
1.0
 42
0.0
  3
SLDDIMSTYLE1
100
AcDbOrdinateDimension
 13
70.7814319766
 23
212.9355463269
 33
0.0
 14
210.3941620849
 24
204.7564717443
 34
0.0
  0
LEADER
  5
17A
100
AcDbEntity
  8
0
 62
       255
100
AcDbLeader
  3
SLDDIMSTYLE2
 73
         3
 74
         1
 75
         0
 40
0.0
 76
         3
 10
57.6977153346
 20
192.8529726674
 30
0.0
 10
50.5654216867
 20
197.5205855422
 30
0.0
 10
44.2154216867
 20
197.5205855422
 30
0.0
 77
       256
340
17C
  0
MTEXT
  5
17C
102
{ACAD_REACTORS
330
17A
102
}
100
AcDbEntity
  8
0
 62
         7
100
AcDbMText
 10
40.4158913111
 20
199.7714181742
 30
0.0
 40
3.5
 41
0.0
 71
         2
 72
         1
  1
M6
  7
SLDTEXTSTYLE0
 73
         1
 44
1.0
  0
LEADER
  5
17D
100
AcDbEntity
  8
0
 62
       255
100
AcDbLeader
  3
SLDDIMSTYLE2
 73
         3
 74
         0
 75
         0
 40
0.0
 76
         3
 10
187.6977153346
 20
242.8529726674
 30
0.0
 10
192.2034337349
 20
257.7503566265
 30
0.0
 10
198.5534337349
 20
257.7503566265
 30
0.0
 77
       256
340
17E
  0
MTEXT
  5
17E
102
{ACAD_REACTORS
330
17D
102
}
100
AcDbEntity
  8
0
 62
         7
100
AcDbMText
 10
202.3587534767
 20
260.0022371982
 30
0.0
 40
3.5
 41
0.0
 71
         2
 72
         1
  1
M6
  7
SLDTEXTSTYLE0
 73
         1
 44
1.0
  0
LEADER
  5
17F
100
AcDbEntity
  8
0
 62
       255
100
AcDbLeader
  3
SLDDIMSTYLE2
 73
         3
 74
         0
 75
         0
 40
0.0
 76
         3
 10
92.6977153346
 20
218.8529726674
 30
0.0
 10
104.3341204819
 20
253.4491518072
 30
0.0
 10
110.6841204819
 20
253.4491518072
 30
0.0
 77
       256
340
180
  0
MTEXT
  5
180
102
{ACAD_REACTORS
330
17F
102
}
100
AcDbEntity
  8
0
 62
         7
100
AcDbMText
 10
114.4886344137
 20
255.6997035789
 30
0.0
 40
3.5
 41
0.0
 71
         2
 72
         1
  1
M8
  7
SLDTEXTSTYLE0
 73
         1
 44
1.0
  0
LEADER
  5
181
100
AcDbEntity
  8
0
 62
       255
100
AcDbLeader
  3
SLDDIMSTYLE2
 73
         3
 74
         1
 75
         0
 40
0.0
 76
         3
 10
167.6977153346
 20
218.8529726674
 30
0.0
 10
163.2311807229
 20
255.2513566265
 30
0.0
 10
156.8811807229
 20
255.2513566265
 30
0.0
 77
       256
340
182
  0
MTEXT
  5
182
102
{ACAD_REACTORS
330
181
102
}
100
AcDbEntity
  8
0
 62
         7
100
AcDbMText
 10
153.0779472317
 20
257.5010258444
 30
0.0
 40
3.5
 41
0.0
 71
         2
 72
         1
  1
M8
  7
SLDTEXTSTYLE0
 73
         1
 44
1.0
  0
LEADER
  5
183
100
AcDbEntity
  8
0
 62
       255
100
AcDbLeader
  3
SLDDIMSTYLE3
 73
         3
 74
         0
 75
         0
 40
0.0
 76
         2
 10
120.7890315223
 20
228.9192583161
 30
0.0
 10
135.3945421687
 20
265.711886747
 30
0.0
 77
       256
340
18D
  0
MTEXT
  5
18D
102
{ACAD_REACTORS
330
183
102
}
100
AcDbEntity
  8
0
 62
         7
100
AcDbMText
 10
135.896019248
 20
267.9629976374
 30
0.0
 40
3.5
 41
0.0
 71
         1
 72
         1
  1
forme suivant fichier STEP/IGES
  7
SLDTEXTSTYLE0
 73
         1
 44
1.0
  0
LINE
  5
18E
100
AcDbEntity
  8
0
  6
Continuous
 62
         7
100
AcDbLine
 10
55.1977153346
 20
189.8529726674
 30
0.0
 11
60.1977153346
 21
189.8529726674
 31
0.0
  0
LINE
  5
18F
100
AcDbEntity
  8
0
  6
Continuous
 62
         7
100
AcDbLine
 10
57.6977153346
 20
187.3529726674
 30
0.0
 11
57.6977153346
 21
192.3529726674
 31
0.0
  0
LINE
  5
190
100
AcDbEntity
  8
0
  6
Continuous
 62
         7
100
AcDbLine
 10
60.1977153346
 20
189.8529726674
 30
0.0
 11
62.6977153346
 21
189.8529726674
 31
0.0
  0
LINE
  5
191
100
AcDbEntity
  8
0
  6
Continuous
 62
         7
100
AcDbLine
 10
55.1977153346
 20
189.8529726674
 30
0.0
 11
52.6977153346
 21
189.8529726674
 31
0.0
  0
LINE
  5
192
100
AcDbEntity
  8
0
  6
Continuous
 62
         7
100
AcDbLine
 10
57.6977153346
 20
192.3529726674
 30
0.0
 11
57.6977153346
 21
194.8529726674
 31
0.0
  0
LINE
  5
193
100
AcDbEntity
  8
0
  6
Continuous
 62
         7
100
AcDbLine
 10
57.6977153346
 20
187.3529726674
 30
0.0
 11
57.6977153346
 21
184.8529726674
 31
0.0
  0
LINE
  5
194
100
AcDbEntity
  8
0
  6
Continuous
 62
         7
100
AcDbLine
 10
68.2814319766
 20
212.9355463269
 30
0.0
 11
73.2814319766
 21
212.9355463269
 31
0.0
  0
LINE
  5
195
100
AcDbEntity
  8
0
  6
Continuous
 62
         7
100
AcDbLine
 10
70.7814319766
 20
210.4355463269
 30
0.0
 11
70.7814319766
 21
215.4355463269
 31
0.0
  0
LINE
  5
196
100
AcDbEntity
  8
0
  6
Continuous
 62
         7
100
AcDbLine
 10
75.7814319766
 20
212.9355463269
 30
0.0
 11
77.5314319766
 21
212.9355463269
 31
0.0
  0
LINE
  5
197
100
AcDbEntity
  8
0
  6
Continuous
 62
         7
100
AcDbLine
 10
65.7814319766
 20
212.9355463269
 30
0.0
 11
64.0314319766
 21
212.9355463269
 31
0.0
  0
LINE
  5
198
100
AcDbEntity
  8
0
  6
Continuous
 62
         7
100
AcDbLine
 10
70.7814319766
 20
217.9355463269
 30
0.0
 11
70.7814319766
 21
219.6855463269
 31
0.0
  0
LINE
  5
199
100
AcDbEntity
  8
0
  6
Continuous
 62
         7
100
AcDbLine
 10
70.7814319766
 20
207.9355463269
 30
0.0
 11
70.7814319766
 21
206.1855463269
 31
0.0
  0
LINE
  5
19A
100
AcDbEntity
  8
0
  6
Continuous
 62
         7
100
AcDbLine
 10
90.1977153346
 20
214.8529726674
 30
0.0
 11
95.1977153346
 21
214.8529726674
 31
0.0
  0
LINE
  5
19B
100
AcDbEntity
  8
0
  6
Continuous
 62
         7
100
AcDbLine
 10
92.6977153346
 20
212.3529726674
 30
0.0
 11
92.6977153346
 21
217.3529726674
 31
0.0
  0
LINE
  5
19C
100
AcDbEntity
  8
0
  6
Continuous
 62
         7
100
AcDbLine
 10
97.6977153346
 20
214.8529726674
 30
0.0
 11
98.5727153346
 21
214.8529726674
 31
0.0
  0
LINE
  5
19D
100
AcDbEntity
  8
0
  6
Continuous
 62
         7
100
AcDbLine
 10
87.6977153346
 20
214.8529726674
 30
0.0
 11
86.8227153346
 21
214.8529726674
 31
0.0
  0
LINE
  5
19E
100
AcDbEntity
  8
0
  6
Continuous
 62
         7
100
AcDbLine
 10
92.6977153346
 20
219.8529726674
 30
0.0
 11
92.6977153346
 21
220.7279726674
 31
0.0
  0
LINE
  5
19F
100
AcDbEntity
  8
0
  6
Continuous
 62
         7
100
AcDbLine
 10
92.6977153346
 20
209.8529726674
 30
0.0
 11
92.6977153346
 21
208.9779726674
 31
0.0
  0
LINE
  5
1A0
100
AcDbEntity
  8
0
  6
Continuous
 62
         7
100
AcDbLine
 10
165.1977153346
 20
214.8529726674
 30
0.0
 11
170.1977153346
 21
214.8529726674
 31
0.0
  0
LINE
  5
1A1
100
AcDbEntity
  8
0
  6
Continuous
 62
         7
100
AcDbLine
 10
167.6977153346
 20
212.3529726674
 30
0.0
 11
167.6977153346
 21
217.3529726674
 31
0.0
  0
LINE
  5
1A2
100
AcDbEntity
  8
0
  6
Continuous
 62
         7
100
AcDbLine
 10
172.6977153346
 20
214.8529726674
 30
0.0
 11
173.5727153346
 21
214.8529726674
 31
0.0
  0
LINE
  5
1A3
100
AcDbEntity
  8
0
  6
Continuous
 62
         7
100
AcDbLine
 10
162.6977153346
 20
214.8529726674
 30
0.0
 11
161.8227153346
 21
214.8529726674
 31
0.0
  0
LINE
  5
1A4
100
AcDbEntity
  8
0
  6
Continuous
 62
         7
100
AcDbLine
 10
167.6977153346
 20
219.8529726674
 30
0.0
 11
167.6977153346
 21
220.7279726674
 31
0.0
  0
LINE
  5
1A5
100
AcDbEntity
  8
0
  6
Continuous
 62
         7
100
AcDbLine
 10
167.6977153346
 20
209.8529726674
 30
0.0
 11
167.6977153346
 21
208.9779726674
 31
0.0
  0
LINE
  5
1A6
100
AcDbEntity
  8
0
  6
Continuous
 62
         7
100
AcDbLine
 10
185.1977153346
 20
239.8529726674
 30
0.0
 11
190.1977153346
 21
239.8529726674
 31
0.0
  0
LINE
  5
1A7
100
AcDbEntity
  8
0
  6
Continuous
 62
         7
100
AcDbLine
 10
187.6977153346
 20
237.3529726674
 30
0.0
 11
187.6977153346
 21
242.3529726674
 31
0.0
  0
LINE
  5
1A8
100
AcDbEntity
  8
0
  6
Continuous
 62
         7
100
AcDbLine
 10
190.1977153346
 20
239.8529726674
 30
0.0
 11
192.6977153346
 21
239.8529726674
 31
0.0
  0
LINE
  5
1A9
100
AcDbEntity
  8
0
  6
Continuous
 62
         7
100
AcDbLine
 10
185.1977153346
 20
239.8529726674
 30
0.0
 11
182.6977153346
 21
239.8529726674
 31
0.0
  0
LINE
  5
1AA
100
AcDbEntity
  8
0
  6
Continuous
 62
         7
100
AcDbLine
 10
187.6977153346
 20
242.3529726674
 30
0.0
 11
187.6977153346
 21
244.8529726674
 31
0.0
  0
LINE
  5
1AB
100
AcDbEntity
  8
0
  6
Continuous
 62
         7
100
AcDbLine
 10
187.6977153346
 20
237.3529726674
 30
0.0
 11
187.6977153346
 21
234.8529726674
 31
0.0
  0
LINE
  5
1AC
100
AcDbEntity
  8
0
  6
Continuous
 62
         7
100
AcDbLine
 10
68.2814319766
 20
212.9355463269
 30
0.0
 11
73.2814319766
 21
212.9355463269
 31
0.0
  0
LINE
  5
1AD
100
AcDbEntity
  8
0
  6
Continuous
 62
         7
100
AcDbLine
 10
70.7814319766
 20
210.4355463269
 30
0.0
 11
70.7814319766
 21
215.4355463269
 31
0.0
  0
LINE
  5
1AE
100
AcDbEntity
  8
0
  6
Continuous
 62
         7
100
AcDbLine
 10
75.7814319766
 20
212.9355463269
 30
0.0
 11
77.5314319766
 21
212.9355463269
 31
0.0
  0
LINE
  5
1AF
100
AcDbEntity
  8
0
  6
Continuous
 62
         7
100
AcDbLine
 10
65.7814319766
 20
212.9355463269
 30
0.0
 11
64.0314319766
 21
212.9355463269
 31
0.0
  0
LINE
  5
1B0
100
AcDbEntity
  8
0
  6
Continuous
 62
         7
100
AcDbLine
 10
70.7814319766
 20
217.9355463269
 30
0.0
 11
70.7814319766
 21
219.6855463269
 31
0.0
  0
LINE
  5
1B1
100
AcDbEntity
  8
0
  6
Continuous
 62
         7
100
AcDbLine
 10
70.7814319766
 20
207.9355463269
 30
0.0
 11
70.7814319766
 21
206.1855463269
 31
0.0
  0
LINE
  5
1B2
100
AcDbEntity
  8
0
  6
CENTER
 62
         7
100
AcDbLine
 10
37.0850340873
 20
214.8529726674
 30
0.0
 11
235.3580091416
 21
214.8529726674
 31
0.0
  0
SOLID
  5
1B3
100
AcDbEntity
  8
0
  6
Continuous
 62
         7
100
AcDbTrace
 10
39.0850340873
 20
214.8529726674
 30
0.0
 11
38.0850340873
 21
210.8529726674
 31
0.0
 12
40.0850340873
 22
210.8529726674
 32
0.0
 13
40.0850340873
 23
210.8529726674
 33
0.0
  0
LINE
  5
1B4
100
AcDbEntity
  8
0
  6
Continuous
 62
         7
100
AcDbLine
 10
39.0850340873
 20
202.8529726674
 30
0.0
 11
39.0850340873
 21
214.8529726674
 31
0.0
  0
SOLID
  5
1B5
100
AcDbEntity
  8
0
  6
Continuous
 62
         7
100
AcDbTrace
 10
233.3580091416
 20
214.8529726674
 30
0.0
 11
232.3580091416
 21
210.8529726674
 31
0.0
 12
234.3580091416
 22
210.8529726674
 32
0.0
 13
234.3580091416
 23
210.8529726674
 33
0.0
  0
LINE
  5
1B6
100
AcDbEntity
  8
0
  6
Continuous
 62
         7
100
AcDbLine
 10
233.3580091416
 20
202.8529726674
 30
0.0
 11
233.3580091416
 21
214.8529726674
 31
0.0
  0
MTEXT
  5
1B7
100
AcDbEntity
  8
0
100
AcDbMText
 10
41.590055774
 20
212.9349967637
 30
0.0
 40
6.35
 41
0.0
 71
         1
 72
         1
  1
A
 73
         1
 44
1.0
  0
MTEXT
  5
1B8
100
AcDbEntity
  8
0
100
AcDbMText
 10
235.8630308284
 20
212.9349967637
 30
0.0
 40
6.35
 41
0.0
 71
         1
 72
         1
  1
A
 73
         1
 44
1.0
  0
ARC
  5
1B9
100
AcDbEntity
  8
0
  6
Continuous
 62
         7
100
AcDbCircle
 10
167.6977153346
 20
214.8529726674
 30
0.0
 40
4.0
100
AcDbArc
 50
255.0
 51
195.0
  0
ARC
  5
1BA
100
AcDbEntity
  8
0
  6
Continuous
 62
         7
100
AcDbCircle
 10
92.6977153346
 20
214.8529726674
 30
0.0
 40
4.0
100
AcDbArc
 50
255.0
 51
195.0
  0
ARC
  5
1BB
100
AcDbEntity
  8
0
  6
Continuous
 62
         7
100
AcDbCircle
 10
57.6977153346
 20
189.8529726674
 30
0.0
 40
3.0
100
AcDbArc
 50
255.0
 51
195.0
  0
ARC
  5
1BC
100
AcDbEntity
  8
0
  6
Continuous
 62
         7
100
AcDbCircle
 10
187.6977153346
 20
239.8529726674
 30
0.0
 40
3.0
100
AcDbArc
 50
255.0
 51
195.0
  0
LINE
  5
1BD
100
AcDbEntity
  8
0
370
         0
  6
Continuous
 62
         7
100
AcDbLine
 10
352.4454618065
 20
106.7331565333
 30
0.0
 11
354.9914862908
 21
109.2791810176
 31
0.0
  0
LINE
  5
1BE
100
AcDbEntity
  8
0
370
         0
  6
Continuous
 62
         7
100
AcDbLine
 10
352.4454618065
 20
102.2430284728
 30
0.0
 11
359.4816143514
 21
109.2791810176
 31
0.0
  0
LINE
  5
1BF
100
AcDbEntity
  8
0
370
         0
  6
Continuous
 62
         7
100
AcDbLine
 10
353.9586021092
 20
99.2660407149
 30
0.0
 11
362.6162253061
 21
107.9236639118
 31
0.0
  0
LINE
  5
1C0
100
AcDbEntity
  8
0
370
         0
  6
Continuous
 62
         7
100
AcDbLine
 10
356.2036661395
 20
97.0209766846
 30
0.0
 11
362.8438156699
 21
103.6611262151
 31
0.0
  0
LINE
  5
1C1
100
AcDbEntity
  8
0
370
         0
  6
Continuous
 62
         7
100
AcDbLine
 10
369.4190206626
 20
105.7462031472
 30
0.0
 11
372.951998533
 21
109.2791810176
 31
0.0
  0
LINE
  5
1C2
100
AcDbEntity
  8
0
370
         0
  6
Continuous
 62
         7
100
AcDbLine
 10
358.4487301697
 20
94.7759126544
 30
0.0
 11
366.951998533
 21
103.2791810176
 31
0.0
  0
LINE
  5
1C3
100
AcDbEntity
  8
0
370
         0
  6
Continuous
 62
         7
100
AcDbLine
 10
362.4421265935
 20
94.2791810176
 30
0.0
 11
377.4421265935
 21
109.2791810176
 31
0.0
  0
LINE
  5
1C4
100
AcDbEntity
  8
0
370
         0
  6
Continuous
 62
         7
100
AcDbLine
 10
366.932254654
 20
94.2791810176
 30
0.0
 11
379.0704618065
 21
106.4173881701
 31
0.0
  0
LINE
  5
1C5
100
AcDbEntity
  8
0
370
         0
  6
Continuous
 62
         7
100
AcDbLine
 10
371.4223827146
 20
94.2791810176
 30
0.0
 11
379.0704618065
 21
101.9272601096
 31
0.0
  0
LINE
  5
1C6
100
AcDbEntity
  8
0
370
         0
  6
Continuous
 62
         7
100
AcDbLine
 10
375.9125107751
 20
94.2791810176
 30
0.0
 11
379.0704618065
 21
97.437132049
 31
0.0
  0
LINE
  5
1C7
100
AcDbEntity
  8
0
370
         0
  6
Continuous
 62
         7
100
AcDbLine
 10
277.4454618065
 20
108.0653335624
 30
0.0
 11
278.6593092617
 21
109.2791810176
 31
0.0
  0
LINE
  5
1C8
100
AcDbEntity
  8
0
370
         0
  6
Continuous
 62
         7
100
AcDbLine
 10
277.4454618065
 20
103.5752055018
 30
0.0
 11
283.1494373223
 21
109.2791810176
 31
0.0
  0
LINE
  5
1C9
100
AcDbEntity
  8
0
370
         0
  6
Continuous
 62
         7
100
AcDbLine
 10
278.2925135947
 20
99.9321292294
 30
0.0
 11
285.0704618065
 21
106.7100774413
 31
0.0
  0
LINE
  5
1CA
100
AcDbEntity
  8
0
370
         0
  6
Continuous
 62
         7
100
AcDbLine
 10
288.4704618065
 20
105.6199493808
 30
0.0
 11
292.1296934433
 21
109.2791810176
 31
0.0
  0
LINE
  5
1CB
100
AcDbEntity
  8
0
370
         0
  6
Continuous
 62
         7
100
AcDbLine
 10
280.5375776249
 20
97.6870651992
 30
0.0
 11
286.1296934433
 21
103.2791810176
 31
0.0
  0
LINE
  5
1CC
100
AcDbEntity
  8
0
370
         0
  6
Continuous
 62
         7
100
AcDbLine
 10
282.7826416552
 20
95.4420011689
 30
0.0
 11
296.6198215039
 21
109.2791810176
 31
0.0
  0
LINE
  5
1CD
100
AcDbEntity
  8
0
370
         0
  6
Continuous
 62
         7
100
AcDbLine
 10
286.1099495644
 20
94.2791810176
 30
0.0
 11
301.1099495644
 21
109.2791810176
 31
0.0
  0
LINE
  5
1CE
100
AcDbEntity
  8
0
370
         0
  6
Continuous
 62
         7
100
AcDbLine
 10
290.6000776249
 20
94.2791810176
 30
0.0
 11
305.6000776249
 21
109.2791810176
 31
0.0
  0
LINE
  5
1CF
100
AcDbEntity
  8
0
370
         0
  6
Continuous
 62
         7
100
AcDbLine
 10
295.0902056855
 20
94.2791810176
 30
0.0
 11
310.0902056855
 21
109.2791810176
 31
0.0
  0
LINE
  5
1D0
100
AcDbEntity
  8
0
370
         0
  6
Continuous
 62
         7
100
AcDbLine
 10
299.580333746
 20
94.2791810176
 30
0.0
 11
314.580333746
 21
109.2791810176
 31
0.0
  0
LINE
  5
1D1
100
AcDbEntity
  8
0
370
         0
  6
Continuous
 62
         7
100
AcDbLine
 10
304.0704618065
 20
94.2791810176
 30
0.0
 11
319.0704618065
 21
109.2791810176
 31
0.0
  0
LINE
  5
1D2
100
AcDbEntity
  8
0
370
         0
  6
Continuous
 62
         7
100
AcDbLine
 10
308.5605898671
 20
94.2791810176
 30
0.0
 11
323.5605898671
 21
109.2791810176
 31
0.0
  0
LINE
  5
1D3
100
AcDbEntity
  8
0
370
         0
  6
Continuous
 62
         7
100
AcDbLine
 10
313.0507179276
 20
94.2791810176
 30
0.0
 11
328.0507179276
 21
109.2791810176
 31
0.0
  0
LINE
  5
1D4
100
AcDbEntity
  8
0
370
         0
  6
Continuous
 62
         7
100
AcDbLine
 10
317.5408459881
 20
94.2791810176
 30
0.0
 11
332.5408459881
 21
109.2791810176
 31
0.0
  0
LINE
  5
1D5
100
AcDbEntity
  8
0
370
         0
  6
Continuous
 62
         7
100
AcDbLine
 10
322.0309740487
 20
94.2791810176
 30
0.0
 11
337.0309740487
 21
109.2791810176
 31
0.0
  0
LINE
  5
1D6
100
AcDbEntity
  8
0
370
         0
  6
Continuous
 62
         7
100
AcDbLine
 10
326.5211021092
 20
94.2791810176
 30
0.0
 11
341.5211021092
 21
109.2791810176
 31
0.0
  0
LINE
  5
1D7
100
AcDbEntity
  8
0
370
         0
  6
Continuous
 62
         7
100
AcDbLine
 10
331.0112301697
 20
94.2791810176
 30
0.0
 11
345.6954618065
 21
108.9634126544
 31
0.0
  0
LINE
  5
1D8
100
AcDbEntity
  8
0
370
         0
  6
Continuous
 62
         7
100
AcDbLine
 10
335.5013582303
 20
94.2791810176
 30
0.0
 11
345.6954618065
 21
104.4732845938
 31
0.0
  0
LINE
  5
1D9
100
AcDbEntity
  8
0
370
         0
  6
Continuous
 62
         7
100
AcDbLine
 10
229.0704618065
 20
109.0817422283
 30
0.0
 11
229.2679005958
 21
109.2791810176
 31
0.0
  0
LINE
  5
1DA
100
AcDbEntity
  8
0
370
         0
  6
Continuous
 62
         7
100
AcDbLine
 10
229.0704618065
 20
104.5916141677
 30
0.0
 11
233.7580286564
 21
109.2791810176
 31
0.0
  0
LINE
  5
1DB
100
AcDbEntity
  8
0
370
         0
  6
Continuous
 62
         7
100
AcDbLine
 10
229.0704618065
 20
100.1014861072
 30
0.0
 11
238.2481567169
 21
109.2791810176
 31
0.0
  0
LINE
  5
1DC
100
AcDbEntity
  8
0
370
         0
  6
Continuous
 62
         7
100
AcDbLine
 10
229.0704618065
 20
95.6113580467
 30
0.0
 11
242.7382847775
 21
109.2791810176
 31
0.0
  0
LINE
  5
1DD
100
AcDbEntity
  8
0
370
         0
  6
Continuous
 62
         7
100
AcDbLine
 10
232.228412838
 20
94.2791810176
 30
0.0
 11
246.4688045621
 21
108.5195727416
 31
0.0
  0
LINE
  5
1DE
100
AcDbEntity
  8
0
370
         0
  6
Continuous
 62
         7
100
AcDbLine
 10
236.7185408985
 20
94.2791810176
 30
0.0
 11
248.2185408985
 21
105.7791810176
 31
0.0
  0
LINE
  5
1DF
100
AcDbEntity
  8
0
370
         0
  6
Continuous
 62
         7
100
AcDbLine
 10
241.2086689591
 20
94.2791810176
 30
0.0
 11
252.7086689591
 21
105.7791810176
 31
0.0
  0
LINE
  5
1E0
100
AcDbEntity
  8
0
370
         0
  6
Continuous
 62
         7
100
AcDbLine
 10
251.6987970196
 20
100.2791810176
 30
0.0
 11
257.1987970196
 21
105.7791810176
 31
0.0
  0
LINE
  5
1E1
100
AcDbEntity
  8
0
370
         0
  6
Continuous
 62
         7
100
AcDbLine
 10
245.6987970196
 20
94.2791810176
 30
0.0
 11
248.3612935005
 21
96.9416774985
 31
0.0
  0
LINE
  5
1E2
100
AcDbEntity
  8
0
370
         0
  6
Continuous
 62
         7
100
AcDbLine
 10
263.0704618065
 20
107.160717744
 30
0.0
 11
265.1889250801
 21
109.2791810176
 31
0.0
  0
LINE
  5
1E3
100
AcDbEntity
  8
0
370
         0
  6
Continuous
 62
         7
100
AcDbLine
 10
255.9470633965
 20
100.037319334
 30
0.0
 11
259.2437879513
 21
103.3340438887
 31
0.0
  0
LINE
  5
1E4
100
AcDbEntity
  8
0
370
         0
  6
Continuous
 62
         7
100
AcDbLine
 10
255.9470633965
 20
95.5471912735
 30
0.0
 11
269.6790531407
 21
109.2791810176
 31
0.0
  0
LINE
  5
1E5
100
AcDbEntity
  8
0
370
         0
  6
Continuous
 62
         7
100
AcDbLine
 10
259.1691812012
 20
94.2791810176
 30
0.0
 11
270.6954618065
 21
105.8054616229
 31
0.0
  0
LINE
  5
1E6
100
AcDbEntity
  8
0
370
         0
  6
Continuous
 62
         7
100
AcDbLine
 10
263.6593092617
 20
94.2791810176
 30
0.0
 11
270.6954618065
 21
101.3153335624
 31
0.0
  0
LINE
  5
1E7
100
AcDbEntity
  8
0
370
        15
  6
Continuous
 62
         7
100
AcDbLine
 10
288.4704618065
 20
104.2791810176
 30
0.0
 11
288.4704618065
 21
109.2791810176
 31
0.0
  0
ARC
  5
1E8
100
AcDbEntity
  8
0
370
        15
  6
Continuous
 62
         7
100
AcDbCircle
 10
287.4704618065
 20
104.2791810176
 30
0.0
 40
1.0
100
AcDbArc
 50
270.0
 51
0.0
  0
POLYLINE
  5
1E9
100
AcDbEntity
  8
0
370
        15
  6
Continuous
 62
         7
100
AcDb2dPolyline
 66
         1
 10
0.0
 20
0.0
 30
0.0
 70
       128
  0
VERTEX
  5
1EA
100
AcDbEntity
  8
0
100
AcDbVertex
100
AcDb2dVertex
 10
368.4035940507
 20
103.2791810176
 30
0.0
  0
VERTEX
  5
1EB
100
AcDbEntity
  8
0
100
AcDbVertex
100
AcDb2dVertex
 10
368.6016939554
 20
103.2983957372
 30
0.0
  0
VERTEX
  5
1EC
100
AcDbEntity
  8
0
100
AcDbVertex
100
AcDb2dVertex
 10
368.7921809919
 20
103.3553014851
 30
0.0
  0
VERTEX
  5
1ED
100
AcDbEntity
  8
0
100
AcDbVertex
100
AcDb2dVertex
 10
368.9677348501
 20
103.4477114053
 30
0.0
  0
VERTEX
  5
1EE
100
AcDbEntity
  8
0
100
AcDbVertex
100
AcDb2dVertex
 10
369.1216090938
 20
103.5720742364
 30
0.0
  0
VERTEX
  5
1EF
100
AcDbEntity
  8
0
100
AcDbVertex
100
AcDb2dVertex
 10
369.247890422
 20
103.7236107846
 30
0.0
  0
VERTEX
  5
1F0
100
AcDbEntity
  8
0
100
AcDbVertex
100
AcDb2dVertex
 10
369.3417259142
 20
103.8964975852
 30
0.0
  0
VERTEX
  5
1F1
100
AcDbEntity
  8
0
100
AcDbVertex
100
AcDb2dVertex
 10
369.399509525
 20
104.0840906956
 30
0.0
  0
VERTEX
  5
1F2
100
AcDbEntity
  8
0
100
AcDbVertex
100
AcDb2dVertex
 10
369.4190206626
 20
104.2791810176
 30
0.0
  0
SEQEND
  5
1F3
100
AcDbEntity
  8
0
  0
LINE
  5
1F4
100
AcDbEntity
  8
0
370
        15
  6
Continuous
 62
         7
100
AcDbLine
 10
362.6162253061
 20
104.2791810176
 30
0.0
 11
362.6162253061
 21
109.2791810176
 31
0.0
  0
LINE
  5
1F5
100
AcDbEntity
  8
0
370
        15
  6
Continuous
 62
         7
100
AcDbLine
 10
362.6162253061
 20
109.2791810176
 30
0.0
 11
363.3039874465
 21
109.2791810176
 31
0.0
  0
LINE
  5
1F6
100
AcDbEntity
  8
0
370
        15
  6
Continuous
 62
         7
100
AcDbLine
 10
246.4688045621
 20
109.2791810176
 30
0.0
 11
246.4688045621
 21
105.7791810176
 31
0.0
  0
LINE
  5
1F7
100
AcDbEntity
  8
0
370
        15
  6
Continuous
 62
         7
100
AcDbLine
 10
250.6489152974
 20
109.2791810176
 30
0.0
 11
246.4688045621
 21
109.2791810176
 31
0.0
  0
LINE
  5
1F8
100
AcDbEntity
  8
0
370
        15
  6
Continuous
 62
         7
100
AcDbLine
 10
248.3612935005
 20
100.2791810176
 30
0.0
 11
248.3612935005
 21
94.2791810176
 31
0.0
  0
LINE
  5
1F9
100
AcDbEntity
  8
0
370
        15
  6
Continuous
 62
         7
100
AcDbLine
 10
255.9470633965
 20
94.2791810176
 30
0.0
 11
255.9470633965
 21
100.2791810176
 31
0.0
  0
LINE
  5
1FA
100
AcDbEntity
  8
0
370
        15
  6
Continuous
 62
         7
100
AcDbLine
 10
248.3612935005
 20
94.2791810176
 30
0.0
 11
255.9470633965
 21
94.2791810176
 31
0.0
  0
LINE
  5
1FB
100
AcDbEntity
  8
0
370
        15
  6
Continuous
 62
         7
100
AcDbLine
 10
277.4454618065
 20
100.7791810176
 30
0.0
 11
277.4454618065
 21
109.2791810176
 31
0.0
  0
LINE
  5
1FC
100
AcDbEntity
  8
0
370
        15
  6
Continuous
 62
         7
100
AcDbLine
 10
270.6954618065
 20
100.7791810176
 30
0.0
 11
277.4454618065
 21
100.7791810176
 31
0.0
  0
LINE
  5
1FD
100
AcDbEntity
  8
0
370
        15
  6
Continuous
 62
         7
100
AcDbLine
 10
270.6954618065
 20
109.2791810176
 30
0.0
 11
270.6954618065
 21
100.7791810176
 31
0.0
  0
LINE
  5
1FE
100
AcDbEntity
  8
0
370
        15
  6
Continuous
 62
         7
100
AcDbLine
 10
277.4454618065
 20
109.2791810176
 30
0.0
 11
270.6954618065
 21
109.2791810176
 31
0.0
  0
ARC
  5
1FF
100
AcDbEntity
  8
0
370
        15
  6
Continuous
 62
         7
100
AcDbCircle
 10
262.0704618065
 20
104.2791810176
 30
0.0
 40
1.0
100
AcDbArc
 50
270.0
 51
0.0
  0
LINE
  5
200
100
AcDbEntity
  8
0
370
        15
  6
Continuous
 62
         7
100
AcDbLine
 10
379.0704618065
 20
109.2791810176
 30
0.0
 11
379.0704618065
 21
94.2791810176
 31
0.0
  0
LINE
  5
201
100
AcDbEntity
  8
0
370
        15
  6
Continuous
 62
         7
100
AcDbLine
 10
379.0704618065
 20
94.2791810176
 30
0.0
 11
358.9454618065
 21
94.2791810176
 31
0.0
  0
LINE
  5
202
100
AcDbEntity
  8
0
370
        15
  6
Continuous
 62
         7
100
AcDbLine
 10
352.4454618065
 20
100.7791810176
 30
0.0
 11
358.9454618065
 21
94.2791810176
 31
0.0
  0
LINE
  5
203
100
AcDbEntity
  8
0
370
        15
  6
Continuous
 62
         7
100
AcDbLine
 10
352.4454618065
 20
100.7791810176
 30
0.0
 11
352.4454618065
 21
109.2791810176
 31
0.0
  0
POLYLINE
  5
204
100
AcDbEntity
  8
0
370
        15
  6
Continuous
 62
         7
100
AcDb2dPolyline
 66
         1
 10
0.0
 20
0.0
 30
0.0
 70
       128
  0
VERTEX
  5
205
100
AcDbEntity
  8
0
100
AcDbVertex
100
AcDb2dVertex
 10
362.6162253061
 20
104.2791810176
 30
0.0
  0
VERTEX
  5
206
100
AcDbEntity
  8
0
100
AcDbVertex
100
AcDb2dVertex
 10
362.6366731836
 20
104.0840906956
 30
0.0
  0
VERTEX
  5
207
100
AcDbEntity
  8
0
100
AcDbVertex
100
AcDb2dVertex
 10
362.6972310157
 20
103.8964975852
 30
0.0
  0
VERTEX
  5
208
100
AcDbEntity
  8
0
100
AcDbVertex
100
AcDb2dVertex
 10
362.7955715987
 20
103.7236107846
 30
0.0
  0
VERTEX
  5
209
100
AcDbEntity
  8
0
100
AcDbVertex
100
AcDb2dVertex
 10
362.9279157593
 20
103.5720742364
 30
0.0
  0
VERTEX
  5
20A
100
AcDbEntity
  8
0
100
AcDbVertex
100
AcDb2dVertex
 10
363.0891775856
 20
103.4477114053
 30
0.0
  0
VERTEX
  5
20B
100
AcDbEntity
  8
0
100
AcDbVertex
100
AcDb2dVertex
 10
363.273159876
 20
103.3553014851
 30
0.0
  0
VERTEX
  5
20C
100
AcDbEntity
  8
0
100
AcDbVertex
100
AcDb2dVertex
 10
363.4727922943
 20
103.2983957372
 30
0.0
  0
VERTEX
  5
20D
100
AcDbEntity
  8
0
100
AcDbVertex
100
AcDb2dVertex
 10
363.6804030786
 20
103.2791810176
 30
0.0
  0
SEQEND
  5
20E
100
AcDbEntity
  8
0
  0
LINE
  5
20F
100
AcDbEntity
  8
0
370
        15
  6
Continuous
 62
         7
100
AcDbLine
 10
369.4190206626
 20
109.2791810176
 30
0.0
 11
369.4190206626
 21
104.2791810176
 31
0.0
  0
LINE
  5
210
100
AcDbEntity
  8
0
370
        15
  6
Continuous
 62
         7
100
AcDbLine
 10
368.4035940507
 20
103.2791810176
 30
0.0
 11
363.6804030786
 21
103.2791810176
 31
0.0
  0
LINE
  5
211
100
AcDbEntity
  8
0
370
        15
  6
Continuous
 62
         7
100
AcDbLine
 10
362.6162253061
 20
109.2791810176
 30
0.0
 11
352.4454618065
 21
109.2791810176
 31
0.0
  0
LINE
  5
212
100
AcDbEntity
  8
0
370
        15
  6
Continuous
 62
         7
100
AcDbLine
 10
379.0704618065
 20
109.2791810176
 30
0.0
 11
369.4190206626
 21
109.2791810176
 31
0.0
  0
LINE
  5
213
100
AcDbEntity
  8
0
370
        15
  6
Continuous
 62
         7
100
AcDbLine
 10
283.9454618065
 20
94.2791810176
 30
0.0
 11
264.1954618065
 21
94.2791810176
 31
0.0
  0
LINE
  5
214
100
AcDbEntity
  8
0
370
        15
  6
Continuous
 62
         7
100
AcDbLine
 10
264.1954618065
 20
94.2791810176
 30
0.0
 11
270.6954618065
 21
100.7791810176
 31
0.0
  0
LINE
  5
215
100
AcDbEntity
  8
0
370
        15
  6
Continuous
 62
         7
100
AcDbLine
 10
277.4454618065
 20
100.7791810176
 30
0.0
 11
283.9454618065
 21
94.2791810176
 31
0.0
  0
LINE
  5
216
100
AcDbEntity
  8
0
370
        15
  6
Continuous
 62
         7
100
AcDbLine
 10
258.5704618065
 20
105.7791810176
 30
0.0
 11
260.4588092138
 21
105.7791810176
 31
0.0
  0
LINE
  5
217
100
AcDbEntity
  8
0
370
        15
  6
Continuous
 62
         7
100
AcDbLine
 10
258.5704618065
 20
104.2791810176
 30
0.0
 11
258.5704618065
 21
105.7791810176
 31
0.0
  0
LINE
  5
218
100
AcDbEntity
  8
0
370
        15
  6
Continuous
 62
         7
100
AcDbLine
 10
260.4588092138
 20
109.2791810176
 30
0.0
 11
263.0704618065
 21
109.2791810176
 31
0.0
  0
LINE
  5
219
100
AcDbEntity
  8
0
370
        15
  6
Continuous
 62
         7
100
AcDbLine
 10
339.1954618065
 20
94.2791810176
 30
0.0
 11
345.6954618065
 21
100.7791810176
 31
0.0
  0
LINE
  5
21A
100
AcDbEntity
  8
0
370
        15
  6
Continuous
 62
         7
100
AcDbLine
 10
345.6954618065
 20
100.7791810176
 30
0.0
 11
352.4454618065
 21
100.7791810176
 31
0.0
  0
LINE
  5
21B
100
AcDbEntity
  8
0
370
        15
  6
Continuous
 62
         7
100
AcDbLine
 10
358.9454618065
 20
94.2791810176
 30
0.0
 11
339.1954618065
 21
94.2791810176
 31
0.0
  0
LINE
  5
21C
100
AcDbEntity
  8
0
370
        15
  6
Continuous
 62
         7
100
AcDbLine
 10
345.6954618065
 20
109.2791810176
 30
0.0
 11
345.6954618065
 21
100.7791810176
 31
0.0
  0
LINE
  5
21D
100
AcDbEntity
  8
0
370
        15
  6
Continuous
 62
         7
100
AcDbLine
 10
285.0704618065
 20
104.2791810176
 30
0.0
 11
285.0704618065
 21
109.2791810176
 31
0.0
  0
ARC
  5
21E
100
AcDbEntity
  8
0
370
        15
  6
Continuous
 62
         7
100
AcDbCircle
 10
286.0704618065
 20
104.2791810176
 30
0.0
 40
1.0
100
AcDbArc
 50
180.0
 51
270.0
  0
LINE
  5
21F
100
AcDbEntity
  8
0
370
        15
  6
Continuous
 62
         7
100
AcDbLine
 10
287.4704618065
 20
103.2791810176
 30
0.0
 11
286.0704618065
 21
103.2791810176
 31
0.0
  0
LINE
  5
220
100
AcDbEntity
  8
0
370
        15
  6
Continuous
 62
         7
100
AcDbLine
 10
339.1954618065
 20
94.2791810176
 30
0.0
 11
283.9454618065
 21
94.2791810176
 31
0.0
  0
LINE
  5
221
100
AcDbEntity
  8
0
370
        15
  6
Continuous
 62
         7
100
AcDbLine
 10
345.6954618065
 20
109.2791810176
 30
0.0
 11
288.4704618065
 21
109.2791810176
 31
0.0
  0
LINE
  5
222
100
AcDbEntity
  8
0
370
        15
  6
Continuous
 62
         7
100
AcDbLine
 10
285.0704618065
 20
109.2791810176
 30
0.0
 11
277.4454618065
 21
109.2791810176
 31
0.0
  0
LINE
  5
223
100
AcDbEntity
  8
0
370
        15
  6
Continuous
 62
         7
100
AcDbLine
 10
352.4454618065
 20
109.2791810176
 30
0.0
 11
345.6954618065
 21
109.2791810176
 31
0.0
  0
ARC
  5
224
100
AcDbEntity
  8
0
370
        15
  6
Continuous
 62
         7
100
AcDbCircle
 10
259.5704618065
 20
104.2791810176
 30
0.0
 40
1.0
100
AcDbArc
 50
180.0
 51
270.0
  0
LINE
  5
225
100
AcDbEntity
  8
0
370
        15
  6
Continuous
 62
         7
100
AcDbLine
 10
262.0704618065
 20
103.2791810176
 30
0.0
 11
259.5704618065
 21
103.2791810176
 31
0.0
  0
LINE
  5
226
100
AcDbEntity
  8
0
370
        15
  6
Continuous
 62
         7
100
AcDbLine
 10
263.0704618065
 20
109.2791810176
 30
0.0
 11
263.0704618065
 21
104.2791810176
 31
0.0
  0
LINE
  5
227
100
AcDbEntity
  8
0
370
        15
  6
Continuous
 62
         7
100
AcDbLine
 10
258.5704618065
 20
105.7791810176
 30
0.0
 11
246.4688045621
 21
105.7791810176
 31
0.0
  0
LINE
  5
228
100
AcDbEntity
  8
0
370
        15
  6
Continuous
 62
         7
100
AcDbLine
 10
248.3612935005
 20
100.2791810176
 30
0.0
 11
255.9470633965
 21
100.2791810176
 31
0.0
  0
LINE
  5
229
100
AcDbEntity
  8
0
370
        15
  6
Continuous
 62
         7
100
AcDbLine
 10
248.3612935005
 20
94.2791810176
 30
0.0
 11
229.0704618065
 21
94.2791810176
 31
0.0
  0
LINE
  5
22A
100
AcDbEntity
  8
0
370
        15
  6
Continuous
 62
         7
100
AcDbLine
 10
264.1954618065
 20
94.2791810176
 30
0.0
 11
255.9470633965
 21
94.2791810176
 31
0.0
  0
LINE
  5
22B
100
AcDbEntity
  8
0
370
        15
  6
Continuous
 62
         7
100
AcDbLine
 10
229.0704618065
 20
94.2791810176
 30
0.0
 11
229.0704618065
 21
109.2791810176
 31
0.0
  0
LINE
  5
22C
100
AcDbEntity
  8
0
370
        15
  6
Continuous
 62
         7
100
AcDbLine
 10
270.6954618065
 20
109.2791810176
 30
0.0
 11
263.0704618065
 21
109.2791810176
 31
0.0
  0
LINE
  5
22D
100
AcDbEntity
  8
0
370
        15
  6
Continuous
 62
         7
100
AcDbLine
 10
246.4688045621
 20
109.2791810176
 30
0.0
 11
229.0704618065
 21
109.2791810176
 31
0.0
  0
LINE
  5
22E
100
AcDbEntity
  8
0
370
        15
  6
Continuous
 62
         7
100
AcDbLine
 10
363.3039874465
 20
109.2791810176
 30
0.0
 11
369.4190206626
 21
109.2791810176
 31
0.0
  0
LINE
  5
22F
100
AcDbEntity
  8
0
370
        15
  6
Continuous
 62
         7
100
AcDbLine
 10
288.4143273985
 20
109.2791810176
 30
0.0
 11
285.0704618065
 21
109.2791810176
 31
0.0
  0
LINE
  5
230
100
AcDbEntity
  8
0
370
        15
  6
Continuous
 62
         7
100
AcDbLine
 10
258.5769273843
 20
109.2791810176
 30
0.0
 11
250.6489152974
 21
109.2791810176
 31
0.0
  0
LINE
  5
231
100
AcDbEntity
  8
0
370
        15
  6
Continuous
 62
         7
100
AcDbLine
 10
260.4588092138
 20
109.2791810176
 30
0.0
 11
258.5769273843
 21
109.2791810176
 31
0.0
  0
DIMENSION
  5
240
100
AcDbEntity
  8
0
 62
       255
100
AcDbDimension
  2
*D15
 10
220.6853466859
 20
94.2791810176
 30
0.0
 11
220.6550786592
 21
103.1603093859
 31
0.0
 70
       160
 71
         5
 72
         1
 41
1.0
 42
0.0
  3
SLDDIMSTYLE4
100
AcDbAlignedDimension
 13
229.3320845404
 23
109.2791810176
 33
0.0
 14
229.3320845404
 24
94.2791810176
 34
0.0
 50
90.0
100
AcDbRotatedDimension
  0
DIMENSION
  5
24E
100
AcDbEntity
  8
0
 62
       255
100
AcDbDimension
  2
*D16
 10
237.026743661
 20
94.2791810176
 30
0.0
 11
236.9863866544
 21
86.255641924
 31
0.0
 70
       160
 71
         5
 72
         1
 41
1.0
 42
0.0
  3
SLDDIMSTYLE4
100
AcDbAlignedDimension
 13
248.555623966
 23
100.2791810176
 33
0.0
 14
248.555623966
 24
94.2791810176
 34
0.0
 50
90.0
100
AcDbRotatedDimension
  0
DIMENSION
  5
25C
100
AcDbEntity
  8
0
 62
       255
100
AcDbDimension
  2
*D17
 10
243.608383908
 20
109.2791810176
 30
0.0
 11
243.58388909
 21
116.5365521452
 31
0.0
 70
       160
 71
         5
 72
         1
 41
1.0
 42
0.0
  3
SLDDIMSTYLE4
100
AcDbAlignedDimension
 13
246.6697366027
 23
105.7791810176
 33
0.0
 14
250.6058757692
 24
109.2791810176
 34
0.0
 50
89.7752306853
100
AcDbRotatedDimension
  0
DIMENSION
  5
269
100
AcDbEntity
  8
0
 62
       255
100
AcDbDimension
  2
*D18
 10
294.7048911098
 20
109.2791810176
 30
0.0
 11
294.7265243273
 21
117.4510452737
 31
0.0
 70
       160
 71
         5
 72
         1
 41
1.0
 42
0.0
  3
SLDDIMSTYLE4
100
AcDbAlignedDimension
 13
287.5283676383
 23
103.2791810176
 33
0.0
 14
288.5248793352
 24
109.2791810176
 34
0.0
 50
89.966805361
100
AcDbRotatedDimension
  0
DIMENSION
  5
276
100
AcDbEntity
  8
0
 62
       255
100
AcDbDimension
  2
*D19
 10
266.9373334221
 20
109.2791810176
 30
0.0
 11
266.9503688153
 21
117.0993713941
 31
0.0
 70
       160
 71
         5
 72
         1
 41
1.0
 42
0.0
  3
SLDDIMSTYLE4
100
AcDbAlignedDimension
 13
262.2169705375
 23
103.2791810176
 33
0.0
 14
263.2134822344
 24
109.2791810176
 34
0.0
 50
89.966805361
100
AcDbRotatedDimension
  0
DIMENSION
  5
284
100
AcDbEntity
  8
0
 62
       255
100
AcDbDimension
  2
*D20
 10
374.7528252242
 20
109.2791810176
 30
0.0
 11
374.8550492077
 21
116.3292485155
 31
0.0
 70
       160
 71
         5
 72
         1
 41
1.0
 42
0.0
  3
SLDDIMSTYLE4
100
AcDbAlignedDimension
 13
368.1791805849
 23
103.2791810176
 33
0.0
 14
345.5502611892
 24
109.2791810176
 34
0.0
 50
-89.2462551473
100
AcDbRotatedDimension
  0
DIMENSION
  5
291
100
AcDbEntity
  8
0
 62
       255
100
AcDbDimension
  2
*D21
 10
342.0158585723
 20
94.2791810176
 30
0.0
 11
342.0158585723
 21
83.3777804782
 31
0.0
 70
       160
 71
         5
 72
         1
 41
1.0
 42
0.0
  3
SLDDIMSTYLE4
100
AcDbAlignedDimension
 13
345.6954618065
 23
100.7791810176
 33
0.0
 14
339.1954618065
 24
94.2791810176
 34
0.0
 50
90.0
100
AcDbRotatedDimension
  0
DIMENSION
  5
29E
100
AcDbEntity
  8
0
 62
       255
100
AcDbDimension
  2
*D22
 10
280.5132310203
 20
94.2791810176
 30
0.0
 11
280.5132310203
 21
83.3777804782
 31
0.0
 70
       160
 71
         5
 72
         1
 41
1.0
 42
0.0
  3
SLDDIMSTYLE4
100
AcDbAlignedDimension
 13
277.4454618065
 23
100.7791810176
 33
0.0
 14
283.9454618065
 24
94.2791810176
 34
0.0
 50
90.0
100
AcDbRotatedDimension
  0
MTEXT
  5
29F
100
AcDbEntity
  8
0
 62
         7
100
AcDbMText
 10
230.1117460103
 20
123.7745238378
 30
0.0
 40
3.5
 41
0.0
 71
         2
 72
         1
  1
A-A
  7
SLDTEXTSTYLE0
 73
         1
 44
1.0
  0
LINE
  5
2A0
100
AcDbEntity
  8
0
  6
Continuous
 62
       255
100
AcDbLine
 10
270.0704618065
 20
109.2791810176
 30
0.0
 11
270.0704618065
 21
100.1541810176
 31
0.0
  0
LINE
  5
2A1
100
AcDbEntity
  8
0
  6
Continuous
 62
       255
100
AcDbLine
 10
270.0704618065
 20
100.1541810176
 30
0.0
 11
270.0704618065
 21
100.1541810176
 31
0.0
  0
LINE
  5
2A2
100
AcDbEntity
  8
0
  6
Continuous
 62
       255
100
AcDbLine
 10
278.0704618065
 20
109.2791810176
 30
0.0
 11
278.0704618065
 21
100.1541810176
 31
0.0
  0
LINE
  5
2A3
100
AcDbEntity
  8
0
  6
Continuous
 62
       255
100
AcDbLine
 10
278.0704618065
 20
100.1541810176
 30
0.0
 11
278.0704618065
 21
100.1541810176
 31
0.0
  0
LINE
  5
2A4
100
AcDbEntity
  8
0
  6
Continuous
 62
       255
100
AcDbLine
 10
270.0704618065
 20
100.1541810176
 30
0.0
 11
270.0704618065
 21
100.1541810176
 31
0.0
  0
LINE
  5
2A5
100
AcDbEntity
  8
0
  6
Continuous
 62
       255
100
AcDbLine
 10
270.0704618065
 20
100.1541810176
 30
0.0
 11
270.0704618065
 21
100.1541810176
 31
0.0
  0
LINE
  5
2A6
100
AcDbEntity
  8
0
  6
Continuous
 62
       255
100
AcDbLine
 10
345.0704618065
 20
109.2791810176
 30
0.0
 11
345.0704618065
 21
100.1541810176
 31
0.0
  0
LINE
  5
2A7
100
AcDbEntity
  8
0
  6
Continuous
 62
       255
100
AcDbLine
 10
345.0704618065
 20
100.1541810176
 30
0.0
 11
345.0704618065
 21
100.1541810176
 31
0.0
  0
LINE
  5
2A8
100
AcDbEntity
  8
0
  6
Continuous
 62
       255
100
AcDbLine
 10
353.0704618065
 20
109.2791810176
 30
0.0
 11
353.0704618065
 21
100.1541810176
 31
0.0
  0
LINE
  5
2A9
100
AcDbEntity
  8
0
  6
Continuous
 62
       255
100
AcDbLine
 10
353.0704618065
 20
100.1541810176
 30
0.0
 11
353.0704618065
 21
100.1541810176
 31
0.0
  0
LINE
  5
2AA
100
AcDbEntity
  8
0
  6
Continuous
 62
       255
100
AcDbLine
 10
345.0704618065
 20
100.1541810176
 30
0.0
 11
345.0704618065
 21
100.1541810176
 31
0.0
  0
LINE
  5
2AB
100
AcDbEntity
  8
0
  6
Continuous
 62
       255
100
AcDbLine
 10
345.0704618065
 20
100.1541810176
 30
0.0
 11
345.0704618065
 21
100.1541810176
 31
0.0
  0
LINE
  5
2AC
100
AcDbEntity
  8
0
370
        15
  6
Continuous
 62
         7
100
AcDbLine
 10
197.6977153346
 20
134.6303618706
 30
0.0
 11
197.6977153346
 21
149.6303618706
 31
0.0
  0
LINE
  5
2AD
100
AcDbEntity
  8
0
370
        15
  6
Continuous
 62
         7
100
AcDbLine
 10
197.6977153346
 20
134.6303618706
 30
0.0
 11
47.6977153346
 21
134.6303618706
 31
0.0
  0
LINE
  5
2AE
100
AcDbEntity
  8
0
370
        15
  6
Continuous
 62
         7
100
AcDbLine
 10
197.6977153346
 20
149.6303618706
 30
0.0
 11
47.6977153346
 21
149.6303618706
 31
0.0
  0
LINE
  5
2AF
100
AcDbEntity
  8
0
370
        15
  6
Continuous
 62
         7
100
AcDbLine
 10
47.6977153346
 20
134.6303618706
 30
0.0
 11
47.6977153346
 21
149.6303618706
 31
0.0
  0
LINE
  5
2B0
100
AcDbEntity
  8
0
370
         0
  6
HIDDEN
 62
         9
100
AcDbLine
 10
177.7933692008
 20
140.6303618706
 30
0.0
 11
178.6149229252
 21
140.6303618706
 31
0.0
  0
LINE
  5
2B1
100
AcDbEntity
  8
0
370
         0
  6
HIDDEN
 62
         9
100
AcDbLine
 10
133.1647449636
 20
140.6303618706
 30
0.0
 11
177.7933692008
 21
140.6303618706
 31
0.0
  0
POLYLINE
  5
2B2
100
AcDbEntity
  8
0
370
         0
  6
HIDDEN
 62
         9
100
AcDb2dPolyline
 66
         1
 10
0.0
 20
0.0
 30
0.0
 70
       128
  0
VERTEX
  5
2B3
100
AcDbEntity
  8
0
100
AcDbVertex
100
AcDb2dVertex
 10
176.5628093854
 20
140.6303618706
 30
0.0
  0
VERTEX
  5
2B4
100
AcDbEntity
  8
0
100
AcDbVertex
100
AcDb2dVertex
 10
176.5645183759
 20
140.6302510778
 30
0.0
  0
VERTEX
  5
2B5
100
AcDbEntity
  8
0
100
AcDbVertex
100
AcDb2dVertex
 10
176.5882717734
 20
140.6054253999
 30
0.0
  0
VERTEX
  5
2B6
100
AcDbEntity
  8
0
100
AcDbVertex
100
AcDb2dVertex
 10
176.6237654583
 20
140.4772911336
 30
0.0
  0
VERTEX
  5
2B7
100
AcDbEntity
  8
0
100
AcDbVertex
100
AcDb2dVertex
 10
176.6523695311
 20
140.2541255677
 30
0.0
  0
VERTEX
  5
2B8
100
AcDbEntity
  8
0
100
AcDbVertex
100
AcDb2dVertex
 10
176.6709226722
 20
139.9608761378
 30
0.0
  0
VERTEX
  5
2B9
100
AcDbEntity
  8
0
100
AcDbVertex
100
AcDb2dVertex
 10
176.6773497771
 20
139.6303618706
 30
0.0
  0
SEQEND
  5
2BA
100
AcDbEntity
  8
0
  0
LINE
  5
2BB
100
AcDbEntity
  8
0
370
         0
  6
HIDDEN
 62
         9
100
AcDbLine
 10
78.1977153346
 20
140.6303618706
 30
0.0
 11
95.5761930266
 21
140.6303618706
 31
0.0
  0
LINE
  5
2BC
100
AcDbEntity
  8
0
370
         0
  6
HIDDEN
 62
         9
100
AcDbLine
 10
80.5803465344
 20
138.1303618706
 30
0.0
 11
79.0860627419
 21
138.1303618706
 31
0.0
  0
LINE
  5
2BD
100
AcDbEntity
  8
0
370
         0
  6
HIDDEN
 62
         9
100
AcDbLine
 10
176.6773497771
 20
134.6303618706
 30
0.0
 11
176.6773497771
 21
139.6303618706
 31
0.0
  0
LINE
  5
2BE
100
AcDbEntity
  8
0
370
         0
  6
HIDDEN
 62
         9
100
AcDbLine
 10
95.5761930266
 20
140.6303618706
 30
0.0
 11
133.1647449636
 21
140.6303618706
 31
0.0
  0
LINE
  5
2BF
100
AcDbEntity
  8
0
370
         0
  6
HIDDEN
 62
         9
100
AcDbLine
 10
89.3227153346
 20
143.1303618706
 30
0.0
 11
96.0727153346
 21
143.1303618706
 31
0.0
  0
LINE
  5
2C0
100
AcDbEntity
  8
0
370
         0
  6
HIDDEN
 62
         9
100
AcDbLine
 10
164.3227153346
 20
143.1303618706
 30
0.0
 11
171.0727153346
 21
143.1303618706
 31
0.0
  0
LINE
  5
2C1
100
AcDbEntity
  8
0
370
         0
  6
HIDDEN
 62
         9
100
AcDbLine
 10
79.0860627419
 20
138.1303618706
 30
0.0
 11
77.2041809124
 21
138.1303618706
 31
0.0
  0
LINE
  5
2C2
100
AcDbEntity
  8
0
370
         0
  6
HIDDEN
 62
         9
100
AcDbLine
 10
77.2041809124
 20
138.1303618706
 30
0.0
 11
69.2761688254
 21
138.1303618706
 31
0.0
  0
LINE
  5
2C3
100
AcDbEntity
  8
0
370
         0
  6
HIDDEN
 62
         9
100
AcDbLine
 10
182.8709335954
 20
140.6303618706
 30
0.0
 11
187.1371577465
 21
140.6303618706
 31
0.0
  0
LINE
  5
2C4
100
AcDbEntity
  8
0
370
         0
  6
HIDDEN
 62
         9
100
AcDbLine
 10
69.2761688254
 20
138.1303618706
 30
0.0
 11
64.7814319766
 21
138.1303618706
 31
0.0
  0
LINE
  5
2C5
100
AcDbEntity
  8
0
370
         0
  6
HIDDEN
 62
         9
100
AcDbLine
 10
70.7814319766
 20
143.6303618706
 30
0.0
 11
75.0314319766
 21
143.6303618706
 31
0.0
  0
LINE
  5
2C6
100
AcDbEntity
  8
0
370
         0
  6
HIDDEN
 62
         9
100
AcDbLine
 10
66.5314319766
 20
143.6303618706
 30
0.0
 11
70.7814319766
 21
143.6303618706
 31
0.0
  0
LINE
  5
2C7
100
AcDbEntity
  8
0
370
         0
  6
HIDDEN
 62
         9
100
AcDbLine
 10
180.3145057092
 20
140.6303618706
 30
0.0
 11
182.8709335954
 21
140.6303618706
 31
0.0
  0
LINE
  5
2C8
100
AcDbEntity
  8
0
370
         0
  6
HIDDEN
 62
         9
100
AcDbLine
 10
180.2722905438
 20
140.6303618706
 30
0.0
 11
180.3145057092
 21
140.6303618706
 31
0.0
  0
LINE
  5
2C9
100
AcDbEntity
  8
0
370
         0
  6
HIDDEN
 62
         9
100
AcDbLine
 10
178.7413722914
 20
140.6303618706
 30
0.0
 11
180.2722905438
 21
140.6303618706
 31
0.0
  0
LINE
  5
2CA
100
AcDbEntity
  8
0
370
         0
  6
HIDDEN
 62
         9
100
AcDbLine
 10
178.6149229252
 20
140.6303618706
 30
0.0
 11
178.7413722914
 21
140.6303618706
 31
0.0
  0
LINE
  5
2CB
100
AcDbEntity
  8
0
370
         0
  6
HIDDEN
 62
         9
100
AcDbLine
 10
190.1977153346
 20
134.6303618708
 30
0.0
 11
190.1977153346
 21
149.6303618706
 31
0.0
  0
LINE
  5
2CC
100
AcDbEntity
  8
0
370
         0
  6
HIDDEN
 62
         9
100
AcDbLine
 10
185.1977153346
 20
149.6303618706
 30
0.0
 11
185.1977153346
 21
134.6303618708
 31
0.0
  0
ARC
  5
2CD
100
AcDbEntity
  8
0
370
         0
  6
HIDDEN
 62
         9
100
AcDbCircle
 10
178.6149229252
 20
139.6303618706
 30
0.0
 40
1.0
100
AcDbArc
 50
0.0
 51
90.0
  0
LINE
  5
2CE
100
AcDbEntity
  8
0
370
         0
  6
HIDDEN
 62
         9
100
AcDbLine
 10
179.6149229252
 20
134.6303618706
 30
0.0
 11
179.6149229252
 21
139.6303618706
 31
0.0
  0
ARC
  5
2CF
100
AcDbEntity
  8
0
370
         0
  6
HIDDEN
 62
         9
100
AcDbCircle
 10
78.1977153346
 20
139.6303618706
 30
0.0
 40
1.0
100
AcDbArc
 50
90.0
 51
180.0
  0
LINE
  5
2D0
100
AcDbEntity
  8
0
370
         0
  6
HIDDEN
 62
         9
100
AcDbLine
 10
77.1977153346
 20
139.6303618706
 30
0.0
 11
77.1977153346
 21
138.1303618706
 31
0.0
  0
ARC
  5
2D1
100
AcDbEntity
  8
0
370
         0
  6
HIDDEN
 62
         9
100
AcDbCircle
 10
104.6977153346
 20
139.6303618706
 30
0.0
 40
1.0
100
AcDbArc
 50
90.0
 51
180.0
  0
ARC
  5
2D2
100
AcDbEntity
  8
0
370
         0
  6
HIDDEN
 62
         9
100
AcDbCircle
 10
80.6977153346
 20
139.6303618706
 30
0.0
 40
1.0
100
AcDbArc
 50
0.0
 51
90.0
  0
LINE
  5
2D3
100
AcDbEntity
  8
0
370
         0
  6
HIDDEN
 62
         9
100
AcDbLine
 10
81.6977153346
 20
139.6303618706
 30
0.0
 11
81.6977153346
 21
134.6303618706
 31
0.0
  0
LINE
  5
2D4
100
AcDbEntity
  8
0
370
         0
  6
HIDDEN
 62
         9
100
AcDbLine
 10
103.6977153346
 20
134.6303618706
 30
0.0
 11
103.6977153346
 21
139.6303618706
 31
0.0
  0
LINE
  5
2D5
100
AcDbEntity
  8
0
370
         0
  6
HIDDEN
 62
         9
100
AcDbLine
 10
82.8227153346
 20
149.6303618706
 30
0.0
 11
89.3227153346
 21
143.1303618706
 31
0.0
  0
LINE
  5
2D6
100
AcDbEntity
  8
0
370
         0
  6
HIDDEN
 62
         9
100
AcDbLine
 10
96.0727153346
 20
143.1303618706
 30
0.0
 11
102.5727153346
 21
149.6303618706
 31
0.0
  0
LINE
  5
2D7
100
AcDbEntity
  8
0
370
         0
  6
HIDDEN
 62
         9
100
AcDbLine
 10
157.8227153346
 20
149.6303618706
 30
0.0
 11
164.3227153346
 21
143.1303618706
 31
0.0
  0
LINE
  5
2D8
100
AcDbEntity
  8
0
370
         0
  6
HIDDEN
 62
         9
100
AcDbLine
 10
171.0727153346
 20
143.1303618706
 30
0.0
 11
177.5727153346
 21
149.6303618706
 31
0.0
  0
ARC
  5
2D9
100
AcDbEntity
  8
0
370
         0
  6
HIDDEN
 62
         9
100
AcDbCircle
 10
187.1371577465
 20
139.6303618706
 30
0.0
 40
1.0
100
AcDbArc
 50
0.0
 51
90.0
  0
LINE
  5
2DA
100
AcDbEntity
  8
0
370
         0
  6
HIDDEN
 62
         9
100
AcDbLine
 10
188.1371577465
 20
134.6303618706
 30
0.0
 11
188.1371577465
 21
139.6303618706
 31
0.0
  0
LINE
  5
2DB
100
AcDbEntity
  8
0
370
         0
  6
HIDDEN
 62
         9
100
AcDbLine
 10
64.7814319766
 20
138.1303618706
 30
0.0
 11
64.7814319766
 21
134.6303618706
 31
0.0
  0
LINE
  5
2DC
100
AcDbEntity
  8
0
370
         0
  6
HIDDEN
 62
         9
100
AcDbLine
 10
96.0727153346
 20
134.6303618706
 30
0.0
 11
96.0727153346
 21
143.1303618706
 31
0.0
  0
LINE
  5
2DD
100
AcDbEntity
  8
0
370
         0
  6
HIDDEN
 62
         9
100
AcDbLine
 10
89.3227153346
 20
143.1303618706
 30
0.0
 11
89.3227153346
 21
134.6303618706
 31
0.0
  0
LINE
  5
2DE
100
AcDbEntity
  8
0
370
         0
  6
HIDDEN
 62
         9
100
AcDbLine
 10
171.0727153346
 20
134.6303618706
 30
0.0
 11
171.0727153346
 21
143.1303618706
 31
0.0
  0
LINE
  5
2DF
100
AcDbEntity
  8
0
370
         0
  6
HIDDEN
 62
         9
100
AcDbLine
 10
164.3227153346
 20
143.1303618706
 30
0.0
 11
164.3227153346
 21
134.6303618706
 31
0.0
  0
ARC
  5
2E0
100
AcDbEntity
  8
0
370
         0
  6
HIDDEN
 62
         9
100
AcDbCircle
 10
104.6482079053
 20
139.6303618706
 30
0.0
 40
1.0
100
AcDbArc
 50
90.0
 51
180.0
  0
LINE
  5
2E1
100
AcDbEntity
  8
0
370
         0
  6
HIDDEN
 62
         9
100
AcDbLine
 10
103.6482079053
 20
139.6303618706
 30
0.0
 11
103.6482079053
 21
134.6303618706
 31
0.0
  0
LINE
  5
2E2
100
AcDbEntity
  8
0
370
         0
  6
HIDDEN
 62
         9
100
AcDbLine
 10
66.5314319766
 20
149.6303618706
 30
0.0
 11
66.5314319766
 21
143.6303618706
 31
0.0
  0
LINE
  5
2E3
100
AcDbEntity
  8
0
370
         0
  6
HIDDEN
 62
         9
100
AcDbLine
 10
75.0314319766
 20
143.6303618706
 30
0.0
 11
75.0314319766
 21
149.6303618706
 31
0.0
  0
ARC
  5
2E4
100
AcDbEntity
  8
0
370
         0
  6
HIDDEN
 62
         9
100
AcDbCircle
 10
106.0977153346
 20
139.6303618706
 30
0.0
 40
1.0
100
AcDbArc
 50
0.0
 51
90.0
  0
LINE
  5
2E5
100
AcDbEntity
  8
0
370
         0
  6
HIDDEN
 62
         9
100
AcDbLine
 10
107.0977153346
 20
134.6303618706
 30
0.0
 11
107.0977153346
 21
139.6303618706
 31
0.0
  0
ARC
  5
2E6
100
AcDbEntity
  8
0
370
         0
  6
HIDDEN
 62
         9
100
AcDbCircle
 10
105.9786959351
 20
139.6303618706
 30
0.0
 40
1.0
100
AcDbArc
 50
0.0
 51
90.0
  0
LINE
  5
2E7
100
AcDbEntity
  8
0
370
         0
  6
HIDDEN
 62
         9
100
AcDbLine
 10
106.9786959351
 20
139.6303618706
 30
0.0
 11
106.9786959351
 21
134.6303618706
 31
0.0
  0
ARC
  5
2E8
100
AcDbEntity
  8
0
370
         0
  6
HIDDEN
 62
         9
100
AcDbCircle
 10
180.2722905438
 20
139.6303618706
 30
0.0
 40
1.0
100
AcDbArc
 50
90.0
 51
180.0
  0
LINE
  5
2E9
100
AcDbEntity
  8
0
370
         0
  6
HIDDEN
 62
         9
100
AcDbLine
 10
179.2722905438
 20
139.6303618706
 30
0.0
 11
179.2722905438
 21
134.6303618706
 31
0.0
  0
ARC
  5
2EA
100
AcDbEntity
  8
0
370
         0
  6
HIDDEN
 62
         9
100
AcDbCircle
 10
183.4626618211
 20
139.6303618706
 30
0.0
 40
1.0
100
AcDbArc
 50
90.0
 51
180.0
  0
LINE
  5
2EB
100
AcDbEntity
  8
0
370
         0
  6
HIDDEN
 62
         9
100
AcDbLine
 10
182.4626618211
 20
134.6303618706
 30
0.0
 11
182.4626618211
 21
139.6303618706
 31
0.0
  0
LINE
  5
2EC
100
AcDbEntity
  8
0
370
         0
  6
HIDDEN
 62
         9
100
AcDbLine
 10
60.1977153346
 20
134.6303618708
 30
0.0
 11
60.1977153346
 21
149.6303618706
 31
0.0
  0
LINE
  5
2ED
100
AcDbEntity
  8
0
370
         0
  6
HIDDEN
 62
         9
100
AcDbLine
 10
55.1977153346
 20
149.6303618706
 30
0.0
 11
55.1977153346
 21
134.6303618708
 31
0.0
  0
DIMENSION
  5
2FB
100
AcDbEntity
  8
0
 62
       255
100
AcDbDimension
  2
*D23
 10
35.3751101036
 20
134.6303618706
 30
0.0
 11
35.3751101036
 21
141.4783095855
 31
0.0
 70
       160
 71
         5
 72
         1
 41
1.0
 42
0.0
  3
SLDDIMSTYLE4
100
AcDbAlignedDimension
 13
47.6977153346
 23
149.6303618706
 33
0.0
 14
47.6977153346
 24
134.6303618706
 34
0.0
 50
90.0
100
AcDbRotatedDimension
  0
DIMENSION
  5
308
100
AcDbEntity
  8
0
 62
       255
100
AcDbDimension
  2
*D24
 10
111.9275210508
 20
149.6303618706
 30
0.0
 11
111.9275210508
 21
157.548202372
 31
0.0
 70
       160
 71
         5
 72
         1
 41
1.0
 42
0.0
  3
SLDDIMSTYLE4
100
AcDbAlignedDimension
 13
96.0727153346
 23
143.1303618706
 33
0.0
 14
47.6977153346
 24
149.6303618706
 34
0.0
 50
90.0
100
AcDbRotatedDimension
  0
DIMENSION
  5
315
100
AcDbEntity
  8
0
 62
       255
100
AcDbDimension
  2
*D25
 10
149.7161721362
 20
149.6303618706
 30
0.0
 11
149.7161721362
 21
159.0045342151
 31
0.0
 70
       160
 71
         5
 72
         1
 41
1.0
 42
0.0
  3
SLDDIMSTYLE4
100
AcDbAlignedDimension
 13
164.3227153346
 23
143.1303618706
 33
0.0
 14
197.6977153346
 24
149.6303618706
 34
0.0
 50
90.0
100
AcDbRotatedDimension
  0
LINE
  5
316
100
AcDbEntity
  8
0
  6
HIDDEN
 62
       255
100
AcDbLine
 10
171.6977153346
 20
134.6303618706
 30
0.0
 11
171.6977153346
 21
143.7553618706
 31
0.0
  0
LINE
  5
317
100
AcDbEntity
  8
0
  6
HIDDEN
 62
       255
100
AcDbLine
 10
171.6977153346
 20
143.7553618706
 30
0.0
 11
171.6977153346
 21
143.7553618706
 31
0.0
  0
LINE
  5
318
100
AcDbEntity
  8
0
  6
HIDDEN
 62
       255
100
AcDbLine
 10
163.6977153346
 20
134.6303618706
 30
0.0
 11
163.6977153346
 21
143.7553618706
 31
0.0
  0
LINE
  5
319
100
AcDbEntity
  8
0
  6
HIDDEN
 62
       255
100
AcDbLine
 10
163.6977153346
 20
143.7553618706
 30
0.0
 11
163.6977153346
 21
143.7553618706
 31
0.0
  0
LINE
  5
31A
100
AcDbEntity
  8
0
  6
HIDDEN
 62
       255
100
AcDbLine
 10
171.6977153346
 20
143.7553618706
 30
0.0
 11
171.6977153346
 21
143.7553618706
 31
0.0
  0
LINE
  5
31B
100
AcDbEntity
  8
0
  6
HIDDEN
 62
       255
100
AcDbLine
 10
171.6977153346
 20
143.7553618706
 30
0.0
 11
171.6977153346
 21
143.7553618706
 31
0.0
  0
LINE
  5
31C
100
AcDbEntity
  8
0
  6
HIDDEN
 62
       255
100
AcDbLine
 10
96.6977153346
 20
134.6303618706
 30
0.0
 11
96.6977153346
 21
143.7553618706
 31
0.0
  0
LINE
  5
31D
100
AcDbEntity
  8
0
  6
HIDDEN
 62
       255
100
AcDbLine
 10
96.6977153346
 20
143.7553618706
 30
0.0
 11
96.6977153346
 21
143.7553618706
 31
0.0
  0
LINE
  5
31E
100
AcDbEntity
  8
0
  6
HIDDEN
 62
       255
100
AcDbLine
 10
88.6977153346
 20
134.6303618706
 30
0.0
 11
88.6977153346
 21
143.7553618706
 31
0.0
  0
LINE
  5
31F
100
AcDbEntity
  8
0
  6
HIDDEN
 62
       255
100
AcDbLine
 10
88.6977153346
 20
143.7553618706
 30
0.0
 11
88.6977153346
 21
143.7553618706
 31
0.0
  0
LINE
  5
320
100
AcDbEntity
  8
0
  6
HIDDEN
 62
       255
100
AcDbLine
 10
96.6977153346
 20
143.7553618706
 30
0.0
 11
96.6977153346
 21
143.7553618706
 31
0.0
  0
LINE
  5
321
100
AcDbEntity
  8
0
  6
HIDDEN
 62
       255
100
AcDbLine
 10
96.6977153346
 20
143.7553618706
 30
0.0
 11
96.6977153346
 21
143.7553618706
 31
0.0
  0
LINE
  5
322
100
AcDbEntity
  8
0
  6
HIDDEN
 62
       255
100
AcDbLine
 10
60.6977153346
 20
134.6303618708
 30
0.0
 11
60.6977153346
 21
149.6303618706
 31
0.0
  0
LINE
  5
323
100
AcDbEntity
  8
0
  6
HIDDEN
 62
       255
100
AcDbLine
 10
60.6977153346
 20
149.6303618706
 30
0.0
 11
60.6977153346
 21
149.6303618706
 31
0.0
  0
LINE
  5
324
100
AcDbEntity
  8
0
  6
HIDDEN
 62
       255
100
AcDbLine
 10
54.6977153346
 20
134.6303618708
 30
0.0
 11
54.6977153346
 21
149.6303618706
 31
0.0
  0
LINE
  5
325
100
AcDbEntity
  8
0
  6
HIDDEN
 62
       255
100
AcDbLine
 10
54.6977153346
 20
149.6303618706
 30
0.0
 11
54.6977153346
 21
149.6303618706
 31
0.0
  0
LINE
  5
326
100
AcDbEntity
  8
0
  6
HIDDEN
 62
       255
100
AcDbLine
 10
60.6977153346
 20
149.6303618706
 30
0.0
 11
60.6977153346
 21
149.6303618706
 31
0.0
  0
LINE
  5
327
100
AcDbEntity
  8
0
  6
HIDDEN
 62
       255
100
AcDbLine
 10
60.6977153346
 20
149.6303618706
 30
0.0
 11
60.6977153346
 21
149.6303618706
 31
0.0
  0
LINE
  5
328
100
AcDbEntity
  8
0
  6
HIDDEN
 62
       255
100
AcDbLine
 10
190.6977153346
 20
134.6303618708
 30
0.0
 11
190.6977153346
 21
149.6303618706
 31
0.0
  0
LINE
  5
329
100
AcDbEntity
  8
0
  6
HIDDEN
 62
       255
100
AcDbLine
 10
190.6977153346
 20
149.6303618706
 30
0.0
 11
190.6977153346
 21
149.6303618706
 31
0.0
  0
LINE
  5
32A
100
AcDbEntity
  8
0
  6
HIDDEN
 62
       255
100
AcDbLine
 10
184.6977153346
 20
134.6303618708
 30
0.0
 11
184.6977153346
 21
149.6303618706
 31
0.0
  0
LINE
  5
32B
100
AcDbEntity
  8
0
  6
HIDDEN
 62
       255
100
AcDbLine
 10
184.6977153346
 20
149.6303618706
 30
0.0
 11
184.6977153346
 21
149.6303618706
 31
0.0
  0
LINE
  5
32C
100
AcDbEntity
  8
0
  6
HIDDEN
 62
       255
100
AcDbLine
 10
190.6977153346
 20
149.6303618706
 30
0.0
 11
190.6977153346
 21
149.6303618706
 31
0.0
  0
LINE
  5
32D
100
AcDbEntity
  8
0
  6
HIDDEN
 62
       255
100
AcDbLine
 10
190.6977153346
 20
149.6303618706
 30
0.0
 11
190.6977153346
 21
149.6303618706
 31
0.0
  0
LINE
  5
32E
100
AcDbEntity
  8
0
370
        15
  6
Continuous
 62
         7
100
AcDbLine
 10
197.6977153346
 20
42.3838876114
 30
0.0
 11
47.6977153346
 21
42.3838876114
 31
0.0
  0
CIRCLE
  5
32F
100
AcDbEntity
  8
0
370
        15
  6
Continuous
 62
         7
100
AcDbCircle
 10
187.6977153346
 20
52.3838876114
 30
0.0
 40
2.5
  0
CIRCLE
  5
330
100
AcDbEntity
  8
0
370
        15
  6
Continuous
 62
         7
100
AcDbCircle
 10
57.6977153346
 20
102.3838876114
 30
0.0
 40
2.5
  0
CIRCLE
  5
331
100
AcDbEntity
  8
0
370
        15
  6
Continuous
 62
         7
100
AcDbCircle
 10
92.6977153346
 20
77.3838876114
 30
0.0
 40
9.875
  0
CIRCLE
  5
332
100
AcDbEntity
  8
0
370
        15
  6
Continuous
 62
         7
100
AcDbCircle
 10
167.6977153346
 20
77.3838876114
 30
0.0
 40
9.875
  0
CIRCLE
  5
333
100
AcDbEntity
  8
0
370
        15
  6
Continuous
 62
         7
100
AcDbCircle
 10
70.7814319766
 20
79.3013139518
 30
0.0
 40
4.25
  0
LINE
  5
334
100
AcDbEntity
  8
0
370
        15
  6
Continuous
 62
         7
100
AcDbLine
 10
47.6977153346
 20
112.3838876114
 30
0.0
 11
197.6977153346
 21
112.3838876114
 31
0.0
  0
LINE
  5
335
100
AcDbEntity
  8
0
370
        15
  6
Continuous
 62
         7
100
AcDbLine
 10
47.6977153346
 20
42.3838876114
 30
0.0
 11
47.6977153346
 21
112.3838876114
 31
0.0
  0
LINE
  5
336
100
AcDbEntity
  8
0
370
        15
  6
Continuous
 62
         7
100
AcDbLine
 10
197.6977153346
 20
112.3838876114
 30
0.0
 11
197.6977153346
 21
42.3838876114
 31
0.0
  0
CIRCLE
  5
337
100
AcDbEntity
  8
0
370
        15
  6
Continuous
 62
         7
100
AcDbCircle
 10
92.6977153346
 20
77.3838876114
 30
0.0
 40
3.375
  0
CIRCLE
  5
338
100
AcDbEntity
  8
0
370
        15
  6
Continuous
 62
         7
100
AcDbCircle
 10
167.6977153346
 20
77.3838876114
 30
0.0
 40
3.375
  0
ARC
  5
339
100
AcDbEntity
  8
0
370
         0
  6
HIDDEN
 62
         9
100
AcDbCircle
 10
176.512852354
 20
61.5784680678
 30
0.0
 40
3.0328617054
100
AcDbArc
 50
86.890845606
 51
150.5287793654
  0
POLYLINE
  5
33A
100
AcDbEntity
  8
0
370
         0
  6
HIDDEN
 62
         9
100
AcDb2dPolyline
 66
         1
 10
0.0
 20
0.0
 30
0.0
 70
       128
  0
VERTEX
  5
33B
100
AcDbEntity
  8
0
100
AcDbVertex
100
AcDb2dVertex
 10
176.5628093854
 20
63.6107158402
 30
0.0
  0
VERTEX
  5
33C
100
AcDbEntity
  8
0
100
AcDbVertex
100
AcDb2dVertex
 10
176.5645183759
 20
63.6255632258
 30
0.0
  0
VERTEX
  5
33D
100
AcDbEntity
  8
0
100
AcDbVertex
100
AcDb2dVertex
 10
176.5882717734
 20
63.8319940043
 30
0.0
  0
VERTEX
  5
33E
100
AcDbEntity
  8
0
100
AcDbVertex
100
AcDb2dVertex
 10
176.6237654583
 20
64.1406358303
 30
0.0
  0
VERTEX
  5
33F
100
AcDbEntity
  8
0
100
AcDbVertex
100
AcDb2dVertex
 10
176.6523695311
 20
64.3894826019
 30
0.0
  0
VERTEX
  5
340
100
AcDbEntity
  8
0
100
AcDbVertex
100
AcDb2dVertex
 10
176.6709226722
 20
64.5509307858
 30
0.0
  0
VERTEX
  5
341
100
AcDbEntity
  8
0
100
AcDbVertex
100
AcDb2dVertex
 10
176.6773497771
 20
64.6068654529
 30
0.0
  0
SEQEND
  5
342
100
AcDbEntity
  8
0
  0
ARC
  5
343
100
AcDbEntity
  8
0
370
         0
  6
HIDDEN
 62
         9
100
AcDbCircle
 10
176.1564052441
 20
61.6524421938
 30
0.0
 40
3.0
100
AcDbArc
 50
5.0
 51
80.0
  0
ARC
  5
344
100
AcDbEntity
  8
0
370
         0
  6
HIDDEN
 62
         9
100
AcDbCircle
 10
179.8130041332
 20
95.2832299885
 30
0.0
 40
5.0
100
AcDbArc
 50
10.0
 51
100.0
  0
LINE
  5
345
100
AcDbEntity
  8
0
370
         0
  6
HIDDEN
 62
         9
100
AcDbLine
 10
132.991096786
 20
92.1043974944
 30
0.0
 11
178.9447632449
 21
100.2072687535
 31
0.0
  0
LINE
  5
346
100
AcDbEntity
  8
0
370
         0
  6
HIDDEN
 62
         9
100
AcDbLine
 10
184.7370428983
 20
96.1514708768
 30
0.0
 11
188.0885511687
 21
77.1441229547
 31
0.0
  0
ARC
  5
347
100
AcDbEntity
  8
0
370
         0
  6
HIDDEN
 62
         9
100
AcDbCircle
 10
179.2623168244
 20
92.6475624283
 30
0.0
 40
2.0
100
AcDbArc
 50
10.0000000001
 51
100.0
  0
LINE
  5
348
100
AcDbEntity
  8
0
370
         0
  6
HIDDEN
 62
         9
100
AcDbLine
 10
178.9150204691
 20
94.6171779343
 30
0.0
 11
176.3087184728
 21
94.1576165725
 31
0.0
  0
ARC
  5
349
100
AcDbEntity
  8
0
370
         0
  6
HIDDEN
 62
         9
100
AcDbCircle
 10
176.8296630058
 20
91.2031933135
 30
0.0
 40
3.0
100
AcDbArc
 50
100.0
 51
170.5287793655
  0
ARC
  5
34A
100
AcDbEntity
  8
0
370
         0
  6
HIDDEN
 62
         9
100
AcDbCircle
 10
165.6878351607
 20
89.23858845
 30
0.0
 40
3.0
100
AcDbArc
 50
29.4712206345
 51
170.5287793655
  0
LINE
  5
34B
100
AcDbEntity
  8
0
370
         0
  6
HIDDEN
 62
         9
100
AcDbLine
 10
182.4474695741
 20
86.1012045125
 30
0.0
 11
181.2319323304
 21
92.9948587836
 31
0.0
  0
ARC
  5
34C
100
AcDbEntity
  8
0
370
         0
  6
HIDDEN
 62
         9
100
AcDbCircle
 10
170.9114527279
 20
92.1905063877
 30
0.0
 40
3.0
100
AcDbArc
 50
209.4712206345
 51
350.5287793655
  0
ARC
  5
34D
100
AcDbEntity
  8
0
370
         0
  6
HIDDEN
 62
         9
100
AcDbCircle
 10
115.6262790193
 20
190.5851727956
 30
0.0
 40
100.0
100
AcDbArc
 50
258.5498252121
 51
280.0
  0
ARC
  5
34E
100
AcDbEntity
  8
0
370
         0
  6
HIDDEN
 62
         9
100
AcDbCircle
 10
154.5460073156
 20
87.2739835865
 30
0.0
 40
3.0
100
AcDbArc
 50
29.4712206345
 51
170.5287793655
  0
ARC
  5
34F
100
AcDbEntity
  8
0
370
         0
  6
HIDDEN
 62
         9
100
AcDbCircle
 10
92.6977153346
 20
77.3838876114
 30
0.0
 40
15.5
100
AcDbArc
 50
78.5498252121
 51
281.4501747879
  0
ARC
  5
350
100
AcDbEntity
  8
0
370
         0
  6
HIDDEN
 62
         9
100
AcDbCircle
 10
159.7696248828
 20
90.2259015242
 30
0.0
 40
3.0
100
AcDbArc
 50
209.4712206345
 51
350.5287793655
  0
ARC
  5
351
100
AcDbEntity
  8
0
370
         0
  6
HIDDEN
 62
         9
100
AcDbCircle
 10
143.4041794704
 20
85.3093787229
 30
0.0
 40
3.0
100
AcDbArc
 50
29.4712206345
 51
170.5287793655
  0
ARC
  5
352
100
AcDbEntity
  8
0
370
         0
  6
HIDDEN
 62
         9
100
AcDbCircle
 10
148.6277970377
 20
88.2612966607
 30
0.0
 40
3.0
100
AcDbArc
 50
209.4712206345
 51
350.5287793655
  0
ARC
  5
353
100
AcDbEntity
  8
0
370
         0
  6
HIDDEN
 62
         9
100
AcDbCircle
 10
92.6977153346
 20
77.3838876114
 30
0.0
 40
11.0
100
AcDbArc
 50
354.9392819715
 51
306.9934815908
  0
ARC
  5
354
100
AcDbEntity
  8
0
370
         0
  6
HIDDEN
 62
         9
100
AcDbCircle
 10
181.4626618211
 20
85.9275563349
 30
0.0
 40
1.0
100
AcDbArc
 50
280.0
 51
10.0
  0
ARC
  5
355
100
AcDbEntity
  8
0
370
         0
  6
HIDDEN
 62
         9
100
AcDbCircle
 10
132.2623516253
 20
83.3447738594
 30
0.0
 40
3.0
100
AcDbArc
 50
29.4712206345
 51
170.5287793655
  0
ARC
  5
356
100
AcDbEntity
  8
0
370
         0
  6
HIDDEN
 62
         9
100
AcDbCircle
 10
137.4859691925
 20
86.2966917972
 30
0.0
 40
3.0
100
AcDbArc
 50
209.4712206345
 51
350.5287793655
  0
LINE
  5
357
100
AcDbEntity
  8
0
370
         0
  6
HIDDEN
 62
         9
100
AcDbLine
 10
180.6770886417
 20
84.7736119761
 30
0.0
 11
181.6363099987
 21
84.9427485819
 31
0.0
  0
ARC
  5
358
100
AcDbEntity
  8
0
370
         0
  6
HIDDEN
 62
         9
100
AcDbCircle
 10
180.9722905438
 20
83.099438796
 30
0.0
 40
1.7
100
AcDbArc
 50
100.0
 51
200.0
  0
ARC
  5
359
100
AcDbEntity
  8
0
370
         0
  6
HIDDEN
 62
         9
100
AcDbCircle
 10
121.1205237802
 20
81.3801689959
 30
0.0
 40
3.0
100
AcDbArc
 50
29.4712206345
 51
170.5287793655
  0
ARC
  5
35A
100
AcDbEntity
  8
0
370
         0
  6
HIDDEN
 62
         9
100
AcDbCircle
 10
126.3441413474
 20
84.3320869337
 30
0.0
 40
3.0
100
AcDbArc
 50
209.4712206345
 51
350.5287793655
  0
LINE
  5
35B
100
AcDbEntity
  8
0
370
         0
  6
HIDDEN
 62
         9
100
AcDbLine
 10
181.9312409746
 20
75.4942766607
 30
0.0
 11
179.3748130884
 21
82.5180045524
 31
0.0
  0
ARC
  5
35C
100
AcDbEntity
  8
0
370
         0
  6
HIDDEN
 62
         9
100
AcDbCircle
 10
109.9786959351
 20
79.4155641324
 30
0.0
 40
3.0
100
AcDbArc
 50
29.4712206345
 51
186.7053237185
  0
ARC
  5
35D
100
AcDbEntity
  8
0
370
         0
  6
HIDDEN
 62
         9
100
AcDbCircle
 10
115.2023135023
 20
82.3674820702
 30
0.0
 40
3.0
100
AcDbArc
 50
209.4712206345
 51
350.5287793655
  0
ARC
  5
35E
100
AcDbEntity
  8
0
370
         0
  6
HIDDEN
 62
         9
100
AcDbCircle
 10
92.6977153346
 20
77.3838876114
 30
0.0
 40
14.4
100
AcDbArc
 50
354.9392819715
 51
6.7053237185
  0
ARC
  5
35F
100
AcDbEntity
  8
0
370
         0
  6
HIDDEN
 62
         9
100
AcDbCircle
 10
184.937724648
 20
76.5885472276
 30
0.0
 40
3.1994330985
100
AcDbArc
 50
200.0
 51
10.0
  0
ARC
  5
360
100
AcDbEntity
  8
0
370
         0
  6
HIDDEN
 62
         9
100
AcDbCircle
 10
105.3482079053
 20
76.2636029516
 30
0.0
 40
1.7
100
AcDbArc
 50
174.9392819715
 51
354.9392819715
  0
ARC
  5
361
100
AcDbEntity
  8
0
370
         0
  6
HIDDEN
 62
         9
100
AcDbCircle
 10
110.5334624747
 20
73.8177689789
 30
0.0
 40
2.0
100
AcDbArc
 50
25.8173825445
 51
174.0305083048
  0
ARC
  5
362
100
AcDbEntity
  8
0
370
         0
  6
HIDDEN
 62
         9
100
AcDbCircle
 10
109.6332757863
 20
73.3822647584
 30
0.0
 40
3.0
100
AcDbArc
 50
9.4712206345
 51
25.8173825445
  0
ARC
  5
363
100
AcDbEntity
  8
0
370
         0
  6
HIDDEN
 62
         9
100
AcDbCircle
 10
120.7751036314
 20
71.4176598949
 30
0.0
 40
3.0
100
AcDbArc
 50
9.4712206345
 51
150.5287793655
  0
ARC
  5
364
100
AcDbEntity
  8
0
370
         0
  6
HIDDEN
 62
         9
100
AcDbCircle
 10
115.5514860642
 20
74.3695778327
 30
0.0
 40
3.0
100
AcDbArc
 50
189.4712206345
 51
330.5287793655
  0
ARC
  5
365
100
AcDbEntity
  8
0
370
         0
  6
HIDDEN
 62
         9
100
AcDbCircle
 10
104.1893181581
 20
74.4811502204
 30
0.0
 40
4.3787335562
100
AcDbArc
 50
268.2647326479
 51
354.0305083048
  0
ARC
  5
366
100
AcDbEntity
  8
0
370
         0
  6
HIDDEN
 62
         9
100
AcDbCircle
 10
131.9169314765
 20
69.4530550314
 30
0.0
 40
3.0
100
AcDbArc
 50
9.4712206345
 51
150.5287793655
  0
ARC
  5
367
100
AcDbEntity
  8
0
370
         0
  6
HIDDEN
 62
         9
100
AcDbCircle
 10
126.6933139093
 20
72.4049729692
 30
0.0
 40
3.0
100
AcDbArc
 50
189.4712206345
 51
330.5287793655
  0
ARC
  5
368
100
AcDbEntity
  8
0
370
         0
  6
HIDDEN
 62
         9
100
AcDbCircle
 10
143.0587593216
 20
67.4884501679
 30
0.0
 40
3.0
100
AcDbArc
 50
9.4712206345
 51
150.5287793655
  0
ARC
  5
369
100
AcDbEntity
  8
0
370
         0
  6
HIDDEN
 62
         9
100
AcDbCircle
 10
137.8351417544
 20
70.4403681057
 30
0.0
 40
3.0
100
AcDbArc
 50
189.4712206345
 51
330.5287793655
  0
ARC
  5
36A
100
AcDbEntity
  8
0
370
         0
  6
HIDDEN
 62
         9
100
AcDbCircle
 10
103.8296123007
 20
62.6078641295
 30
0.0
 40
7.5
100
AcDbArc
 50
88.2647326479
 51
126.9934815908
  0
ARC
  5
36B
100
AcDbEntity
  8
0
370
         0
  6
HIDDEN
 62
         9
100
AcDbCircle
 10
154.2005871667
 20
65.5238453044
 30
0.0
 40
3.0
100
AcDbArc
 50
9.4712206345
 51
150.5287793655
  0
ARC
  5
36C
100
AcDbEntity
  8
0
370
         0
  6
HIDDEN
 62
         9
100
AcDbCircle
 10
148.9769695995
 20
68.4757632422
 30
0.0
 40
3.0
100
AcDbArc
 50
189.4712206345
 51
330.5287793655
  0
ARC
  5
36D
100
AcDbEntity
  8
0
370
         0
  6
HIDDEN
 62
         9
100
AcDbCircle
 10
165.3424150119
 20
63.5592404409
 30
0.0
 40
3.0
100
AcDbArc
 50
9.4712206345
 51
150.5287793655
  0
ARC
  5
36E
100
AcDbEntity
  8
0
370
         0
  6
HIDDEN
 62
         9
100
AcDbCircle
 10
160.1187974446
 20
66.5111583787
 30
0.0
 40
3.0
100
AcDbArc
 50
189.4712206345
 51
330.5287793655
  0
ARC
  5
36F
100
AcDbEntity
  8
0
370
         0
  6
HIDDEN
 62
         9
100
AcDbCircle
 10
115.6262790193
 20
-35.8173975729
 30
0.0
 40
100.0
100
AcDbArc
 50
80.0
 51
101.4501747879
  0
ARC
  5
370
100
AcDbEntity
  8
0
370
         0
  6
HIDDEN
 62
         9
100
AcDbCircle
 10
171.2606252898
 20
64.5465535152
 30
0.0
 40
3.0
100
AcDbArc
 50
189.4712206345
 51
330.5287793654
  0
LINE
  5
371
100
AcDbEntity
  8
0
370
         0
  6
HIDDEN
 62
         9
100
AcDbLine
 10
177.6197210232
 20
54.7941471635
 30
0.0
 11
132.991096786
 21
62.6633777284
 31
0.0
  0
LINE
  5
372
100
AcDbEntity
  8
0
370
         0
  6
HIDDEN
 62
         9
100
AcDbLine
 10
179.1449893384
 20
61.9139094221
 30
0.0
 11
179.6084539119
 21
56.6164851062
 31
0.0
  0
ARC
  5
373
100
AcDbEntity
  8
0
370
         0
  6
HIDDEN
 62
         9
100
AcDbCircle
 10
177.9149229252
 20
56.4683203436
 30
0.0
 40
1.7
100
AcDbArc
 50
260.0
 51
5.0
  0
ARC
  5
374
100
AcDbEntity
  8
0
370
         0
  6
HIDDEN
 62
         9
100
AcDbCircle
 10
78.2350493472
 20
88.9199741461
 30
0.0
 40
3.0
100
AcDbArc
 50
274.5294259417
 51
321.4225293981
  0
LINE
  5
375
100
AcDbEntity
  8
0
370
         0
  6
HIDDEN
 62
         9
100
AcDbLine
 10
70.3076054862
 20
85.2825753954
 30
0.0
 11
78.4719625924
 21
85.9293434243
 31
0.0
  0
ARC
  5
376
100
AcDbEntity
  8
0
370
         0
  6
HIDDEN
 62
         9
100
AcDbCircle
 10
70.7814319766
 20
79.3013139518
 30
0.0
 40
6.0
100
AcDbArc
 50
94.5294259417
 51
255.4705740583
  0
LINE
  5
377
100
AcDbEntity
  8
0
370
         0
  6
HIDDEN
 62
         9
100
AcDbLine
 10
77.2041809124
 20
71.4385325134
 30
0.0
 11
69.2761688254
 21
73.4932004159
 31
0.0
  0
ARC
  5
378
100
AcDbEntity
  8
0
370
         0
  6
HIDDEN
 62
         9
100
AcDbCircle
 10
76.4515493368
 20
68.5344757454
 30
0.0
 40
3.0
100
AcDbArc
 50
28.5774706019
 51
75.4705740583
  0
LEADER
  5
379
100
AcDbEntity
  8
0
 62
       255
100
AcDbLeader
  3
SLDDIMSTYLE2
 73
         3
 74
         1
 75
         0
 40
0.0
 76
         2
 10
160.2416162828
 20
70.9091511743
 30
0.0
 10
109.2152289157
 20
32.8446578313
 30
0.0
 77
       256
340
37B
  0
LEADER
  5
37A
100
AcDbEntity
  8
0
 62
       255
100
AcDbLeader
  3
SLDDIMSTYLE2
 73
         3
 74
         0
 75
         0
 40
0.0
 76
         2
 10
95.5665543054
 20
67.9347930537
 30
0.0
 10
109.2152289157
 20
32.8446578313
 30
0.0
 77
       256
340
37B
  0
MTEXT
  5
37B
102
{ACAD_REACTORS
330
379
102
}
100
AcDbEntity
  8
0
 62
         7
100
AcDbMText
 10
57.0381511429
 20
35.0984094714
 30
0.0
 40
3.5
 41
0.0
 71
         1
 72
         1
  1
2x logement vis FHC M8
  7
SLDTEXTSTYLE0
 73
         1
 44
1.0
  0
LINE
  5
37C
100
AcDbEntity
  8
0
  6
Continuous
 62
         7
100
AcDbLine
 10
68.2814319766
 20
79.3013139518
 30
0.0
 11
73.2814319766
 21
79.3013139518
 31
0.0
  0
LINE
  5
37D
100
AcDbEntity
  8
0
  6
Continuous
 62
         7
100
AcDbLine
 10
70.7814319766
 20
76.8013139518
 30
0.0
 11
70.7814319766
 21
81.8013139518
 31
0.0
  0
LINE
  5
37E
100
AcDbEntity
  8
0
  6
Continuous
 62
         7
100
AcDbLine
 10
75.7814319766
 20
79.3013139518
 30
0.0
 11
77.5314319766
 21
79.3013139518
 31
0.0
  0
LINE
  5
37F
100
AcDbEntity
  8
0
  6
Continuous
 62
         7
100
AcDbLine
 10
65.7814319766
 20
79.3013139518
 30
0.0
 11
64.0314319766
 21
79.3013139518
 31
0.0
  0
LINE
  5
380
100
AcDbEntity
  8
0
  6
Continuous
 62
         7
100
AcDbLine
 10
70.7814319766
 20
84.3013139518
 30
0.0
 11
70.7814319766
 21
86.0513139518
 31
0.0
  0
LINE
  5
381
100
AcDbEntity
  8
0
  6
Continuous
 62
         7
100
AcDbLine
 10
70.7814319766
 20
74.3013139518
 30
0.0
 11
70.7814319766
 21
72.5513139518
 31
0.0
  0
LINE
  5
382
100
AcDbEntity
  8
0
  6
Continuous
 62
         7
100
AcDbLine
 10
55.1977153346
 20
102.3838876114
 30
0.0
 11
60.1977153346
 21
102.3838876114
 31
0.0
  0
LINE
  5
383
100
AcDbEntity
  8
0
  6
Continuous
 62
         7
100
AcDbLine
 10
57.6977153346
 20
99.8838876114
 30
0.0
 11
57.6977153346
 21
104.8838876114
 31
0.0
  0
LINE
  5
384
100
AcDbEntity
  8
0
  6
Continuous
 62
         7
100
AcDbLine
 10
60.1977153346
 20
102.3838876114
 30
0.0
 11
62.6977153346
 21
102.3838876114
 31
0.0
  0
LINE
  5
385
100
AcDbEntity
  8
0
  6
Continuous
 62
         7
100
AcDbLine
 10
55.1977153346
 20
102.3838876114
 30
0.0
 11
52.6977153346
 21
102.3838876114
 31
0.0
  0
LINE
  5
386
100
AcDbEntity
  8
0
  6
Continuous
 62
         7
100
AcDbLine
 10
57.6977153346
 20
104.8838876114
 30
0.0
 11
57.6977153346
 21
107.3838876114
 31
0.0
  0
LINE
  5
387
100
AcDbEntity
  8
0
  6
Continuous
 62
         7
100
AcDbLine
 10
57.6977153346
 20
99.8838876114
 30
0.0
 11
57.6977153346
 21
97.3838876114
 31
0.0
  0
LINE
  5
388
100
AcDbEntity
  8
0
  6
Continuous
 62
         7
100
AcDbLine
 10
90.1977153346
 20
77.3838876114
 30
0.0
 11
95.1977153346
 21
77.3838876114
 31
0.0
  0
LINE
  5
389
100
AcDbEntity
  8
0
  6
Continuous
 62
         7
100
AcDbLine
 10
92.6977153346
 20
74.8838876114
 30
0.0
 11
92.6977153346
 21
79.8838876114
 31
0.0
  0
LINE
  5
38A
100
AcDbEntity
  8
0
  6
Continuous
 62
         7
100
AcDbLine
 10
97.6977153346
 20
77.3838876114
 30
0.0
 11
98.5727153346
 21
77.3838876114
 31
0.0
  0
LINE
  5
38B
100
AcDbEntity
  8
0
  6
Continuous
 62
         7
100
AcDbLine
 10
87.6977153346
 20
77.3838876114
 30
0.0
 11
86.8227153346
 21
77.3838876114
 31
0.0
  0
LINE
  5
38C
100
AcDbEntity
  8
0
  6
Continuous
 62
         7
100
AcDbLine
 10
92.6977153346
 20
82.3838876114
 30
0.0
 11
92.6977153346
 21
83.2588876114
 31
0.0
  0
LINE
  5
38D
100
AcDbEntity
  8
0
  6
Continuous
 62
         7
100
AcDbLine
 10
92.6977153346
 20
72.3838876114
 30
0.0
 11
92.6977153346
 21
71.5088876114
 31
0.0
  0
LINE
  5
38E
100
AcDbEntity
  8
0
  6
Continuous
 62
         7
100
AcDbLine
 10
165.1977153346
 20
77.3838876114
 30
0.0
 11
170.1977153346
 21
77.3838876114
 31
0.0
  0
LINE
  5
38F
100
AcDbEntity
  8
0
  6
Continuous
 62
         7
100
AcDbLine
 10
167.6977153346
 20
74.8838876114
 30
0.0
 11
167.6977153346
 21
79.8838876114
 31
0.0
  0
LINE
  5
390
100
AcDbEntity
  8
0
  6
Continuous
 62
         7
100
AcDbLine
 10
172.6977153346
 20
77.3838876114
 30
0.0
 11
173.5727153346
 21
77.3838876114
 31
0.0
  0
LINE
  5
391
100
AcDbEntity
  8
0
  6
Continuous
 62
         7
100
AcDbLine
 10
162.6977153346
 20
77.3838876114
 30
0.0
 11
161.8227153346
 21
77.3838876114
 31
0.0
  0
LINE
  5
392
100
AcDbEntity
  8
0
  6
Continuous
 62
         7
100
AcDbLine
 10
167.6977153346
 20
82.3838876114
 30
0.0
 11
167.6977153346
 21
83.2588876114
 31
0.0
  0
LINE
  5
393
100
AcDbEntity
  8
0
  6
Continuous
 62
         7
100
AcDbLine
 10
167.6977153346
 20
72.3838876114
 30
0.0
 11
167.6977153346
 21
71.5088876114
 31
0.0
  0
LINE
  5
394
100
AcDbEntity
  8
0
  6
Continuous
 62
         7
100
AcDbLine
 10
185.1977153346
 20
52.3838876114
 30
0.0
 11
190.1977153346
 21
52.3838876114
 31
0.0
  0
LINE
  5
395
100
AcDbEntity
  8
0
  6
Continuous
 62
         7
100
AcDbLine
 10
187.6977153346
 20
49.8838876114
 30
0.0
 11
187.6977153346
 21
54.8838876114
 31
0.0
  0
LINE
  5
396
100
AcDbEntity
  8
0
  6
Continuous
 62
         7
100
AcDbLine
 10
190.1977153346
 20
52.3838876114
 30
0.0
 11
192.6977153346
 21
52.3838876114
 31
0.0
  0
LINE
  5
397
100
AcDbEntity
  8
0
  6
Continuous
 62
         7
100
AcDbLine
 10
185.1977153346
 20
52.3838876114
 30
0.0
 11
182.6977153346
 21
52.3838876114
 31
0.0
  0
LINE
  5
398
100
AcDbEntity
  8
0
  6
Continuous
 62
         7
100
AcDbLine
 10
187.6977153346
 20
54.8838876114
 30
0.0
 11
187.6977153346
 21
57.3838876114
 31
0.0
  0
LINE
  5
399
100
AcDbEntity
  8
0
  6
Continuous
 62
         7
100
AcDbLine
 10
187.6977153346
 20
49.8838876114
 30
0.0
 11
187.6977153346
 21
47.3838876114
 31
0.0
  0
ARC
  5
39A
100
AcDbEntity
  8
0
  6
Continuous
 62
         7
100
AcDbCircle
 10
167.6977153346
 20
77.3838876114
 30
0.0
 40
4.0
100
AcDbArc
 50
255.0
 51
195.0
  0
ARC
  5
39B
100
AcDbEntity
  8
0
  6
Continuous
 62
         7
100
AcDbCircle
 10
92.6977153346
 20
77.3838876114
 30
0.0
 40
4.0
100
AcDbArc
 50
255.0
 51
195.0
  0
ARC
  5
39C
100
AcDbEntity
  8
0
  6
Continuous
 62
         7
100
AcDbCircle
 10
57.6977153346
 20
102.3838876114
 30
0.0
 40
3.0
100
AcDbArc
 50
255.0
 51
195.0
  0
ARC
  5
39D
100
AcDbEntity
  8
0
  6
Continuous
 62
         7
100
AcDbCircle
 10
187.6977153346
 20
52.3838876114
 30
0.0
 40
3.0
100
AcDbArc
 50
255.0
 51
195.0
  0
LINE
  5
39E
100
AcDbEntity
  8
0
370
        15
  6
Continuous
 62
         7
100
AcDbLine
 10
360.101787532
 20
217.0995282928
 30
0.0
 11
360.101787532
 21
215.4328616262
 31
0.0
  0
LINE
  5
39F
100
AcDbEntity
  8
0
370
        15
  6
Continuous
 62
         7
100
AcDbLine
 10
353.2659861234
 20
219.8600592188
 30
0.0
 11
353.2659861234
 21
218.1933925522
 31
0.0
  0
LINE
  5
3A0
100
AcDbEntity
  8
0
370
        15
  6
Continuous
 62
         7
100
AcDbLine
 10
366.6621665546
 20
217.6826603396
 30
0.0
 11
366.6621665546
 21
219.3493270062
 31
0.0
  0
LINE
  5
3A1
100
AcDbEntity
  8
0
370
        15
  6
Continuous
 62
         7
100
AcDbLine
 10
346.4301847148
 20
222.6205901448
 30
0.0
 11
346.4301847148
 21
220.9539234782
 31
0.0
  0
LINE
  5
3A2
100
AcDbEntity
  8
0
370
        15
  6
Continuous
 62
         7
100
AcDbLine
 10
339.5943833062
 20
225.3811210708
 30
0.0
 11
339.5943833062
 21
223.7144544041
 31
0.0
  0
LINE
  5
3A3
100
AcDbEntity
  8
0
370
        15
  6
Continuous
 62
         7
100
AcDbLine
 10
332.7585818976
 20
228.1416519968
 30
0.0
 11
332.7585818976
 21
226.4749853301
 31
0.0
  0
LINE
  5
3A4
100
AcDbEntity
  8
0
370
        15
  6
Continuous
 62
         7
100
AcDbLine
 10
325.922780489
 20
230.9021829228
 30
0.0
 11
325.922780489
 21
229.2355162561
 31
0.0
  0
LINE
  5
3A5
100
AcDbEntity
  8
0
370
        15
  6
Continuous
 62
         7
100
AcDbLine
 10
302.9761064881
 20
237.3780180949
 30
0.0
 11
302.9761064881
 21
235.7113514282
 31
0.0
  0
LINE
  5
3A6
100
AcDbEntity
  8
0
370
        15
  6
Continuous
 62
         7
100
AcDbLine
 10
319.0869790804
 20
233.6627138488
 30
0.0
 11
319.0869790804
 21
231.9960471821
 31
0.0
  0
LINE
  5
3A7
100
AcDbEntity
  8
0
370
        15
  6
Continuous
 62
         7
100
AcDbLine
 10
321.1294753072
 20
236.3801205301
 30
0.0
 11
321.1294753072
 21
237.2796279923
 31
0.0
  0
LINE
  5
3A8
100
AcDbEntity
  8
0
370
        15
  6
Continuous
 62
         7
100
AcDbLine
 10
383.9633587141
 20
241.2066610858
 30
0.0
 11
287.3707760852
 21
263.62104789
 31
0.0
  0
LINE
  5
3A9
100
AcDbEntity
  8
0
370
        15
  6
Continuous
 62
         7
100
AcDbLine
 10
371.8851366093
 20
202.1692335781
 30
0.0
 11
383.9633587141
 21
241.2066610858
 31
0.0
  0
LINE
  5
3AA
100
AcDbEntity
  8
0
370
        15
  6
Continuous
 62
         7
100
AcDbLine
 10
275.2925539804
 20
224.5836203823
 30
0.0
 11
371.8851366093
 21
202.1692335781
 31
0.0
  0
LINE
  5
3AB
100
AcDbEntity
  8
0
370
        15
  6
Continuous
 62
         7
100
AcDbLine
 10
287.3707760852
 20
263.62104789
 30
0.0
 11
275.2925539804
 21
224.5836203823
 31
0.0
  0
POLYLINE
  5
3AC
100
AcDbEntity
  8
0
370
        15
  6
Continuous
 62
         7
100
AcDb2dPolyline
 66
         1
 10
0.0
 20
0.0
 30
0.0
 70
       128
  0
VERTEX
  5
3AD
100
AcDbEntity
  8
0
100
AcDbVertex
100
AcDb2dVertex
 10
375.3670278296
 20
235.7299843416
 30
0.0
  0
VERTEX
  5
3AE
100
AcDbEntity
  8
0
100
AcDbVertex
100
AcDb2dVertex
 10
375.7983929048
 20
235.6808025082
 30
0.0
  0
VERTEX
  5
3AF
100
AcDbEntity
  8
0
100
AcDbVertex
100
AcDb2dVertex
 10
376.22975798
 20
235.7299843416
 30
0.0
  0
VERTEX
  5
3B0
100
AcDbEntity
  8
0
100
AcDbVertex
100
AcDb2dVertex
 10
376.6317262381
 20
235.8741781811
 30
0.0
  0
VERTEX
  5
3B1
100
AcDbEntity
  8
0
100
AcDbVertex
100
AcDb2dVertex
 10
376.9769042068
 20
236.103557455
 30
0.0
  0
VERTEX
  5
3B2
100
AcDbEntity
  8
0
100
AcDbVertex
100
AcDb2dVertex
 10
377.2417685778
 20
236.4024903447
 30
0.0
  0
VERTEX
  5
3B3
100
AcDbEntity
  8
0
100
AcDbVertex
100
AcDb2dVertex
 10
377.4082692819
 20
236.7506050677
 30
0.0
  0
VERTEX
  5
3B4
100
AcDbEntity
  8
0
100
AcDbVertex
100
AcDb2dVertex
 10
377.4650595715
 20
237.1241781811
 30
0.0
  0
VERTEX
  5
3B5
100
AcDbEntity
  8
0
100
AcDbVertex
100
AcDb2dVertex
 10
377.4082692819
 20
237.4977512945
 30
0.0
  0
VERTEX
  5
3B6
100
AcDbEntity
  8
0
100
AcDbVertex
100
AcDb2dVertex
 10
377.2417685778
 20
237.8458660176
 30
0.0
  0
VERTEX
  5
3B7
100
AcDbEntity
  8
0
100
AcDbVertex
100
AcDb2dVertex
 10
376.9769042068
 20
238.1447989073
 30
0.0
  0
VERTEX
  5
3B8
100
AcDbEntity
  8
0
100
AcDbVertex
100
AcDb2dVertex
 10
376.6317262381
 20
238.3741781811
 30
0.0
  0
VERTEX
  5
3B9
100
AcDbEntity
  8
0
100
AcDbVertex
100
AcDb2dVertex
 10
376.22975798
 20
238.5183720207
 30
0.0
  0
VERTEX
  5
3BA
100
AcDbEntity
  8
0
100
AcDbVertex
100
AcDb2dVertex
 10
375.7983929048
 20
238.5675538541
 30
0.0
  0
VERTEX
  5
3BB
100
AcDbEntity
  8
0
100
AcDbVertex
100
AcDb2dVertex
 10
375.3670278296
 20
238.5183720207
 30
0.0
  0
VERTEX
  5
3BC
100
AcDbEntity
  8
0
100
AcDbVertex
100
AcDb2dVertex
 10
374.9650595715
 20
238.3741781811
 30
0.0
  0
VERTEX
  5
3BD
100
AcDbEntity
  8
0
100
AcDbVertex
100
AcDb2dVertex
 10
374.6198816028
 20
238.1447989073
 30
0.0
  0
VERTEX
  5
3BE
100
AcDbEntity
  8
0
100
AcDbVertex
100
AcDb2dVertex
 10
374.3550172318
 20
237.8458660176
 30
0.0
  0
VERTEX
  5
3BF
100
AcDbEntity
  8
0
100
AcDbVertex
100
AcDb2dVertex
 10
374.1885165277
 20
237.4977512945
 30
0.0
  0
VERTEX
  5
3C0
100
AcDbEntity
  8
0
100
AcDbVertex
100
AcDb2dVertex
 10
374.1317262381
 20
237.1241781811
 30
0.0
  0
VERTEX
  5
3C1
100
AcDbEntity
  8
0
100
AcDbVertex
100
AcDb2dVertex
 10
374.1885165277
 20
236.7506050677
 30
0.0
  0
VERTEX
  5
3C2
100
AcDbEntity
  8
0
100
AcDbVertex
100
AcDb2dVertex
 10
374.3550172318
 20
236.4024903447
 30
0.0
  0
VERTEX
  5
3C3
100
AcDbEntity
  8
0
100
AcDbVertex
100
AcDb2dVertex
 10
374.6198816028
 20
236.103557455
 30
0.0
  0
VERTEX
  5
3C4
100
AcDbEntity
  8
0
100
AcDbVertex
100
AcDb2dVertex
 10
374.9650595715
 20
235.8741781811
 30
0.0
  0
VERTEX
  5
3C5
100
AcDbEntity
  8
0
100
AcDbVertex
100
AcDb2dVertex
 10
375.3670278296
 20
235.7299843416
 30
0.0
  0
SEQEND
  5
3C6
100
AcDbEntity
  8
0
  0
POLYLINE
  5
3C7
100
AcDbEntity
  8
0
370
        15
  6
Continuous
 62
         7
100
AcDb2dPolyline
 66
         1
 10
0.0
 20
0.0
 30
0.0
 70
       128
  0
VERTEX
  5
3C8
100
AcDbEntity
  8
0
100
AcDbVertex
100
AcDb2dVertex
 10
283.0261547145
 20
227.2719094473
 30
0.0
  0
VERTEX
  5
3C9
100
AcDbEntity
  8
0
100
AcDbVertex
100
AcDb2dVertex
 10
283.4575197897
 20
227.2227276139
 30
0.0
  0
VERTEX
  5
3CA
100
AcDbEntity
  8
0
100
AcDbVertex
100
AcDb2dVertex
 10
283.8888848648
 20
227.2719094473
 30
0.0
  0
VERTEX
  5
3CB
100
AcDbEntity
  8
0
100
AcDbVertex
100
AcDb2dVertex
 10
284.290853123
 20
227.4161032869
 30
0.0
  0
VERTEX
  5
3CC
100
AcDbEntity
  8
0
100
AcDbVertex
100
AcDb2dVertex
 10
284.6360310916
 20
227.6454825607
 30
0.0
  0
VERTEX
  5
3CD
100
AcDbEntity
  8
0
100
AcDbVertex
100
AcDb2dVertex
 10
284.9008954626
 20
227.9444154504
 30
0.0
  0
VERTEX
  5
3CE
100
AcDbEntity
  8
0
100
AcDbVertex
100
AcDb2dVertex
 10
285.0673961668
 20
228.2925301735
 30
0.0
  0
VERTEX
  5
3CF
100
AcDbEntity
  8
0
100
AcDbVertex
100
AcDb2dVertex
 10
285.1241864563
 20
228.6661032869
 30
0.0
  0
VERTEX
  5
3D0
100
AcDbEntity
  8
0
100
AcDbVertex
100
AcDb2dVertex
 10
285.0673961668
 20
229.0396764003
 30
0.0
  0
VERTEX
  5
3D1
100
AcDbEntity
  8
0
100
AcDbVertex
100
AcDb2dVertex
 10
284.9008954626
 20
229.3877911233
 30
0.0
  0
VERTEX
  5
3D2
100
AcDbEntity
  8
0
100
AcDbVertex
100
AcDb2dVertex
 10
284.6360310916
 20
229.686724013
 30
0.0
  0
VERTEX
  5
3D3
100
AcDbEntity
  8
0
100
AcDbVertex
100
AcDb2dVertex
 10
284.290853123
 20
229.9161032869
 30
0.0
  0
VERTEX
  5
3D4
100
AcDbEntity
  8
0
100
AcDbVertex
100
AcDb2dVertex
 10
283.8888848648
 20
230.0602971264
 30
0.0
  0
VERTEX
  5
3D5
100
AcDbEntity
  8
0
100
AcDbVertex
100
AcDb2dVertex
 10
283.4575197897
 20
230.1094789598
 30
0.0
  0
VERTEX
  5
3D6
100
AcDbEntity
  8
0
100
AcDbVertex
100
AcDb2dVertex
 10
283.0261547145
 20
230.0602971264
 30
0.0
  0
VERTEX
  5
3D7
100
AcDbEntity
  8
0
100
AcDbVertex
100
AcDb2dVertex
 10
282.6241864563
 20
229.9161032869
 30
0.0
  0
VERTEX
  5
3D8
100
AcDbEntity
  8
0
100
AcDbVertex
100
AcDb2dVertex
 10
282.2790084877
 20
229.686724013
 30
0.0
  0
VERTEX
  5
3D9
100
AcDbEntity
  8
0
100
AcDbVertex
100
AcDb2dVertex
 10
282.0141441167
 20
229.3877911233
 30
0.0
  0
VERTEX
  5
3DA
100
AcDbEntity
  8
0
100
AcDbVertex
100
AcDb2dVertex
 10
281.8476434125
 20
229.0396764003
 30
0.0
  0
VERTEX
  5
3DB
100
AcDbEntity
  8
0
100
AcDbVertex
100
AcDb2dVertex
 10
281.790853123
 20
228.6661032869
 30
0.0
  0
VERTEX
  5
3DC
100
AcDbEntity
  8
0
100
AcDbVertex
100
AcDb2dVertex
 10
281.8476434125
 20
228.2925301735
 30
0.0
  0
VERTEX
  5
3DD
100
AcDbEntity
  8
0
100
AcDbVertex
100
AcDb2dVertex
 10
282.0141441167
 20
227.9444154504
 30
0.0
  0
VERTEX
  5
3DE
100
AcDbEntity
  8
0
100
AcDbVertex
100
AcDb2dVertex
 10
282.2790084877
 20
227.6454825607
 30
0.0
  0
VERTEX
  5
3DF
100
AcDbEntity
  8
0
100
AcDbVertex
100
AcDb2dVertex
 10
282.6241864563
 20
227.4161032869
 30
0.0
  0
VERTEX
  5
3E0
100
AcDbEntity
  8
0
100
AcDbVertex
100
AcDb2dVertex
 10
283.0261547145
 20
227.2719094473
 30
0.0
  0
SEQEND
  5
3E1
100
AcDbEntity
  8
0
  0
POLYLINE
  5
3E2
100
AcDbEntity
  8
0
370
        15
  6
Continuous
 62
         7
100
AcDb2dPolyline
 66
         1
 10
0.0
 20
0.0
 30
0.0
 70
       128
  0
VERTEX
  5
3E3
100
AcDbEntity
  8
0
100
AcDbVertex
100
AcDb2dVertex
 10
309.72709697
 20
235.4958564115
 30
0.0
  0
VERTEX
  5
3E4
100
AcDbEntity
  8
0
100
AcDbVertex
100
AcDb2dVertex
 10
310.2253096343
 20
235.4308235531
 30
0.0
  0
VERTEX
  5
3E5
100
AcDbEntity
  8
0
100
AcDbVertex
100
AcDb2dVertex
 10
310.7277409376
 20
235.4634311597
 30
0.0
  0
VERTEX
  5
3E6
100
AcDbEntity
  8
0
100
AcDbVertex
100
AcDb2dVertex
 10
311.2091968762
 20
235.59204415
 30
0.0
  0
VERTEX
  5
3E7
100
AcDbEntity
  8
0
100
AcDbVertex
100
AcDb2dVertex
 10
311.645535239
 20
235.8102133314
 30
0.0
  0
VERTEX
  5
3E8
100
AcDbEntity
  8
0
100
AcDbVertex
100
AcDb2dVertex
 10
312.0148761985
 20
236.1069987902
 30
0.0
  0
VERTEX
  5
3E9
100
AcDbEntity
  8
0
100
AcDbVertex
100
AcDb2dVertex
 10
312.2986994568
 20
236.4675184643
 30
0.0
  0
VERTEX
  5
3EA
100
AcDbEntity
  8
0
100
AcDbVertex
100
AcDb2dVertex
 10
312.4827729306
 20
236.8736943918
 30
0.0
  0
VERTEX
  5
3EB
100
AcDbEntity
  8
0
100
AcDbVertex
100
AcDb2dVertex
 10
312.5578664072
 20
237.3051592156
 30
0.0
  0
VERTEX
  5
3EC
100
AcDbEntity
  8
0
100
AcDbVertex
100
AcDb2dVertex
 10
312.5202143862
 20
237.7402774879
 30
0.0
  0
VERTEX
  5
3ED
100
AcDbEntity
  8
0
100
AcDbVertex
100
AcDb2dVertex
 10
312.3717048972
 20
238.1572305615
 30
0.0
  0
VERTEX
  5
3EE
100
AcDbEntity
  8
0
100
AcDbVertex
100
AcDb2dVertex
 10
312.1197848259
 20
238.5351106684
 30
0.0
  0
VERTEX
  5
3EF
100
AcDbEntity
  8
0
100
AcDbVertex
100
AcDb2dVertex
 10
311.7770864968
 20
238.854969322
 30
0.0
  0
VERTEX
  5
3F0
100
AcDbEntity
  8
0
100
AcDbVertex
100
AcDb2dVertex
 10
311.3607942351
 20
239.1007674738
 30
0.0
  0
VERTEX
  5
3F1
100
AcDbEntity
  8
0
100
AcDbVertex
100
AcDb2dVertex
 10
310.8917826729
 20
239.2601797783
 30
0.0
  0
VERTEX
  5
3F2
100
AcDbEntity
  8
0
100
AcDbVertex
100
AcDb2dVertex
 10
310.3935700086
 20
239.3252126367
 30
0.0
  0
VERTEX
  5
3F3
100
AcDbEntity
  8
0
100
AcDbVertex
100
AcDb2dVertex
 10
309.8911387053
 20
239.29260503
 30
0.0
  0
VERTEX
  5
3F4
100
AcDbEntity
  8
0
100
AcDbVertex
100
AcDb2dVertex
 10
309.4096827667
 20
239.1639920398
 30
0.0
  0
VERTEX
  5
3F5
100
AcDbEntity
  8
0
100
AcDbVertex
100
AcDb2dVertex
 10
308.9733444039
 20
238.9458228584
 30
0.0
  0
VERTEX
  5
3F6
100
AcDbEntity
  8
0
100
AcDbVertex
100
AcDb2dVertex
 10
308.6040034444
 20
238.6490373995
 30
0.0
  0
VERTEX
  5
3F7
100
AcDbEntity
  8
0
100
AcDbVertex
100
AcDb2dVertex
 10
308.3201801861
 20
238.2885177255
 30
0.0
  0
VERTEX
  5
3F8
100
AcDbEntity
  8
0
100
AcDbVertex
100
AcDb2dVertex
 10
308.1361067123
 20
237.882341798
 30
0.0
  0
VERTEX
  5
3F9
100
AcDbEntity
  8
0
100
AcDbVertex
100
AcDb2dVertex
 10
308.0610132357
 20
237.4508769742
 30
0.0
  0
VERTEX
  5
3FA
100
AcDbEntity
  8
0
100
AcDbVertex
100
AcDb2dVertex
 10
308.0986652567
 20
237.0157587019
 30
0.0
  0
VERTEX
  5
3FB
100
AcDbEntity
  8
0
100
AcDbVertex
100
AcDb2dVertex
 10
308.2471747457
 20
236.5988056283
 30
0.0
  0
VERTEX
  5
3FC
100
AcDbEntity
  8
0
100
AcDbVertex
100
AcDb2dVertex
 10
308.499094817
 20
236.2209255214
 30
0.0
  0
VERTEX
  5
3FD
100
AcDbEntity
  8
0
100
AcDbVertex
100
AcDb2dVertex
 10
308.8417931461
 20
235.9010668678
 30
0.0
  0
VERTEX
  5
3FE
100
AcDbEntity
  8
0
100
AcDbVertex
100
AcDb2dVertex
 10
309.2580854078
 20
235.6552687159
 30
0.0
  0
VERTEX
  5
3FF
100
AcDbEntity
  8
0
100
AcDbVertex
100
AcDb2dVertex
 10
309.72709697
 20
235.4958564115
 30
0.0
  0
SEQEND
  5
400
100
AcDbEntity
  8
0
  0
POLYLINE
  5
401
100
AcDbEntity
  8
0
370
        15
  6
Continuous
 62
         7
100
AcDb2dPolyline
 66
         1
 10
0.0
 20
0.0
 30
0.0
 70
       128
  0
VERTEX
  5
402
100
AcDbEntity
  8
0
100
AcDbVertex
100
AcDb2dVertex
 10
358.0233882844
 20
224.2886630094
 30
0.0
  0
VERTEX
  5
403
100
AcDbEntity
  8
0
100
AcDbVertex
100
AcDb2dVertex
 10
358.5216009488
 20
224.223630151
 30
0.0
  0
VERTEX
  5
404
100
AcDbEntity
  8
0
100
AcDbVertex
100
AcDb2dVertex
 10
359.024032252
 20
224.2562377576
 30
0.0
  0
VERTEX
  5
405
100
AcDbEntity
  8
0
100
AcDbVertex
100
AcDb2dVertex
 10
359.5054881906
 20
224.3848507479
 30
0.0
  0
VERTEX
  5
406
100
AcDbEntity
  8
0
100
AcDbVertex
100
AcDb2dVertex
 10
359.9418265534
 20
224.6030199293
 30
0.0
  0
VERTEX
  5
407
100
AcDbEntity
  8
0
100
AcDbVertex
100
AcDb2dVertex
 10
360.311167513
 20
224.8998053881
 30
0.0
  0
VERTEX
  5
408
100
AcDbEntity
  8
0
100
AcDbVertex
100
AcDb2dVertex
 10
360.5949907713
 20
225.2603250622
 30
0.0
  0
VERTEX
  5
409
100
AcDbEntity
  8
0
100
AcDbVertex
100
AcDb2dVertex
 10
360.7790642451
 20
225.6665009897
 30
0.0
  0
VERTEX
  5
40A
100
AcDbEntity
  8
0
100
AcDbVertex
100
AcDb2dVertex
 10
360.8541577217
 20
226.0979658135
 30
0.0
  0
VERTEX
  5
40B
100
AcDbEntity
  8
0
100
AcDbVertex
100
AcDb2dVertex
 10
360.8165057007
 20
226.5330840858
 30
0.0
  0
VERTEX
  5
40C
100
AcDbEntity
  8
0
100
AcDbVertex
100
AcDb2dVertex
 10
360.6679962116
 20
226.9500371594
 30
0.0
  0
VERTEX
  5
40D
100
AcDbEntity
  8
0
100
AcDbVertex
100
AcDb2dVertex
 10
360.4160761404
 20
227.3279172663
 30
0.0
  0
VERTEX
  5
40E
100
AcDbEntity
  8
0
100
AcDbVertex
100
AcDb2dVertex
 10
360.0733778113
 20
227.6477759199
 30
0.0
  0
VERTEX
  5
40F
100
AcDbEntity
  8
0
100
AcDbVertex
100
AcDb2dVertex
 10
359.6570855495
 20
227.8935740717
 30
0.0
  0
VERTEX
  5
410
100
AcDbEntity
  8
0
100
AcDbVertex
100
AcDb2dVertex
 10
359.1880739874
 20
228.0529863762
 30
0.0
  0
VERTEX
  5
411
100
AcDbEntity
  8
0
100
AcDbVertex
100
AcDb2dVertex
 10
358.689861323
 20
228.1180192346
 30
0.0
  0
VERTEX
  5
412
100
AcDbEntity
  8
0
100
AcDbVertex
100
AcDb2dVertex
 10
358.1874300198
 20
228.0854116279
 30
0.0
  0
VERTEX
  5
413
100
AcDbEntity
  8
0
100
AcDbVertex
100
AcDb2dVertex
 10
357.7059740812
 20
227.9567986377
 30
0.0
  0
VERTEX
  5
414
100
AcDbEntity
  8
0
100
AcDbVertex
100
AcDb2dVertex
 10
357.2696357184
 20
227.7386294563
 30
0.0
  0
VERTEX
  5
415
100
AcDbEntity
  8
0
100
AcDbVertex
100
AcDb2dVertex
 10
356.9002947588
 20
227.4418439974
 30
0.0
  0
VERTEX
  5
416
100
AcDbEntity
  8
0
100
AcDbVertex
100
AcDb2dVertex
 10
356.6164715005
 20
227.0813243234
 30
0.0
  0
VERTEX
  5
417
100
AcDbEntity
  8
0
100
AcDbVertex
100
AcDb2dVertex
 10
356.4323980268
 20
226.6751483959
 30
0.0
  0
VERTEX
  5
418
100
AcDbEntity
  8
0
100
AcDbVertex
100
AcDb2dVertex
 10
356.3573045501
 20
226.2436835721
 30
0.0
  0
VERTEX
  5
419
100
AcDbEntity
  8
0
100
AcDbVertex
100
AcDb2dVertex
 10
356.3949565711
 20
225.8085652998
 30
0.0
  0
VERTEX
  5
41A
100
AcDbEntity
  8
0
100
AcDbVertex
100
AcDb2dVertex
 10
356.5434660602
 20
225.3916122262
 30
0.0
  0
VERTEX
  5
41B
100
AcDbEntity
  8
0
100
AcDbVertex
100
AcDb2dVertex
 10
356.7953861314
 20
225.0137321193
 30
0.0
  0
VERTEX
  5
41C
100
AcDbEntity
  8
0
100
AcDbVertex
100
AcDb2dVertex
 10
357.1380844605
 20
224.6938734657
 30
0.0
  0
VERTEX
  5
41D
100
AcDbEntity
  8
0
100
AcDbVertex
100
AcDb2dVertex
 10
357.5543767223
 20
224.4480753138
 30
0.0
  0
VERTEX
  5
41E
100
AcDbEntity
  8
0
100
AcDbVertex
100
AcDb2dVertex
 10
358.0233882844
 20
224.2886630094
 30
0.0
  0
SEQEND
  5
41F
100
AcDbEntity
  8
0
  0
LINE
  5
420
100
AcDbEntity
  8
0
370
        15
  6
Continuous
 62
         7
100
AcDbLine
 10
301.358217215
 20
243.0087962322
 30
0.0
 11
295.8984446747
 21
243.0476309628
 31
0.0
  0
POLYLINE
  5
421
100
AcDbEntity
  8
0
370
        15
  6
Continuous
 62
         7
100
AcDb2dPolyline
 66
         1
 10
0.0
 20
0.0
 30
0.0
 70
       128
  0
VERTEX
  5
422
100
AcDbEntity
  8
0
100
AcDbVertex
100
AcDb2dVertex
 10
295.8984446747
 20
243.0476309628
 30
0.0
  0
VERTEX
  5
423
100
AcDbEntity
  8
0
100
AcDbVertex
100
AcDb2dVertex
 10
295.1993267801
 20
242.9993550707
 30
0.0
  0
VERTEX
  5
424
100
AcDbEntity
  8
0
100
AcDbVertex
100
AcDb2dVertex
 10
294.5206912866
 20
242.8460731899
 30
0.0
  0
VERTEX
  5
425
100
AcDbEntity
  8
0
100
AcDbVertex
100
AcDb2dVertex
 10
293.8834008595
 20
242.592497524
 30
0.0
  0
VERTEX
  5
426
100
AcDbEntity
  8
0
100
AcDbVertex
100
AcDb2dVertex
 10
293.3070471308
 20
242.2464235156
 30
0.0
  0
VERTEX
  5
427
100
AcDbEntity
  8
0
100
AcDbVertex
100
AcDb2dVertex
 10
292.8093484116
 20
241.8184901991
 30
0.0
  0
VERTEX
  5
428
100
AcDbEntity
  8
0
100
AcDbVertex
100
AcDb2dVertex
 10
292.4056049948
 20
241.3218531337
 30
0.0
  0
VERTEX
  5
429
100
AcDbEntity
  8
0
100
AcDbVertex
100
AcDb2dVertex
 10
292.1082287918
 20
240.7717799748
 30
0.0
  0
VERTEX
  5
42A
100
AcDbEntity
  8
0
100
AcDbVertex
100
AcDb2dVertex
 10
291.9263617652
 20
240.1851811142
 30
0.0
  0
VERTEX
  5
42B
100
AcDbEntity
  8
0
100
AcDbVertex
100
AcDb2dVertex
 10
291.8655948852
 20
239.58008982
 30
0.0
  0
VERTEX
  5
42C
100
AcDbEntity
  8
0
100
AcDbVertex
100
AcDb2dVertex
 10
291.927796252
 20
238.9751078556
 30
0.0
  0
VERTEX
  5
42D
100
AcDbEntity
  8
0
100
AcDbVertex
100
AcDb2dVertex
 10
292.1110536663
 20
238.3888336239
 30
0.0
  0
VERTEX
  5
42E
100
AcDbEntity
  8
0
100
AcDbVertex
100
AcDb2dVertex
 10
292.4097334143
 20
237.8392904128
 30
0.0
  0
VERTEX
  5
42F
100
AcDbEntity
  8
0
100
AcDbVertex
100
AcDb2dVertex
 10
292.8146534601
 20
237.3433723227
 30
0.0
  0
VERTEX
  5
430
100
AcDbEntity
  8
0
100
AcDbVertex
100
AcDb2dVertex
 10
293.3133657201
 20
236.9163249061
 30
0.0
  0
VERTEX
  5
431
100
AcDbEntity
  8
0
100
AcDbVertex
100
AcDb2dVertex
 10
293.890538743
 20
236.5712764879
 30
0.0
  0
VERTEX
  5
432
100
AcDbEntity
  8
0
100
AcDbVertex
100
AcDb2dVertex
 10
294.5284290309
 20
236.3188345734
 30
0.0
  0
SEQEND
  5
433
100
AcDbEntity
  8
0
  0
LINE
  5
434
100
AcDbEntity
  8
0
370
        15
  6
Continuous
 62
         7
100
AcDbLine
 10
294.5284290309
 20
236.3188345734
 30
0.0
 11
299.6742740311
 21
234.7381528516
 31
0.0
  0
POLYLINE
  5
435
100
AcDbEntity
  8
0
370
        15
  6
Continuous
 62
         7
100
AcDb2dPolyline
 66
         1
 10
0.0
 20
0.0
 30
0.0
 70
       128
  0
VERTEX
  5
436
100
AcDbEntity
  8
0
100
AcDbVertex
100
AcDb2dVertex
 10
299.6742740311
 20
234.7381528516
 30
0.0
  0
VERTEX
  5
437
100
AcDbEntity
  8
0
100
AcDbVertex
100
AcDb2dVertex
 10
299.8632806372
 20
234.6704855241
 30
0.0
  0
VERTEX
  5
438
100
AcDbEntity
  8
0
100
AcDbVertex
100
AcDb2dVertex
 10
300.0433193005
 20
234.5864554708
 30
0.0
  0
VERTEX
  5
439
100
AcDbEntity
  8
0
100
AcDbVertex
100
AcDb2dVertex
 10
300.2125073272
 20
234.4869414076
 30
0.0
  0
VERTEX
  5
43A
100
AcDbEntity
  8
0
100
AcDbVertex
100
AcDb2dVertex
 10
300.3690754906
 20
234.3729839693
 30
0.0
  0
VERTEX
  5
43B
100
AcDbEntity
  8
0
100
AcDbVertex
100
AcDb2dVertex
 10
300.5113865318
 20
234.2457748276
 30
0.0
  0
VERTEX
  5
43C
100
AcDbEntity
  8
0
100
AcDbVertex
100
AcDb2dVertex
 10
300.6379522809
 20
234.1066442291
 30
0.0
  0
VERTEX
  5
43D
100
AcDbEntity
  8
0
100
AcDbVertex
100
AcDb2dVertex
 10
300.7474492193
 20
233.9570470853
 30
0.0
  0
VERTEX
  5
43E
100
AcDbEntity
  8
0
100
AcDbVertex
100
AcDb2dVertex
 10
300.8387323195
 20
233.7985477579
 30
0.0
  0
SEQEND
  5
43F
100
AcDbEntity
  8
0
  0
POLYLINE
  5
440
100
AcDbEntity
  8
0
370
        15
  6
Continuous
 62
         7
100
AcDb2dPolyline
 66
         1
 10
0.0
 20
0.0
 30
0.0
 70
       128
  0
VERTEX
  5
441
100
AcDbEntity
  8
0
100
AcDbVertex
100
AcDb2dVertex
 10
309.669635902
 20
228.4462589433
 30
0.0
  0
VERTEX
  5
442
100
AcDbEntity
  8
0
100
AcDbVertex
100
AcDb2dVertex
 10
308.544016101
 20
228.5606606308
 30
0.0
  0
VERTEX
  5
443
100
AcDbEntity
  8
0
100
AcDbVertex
100
AcDb2dVertex
 10
307.4396332495
 20
228.7811296454
 30
0.0
  0
VERTEX
  5
444
100
AcDbEntity
  8
0
100
AcDbVertex
100
AcDb2dVertex
 10
306.3697723865
 20
229.1050138818
 30
0.0
  0
VERTEX
  5
445
100
AcDbEntity
  8
0
100
AcDbVertex
100
AcDb2dVertex
 10
305.3473032727
 20
229.5284172141
 30
0.0
  0
VERTEX
  5
446
100
AcDbEntity
  8
0
100
AcDbVertex
100
AcDb2dVertex
 10
304.3845255757
 20
230.0462463636
 30
0.0
  0
VERTEX
  5
447
100
AcDbEntity
  8
0
100
AcDbVertex
100
AcDb2dVertex
 10
303.4930209126
 20
230.6522721676
 30
0.0
  0
VERTEX
  5
448
100
AcDbEntity
  8
0
100
AcDbVertex
100
AcDb2dVertex
 10
302.6835135301
 20
231.3392045125
 30
0.0
  0
VERTEX
  5
449
100
AcDbEntity
  8
0
100
AcDbVertex
100
AcDb2dVertex
 10
301.9657412984
 20
232.0987800295
 30
0.0
  0
VERTEX
  5
44A
100
AcDbEntity
  8
0
100
AcDbVertex
100
AcDb2dVertex
 10
301.3483385713
 20
232.9218614973
 30
0.0
  0
VERTEX
  5
44B
100
AcDbEntity
  8
0
100
AcDbVertex
100
AcDb2dVertex
 10
300.8387323195
 20
233.7985477579
 30
0.0
  0
SEQEND
  5
44C
100
AcDbEntity
  8
0
  0
POLYLINE
  5
44D
100
AcDbEntity
  8
0
370
        15
  6
Continuous
 62
         7
100
AcDb2dPolyline
 66
         1
 10
0.0
 20
0.0
 30
0.0
 70
       128
  0
VERTEX
  5
44E
100
AcDbEntity
  8
0
100
AcDbVertex
100
AcDb2dVertex
 10
333.7164194621
 20
223.1477108339
 30
0.0
  0
VERTEX
  5
44F
100
AcDbEntity
  8
0
100
AcDbVertex
100
AcDb2dVertex
 10
331.1794383109
 20
224.117124336
 30
0.0
  0
VERTEX
  5
450
100
AcDbEntity
  8
0
100
AcDbVertex
100
AcDb2dVertex
 10
328.5981018499
 20
224.9943324732
 30
0.0
  0
VERTEX
  5
451
100
AcDbEntity
  8
0
100
AcDbVertex
100
AcDb2dVertex
 10
325.9768760243
 20
225.7778175961
 30
0.0
  0
VERTEX
  5
452
100
AcDbEntity
  8
0
100
AcDbVertex
100
AcDb2dVertex
 10
323.3202957914
 20
226.4662242049
 30
0.0
  0
VERTEX
  5
453
100
AcDbEntity
  8
0
100
AcDbVertex
100
AcDb2dVertex
 10
320.6329572747
 20
227.0583612938
 30
0.0
  0
VERTEX
  5
454
100
AcDbEntity
  8
0
100
AcDbVertex
100
AcDb2dVertex
 10
317.9195098125
 20
227.5532044124
 30
0.0
  0
VERTEX
  5
455
100
AcDbEntity
  8
0
100
AcDbVertex
100
AcDb2dVertex
 10
315.1846479139
 20
227.9498974374
 30
0.0
  0
VERTEX
  5
456
100
AcDbEntity
  8
0
100
AcDbVertex
100
AcDb2dVertex
 10
312.4331031368
 20
228.247754054
 30
0.0
  0
VERTEX
  5
457
100
AcDbEntity
  8
0
100
AcDbVertex
100
AcDb2dVertex
 10
309.669635902
 20
228.4462589433
 30
0.0
  0
SEQEND
  5
458
100
AcDbEntity
  8
0
  0
LINE
  5
459
100
AcDbEntity
  8
0
370
        15
  6
Continuous
 62
         7
100
AcDbLine
 10
361.9101900245
 20
211.7620998564
 30
0.0
 11
333.7164194621
 21
223.1477108339
 31
0.0
  0
POLYLINE
  5
45A
100
AcDbEntity
  8
0
370
        15
  6
Continuous
 62
         7
100
AcDb2dPolyline
 66
         1
 10
0.0
 20
0.0
 30
0.0
 70
       128
  0
VERTEX
  5
45B
100
AcDbEntity
  8
0
100
AcDbVertex
100
AcDb2dVertex
 10
366.3399435204
 20
213.1583912446
 30
0.0
  0
VERTEX
  5
45C
100
AcDbEntity
  8
0
100
AcDbVertex
100
AcDb2dVertex
 10
366.0070662445
 20
212.6714211572
 30
0.0
  0
VERTEX
  5
45D
100
AcDbEntity
  8
0
100
AcDbVertex
100
AcDb2dVertex
 10
365.5708849223
 20
212.2500487361
 30
0.0
  0
VERTEX
  5
45E
100
AcDbEntity
  8
0
100
AcDbVertex
100
AcDb2dVertex
 10
365.0481617575
 20
211.9104670872
 30
0.0
  0
VERTEX
  5
45F
100
AcDbEntity
  8
0
100
AcDbVertex
100
AcDb2dVertex
 10
364.458984708
 20
211.6657261427
 30
0.0
  0
VERTEX
  5
460
100
AcDbEntity
  8
0
100
AcDbVertex
100
AcDb2dVertex
 10
363.8259955176
 20
211.5252311599
 30
0.0
  0
VERTEX
  5
461
100
AcDbEntity
  8
0
100
AcDbVertex
100
AcDb2dVertex
 10
363.1735196057
 20
211.4943812822
 30
0.0
  0
VERTEX
  5
462
100
AcDbEntity
  8
0
100
AcDbVertex
100
AcDb2dVertex
 10
362.5266312558
 20
211.5743620531
 30
0.0
  0
VERTEX
  5
463
100
AcDbEntity
  8
0
100
AcDbVertex
100
AcDb2dVertex
 10
361.9101900245
 20
211.7620998564
 30
0.0
  0
SEQEND
  5
464
100
AcDbEntity
  8
0
  0
LINE
  5
465
100
AcDbEntity
  8
0
370
        15
  6
Continuous
 62
         7
100
AcDbLine
 10
371.7777915434
 20
223.2575488447
 30
0.0
 11
366.3399435204
 21
213.1583912446
 31
0.0
  0
POLYLINE
  5
466
100
AcDbEntity
  8
0
370
        15
  6
Continuous
 62
         7
100
AcDb2dPolyline
 66
         1
 10
0.0
 20
0.0
 30
0.0
 70
       128
  0
VERTEX
  5
467
100
AcDbEntity
  8
0
100
AcDbVertex
100
AcDb2dVertex
 10
368.0974626804
 20
225.0977132762
 30
0.0
  0
VERTEX
  5
468
100
AcDbEntity
  8
0
100
AcDbVertex
100
AcDb2dVertex
 10
368.4500213291
 20
225.4358205313
 30
0.0
  0
VERTEX
  5
469
100
AcDbEntity
  8
0
100
AcDbVertex
100
AcDb2dVertex
 10
368.8874088214
 20
225.6889190353
 30
0.0
  0
VERTEX
  5
46A
100
AcDbEntity
  8
0
100
AcDbVertex
100
AcDb2dVertex
 10
369.3830214127
 20
225.8416142741
 30
0.0
  0
VERTEX
  5
46B
100
AcDbEntity
  8
0
100
AcDbVertex
100
AcDb2dVertex
 10
369.9067138637
 20
225.884618682
 30
0.0
  0
VERTEX
  5
46C
100
AcDbEntity
  8
0
100
AcDbVertex
100
AcDb2dVertex
 10
370.4266329998
 20
225.8153165503
 30
0.0
  0
VERTEX
  5
46D
100
AcDbEntity
  8
0
100
AcDbVertex
100
AcDb2dVertex
 10
370.9111551554
 20
225.6379231257
 30
0.0
  0
VERTEX
  5
46E
100
AcDbEntity
  8
0
100
AcDbVertex
100
AcDb2dVertex
 10
371.3308096578
 20
225.3632282213
 30
0.0
  0
VERTEX
  5
46F
100
AcDbEntity
  8
0
100
AcDbVertex
100
AcDb2dVertex
 10
371.6600713575
 20
225.0079399351
 30
0.0
  0
VERTEX
  5
470
100
AcDbEntity
  8
0
100
AcDbVertex
100
AcDb2dVertex
 10
371.8789131751
 20
224.5936683929
 30
0.0
  0
VERTEX
  5
471
100
AcDbEntity
  8
0
100
AcDbVertex
100
AcDb2dVertex
 10
371.9740242319
 20
224.14561133
 30
0.0
  0
VERTEX
  5
472
100
AcDbEntity
  8
0
100
AcDbVertex
100
AcDb2dVertex
 10
371.9396194741
 20
223.6910214588
 30
0.0
  0
VERTEX
  5
473
100
AcDbEntity
  8
0
100
AcDbVertex
100
AcDb2dVertex
 10
371.7777915434
 20
223.2575488447
 30
0.0
  0
SEQEND
  5
474
100
AcDbEntity
  8
0
  0
LINE
  5
475
100
AcDbEntity
  8
0
370
        15
  6
Continuous
 62
         7
100
AcDbLine
 10
365.2393331708
 20
221.5627431031
 30
0.0
 11
368.0974626804
 21
225.0977132762
 31
0.0
  0
POLYLINE
  5
476
100
AcDbEntity
  8
0
370
        15
  6
Continuous
 62
         7
100
AcDb2dPolyline
 66
         1
 10
0.0
 20
0.0
 30
0.0
 70
       128
  0
VERTEX
  5
477
100
AcDbEntity
  8
0
100
AcDbVertex
100
AcDb2dVertex
 10
365.6887381244
 20
220.1102434601
 30
0.0
  0
VERTEX
  5
478
100
AcDbEntity
  8
0
100
AcDbVertex
100
AcDb2dVertex
 10
365.4777758682
 20
220.2211077365
 30
0.0
  0
VERTEX
  5
479
100
AcDbEntity
  8
0
100
AcDbVertex
100
AcDb2dVertex
 10
365.2995217855
 20
220.3688873171
 30
0.0
  0
VERTEX
  5
47A
100
AcDbEntity
  8
0
100
AcDbVertex
100
AcDb2dVertex
 10
365.1624265434
 20
220.5465762698
 30
0.0
  0
VERTEX
  5
47B
100
AcDbEntity
  8
0
100
AcDbVertex
100
AcDb2dVertex
 10
365.0729895512
 20
220.7457507191
 30
0.0
  0
VERTEX
  5
47C
100
AcDbEntity
  8
0
100
AcDbVertex
100
AcDb2dVertex
 10
365.0354508366
 20
220.9569682057
 30
0.0
  0
VERTEX
  5
47D
100
AcDbEntity
  8
0
100
AcDbVertex
100
AcDb2dVertex
 10
365.0515900343
 20
221.1702153338
 30
0.0
  0
VERTEX
  5
47E
100
AcDbEntity
  8
0
100
AcDbVertex
100
AcDb2dVertex
 10
365.1206420175
 20
221.3753824868
 30
0.0
  0
VERTEX
  5
47F
100
AcDbEntity
  8
0
100
AcDbVertex
100
AcDb2dVertex
 10
365.2393331708
 20
221.5627431031
 30
0.0
  0
SEQEND
  5
480
100
AcDbEntity
  8
0
  0
LINE
  5
481
100
AcDbEntity
  8
0
370
        15
  6
Continuous
 62
         7
100
AcDbLine
 10
366.2772453958
 20
219.8725840511
 30
0.0
 11
365.6887381244
 21
220.1102434601
 31
0.0
  0
POLYLINE
  5
482
100
AcDbEntity
  8
0
370
        15
  6
Continuous
 62
         7
100
AcDb2dPolyline
 66
         1
 10
0.0
 20
0.0
 30
0.0
 70
       128
  0
VERTEX
  5
483
100
AcDbEntity
  8
0
100
AcDbVertex
100
AcDb2dVertex
 10
366.5997050793
 20
219.1053282391
 30
0.0
  0
VERTEX
  5
484
100
AcDbEntity
  8
0
100
AcDbVertex
100
AcDb2dVertex
 10
366.6430612678
 20
219.2120989923
 30
0.0
  0
VERTEX
  5
485
100
AcDbEntity
  8
0
100
AcDbVertex
100
AcDb2dVertex
 10
366.6615320357
 20
219.3241433412
 30
0.0
  0
VERTEX
  5
486
100
AcDbEntity
  8
0
100
AcDbVertex
100
AcDb2dVertex
 10
366.6544075616
 20
219.4371554842
 30
0.0
  0
VERTEX
  5
487
100
AcDbEntity
  8
0
100
AcDbVertex
100
AcDb2dVertex
 10
366.6219616351
 20
219.5467924281
 30
0.0
  0
VERTEX
  5
488
100
AcDbEntity
  8
0
100
AcDbVertex
100
AcDb2dVertex
 10
366.5654411351
 20
219.6488408865
 30
0.0
  0
VERTEX
  5
489
100
AcDbEntity
  8
0
100
AcDbVertex
100
AcDb2dVertex
 10
366.4870181125
 20
219.7393791945
 30
0.0
  0
VERTEX
  5
48A
100
AcDbEntity
  8
0
100
AcDbVertex
100
AcDb2dVertex
 10
366.3897063202
 20
219.8149280156
 30
0.0
  0
VERTEX
  5
48B
100
AcDbEntity
  8
0
100
AcDbVertex
100
AcDb2dVertex
 10
366.2772453958
 20
219.8725840511
 30
0.0
  0
SEQEND
  5
48C
100
AcDbEntity
  8
0
  0
LINE
  5
48D
100
AcDbEntity
  8
0
370
        15
  6
Continuous
 62
         7
100
AcDbLine
 10
364.6274865245
 20
215.4425289254
 30
0.0
 11
366.5997050793
 21
219.1053282391
 31
0.0
  0
POLYLINE
  5
48E
100
AcDbEntity
  8
0
370
        15
  6
Continuous
 62
         7
100
AcDb2dPolyline
 66
         1
 10
0.0
 20
0.0
 30
0.0
 70
       128
  0
VERTEX
  5
48F
100
AcDbEntity
  8
0
100
AcDbVertex
100
AcDb2dVertex
 10
362.8555851261
 20
214.8840123701
 30
0.0
  0
VERTEX
  5
490
100
AcDbEntity
  8
0
100
AcDbVertex
100
AcDb2dVertex
 10
363.1021616187
 20
214.8089172488
 30
0.0
  0
VERTEX
  5
491
100
AcDbEntity
  8
0
100
AcDbVertex
100
AcDb2dVertex
 10
363.3609169586
 20
214.7769249404
 30
0.0
  0
VERTEX
  5
492
100
AcDbEntity
  8
0
100
AcDbVertex
100
AcDb2dVertex
 10
363.6219073234
 20
214.7892648915
 30
0.0
  0
VERTEX
  5
493
100
AcDbEntity
  8
0
100
AcDbVertex
100
AcDb2dVertex
 10
363.8751029996
 20
214.8454628846
 30
0.0
  0
VERTEX
  5
494
100
AcDbEntity
  8
0
100
AcDbVertex
100
AcDb2dVertex
 10
364.1107738193
 20
214.9433592624
 30
0.0
  0
VERTEX
  5
495
100
AcDbEntity
  8
0
100
AcDbVertex
100
AcDb2dVertex
 10
364.3198630853
 20
215.079191922
 30
0.0
  0
VERTEX
  5
496
100
AcDbEntity
  8
0
100
AcDbVertex
100
AcDb2dVertex
 10
364.4943356142
 20
215.2477408904
 30
0.0
  0
VERTEX
  5
497
100
AcDbEntity
  8
0
100
AcDbVertex
100
AcDb2dVertex
 10
364.6274865245
 20
215.4425289254
 30
0.0
  0
SEQEND
  5
498
100
AcDbEntity
  8
0
  0
LINE
  5
499
100
AcDbEntity
  8
0
370
        15
  6
Continuous
 62
         7
100
AcDbLine
 10
361.2565510085
 20
215.5297571584
 30
0.0
 11
362.8555851261
 21
214.8840123701
 31
0.0
  0
POLYLINE
  5
49A
100
AcDbEntity
  8
0
370
        15
  6
Continuous
 62
         7
100
AcDb2dPolyline
 66
         1
 10
0.0
 20
0.0
 30
0.0
 70
       128
  0
VERTEX
  5
49B
100
AcDbEntity
  8
0
100
AcDbVertex
100
AcDb2dVertex
 10
361.2565510085
 20
215.5297571584
 30
0.0
  0
VERTEX
  5
49C
100
AcDbEntity
  8
0
100
AcDbVertex
100
AcDb2dVertex
 10
360.9887294098
 20
215.6604917358
 30
0.0
  0
VERTEX
  5
49D
100
AcDbEntity
  8
0
100
AcDbVertex
100
AcDb2dVertex
 10
360.7472085717
 20
215.8252297092
 30
0.0
  0
VERTEX
  5
49E
100
AcDbEntity
  8
0
100
AcDbVertex
100
AcDb2dVertex
 10
360.5376954574
 20
216.0200784391
 30
0.0
  0
VERTEX
  5
49F
100
AcDbEntity
  8
0
100
AcDbVertex
100
AcDb2dVertex
 10
360.3651407109
 20
216.2404337905
 30
0.0
  0
VERTEX
  5
4A0
100
AcDbEntity
  8
0
100
AcDbVertex
100
AcDb2dVertex
 10
360.2336216761
 20
216.4810889253
 30
0.0
  0
VERTEX
  5
4A1
100
AcDbEntity
  8
0
100
AcDbVertex
100
AcDb2dVertex
 10
360.1462460532
 20
216.7363573364
 30
0.0
  0
VERTEX
  5
4A2
100
AcDbEntity
  8
0
100
AcDbVertex
100
AcDb2dVertex
 10
360.105078465
 20
217.0002072152
 30
0.0
  0
VERTEX
  5
4A3
100
AcDbEntity
  8
0
100
AcDbVertex
100
AcDb2dVertex
 10
360.111091672
 20
217.2664039795
 30
0.0
  0
SEQEND
  5
4A4
100
AcDbEntity
  8
0
  0
POLYLINE
  5
4A5
100
AcDbEntity
  8
0
370
        15
  6
Continuous
 62
         7
100
AcDb2dPolyline
 66
         1
 10
0.0
 20
0.0
 30
0.0
 70
       128
  0
VERTEX
  5
4A6
100
AcDbEntity
  8
0
100
AcDbVertex
100
AcDb2dVertex
 10
360.111091672
 20
217.2664039795
 30
0.0
  0
VERTEX
  5
4A7
100
AcDbEntity
  8
0
100
AcDbVertex
100
AcDb2dVertex
 10
360.0980285918
 20
217.6915942833
 30
0.0
  0
VERTEX
  5
4A8
100
AcDbEntity
  8
0
100
AcDbVertex
100
AcDb2dVertex
 10
359.9657045134
 20
218.1012069433
 30
0.0
  0
VERTEX
  5
4A9
100
AcDbEntity
  8
0
100
AcDbVertex
100
AcDb2dVertex
 10
359.7220992307
 20
218.4705402983
 30
0.0
  0
VERTEX
  5
4AA
100
AcDbEntity
  8
0
100
AcDbVertex
100
AcDb2dVertex
 10
359.3819033421
 20
218.7773217279
 30
0.0
  0
VERTEX
  5
4AB
100
AcDbEntity
  8
0
100
AcDbVertex
100
AcDb2dVertex
 10
358.9656323355
 20
219.0030508006
 30
0.0
  0
VERTEX
  5
4AC
100
AcDbEntity
  8
0
100
AcDbVertex
100
AcDb2dVertex
 10
358.498389403
 20
219.1341149415
 30
0.0
  0
VERTEX
  5
4AD
100
AcDbEntity
  8
0
100
AcDbVertex
100
AcDb2dVertex
 10
358.0083515951
 20
219.1626103373
 30
0.0
  0
VERTEX
  5
4AE
100
AcDbEntity
  8
0
100
AcDbVertex
100
AcDb2dVertex
 10
357.5250706054
 20
219.0868185752
 30
0.0
  0
VERTEX
  5
4AF
100
AcDbEntity
  8
0
100
AcDbVertex
100
AcDb2dVertex
 10
357.0776906581
 20
218.9113102719
 30
0.0
  0
VERTEX
  5
4B0
100
AcDbEntity
  8
0
100
AcDbVertex
100
AcDb2dVertex
 10
356.6931909677
 20
218.6466694425
 30
0.0
  0
SEQEND
  5
4B1
100
AcDbEntity
  8
0
  0
POLYLINE
  5
4B2
100
AcDbEntity
  8
0
370
        15
  6
Continuous
 62
         7
100
AcDb2dPolyline
 66
         1
 10
0.0
 20
0.0
 30
0.0
 70
       128
  0
VERTEX
  5
4B3
100
AcDbEntity
  8
0
100
AcDbVertex
100
AcDb2dVertex
 10
356.6931909677
 20
218.6466694425
 30
0.0
  0
VERTEX
  5
4B4
100
AcDbEntity
  8
0
100
AcDbVertex
100
AcDb2dVertex
 10
356.3086912774
 20
218.3820286131
 30
0.0
  0
VERTEX
  5
4B5
100
AcDbEntity
  8
0
100
AcDbVertex
100
AcDb2dVertex
 10
355.8613113301
 20
218.2065203098
 30
0.0
  0
VERTEX
  5
4B6
100
AcDbEntity
  8
0
100
AcDbVertex
100
AcDb2dVertex
 10
355.3780303403
 20
218.1307285477
 30
0.0
  0
VERTEX
  5
4B7
100
AcDbEntity
  8
0
100
AcDbVertex
100
AcDb2dVertex
 10
354.8879925324
 20
218.1592239435
 30
0.0
  0
VERTEX
  5
4B8
100
AcDbEntity
  8
0
100
AcDbVertex
100
AcDb2dVertex
 10
354.4207495999
 20
218.2902880844
 30
0.0
  0
VERTEX
  5
4B9
100
AcDbEntity
  8
0
100
AcDbVertex
100
AcDb2dVertex
 10
354.0044785933
 20
218.5160171571
 30
0.0
  0
VERTEX
  5
4BA
100
AcDbEntity
  8
0
100
AcDbVertex
100
AcDb2dVertex
 10
353.6642827047
 20
218.8227985867
 30
0.0
  0
VERTEX
  5
4BB
100
AcDbEntity
  8
0
100
AcDbVertex
100
AcDb2dVertex
 10
353.420677422
 20
219.1921319418
 30
0.0
  0
VERTEX
  5
4BC
100
AcDbEntity
  8
0
100
AcDbVertex
100
AcDb2dVertex
 10
353.2883533437
 20
219.6017446017
 30
0.0
  0
VERTEX
  5
4BD
100
AcDbEntity
  8
0
100
AcDbVertex
100
AcDb2dVertex
 10
353.2752902634
 20
220.0269349055
 30
0.0
  0
SEQEND
  5
4BE
100
AcDbEntity
  8
0
  0
POLYLINE
  5
4BF
100
AcDbEntity
  8
0
370
        15
  6
Continuous
 62
         7
100
AcDb2dPolyline
 66
         1
 10
0.0
 20
0.0
 30
0.0
 70
       128
  0
VERTEX
  5
4C0
100
AcDbEntity
  8
0
100
AcDbVertex
100
AcDb2dVertex
 10
353.2752902634
 20
220.0269349055
 30
0.0
  0
VERTEX
  5
4C1
100
AcDbEntity
  8
0
100
AcDbVertex
100
AcDb2dVertex
 10
353.2622271832
 20
220.4521252093
 30
0.0
  0
VERTEX
  5
4C2
100
AcDbEntity
  8
0
100
AcDbVertex
100
AcDb2dVertex
 10
353.1299031048
 20
220.8617378693
 30
0.0
  0
VERTEX
  5
4C3
100
AcDbEntity
  8
0
100
AcDbVertex
100
AcDb2dVertex
 10
352.8862978221
 20
221.2310712243
 30
0.0
  0
VERTEX
  5
4C4
100
AcDbEntity
  8
0
100
AcDbVertex
100
AcDb2dVertex
 10
352.5461019335
 20
221.5378526539
 30
0.0
  0
VERTEX
  5
4C5
100
AcDbEntity
  8
0
100
AcDbVertex
100
AcDb2dVertex
 10
352.1298309269
 20
221.7635817266
 30
0.0
  0
VERTEX
  5
4C6
100
AcDbEntity
  8
0
100
AcDbVertex
100
AcDb2dVertex
 10
351.6625879945
 20
221.8946458675
 30
0.0
  0
VERTEX
  5
4C7
100
AcDbEntity
  8
0
100
AcDbVertex
100
AcDb2dVertex
 10
351.1725501865
 20
221.9231412633
 30
0.0
  0
VERTEX
  5
4C8
100
AcDbEntity
  8
0
100
AcDbVertex
100
AcDb2dVertex
 10
350.6892691968
 20
221.8473495012
 30
0.0
  0
VERTEX
  5
4C9
100
AcDbEntity
  8
0
100
AcDbVertex
100
AcDb2dVertex
 10
350.2418892495
 20
221.6718411979
 30
0.0
  0
VERTEX
  5
4CA
100
AcDbEntity
  8
0
100
AcDbVertex
100
AcDb2dVertex
 10
349.8573895591
 20
221.4072003685
 30
0.0
  0
SEQEND
  5
4CB
100
AcDbEntity
  8
0
  0
POLYLINE
  5
4CC
100
AcDbEntity
  8
0
370
        15
  6
Continuous
 62
         7
100
AcDb2dPolyline
 66
         1
 10
0.0
 20
0.0
 30
0.0
 70
       128
  0
VERTEX
  5
4CD
100
AcDbEntity
  8
0
100
AcDbVertex
100
AcDb2dVertex
 10
349.8573895591
 20
221.4072003685
 30
0.0
  0
VERTEX
  5
4CE
100
AcDbEntity
  8
0
100
AcDbVertex
100
AcDb2dVertex
 10
349.4728898688
 20
221.1425595391
 30
0.0
  0
VERTEX
  5
4CF
100
AcDbEntity
  8
0
100
AcDbVertex
100
AcDb2dVertex
 10
349.0255099215
 20
220.9670512358
 30
0.0
  0
VERTEX
  5
4D0
100
AcDbEntity
  8
0
100
AcDbVertex
100
AcDb2dVertex
 10
348.5422289317
 20
220.8912594737
 30
0.0
  0
VERTEX
  5
4D1
100
AcDbEntity
  8
0
100
AcDbVertex
100
AcDb2dVertex
 10
348.0521911238
 20
220.9197548695
 30
0.0
  0
VERTEX
  5
4D2
100
AcDbEntity
  8
0
100
AcDbVertex
100
AcDb2dVertex
 10
347.5849481913
 20
221.0508190104
 30
0.0
  0
VERTEX
  5
4D3
100
AcDbEntity
  8
0
100
AcDbVertex
100
AcDb2dVertex
 10
347.1686771847
 20
221.2765480831
 30
0.0
  0
VERTEX
  5
4D4
100
AcDbEntity
  8
0
100
AcDbVertex
100
AcDb2dVertex
 10
346.8284812961
 20
221.5833295127
 30
0.0
  0
VERTEX
  5
4D5
100
AcDbEntity
  8
0
100
AcDbVertex
100
AcDb2dVertex
 10
346.5848760134
 20
221.9526628677
 30
0.0
  0
VERTEX
  5
4D6
100
AcDbEntity
  8
0
100
AcDbVertex
100
AcDb2dVertex
 10
346.4525519351
 20
222.3622755277
 30
0.0
  0
VERTEX
  5
4D7
100
AcDbEntity
  8
0
100
AcDbVertex
100
AcDb2dVertex
 10
346.4394888548
 20
222.7874658315
 30
0.0
  0
SEQEND
  5
4D8
100
AcDbEntity
  8
0
  0
POLYLINE
  5
4D9
100
AcDbEntity
  8
0
370
        15
  6
Continuous
 62
         7
100
AcDb2dPolyline
 66
         1
 10
0.0
 20
0.0
 30
0.0
 70
       128
  0
VERTEX
  5
4DA
100
AcDbEntity
  8
0
100
AcDbVertex
100
AcDb2dVertex
 10
346.4394888548
 20
222.7874658315
 30
0.0
  0
VERTEX
  5
4DB
100
AcDbEntity
  8
0
100
AcDbVertex
100
AcDb2dVertex
 10
346.4264257746
 20
223.2126561353
 30
0.0
  0
VERTEX
  5
4DC
100
AcDbEntity
  8
0
100
AcDbVertex
100
AcDb2dVertex
 10
346.2941016962
 20
223.6222687953
 30
0.0
  0
VERTEX
  5
4DD
100
AcDbEntity
  8
0
100
AcDbVertex
100
AcDb2dVertex
 10
346.0504964135
 20
223.9916021503
 30
0.0
  0
VERTEX
  5
4DE
100
AcDbEntity
  8
0
100
AcDbVertex
100
AcDb2dVertex
 10
345.7103005249
 20
224.2983835799
 30
0.0
  0
VERTEX
  5
4DF
100
AcDbEntity
  8
0
100
AcDbVertex
100
AcDb2dVertex
 10
345.2940295183
 20
224.5241126526
 30
0.0
  0
VERTEX
  5
4E0
100
AcDbEntity
  8
0
100
AcDbVertex
100
AcDb2dVertex
 10
344.8267865859
 20
224.6551767935
 30
0.0
  0
VERTEX
  5
4E1
100
AcDbEntity
  8
0
100
AcDbVertex
100
AcDb2dVertex
 10
344.3367487779
 20
224.6836721893
 30
0.0
  0
VERTEX
  5
4E2
100
AcDbEntity
  8
0
100
AcDbVertex
100
AcDb2dVertex
 10
343.8534677882
 20
224.6078804272
 30
0.0
  0
VERTEX
  5
4E3
100
AcDbEntity
  8
0
100
AcDbVertex
100
AcDb2dVertex
 10
343.4060878409
 20
224.4323721239
 30
0.0
  0
VERTEX
  5
4E4
100
AcDbEntity
  8
0
100
AcDbVertex
100
AcDb2dVertex
 10
343.0215881505
 20
224.1677312945
 30
0.0
  0
SEQEND
  5
4E5
100
AcDbEntity
  8
0
  0
POLYLINE
  5
4E6
100
AcDbEntity
  8
0
370
        15
  6
Continuous
 62
         7
100
AcDb2dPolyline
 66
         1
 10
0.0
 20
0.0
 30
0.0
 70
       128
  0
VERTEX
  5
4E7
100
AcDbEntity
  8
0
100
AcDbVertex
100
AcDb2dVertex
 10
343.0215881505
 20
224.1677312945
 30
0.0
  0
VERTEX
  5
4E8
100
AcDbEntity
  8
0
100
AcDbVertex
100
AcDb2dVertex
 10
342.6370884602
 20
223.9030904651
 30
0.0
  0
VERTEX
  5
4E9
100
AcDbEntity
  8
0
100
AcDbVertex
100
AcDb2dVertex
 10
342.1897085129
 20
223.7275821618
 30
0.0
  0
VERTEX
  5
4EA
100
AcDbEntity
  8
0
100
AcDbVertex
100
AcDb2dVertex
 10
341.7064275231
 20
223.6517903997
 30
0.0
  0
VERTEX
  5
4EB
100
AcDbEntity
  8
0
100
AcDbVertex
100
AcDb2dVertex
 10
341.2163897152
 20
223.6802857955
 30
0.0
  0
VERTEX
  5
4EC
100
AcDbEntity
  8
0
100
AcDbVertex
100
AcDb2dVertex
 10
340.7491467827
 20
223.8113499364
 30
0.0
  0
VERTEX
  5
4ED
100
AcDbEntity
  8
0
100
AcDbVertex
100
AcDb2dVertex
 10
340.3328757761
 20
224.0370790091
 30
0.0
  0
VERTEX
  5
4EE
100
AcDbEntity
  8
0
100
AcDbVertex
100
AcDb2dVertex
 10
339.9926798875
 20
224.3438604387
 30
0.0
  0
VERTEX
  5
4EF
100
AcDbEntity
  8
0
100
AcDbVertex
100
AcDb2dVertex
 10
339.7490746048
 20
224.7131937937
 30
0.0
  0
VERTEX
  5
4F0
100
AcDbEntity
  8
0
100
AcDbVertex
100
AcDb2dVertex
 10
339.6167505265
 20
225.1228064537
 30
0.0
  0
VERTEX
  5
4F1
100
AcDbEntity
  8
0
100
AcDbVertex
100
AcDb2dVertex
 10
339.6036874462
 20
225.5479967575
 30
0.0
  0
SEQEND
  5
4F2
100
AcDbEntity
  8
0
  0
POLYLINE
  5
4F3
100
AcDbEntity
  8
0
370
        15
  6
Continuous
 62
         7
100
AcDb2dPolyline
 66
         1
 10
0.0
 20
0.0
 30
0.0
 70
       128
  0
VERTEX
  5
4F4
100
AcDbEntity
  8
0
100
AcDbVertex
100
AcDb2dVertex
 10
339.6036874462
 20
225.5479967575
 30
0.0
  0
VERTEX
  5
4F5
100
AcDbEntity
  8
0
100
AcDbVertex
100
AcDb2dVertex
 10
339.590624366
 20
225.9731870613
 30
0.0
  0
VERTEX
  5
4F6
100
AcDbEntity
  8
0
100
AcDbVertex
100
AcDb2dVertex
 10
339.4583002876
 20
226.3827997212
 30
0.0
  0
VERTEX
  5
4F7
100
AcDbEntity
  8
0
100
AcDbVertex
100
AcDb2dVertex
 10
339.2146950049
 20
226.7521330763
 30
0.0
  0
VERTEX
  5
4F8
100
AcDbEntity
  8
0
100
AcDbVertex
100
AcDb2dVertex
 10
338.8744991163
 20
227.0589145059
 30
0.0
  0
VERTEX
  5
4F9
100
AcDbEntity
  8
0
100
AcDbVertex
100
AcDb2dVertex
 10
338.4582281097
 20
227.2846435786
 30
0.0
  0
VERTEX
  5
4FA
100
AcDbEntity
  8
0
100
AcDbVertex
100
AcDb2dVertex
 10
337.9909851773
 20
227.4157077195
 30
0.0
  0
VERTEX
  5
4FB
100
AcDbEntity
  8
0
100
AcDbVertex
100
AcDb2dVertex
 10
337.5009473693
 20
227.4442031153
 30
0.0
  0
VERTEX
  5
4FC
100
AcDbEntity
  8
0
100
AcDbVertex
100
AcDb2dVertex
 10
337.0176663796
 20
227.3684113532
 30
0.0
  0
VERTEX
  5
4FD
100
AcDbEntity
  8
0
100
AcDbVertex
100
AcDb2dVertex
 10
336.5702864323
 20
227.1929030499
 30
0.0
  0
VERTEX
  5
4FE
100
AcDbEntity
  8
0
100
AcDbVertex
100
AcDb2dVertex
 10
336.1857867419
 20
226.9282622205
 30
0.0
  0
SEQEND
  5
4FF
100
AcDbEntity
  8
0
  0
POLYLINE
  5
500
100
AcDbEntity
  8
0
370
        15
  6
Continuous
 62
         7
100
AcDb2dPolyline
 66
         1
 10
0.0
 20
0.0
 30
0.0
 70
       128
  0
VERTEX
  5
501
100
AcDbEntity
  8
0
100
AcDbVertex
100
AcDb2dVertex
 10
336.1857867419
 20
226.9282622205
 30
0.0
  0
VERTEX
  5
502
100
AcDbEntity
  8
0
100
AcDbVertex
100
AcDb2dVertex
 10
335.8012870516
 20
226.6636213911
 30
0.0
  0
VERTEX
  5
503
100
AcDbEntity
  8
0
100
AcDbVertex
100
AcDb2dVertex
 10
335.3539071043
 20
226.4881130878
 30
0.0
  0
VERTEX
  5
504
100
AcDbEntity
  8
0
100
AcDbVertex
100
AcDb2dVertex
 10
334.8706261145
 20
226.4123213257
 30
0.0
  0
VERTEX
  5
505
100
AcDbEntity
  8
0
100
AcDbVertex
100
AcDb2dVertex
 10
334.3805883066
 20
226.4408167215
 30
0.0
  0
VERTEX
  5
506
100
AcDbEntity
  8
0
100
AcDbVertex
100
AcDb2dVertex
 10
333.9133453741
 20
226.5718808624
 30
0.0
  0
VERTEX
  5
507
100
AcDbEntity
  8
0
100
AcDbVertex
100
AcDb2dVertex
 10
333.4970743675
 20
226.7976099351
 30
0.0
  0
VERTEX
  5
508
100
AcDbEntity
  8
0
100
AcDbVertex
100
AcDb2dVertex
 10
333.1568784789
 20
227.1043913647
 30
0.0
  0
VERTEX
  5
509
100
AcDbEntity
  8
0
100
AcDbVertex
100
AcDb2dVertex
 10
332.9132731962
 20
227.4737247197
 30
0.0
  0
VERTEX
  5
50A
100
AcDbEntity
  8
0
100
AcDbVertex
100
AcDb2dVertex
 10
332.7809491179
 20
227.8833373797
 30
0.0
  0
VERTEX
  5
50B
100
AcDbEntity
  8
0
100
AcDbVertex
100
AcDb2dVertex
 10
332.7678860376
 20
228.3085276835
 30
0.0
  0
SEQEND
  5
50C
100
AcDbEntity
  8
0
  0
POLYLINE
  5
50D
100
AcDbEntity
  8
0
370
        15
  6
Continuous
 62
         7
100
AcDb2dPolyline
 66
         1
 10
0.0
 20
0.0
 30
0.0
 70
       128
  0
VERTEX
  5
50E
100
AcDbEntity
  8
0
100
AcDbVertex
100
AcDb2dVertex
 10
332.7678860376
 20
228.3085276835
 30
0.0
  0
VERTEX
  5
50F
100
AcDbEntity
  8
0
100
AcDbVertex
100
AcDb2dVertex
 10
332.7548229574
 20
228.7337179873
 30
0.0
  0
VERTEX
  5
510
100
AcDbEntity
  8
0
100
AcDbVertex
100
AcDb2dVertex
 10
332.622498879
 20
229.1433306472
 30
0.0
  0
VERTEX
  5
511
100
AcDbEntity
  8
0
100
AcDbVertex
100
AcDb2dVertex
 10
332.3788935963
 20
229.5126640023
 30
0.0
  0
VERTEX
  5
512
100
AcDbEntity
  8
0
100
AcDbVertex
100
AcDb2dVertex
 10
332.0386977077
 20
229.8194454319
 30
0.0
  0
VERTEX
  5
513
100
AcDbEntity
  8
0
100
AcDbVertex
100
AcDb2dVertex
 10
331.6224267011
 20
230.0451745046
 30
0.0
  0
VERTEX
  5
514
100
AcDbEntity
  8
0
100
AcDbVertex
100
AcDb2dVertex
 10
331.1551837687
 20
230.1762386455
 30
0.0
  0
VERTEX
  5
515
100
AcDbEntity
  8
0
100
AcDbVertex
100
AcDb2dVertex
 10
330.6651459607
 20
230.2047340413
 30
0.0
  0
VERTEX
  5
516
100
AcDbEntity
  8
0
100
AcDbVertex
100
AcDb2dVertex
 10
330.181864971
 20
230.1289422792
 30
0.0
  0
VERTEX
  5
517
100
AcDbEntity
  8
0
100
AcDbVertex
100
AcDb2dVertex
 10
329.7344850237
 20
229.9534339759
 30
0.0
  0
VERTEX
  5
518
100
AcDbEntity
  8
0
100
AcDbVertex
100
AcDb2dVertex
 10
329.3499853333
 20
229.6887931465
 30
0.0
  0
SEQEND
  5
519
100
AcDbEntity
  8
0
  0
POLYLINE
  5
51A
100
AcDbEntity
  8
0
370
        15
  6
Continuous
 62
         7
100
AcDb2dPolyline
 66
         1
 10
0.0
 20
0.0
 30
0.0
 70
       128
  0
VERTEX
  5
51B
100
AcDbEntity
  8
0
100
AcDbVertex
100
AcDb2dVertex
 10
329.3499853333
 20
229.6887931465
 30
0.0
  0
VERTEX
  5
51C
100
AcDbEntity
  8
0
100
AcDbVertex
100
AcDb2dVertex
 10
328.965485643
 20
229.4241523171
 30
0.0
  0
VERTEX
  5
51D
100
AcDbEntity
  8
0
100
AcDbVertex
100
AcDb2dVertex
 10
328.5181056957
 20
229.2486440137
 30
0.0
  0
VERTEX
  5
51E
100
AcDbEntity
  8
0
100
AcDbVertex
100
AcDb2dVertex
 10
328.0348247059
 20
229.1728522517
 30
0.0
  0
VERTEX
  5
51F
100
AcDbEntity
  8
0
100
AcDbVertex
100
AcDb2dVertex
 10
327.544786898
 20
229.2013476474
 30
0.0
  0
VERTEX
  5
520
100
AcDbEntity
  8
0
100
AcDbVertex
100
AcDb2dVertex
 10
327.0775439655
 20
229.3324117883
 30
0.0
  0
VERTEX
  5
521
100
AcDbEntity
  8
0
100
AcDbVertex
100
AcDb2dVertex
 10
326.6612729589
 20
229.5581408611
 30
0.0
  0
VERTEX
  5
522
100
AcDbEntity
  8
0
100
AcDbVertex
100
AcDb2dVertex
 10
326.3210770703
 20
229.8649222907
 30
0.0
  0
VERTEX
  5
523
100
AcDbEntity
  8
0
100
AcDbVertex
100
AcDb2dVertex
 10
326.0774717876
 20
230.2342556457
 30
0.0
  0
VERTEX
  5
524
100
AcDbEntity
  8
0
100
AcDbVertex
100
AcDb2dVertex
 10
325.9451477093
 20
230.6438683057
 30
0.0
  0
VERTEX
  5
525
100
AcDbEntity
  8
0
100
AcDbVertex
100
AcDb2dVertex
 10
325.932084629
 20
231.0690586095
 30
0.0
  0
SEQEND
  5
526
100
AcDbEntity
  8
0
  0
POLYLINE
  5
527
100
AcDbEntity
  8
0
370
        15
  6
Continuous
 62
         7
100
AcDb2dPolyline
 66
         1
 10
0.0
 20
0.0
 30
0.0
 70
       128
  0
VERTEX
  5
528
100
AcDbEntity
  8
0
100
AcDbVertex
100
AcDb2dVertex
 10
325.932084629
 20
231.0690586095
 30
0.0
  0
VERTEX
  5
529
100
AcDbEntity
  8
0
100
AcDbVertex
100
AcDb2dVertex
 10
325.9190215488
 20
231.4942489133
 30
0.0
  0
VERTEX
  5
52A
100
AcDbEntity
  8
0
100
AcDbVertex
100
AcDb2dVertex
 10
325.7866974704
 20
231.9038615732
 30
0.0
  0
VERTEX
  5
52B
100
AcDbEntity
  8
0
100
AcDbVertex
100
AcDb2dVertex
 10
325.5430921877
 20
232.2731949283
 30
0.0
  0
VERTEX
  5
52C
100
AcDbEntity
  8
0
100
AcDbVertex
100
AcDb2dVertex
 10
325.2028962992
 20
232.5799763579
 30
0.0
  0
VERTEX
  5
52D
100
AcDbEntity
  8
0
100
AcDbVertex
100
AcDb2dVertex
 10
324.7866252925
 20
232.8057054306
 30
0.0
  0
VERTEX
  5
52E
100
AcDbEntity
  8
0
100
AcDbVertex
100
AcDb2dVertex
 10
324.3193823601
 20
232.9367695715
 30
0.0
  0
VERTEX
  5
52F
100
AcDbEntity
  8
0
100
AcDbVertex
100
AcDb2dVertex
 10
323.8293445521
 20
232.9652649673
 30
0.0
  0
VERTEX
  5
530
100
AcDbEntity
  8
0
100
AcDbVertex
100
AcDb2dVertex
 10
323.3460635624
 20
232.8894732052
 30
0.0
  0
VERTEX
  5
531
100
AcDbEntity
  8
0
100
AcDbVertex
100
AcDb2dVertex
 10
322.8986836151
 20
232.7139649019
 30
0.0
  0
VERTEX
  5
532
100
AcDbEntity
  8
0
100
AcDbVertex
100
AcDb2dVertex
 10
322.5141839247
 20
232.4493240725
 30
0.0
  0
SEQEND
  5
533
100
AcDbEntity
  8
0
  0
POLYLINE
  5
534
100
AcDbEntity
  8
0
370
        15
  6
Continuous
 62
         7
100
AcDb2dPolyline
 66
         1
 10
0.0
 20
0.0
 30
0.0
 70
       128
  0
VERTEX
  5
535
100
AcDbEntity
  8
0
100
AcDbVertex
100
AcDb2dVertex
 10
322.5141839247
 20
232.4493240725
 30
0.0
  0
VERTEX
  5
536
100
AcDbEntity
  8
0
100
AcDbVertex
100
AcDb2dVertex
 10
322.1240710654
 20
232.1817242604
 30
0.0
  0
VERTEX
  5
537
100
AcDbEntity
  8
0
100
AcDbVertex
100
AcDb2dVertex
 10
321.6697446883
 20
232.0058227284
 30
0.0
  0
VERTEX
  5
538
100
AcDbEntity
  8
0
100
AcDbVertex
100
AcDb2dVertex
 10
321.1793352729
 20
231.9325107537
 30
0.0
  0
VERTEX
  5
539
100
AcDbEntity
  8
0
100
AcDbVertex
100
AcDb2dVertex
 10
320.6832074486
 20
231.9663275862
 30
0.0
  0
VERTEX
  5
53A
100
AcDbEntity
  8
0
100
AcDbVertex
100
AcDb2dVertex
 10
320.212079911
 20
232.1051793925
 30
0.0
  0
VERTEX
  5
53B
100
AcDbEntity
  8
0
100
AcDbVertex
100
AcDb2dVertex
 10
319.7951234153
 20
232.3404688997
 30
0.0
  0
VERTEX
  5
53C
100
AcDbEntity
  8
0
100
AcDbVertex
100
AcDb2dVertex
 10
319.458154614
 20
232.6576277116
 30
0.0
  0
VERTEX
  5
53D
100
AcDbEntity
  8
0
100
AcDbVertex
100
AcDb2dVertex
 10
319.2220375699
 20
233.0370183384
 30
0.0
  0
VERTEX
  5
53E
100
AcDbEntity
  8
0
100
AcDbVertex
100
AcDb2dVertex
 10
319.1013919175
 20
233.4551500899
 30
0.0
  0
VERTEX
  5
53F
100
AcDbEntity
  8
0
100
AcDbVertex
100
AcDb2dVertex
 10
319.1036876615
 20
233.8861335454
 30
0.0
  0
VERTEX
  5
540
100
AcDbEntity
  8
0
100
AcDbVertex
100
AcDb2dVertex
 10
319.2287826565
 20
234.3032835464
 30
0.0
  0
SEQEND
  5
541
100
AcDbEntity
  8
0
  0
POLYLINE
  5
542
100
AcDbEntity
  8
0
370
        15
  6
Continuous
 62
         7
100
AcDb2dPolyline
 66
         1
 10
0.0
 20
0.0
 30
0.0
 70
       128
  0
VERTEX
  5
543
100
AcDbEntity
  8
0
100
AcDbVertex
100
AcDb2dVertex
 10
319.2287826565
 20
234.3032835464
 30
0.0
  0
VERTEX
  5
544
100
AcDbEntity
  8
0
100
AcDbVertex
100
AcDb2dVertex
 10
319.3169712304
 20
234.5025557951
 30
0.0
  0
VERTEX
  5
545
100
AcDbEntity
  8
0
100
AcDbVertex
100
AcDb2dVertex
 10
319.3992248488
 20
234.7037226518
 30
0.0
  0
VERTEX
  5
546
100
AcDbEntity
  8
0
100
AcDbVertex
100
AcDb2dVertex
 10
319.4754893158
 20
234.9066515701
 30
0.0
  0
VERTEX
  5
547
100
AcDbEntity
  8
0
100
AcDbVertex
100
AcDb2dVertex
 10
319.5457143816
 20
235.1112088424
 30
0.0
  0
VERTEX
  5
548
100
AcDbEntity
  8
0
100
AcDbVertex
100
AcDb2dVertex
 10
319.6098537757
 20
235.3172596884
 30
0.0
  0
VERTEX
  5
549
100
AcDbEntity
  8
0
100
AcDbVertex
100
AcDb2dVertex
 10
319.6678652374
 20
235.5246683436
 30
0.0
  0
VERTEX
  5
54A
100
AcDbEntity
  8
0
100
AcDbVertex
100
AcDb2dVertex
 10
319.7197105437
 20
235.7332981491
 30
0.0
  0
VERTEX
  5
54B
100
AcDbEntity
  8
0
100
AcDbVertex
100
AcDb2dVertex
 10
319.7653555343
 20
235.9430116409
 30
0.0
  0
SEQEND
  5
54C
100
AcDbEntity
  8
0
  0
POLYLINE
  5
54D
100
AcDbEntity
  8
0
370
        15
  6
Continuous
 62
         7
100
AcDb2dPolyline
 66
         1
 10
0.0
 20
0.0
 30
0.0
 70
       128
  0
VERTEX
  5
54E
100
AcDbEntity
  8
0
100
AcDbVertex
100
AcDb2dVertex
 10
319.7653555343
 20
235.9430116409
 30
0.0
  0
VERTEX
  5
54F
100
AcDbEntity
  8
0
100
AcDbVertex
100
AcDb2dVertex
 10
319.771168182
 20
236.2500498119
 30
0.0
  0
VERTEX
  5
550
100
AcDbEntity
  8
0
100
AcDbVertex
100
AcDb2dVertex
 10
319.6671383367
 20
236.543616026
 30
0.0
  0
VERTEX
  5
551
100
AcDbEntity
  8
0
100
AcDbVertex
100
AcDb2dVertex
 10
319.4634491644
 20
236.7949739768
 30
0.0
  0
VERTEX
  5
552
100
AcDbEntity
  8
0
100
AcDbVertex
100
AcDb2dVertex
 10
319.1800391805
 20
236.9795189967
 30
0.0
  0
VERTEX
  5
553
100
AcDbEntity
  8
0
100
AcDbVertex
100
AcDb2dVertex
 10
318.8446505288
 20
237.0791865334
 30
0.0
  0
VERTEX
  5
554
100
AcDbEntity
  8
0
100
AcDbVertex
100
AcDb2dVertex
 10
318.4901133875
 20
237.084220434
 30
0.0
  0
VERTEX
  5
555
100
AcDbEntity
  8
0
100
AcDbVertex
100
AcDb2dVertex
 10
318.151132322
 20
236.9941279451
 30
0.0
  0
VERTEX
  5
556
100
AcDbEntity
  8
0
100
AcDbVertex
100
AcDb2dVertex
 10
317.8608891609
 20
236.8177279474
 30
0.0
  0
VERTEX
  5
557
100
AcDbEntity
  8
0
100
AcDbVertex
100
AcDb2dVertex
 10
317.6477949271
 20
236.5722877017
 30
0.0
  0
VERTEX
  5
558
100
AcDbEntity
  8
0
100
AcDbVertex
100
AcDb2dVertex
 10
317.5327087688
 20
236.2818326092
 30
0.0
  0
SEQEND
  5
559
100
AcDbEntity
  8
0
  0
POLYLINE
  5
55A
100
AcDbEntity
  8
0
370
        15
  6
Continuous
 62
         7
100
AcDb2dPolyline
 66
         1
 10
0.0
 20
0.0
 30
0.0
 70
       128
  0
VERTEX
  5
55B
100
AcDbEntity
  8
0
100
AcDbVertex
100
AcDb2dVertex
 10
316.0876716663
 20
241.2885629282
 30
0.0
  0
VERTEX
  5
55C
100
AcDbEntity
  8
0
100
AcDbVertex
100
AcDb2dVertex
 10
315.4859528867
 20
241.8764753524
 30
0.0
  0
VERTEX
  5
55D
100
AcDbEntity
  8
0
100
AcDbVertex
100
AcDb2dVertex
 10
314.8050218888
 20
242.3955513275
 30
0.0
  0
VERTEX
  5
55E
100
AcDbEntity
  8
0
100
AcDbVertex
100
AcDb2dVertex
 10
314.0552984387
 20
242.8378478311
 30
0.0
  0
VERTEX
  5
55F
100
AcDbEntity
  8
0
100
AcDbVertex
100
AcDb2dVertex
 10
313.2482549806
 20
243.1965967382
 30
0.0
  0
VERTEX
  5
560
100
AcDbEntity
  8
0
100
AcDbVertex
100
AcDb2dVertex
 10
312.396241083
 20
243.4663083889
 30
0.0
  0
VERTEX
  5
561
100
AcDbEntity
  8
0
100
AcDbVertex
100
AcDb2dVertex
 10
311.5122944626
 20
243.6428555922
 30
0.0
  0
VERTEX
  5
562
100
AcDbEntity
  8
0
100
AcDbVertex
100
AcDb2dVertex
 10
310.6099414781
 20
243.7235367813
 30
0.0
  0
VERTEX
  5
563
100
AcDbEntity
  8
0
100
AcDbVertex
100
AcDb2dVertex
 10
309.7029901467
 20
243.7071173536
 30
0.0
  0
VERTEX
  5
564
100
AcDbEntity
  8
0
100
AcDbVertex
100
AcDb2dVertex
 10
308.8053188505
 20
243.5938485633
 30
0.0
  0
VERTEX
  5
565
100
AcDbEntity
  8
0
100
AcDbVertex
100
AcDb2dVertex
 10
307.9306639666
 20
243.3854636758
 30
0.0
  0
VERTEX
  5
566
100
AcDbEntity
  8
0
100
AcDbVertex
100
AcDb2dVertex
 10
307.0924096693
 20
243.0851514457
 30
0.0
  0
VERTEX
  5
567
100
AcDbEntity
  8
0
100
AcDbVertex
100
AcDb2dVertex
 10
306.3033831227
 20
242.6975073211
 30
0.0
  0
VERTEX
  5
568
100
AcDbEntity
  8
0
100
AcDbVertex
100
AcDb2dVertex
 10
305.5756581961
 20
242.2284631235
 30
0.0
  0
VERTEX
  5
569
100
AcDbEntity
  8
0
100
AcDbVertex
100
AcDb2dVertex
 10
304.9203707074
 20
241.6851962774
 30
0.0
  0
VERTEX
  5
56A
100
AcDbEntity
  8
0
100
AcDbVertex
100
AcDb2dVertex
 10
304.3475480194
 20
241.0760199795
 30
0.0
  0
VERTEX
  5
56B
100
AcDbEntity
  8
0
100
AcDbVertex
100
AcDb2dVertex
 10
303.8659555995
 20
240.4102559886
 30
0.0
  0
VERTEX
  5
56C
100
AcDbEntity
  8
0
100
AcDbVertex
100
AcDb2dVertex
 10
303.4829628879
 20
239.6980919816
 30
0.0
  0
VERTEX
  5
56D
100
AcDbEntity
  8
0
100
AcDbVertex
100
AcDb2dVertex
 10
303.2044305289
 20
238.9504256592
 30
0.0
  0
VERTEX
  5
56E
100
AcDbEntity
  8
0
100
AcDbVertex
100
AcDb2dVertex
 10
303.0346206903
 20
238.1786979872
 30
0.0
  0
VERTEX
  5
56F
100
AcDbEntity
  8
0
100
AcDbVertex
100
AcDb2dVertex
 10
302.9761318419
 20
237.3947181234
 30
0.0
  0
VERTEX
  5
570
100
AcDbEntity
  8
0
100
AcDbVertex
100
AcDb2dVertex
 10
303.0298589938
 20
236.6104827119
 30
0.0
  0
VERTEX
  5
571
100
AcDbEntity
  8
0
100
AcDbVertex
100
AcDb2dVertex
 10
303.1949800007
 20
235.8379923071
 30
0.0
  0
VERTEX
  5
572
100
AcDbEntity
  8
0
100
AcDbVertex
100
AcDb2dVertex
 10
303.4689681419
 20
235.0890677383
 30
0.0
  0
VERTEX
  5
573
100
AcDbEntity
  8
0
100
AcDbVertex
100
AcDb2dVertex
 10
303.8476307868
 20
234.3751692254
 30
0.0
  0
VERTEX
  5
574
100
AcDbEntity
  8
0
100
AcDbVertex
100
AcDb2dVertex
 10
304.3251735506
 20
233.7072210108
 30
0.0
  0
VERTEX
  5
575
100
AcDbEntity
  8
0
100
AcDbVertex
100
AcDb2dVertex
 10
304.8942889617
 20
233.095444195
 30
0.0
  0
VERTEX
  5
576
100
AcDbEntity
  8
0
100
AcDbVertex
100
AcDb2dVertex
 10
305.5462682827
 20
232.5492003304
 30
0.0
  0
VERTEX
  5
577
100
AcDbEntity
  8
0
100
AcDbVertex
100
AcDb2dVertex
 10
306.2711347728
 20
232.0768481689
 30
0.0
  0
VERTEX
  5
578
100
AcDbEntity
  8
0
100
AcDbVertex
100
AcDb2dVertex
 10
307.0577963548
 20
231.6856157542
 30
0.0
  0
VERTEX
  5
579
100
AcDbEntity
  8
0
100
AcDbVertex
100
AcDb2dVertex
 10
307.8942153486
 20
231.3814898166
 30
0.0
  0
VERTEX
  5
57A
100
AcDbEntity
  8
0
100
AcDbVertex
100
AcDb2dVertex
 10
308.7675926742
 20
231.1691241624
 30
0.0
  0
VERTEX
  5
57B
100
AcDbEntity
  8
0
100
AcDbVertex
100
AcDb2dVertex
 10
309.6645637069
 20
231.0517684609
 30
0.0
  0
VERTEX
  5
57C
100
AcDbEntity
  8
0
100
AcDbVertex
100
AcDb2dVertex
 10
310.5714027853
 20
231.0312185166
 30
0.0
  0
VERTEX
  5
57D
100
AcDbEntity
  8
0
100
AcDbVertex
100
AcDb2dVertex
 10
311.474233245
 20
231.1077887894
 30
0.0
  0
VERTEX
  5
57E
100
AcDbEntity
  8
0
100
AcDbVertex
100
AcDb2dVertex
 10
312.3592397621
 20
231.2803075831
 30
0.0
  0
VERTEX
  5
57F
100
AcDbEntity
  8
0
100
AcDbVertex
100
AcDb2dVertex
 10
313.2128797594
 20
231.5461349746
 30
0.0
  0
VERTEX
  5
580
100
AcDbEntity
  8
0
100
AcDbVertex
100
AcDb2dVertex
 10
314.0220906371
 20
231.9012032108
 30
0.0
  0
VERTEX
  5
581
100
AcDbEntity
  8
0
100
AcDbVertex
100
AcDb2dVertex
 10
314.7744896604
 20
232.3400789542
 30
0.0
  0
VERTEX
  5
582
100
AcDbEntity
  8
0
100
AcDbVertex
100
AcDb2dVertex
 10
315.4585634428
 20
232.8560464251
 30
0.0
  0
VERTEX
  5
583
100
AcDbEntity
  8
0
100
AcDbVertex
100
AcDb2dVertex
 10
316.0638441266
 20
233.441210168
 30
0.0
  0
VERTEX
  5
584
100
AcDbEntity
  8
0
100
AcDbVertex
100
AcDb2dVertex
 10
316.5810695648
 20
234.0866158702
 30
0.0
  0
VERTEX
  5
585
100
AcDbEntity
  8
0
100
AcDbVertex
100
AcDb2dVertex
 10
317.0023250523
 20
234.7823873819
 30
0.0
  0
VERTEX
  5
586
100
AcDbEntity
  8
0
100
AcDbVertex
100
AcDb2dVertex
 10
317.3211644387
 20
235.5178778441
 30
0.0
  0
VERTEX
  5
587
100
AcDbEntity
  8
0
100
AcDbVertex
100
AcDb2dVertex
 10
317.5327087688
 20
236.2818326092
 30
0.0
  0
SEQEND
  5
588
100
AcDbEntity
  8
0
  0
POLYLINE
  5
589
100
AcDbEntity
  8
0
370
        15
  6
Continuous
 62
         7
100
AcDb2dPolyline
 66
         1
 10
0.0
 20
0.0
 30
0.0
 70
       128
  0
VERTEX
  5
58A
100
AcDbEntity
  8
0
100
AcDbVertex
100
AcDb2dVertex
 10
316.0876716663
 20
241.2885629282
 30
0.0
  0
VERTEX
  5
58B
100
AcDbEntity
  8
0
100
AcDbVertex
100
AcDb2dVertex
 10
316.3615501739
 20
241.0101371994
 30
0.0
  0
VERTEX
  5
58C
100
AcDbEntity
  8
0
100
AcDbVertex
100
AcDb2dVertex
 10
316.6615837007
 20
240.7527214339
 30
0.0
  0
VERTEX
  5
58D
100
AcDbEntity
  8
0
100
AcDbVertex
100
AcDb2dVertex
 10
316.9856315599
 20
240.5181522483
 30
0.0
  0
VERTEX
  5
58E
100
AcDbEntity
  8
0
100
AcDbVertex
100
AcDb2dVertex
 10
317.331381727
 20
240.3081032524
 30
0.0
  0
VERTEX
  5
58F
100
AcDbEntity
  8
0
100
AcDbVertex
100
AcDb2dVertex
 10
317.696367335
 20
240.1240731091
 30
0.0
  0
VERTEX
  5
590
100
AcDbEntity
  8
0
100
AcDbVertex
100
AcDb2dVertex
 10
318.0779842756
 20
239.9673748411
 30
0.0
  0
VERTEX
  5
591
100
AcDbEntity
  8
0
100
AcDbVertex
100
AcDb2dVertex
 10
318.4735097788
 20
239.8391264633
 30
0.0
  0
VERTEX
  5
592
100
AcDbEntity
  8
0
100
AcDbVertex
100
AcDb2dVertex
 10
318.8801218395
 20
239.7402430052
 30
0.0
  0
SEQEND
  5
593
100
AcDbEntity
  8
0
  0
POLYLINE
  5
594
100
AcDbEntity
  8
0
370
        15
  6
Continuous
 62
         7
100
AcDb2dPolyline
 66
         1
 10
0.0
 20
0.0
 30
0.0
 70
       128
  0
VERTEX
  5
595
100
AcDbEntity
  8
0
100
AcDbVertex
100
AcDb2dVertex
 10
321.0932920916
 20
236.8828223202
 30
0.0
  0
VERTEX
  5
596
100
AcDbEntity
  8
0
100
AcDbVertex
100
AcDb2dVertex
 10
321.1282052195
 20
237.354194512
 30
0.0
  0
VERTEX
  5
597
100
AcDbEntity
  8
0
100
AcDbVertex
100
AcDb2dVertex
 10
321.0612583622
 20
237.8229636735
 30
0.0
  0
VERTEX
  5
598
100
AcDbEntity
  8
0
100
AcDbVertex
100
AcDb2dVertex
 10
320.8947885565
 20
238.2727656198
 30
0.0
  0
VERTEX
  5
599
100
AcDbEntity
  8
0
100
AcDbVertex
100
AcDb2dVertex
 10
320.6346070692
 20
238.6878982894
 30
0.0
  0
VERTEX
  5
59A
100
AcDbEntity
  8
0
100
AcDbVertex
100
AcDb2dVertex
 10
320.2897965328
 20
239.0538698847
 30
0.0
  0
VERTEX
  5
59B
100
AcDbEntity
  8
0
100
AcDbVertex
100
AcDb2dVertex
 10
319.8723938811
 20
239.357904764
 30
0.0
  0
VERTEX
  5
59C
100
AcDbEntity
  8
0
100
AcDbVertex
100
AcDb2dVertex
 10
319.3969701539
 20
239.589389424
 30
0.0
  0
VERTEX
  5
59D
100
AcDbEntity
  8
0
100
AcDbVertex
100
AcDb2dVertex
 10
318.8801218395
 20
239.7402430052
 30
0.0
  0
SEQEND
  5
59E
100
AcDbEntity
  8
0
  0
POLYLINE
  5
59F
100
AcDbEntity
  8
0
370
        15
  6
Continuous
 62
         7
100
AcDb2dPolyline
 66
         1
 10
0.0
 20
0.0
 30
0.0
 70
       128
  0
VERTEX
  5
5A0
100
AcDbEntity
  8
0
100
AcDbVertex
100
AcDb2dVertex
 10
323.4191610092
 20
235.9468098347
 30
0.0
  0
VERTEX
  5
5A1
100
AcDbEntity
  8
0
100
AcDbVertex
100
AcDb2dVertex
 10
323.0899414287
 20
235.7082555615
 30
0.0
  0
VERTEX
  5
5A2
100
AcDbEntity
  8
0
100
AcDbVertex
100
AcDb2dVertex
 10
322.6902575237
 20
235.5726573591
 30
0.0
  0
VERTEX
  5
5A3
100
AcDbEntity
  8
0
100
AcDbVertex
100
AcDb2dVertex
 10
322.2615357188
 20
235.5540697058
 30
0.0
  0
VERTEX
  5
5A4
100
AcDbEntity
  8
0
100
AcDbVertex
100
AcDb2dVertex
 10
321.8482121576
 20
235.654419174
 30
0.0
  0
VERTEX
  5
5A5
100
AcDbEntity
  8
0
100
AcDbVertex
100
AcDb2dVertex
 10
321.4931269875
 20
235.8633047452
 30
0.0
  0
VERTEX
  5
5A6
100
AcDbEntity
  8
0
100
AcDbVertex
100
AcDb2dVertex
 10
321.2330840647
 20
236.1590758545
 30
0.0
  0
VERTEX
  5
5A7
100
AcDbEntity
  8
0
100
AcDbVertex
100
AcDb2dVertex
 10
321.0950363096
 20
236.5110764275
 30
0.0
  0
VERTEX
  5
5A8
100
AcDbEntity
  8
0
100
AcDbVertex
100
AcDb2dVertex
 10
321.0932920916
 20
236.8828223202
 30
0.0
  0
SEQEND
  5
5A9
100
AcDbEntity
  8
0
  0
POLYLINE
  5
5AA
100
AcDbEntity
  8
0
370
        15
  6
Continuous
 62
         7
100
AcDb2dPolyline
 66
         1
 10
0.0
 20
0.0
 30
0.0
 70
       128
  0
VERTEX
  5
5AB
100
AcDbEntity
  8
0
100
AcDbVertex
100
AcDb2dVertex
 10
323.4191610092
 20
235.9468098347
 30
0.0
  0
VERTEX
  5
5AC
100
AcDbEntity
  8
0
100
AcDbVertex
100
AcDb2dVertex
 10
323.4648094424
 20
235.99426562
 30
0.0
  0
VERTEX
  5
5AD
100
AcDbEntity
  8
0
100
AcDbVertex
100
AcDb2dVertex
 10
323.5084750987
 20
236.0431007405
 30
0.0
  0
VERTEX
  5
5AE
100
AcDbEntity
  8
0
100
AcDbVertex
100
AcDb2dVertex
 10
323.5501024516
 20
236.093253096
 30
0.0
  0
VERTEX
  5
5AF
100
AcDbEntity
  8
0
100
AcDbVertex
100
AcDb2dVertex
 10
323.5896385665
 20
236.1446589115
 30
0.0
  0
VERTEX
  5
5B0
100
AcDbEntity
  8
0
100
AcDbVertex
100
AcDb2dVertex
 10
323.6270331683
 20
236.1972528177
 30
0.0
  0
VERTEX
  5
5B1
100
AcDbEntity
  8
0
100
AcDbVertex
100
AcDb2dVertex
 10
323.6622387047
 20
236.2509679347
 30
0.0
  0
VERTEX
  5
5B2
100
AcDbEntity
  8
0
100
AcDbVertex
100
AcDb2dVertex
 10
323.6952104076
 20
236.3057359569
 30
0.0
  0
VERTEX
  5
5B3
100
AcDbEntity
  8
0
100
AcDbVertex
100
AcDb2dVertex
 10
323.7259063491
 20
236.3614872397
 30
0.0
  0
SEQEND
  5
5B4
100
AcDbEntity
  8
0
  0
POLYLINE
  5
5B5
100
AcDbEntity
  8
0
370
        15
  6
Continuous
 62
         7
100
AcDb2dPolyline
 66
         1
 10
0.0
 20
0.0
 30
0.0
 70
       128
  0
VERTEX
  5
5B6
100
AcDbEntity
  8
0
100
AcDbVertex
100
AcDb2dVertex
 10
323.7259063491
 20
236.3614872397
 30
0.0
  0
VERTEX
  5
5B7
100
AcDbEntity
  8
0
100
AcDbVertex
100
AcDb2dVertex
 10
323.9827030448
 20
236.7240563646
 30
0.0
  0
VERTEX
  5
5B8
100
AcDbEntity
  8
0
100
AcDbVertex
100
AcDb2dVertex
 10
324.3337890376
 20
237.0214933271
 30
0.0
  0
VERTEX
  5
5B9
100
AcDbEntity
  8
0
100
AcDbVertex
100
AcDb2dVertex
 10
324.7579921129
 20
237.2358612134
 30
0.0
  0
VERTEX
  5
5BA
100
AcDbEntity
  8
0
100
AcDbVertex
100
AcDb2dVertex
 10
325.2297307357
 20
237.3542325839
 30
0.0
  0
VERTEX
  5
5BB
100
AcDbEntity
  8
0
100
AcDbVertex
100
AcDb2dVertex
 10
325.7205567431
 20
237.369469062
 30
0.0
  0
VERTEX
  5
5BC
100
AcDbEntity
  8
0
100
AcDbVertex
100
AcDb2dVertex
 10
326.2008709094
 20
237.2806518129
 30
0.0
  0
VERTEX
  5
5BD
100
AcDbEntity
  8
0
100
AcDbVertex
100
AcDb2dVertex
 10
326.6417079243
 20
237.0931369543
 30
0.0
  0
VERTEX
  5
5BE
100
AcDbEntity
  8
0
100
AcDbVertex
100
AcDb2dVertex
 10
327.0164831444
 20
236.8182325558
 30
0.0
  0
VERTEX
  5
5BF
100
AcDbEntity
  8
0
100
AcDbVertex
100
AcDb2dVertex
 10
327.3025957777
 20
236.4725167068
 30
0.0
  0
VERTEX
  5
5C0
100
AcDbEntity
  8
0
100
AcDbVertex
100
AcDb2dVertex
 10
327.4827918232
 20
236.0768377759
 30
0.0
  0
SEQEND
  5
5C1
100
AcDbEntity
  8
0
  0
POLYLINE
  5
5C2
100
AcDbEntity
  8
0
370
        15
  6
Continuous
 62
         7
100
AcDb2dPolyline
 66
         1
 10
0.0
 20
0.0
 30
0.0
 70
       128
  0
VERTEX
  5
5C3
100
AcDbEntity
  8
0
100
AcDbVertex
100
AcDb2dVertex
 10
327.4827918232
 20
236.0768377759
 30
0.0
  0
VERTEX
  5
5C4
100
AcDbEntity
  8
0
100
AcDbVertex
100
AcDb2dVertex
 10
327.6629878687
 20
235.6811588449
 30
0.0
  0
VERTEX
  5
5C5
100
AcDbEntity
  8
0
100
AcDbVertex
100
AcDb2dVertex
 10
327.9491005021
 20
235.3354429959
 30
0.0
  0
VERTEX
  5
5C6
100
AcDbEntity
  8
0
100
AcDbVertex
100
AcDb2dVertex
 10
328.3238757221
 20
235.0605385974
 30
0.0
  0
VERTEX
  5
5C7
100
AcDbEntity
  8
0
100
AcDbVertex
100
AcDb2dVertex
 10
328.764712737
 20
234.8730237388
 30
0.0
  0
VERTEX
  5
5C8
100
AcDbEntity
  8
0
100
AcDbVertex
100
AcDb2dVertex
 10
329.2450269033
 20
234.7842064897
 30
0.0
  0
VERTEX
  5
5C9
100
AcDbEntity
  8
0
100
AcDbVertex
100
AcDb2dVertex
 10
329.7358529108
 20
234.7994429678
 30
0.0
  0
VERTEX
  5
5CA
100
AcDbEntity
  8
0
100
AcDbVertex
100
AcDb2dVertex
 10
330.2075915335
 20
234.9178143383
 30
0.0
  0
VERTEX
  5
5CB
100
AcDbEntity
  8
0
100
AcDbVertex
100
AcDb2dVertex
 10
330.6317946088
 20
235.1321822246
 30
0.0
  0
VERTEX
  5
5CC
100
AcDbEntity
  8
0
100
AcDbVertex
100
AcDb2dVertex
 10
330.9828806017
 20
235.4296191872
 30
0.0
  0
VERTEX
  5
5CD
100
AcDbEntity
  8
0
100
AcDbVertex
100
AcDb2dVertex
 10
331.2396772974
 20
235.792188312
 30
0.0
  0
SEQEND
  5
5CE
100
AcDbEntity
  8
0
  0
POLYLINE
  5
5CF
100
AcDbEntity
  8
0
370
        15
  6
Continuous
 62
         7
100
AcDb2dPolyline
 66
         1
 10
0.0
 20
0.0
 30
0.0
 70
       128
  0
VERTEX
  5
5D0
100
AcDbEntity
  8
0
100
AcDbVertex
100
AcDb2dVertex
 10
331.2396772974
 20
235.792188312
 30
0.0
  0
VERTEX
  5
5D1
100
AcDbEntity
  8
0
100
AcDbVertex
100
AcDb2dVertex
 10
331.4964739931
 20
236.1547574369
 30
0.0
  0
VERTEX
  5
5D2
100
AcDbEntity
  8
0
100
AcDbVertex
100
AcDb2dVertex
 10
331.8475599859
 20
236.4521943994
 30
0.0
  0
VERTEX
  5
5D3
100
AcDbEntity
  8
0
100
AcDbVertex
100
AcDb2dVertex
 10
332.2717630612
 20
236.6665622857
 30
0.0
  0
VERTEX
  5
5D4
100
AcDbEntity
  8
0
100
AcDbVertex
100
AcDb2dVertex
 10
332.743501684
 20
236.7849336562
 30
0.0
  0
VERTEX
  5
5D5
100
AcDbEntity
  8
0
100
AcDbVertex
100
AcDb2dVertex
 10
333.2343276914
 20
236.8001701343
 30
0.0
  0
VERTEX
  5
5D6
100
AcDbEntity
  8
0
100
AcDbVertex
100
AcDb2dVertex
 10
333.7146418577
 20
236.7113528852
 30
0.0
  0
VERTEX
  5
5D7
100
AcDbEntity
  8
0
100
AcDbVertex
100
AcDb2dVertex
 10
334.1554788726
 20
236.5238380266
 30
0.0
  0
VERTEX
  5
5D8
100
AcDbEntity
  8
0
100
AcDbVertex
100
AcDb2dVertex
 10
334.5302540927
 20
236.2489336281
 30
0.0
  0
VERTEX
  5
5D9
100
AcDbEntity
  8
0
100
AcDbVertex
100
AcDb2dVertex
 10
334.816366726
 20
235.9032177791
 30
0.0
  0
VERTEX
  5
5DA
100
AcDbEntity
  8
0
100
AcDbVertex
100
AcDb2dVertex
 10
334.9965627715
 20
235.5075388482
 30
0.0
  0
SEQEND
  5
5DB
100
AcDbEntity
  8
0
  0
POLYLINE
  5
5DC
100
AcDbEntity
  8
0
370
        15
  6
Continuous
 62
         7
100
AcDb2dPolyline
 66
         1
 10
0.0
 20
0.0
 30
0.0
 70
       128
  0
VERTEX
  5
5DD
100
AcDbEntity
  8
0
100
AcDbVertex
100
AcDb2dVertex
 10
334.9965627715
 20
235.5075388482
 30
0.0
  0
VERTEX
  5
5DE
100
AcDbEntity
  8
0
100
AcDbVertex
100
AcDb2dVertex
 10
335.176758817
 20
235.1118599172
 30
0.0
  0
VERTEX
  5
5DF
100
AcDbEntity
  8
0
100
AcDbVertex
100
AcDb2dVertex
 10
335.4628714504
 20
234.7661440682
 30
0.0
  0
VERTEX
  5
5E0
100
AcDbEntity
  8
0
100
AcDbVertex
100
AcDb2dVertex
 10
335.8376466704
 20
234.4912396697
 30
0.0
  0
VERTEX
  5
5E1
100
AcDbEntity
  8
0
100
AcDbVertex
100
AcDb2dVertex
 10
336.2784836853
 20
234.3037248111
 30
0.0
  0
VERTEX
  5
5E2
100
AcDbEntity
  8
0
100
AcDbVertex
100
AcDb2dVertex
 10
336.7587978516
 20
234.214907562
 30
0.0
  0
VERTEX
  5
5E3
100
AcDbEntity
  8
0
100
AcDbVertex
100
AcDb2dVertex
 10
337.2496238591
 20
234.2301440401
 30
0.0
  0
VERTEX
  5
5E4
100
AcDbEntity
  8
0
100
AcDbVertex
100
AcDb2dVertex
 10
337.7213624818
 20
234.3485154106
 30
0.0
  0
VERTEX
  5
5E5
100
AcDbEntity
  8
0
100
AcDbVertex
100
AcDb2dVertex
 10
338.1455655571
 20
234.5628832969
 30
0.0
  0
VERTEX
  5
5E6
100
AcDbEntity
  8
0
100
AcDbVertex
100
AcDb2dVertex
 10
338.49665155
 20
234.8603202595
 30
0.0
  0
VERTEX
  5
5E7
100
AcDbEntity
  8
0
100
AcDbVertex
100
AcDb2dVertex
 10
338.7534482457
 20
235.2228893843
 30
0.0
  0
SEQEND
  5
5E8
100
AcDbEntity
  8
0
  0
POLYLINE
  5
5E9
100
AcDbEntity
  8
0
370
        15
  6
Continuous
 62
         7
100
AcDb2dPolyline
 66
         1
 10
0.0
 20
0.0
 30
0.0
 70
       128
  0
VERTEX
  5
5EA
100
AcDbEntity
  8
0
100
AcDbVertex
100
AcDb2dVertex
 10
338.7534482457
 20
235.2228893843
 30
0.0
  0
VERTEX
  5
5EB
100
AcDbEntity
  8
0
100
AcDbVertex
100
AcDb2dVertex
 10
339.0102449414
 20
235.5854585092
 30
0.0
  0
VERTEX
  5
5EC
100
AcDbEntity
  8
0
100
AcDbVertex
100
AcDb2dVertex
 10
339.3613309342
 20
235.8828954717
 30
0.0
  0
VERTEX
  5
5ED
100
AcDbEntity
  8
0
100
AcDbVertex
100
AcDb2dVertex
 10
339.7855340095
 20
236.097263358
 30
0.0
  0
VERTEX
  5
5EE
100
AcDbEntity
  8
0
100
AcDbVertex
100
AcDb2dVertex
 10
340.2572726322
 20
236.2156347285
 30
0.0
  0
VERTEX
  5
5EF
100
AcDbEntity
  8
0
100
AcDbVertex
100
AcDb2dVertex
 10
340.7480986397
 20
236.2308712066
 30
0.0
  0
VERTEX
  5
5F0
100
AcDbEntity
  8
0
100
AcDbVertex
100
AcDb2dVertex
 10
341.228412806
 20
236.1420539575
 30
0.0
  0
VERTEX
  5
5F1
100
AcDbEntity
  8
0
100
AcDbVertex
100
AcDb2dVertex
 10
341.6692498209
 20
235.9545390989
 30
0.0
  0
VERTEX
  5
5F2
100
AcDbEntity
  8
0
100
AcDbVertex
100
AcDb2dVertex
 10
342.044025041
 20
235.6796347004
 30
0.0
  0
VERTEX
  5
5F3
100
AcDbEntity
  8
0
100
AcDbVertex
100
AcDb2dVertex
 10
342.3301376743
 20
235.3339188514
 30
0.0
  0
VERTEX
  5
5F4
100
AcDbEntity
  8
0
100
AcDbVertex
100
AcDb2dVertex
 10
342.5103337198
 20
234.9382399205
 30
0.0
  0
SEQEND
  5
5F5
100
AcDbEntity
  8
0
  0
POLYLINE
  5
5F6
100
AcDbEntity
  8
0
370
        15
  6
Continuous
 62
         7
100
AcDb2dPolyline
 66
         1
 10
0.0
 20
0.0
 30
0.0
 70
       128
  0
VERTEX
  5
5F7
100
AcDbEntity
  8
0
100
AcDbVertex
100
AcDb2dVertex
 10
342.5103337198
 20
234.9382399205
 30
0.0
  0
VERTEX
  5
5F8
100
AcDbEntity
  8
0
100
AcDbVertex
100
AcDb2dVertex
 10
342.6905297653
 20
234.5425609896
 30
0.0
  0
VERTEX
  5
5F9
100
AcDbEntity
  8
0
100
AcDbVertex
100
AcDb2dVertex
 10
342.9766423986
 20
234.1968451405
 30
0.0
  0
VERTEX
  5
5FA
100
AcDbEntity
  8
0
100
AcDbVertex
100
AcDb2dVertex
 10
343.3514176187
 20
233.921940742
 30
0.0
  0
VERTEX
  5
5FB
100
AcDbEntity
  8
0
100
AcDbVertex
100
AcDb2dVertex
 10
343.7922546336
 20
233.7344258834
 30
0.0
  0
VERTEX
  5
5FC
100
AcDbEntity
  8
0
100
AcDbVertex
100
AcDb2dVertex
 10
344.2725687999
 20
233.6456086343
 30
0.0
  0
VERTEX
  5
5FD
100
AcDbEntity
  8
0
100
AcDbVertex
100
AcDb2dVertex
 10
344.7633948074
 20
233.6608451124
 30
0.0
  0
VERTEX
  5
5FE
100
AcDbEntity
  8
0
100
AcDbVertex
100
AcDb2dVertex
 10
345.2351334301
 20
233.7792164829
 30
0.0
  0
VERTEX
  5
5FF
100
AcDbEntity
  8
0
100
AcDbVertex
100
AcDb2dVertex
 10
345.6593365054
 20
233.9935843692
 30
0.0
  0
VERTEX
  5
600
100
AcDbEntity
  8
0
100
AcDbVertex
100
AcDb2dVertex
 10
346.0104224983
 20
234.2910213318
 30
0.0
  0
VERTEX
  5
601
100
AcDbEntity
  8
0
100
AcDbVertex
100
AcDb2dVertex
 10
346.267219194
 20
234.6535904566
 30
0.0
  0
SEQEND
  5
602
100
AcDbEntity
  8
0
  0
POLYLINE
  5
603
100
AcDbEntity
  8
0
370
        15
  6
Continuous
 62
         7
100
AcDb2dPolyline
 66
         1
 10
0.0
 20
0.0
 30
0.0
 70
       128
  0
VERTEX
  5
604
100
AcDbEntity
  8
0
100
AcDbVertex
100
AcDb2dVertex
 10
346.267219194
 20
234.6535904566
 30
0.0
  0
VERTEX
  5
605
100
AcDbEntity
  8
0
100
AcDbVertex
100
AcDb2dVertex
 10
346.5240158897
 20
235.0161595815
 30
0.0
  0
VERTEX
  5
606
100
AcDbEntity
  8
0
100
AcDbVertex
100
AcDb2dVertex
 10
346.8751018825
 20
235.313596544
 30
0.0
  0
VERTEX
  5
607
100
AcDbEntity
  8
0
100
AcDbVertex
100
AcDb2dVertex
 10
347.2993049578
 20
235.5279644303
 30
0.0
  0
VERTEX
  5
608
100
AcDbEntity
  8
0
100
AcDbVertex
100
AcDb2dVertex
 10
347.7710435805
 20
235.6463358009
 30
0.0
  0
VERTEX
  5
609
100
AcDbEntity
  8
0
100
AcDbVertex
100
AcDb2dVertex
 10
348.261869588
 20
235.6615722789
 30
0.0
  0
VERTEX
  5
60A
100
AcDbEntity
  8
0
100
AcDbVertex
100
AcDb2dVertex
 10
348.7421837543
 20
235.5727550298
 30
0.0
  0
VERTEX
  5
60B
100
AcDbEntity
  8
0
100
AcDbVertex
100
AcDb2dVertex
 10
349.1830207692
 20
235.3852401712
 30
0.0
  0
VERTEX
  5
60C
100
AcDbEntity
  8
0
100
AcDbVertex
100
AcDb2dVertex
 10
349.5577959893
 20
235.1103357727
 30
0.0
  0
VERTEX
  5
60D
100
AcDbEntity
  8
0
100
AcDbVertex
100
AcDb2dVertex
 10
349.8439086226
 20
234.7646199237
 30
0.0
  0
VERTEX
  5
60E
100
AcDbEntity
  8
0
100
AcDbVertex
100
AcDb2dVertex
 10
350.0241046681
 20
234.3689409928
 30
0.0
  0
SEQEND
  5
60F
100
AcDbEntity
  8
0
  0
POLYLINE
  5
610
100
AcDbEntity
  8
0
370
        15
  6
Continuous
 62
         7
100
AcDb2dPolyline
 66
         1
 10
0.0
 20
0.0
 30
0.0
 70
       128
  0
VERTEX
  5
611
100
AcDbEntity
  8
0
100
AcDbVertex
100
AcDb2dVertex
 10
350.0241046681
 20
234.3689409928
 30
0.0
  0
VERTEX
  5
612
100
AcDbEntity
  8
0
100
AcDbVertex
100
AcDb2dVertex
 10
350.2043007136
 20
233.9732620619
 30
0.0
  0
VERTEX
  5
613
100
AcDbEntity
  8
0
100
AcDbVertex
100
AcDb2dVertex
 10
350.4904133469
 20
233.6275462128
 30
0.0
  0
VERTEX
  5
614
100
AcDbEntity
  8
0
100
AcDbVertex
100
AcDb2dVertex
 10
350.865188567
 20
233.3526418143
 30
0.0
  0
VERTEX
  5
615
100
AcDbEntity
  8
0
100
AcDbVertex
100
AcDb2dVertex
 10
351.3060255819
 20
233.1651269557
 30
0.0
  0
VERTEX
  5
616
100
AcDbEntity
  8
0
100
AcDbVertex
100
AcDb2dVertex
 10
351.7863397482
 20
233.0763097066
 30
0.0
  0
VERTEX
  5
617
100
AcDbEntity
  8
0
100
AcDbVertex
100
AcDb2dVertex
 10
352.2771657557
 20
233.0915461847
 30
0.0
  0
VERTEX
  5
618
100
AcDbEntity
  8
0
100
AcDbVertex
100
AcDb2dVertex
 10
352.7489043784
 20
233.2099175552
 30
0.0
  0
VERTEX
  5
619
100
AcDbEntity
  8
0
100
AcDbVertex
100
AcDb2dVertex
 10
353.1731074537
 20
233.4242854415
 30
0.0
  0
VERTEX
  5
61A
100
AcDbEntity
  8
0
100
AcDbVertex
100
AcDb2dVertex
 10
353.5241934466
 20
233.7217224041
 30
0.0
  0
VERTEX
  5
61B
100
AcDbEntity
  8
0
100
AcDbVertex
100
AcDb2dVertex
 10
353.7809901423
 20
234.0842915289
 30
0.0
  0
SEQEND
  5
61C
100
AcDbEntity
  8
0
  0
POLYLINE
  5
61D
100
AcDbEntity
  8
0
370
        15
  6
Continuous
 62
         7
100
AcDb2dPolyline
 66
         1
 10
0.0
 20
0.0
 30
0.0
 70
       128
  0
VERTEX
  5
61E
100
AcDbEntity
  8
0
100
AcDbVertex
100
AcDb2dVertex
 10
353.7809901423
 20
234.0842915289
 30
0.0
  0
VERTEX
  5
61F
100
AcDbEntity
  8
0
100
AcDbVertex
100
AcDb2dVertex
 10
354.037786838
 20
234.4468606538
 30
0.0
  0
VERTEX
  5
620
100
AcDbEntity
  8
0
100
AcDbVertex
100
AcDb2dVertex
 10
354.3888728308
 20
234.7442976163
 30
0.0
  0
VERTEX
  5
621
100
AcDbEntity
  8
0
100
AcDbVertex
100
AcDb2dVertex
 10
354.8130759061
 20
234.9586655026
 30
0.0
  0
VERTEX
  5
622
100
AcDbEntity
  8
0
100
AcDbVertex
100
AcDb2dVertex
 10
355.2848145288
 20
235.0770368732
 30
0.0
  0
VERTEX
  5
623
100
AcDbEntity
  8
0
100
AcDbVertex
100
AcDb2dVertex
 10
355.7756405363
 20
235.0922733512
 30
0.0
  0
VERTEX
  5
624
100
AcDbEntity
  8
0
100
AcDbVertex
100
AcDb2dVertex
 10
356.2559547026
 20
235.0034561022
 30
0.0
  0
VERTEX
  5
625
100
AcDbEntity
  8
0
100
AcDbVertex
100
AcDb2dVertex
 10
356.6967917175
 20
234.8159412435
 30
0.0
  0
VERTEX
  5
626
100
AcDbEntity
  8
0
100
AcDbVertex
100
AcDb2dVertex
 10
357.0715669376
 20
234.541036845
 30
0.0
  0
VERTEX
  5
627
100
AcDbEntity
  8
0
100
AcDbVertex
100
AcDb2dVertex
 10
357.3576795709
 20
234.195320996
 30
0.0
  0
VERTEX
  5
628
100
AcDbEntity
  8
0
100
AcDbVertex
100
AcDb2dVertex
 10
357.5378756164
 20
233.7996420651
 30
0.0
  0
SEQEND
  5
629
100
AcDbEntity
  8
0
  0
POLYLINE
  5
62A
100
AcDbEntity
  8
0
370
        15
  6
Continuous
 62
         7
100
AcDb2dPolyline
 66
         1
 10
0.0
 20
0.0
 30
0.0
 70
       128
  0
VERTEX
  5
62B
100
AcDbEntity
  8
0
100
AcDbVertex
100
AcDb2dVertex
 10
357.5378756164
 20
233.7996420651
 30
0.0
  0
VERTEX
  5
62C
100
AcDbEntity
  8
0
100
AcDbVertex
100
AcDb2dVertex
 10
357.7180716619
 20
233.4039631342
 30
0.0
  0
VERTEX
  5
62D
100
AcDbEntity
  8
0
100
AcDbVertex
100
AcDb2dVertex
 10
358.0041842952
 20
233.0582472851
 30
0.0
  0
VERTEX
  5
62E
100
AcDbEntity
  8
0
100
AcDbVertex
100
AcDb2dVertex
 10
358.3789595153
 20
232.7833428866
 30
0.0
  0
VERTEX
  5
62F
100
AcDbEntity
  8
0
100
AcDbVertex
100
AcDb2dVertex
 10
358.8197965302
 20
232.595828028
 30
0.0
  0
VERTEX
  5
630
100
AcDbEntity
  8
0
100
AcDbVertex
100
AcDb2dVertex
 10
359.3001106965
 20
232.5070107789
 30
0.0
  0
VERTEX
  5
631
100
AcDbEntity
  8
0
100
AcDbVertex
100
AcDb2dVertex
 10
359.790936704
 20
232.522247257
 30
0.0
  0
VERTEX
  5
632
100
AcDbEntity
  8
0
100
AcDbVertex
100
AcDb2dVertex
 10
360.2626753267
 20
232.6406186276
 30
0.0
  0
VERTEX
  5
633
100
AcDbEntity
  8
0
100
AcDbVertex
100
AcDb2dVertex
 10
360.686878402
 20
232.8549865138
 30
0.0
  0
VERTEX
  5
634
100
AcDbEntity
  8
0
100
AcDbVertex
100
AcDb2dVertex
 10
361.0379643949
 20
233.1524234764
 30
0.0
  0
VERTEX
  5
635
100
AcDbEntity
  8
0
100
AcDbVertex
100
AcDb2dVertex
 10
361.2947610906
 20
233.5149926012
 30
0.0
  0
SEQEND
  5
636
100
AcDbEntity
  8
0
  0
POLYLINE
  5
637
100
AcDbEntity
  8
0
370
        15
  6
Continuous
 62
         7
100
AcDb2dPolyline
 66
         1
 10
0.0
 20
0.0
 30
0.0
 70
       128
  0
VERTEX
  5
638
100
AcDbEntity
  8
0
100
AcDbVertex
100
AcDb2dVertex
 10
361.2947610906
 20
233.5149926012
 30
0.0
  0
VERTEX
  5
639
100
AcDbEntity
  8
0
100
AcDbVertex
100
AcDb2dVertex
 10
361.5515577863
 20
233.8775617261
 30
0.0
  0
VERTEX
  5
63A
100
AcDbEntity
  8
0
100
AcDbVertex
100
AcDb2dVertex
 10
361.9026437791
 20
234.1749986886
 30
0.0
  0
VERTEX
  5
63B
100
AcDbEntity
  8
0
100
AcDbVertex
100
AcDb2dVertex
 10
362.3268468544
 20
234.3893665749
 30
0.0
  0
VERTEX
  5
63C
100
AcDbEntity
  8
0
100
AcDbVertex
100
AcDb2dVertex
 10
362.7985854771
 20
234.5077379455
 30
0.0
  0
VERTEX
  5
63D
100
AcDbEntity
  8
0
100
AcDbVertex
100
AcDb2dVertex
 10
363.2894114846
 20
234.5229744235
 30
0.0
  0
VERTEX
  5
63E
100
AcDbEntity
  8
0
100
AcDbVertex
100
AcDb2dVertex
 10
363.7697256509
 20
234.4341571745
 30
0.0
  0
VERTEX
  5
63F
100
AcDbEntity
  8
0
100
AcDbVertex
100
AcDb2dVertex
 10
364.2105626658
 20
234.2466423158
 30
0.0
  0
VERTEX
  5
640
100
AcDbEntity
  8
0
100
AcDbVertex
100
AcDb2dVertex
 10
364.5853378859
 20
233.9717379173
 30
0.0
  0
VERTEX
  5
641
100
AcDbEntity
  8
0
100
AcDbVertex
100
AcDb2dVertex
 10
364.8714505192
 20
233.6260220683
 30
0.0
  0
VERTEX
  5
642
100
AcDbEntity
  8
0
100
AcDbVertex
100
AcDb2dVertex
 10
365.0516465647
 20
233.2303431374
 30
0.0
  0
SEQEND
  5
643
100
AcDbEntity
  8
0
  0
POLYLINE
  5
644
100
AcDbEntity
  8
0
370
        15
  6
Continuous
 62
         7
100
AcDb2dPolyline
 66
         1
 10
0.0
 20
0.0
 30
0.0
 70
       128
  0
VERTEX
  5
645
100
AcDbEntity
  8
0
100
AcDbVertex
100
AcDb2dVertex
 10
365.0516465647
 20
233.2303431374
 30
0.0
  0
VERTEX
  5
646
100
AcDbEntity
  8
0
100
AcDbVertex
100
AcDb2dVertex
 10
365.1404083536
 20
232.9999161493
 30
0.0
  0
VERTEX
  5
647
100
AcDbEntity
  8
0
100
AcDbVertex
100
AcDb2dVertex
 10
365.2651382766
 20
232.7823444991
 30
0.0
  0
VERTEX
  5
648
100
AcDbEntity
  8
0
100
AcDbVertex
100
AcDb2dVertex
 10
365.4234359545
 20
232.5818152691
 30
0.0
  0
VERTEX
  5
649
100
AcDbEntity
  8
0
100
AcDbVertex
100
AcDb2dVertex
 10
365.6122550099
 20
232.4021875666
 30
0.0
  0
VERTEX
  5
64A
100
AcDbEntity
  8
0
100
AcDbVertex
100
AcDb2dVertex
 10
365.827961693
 20
232.2469182574
 30
0.0
  0
VERTEX
  5
64B
100
AcDbEntity
  8
0
100
AcDbVertex
100
AcDb2dVertex
 10
366.0664048121
 20
232.1189954392
 30
0.0
  0
VERTEX
  5
64C
100
AcDbEntity
  8
0
100
AcDbVertex
100
AcDb2dVertex
 10
366.3229956219
 20
232.0208809372
 30
0.0
  0
VERTEX
  5
64D
100
AcDbEntity
  8
0
100
AcDbVertex
100
AcDb2dVertex
 10
366.5927961312
 20
231.9544629269
 30
0.0
  0
SEQEND
  5
64E
100
AcDbEntity
  8
0
  0
POLYLINE
  5
64F
100
AcDbEntity
  8
0
370
        15
  6
Continuous
 62
         7
100
AcDb2dPolyline
 66
         1
 10
0.0
 20
0.0
 30
0.0
 70
       128
  0
VERTEX
  5
650
100
AcDbEntity
  8
0
100
AcDbVertex
100
AcDb2dVertex
 10
368.6464928583
 20
233.0875264928
 30
0.0
  0
VERTEX
  5
651
100
AcDbEntity
  8
0
100
AcDbVertex
100
AcDb2dVertex
 10
368.5099634674
 20
232.8303110159
 30
0.0
  0
VERTEX
  5
652
100
AcDbEntity
  8
0
100
AcDbVertex
100
AcDb2dVertex
 10
368.3268765829
 20
232.5957915028
 30
0.0
  0
VERTEX
  5
653
100
AcDbEntity
  8
0
100
AcDbVertex
100
AcDb2dVertex
 10
368.1021230662
 20
232.390232752
 30
0.0
  0
VERTEX
  5
654
100
AcDbEntity
  8
0
100
AcDbVertex
100
AcDb2dVertex
 10
367.8417068334
 20
232.2191259234
 30
0.0
  0
VERTEX
  5
655
100
AcDbEntity
  8
0
100
AcDbVertex
100
AcDb2dVertex
 10
367.5525844709
 20
232.0870418513
 30
0.0
  0
VERTEX
  5
656
100
AcDbEntity
  8
0
100
AcDbVertex
100
AcDb2dVertex
 10
367.2424794014
 20
231.9975089418
 30
0.0
  0
VERTEX
  5
657
100
AcDbEntity
  8
0
100
AcDbVertex
100
AcDb2dVertex
 10
366.9196755657
 20
231.9529189176
 30
0.0
  0
VERTEX
  5
658
100
AcDbEntity
  8
0
100
AcDbVertex
100
AcDb2dVertex
 10
366.5927961312
 20
231.9544629269
 30
0.0
  0
SEQEND
  5
659
100
AcDbEntity
  8
0
  0
LINE
  5
65A
100
AcDbEntity
  8
0
370
        15
  6
Continuous
 62
         7
100
AcDbLine
 10
369.858990661
 20
235.97252587
 30
0.0
 11
368.6464928583
 21
233.0875264928
 31
0.0
  0
POLYLINE
  5
65B
100
AcDbEntity
  8
0
370
        15
  6
Continuous
 62
         7
100
AcDb2dPolyline
 66
         1
 10
0.0
 20
0.0
 30
0.0
 70
       128
  0
VERTEX
  5
65C
100
AcDbEntity
  8
0
100
AcDbVertex
100
AcDb2dVertex
 10
368.8927821992
 20
237.2859776582
 30
0.0
  0
VERTEX
  5
65D
100
AcDbEntity
  8
0
100
AcDbVertex
100
AcDb2dVertex
 10
369.1465756503
 20
237.2410108216
 30
0.0
  0
VERTEX
  5
65E
100
AcDbEntity
  8
0
100
AcDbVertex
100
AcDb2dVertex
 10
369.3819487167
 20
237.1473092048
 30
0.0
  0
VERTEX
  5
65F
100
AcDbEntity
  8
0
100
AcDbVertex
100
AcDb2dVertex
 10
369.5866040874
 20
237.0097683466
 30
0.0
  0
VERTEX
  5
660
100
AcDbEntity
  8
0
100
AcDbVertex
100
AcDb2dVertex
 10
369.7498493294
 20
236.8355742121
 30
0.0
  0
VERTEX
  5
661
100
AcDbEntity
  8
0
100
AcDbVertex
100
AcDb2dVertex
 10
369.863155525
 20
236.6338277554
 30
0.0
  0
VERTEX
  5
662
100
AcDbEntity
  8
0
100
AcDbVertex
100
AcDb2dVertex
 10
369.9206028741
 20
236.4150694303
 30
0.0
  0
VERTEX
  5
663
100
AcDbEntity
  8
0
100
AcDbVertex
100
AcDb2dVertex
 10
369.9191899801
 20
236.1907284932
 30
0.0
  0
VERTEX
  5
664
100
AcDbEntity
  8
0
100
AcDbVertex
100
AcDb2dVertex
 10
369.858990661
 20
235.97252587
 30
0.0
  0
SEQEND
  5
665
100
AcDbEntity
  8
0
  0
LINE
  5
666
100
AcDbEntity
  8
0
370
        15
  6
Continuous
 62
         7
100
AcDbLine
 10
338.7963505439
 20
239.5663061892
 30
0.0
 11
368.8927821992
 21
237.2859776582
 31
0.0
  0
POLYLINE
  5
667
100
AcDbEntity
  8
0
370
        15
  6
Continuous
 62
         7
100
AcDb2dPolyline
 66
         1
 10
0.0
 20
0.0
 30
0.0
 70
       128
  0
VERTEX
  5
668
100
AcDbEntity
  8
0
100
AcDbVertex
100
AcDb2dVertex
 10
314.9121069242
 20
245.3901916445
 30
0.0
  0
VERTEX
  5
669
100
AcDbEntity
  8
0
100
AcDbVertex
100
AcDb2dVertex
 10
317.4199466034
 20
244.3654855075
 30
0.0
  0
VERTEX
  5
66A
100
AcDbEntity
  8
0
100
AcDbVertex
100
AcDb2dVertex
 10
319.9748218778
 20
243.4319830658
 30
0.0
  0
VERTEX
  5
66B
100
AcDbEntity
  8
0
100
AcDbVertex
100
AcDb2dVertex
 10
322.5723125826
 20
242.5912993629
 30
0.0
  0
VERTEX
  5
66C
100
AcDbEntity
  8
0
100
AcDbVertex
100
AcDb2dVertex
 10
325.2079248244
 20
241.8448888575
 30
0.0
  0
VERTEX
  5
66D
100
AcDbEntity
  8
0
100
AcDbVertex
100
AcDb2dVertex
 10
327.8770987561
 20
241.194042907
 30
0.0
  0
VERTEX
  5
66E
100
AcDbEntity
  8
0
100
AcDbVertex
100
AcDb2dVertex
 10
330.5752164659
 20
240.6398875339
 30
0.0
  0
VERTEX
  5
66F
100
AcDbEntity
  8
0
100
AcDbVertex
100
AcDb2dVertex
 10
333.2976099666
 20
240.1833814768
 30
0.0
  0
VERTEX
  5
670
100
AcDbEntity
  8
0
100
AcDbVertex
100
AcDb2dVertex
 10
336.0395692716
 20
239.8253145326
 30
0.0
  0
VERTEX
  5
671
100
AcDbEntity
  8
0
100
AcDbVertex
100
AcDb2dVertex
 10
338.7963505439
 20
239.5663061892
 30
0.0
  0
SEQEND
  5
672
100
AcDbEntity
  8
0
  0
POLYLINE
  5
673
100
AcDbEntity
  8
0
370
        15
  6
Continuous
 62
         7
100
AcDb2dPolyline
 66
         1
 10
0.0
 20
0.0
 30
0.0
 70
       128
  0
VERTEX
  5
674
100
AcDbEntity
  8
0
100
AcDbVertex
100
AcDb2dVertex
 10
302.8235291082
 20
243.5468258345
 30
0.0
  0
VERTEX
  5
675
100
AcDbEntity
  8
0
100
AcDbVertex
100
AcDb2dVertex
 10
303.6190975236
 20
244.1980491276
 30
0.0
  0
VERTEX
  5
676
100
AcDbEntity
  8
0
100
AcDbVertex
100
AcDb2dVertex
 10
304.4897527664
 20
244.772730075
 30
0.0
  0
VERTEX
  5
677
100
AcDbEntity
  8
0
100
AcDbVertex
100
AcDb2dVertex
 10
305.4257233275
 20
245.2644189367
 30
0.0
  0
VERTEX
  5
678
100
AcDbEntity
  8
0
100
AcDbVertex
100
AcDb2dVertex
 10
306.4165046532
 20
245.6675974066
 30
0.0
  0
VERTEX
  5
679
100
AcDbEntity
  8
0
100
AcDbVertex
100
AcDb2dVertex
 10
307.4509770396
 20
245.9777405454
 30
0.0
  0
VERTEX
  5
67A
100
AcDbEntity
  8
0
100
AcDbVertex
100
AcDb2dVertex
 10
308.5175304304
 20
246.1913675651
 30
0.0
  0
VERTEX
  5
67B
100
AcDbEntity
  8
0
100
AcDbVertex
100
AcDb2dVertex
 10
309.6041947192
 20
246.3060808939
 30
0.0
  0
VERTEX
  5
67C
100
AcDbEntity
  8
0
100
AcDbVertex
100
AcDb2dVertex
 10
310.6987740913
 20
246.320593085
 30
0.0
  0
VERTEX
  5
67D
100
AcDbEntity
  8
0
100
AcDbVertex
100
AcDb2dVertex
 10
311.7889839
 20
246.2347412656
 30
0.0
  0
VERTEX
  5
67E
100
AcDbEntity
  8
0
100
AcDbVertex
100
AcDb2dVertex
 10
312.8625885388
 20
246.0494889651
 30
0.0
  0
VERTEX
  5
67F
100
AcDbEntity
  8
0
100
AcDbVertex
100
AcDb2dVertex
 10
313.9075387637
 20
245.766915301
 30
0.0
  0
VERTEX
  5
680
100
AcDbEntity
  8
0
100
AcDbVertex
100
AcDb2dVertex
 10
314.9121069242
 20
245.3901916445
 30
0.0
  0
SEQEND
  5
681
100
AcDbEntity
  8
0
  0
POLYLINE
  5
682
100
AcDbEntity
  8
0
370
        15
  6
Continuous
 62
         7
100
AcDb2dPolyline
 66
         1
 10
0.0
 20
0.0
 30
0.0
 70
       128
  0
VERTEX
  5
683
100
AcDbEntity
  8
0
100
AcDbVertex
100
AcDb2dVertex
 10
302.8235291082
 20
243.5468258345
 30
0.0
  0
VERTEX
  5
684
100
AcDbEntity
  8
0
100
AcDbVertex
100
AcDb2dVertex
 10
302.6751547794
 20
243.42492307
 30
0.0
  0
VERTEX
  5
685
100
AcDbEntity
  8
0
100
AcDbVertex
100
AcDb2dVertex
 10
302.5131807882
 20
243.3167805266
 30
0.0
  0
VERTEX
  5
686
100
AcDbEntity
  8
0
100
AcDbVertex
100
AcDb2dVertex
 10
302.3393009231
 20
243.2235290684
 30
0.0
  0
VERTEX
  5
687
100
AcDbEntity
  8
0
100
AcDbVertex
100
AcDb2dVertex
 10
302.1553334742
 20
243.1461438413
 30
0.0
  0
VERTEX
  5
688
100
AcDbEntity
  8
0
100
AcDbVertex
100
AcDb2dVertex
 10
301.9632022192
 20
243.0854340751
 30
0.0
  0
VERTEX
  5
689
100
AcDbEntity
  8
0
100
AcDbVertex
100
AcDb2dVertex
 10
301.764916306
 20
243.0420346219
 30
0.0
  0
VERTEX
  5
68A
100
AcDbEntity
  8
0
100
AcDbVertex
100
AcDb2dVertex
 10
301.5625492428
 20
243.0163993167
 30
0.0
  0
VERTEX
  5
68B
100
AcDbEntity
  8
0
100
AcDbVertex
100
AcDb2dVertex
 10
301.358217215
 20
243.0087962322
 30
0.0
  0
SEQEND
  5
68C
100
AcDbEntity
  8
0
  0
LINE
  5
68D
100
AcDbEntity
  8
0
370
        15
  6
Continuous
 62
         7
100
AcDbLine
 10
275.2925539804
 20
224.5836203823
 30
0.0
 11
275.2925539804
 21
219.5836203823
 31
0.0
  0
LINE
  5
68E
100
AcDbEntity
  8
0
370
        15
  6
Continuous
 62
         7
100
AcDbLine
 10
371.8851366093
 20
202.1692335781
 30
0.0
 11
371.8851366093
 21
197.1692335781
 31
0.0
  0
LINE
  5
68F
100
AcDbEntity
  8
0
370
        15
  6
Continuous
 62
         7
100
AcDbLine
 10
275.2925539804
 20
219.5836203823
 30
0.0
 11
371.8851366093
 21
197.1692335781
 31
0.0
  0
LINE
  5
690
100
AcDbEntity
  8
0
370
        15
  6
Continuous
 62
         7
100
AcDbLine
 10
383.9633587141
 20
241.2066610858
 30
0.0
 11
383.9633587141
 21
236.2066610858
 31
0.0
  0
LINE
  5
691
100
AcDbEntity
  8
0
370
        15
  6
Continuous
 62
         7
100
AcDbLine
 10
371.8851366093
 20
197.1692335781
 30
0.0
 11
383.9633587141
 21
236.2066610858
 31
0.0
  0
POLYLINE
  5
692
100
AcDbEntity
  8
0
370
        15
  6
Continuous
 62
         7
100
AcDb2dPolyline
 66
         1
 10
0.0
 20
0.0
 30
0.0
 70
       128
  0
VERTEX
  5
693
100
AcDbEntity
  8
0
100
AcDbVertex
100
AcDb2dVertex
 10
357.0608770735
 20
224.7541580261
 30
0.0
  0
VERTEX
  5
694
100
AcDbEntity
  8
0
100
AcDbVertex
100
AcDb2dVertex
 10
357.2696357184
 20
224.9052961229
 30
0.0
  0
VERTEX
  5
695
100
AcDbEntity
  8
0
100
AcDbVertex
100
AcDb2dVertex
 10
357.7059740812
 20
225.1234653043
 30
0.0
  0
VERTEX
  5
696
100
AcDbEntity
  8
0
100
AcDbVertex
100
AcDb2dVertex
 10
358.1874300198
 20
225.2520782946
 30
0.0
  0
VERTEX
  5
697
100
AcDbEntity
  8
0
100
AcDbVertex
100
AcDb2dVertex
 10
358.689861323
 20
225.2846859013
 30
0.0
  0
VERTEX
  5
698
100
AcDbEntity
  8
0
100
AcDbVertex
100
AcDb2dVertex
 10
359.1880739874
 20
225.2196530429
 30
0.0
  0
VERTEX
  5
699
100
AcDbEntity
  8
0
100
AcDbVertex
100
AcDb2dVertex
 10
359.6570855495
 20
225.0602407384
 30
0.0
  0
VERTEX
  5
69A
100
AcDbEntity
  8
0
100
AcDbVertex
100
AcDb2dVertex
 10
360.0733778113
 20
224.8144425865
 30
0.0
  0
VERTEX
  5
69B
100
AcDbEntity
  8
0
100
AcDbVertex
100
AcDb2dVertex
 10
360.1505851983
 20
224.7541580261
 30
0.0
  0
SEQEND
  5
69C
100
AcDbEntity
  8
0
  0
POLYLINE
  5
69D
100
AcDbEntity
  8
0
370
        15
  6
Continuous
 62
         7
100
AcDb2dPolyline
 66
         1
 10
0.0
 20
0.0
 30
0.0
 70
       128
  0
VERTEX
  5
69E
100
AcDbEntity
  8
0
100
AcDbVertex
100
AcDb2dVertex
 10
300.3672285155
 20
238.1501337257
 30
0.0
  0
VERTEX
  5
69F
100
AcDbEntity
  8
0
100
AcDbVertex
100
AcDb2dVertex
 10
300.3282062831
 20
238.0275047313
 30
0.0
  0
VERTEX
  5
6A0
100
AcDbEntity
  8
0
100
AcDbVertex
100
AcDb2dVertex
 10
300.1042410802
 20
237.1162615041
 30
0.0
  0
VERTEX
  5
6A1
100
AcDbEntity
  8
0
100
AcDbVertex
100
AcDb2dVertex
 10
299.9908850919
 20
236.1897911359
 30
0.0
  0
VERTEX
  5
6A2
100
AcDbEntity
  8
0
100
AcDbVertex
100
AcDb2dVertex
 10
299.9801395332
 20
235.9613514283
 30
0.0
  0
SEQEND
  5
6A3
100
AcDbEntity
  8
0
  0
POLYLINE
  5
6A4
100
AcDbEntity
  8
0
370
        15
  6
Continuous
 62
         7
100
AcDb2dPolyline
 66
         1
 10
0.0
 20
0.0
 30
0.0
 70
       128
  0
VERTEX
  5
6A5
100
AcDbEntity
  8
0
100
AcDbVertex
100
AcDb2dVertex
 10
300.1626623402
 20
234.5185686916
 30
0.0
  0
VERTEX
  5
6A6
100
AcDbEntity
  8
0
100
AcDbVertex
100
AcDb2dVertex
 10
300.0196618734
 20
235.3905678582
 30
0.0
  0
VERTEX
  5
6A7
100
AcDbEntity
  8
0
100
AcDbVertex
100
AcDb2dVertex
 10
299.9772236225
 20
236.3429365631
 30
0.0
  0
VERTEX
  5
6A8
100
AcDbEntity
  8
0
100
AcDbVertex
100
AcDb2dVertex
 10
300.0519800428
 20
237.2938127444
 30
0.0
  0
VERTEX
  5
6A9
100
AcDbEntity
  8
0
100
AcDbVertex
100
AcDb2dVertex
 10
300.2430831987
 20
238.2324109501
 30
0.0
  0
VERTEX
  5
6AA
100
AcDbEntity
  8
0
100
AcDbVertex
100
AcDb2dVertex
 10
300.5483654746
 20
239.148084993
 30
0.0
  0
VERTEX
  5
6AB
100
AcDbEntity
  8
0
100
AcDbVertex
100
AcDb2dVertex
 10
300.9643641619
 20
240.0304487066
 30
0.0
  0
VERTEX
  5
6AC
100
AcDbEntity
  8
0
100
AcDbVertex
100
AcDb2dVertex
 10
301.4863607346
 20
240.8694937515
 30
0.0
  0
VERTEX
  5
6AD
100
AcDbEntity
  8
0
100
AcDbVertex
100
AcDb2dVertex
 10
302.1084343704
 20
241.6557031369
 30
0.0
  0
VERTEX
  5
6AE
100
AcDbEntity
  8
0
100
AcDbVertex
100
AcDb2dVertex
 10
302.8235291082
 20
242.3801591678
 30
0.0
  0
SEQEND
  5
6AF
100
AcDbEntity
  8
0
  0
LINE
  5
6B0
100
AcDbEntity
  8
0
370
        15
  6
Continuous
 62
         7
100
AcDbLine
 10
302.9765701273
 20
235.639938055
 30
0.0
 11
302.9761064881
 21
235.7113514282
 31
0.0
  0
POLYLINE
  5
6B1
100
AcDbEntity
  8
0
370
        15
  6
Continuous
 62
         7
100
AcDb2dPolyline
 66
         1
 10
0.0
 20
0.0
 30
0.0
 70
       128
  0
VERTEX
  5
6B2
100
AcDbEntity
  8
0
100
AcDbVertex
100
AcDb2dVertex
 10
308.7645857591
 20
235.9613514282
 30
0.0
  0
VERTEX
  5
6B3
100
AcDbEntity
  8
0
100
AcDbVertex
100
AcDb2dVertex
 10
308.9733444039
 20
236.112489525
 30
0.0
  0
VERTEX
  5
6B4
100
AcDbEntity
  8
0
100
AcDbVertex
100
AcDb2dVertex
 10
309.4096827667
 20
236.3306587064
 30
0.0
  0
VERTEX
  5
6B5
100
AcDbEntity
  8
0
100
AcDbVertex
100
AcDb2dVertex
 10
309.8911387053
 20
236.4592716967
 30
0.0
  0
VERTEX
  5
6B6
100
AcDbEntity
  8
0
100
AcDbVertex
100
AcDb2dVertex
 10
310.3935700086
 20
236.4918793034
 30
0.0
  0
VERTEX
  5
6B7
100
AcDbEntity
  8
0
100
AcDbVertex
100
AcDb2dVertex
 10
310.8917826729
 20
236.426846445
 30
0.0
  0
VERTEX
  5
6B8
100
AcDbEntity
  8
0
100
AcDbVertex
100
AcDb2dVertex
 10
311.3607942351
 20
236.2674341405
 30
0.0
  0
VERTEX
  5
6B9
100
AcDbEntity
  8
0
100
AcDbVertex
100
AcDb2dVertex
 10
311.7770864968
 20
236.0216359886
 30
0.0
  0
VERTEX
  5
6BA
100
AcDbEntity
  8
0
100
AcDbVertex
100
AcDb2dVertex
 10
311.8542938838
 20
235.9613514282
 30
0.0
  0
SEQEND
  5
6BB
100
AcDbEntity
  8
0
  0
POLYLINE
  5
6BC
100
AcDbEntity
  8
0
370
        15
  6
Continuous
 62
         7
100
AcDb2dPolyline
 66
         1
 10
0.0
 20
0.0
 30
0.0
 70
       128
  0
VERTEX
  5
6BD
100
AcDbEntity
  8
0
100
AcDbVertex
100
AcDb2dVertex
 10
295.8984446747
 20
241.8809642961
 30
0.0
  0
VERTEX
  5
6BE
100
AcDbEntity
  8
0
100
AcDbVertex
100
AcDb2dVertex
 10
295.1993267801
 20
241.8326884041
 30
0.0
  0
VERTEX
  5
6BF
100
AcDbEntity
  8
0
100
AcDbVertex
100
AcDb2dVertex
 10
294.5206912866
 20
241.6794065233
 30
0.0
  0
VERTEX
  5
6C0
100
AcDbEntity
  8
0
100
AcDbVertex
100
AcDb2dVertex
 10
293.8834008595
 20
241.4258308573
 30
0.0
  0
VERTEX
  5
6C1
100
AcDbEntity
  8
0
100
AcDbVertex
100
AcDb2dVertex
 10
293.3070471308
 20
241.079756849
 30
0.0
  0
VERTEX
  5
6C2
100
AcDbEntity
  8
0
100
AcDbVertex
100
AcDb2dVertex
 10
292.8093484116
 20
240.6518235324
 30
0.0
  0
VERTEX
  5
6C3
100
AcDbEntity
  8
0
100
AcDbVertex
100
AcDb2dVertex
 10
292.4056049948
 20
240.155186467
 30
0.0
  0
VERTEX
  5
6C4
100
AcDbEntity
  8
0
100
AcDbVertex
100
AcDb2dVertex
 10
292.1082287918
 20
239.6051133081
 30
0.0
  0
VERTEX
  5
6C5
100
AcDbEntity
  8
0
100
AcDbVertex
100
AcDb2dVertex
 10
291.9263617652
 20
239.0185144476
 30
0.0
  0
VERTEX
  5
6C6
100
AcDbEntity
  8
0
100
AcDbVertex
100
AcDb2dVertex
 10
291.9227135886
 20
239.0003128482
 30
0.0
  0
SEQEND
  5
6C7
100
AcDbEntity
  8
0
  0
LINE
  5
6C8
100
AcDbEntity
  8
0
370
        15
  6
Continuous
 62
         7
100
AcDbLine
 10
301.358217215
 20
241.8421295655
 30
0.0
 11
295.8984446747
 21
241.8809642961
 31
0.0
  0
POLYLINE
  5
6C9
100
AcDbEntity
  8
0
370
        15
  6
Continuous
 62
         7
100
AcDb2dPolyline
 66
         1
 10
0.0
 20
0.0
 30
0.0
 70
       128
  0
VERTEX
  5
6CA
100
AcDbEntity
  8
0
100
AcDbVertex
100
AcDb2dVertex
 10
302.8235291082
 20
242.3801591678
 30
0.0
  0
VERTEX
  5
6CB
100
AcDbEntity
  8
0
100
AcDbVertex
100
AcDb2dVertex
 10
302.6751547794
 20
242.2582564034
 30
0.0
  0
VERTEX
  5
6CC
100
AcDbEntity
  8
0
100
AcDbVertex
100
AcDb2dVertex
 10
302.5131807882
 20
242.1501138599
 30
0.0
  0
VERTEX
  5
6CD
100
AcDbEntity
  8
0
100
AcDbVertex
100
AcDb2dVertex
 10
302.3393009231
 20
242.0568624018
 30
0.0
  0
VERTEX
  5
6CE
100
AcDbEntity
  8
0
100
AcDbVertex
100
AcDb2dVertex
 10
302.1553334742
 20
241.9794771746
 30
0.0
  0
VERTEX
  5
6CF
100
AcDbEntity
  8
0
100
AcDbVertex
100
AcDb2dVertex
 10
301.9632022192
 20
241.9187674084
 30
0.0
  0
VERTEX
  5
6D0
100
AcDbEntity
  8
0
100
AcDbVertex
100
AcDb2dVertex
 10
301.764916306
 20
241.8753679552
 30
0.0
  0
VERTEX
  5
6D1
100
AcDbEntity
  8
0
100
AcDbVertex
100
AcDb2dVertex
 10
301.5625492428
 20
241.84973265
 30
0.0
  0
VERTEX
  5
6D2
100
AcDbEntity
  8
0
100
AcDbVertex
100
AcDb2dVertex
 10
301.358217215
 20
241.8421295655
 30
0.0
  0
SEQEND
  5
6D3
100
AcDbEntity
  8
0
  0
POLYLINE
  5
6D4
100
AcDbEntity
  8
0
  6
Continuous
 62
         7
100
AcDb2dPolyline
 66
         1
 10
0.0
 20
0.0
 30
0.0
 70
       128
  0
VERTEX
  5
6D5
100
AcDbEntity
  8
0
100
AcDbVertex
100
AcDb2dVertex
 10
357.9155470156
 20
223.9401145495
 30
0.0
  0
VERTEX
  5
6D6
100
AcDbEntity
  8
0
100
AcDbVertex
100
AcDb2dVertex
 10
356.9823673252
 20
224.3386536345
 30
0.0
  0
VERTEX
  5
6D7
100
AcDbEntity
  8
0
100
AcDbVertex
100
AcDb2dVertex
 10
356.2963300591
 20
225.0161241544
 30
0.0
  0
VERTEX
  5
6D8
100
AcDbEntity
  8
0
100
AcDbVertex
100
AcDb2dVertex
 10
355.9618781722
 20
225.8693873639
 30
0.0
  0
VERTEX
  5
6D9
100
AcDbEntity
  8
0
100
AcDbVertex
100
AcDb2dVertex
 10
356.0299289325
 20
226.7685416742
 30
0.0
  0
VERTEX
  5
6DA
100
AcDbEntity
  8
0
100
AcDbVertex
100
AcDb2dVertex
 10
356.4901222285
 20
227.5766989924
 30
0.0
  0
VERTEX
  5
6DB
100
AcDbEntity
  8
0
100
AcDbVertex
100
AcDb2dVertex
 10
357.2723978026
 20
228.1708246928
 30
0.0
  0
VERTEX
  5
6DC
100
AcDbEntity
  8
0
100
AcDbVertex
100
AcDb2dVertex
 10
358.25766129
 20
228.4604685232
 30
0.0
  0
VERTEX
  5
6DD
100
AcDbEntity
  8
0
100
AcDbVertex
100
AcDb2dVertex
 10
359.2959152562
 20
228.4015348361
 30
0.0
  0
VERTEX
  5
6DE
100
AcDbEntity
  8
0
100
AcDbVertex
100
AcDb2dVertex
 10
360.2290949466
 20
228.0029957511
 30
0.0
  0
VERTEX
  5
6DF
100
AcDbEntity
  8
0
100
AcDbVertex
100
AcDb2dVertex
 10
360.9151322127
 20
227.3255252312
 30
0.0
  0
VERTEX
  5
6E0
100
AcDbEntity
  8
0
100
AcDbVertex
100
AcDb2dVertex
 10
361.2495840996
 20
226.4722620216
 30
0.0
  0
VERTEX
  5
6E1
100
AcDbEntity
  8
0
100
AcDbVertex
100
AcDb2dVertex
 10
361.1815333393
 20
225.5731077113
 30
0.0
  0
VERTEX
  5
6E2
100
AcDbEntity
  8
0
100
AcDbVertex
100
AcDb2dVertex
 10
360.7213400433
 20
224.7649503931
 30
0.0
  0
VERTEX
  5
6E3
100
AcDbEntity
  8
0
100
AcDbVertex
100
AcDb2dVertex
 10
359.9390644692
 20
224.1708246928
 30
0.0
  0
VERTEX
  5
6E4
100
AcDbEntity
  8
0
100
AcDbVertex
100
AcDb2dVertex
 10
358.9538009818
 20
223.8811808624
 30
0.0
  0
VERTEX
  5
6E5
100
AcDbEntity
  8
0
100
AcDbVertex
100
AcDb2dVertex
 10
357.9155470156
 20
223.9401145495
 30
0.0
  0
SEQEND
  5
6E6
100
AcDbEntity
  8
0
  0
POLYLINE
  5
6E7
100
AcDbEntity
  8
0
  6
Continuous
 62
         7
100
AcDb2dPolyline
 66
         1
 10
0.0
 20
0.0
 30
0.0
 70
       128
  0
VERTEX
  5
6E8
100
AcDbEntity
  8
0
100
AcDbVertex
100
AcDb2dVertex
 10
309.6192557012
 20
235.1473079516
 30
0.0
  0
VERTEX
  5
6E9
100
AcDbEntity
  8
0
100
AcDbVertex
100
AcDb2dVertex
 10
308.6860760108
 20
235.5458470366
 30
0.0
  0
VERTEX
  5
6EA
100
AcDbEntity
  8
0
100
AcDbVertex
100
AcDb2dVertex
 10
308.0000387447
 20
236.2233175565
 30
0.0
  0
VERTEX
  5
6EB
100
AcDbEntity
  8
0
100
AcDbVertex
100
AcDb2dVertex
 10
307.6655868578
 20
237.076580766
 30
0.0
  0
VERTEX
  5
6EC
100
AcDbEntity
  8
0
100
AcDbVertex
100
AcDb2dVertex
 10
307.733637618
 20
237.9757350763
 30
0.0
  0
VERTEX
  5
6ED
100
AcDbEntity
  8
0
100
AcDbVertex
100
AcDb2dVertex
 10
308.193830914
 20
238.7838923945
 30
0.0
  0
VERTEX
  5
6EE
100
AcDbEntity
  8
0
100
AcDbVertex
100
AcDb2dVertex
 10
308.9761064881
 20
239.3780180949
 30
0.0
  0
VERTEX
  5
6EF
100
AcDbEntity
  8
0
100
AcDbVertex
100
AcDb2dVertex
 10
309.9613699755
 20
239.6676619253
 30
0.0
  0
VERTEX
  5
6F0
100
AcDbEntity
  8
0
100
AcDbVertex
100
AcDb2dVertex
 10
310.9996239417
 20
239.6087282382
 30
0.0
  0
VERTEX
  5
6F1
100
AcDbEntity
  8
0
100
AcDbVertex
100
AcDb2dVertex
 10
311.9328036321
 20
239.2101891532
 30
0.0
  0
VERTEX
  5
6F2
100
AcDbEntity
  8
0
100
AcDbVertex
100
AcDb2dVertex
 10
312.6188408982
 20
238.5327186333
 30
0.0
  0
VERTEX
  5
6F3
100
AcDbEntity
  8
0
100
AcDbVertex
100
AcDb2dVertex
 10
312.9532927851
 20
237.6794554237
 30
0.0
  0
VERTEX
  5
6F4
100
AcDbEntity
  8
0
100
AcDbVertex
100
AcDb2dVertex
 10
312.8852420249
 20
236.7803011134
 30
0.0
  0
VERTEX
  5
6F5
100
AcDbEntity
  8
0
100
AcDbVertex
100
AcDb2dVertex
 10
312.4250487289
 20
235.9721437952
 30
0.0
  0
VERTEX
  5
6F6
100
AcDbEntity
  8
0
100
AcDbVertex
100
AcDb2dVertex
 10
311.6427731548
 20
235.3780180949
 30
0.0
  0
VERTEX
  5
6F7
100
AcDbEntity
  8
0
100
AcDbVertex
100
AcDb2dVertex
 10
310.6575096674
 20
235.0883742645
 30
0.0
  0
VERTEX
  5
6F8
100
AcDbEntity
  8
0
100
AcDbVertex
100
AcDb2dVertex
 10
309.6192557012
 20
235.1473079516
 30
0.0
  0
SEQEND
  5
6F9
100
AcDbEntity
  8
0
  0
POLYLINE
  5
6FA
100
AcDbEntity
  8
0
  6
Continuous
 62
         7
100
AcDb2dPolyline
 66
         1
 10
0.0
 20
0.0
 30
0.0
 70
       128
  0
VERTEX
  5
6FB
100
AcDbEntity
  8
0
100
AcDbVertex
100
AcDb2dVertex
 10
282.9398816995
 20
226.9930706794
 30
0.0
  0
VERTEX
  5
6FC
100
AcDbEntity
  8
0
100
AcDbVertex
100
AcDb2dVertex
 10
282.2399969316
 20
227.2919749931
 30
0.0
  0
VERTEX
  5
6FD
100
AcDbEntity
  8
0
100
AcDbVertex
100
AcDb2dVertex
 10
281.7254689821
 20
227.8000778831
 30
0.0
  0
VERTEX
  5
6FE
100
AcDbEntity
  8
0
100
AcDbVertex
100
AcDb2dVertex
 10
281.4746300669
 20
228.4400252902
 30
0.0
  0
VERTEX
  5
6FF
100
AcDbEntity
  8
0
100
AcDbVertex
100
AcDb2dVertex
 10
281.5256681371
 20
229.1143910229
 30
0.0
  0
VERTEX
  5
700
100
AcDbEntity
  8
0
100
AcDbVertex
100
AcDb2dVertex
 10
281.8708131091
 20
229.7205090116
 30
0.0
  0
VERTEX
  5
701
100
AcDbEntity
  8
0
100
AcDbVertex
100
AcDb2dVertex
 10
282.4575197897
 20
230.1661032869
 30
0.0
  0
VERTEX
  5
702
100
AcDbEntity
  8
0
100
AcDbVertex
100
AcDb2dVertex
 10
283.1964674052
 20
230.3833361597
 30
0.0
  0
VERTEX
  5
703
100
AcDbEntity
  8
0
100
AcDbVertex
100
AcDb2dVertex
 10
283.9751578799
 20
230.3391358943
 30
0.0
  0
VERTEX
  5
704
100
AcDbEntity
  8
0
100
AcDbVertex
100
AcDb2dVertex
 10
284.6750426477
 20
230.0402315806
 30
0.0
  0
VERTEX
  5
705
100
AcDbEntity
  8
0
100
AcDbVertex
100
AcDb2dVertex
 10
285.1895705972
 20
229.5321286906
 30
0.0
  0
VERTEX
  5
706
100
AcDbEntity
  8
0
100
AcDbVertex
100
AcDb2dVertex
 10
285.4404095124
 20
228.8921812835
 30
0.0
  0
VERTEX
  5
707
100
AcDbEntity
  8
0
100
AcDbVertex
100
AcDb2dVertex
 10
285.3893714422
 20
228.2178155508
 30
0.0
  0
VERTEX
  5
708
100
AcDbEntity
  8
0
100
AcDbVertex
100
AcDb2dVertex
 10
285.0442264702
 20
227.6116975621
 30
0.0
  0
VERTEX
  5
709
100
AcDbEntity
  8
0
100
AcDbVertex
100
AcDb2dVertex
 10
284.4575197897
 20
227.1661032869
 30
0.0
  0
VERTEX
  5
70A
100
AcDbEntity
  8
0
100
AcDbVertex
100
AcDb2dVertex
 10
283.7185721741
 20
226.9488704141
 30
0.0
  0
VERTEX
  5
70B
100
AcDbEntity
  8
0
100
AcDbVertex
100
AcDb2dVertex
 10
282.9398816995
 20
226.9930706794
 30
0.0
  0
SEQEND
  5
70C
100
AcDbEntity
  8
0
  0
POLYLINE
  5
70D
100
AcDbEntity
  8
0
  6
Continuous
 62
         7
100
AcDb2dPolyline
 66
         1
 10
0.0
 20
0.0
 30
0.0
 70
       128
  0
VERTEX
  5
70E
100
AcDbEntity
  8
0
100
AcDbVertex
100
AcDb2dVertex
 10
375.2807548146
 20
235.4511455737
 30
0.0
  0
VERTEX
  5
70F
100
AcDbEntity
  8
0
100
AcDbVertex
100
AcDb2dVertex
 10
374.5808700468
 20
235.7500498874
 30
0.0
  0
VERTEX
  5
710
100
AcDbEntity
  8
0
100
AcDbVertex
100
AcDb2dVertex
 10
374.0663420972
 20
236.2581527774
 30
0.0
  0
VERTEX
  5
711
100
AcDbEntity
  8
0
100
AcDbVertex
100
AcDb2dVertex
 10
373.8155031821
 20
236.8981001845
 30
0.0
  0
VERTEX
  5
712
100
AcDbEntity
  8
0
100
AcDbVertex
100
AcDb2dVertex
 10
373.8665412522
 20
237.5724659172
 30
0.0
  0
VERTEX
  5
713
100
AcDbEntity
  8
0
100
AcDbVertex
100
AcDb2dVertex
 10
374.2116862242
 20
238.1785839059
 30
0.0
  0
VERTEX
  5
714
100
AcDbEntity
  8
0
100
AcDbVertex
100
AcDb2dVertex
 10
374.7983929048
 20
238.6241781811
 30
0.0
  0
VERTEX
  5
715
100
AcDbEntity
  8
0
100
AcDbVertex
100
AcDb2dVertex
 10
375.5373405204
 20
238.8414110539
 30
0.0
  0
VERTEX
  5
716
100
AcDbEntity
  8
0
100
AcDbVertex
100
AcDb2dVertex
 10
376.316030995
 20
238.7972107886
 30
0.0
  0
VERTEX
  5
717
100
AcDbEntity
  8
0
100
AcDbVertex
100
AcDb2dVertex
 10
377.0159157628
 20
238.4983064749
 30
0.0
  0
VERTEX
  5
718
100
AcDbEntity
  8
0
100
AcDbVertex
100
AcDb2dVertex
 10
377.5304437124
 20
237.9902035849
 30
0.0
  0
VERTEX
  5
719
100
AcDbEntity
  8
0
100
AcDbVertex
100
AcDb2dVertex
 10
377.7812826275
 20
237.3502561778
 30
0.0
  0
VERTEX
  5
71A
100
AcDbEntity
  8
0
100
AcDbVertex
100
AcDb2dVertex
 10
377.7302445574
 20
236.6758904451
 30
0.0
  0
VERTEX
  5
71B
100
AcDbEntity
  8
0
100
AcDbVertex
100
AcDb2dVertex
 10
377.3850995854
 20
236.0697724564
 30
0.0
  0
VERTEX
  5
71C
100
AcDbEntity
  8
0
100
AcDbVertex
100
AcDb2dVertex
 10
376.7983929048
 20
235.6241781811
 30
0.0
  0
VERTEX
  5
71D
100
AcDbEntity
  8
0
100
AcDbVertex
100
AcDb2dVertex
 10
376.0594452892
 20
235.4069453083
 30
0.0
  0
VERTEX
  5
71E
100
AcDbEntity
  8
0
100
AcDbVertex
100
AcDb2dVertex
 10
375.2807548146
 20
235.4511455737
 30
0.0
  0
SEQEND
  5
71F
100
AcDbEntity
  8
0
  0
LINE
  5
720
100
AcDbEntity
  8
0
370
        15
  6
Continuous
 62
         7
100
AcDbLine
 10
277.6891246345
 20
163.6307032
 30
0.0
 11
277.6891246345
 21
158.6307032
 31
0.0
  0
LINE
  5
721
100
AcDbEntity
  8
0
370
        15
  6
Continuous
 62
         7
100
AcDbLine
 10
277.6891246345
 20
163.6307032
 30
0.0
 11
301.0224579678
 21
198.6307032
 31
0.0
  0
LINE
  5
722
100
AcDbEntity
  8
0
370
        15
  6
Continuous
 62
         7
100
AcDbLine
 10
301.0224579678
 20
198.6307032
 30
0.0
 11
301.0224579678
 21
193.6307032
 31
0.0
  0
LINE
  5
723
100
AcDbEntity
  8
0
370
        15
  6
Continuous
 62
         7
100
AcDbLine
 10
277.6891246345
 20
158.6307032
 30
0.0
 11
301.0224579678
 21
193.6307032
 31
0.0
  0
LINE
  5
724
100
AcDbEntity
  8
0
370
        15
  6
Continuous
 62
         7
100
AcDbLine
 10
301.0224579678
 20
193.6307032
 30
0.0
 11
387.6249983463
 21
150.3294330108
 31
0.0
  0
LINE
  5
725
100
AcDbEntity
  8
0
370
        15
  6
Continuous
 62
         7
100
AcDbLine
 10
387.6249983463
 20
150.3294330108
 30
0.0
 11
364.2916650129
 21
115.3294330108
 31
0.0
  0
LINE
  5
726
100
AcDbEntity
  8
0
370
        15
  6
Continuous
 62
         7
100
AcDbLine
 10
364.2916650129
 20
115.3294330108
 30
0.0
 11
277.6891246345
 21
158.6307032
 31
0.0
  0
POLYLINE
  5
727
100
AcDbEntity
  8
0
370
        15
  6
Continuous
 62
         7
100
AcDb2dPolyline
 66
         1
 10
0.0
 20
0.0
 30
0.0
 70
       128
  0
VERTEX
  5
728
100
AcDbEntity
  8
0
100
AcDbVertex
100
AcDb2dVertex
 10
362.6848289877
 20
124.4661843567
 30
0.0
  0
VERTEX
  5
729
100
AcDbEntity
  8
0
100
AcDbVertex
100
AcDb2dVertex
 10
363.0300069563
 20
124.2368050829
 30
0.0
  0
VERTEX
  5
72A
100
AcDbEntity
  8
0
100
AcDbVertex
100
AcDb2dVertex
 10
363.2948713273
 20
123.9378721932
 30
0.0
  0
VERTEX
  5
72B
100
AcDbEntity
  8
0
100
AcDbVertex
100
AcDb2dVertex
 10
363.4613720315
 20
123.5897574701
 30
0.0
  0
VERTEX
  5
72C
100
AcDbEntity
  8
0
100
AcDbVertex
100
AcDb2dVertex
 10
363.518162321
 20
123.2161843567
 30
0.0
  0
VERTEX
  5
72D
100
AcDbEntity
  8
0
100
AcDbVertex
100
AcDb2dVertex
 10
363.4613720315
 20
122.8426112433
 30
0.0
  0
VERTEX
  5
72E
100
AcDbEntity
  8
0
100
AcDbVertex
100
AcDb2dVertex
 10
363.2948713273
 20
122.4944965202
 30
0.0
  0
VERTEX
  5
72F
100
AcDbEntity
  8
0
100
AcDbVertex
100
AcDb2dVertex
 10
363.0300069563
 20
122.1955636306
 30
0.0
  0
VERTEX
  5
730
100
AcDbEntity
  8
0
100
AcDbVertex
100
AcDb2dVertex
 10
362.6848289877
 20
121.9661843567
 30
0.0
  0
VERTEX
  5
731
100
AcDbEntity
  8
0
100
AcDbVertex
100
AcDb2dVertex
 10
362.2828607295
 20
121.8219905172
 30
0.0
  0
VERTEX
  5
732
100
AcDbEntity
  8
0
100
AcDbVertex
100
AcDb2dVertex
 10
361.8514956544
 20
121.7728086838
 30
0.0
  0
VERTEX
  5
733
100
AcDbEntity
  8
0
100
AcDbVertex
100
AcDb2dVertex
 10
361.4201305792
 20
121.8219905172
 30
0.0
  0
VERTEX
  5
734
100
AcDbEntity
  8
0
100
AcDbVertex
100
AcDb2dVertex
 10
361.018162321
 20
121.9661843567
 30
0.0
  0
VERTEX
  5
735
100
AcDbEntity
  8
0
100
AcDbVertex
100
AcDb2dVertex
 10
360.6729843524
 20
122.1955636306
 30
0.0
  0
VERTEX
  5
736
100
AcDbEntity
  8
0
100
AcDbVertex
100
AcDb2dVertex
 10
360.4081199814
 20
122.4944965202
 30
0.0
  0
VERTEX
  5
737
100
AcDbEntity
  8
0
100
AcDbVertex
100
AcDb2dVertex
 10
360.2416192772
 20
122.8426112433
 30
0.0
  0
VERTEX
  5
738
100
AcDbEntity
  8
0
100
AcDbVertex
100
AcDb2dVertex
 10
360.1848289877
 20
123.2161843567
 30
0.0
  0
VERTEX
  5
739
100
AcDbEntity
  8
0
100
AcDbVertex
100
AcDb2dVertex
 10
360.2416192772
 20
123.5897574701
 30
0.0
  0
VERTEX
  5
73A
100
AcDbEntity
  8
0
100
AcDbVertex
100
AcDb2dVertex
 10
360.4081199814
 20
123.9378721932
 30
0.0
  0
VERTEX
  5
73B
100
AcDbEntity
  8
0
100
AcDbVertex
100
AcDb2dVertex
 10
360.6729843524
 20
124.2368050829
 30
0.0
  0
VERTEX
  5
73C
100
AcDbEntity
  8
0
100
AcDbVertex
100
AcDb2dVertex
 10
361.018162321
 20
124.4661843567
 30
0.0
  0
VERTEX
  5
73D
100
AcDbEntity
  8
0
100
AcDbVertex
100
AcDb2dVertex
 10
361.4201305792
 20
124.6103781963
 30
0.0
  0
VERTEX
  5
73E
100
AcDbEntity
  8
0
100
AcDbVertex
100
AcDb2dVertex
 10
361.8514956544
 20
124.6595600297
 30
0.0
  0
VERTEX
  5
73F
100
AcDbEntity
  8
0
100
AcDbVertex
100
AcDb2dVertex
 10
362.2828607295
 20
124.6103781963
 30
0.0
  0
VERTEX
  5
740
100
AcDbEntity
  8
0
100
AcDbVertex
100
AcDb2dVertex
 10
362.6848289877
 20
124.4661843567
 30
0.0
  0
SEQEND
  5
741
100
AcDbEntity
  8
0
  0
POLYLINE
  5
742
100
AcDbEntity
  8
0
370
        15
  6
Continuous
 62
         7
100
AcDb2dPolyline
 66
         1
 10
0.0
 20
0.0
 30
0.0
 70
       128
  0
VERTEX
  5
743
100
AcDbEntity
  8
0
100
AcDbVertex
100
AcDb2dVertex
 10
304.2959606597
 20
186.9939518541
 30
0.0
  0
VERTEX
  5
744
100
AcDbEntity
  8
0
100
AcDbVertex
100
AcDb2dVertex
 10
304.6411386284
 20
186.7645725802
 30
0.0
  0
VERTEX
  5
745
100
AcDbEntity
  8
0
100
AcDbVertex
100
AcDb2dVertex
 10
304.9060029994
 20
186.4656396905
 30
0.0
  0
VERTEX
  5
746
100
AcDbEntity
  8
0
100
AcDbVertex
100
AcDb2dVertex
 10
305.0725037035
 20
186.1175249675
 30
0.0
  0
VERTEX
  5
747
100
AcDbEntity
  8
0
100
AcDbVertex
100
AcDb2dVertex
 10
305.129293993
 20
185.7439518541
 30
0.0
  0
VERTEX
  5
748
100
AcDbEntity
  8
0
100
AcDbVertex
100
AcDb2dVertex
 10
305.0725037035
 20
185.3703787407
 30
0.0
  0
VERTEX
  5
749
100
AcDbEntity
  8
0
100
AcDbVertex
100
AcDb2dVertex
 10
304.9060029994
 20
185.0222640176
 30
0.0
  0
VERTEX
  5
74A
100
AcDbEntity
  8
0
100
AcDbVertex
100
AcDb2dVertex
 10
304.6411386284
 20
184.7233311279
 30
0.0
  0
VERTEX
  5
74B
100
AcDbEntity
  8
0
100
AcDbVertex
100
AcDb2dVertex
 10
304.2959606597
 20
184.4939518541
 30
0.0
  0
VERTEX
  5
74C
100
AcDbEntity
  8
0
100
AcDbVertex
100
AcDb2dVertex
 10
303.8939924015
 20
184.3497580145
 30
0.0
  0
VERTEX
  5
74D
100
AcDbEntity
  8
0
100
AcDbVertex
100
AcDb2dVertex
 10
303.4626273264
 20
184.3005761811
 30
0.0
  0
VERTEX
  5
74E
100
AcDbEntity
  8
0
100
AcDbVertex
100
AcDb2dVertex
 10
303.0312622512
 20
184.3497580145
 30
0.0
  0
VERTEX
  5
74F
100
AcDbEntity
  8
0
100
AcDbVertex
100
AcDb2dVertex
 10
302.629293993
 20
184.4939518541
 30
0.0
  0
VERTEX
  5
750
100
AcDbEntity
  8
0
100
AcDbVertex
100
AcDb2dVertex
 10
302.2841160244
 20
184.7233311279
 30
0.0
  0
VERTEX
  5
751
100
AcDbEntity
  8
0
100
AcDbVertex
100
AcDb2dVertex
 10
302.0192516534
 20
185.0222640176
 30
0.0
  0
VERTEX
  5
752
100
AcDbEntity
  8
0
100
AcDbVertex
100
AcDb2dVertex
 10
301.8527509492
 20
185.3703787407
 30
0.0
  0
VERTEX
  5
753
100
AcDbEntity
  8
0
100
AcDbVertex
100
AcDb2dVertex
 10
301.7959606597
 20
185.7439518541
 30
0.0
  0
VERTEX
  5
754
100
AcDbEntity
  8
0
100
AcDbVertex
100
AcDb2dVertex
 10
301.8527509492
 20
186.1175249675
 30
0.0
  0
VERTEX
  5
755
100
AcDbEntity
  8
0
100
AcDbVertex
100
AcDb2dVertex
 10
302.0192516534
 20
186.4656396905
 30
0.0
  0
VERTEX
  5
756
100
AcDbEntity
  8
0
100
AcDbVertex
100
AcDb2dVertex
 10
302.2841160244
 20
186.7645725802
 30
0.0
  0
VERTEX
  5
757
100
AcDbEntity
  8
0
100
AcDbVertex
100
AcDb2dVertex
 10
302.629293993
 20
186.9939518541
 30
0.0
  0
VERTEX
  5
758
100
AcDbEntity
  8
0
100
AcDbVertex
100
AcDb2dVertex
 10
303.0312622512
 20
187.1381456936
 30
0.0
  0
VERTEX
  5
759
100
AcDbEntity
  8
0
100
AcDbVertex
100
AcDb2dVertex
 10
303.4626273264
 20
187.187327527
 30
0.0
  0
VERTEX
  5
75A
100
AcDbEntity
  8
0
100
AcDbVertex
100
AcDb2dVertex
 10
303.8939924015
 20
187.1381456936
 30
0.0
  0
VERTEX
  5
75B
100
AcDbEntity
  8
0
100
AcDbVertex
100
AcDb2dVertex
 10
304.2959606597
 20
186.9939518541
 30
0.0
  0
SEQEND
  5
75C
100
AcDbEntity
  8
0
  0
POLYLINE
  5
75D
100
AcDbEntity
  8
0
370
        15
  6
Continuous
 62
         7
100
AcDb2dPolyline
 66
         1
 10
0.0
 20
0.0
 30
0.0
 70
       128
  0
VERTEX
  5
75E
100
AcDbEntity
  8
0
100
AcDbVertex
100
AcDb2dVertex
 10
318.6282200813
 20
168.0778221432
 30
0.0
  0
VERTEX
  5
75F
100
AcDbEntity
  8
0
100
AcDbVertex
100
AcDb2dVertex
 10
319.3442328223
 20
167.6634944435
 30
0.0
  0
VERTEX
  5
760
100
AcDbEntity
  8
0
100
AcDbVertex
100
AcDb2dVertex
 10
319.9916730575
 20
167.1717740116
 30
0.0
  0
VERTEX
  5
761
100
AcDbEntity
  8
0
100
AcDbVertex
100
AcDb2dVertex
 10
320.5594629049
 20
166.6110743205
 30
0.0
  0
VERTEX
  5
762
100
AcDbEntity
  8
0
100
AcDbVertex
100
AcDb2dVertex
 10
321.0378873229
 20
165.9909890974
 30
0.0
  0
VERTEX
  5
763
100
AcDbEntity
  8
0
100
AcDbVertex
100
AcDb2dVertex
 10
321.418760337
 20
165.3221281723
 30
0.0
  0
VERTEX
  5
764
100
AcDbEntity
  8
0
100
AcDbVertex
100
AcDb2dVertex
 10
321.6955651044
 20
164.6159359412
 30
0.0
  0
VERTEX
  5
765
100
AcDbEntity
  8
0
100
AcDbVertex
100
AcDb2dVertex
 10
321.8635654187
 20
163.8844955489
 30
0.0
  0
VERTEX
  5
766
100
AcDbEntity
  8
0
100
AcDbVertex
100
AcDb2dVertex
 10
321.919886748
 20
163.1403221432
 30
0.0
  0
VERTEX
  5
767
100
AcDbEntity
  8
0
100
AcDbVertex
100
AcDb2dVertex
 10
321.8635654187
 20
162.3961487376
 30
0.0
  0
VERTEX
  5
768
100
AcDbEntity
  8
0
100
AcDbVertex
100
AcDb2dVertex
 10
321.6955651044
 20
161.6647083453
 30
0.0
  0
VERTEX
  5
769
100
AcDbEntity
  8
0
100
AcDbVertex
100
AcDb2dVertex
 10
321.418760337
 20
160.9585161142
 30
0.0
  0
VERTEX
  5
76A
100
AcDbEntity
  8
0
100
AcDbVertex
100
AcDb2dVertex
 10
321.0378873229
 20
160.2896551891
 30
0.0
  0
VERTEX
  5
76B
100
AcDbEntity
  8
0
100
AcDbVertex
100
AcDb2dVertex
 10
320.5594629049
 20
159.669569966
 30
0.0
  0
VERTEX
  5
76C
100
AcDbEntity
  8
0
100
AcDbVertex
100
AcDb2dVertex
 10
319.9916730575
 20
159.1088702749
 30
0.0
  0
VERTEX
  5
76D
100
AcDbEntity
  8
0
100
AcDbVertex
100
AcDb2dVertex
 10
319.3442328223
 20
158.617149843
 30
0.0
  0
VERTEX
  5
76E
100
AcDbEntity
  8
0
100
AcDbVertex
100
AcDb2dVertex
 10
318.6282200813
 20
158.2028221432
 30
0.0
  0
VERTEX
  5
76F
100
AcDbEntity
  8
0
100
AcDbVertex
100
AcDb2dVertex
 10
317.8558860111
 20
157.8729764374
 30
0.0
  0
VERTEX
  5
770
100
AcDbEntity
  8
0
100
AcDbVertex
100
AcDb2dVertex
 10
317.0404454616
 20
157.633256477
 30
0.0
  0
VERTEX
  5
771
100
AcDbEntity
  8
0
100
AcDbVertex
100
AcDb2dVertex
 10
316.1958508468
 20
157.4877639369
 30
0.0
  0
VERTEX
  5
772
100
AcDbEntity
  8
0
100
AcDbVertex
100
AcDb2dVertex
 10
315.3365534147
 20
157.438988235
 30
0.0
  0
VERTEX
  5
773
100
AcDbEntity
  8
0
100
AcDbVertex
100
AcDb2dVertex
 10
314.4772559826
 20
157.4877639369
 30
0.0
  0
VERTEX
  5
774
100
AcDbEntity
  8
0
100
AcDbVertex
100
AcDb2dVertex
 10
313.6326613678
 20
157.633256477
 30
0.0
  0
VERTEX
  5
775
100
AcDbEntity
  8
0
100
AcDbVertex
100
AcDb2dVertex
 10
312.8172208183
 20
157.8729764374
 30
0.0
  0
VERTEX
  5
776
100
AcDbEntity
  8
0
100
AcDbVertex
100
AcDb2dVertex
 10
312.044886748
 20
158.2028221432
 30
0.0
  0
VERTEX
  5
777
100
AcDbEntity
  8
0
100
AcDbVertex
100
AcDb2dVertex
 10
311.328874007
 20
158.617149843
 30
0.0
  0
VERTEX
  5
778
100
AcDbEntity
  8
0
100
AcDbVertex
100
AcDb2dVertex
 10
310.6814337719
 20
159.1088702749
 30
0.0
  0
VERTEX
  5
779
100
AcDbEntity
  8
0
100
AcDbVertex
100
AcDb2dVertex
 10
310.1136439244
 20
159.669569966
 30
0.0
  0
VERTEX
  5
77A
100
AcDbEntity
  8
0
100
AcDbVertex
100
AcDb2dVertex
 10
309.6352195064
 20
160.2896551891
 30
0.0
  0
VERTEX
  5
77B
100
AcDbEntity
  8
0
100
AcDbVertex
100
AcDb2dVertex
 10
309.2543464923
 20
160.9585161142
 30
0.0
  0
VERTEX
  5
77C
100
AcDbEntity
  8
0
100
AcDbVertex
100
AcDb2dVertex
 10
308.9775417249
 20
161.6647083453
 30
0.0
  0
VERTEX
  5
77D
100
AcDbEntity
  8
0
100
AcDbVertex
100
AcDb2dVertex
 10
308.8095414106
 20
162.3961487376
 30
0.0
  0
VERTEX
  5
77E
100
AcDbEntity
  8
0
100
AcDbVertex
100
AcDb2dVertex
 10
308.7532200813
 20
163.1403221432
 30
0.0
  0
VERTEX
  5
77F
100
AcDbEntity
  8
0
100
AcDbVertex
100
AcDb2dVertex
 10
308.8095414106
 20
163.8844955489
 30
0.0
  0
VERTEX
  5
780
100
AcDbEntity
  8
0
100
AcDbVertex
100
AcDb2dVertex
 10
308.9775417249
 20
164.6159359412
 30
0.0
  0
VERTEX
  5
781
100
AcDbEntity
  8
0
100
AcDbVertex
100
AcDb2dVertex
 10
309.2543464923
 20
165.3221281723
 30
0.0
  0
VERTEX
  5
782
100
AcDbEntity
  8
0
100
AcDbVertex
100
AcDb2dVertex
 10
309.6352195064
 20
165.9909890974
 30
0.0
  0
VERTEX
  5
783
100
AcDbEntity
  8
0
100
AcDbVertex
100
AcDb2dVertex
 10
310.1136439244
 20
166.6110743205
 30
0.0
  0
VERTEX
  5
784
100
AcDbEntity
  8
0
100
AcDbVertex
100
AcDb2dVertex
 10
310.6814337719
 20
167.1717740116
 30
0.0
  0
VERTEX
  5
785
100
AcDbEntity
  8
0
100
AcDbVertex
100
AcDb2dVertex
 10
311.328874007
 20
167.6634944435
 30
0.0
  0
VERTEX
  5
786
100
AcDbEntity
  8
0
100
AcDbVertex
100
AcDb2dVertex
 10
312.044886748
 20
168.0778221432
 30
0.0
  0
VERTEX
  5
787
100
AcDbEntity
  8
0
100
AcDbVertex
100
AcDb2dVertex
 10
312.8172208183
 20
168.4076678491
 30
0.0
  0
VERTEX
  5
788
100
AcDbEntity
  8
0
100
AcDbVertex
100
AcDb2dVertex
 10
313.6326613678
 20
168.6473878095
 30
0.0
  0
VERTEX
  5
789
100
AcDbEntity
  8
0
100
AcDbVertex
100
AcDb2dVertex
 10
314.4772559826
 20
168.7928803495
 30
0.0
  0
VERTEX
  5
78A
100
AcDbEntity
  8
0
100
AcDbVertex
100
AcDb2dVertex
 10
315.3365534147
 20
168.8416560515
 30
0.0
  0
VERTEX
  5
78B
100
AcDbEntity
  8
0
100
AcDbVertex
100
AcDb2dVertex
 10
316.1958508468
 20
168.7928803495
 30
0.0
  0
VERTEX
  5
78C
100
AcDbEntity
  8
0
100
AcDbVertex
100
AcDb2dVertex
 10
317.0404454616
 20
168.6473878095
 30
0.0
  0
VERTEX
  5
78D
100
AcDbEntity
  8
0
100
AcDbVertex
100
AcDb2dVertex
 10
317.8558860111
 20
168.4076678491
 30
0.0
  0
VERTEX
  5
78E
100
AcDbEntity
  8
0
100
AcDbVertex
100
AcDb2dVertex
 10
318.6282200813
 20
168.0778221432
 30
0.0
  0
SEQEND
  5
78F
100
AcDbEntity
  8
0
  0
POLYLINE
  5
790
100
AcDbEntity
  8
0
370
        15
  6
Continuous
 62
         7
100
AcDb2dPolyline
 66
         1
 10
0.0
 20
0.0
 30
0.0
 70
       128
  0
VERTEX
  5
791
100
AcDbEntity
  8
0
100
AcDbVertex
100
AcDb2dVertex
 10
361.9294902706
 20
146.4271870486
 30
0.0
  0
VERTEX
  5
792
100
AcDbEntity
  8
0
100
AcDbVertex
100
AcDb2dVertex
 10
362.6455030115
 20
146.0128593489
 30
0.0
  0
VERTEX
  5
793
100
AcDbEntity
  8
0
100
AcDbVertex
100
AcDb2dVertex
 10
363.2929432467
 20
145.521138917
 30
0.0
  0
VERTEX
  5
794
100
AcDbEntity
  8
0
100
AcDbVertex
100
AcDb2dVertex
 10
363.8607330942
 20
144.9604392259
 30
0.0
  0
VERTEX
  5
795
100
AcDbEntity
  8
0
100
AcDbVertex
100
AcDb2dVertex
 10
364.3391575122
 20
144.3403540027
 30
0.0
  0
VERTEX
  5
796
100
AcDbEntity
  8
0
100
AcDbVertex
100
AcDb2dVertex
 10
364.7200305263
 20
143.6714930777
 30
0.0
  0
VERTEX
  5
797
100
AcDbEntity
  8
0
100
AcDbVertex
100
AcDb2dVertex
 10
364.9968352936
 20
142.9653008466
 30
0.0
  0
VERTEX
  5
798
100
AcDbEntity
  8
0
100
AcDbVertex
100
AcDb2dVertex
 10
365.1648356079
 20
142.2338604542
 30
0.0
  0
VERTEX
  5
799
100
AcDbEntity
  8
0
100
AcDbVertex
100
AcDb2dVertex
 10
365.2211569372
 20
141.4896870486
 30
0.0
  0
VERTEX
  5
79A
100
AcDbEntity
  8
0
100
AcDbVertex
100
AcDb2dVertex
 10
365.1648356079
 20
140.745513643
 30
0.0
  0
VERTEX
  5
79B
100
AcDbEntity
  8
0
100
AcDbVertex
100
AcDb2dVertex
 10
364.9968352936
 20
140.0140732507
 30
0.0
  0
VERTEX
  5
79C
100
AcDbEntity
  8
0
100
AcDbVertex
100
AcDb2dVertex
 10
364.7200305263
 20
139.3078810196
 30
0.0
  0
VERTEX
  5
79D
100
AcDbEntity
  8
0
100
AcDbVertex
100
AcDb2dVertex
 10
364.3391575122
 20
138.6390200945
 30
0.0
  0
VERTEX
  5
79E
100
AcDbEntity
  8
0
100
AcDbVertex
100
AcDb2dVertex
 10
363.8607330942
 20
138.0189348714
 30
0.0
  0
VERTEX
  5
79F
100
AcDbEntity
  8
0
100
AcDbVertex
100
AcDb2dVertex
 10
363.2929432467
 20
137.4582351803
 30
0.0
  0
VERTEX
  5
7A0
100
AcDbEntity
  8
0
100
AcDbVertex
100
AcDb2dVertex
 10
362.6455030115
 20
136.9665147484
 30
0.0
  0
VERTEX
  5
7A1
100
AcDbEntity
  8
0
100
AcDbVertex
100
AcDb2dVertex
 10
361.9294902706
 20
136.5521870486
 30
0.0
  0
VERTEX
  5
7A2
100
AcDbEntity
  8
0
100
AcDbVertex
100
AcDb2dVertex
 10
361.1571562003
 20
136.2223413428
 30
0.0
  0
VERTEX
  5
7A3
100
AcDbEntity
  8
0
100
AcDbVertex
100
AcDb2dVertex
 10
360.3417156508
 20
135.9826213824
 30
0.0
  0
VERTEX
  5
7A4
100
AcDbEntity
  8
0
100
AcDbVertex
100
AcDb2dVertex
 10
359.497121036
 20
135.8371288423
 30
0.0
  0
VERTEX
  5
7A5
100
AcDbEntity
  8
0
100
AcDbVertex
100
AcDb2dVertex
 10
358.6378236039
 20
135.7883531404
 30
0.0
  0
VERTEX
  5
7A6
100
AcDbEntity
  8
0
100
AcDbVertex
100
AcDb2dVertex
 10
357.7785261718
 20
135.8371288423
 30
0.0
  0
VERTEX
  5
7A7
100
AcDbEntity
  8
0
100
AcDbVertex
100
AcDb2dVertex
 10
356.933931557
 20
135.9826213824
 30
0.0
  0
VERTEX
  5
7A8
100
AcDbEntity
  8
0
100
AcDbVertex
100
AcDb2dVertex
 10
356.1184910075
 20
136.2223413428
 30
0.0
  0
VERTEX
  5
7A9
100
AcDbEntity
  8
0
100
AcDbVertex
100
AcDb2dVertex
 10
355.3461569372
 20
136.5521870486
 30
0.0
  0
VERTEX
  5
7AA
100
AcDbEntity
  8
0
100
AcDbVertex
100
AcDb2dVertex
 10
354.6301441963
 20
136.9665147484
 30
0.0
  0
VERTEX
  5
7AB
100
AcDbEntity
  8
0
100
AcDbVertex
100
AcDb2dVertex
 10
353.9827039611
 20
137.4582351803
 30
0.0
  0
VERTEX
  5
7AC
100
AcDbEntity
  8
0
100
AcDbVertex
100
AcDb2dVertex
 10
353.4149141137
 20
138.0189348714
 30
0.0
  0
VERTEX
  5
7AD
100
AcDbEntity
  8
0
100
AcDbVertex
100
AcDb2dVertex
 10
352.9364896957
 20
138.6390200945
 30
0.0
  0
VERTEX
  5
7AE
100
AcDbEntity
  8
0
100
AcDbVertex
100
AcDb2dVertex
 10
352.5556166815
 20
139.3078810196
 30
0.0
  0
VERTEX
  5
7AF
100
AcDbEntity
  8
0
100
AcDbVertex
100
AcDb2dVertex
 10
352.2788119142
 20
140.0140732507
 30
0.0
  0
VERTEX
  5
7B0
100
AcDbEntity
  8
0
100
AcDbVertex
100
AcDb2dVertex
 10
352.1108115999
 20
140.745513643
 30
0.0
  0
VERTEX
  5
7B1
100
AcDbEntity
  8
0
100
AcDbVertex
100
AcDb2dVertex
 10
352.0544902706
 20
141.4896870486
 30
0.0
  0
VERTEX
  5
7B2
100
AcDbEntity
  8
0
100
AcDbVertex
100
AcDb2dVertex
 10
352.1108115999
 20
142.2338604542
 30
0.0
  0
VERTEX
  5
7B3
100
AcDbEntity
  8
0
100
AcDbVertex
100
AcDb2dVertex
 10
352.2788119142
 20
142.9653008466
 30
0.0
  0
VERTEX
  5
7B4
100
AcDbEntity
  8
0
100
AcDbVertex
100
AcDb2dVertex
 10
352.5556166815
 20
143.6714930777
 30
0.0
  0
VERTEX
  5
7B5
100
AcDbEntity
  8
0
100
AcDbVertex
100
AcDb2dVertex
 10
352.9364896957
 20
144.3403540028
 30
0.0
  0
VERTEX
  5
7B6
100
AcDbEntity
  8
0
100
AcDbVertex
100
AcDb2dVertex
 10
353.4149141137
 20
144.9604392259
 30
0.0
  0
VERTEX
  5
7B7
100
AcDbEntity
  8
0
100
AcDbVertex
100
AcDb2dVertex
 10
353.9827039611
 20
145.521138917
 30
0.0
  0
VERTEX
  5
7B8
100
AcDbEntity
  8
0
100
AcDbVertex
100
AcDb2dVertex
 10
354.6301441963
 20
146.0128593489
 30
0.0
  0
VERTEX
  5
7B9
100
AcDbEntity
  8
0
100
AcDbVertex
100
AcDb2dVertex
 10
355.3461569372
 20
146.4271870486
 30
0.0
  0
VERTEX
  5
7BA
100
AcDbEntity
  8
0
100
AcDbVertex
100
AcDb2dVertex
 10
356.1184910075
 20
146.7570327545
 30
0.0
  0
VERTEX
  5
7BB
100
AcDbEntity
  8
0
100
AcDbVertex
100
AcDb2dVertex
 10
356.933931557
 20
146.9967527149
 30
0.0
  0
VERTEX
  5
7BC
100
AcDbEntity
  8
0
100
AcDbVertex
100
AcDb2dVertex
 10
357.7785261718
 20
147.1422452549
 30
0.0
  0
VERTEX
  5
7BD
100
AcDbEntity
  8
0
100
AcDbVertex
100
AcDb2dVertex
 10
358.6378236039
 20
147.1910209569
 30
0.0
  0
VERTEX
  5
7BE
100
AcDbEntity
  8
0
100
AcDbVertex
100
AcDb2dVertex
 10
359.497121036
 20
147.1422452549
 30
0.0
  0
VERTEX
  5
7BF
100
AcDbEntity
  8
0
100
AcDbVertex
100
AcDb2dVertex
 10
360.3417156508
 20
146.9967527149
 30
0.0
  0
VERTEX
  5
7C0
100
AcDbEntity
  8
0
100
AcDbVertex
100
AcDb2dVertex
 10
361.1571562003
 20
146.7570327545
 30
0.0
  0
VERTEX
  5
7C1
100
AcDbEntity
  8
0
100
AcDbVertex
100
AcDb2dVertex
 10
361.9294902706
 20
146.4271870486
 30
0.0
  0
SEQEND
  5
7C2
100
AcDbEntity
  8
0
  0
POLYLINE
  5
7C3
100
AcDbEntity
  8
0
370
        15
  6
Continuous
 62
         7
100
AcDb2dPolyline
 66
         1
 10
0.0
 20
0.0
 30
0.0
 70
       128
  0
VERTEX
  5
7C4
100
AcDbEntity
  8
0
100
AcDbVertex
100
AcDb2dVertex
 10
301.9056567651
 20
168.3007213617
 30
0.0
  0
VERTEX
  5
7C5
100
AcDbEntity
  8
0
100
AcDbVertex
100
AcDb2dVertex
 10
302.4285899727
 20
168.0972532576
 30
0.0
  0
VERTEX
  5
7C6
100
AcDbEntity
  8
0
100
AcDbVertex
100
AcDb2dVertex
 10
302.9881127332
 20
167.9891129114
 30
0.0
  0
VERTEX
  5
7C7
100
AcDbEntity
  8
0
100
AcDbVertex
100
AcDb2dVertex
 10
303.5613181189
 20
167.9807276013
 30
0.0
  0
VERTEX
  5
7C8
100
AcDbEntity
  8
0
100
AcDbVertex
100
AcDb2dVertex
 10
304.124739034
 20
168.0724406231
 30
0.0
  0
VERTEX
  5
7C9
100
AcDbEntity
  8
0
100
AcDbVertex
100
AcDb2dVertex
 10
304.6553089602
 20
168.2604972349
 30
0.0
  0
VERTEX
  5
7CA
100
AcDbEntity
  8
0
100
AcDbVertex
100
AcDb2dVertex
 10
305.1313063021
 20
168.5371983768
 30
0.0
  0
VERTEX
  5
7CB
100
AcDbEntity
  8
0
100
AcDbVertex
100
AcDb2dVertex
 10
305.5332436728
 20
168.8912158715
 30
0.0
  0
VERTEX
  5
7CC
100
AcDbEntity
  8
0
100
AcDbVertex
100
AcDb2dVertex
 10
305.8446657091
 20
169.3080562014
 30
0.0
  0
VERTEX
  5
7CD
100
AcDbEntity
  8
0
100
AcDbVertex
100
AcDb2dVertex
 10
306.0528227561
 20
169.7706538742
 30
0.0
  0
VERTEX
  5
7CE
100
AcDbEntity
  8
0
100
AcDbVertex
100
AcDb2dVertex
 10
306.14919284
 20
170.2600700869
 30
0.0
  0
VERTEX
  5
7CF
100
AcDbEntity
  8
0
100
AcDbVertex
100
AcDb2dVertex
 10
306.1298305582
 20
170.7562680823
 30
0.0
  0
VERTEX
  5
7D0
100
AcDbEntity
  8
0
100
AcDbVertex
100
AcDb2dVertex
 10
305.9955286048
 20
171.2389334561
 30
0.0
  0
VERTEX
  5
7D1
100
AcDbEntity
  8
0
100
AcDbVertex
100
AcDb2dVertex
 10
305.7517853175
 20
171.6883058312
 30
0.0
  0
VERTEX
  5
7D2
100
AcDbEntity
  8
0
100
AcDbVertex
100
AcDb2dVertex
 10
305.4085795751
 20
172.0859878498
 30
0.0
  0
VERTEX
  5
7D3
100
AcDbEntity
  8
0
100
AcDbVertex
100
AcDb2dVertex
 10
304.9799622611
 20
172.4156983633
 30
0.0
  0
VERTEX
  5
7D4
100
AcDbEntity
  8
0
100
AcDbVertex
100
AcDb2dVertex
 10
304.4834810187
 20
172.6639389845
 30
0.0
  0
VERTEX
  5
7D5
100
AcDbEntity
  8
0
100
AcDbVertex
100
AcDb2dVertex
 10
303.9394618482
 20
172.8205467132
 30
0.0
  0
VERTEX
  5
7D6
100
AcDbEntity
  8
0
100
AcDbVertex
100
AcDb2dVertex
 10
303.3701769585
 20
172.8791100107
 30
0.0
  0
VERTEX
  5
7D7
100
AcDbEntity
  8
0
100
AcDbVertex
100
AcDb2dVertex
 10
302.7989329397
 20
172.8372312886
 30
0.0
  0
VERTEX
  5
7D8
100
AcDbEntity
  8
0
100
AcDbVertex
100
AcDb2dVertex
 10
302.2491165892
 20
172.6966250668
 30
0.0
  0
VERTEX
  5
7D9
100
AcDbEntity
  8
0
100
AcDbVertex
100
AcDb2dVertex
 10
301.7432374529
 20
172.4630477805
 30
0.0
  0
VERTEX
  5
7DA
100
AcDbEntity
  8
0
100
AcDbVertex
100
AcDb2dVertex
 10
301.3020062822
 20
172.1460621112
 30
0.0
  0
VERTEX
  5
7DB
100
AcDbEntity
  8
0
100
AcDbVertex
100
AcDb2dVertex
 10
300.9434871329
 20
171.7586454895
 30
0.0
  0
VERTEX
  5
7DC
100
AcDbEntity
  8
0
100
AcDbVertex
100
AcDb2dVertex
 10
300.6823578211
 20
171.3166587974
 30
0.0
  0
VERTEX
  5
7DD
100
AcDbEntity
  8
0
100
AcDbVertex
100
AcDb2dVertex
 10
300.5293090117
 20
170.838197022
 30
0.0
  0
VERTEX
  5
7DE
100
AcDbEntity
  8
0
100
AcDbVertex
100
AcDb2dVertex
 10
300.4906065408
 20
170.3428484445
 30
0.0
  0
VERTEX
  5
7DF
100
AcDbEntity
  8
0
100
AcDbVertex
100
AcDb2dVertex
 10
300.5678348921
 20
169.8508926941
 30
0.0
  0
VERTEX
  5
7E0
100
AcDbEntity
  8
0
100
AcDbVertex
100
AcDb2dVertex
 10
300.7578323279
 20
169.3824704968
 30
0.0
  0
VERTEX
  5
7E1
100
AcDbEntity
  8
0
100
AcDbVertex
100
AcDb2dVertex
 10
301.0528203308
 20
168.9567591126
 30
0.0
  0
VERTEX
  5
7E2
100
AcDbEntity
  8
0
100
AcDbVertex
100
AcDb2dVertex
 10
301.4407220573
 20
168.5911872154
 30
0.0
  0
VERTEX
  5
7E3
100
AcDbEntity
  8
0
100
AcDbVertex
100
AcDb2dVertex
 10
301.9056567651
 20
168.3007213617
 30
0.0
  0
SEQEND
  5
7E4
100
AcDbEntity
  8
0
  0
LINE
  5
7E5
100
AcDbEntity
  8
0
370
        15
  6
Continuous
 62
         7
100
AcDbLine
 10
301.0224579678
 20
198.6307032
 30
0.0
 11
387.6249983463
 21
155.3294330108
 31
0.0
  0
LINE
  5
7E6
100
AcDbEntity
  8
0
370
        15
  6
Continuous
 62
         7
100
AcDbLine
 10
387.6249983463
 20
155.3294330108
 30
0.0
 11
387.6249983463
 21
150.3294330108
 31
0.0
  0
POLYLINE
  5
7E7
100
AcDbEntity
  8
0
370
        15
  6
Continuous
 62
         7
100
AcDb2dPolyline
 66
         1
 10
0.0
 20
0.0
 30
0.0
 70
       128
  0
VERTEX
  5
7E8
100
AcDbEntity
  8
0
100
AcDbVertex
100
AcDb2dVertex
 10
301.9056567651
 20
170.3007213617
 30
0.0
  0
VERTEX
  5
7E9
100
AcDbEntity
  8
0
100
AcDbVertex
100
AcDb2dVertex
 10
302.4285899727
 20
170.0972532576
 30
0.0
  0
VERTEX
  5
7EA
100
AcDbEntity
  8
0
100
AcDbVertex
100
AcDb2dVertex
 10
302.9881127332
 20
169.9891129114
 30
0.0
  0
VERTEX
  5
7EB
100
AcDbEntity
  8
0
100
AcDbVertex
100
AcDb2dVertex
 10
303.5613181189
 20
169.9807276013
 30
0.0
  0
VERTEX
  5
7EC
100
AcDbEntity
  8
0
100
AcDbVertex
100
AcDb2dVertex
 10
304.124739034
 20
170.0724406231
 30
0.0
  0
VERTEX
  5
7ED
100
AcDbEntity
  8
0
100
AcDbVertex
100
AcDb2dVertex
 10
304.6553089602
 20
170.2604972349
 30
0.0
  0
VERTEX
  5
7EE
100
AcDbEntity
  8
0
100
AcDbVertex
100
AcDb2dVertex
 10
305.1313063021
 20
170.5371983768
 30
0.0
  0
VERTEX
  5
7EF
100
AcDbEntity
  8
0
100
AcDbVertex
100
AcDb2dVertex
 10
305.5332436728
 20
170.8912158715
 30
0.0
  0
VERTEX
  5
7F0
100
AcDbEntity
  8
0
100
AcDbVertex
100
AcDb2dVertex
 10
305.8446657091
 20
171.3080562014
 30
0.0
  0
VERTEX
  5
7F1
100
AcDbEntity
  8
0
100
AcDbVertex
100
AcDb2dVertex
 10
305.9096858812
 20
171.4257213617
 30
0.0
  0
SEQEND
  5
7F2
100
AcDbEntity
  8
0
  0
POLYLINE
  5
7F3
100
AcDbEntity
  8
0
370
        15
  6
Continuous
 62
         7
100
AcDb2dPolyline
 66
         1
 10
0.0
 20
0.0
 30
0.0
 70
       128
  0
VERTEX
  5
7F4
100
AcDbEntity
  8
0
100
AcDbVertex
100
AcDb2dVertex
 10
300.7349609824
 20
171.4257213617
 30
0.0
  0
VERTEX
  5
7F5
100
AcDbEntity
  8
0
100
AcDbVertex
100
AcDb2dVertex
 10
300.7578323279
 20
171.3824704968
 30
0.0
  0
VERTEX
  5
7F6
100
AcDbEntity
  8
0
100
AcDbVertex
100
AcDb2dVertex
 10
301.0528203308
 20
170.9567591126
 30
0.0
  0
VERTEX
  5
7F7
100
AcDbEntity
  8
0
100
AcDbVertex
100
AcDb2dVertex
 10
301.4407220573
 20
170.5911872154
 30
0.0
  0
VERTEX
  5
7F8
100
AcDbEntity
  8
0
100
AcDbVertex
100
AcDb2dVertex
 10
301.9056567651
 20
170.3007213617
 30
0.0
  0
SEQEND
  5
7F9
100
AcDbEntity
  8
0
  0
POLYLINE
  5
7FA
100
AcDbEntity
  8
0
370
        15
  6
Continuous
 62
         7
100
AcDb2dPolyline
 66
         1
 10
0.0
 20
0.0
 30
0.0
 70
       128
  0
VERTEX
  5
7FB
100
AcDbEntity
  8
0
100
AcDbVertex
100
AcDb2dVertex
 10
316.4615534147
 20
166.9944888099
 30
0.0
  0
VERTEX
  5
7FC
100
AcDbEntity
  8
0
100
AcDbVertex
100
AcDb2dVertex
 10
315.9997525571
 20
167.1689770411
 30
0.0
  0
VERTEX
  5
7FD
100
AcDbEntity
  8
0
100
AcDbVertex
100
AcDb2dVertex
 10
315.5046961253
 20
167.2500974074
 30
0.0
  0
VERTEX
  5
7FE
100
AcDbEntity
  8
0
100
AcDbVertex
100
AcDb2dVertex
 10
315.0012083158
 20
167.2337821949
 30
0.0
  0
VERTEX
  5
7FF
100
AcDbEntity
  8
0
100
AcDbVertex
100
AcDb2dVertex
 10
314.5145361099
 20
167.1208495165
 30
0.0
  0
VERTEX
  5
800
100
AcDbEntity
  8
0
100
AcDbVertex
100
AcDb2dVertex
 10
314.069083284
 20
166.9169622882
 30
0.0
  0
VERTEX
  5
801
100
AcDbEntity
  8
0
100
AcDbVertex
100
AcDb2dVertex
 10
313.6871867031
 20
166.6323442671
 30
0.0
  0
VERTEX
  5
802
100
AcDbEntity
  8
0
100
AcDbVertex
100
AcDb2dVertex
 10
313.3879962562
 20
166.2812673892
 30
0.0
  0
VERTEX
  5
803
100
AcDbEntity
  8
0
100
AcDbVertex
100
AcDb2dVertex
 10
313.1865146017
 20
165.881336115
 30
0.0
  0
VERTEX
  5
804
100
AcDbEntity
  8
0
100
AcDbVertex
100
AcDb2dVertex
 10
313.092844871
 20
165.4526046687
 30
0.0
  0
VERTEX
  5
805
100
AcDbEntity
  8
0
100
AcDbVertex
100
AcDb2dVertex
 10
313.1116840557
 20
165.0165714352
 30
0.0
  0
VERTEX
  5
806
100
AcDbEntity
  8
0
100
AcDbVertex
100
AcDb2dVertex
 10
313.2420874802
 20
164.5951009416
 30
0.0
  0
VERTEX
  5
807
100
AcDbEntity
  8
0
100
AcDbVertex
100
AcDb2dVertex
 10
313.4775161725
 20
164.2093274782
 30
0.0
  0
VERTEX
  5
808
100
AcDbEntity
  8
0
100
AcDbVertex
100
AcDb2dVertex
 10
313.8061647547
 20
163.8785953375
 30
0.0
  0
VERTEX
  5
809
100
AcDbEntity
  8
0
100
AcDbVertex
100
AcDb2dVertex
 10
314.2115534147
 20
163.6194888099
 30
0.0
  0
VERTEX
  5
80A
100
AcDbEntity
  8
0
100
AcDbVertex
100
AcDb2dVertex
 10
314.6733542723
 20
163.4450005787
 30
0.0
  0
VERTEX
  5
80B
100
AcDbEntity
  8
0
100
AcDbVertex
100
AcDb2dVertex
 10
315.1684107041
 20
163.3638802124
 30
0.0
  0
VERTEX
  5
80C
100
AcDbEntity
  8
0
100
AcDbVertex
100
AcDb2dVertex
 10
315.6718985136
 20
163.3801954249
 30
0.0
  0
VERTEX
  5
80D
100
AcDbEntity
  8
0
100
AcDbVertex
100
AcDb2dVertex
 10
316.1585707195
 20
163.4931281033
 30
0.0
  0
VERTEX
  5
80E
100
AcDbEntity
  8
0
100
AcDbVertex
100
AcDb2dVertex
 10
316.6040235453
 20
163.6970153316
 30
0.0
  0
VERTEX
  5
80F
100
AcDbEntity
  8
0
100
AcDbVertex
100
AcDb2dVertex
 10
316.9859201263
 20
163.9816333527
 30
0.0
  0
VERTEX
  5
810
100
AcDbEntity
  8
0
100
AcDbVertex
100
AcDb2dVertex
 10
317.2851105732
 20
164.3327102306
 30
0.0
  0
VERTEX
  5
811
100
AcDbEntity
  8
0
100
AcDbVertex
100
AcDb2dVertex
 10
317.4865922277
 20
164.7326415048
 30
0.0
  0
VERTEX
  5
812
100
AcDbEntity
  8
0
100
AcDbVertex
100
AcDb2dVertex
 10
317.5802619583
 20
165.1613729511
 30
0.0
  0
VERTEX
  5
813
100
AcDbEntity
  8
0
100
AcDbVertex
100
AcDb2dVertex
 10
317.5614227737
 20
165.5974061846
 30
0.0
  0
VERTEX
  5
814
100
AcDbEntity
  8
0
100
AcDbVertex
100
AcDb2dVertex
 10
317.4310193491
 20
166.0188766782
 30
0.0
  0
VERTEX
  5
815
100
AcDbEntity
  8
0
100
AcDbVertex
100
AcDb2dVertex
 10
317.1955906569
 20
166.4046501416
 30
0.0
  0
VERTEX
  5
816
100
AcDbEntity
  8
0
100
AcDbVertex
100
AcDb2dVertex
 10
316.8669420747
 20
166.7353822823
 30
0.0
  0
VERTEX
  5
817
100
AcDbEntity
  8
0
100
AcDbVertex
100
AcDb2dVertex
 10
316.4615534147
 20
166.9944888099
 30
0.0
  0
SEQEND
  5
818
100
AcDbEntity
  8
0
  0
POLYLINE
  5
819
100
AcDbEntity
  8
0
370
        15
  6
Continuous
 62
         7
100
AcDb2dPolyline
 66
         1
 10
0.0
 20
0.0
 30
0.0
 70
       128
  0
VERTEX
  5
81A
100
AcDbEntity
  8
0
100
AcDbVertex
100
AcDb2dVertex
 10
316.8814074771
 20
166.7236554766
 30
0.0
  0
VERTEX
  5
81B
100
AcDbEntity
  8
0
100
AcDbVertex
100
AcDb2dVertex
 10
316.6040235453
 20
166.5303486649
 30
0.0
  0
VERTEX
  5
81C
100
AcDbEntity
  8
0
100
AcDbVertex
100
AcDb2dVertex
 10
316.1585707195
 20
166.3264614366
 30
0.0
  0
VERTEX
  5
81D
100
AcDbEntity
  8
0
100
AcDbVertex
100
AcDb2dVertex
 10
315.6718985136
 20
166.2135287582
 30
0.0
  0
VERTEX
  5
81E
100
AcDbEntity
  8
0
100
AcDbVertex
100
AcDb2dVertex
 10
315.1684107041
 20
166.1972135457
 30
0.0
  0
VERTEX
  5
81F
100
AcDbEntity
  8
0
100
AcDbVertex
100
AcDb2dVertex
 10
314.6733542723
 20
166.278333912
 30
0.0
  0
VERTEX
  5
820
100
AcDbEntity
  8
0
100
AcDbVertex
100
AcDb2dVertex
 10
314.2115534147
 20
166.4528221432
 30
0.0
  0
VERTEX
  5
821
100
AcDbEntity
  8
0
100
AcDbVertex
100
AcDb2dVertex
 10
313.8061647547
 20
166.7119286708
 30
0.0
  0
VERTEX
  5
822
100
AcDbEntity
  8
0
100
AcDbVertex
100
AcDb2dVertex
 10
313.7916993523
 20
166.7236554766
 30
0.0
  0
SEQEND
  5
823
100
AcDbEntity
  8
0
  0
POLYLINE
  5
824
100
AcDbEntity
  8
0
370
        15
  6
Continuous
 62
         7
100
AcDb2dPolyline
 66
         1
 10
0.0
 20
0.0
 30
0.0
 70
       128
  0
VERTEX
  5
825
100
AcDbEntity
  8
0
100
AcDbVertex
100
AcDb2dVertex
 10
359.7628236039
 20
145.3438537153
 30
0.0
  0
VERTEX
  5
826
100
AcDbEntity
  8
0
100
AcDbVertex
100
AcDb2dVertex
 10
359.3010227463
 20
145.5183419465
 30
0.0
  0
VERTEX
  5
827
100
AcDbEntity
  8
0
100
AcDbVertex
100
AcDb2dVertex
 10
358.8059663145
 20
145.5994623128
 30
0.0
  0
VERTEX
  5
828
100
AcDbEntity
  8
0
100
AcDbVertex
100
AcDb2dVertex
 10
358.302478505
 20
145.5831471003
 30
0.0
  0
VERTEX
  5
829
100
AcDbEntity
  8
0
100
AcDbVertex
100
AcDb2dVertex
 10
357.8158062991
 20
145.4702144219
 30
0.0
  0
VERTEX
  5
82A
100
AcDbEntity
  8
0
100
AcDbVertex
100
AcDb2dVertex
 10
357.3703534733
 20
145.2663271936
 30
0.0
  0
VERTEX
  5
82B
100
AcDbEntity
  8
0
100
AcDbVertex
100
AcDb2dVertex
 10
356.9884568923
 20
144.9817091725
 30
0.0
  0
VERTEX
  5
82C
100
AcDbEntity
  8
0
100
AcDbVertex
100
AcDb2dVertex
 10
356.6892664454
 20
144.6306322946
 30
0.0
  0
VERTEX
  5
82D
100
AcDbEntity
  8
0
100
AcDbVertex
100
AcDb2dVertex
 10
356.4877847909
 20
144.2307010204
 30
0.0
  0
VERTEX
  5
82E
100
AcDbEntity
  8
0
100
AcDbVertex
100
AcDb2dVertex
 10
356.3941150602
 20
143.8019695741
 30
0.0
  0
VERTEX
  5
82F
100
AcDbEntity
  8
0
100
AcDbVertex
100
AcDb2dVertex
 10
356.4129542449
 20
143.3659363406
 30
0.0
  0
VERTEX
  5
830
100
AcDbEntity
  8
0
100
AcDbVertex
100
AcDb2dVertex
 10
356.5433576695
 20
142.944465847
 30
0.0
  0
VERTEX
  5
831
100
AcDbEntity
  8
0
100
AcDbVertex
100
AcDb2dVertex
 10
356.7787863617
 20
142.5586923836
 30
0.0
  0
VERTEX
  5
832
100
AcDbEntity
  8
0
100
AcDbVertex
100
AcDb2dVertex
 10
357.1074349439
 20
142.2279602429
 30
0.0
  0
VERTEX
  5
833
100
AcDbEntity
  8
0
100
AcDbVertex
100
AcDb2dVertex
 10
357.5128236039
 20
141.9688537153
 30
0.0
  0
VERTEX
  5
834
100
AcDbEntity
  8
0
100
AcDbVertex
100
AcDb2dVertex
 10
357.9746244615
 20
141.7943654841
 30
0.0
  0
VERTEX
  5
835
100
AcDbEntity
  8
0
100
AcDbVertex
100
AcDb2dVertex
 10
358.4696808933
 20
141.7132451178
 30
0.0
  0
VERTEX
  5
836
100
AcDbEntity
  8
0
100
AcDbVertex
100
AcDb2dVertex
 10
358.9731687028
 20
141.7295603303
 30
0.0
  0
VERTEX
  5
837
100
AcDbEntity
  8
0
100
AcDbVertex
100
AcDb2dVertex
 10
359.4598409087
 20
141.8424930087
 30
0.0
  0
VERTEX
  5
838
100
AcDbEntity
  8
0
100
AcDbVertex
100
AcDb2dVertex
 10
359.9052937345
 20
142.046380237
 30
0.0
  0
VERTEX
  5
839
100
AcDbEntity
  8
0
100
AcDbVertex
100
AcDb2dVertex
 10
360.2871903155
 20
142.3309982581
 30
0.0
  0
VERTEX
  5
83A
100
AcDbEntity
  8
0
100
AcDbVertex
100
AcDb2dVertex
 10
360.5863807624
 20
142.682075136
 30
0.0
  0
VERTEX
  5
83B
100
AcDbEntity
  8
0
100
AcDbVertex
100
AcDb2dVertex
 10
360.7878624169
 20
143.0820064102
 30
0.0
  0
VERTEX
  5
83C
100
AcDbEntity
  8
0
100
AcDbVertex
100
AcDb2dVertex
 10
360.8815321476
 20
143.5107378565
 30
0.0
  0
VERTEX
  5
83D
100
AcDbEntity
  8
0
100
AcDbVertex
100
AcDb2dVertex
 10
360.8626929629
 20
143.94677109
 30
0.0
  0
VERTEX
  5
83E
100
AcDbEntity
  8
0
100
AcDbVertex
100
AcDb2dVertex
 10
360.7322895384
 20
144.3682415836
 30
0.0
  0
VERTEX
  5
83F
100
AcDbEntity
  8
0
100
AcDbVertex
100
AcDb2dVertex
 10
360.4968608461
 20
144.754015047
 30
0.0
  0
VERTEX
  5
840
100
AcDbEntity
  8
0
100
AcDbVertex
100
AcDb2dVertex
 10
360.1682122639
 20
145.0847471877
 30
0.0
  0
VERTEX
  5
841
100
AcDbEntity
  8
0
100
AcDbVertex
100
AcDb2dVertex
 10
359.7628236039
 20
145.3438537153
 30
0.0
  0
SEQEND
  5
842
100
AcDbEntity
  8
0
  0
POLYLINE
  5
843
100
AcDbEntity
  8
0
370
        15
  6
Continuous
 62
         7
100
AcDb2dPolyline
 66
         1
 10
0.0
 20
0.0
 30
0.0
 70
       128
  0
VERTEX
  5
844
100
AcDbEntity
  8
0
100
AcDbVertex
100
AcDb2dVertex
 10
360.1826776663
 20
145.073020382
 30
0.0
  0
VERTEX
  5
845
100
AcDbEntity
  8
0
100
AcDbVertex
100
AcDb2dVertex
 10
359.9052937345
 20
144.8797135703
 30
0.0
  0
VERTEX
  5
846
100
AcDbEntity
  8
0
100
AcDbVertex
100
AcDb2dVertex
 10
359.4598409087
 20
144.675826342
 30
0.0
  0
VERTEX
  5
847
100
AcDbEntity
  8
0
100
AcDbVertex
100
AcDb2dVertex
 10
358.9731687028
 20
144.5628936636
 30
0.0
  0
VERTEX
  5
848
100
AcDbEntity
  8
0
100
AcDbVertex
100
AcDb2dVertex
 10
358.4696808933
 20
144.5465784511
 30
0.0
  0
VERTEX
  5
849
100
AcDbEntity
  8
0
100
AcDbVertex
100
AcDb2dVertex
 10
357.9746244615
 20
144.6276988174
 30
0.0
  0
VERTEX
  5
84A
100
AcDbEntity
  8
0
100
AcDbVertex
100
AcDb2dVertex
 10
357.5128236039
 20
144.8021870486
 30
0.0
  0
VERTEX
  5
84B
100
AcDbEntity
  8
0
100
AcDbVertex
100
AcDb2dVertex
 10
357.1074349439
 20
145.0612935762
 30
0.0
  0
VERTEX
  5
84C
100
AcDbEntity
  8
0
100
AcDbVertex
100
AcDb2dVertex
 10
357.0929695415
 20
145.073020382
 30
0.0
  0
SEQEND
  5
84D
100
AcDbEntity
  8
0
  0
POLYLINE
  5
84E
100
AcDbEntity
  8
0
  6
Continuous
 62
         7
100
AcDb2dPolyline
 66
         1
 10
0.0
 20
0.0
 30
0.0
 70
       128
  0
VERTEX
  5
84F
100
AcDbEntity
  8
0
100
AcDbVertex
100
AcDb2dVertex
 10
359.9711569372
 20
148.4896870486
 30
0.0
  0
VERTEX
  5
850
100
AcDbEntity
  8
0
100
AcDbVertex
100
AcDb2dVertex
 10
358.9858934498
 20
148.779330879
 30
0.0
  0
VERTEX
  5
851
100
AcDbEntity
  8
0
100
AcDbVertex
100
AcDb2dVertex
 10
357.9476394836
 20
148.7203971919
 30
0.0
  0
VERTEX
  5
852
100
AcDbEntity
  8
0
100
AcDbVertex
100
AcDb2dVertex
 10
357.0144597932
 20
148.3218581069
 30
0.0
  0
VERTEX
  5
853
100
AcDbEntity
  8
0
100
AcDbVertex
100
AcDb2dVertex
 10
356.3284225271
 20
147.644387587
 30
0.0
  0
VERTEX
  5
854
100
AcDbEntity
  8
0
100
AcDbVertex
100
AcDb2dVertex
 10
355.9939706402
 20
146.7911243775
 30
0.0
  0
VERTEX
  5
855
100
AcDbEntity
  8
0
100
AcDbVertex
100
AcDb2dVertex
 10
356.0620214005
 20
145.8919700672
 30
0.0
  0
VERTEX
  5
856
100
AcDbEntity
  8
0
100
AcDbVertex
100
AcDb2dVertex
 10
356.5222146965
 20
145.083812749
 30
0.0
  0
VERTEX
  5
857
100
AcDbEntity
  8
0
100
AcDbVertex
100
AcDb2dVertex
 10
357.3044902706
 20
144.4896870486
 30
0.0
  0
VERTEX
  5
858
100
AcDbEntity
  8
0
100
AcDbVertex
100
AcDb2dVertex
 10
358.289753758
 20
144.2000432182
 30
0.0
  0
VERTEX
  5
859
100
AcDbEntity
  8
0
100
AcDbVertex
100
AcDb2dVertex
 10
359.3280077242
 20
144.2589769053
 30
0.0
  0
VERTEX
  5
85A
100
AcDbEntity
  8
0
100
AcDbVertex
100
AcDb2dVertex
 10
360.2611874146
 20
144.6575159903
 30
0.0
  0
VERTEX
  5
85B
100
AcDbEntity
  8
0
100
AcDbVertex
100
AcDb2dVertex
 10
360.9472246807
 20
145.3349865102
 30
0.0
  0
VERTEX
  5
85C
100
AcDbEntity
  8
0
100
AcDbVertex
100
AcDb2dVertex
 10
361.2816765676
 20
146.1882497198
 30
0.0
  0
VERTEX
  5
85D
100
AcDbEntity
  8
0
100
AcDbVertex
100
AcDb2dVertex
 10
361.2136258073
 20
147.0874040301
 30
0.0
  0
VERTEX
  5
85E
100
AcDbEntity
  8
0
100
AcDbVertex
100
AcDb2dVertex
 10
360.7534325113
 20
147.8955613483
 30
0.0
  0
VERTEX
  5
85F
100
AcDbEntity
  8
0
100
AcDbVertex
100
AcDb2dVertex
 10
359.9711569372
 20
148.4896870486
 30
0.0
  0
SEQEND
  5
860
100
AcDbEntity
  8
0
  0
POLYLINE
  5
861
100
AcDbEntity
  8
0
  6
Continuous
 62
         7
100
AcDb2dPolyline
 66
         1
 10
0.0
 20
0.0
 30
0.0
 70
       128
  0
VERTEX
  5
862
100
AcDbEntity
  8
0
100
AcDbVertex
100
AcDb2dVertex
 10
316.669886748
 20
170.1403221432
 30
0.0
  0
VERTEX
  5
863
100
AcDbEntity
  8
0
100
AcDbVertex
100
AcDb2dVertex
 10
315.6846232606
 20
170.4299659736
 30
0.0
  0
VERTEX
  5
864
100
AcDbEntity
  8
0
100
AcDbVertex
100
AcDb2dVertex
 10
314.6463692944
 20
170.3710322865
 30
0.0
  0
VERTEX
  5
865
100
AcDbEntity
  8
0
100
AcDbVertex
100
AcDb2dVertex
 10
313.713189604
 20
169.9724932016
 30
0.0
  0
VERTEX
  5
866
100
AcDbEntity
  8
0
100
AcDbVertex
100
AcDb2dVertex
 10
313.0271523379
 20
169.2950226816
 30
0.0
  0
VERTEX
  5
867
100
AcDbEntity
  8
0
100
AcDbVertex
100
AcDb2dVertex
 10
312.692700451
 20
168.4417594721
 30
0.0
  0
VERTEX
  5
868
100
AcDbEntity
  8
0
100
AcDbVertex
100
AcDb2dVertex
 10
312.7607512112
 20
167.5426051618
 30
0.0
  0
VERTEX
  5
869
100
AcDbEntity
  8
0
100
AcDbVertex
100
AcDb2dVertex
 10
313.2209445072
 20
166.7344478436
 30
0.0
  0
VERTEX
  5
86A
100
AcDbEntity
  8
0
100
AcDbVertex
100
AcDb2dVertex
 10
314.0032200813
 20
166.1403221432
 30
0.0
  0
VERTEX
  5
86B
100
AcDbEntity
  8
0
100
AcDbVertex
100
AcDb2dVertex
 10
314.9884835688
 20
165.8506783128
 30
0.0
  0
VERTEX
  5
86C
100
AcDbEntity
  8
0
100
AcDbVertex
100
AcDb2dVertex
 10
316.026737535
 20
165.9096119999
 30
0.0
  0
VERTEX
  5
86D
100
AcDbEntity
  8
0
100
AcDbVertex
100
AcDb2dVertex
 10
316.9599172254
 20
166.3081510849
 30
0.0
  0
VERTEX
  5
86E
100
AcDbEntity
  8
0
100
AcDbVertex
100
AcDb2dVertex
 10
317.6459544914
 20
166.9856216049
 30
0.0
  0
VERTEX
  5
86F
100
AcDbEntity
  8
0
100
AcDbVertex
100
AcDb2dVertex
 10
317.9804063783
 20
167.8388848144
 30
0.0
  0
VERTEX
  5
870
100
AcDbEntity
  8
0
100
AcDbVertex
100
AcDb2dVertex
 10
317.9123556181
 20
168.7380391247
 30
0.0
  0
VERTEX
  5
871
100
AcDbEntity
  8
0
100
AcDbVertex
100
AcDb2dVertex
 10
317.4521623221
 20
169.5461964429
 30
0.0
  0
VERTEX
  5
872
100
AcDbEntity
  8
0
100
AcDbVertex
100
AcDb2dVertex
 10
316.669886748
 20
170.1403221432
 30
0.0
  0
SEQEND
  5
873
100
AcDbEntity
  8
0
  0
POLYLINE
  5
874
100
AcDbEntity
  8
0
  6
Continuous
 62
         7
100
AcDb2dPolyline
 66
         1
 10
0.0
 20
0.0
 30
0.0
 70
       128
  0
VERTEX
  5
875
100
AcDbEntity
  8
0
100
AcDbVertex
100
AcDb2dVertex
 10
304.4626273264
 20
192.243951854
 30
0.0
  0
VERTEX
  5
876
100
AcDbEntity
  8
0
100
AcDbVertex
100
AcDb2dVertex
 10
303.7236797108
 20
192.4611847268
 30
0.0
  0
VERTEX
  5
877
100
AcDbEntity
  8
0
100
AcDbVertex
100
AcDb2dVertex
 10
302.9449892362
 20
192.4169844615
 30
0.0
  0
VERTEX
  5
878
100
AcDbEntity
  8
0
100
AcDbVertex
100
AcDb2dVertex
 10
302.2451044684
 20
192.1180801478
 30
0.0
  0
VERTEX
  5
879
100
AcDbEntity
  8
0
100
AcDbVertex
100
AcDb2dVertex
 10
301.7305765188
 20
191.6099772578
 30
0.0
  0
VERTEX
  5
87A
100
AcDbEntity
  8
0
100
AcDbVertex
100
AcDb2dVertex
 10
301.4797376036
 20
190.9700298507
 30
0.0
  0
VERTEX
  5
87B
100
AcDbEntity
  8
0
100
AcDbVertex
100
AcDb2dVertex
 10
301.5307756738
 20
190.2956641179
 30
0.0
  0
VERTEX
  5
87C
100
AcDbEntity
  8
0
100
AcDbVertex
100
AcDb2dVertex
 10
301.8759206458
 20
189.6895461293
 30
0.0
  0
VERTEX
  5
87D
100
AcDbEntity
  8
0
100
AcDbVertex
100
AcDb2dVertex
 10
302.4626273264
 20
189.243951854
 30
0.0
  0
VERTEX
  5
87E
100
AcDbEntity
  8
0
100
AcDbVertex
100
AcDb2dVertex
 10
303.2015749419
 20
189.0267189812
 30
0.0
  0
VERTEX
  5
87F
100
AcDbEntity
  8
0
100
AcDbVertex
100
AcDb2dVertex
 10
303.9802654166
 20
189.0709192465
 30
0.0
  0
VERTEX
  5
880
100
AcDbEntity
  8
0
100
AcDbVertex
100
AcDb2dVertex
 10
304.6801501844
 20
189.3698235603
 30
0.0
  0
VERTEX
  5
881
100
AcDbEntity
  8
0
100
AcDbVertex
100
AcDb2dVertex
 10
305.1946781339
 20
189.8779264502
 30
0.0
  0
VERTEX
  5
882
100
AcDbEntity
  8
0
100
AcDbVertex
100
AcDb2dVertex
 10
305.4455170491
 20
190.5178738574
 30
0.0
  0
VERTEX
  5
883
100
AcDbEntity
  8
0
100
AcDbVertex
100
AcDb2dVertex
 10
305.394478979
 20
191.1922395901
 30
0.0
  0
VERTEX
  5
884
100
AcDbEntity
  8
0
100
AcDbVertex
100
AcDb2dVertex
 10
305.049334007
 20
191.7983575787
 30
0.0
  0
VERTEX
  5
885
100
AcDbEntity
  8
0
100
AcDbVertex
100
AcDb2dVertex
 10
304.4626273264
 20
192.243951854
 30
0.0
  0
SEQEND
  5
886
100
AcDbEntity
  8
0
  0
POLYLINE
  5
887
100
AcDbEntity
  8
0
  6
Continuous
 62
         7
100
AcDb2dPolyline
 66
         1
 10
0.0
 20
0.0
 30
0.0
 70
       128
  0
VERTEX
  5
888
100
AcDbEntity
  8
0
100
AcDbVertex
100
AcDb2dVertex
 10
362.8514956544
 20
129.7161843567
 30
0.0
  0
VERTEX
  5
889
100
AcDbEntity
  8
0
100
AcDbVertex
100
AcDb2dVertex
 10
362.1125480388
 20
129.9334172295
 30
0.0
  0
VERTEX
  5
88A
100
AcDbEntity
  8
0
100
AcDbVertex
100
AcDb2dVertex
 10
361.3338575642
 20
129.8892169642
 30
0.0
  0
VERTEX
  5
88B
100
AcDbEntity
  8
0
100
AcDbVertex
100
AcDb2dVertex
 10
360.6339727963
 20
129.5903126504
 30
0.0
  0
VERTEX
  5
88C
100
AcDbEntity
  8
0
100
AcDbVertex
100
AcDb2dVertex
 10
360.1194448468
 20
129.0822097605
 30
0.0
  0
VERTEX
  5
88D
100
AcDbEntity
  8
0
100
AcDbVertex
100
AcDb2dVertex
 10
359.8686059316
 20
128.4422623533
 30
0.0
  0
VERTEX
  5
88E
100
AcDbEntity
  8
0
100
AcDbVertex
100
AcDb2dVertex
 10
359.9196440018
 20
127.7678966206
 30
0.0
  0
VERTEX
  5
88F
100
AcDbEntity
  8
0
100
AcDbVertex
100
AcDb2dVertex
 10
360.2647889738
 20
127.161778632
 30
0.0
  0
VERTEX
  5
890
100
AcDbEntity
  8
0
100
AcDbVertex
100
AcDb2dVertex
 10
360.8514956544
 20
126.7161843567
 30
0.0
  0
VERTEX
  5
891
100
AcDbEntity
  8
0
100
AcDbVertex
100
AcDb2dVertex
 10
361.5904432699
 20
126.4989514839
 30
0.0
  0
VERTEX
  5
892
100
AcDbEntity
  8
0
100
AcDbVertex
100
AcDb2dVertex
 10
362.3691337446
 20
126.5431517492
 30
0.0
  0
VERTEX
  5
893
100
AcDbEntity
  8
0
100
AcDbVertex
100
AcDb2dVertex
 10
363.0690185124
 20
126.842056063
 30
0.0
  0
VERTEX
  5
894
100
AcDbEntity
  8
0
100
AcDbVertex
100
AcDb2dVertex
 10
363.5835464619
 20
127.3501589529
 30
0.0
  0
VERTEX
  5
895
100
AcDbEntity
  8
0
100
AcDbVertex
100
AcDb2dVertex
 10
363.8343853771
 20
127.99010636
 30
0.0
  0
VERTEX
  5
896
100
AcDbEntity
  8
0
100
AcDbVertex
100
AcDb2dVertex
 10
363.7833473069
 20
128.6644720928
 30
0.0
  0
VERTEX
  5
897
100
AcDbEntity
  8
0
100
AcDbVertex
100
AcDb2dVertex
 10
363.4382023349
 20
129.2705900814
 30
0.0
  0
VERTEX
  5
898
100
AcDbEntity
  8
0
100
AcDbVertex
100
AcDb2dVertex
 10
362.8514956544
 20
129.7161843567
 30
0.0
  0
SEQEND
  5
899
100
AcDbEntity
  8
0
  0
ENDSEC
  0
SECTION
  2
OBJECTS
  0
DICTIONARY
  5
19
100
AcDbDictionary
280
         0
281
         1
  3
ACAD_GROUP
350
1A
  3
ACAD_MLINESTYLE
350
1B
  3
ACAD_LAYOUT
350
1E
  3
ACAD_PLOTSETTINGS
350
22
  3
ACAD_PLOTSTYLENAME
350
1F
  3
ACAD_WIPEOUT_VARS
350
23
  0
DICTIONARY
  5
1A
102
{ACAD_REACTORS
330
19
102
}
100
AcDbDictionary
280
         0
281
         1
  0
DICTIONARY
  5
1B
102
{ACAD_REACTORS
330
19
102
}
100
AcDbDictionary
280
         0
281
         1
  3
Standard
350
1C
  0
MLINESTYLE
  5
1C
102
{ACAD_REACTORS
330
1B
102
}
100
AcDbMlineStyle
  2
Standard
 70
         0
  3

 62
         0
 51
90.0
 52
90.0
 71
         2
 49
0.5
 62
       256
  6
BYLAYER
 49
-0.5
 62
       256
  6
BYLAYER
  0
ACDBDICTIONARYWDFLT
  5
1F
102
{ACAD_REACTORS
330
19
102
}
100
AcDbDictionary
281
         1
  3
Normal
350
1D
100
AcDbDictionaryWithDefault
340
1D
  0
ACDBPLACEHOLDER
  5
1D
102
{ACAD_REACTORS
330
1F
102
}
  0
LAYOUT
  5
20
102
{ACAD_REACTORS
330
1E
102
}
100
AcDbPlotSettings
  1

  2

  4

  6

 40
0.0
 41
0.0
 42
0.0
 43
0.0
 44
0.0
 45
0.0
 46
0.0
 47
0.0
 48
0.0
 49
0.0
140
0.0
141
0.0
142
1.0
143
1.0
 70
      1024
 72
         0
 73
         0
 74
         0
  7

 75
         0
147
1.0
148
0.0
149
0.0
100
AcDbLayout
  1
Model
 70
         0
 71
         0
 10
0.0
 20
0.0
 11
0.0
 21
0.0
 12
0.0
 22
0.0
 32
0.0
 14
0.0
 24
0.0
 34
0.0
 15
0.0
 25
0.0
 35
0.0
146
0.0
 13
0.0
 23
0.0
 33
0.0
 16
0.0
 26
0.0
 36
0.0
 17
0.0
 27
0.0
 37
0.0
 76
         0
330
A
331
0
345
0
346
0
  0
LAYOUT
  5
21
102
{ACAD_REACTORS
330
1E
102
}
100
AcDbPlotSettings
  1

  2

  4

  6

 40
0.0
 41
0.0
 42
0.0
 43
0.0
 44
0.0
 45
0.0
 46
0.0
 47
0.0
 48
0.0
 49
0.0
140
0.0
141
0.0
142
1.0
143
1.0
 70
         0
 72
         0
 73
         0
 74
         0
  7

 75
         0
147
1.0
148
0.0
149
0.0
100
AcDbLayout
  1
Layout1
 70
         0
 71
         0
 10
0.0
 20
0.0
 11
0.0
 21
0.0
 12
0.0
 22
0.0
 32
0.0
 14
0.0
 24
0.0
 34
0.0
 15
0.0
 25
0.0
 35
0.0
146
0.0
 13
0.0
 23
0.0
 33
0.0
 16
0.0
 26
0.0
 36
0.0
 17
0.0
 27
0.0
 37
0.0
 76
         0
330
B
331
0
345
0
346
0
  0
DICTIONARY
  5
1E
102
{ACAD_REACTORS
330
19
102
}
100
AcDbDictionary
280
         0
281
         1
  3
Layout1
350
21
  3
Model
350
20
  0
DICTIONARY
  5
22
102
{ACAD_REACTORS
330
19
102
}
100
AcDbDictionary
280
         0
281
         1
  0
WIPEOUTVARIABLES
  5
23
100
AcDbWipeoutVariables
 70
         1
  0
ENDSEC
  0
EOF
