  0
SECTION
  2
HEADER
  9
$ACADVER
  1
AC1015
  9
$ACADMAINTVER
 70
         6
  9
$DWGCODEPAGE
  3
ANSI_1252
  9
$INSBASE
 10
0.0
 20
0.0
 30
0.0
  9
$EXTMIN
 10
0.0
 20
0.0
 30
0.0
  9
$EXTMAX
 10
420.0
 20
297.0
 30
0.0
  9
$LIMMIN
 10
0.0
 20
0.0
  9
$LIMMAX
 10
0.0
 20
0.0
  9
$ORTHOMODE
 70
         0
  9
$REGENMODE
 70
         1
  9
$FILLMODE
 70
         1
  9
$QTEXTMODE
 70
         0
  9
$MIRRTEXT
 70
         1
  9
$LTSCALE
 40
1.0
  9
$ATTMODE
 70
         1
  9
$TEXTSIZE
 40
3.5
  9
$TRACEWID
 40
0.05
  9
$TEXTSTYLE
  7
Standard
  9
$CLAYER
  8
0
  9
$CELTYPE
  6
Continuous
  9
$CECOLOR
 62
       256
  9
$CELTSCALE
 40
1.0
  9
$DISPSILH
 70
         0
  9
$DIMSCALE
 40
1.0
  9
$DIMASZ
 40
3.0
  9
$DIMEXO
 40
1.0
  9
$DIMDLI
 40
0.38
  9
$DIMRND
 40
0.0
  9
$DIMDLE
 40
1.0
  9
$DIMEXE
 40
0.18
  9
$DIMTP
 40
0.0
  9
$DIMTM
 40
0.0
  9
$DIMTXT
 40
3.5
  9
$DIMCEN
 40
0.09
  9
$DIMTSZ
 40
0.0
  9
$DIMTOL
 70
         0
  9
$DIMLIM
 70
         0
  9
$DIMTIH
 70
         1
  9
$DIMTOH
 70
         1
  9
$DIMSE1
 70
         0
  9
$DIMSE2
 70
         0
  9
$DIMTAD
 70
         1
  9
$DIMZIN
 70
         0
  9
$DIMBLK
  1

  9
$DIMASO
 70
         1
  9
$DIMSHO
 70
         1
  9
$DIMPOST
  1

  9
$DIMAPOST
  1

  9
$DIMALT
 70
         0
  9
$DIMALTD
 70
         2
  9
$DIMALTF
 40
0.0394
  9
$DIMLFAC
 40
1.0
  9
$DIMTOFL
 70
         0
  9
$DIMTVP
 40
0.0
  9
$DIMTIX
 70
         0
  9
$DIMSOXD
 70
         0
  9
$DIMSAH
 70
         0
  9
$DIMBLK1
  1

  9
$DIMBLK2
  1

  9
$DIMSTYLE
  2
Standard
  9
$DIMCLRD
 70
         0
  9
$DIMCLRE
 70
         0
  9
$DIMCLRT
 70
         0
  9
$DIMTFAC
 40
1.0
  9
$DIMGAP
 40
1.0
  9
$DIMJUST
 70
         0
  9
$DIMSD1
 70
         0
  9
$DIMSD2
 70
         0
  9
$DIMTOLJ
 70
         1
  9
$DIMTZIN
 70
         0
  9
$DIMALTZ
 70
         0
  9
$DIMALTTZ
 70
         0
  9
$DIMUPT
 70
         0
  9
$DIMDEC
 70
         4
  9
$DIMTDEC
 70
         4
  9
$DIMALTU
 70
         2
  9
$DIMALTTD
 70
         2
  9
$DIMTXSTY
  7
Standard
  9
$DIMAUNIT
 70
         0
  9
$DIMADEC
 70
         0
  9
$DIMALTRND
 40
0.0
  9
$DIMAZIN
 70
         0
  9
$DIMDSEP
 70
         0
  9
$DIMATFIT
 70
         3
  9
$DIMFRAC
 70
         0
  9
$DIMLDRBLK
  1

  9
$DIMLUNIT
 70
         2
  9
$DIMLWD
 70
         0
  9
$DIMLWE
 70
         0
  9
$DIMTMOVE
 70
         0
  9
$LUNITS
 70
         2
  9
$LUPREC
 70
         2
  9
$SKETCHINC
 40
0.1
  9
$FILLETRAD
 40
0.0
  9
$AUNITS
 70
         0
  9
$AUPREC
 70
         2
  9
$MENU
  1
acad
  9
$ELEVATION
 40
0.0
  9
$PELEVATION
 40
0.0
  9
$THICKNESS
 40
0.0
  9
$LIMCHECK
 70
         0
  9
$CHAMFERA
 40
0.0
  9
$CHAMFERB
 40
0.0
  9
$CHAMFERC
 40
0.0
  9
$CHAMFERD
 40
0.0
  9
$SKPOLY
 70
         0
  9
$TDCREATE
 40
0.000000000
  9
$TDUCREATE
 40
0.000000000
  9
$TDUPDATE
 40
0.000000000
  9
$TDUUPDATE
 40
0.000000000
  9
$TDINDWG
 40
0.0000000000
  9
$TDUSRTIMER
 40
0.0000000000
  9
$USRTIMER
 70
         1
  9
$ANGBASE
 50
0.0
  9
$ANGDIR
 70
         0
  9
$PDMODE
 70
         0
  9
$PDSIZE
 40
-1.0
  9
$PLINEWID
 40
0.0
  9
$SPLFRAME
 70
         0
  9
$SPLINETYPE
 70
         6
  9
$SPLINESEGS
 70
         8
  9
$HANDSEED
  5
75D
  9
$SURFTAB1
 70
         6
  9
$SURFTAB2
 70
         6
  9
$SURFTYPE
 70
         6
  9
$SURFU
 70
         6
  9
$SURFV
 70
         6
  9
$UCSBASE
  2

  9
$UCSNAME
  2

  9
$UCSORG
 10
0.0
 20
0.0
 30
0.0
  9
$UCSXDIR
 10
1.0
 20
0.0
 30
0.0
  9
$UCSYDIR
 10
0.0
 20
1.0
 30
0.0
  9
$UCSORTHOREF
  2

  9
$UCSORTHOVIEW
 70
         0
  9
$UCSORGTOP
 10
0.0
 20
0.0
 30
0.0
  9
$UCSORGBOTTOM
 10
0.0
 20
0.0
 30
0.0
  9
$UCSORGLEFT
 10
0.0
 20
0.0
 30
0.0
  9
$UCSORGRIGHT
 10
0.0
 20
0.0
 30
0.0
  9
$UCSORGFRONT
 10
0.0
 20
0.0
 30
0.0
  9
$UCSORGBACK
 10
0.0
 20
0.0
 30
0.0
  9
$PUCSBASE
  2

  9
$PUCSNAME
  2

  9
$PUCSORG
 10
0.0
 20
0.0
 30
0.0
  9
$PUCSXDIR
 10
1.0
 20
0.0
 30
0.0
  9
$PUCSYDIR
 10
0.0
 20
1.0
 30
0.0
  9
$PUCSORTHOREF
  2

  9
$PUCSORTHOVIEW
 70
         0
  9
$PUCSORGTOP
 10
0.0
 20
0.0
 30
0.0
  9
$PUCSORGBOTTOM
 10
0.0
 20
0.0
 30
0.0
  9
$PUCSORGLEFT
 10
0.0
 20
0.0
 30
0.0
  9
$PUCSORGRIGHT
 10
0.0
 20
0.0
 30
0.0
  9
$PUCSORGFRONT
 10
0.0
 20
0.0
 30
0.0
  9
$PUCSORGBACK
 10
0.0
 20
0.0
 30
0.0
  9
$USERI1
 70
         0
  9
$USERI2
 70
         0
  9
$USERI3
 70
         0
  9
$USERI4
 70
         0
  9
$USERI5
 70
         0
  9
$USERR1
 40
0.0
  9
$USERR2
 40
0.0
  9
$USERR3
 40
0.0
  9
$USERR4
 40
0.0
  9
$USERR5
 40
0.0
  9
$WORLDVIEW
 70
         1
  9
$SHADEDGE
 70
         3
  9
$SHADEDIF
 70
        70
  9
$TILEMODE
 70
         1
  9
$MAXACTVP
 70
        16
  9
$PINSBASE
 10
0.0
 20
0.0
 30
0.0
  9
$PLIMCHECK
 70
         0
  9
$PEXTMIN
 10
1.0000000000E+20
 20
1.0000000000E+20
 30
1.0000000000E+20
  9
$PEXTMAX
 10
-1.0000000000E+20
 20
-1.0000000000E+20
 30
-1.0000000000E+20
  9
$PLIMMIN
 10
0.0
 20
0.0
  9
$PLIMMAX
 10
12.0
 20
9.0
  9
$UNITMODE
 70
         0
  9
$VISRETAIN
 70
         0
  9
$PLINEGEN
 70
         1
  9
$PSLTSCALE
 70
         1
  9
$TREEDEPTH
 70
      3020
  9
$CMLSTYLE
  2
Standard
  9
$CMLJUST
 70
         0
  9
$CMLSCALE
 40
1.0
  9
$PROXYGRAPHICS
 70
         0
  9
$MEASUREMENT
 70
         0
  9
$CELWEIGHT
370
         0
  9
$ENDCAPS
280
         0
  9
$JOINSTYLE
280
         0
  9
$LWDISPLAY
290
         0
  9
$INSUNITS
 70
         0
  9
$HYPERLINKBASE
  1

  9
$XEDIT
290
         1
  9
$CEPSNTYPE
380
         0
  9
$PSTYLEMODE
290
         1
  9
$FINGERPRINTGUID
  2

  9
$VERSIONGUID
  2

  9
$EXTNAMES
290
         1
  9
$PSVPSCALE
 40
0.0
  0
ENDSEC
  0
SECTION
  2
CLASSES
  0
CLASS
  1
LWPOLYLINE
  2
AcDbPolyline
  3
AutoCAD 2000
 90
    32768
280
         0
281
         1
  0
CLASS
  1
IMAGE
  2
AcDbRasterImage
  3
ISM
 90
    32895
280
         0
281
         1
  0
CLASS
  1
OLE2FRAME
  2
AcDbOle2Frame
  3
AutoCAD 2000
 90
    32768
280
         0
281
         1
  0
CLASS
  1
HATCH
  2
AcDbHatch
  3
AutoCAD 2000
 90
    32768
280
         0
281
         1
  0
CLASS
  1
DICTIONARYVAR
  2
AcDbDictionaryVar
  3
AutoCAD 2000
 90
    32768
280
         0
281
         0
  0
CLASS
  1
RASTERVARIABLES
  2
AcDbRasterVariables
  3
ISM
 90
    32768
280
         0
281
         0
  0
CLASS
  1
IMAGEDEF
  2
AcDbRasterImageDef
  3
ISM
 90
    32768
280
         0
281
         0
  0
CLASS
  1
IMAGEDEF_REACTOR
  2
AcDbRasterImageDefReactor
  3
ISM
 90
    32769
280
         0
281
         0
  0
CLASS
  1
IDBUFFER
  2
AcDbIdBuffer
  3
AutoCAD 2000
 90
    32768
280
         0
281
         0
  0
CLASS
  1
SPATIAL_FILTER
  2
AcDbSpatialFilter
  3
AutoCAD 2000
 90
    32768
280
         0
281
         0
  0
CLASS
  1
XRECORD
  2
AcDbXrecord
  3
AutoCAD 2000
 90
    32768
280
         0
281
         0
  0
CLASS
  1
SORTENTSTABLE
  2
AcDbSortentsTable
  3
AutoCAD 2000
 90
    32768
280
         0
281
         0
  0
CLASS
  1
LAYER_INDEX
  2
AcDbLayerIndex
  3
AutoCAD 2000
 90
    32768
280
         0
281
         0
  0
CLASS
  1
SPATIAL_INDEX
  2
AcDbSpatialIndex
  3
AutoCAD 2000
 90
    32768
280
         0
281
         0
  0
CLASS
  1
OBJECT_PTR
  2
CAseDLPNTableRecord
  3
"ASE-LPNTableRecord"
 90
    32769
280
         0
281
         0
  0
CLASS
  1
LAYOUT
  2
AcDbLayout
  3
AutoCAD 2000
 90
        0
280
         0
281
         0
  0
CLASS
  1
PLOTSETTINGS
  2
AcDbPlotSettings
  3
AutoCAD 2000
 90
    32768
280
         0
281
         0
  0
CLASS
  1
ACDBDICTIONARYWDFLT
  2
AcDbDictionaryWithDefault
  3
AutoCAD 2000
 90
        0
280
         0
281
         0
  0
CLASS
  1
ACDBPLACEHOLDER
  2
AcDbPlaceHolder
  3
AutoCAD 2000
 90
        0
280
         0
281
         0
  0
CLASS
  1
VBA_PROJECT
  2
AcDbVbaProject
  3
acadvba
 90
    32768
280
         0
281
         0
  0
CLASS
  1
WIPEOUT
  2
AcDbWipeout
  3
WipeOut|AutoCAD Express Tool|expresstools@autodesk.com
 90
    32895
280
         0
281
         1
  0
CLASS
  1
WIPEOUTVARIABLES
  2
AcDbWipeoutVariables
  3
WipeOut|AutoCAD Express Tool|expresstools@autodesk.com
 90
        0
280
         0
281
         0
  0
CLASS
  1
RTEXT
  2
RText
  3
RText|AutoCAD Express Tool|expresstools@autodesk.com
 90
    32768
280
         0
281
         1
  0
CLASS
  1
ARCALIGNEDTEXT
  2
AcDbArcAlignedText
  3
ATEXT|AutoCAD Express Tool|expresstools@autodesk.com
 90
    32768
280
         0
281
         1
  0
ENDSEC
  0
SECTION
  2
TABLES
  0
TABLE
  2
VPORT
  5
7
100
AcDbSymbolTable
 70
         1
  0
VPORT
  5
15
100
AcDbSymbolTableRecord
100
AcDbViewportTableRecord
  2
*ACTIVE
 70
         0
 10
0.0
 20
0.0
 11
1.0
 21
1.0
 12
210.0
 22
148.5
 13
0.0
 23
0.0
 14
1.0
 24
1.0
 15
0.0
 25
0.0
 16
0.0
 26
0.0
 36
1.0
 17
0.0
 27
0.0
 37
0.0
 40
297.0
 41
0.7071428571
 42
50.0
 43
0.0
 44
0.0
 50
0.0
 51
0.0
 71
         0
 72
      2000
 73
         1
 74
         1
 75
         0
 76
         0
 77
         0
 78
         0
281
         0
 65
         0
110
0.0
120
0.0
130
0.0
111
1.0
121
0.0
131
0.0
112
0.0
122
1.0
132
0.0
345
0
346
0
 79
         0
146
0.0
  0
ENDTAB
  0
TABLE
  2
LTYPE
  5
4
100
AcDbSymbolTable
 70
         9
  0
LTYPE
  5
11
100
AcDbSymbolTableRecord
100
AcDbLinetypeTableRecord
  2
ByBlock
 70
        64
  3

 72
        65
 73
         0
 40
0.0
  0
LTYPE
  5
12
100
AcDbSymbolTableRecord
100
AcDbLinetypeTableRecord
  2
ByLayer
 70
        64
  3

 72
        65
 73
         0
 40
0.0
  0
LTYPE
  5
13
100
AcDbSymbolTableRecord
100
AcDbLinetypeTableRecord
  2
Continuous
 70
        64
  3
Solid line
 72
        65
 73
         0
 40
0.0
  0
LTYPE
  5
24
100
AcDbSymbolTableRecord
100
AcDbLinetypeTableRecord
  2
CONTINUOUS
 70
        64
  3
Solid line
 72
        65
 73
         1
 40
60.96
 49
60.96
 74
         0
  0
LTYPE
  5
25
100
AcDbSymbolTableRecord
100
AcDbLinetypeTableRecord
  2
HIDDEN
 70
        64
  3
Hidden __ __ __ __ __ __ __ __ __ __ __ __ __ __
 72
        65
 73
         2
 40
1.905
 49
1.27
 74
         0
 49
-0.635
 74
         0
  0
LTYPE
  5
26
100
AcDbSymbolTableRecord
100
AcDbLinetypeTableRecord
  2
PHANTOM
 70
        64
  3
Phantom ______  __  __  ______  __  __  ______
 72
        65
 73
         6
 40
12.7
 49
6.35
 74
         0
 49
-1.27
 74
         0
 49
1.27
 74
         0
 49
-1.27
 74
         0
 49
1.27
 74
         0
 49
-1.27
 74
         0
  0
LTYPE
  5
27
100
AcDbSymbolTableRecord
100
AcDbLinetypeTableRecord
  2
CENTER
 70
        64
  3
Center ____ _ ____ _ ____ _ ____ _ ____ _ ____
 72
        65
 73
         4
 40
10.16
 49
6.35
 74
         0
 49
-1.27
 74
         0
 49
1.27
 74
         0
 49
-1.27
 74
         0
  0
LTYPE
  5
28
100
AcDbSymbolTableRecord
100
AcDbLinetypeTableRecord
  2
CENTERX2
 70
        64
  3
Center (2x) ________  __  ________  __  _____
 72
        65
 73
         4
 40
20.32
 49
12.7
 74
         0
 49
-2.54
 74
         0
 49
2.54
 74
         0
 49
-2.54
 74
         0
  0
LTYPE
  5
29
100
AcDbSymbolTableRecord
100
AcDbLinetypeTableRecord
  2
DOT2
 70
        64
  3
Dot (.5x) ........................................
 72
        65
 73
         2
 40
0.635
 49
0.0
 74
         0
 49
-0.635
 74
         0
  0
ENDTAB
  0
TABLE
  2
LAYER
  5
2
100
AcDbSymbolTable
 70
         1
  0
LAYER
  5
14
100
AcDbSymbolTableRecord
100
AcDbLayerTableRecord
  2
0
 70
         0
 62
         7
  6
Continuous
290
         1
370
        -3
390
1D
  0
ENDTAB
  0
TABLE
  2
STYLE
  5
3
100
AcDbSymbolTable
 70
         2
  0
STYLE
  5
17
100
AcDbSymbolTableRecord
100
AcDbTextStyleTableRecord
  2
Standard
 70
         0
 40
0.0
 41
1.0
 50
0.0
 71
         0
 42
0.0
  3
txt
  4

  0
STYLE
  5
4B
100
AcDbSymbolTableRecord
100
AcDbTextStyleTableRecord
  2
SLDTEXTSTYLE0
 70
         0
 40
0.0
 41
0.75
 50
0.0
 71
         0
 42
0.0
  3
txt
  4

  0
ENDTAB
  0
TABLE
  2
VIEW
  5
5
100
AcDbSymbolTable
 70
         0
  0
ENDTAB
  0
TABLE
  2
UCS
  5
6
100
AcDbSymbolTable
 70
         0
  0
ENDTAB
  0
TABLE
  2
APPID
  5
8
100
AcDbSymbolTable
 70
         1
  0
APPID
  5
16
100
AcDbSymbolTableRecord
100
AcDbRegAppTableRecord
  2
ACAD
 70
         0
  0
ENDTAB
  0
TABLE
  2
DIMSTYLE
  5
9
100
AcDbSymbolTable
 70
         6
100
AcDbDimStyleTable
 71
         0
  0
DIMSTYLE
105
18
100
AcDbSymbolTableRecord
100
AcDbDimStyleTableRecord
  2
Standard
 70
         0
  3

  4

 40
1.0
 41
0.18
 42
0.0625
 43
0.38
 44
0.18
 45
0.0
 46
0.0
 47
0.0
 48
0.0
 71
         0
 72
         0
 73
         1
 74
         1
 75
         0
 76
         0
 77
         0
 78
         0
 79
         0
140
0.18
141
0.09
142
0.0
143
25.4
144
1.0
145
0.0
146
1.0
147
0.09
148
0.0
170
         0
171
         2
172
         0
173
         0
174
         0
175
         0
176
         0
177
         0
178
         0
179
         0
271
         4
272
         4
273
         2
274
         2
275
         0
276
         0
277
         2
278
        46
279
         0
280
         0
281
         0
282
         0
283
         1
284
         0
285
         0
286
         0
288
         0
340
17
341
0
342
0
343
0
344
0
371
        -2
372
        -2
  0
DIMSTYLE
105
10B
100
AcDbSymbolTableRecord
100
AcDbDimStyleTableRecord
  2
SLDDIMSTYLE0
 70
         0
  3

  4

 40
1.0
 41
3.0
 42
0.0625
 43
0.38
 44
1.0
 45
0.0
 46
0.0
 47
0.0
 48
0.0
 71
         0
 72
         0
 73
         1
 74
         1
 75
         0
 76
         0
 77
         0
 78
         8
 79
         0
140
3.5
141
0.09
142
0.0
143
25.4
144
1.0
145
0.0
146
1.0
147
0.875
148
0.0
170
         0
171
         2
172
         0
173
         1
174
         0
175
         0
176
       255
177
       255
178
       255
179
         0
271
         0
272
         4
273
         2
274
         2
275
         0
276
         0
277
         2
278
        46
279
         0
280
         0
281
         0
282
         0
283
         1
284
        12
285
         0
286
         0
288
         0
340
17
341
0
342
0
343
10C
344
10C
371
        -2
372
        -2
  0
DIMSTYLE
105
117
100
AcDbSymbolTableRecord
100
AcDbDimStyleTableRecord
  2
SLDDIMSTYLE1
 70
         0
  3

  4

 40
1.0
 41
3.0
 42
0.0625
 43
0.38
 44
1.0
 45
0.0
 46
0.0
 47
0.0
 48
0.0
 71
         0
 72
         0
 73
         1
 74
         1
 75
         0
 76
         0
 77
         0
 78
        12
 79
         0
140
3.5
141
0.09
142
0.0
143
25.4
144
1.0
145
0.0
146
1.0
147
0.875
148
0.0
170
         0
171
         2
172
         0
173
         1
174
         0
175
         0
176
       255
177
       255
178
       255
179
         0
271
         2
272
         4
273
         2
274
         2
275
         0
276
         0
277
         2
278
        46
279
         0
280
         0
281
         0
282
         0
283
         1
284
        12
285
         0
286
         0
288
         0
340
17
341
0
342
0
343
10C
344
10C
371
        -2
372
        -2
  0
DIMSTYLE
105
181
100
AcDbSymbolTableRecord
100
AcDbDimStyleTableRecord
  2
SLDDIMSTYLE2
 70
         0
  3

  4

 40
1.0
 41
3.0
 42
0.0625
 43
0.38
 44
1.0
 45
0.0
 46
0.0
 47
0.0
 48
0.0
 71
         0
 72
         0
 73
         1
 74
         1
 75
         0
 76
         0
 77
         0
 78
        12
 79
         0
140
3.5
141
0.09
142
0.0
143
25.4
144
1.0
145
0.0
146
1.0
147
0.875
148
0.0
170
         0
171
         2
172
         1
173
         1
174
         0
175
         0
176
       255
177
       255
178
       255
179
         0
271
         2
272
         4
273
         2
274
         2
275
         0
276
         0
277
         2
278
        46
279
         0
280
         0
281
         0
282
         0
283
         1
284
        12
285
         0
286
         0
288
         0
340
17
341
0
342
0
343
0
344
0
371
        -2
372
        -2
  0
DIMSTYLE
105
1C0
100
AcDbSymbolTableRecord
100
AcDbDimStyleTableRecord
  2
SLDDIMSTYLE3
 70
         0
  3

  4

 40
1.0
 41
1.0
 42
0.0625
 43
0.38
 44
0.0
 45
0.0
 46
0.0
 47
0.0
 48
0.0
 71
         0
 72
         0
 73
         1
 74
         1
 75
         0
 76
         0
 77
         0
 78
         0
 79
         0
140
6.0
141
0.09
142
0.0
143
25.4
144
1.0
145
0.0
146
1.0
147
1.5
148
0.0
170
         0
171
         2
172
         0
173
         1
174
         0
175
         0
176
         0
177
         0
178
         0
179
         0
271
         0
272
         0
273
         2
274
         2
275
         0
276
         0
277
         2
278
        46
279
         0
280
         0
281
         0
282
         0
283
         1
284
         0
285
         0
286
         0
288
         0
340
17
341
0
342
0
343
1B8
344
1B8
371
        -2
372
        -2
  0
DIMSTYLE
105
20B
100
AcDbSymbolTableRecord
100
AcDbDimStyleTableRecord
  2
SLDDIMSTYLE4
 70
         0
  3

  4

 40
1.0
 41
3.0
 42
0.0625
 43
0.38
 44
1.0
 45
0.0
 46
0.0
 47
0.0
 48
0.0
 71
         0
 72
         0
 73
         1
 74
         1
 75
         0
 76
         0
 77
         0
 78
        12
 79
         0
140
3.5
141
0.09
142
0.0
143
25.4
144
1.0
145
0.0
146
1.0
147
0.875
148
0.0
170
         0
171
         2
172
         0
173
         1
174
         0
175
         0
176
       255
177
       255
178
       255
179
         0
271
         2
272
         4
273
         2
274
         2
275
         0
276
         0
277
         2
278
        46
279
         0
280
         0
281
         0
282
         0
283
         1
284
        12
285
         0
286
         0
288
         0
340
17
341
0
342
0
343
0
344
0
371
        -2
372
        -2
  0
ENDTAB
  0
TABLE
  2
BLOCK_RECORD
  5
1
100
AcDbSymbolTable
 70
        27
  0
BLOCK_RECORD
  5
A
100
AcDbSymbolTableRecord
100
AcDbBlockTableRecord
  2
*MODEL_SPACE
340
20
  0
BLOCK_RECORD
  5
B
100
AcDbSymbolTableRecord
100
AcDbBlockTableRecord
  2
*PAPER_SPACE
340
21
  0
BLOCK_RECORD
  5
107
100
AcDbSymbolTableRecord
100
AcDbBlockTableRecord
  2
*D0
340
0
  0
BLOCK_RECORD
  5
10C
100
AcDbSymbolTableRecord
100
AcDbBlockTableRecord
  2
_NONE
340
0
  0
BLOCK_RECORD
  5
113
100
AcDbSymbolTableRecord
100
AcDbBlockTableRecord
  2
*D2
340
0
  0
BLOCK_RECORD
  5
11C
100
AcDbSymbolTableRecord
100
AcDbBlockTableRecord
  2
*D3
340
0
  0
BLOCK_RECORD
  5
124
100
AcDbSymbolTableRecord
100
AcDbBlockTableRecord
  2
*D4
340
0
  0
BLOCK_RECORD
  5
12C
100
AcDbSymbolTableRecord
100
AcDbBlockTableRecord
  2
*D5
340
0
  0
BLOCK_RECORD
  5
134
100
AcDbSymbolTableRecord
100
AcDbBlockTableRecord
  2
*D6
340
0
  0
BLOCK_RECORD
  5
13C
100
AcDbSymbolTableRecord
100
AcDbBlockTableRecord
  2
*D7
340
0
  0
BLOCK_RECORD
  5
144
100
AcDbSymbolTableRecord
100
AcDbBlockTableRecord
  2
*D8
340
0
  0
BLOCK_RECORD
  5
14C
100
AcDbSymbolTableRecord
100
AcDbBlockTableRecord
  2
*D9
340
0
  0
BLOCK_RECORD
  5
154
100
AcDbSymbolTableRecord
100
AcDbBlockTableRecord
  2
*D10
340
0
  0
BLOCK_RECORD
  5
15E
100
AcDbSymbolTableRecord
100
AcDbBlockTableRecord
  2
*D11
340
0
  0
BLOCK_RECORD
  5
168
100
AcDbSymbolTableRecord
100
AcDbBlockTableRecord
  2
*D12
340
0
  0
BLOCK_RECORD
  5
170
100
AcDbSymbolTableRecord
100
AcDbBlockTableRecord
  2
*D13
340
0
  0
BLOCK_RECORD
  5
178
100
AcDbSymbolTableRecord
100
AcDbBlockTableRecord
  2
*D14
340
0
  0
BLOCK_RECORD
  5
186
100
AcDbSymbolTableRecord
100
AcDbBlockTableRecord
  2
*D15
340
0
  0
BLOCK_RECORD
  5
193
100
AcDbSymbolTableRecord
100
AcDbBlockTableRecord
  2
*D16
340
0
  0
BLOCK_RECORD
  5
19F
100
AcDbSymbolTableRecord
100
AcDbBlockTableRecord
  2
*D17
340
0
  0
BLOCK_RECORD
  5
1AB
100
AcDbSymbolTableRecord
100
AcDbBlockTableRecord
  2
*D18
340
0
  0
BLOCK_RECORD
  5
1B8
100
AcDbSymbolTableRecord
100
AcDbBlockTableRecord
  2
_DOT
340
0
  0
BLOCK_RECORD
  5
201
100
AcDbSymbolTableRecord
100
AcDbBlockTableRecord
  2
*D20
340
0
  0
BLOCK_RECORD
  5
210
100
AcDbSymbolTableRecord
100
AcDbBlockTableRecord
  2
*D21
340
0
  0
BLOCK_RECORD
  5
21E
100
AcDbSymbolTableRecord
100
AcDbBlockTableRecord
  2
*D22
340
0
  0
BLOCK_RECORD
  5
726
100
AcDbSymbolTableRecord
100
AcDbBlockTableRecord
  2
*D23
340
0
  0
BLOCK_RECORD
  5
734
100
AcDbSymbolTableRecord
100
AcDbBlockTableRecord
  2
*D24
340
0
  0
BLOCK_RECORD
  5
741
100
AcDbSymbolTableRecord
100
AcDbBlockTableRecord
  2
*D25
340
0
  0
BLOCK_RECORD
  5
74E
100
AcDbSymbolTableRecord
100
AcDbBlockTableRecord
  2
*D26
340
0
  0
ENDTAB
  0
ENDSEC
  0
SECTION
  2
BLOCKS
  0
BLOCK
  5
D
100
AcDbEntity
  8
0
100
AcDbBlockBegin
  2
*MODEL_SPACE
 70
         0
 10
0.0
 20
0.0
 30
0.0
  3
*MODEL_SPACE
  1

  0
ENDBLK
  5
E
100
AcDbEntity
  8
0
100
AcDbBlockEnd
  0
BLOCK
  5
F
100
AcDbEntity
 67
         1
  8
0
100
AcDbBlockBegin
  2
*PAPER_SPACE
 70
         0
 10
0.0
 20
0.0
 30
0.0
  3
*PAPER_SPACE
  1

  0
ENDBLK
  5
10
100
AcDbEntity
 67
         1
  8
0
100
AcDbBlockEnd
  0
BLOCK
  5
108
100
AcDbEntity
  8
0
 62
       255
100
AcDbBlockBegin
  2
*D0
 70
         1
 10
0.0
 20
0.0
 30
0.0
  3
*D0
  1

  0
MTEXT
  5
109
100
AcDbEntity
  8
0
 62
         7
100
AcDbMText
 10
48.9762936479
 20
162.3069577689
 30
0.0
 40
3.5
 41
0.0
 71
         7
 72
         1
  1
0
  7
SLDTEXTSTYLE0
 11
0.0
 21
1.0
 31
0.0
 73
         1
 44
1.0
  0
LINE
  5
10A
100
AcDbEntity
  8
0
100
AcDbLine
 10
47.6977153346
 20
178.8529726674
 30
0.0
 11
47.6977153346
 21
166.4794818653
 31
0.0
  0
POINT
  5
10F
100
AcDbEntity
  8
0
 62
         7
100
AcDbPoint
 10
47.6977153346
 20
179.8529726674
 30
0.0
  0
POINT
  5
110
100
AcDbEntity
  8
0
 62
         7
100
AcDbPoint
 10
47.6977153346
 20
166.4794818653
 30
0.0
  0
ENDBLK
  5
111
100
AcDbEntity
  8
0
100
AcDbBlockEnd
  0
BLOCK
  5
10D
100
AcDbEntity
  8
0
100
AcDbBlockBegin
  2
_NONE
 70
         0
 10
0.0
 20
0.0
 30
0.0
  3
_NONE
  1

  0
ENDBLK
  5
10E
100
AcDbEntity
  8
0
100
AcDbBlockEnd
  0
BLOCK
  5
114
100
AcDbEntity
  8
0
 62
       255
100
AcDbBlockBegin
  2
*D2
 70
         1
 10
0.0
 20
0.0
 30
0.0
  3
*D2
  1

  0
MTEXT
  5
115
100
AcDbEntity
  8
0
 62
         7
100
AcDbMText
 10
58.9762936479
 20
159.7219336725
 30
0.0
 40
3.5
 41
0.0
 71
         7
 72
         1
  1
10
  7
SLDTEXTSTYLE0
 11
0.0
 21
1.0
 31
0.0
 73
         1
 44
1.0
  0
LINE
  5
116
100
AcDbEntity
  8
0
100
AcDbLine
 10
57.6977153346
 20
238.8529726674
 30
0.0
 11
57.6977153346
 21
166.4794818653
 31
0.0
  0
POINT
  5
118
100
AcDbEntity
  8
0
 62
         7
100
AcDbPoint
 10
57.6977153346
 20
239.8529726674
 30
0.0
  0
POINT
  5
119
100
AcDbEntity
  8
0
 62
         7
100
AcDbPoint
 10
57.6977153346
 20
166.4794818653
 30
0.0
  0
ENDBLK
  5
11A
100
AcDbEntity
  8
0
100
AcDbBlockEnd
  0
BLOCK
  5
11D
100
AcDbEntity
  8
0
 62
       255
100
AcDbBlockBegin
  2
*D3
 70
         1
 10
0.0
 20
0.0
 30
0.0
  3
*D3
  1

  0
MTEXT
  5
11E
100
AcDbEntity
  8
0
 62
         7
100
AcDbMText
 10
72.0600102898
 20
153.261524034
 30
0.0
 40
3.5
 41
0.0
 71
         7
 72
         1
  1
23,08
  7
SLDTEXTSTYLE0
 11
0.0
 21
1.0
 31
0.0
 73
         1
 44
1.0
  0
LINE
  5
11F
100
AcDbEntity
  8
0
100
AcDbLine
 10
70.7814319766
 20
215.7703990078
 30
0.0
 11
70.7814319766
 21
166.4794818653
 31
0.0
  0
POINT
  5
120
100
AcDbEntity
  8
0
 62
         7
100
AcDbPoint
 10
70.7814319766
 20
216.7703990078
 30
0.0
  0
POINT
  5
121
100
AcDbEntity
  8
0
 62
         7
100
AcDbPoint
 10
70.7814319766
 20
166.4794818653
 30
0.0
  0
ENDBLK
  5
122
100
AcDbEntity
  8
0
100
AcDbBlockEnd
  0
BLOCK
  5
125
100
AcDbEntity
  8
0
 62
       255
100
AcDbBlockBegin
  2
*D4
 70
         1
 10
0.0
 20
0.0
 30
0.0
  3
*D4
  1

  0
MTEXT
  5
126
100
AcDbEntity
  8
0
 62
         7
100
AcDbMText
 10
93.9762936479
 20
159.7219336725
 30
0.0
 40
3.5
 41
0.0
 71
         7
 72
         1
  1
45
  7
SLDTEXTSTYLE0
 11
0.0
 21
1.0
 31
0.0
 73
         1
 44
1.0
  0
LINE
  5
127
100
AcDbEntity
  8
0
100
AcDbLine
 10
92.6977153346
 20
213.8529726674
 30
0.0
 11
92.6977153346
 21
166.4794818653
 31
0.0
  0
POINT
  5
128
100
AcDbEntity
  8
0
 62
         7
100
AcDbPoint
 10
92.6977153346
 20
214.8529726674
 30
0.0
  0
POINT
  5
129
100
AcDbEntity
  8
0
 62
         7
100
AcDbPoint
 10
92.6977153346
 20
166.4794818653
 30
0.0
  0
ENDBLK
  5
12A
100
AcDbEntity
  8
0
100
AcDbBlockEnd
  0
BLOCK
  5
12D
100
AcDbEntity
  8
0
 62
       255
100
AcDbBlockBegin
  2
*D5
 70
         1
 10
0.0
 20
0.0
 30
0.0
  3
*D5
  1

  0
MTEXT
  5
12E
100
AcDbEntity
  8
0
 62
         7
100
AcDbMText
 10
168.9762936479
 20
157.1369095761
 30
0.0
 40
3.5
 41
0.0
 71
         7
 72
         1
  1
120
  7
SLDTEXTSTYLE0
 11
0.0
 21
1.0
 31
0.0
 73
         1
 44
1.0
  0
LINE
  5
12F
100
AcDbEntity
  8
0
100
AcDbLine
 10
167.6977153346
 20
213.8529726674
 30
0.0
 11
167.6977153346
 21
166.4794818653
 31
0.0
  0
POINT
  5
130
100
AcDbEntity
  8
0
 62
         7
100
AcDbPoint
 10
167.6977153346
 20
214.8529726674
 30
0.0
  0
POINT
  5
131
100
AcDbEntity
  8
0
 62
         7
100
AcDbPoint
 10
167.6977153346
 20
166.4794818653
 30
0.0
  0
ENDBLK
  5
132
100
AcDbEntity
  8
0
100
AcDbBlockEnd
  0
BLOCK
  5
135
100
AcDbEntity
  8
0
 62
       255
100
AcDbBlockBegin
  2
*D6
 70
         1
 10
0.0
 20
0.0
 30
0.0
  3
*D6
  1

  0
MTEXT
  5
136
100
AcDbEntity
  8
0
 62
         7
100
AcDbMText
 10
188.9762936479
 20
157.1369095761
 30
0.0
 40
3.5
 41
0.0
 71
         7
 72
         1
  1
140
  7
SLDTEXTSTYLE0
 11
0.0
 21
1.0
 31
0.0
 73
         1
 44
1.0
  0
LINE
  5
137
100
AcDbEntity
  8
0
100
AcDbLine
 10
187.6977153346
 20
188.8529726674
 30
0.0
 11
187.6977153346
 21
166.4794818653
 31
0.0
  0
POINT
  5
138
100
AcDbEntity
  8
0
 62
         7
100
AcDbPoint
 10
187.6977153346
 20
189.8529726674
 30
0.0
  0
POINT
  5
139
100
AcDbEntity
  8
0
 62
         7
100
AcDbPoint
 10
187.6977153346
 20
166.4794818653
 30
0.0
  0
ENDBLK
  5
13A
100
AcDbEntity
  8
0
100
AcDbBlockEnd
  0
BLOCK
  5
13D
100
AcDbEntity
  8
0
 62
       255
100
AcDbBlockBegin
  2
*D7
 70
         1
 10
0.0
 20
0.0
 30
0.0
  3
*D7
  1

  0
MTEXT
  5
13E
100
AcDbEntity
  8
0
 62
         7
100
AcDbMText
 10
198.9762936479
 20
157.1369095761
 30
0.0
 40
3.5
 41
0.0
 71
         7
 72
         1
  1
150
  7
SLDTEXTSTYLE0
 11
0.0
 21
1.0
 31
0.0
 73
         1
 44
1.0
  0
LINE
  5
13F
100
AcDbEntity
  8
0
100
AcDbLine
 10
197.6977153346
 20
178.8529726674
 30
0.0
 11
197.6977153346
 21
166.4794818653
 31
0.0
  0
POINT
  5
140
100
AcDbEntity
  8
0
 62
         7
100
AcDbPoint
 10
197.6977153346
 20
179.8529726674
 30
0.0
  0
POINT
  5
141
100
AcDbEntity
  8
0
 62
         7
100
AcDbPoint
 10
197.6977153346
 20
166.4794818653
 30
0.0
  0
ENDBLK
  5
142
100
AcDbEntity
  8
0
100
AcDbBlockEnd
  0
BLOCK
  5
145
100
AcDbEntity
  8
0
 62
       255
100
AcDbBlockBegin
  2
*D8
 70
         1
 10
0.0
 20
0.0
 30
0.0
  3
*D8
  1

  0
MTEXT
  5
146
100
AcDbEntity
  8
0
 62
         7
100
AcDbMText
 10
208.3194242051
 20
178.5743943541
 30
0.0
 40
3.5
 41
0.0
 71
         7
 72
         1
  1
0
  7
SLDTEXTSTYLE0
 73
         1
 44
1.0
  0
LINE
  5
147
100
AcDbEntity
  8
0
100
AcDbLine
 10
198.6977153346
 20
179.8529726674
 30
0.0
 11
206.7319242051
 21
179.8529726674
 31
0.0
  0
POINT
  5
148
100
AcDbEntity
  8
0
 62
         7
100
AcDbPoint
 10
197.6977153346
 20
179.8529726674
 30
0.0
  0
POINT
  5
149
100
AcDbEntity
  8
0
 62
         7
100
AcDbPoint
 10
206.7319242051
 20
179.8529726674
 30
0.0
  0
ENDBLK
  5
14A
100
AcDbEntity
  8
0
100
AcDbBlockEnd
  0
BLOCK
  5
14D
100
AcDbEntity
  8
0
 62
       255
100
AcDbBlockBegin
  2
*D9
 70
         1
 10
0.0
 20
0.0
 30
0.0
  3
*D9
  1

  0
MTEXT
  5
14E
100
AcDbEntity
  8
0
 62
         7
100
AcDbMText
 10
208.3194242051
 20
238.5743943541
 30
0.0
 40
3.5
 41
0.0
 71
         7
 72
         1
  1
60
  7
SLDTEXTSTYLE0
 73
         1
 44
1.0
  0
LINE
  5
14F
100
AcDbEntity
  8
0
100
AcDbLine
 10
58.6977153346
 20
239.8529726674
 30
0.0
 11
206.7319242051
 21
239.8529726674
 31
0.0
  0
POINT
  5
150
100
AcDbEntity
  8
0
 62
         7
100
AcDbPoint
 10
57.6977153346
 20
239.8529726674
 30
0.0
  0
POINT
  5
151
100
AcDbEntity
  8
0
 62
         7
100
AcDbPoint
 10
206.7319242051
 20
239.8529726674
 30
0.0
  0
ENDBLK
  5
152
100
AcDbEntity
  8
0
100
AcDbBlockEnd
  0
BLOCK
  5
155
100
AcDbEntity
  8
0
 62
       255
100
AcDbBlockBegin
  2
*D10
 70
         1
 10
0.0
 20
0.0
 30
0.0
  3
*D10
  1

  0
MTEXT
  5
156
100
AcDbEntity
  8
0
 62
         7
100
AcDbMText
 10
208.3194242051
 20
223.9564273437
 30
0.0
 40
3.5
 41
0.0
 71
         7
 72
         1
  1
36,92
  7
SLDTEXTSTYLE0
 73
         1
 44
1.0
  0
LINE
  5
157
100
AcDbEntity
  8
0
100
AcDbLine
 10
201.7319242051
 20
225.2350056569
 30
0.0
 11
206.7319242051
 21
225.2350056569
 31
0.0
  0
LINE
  5
158
100
AcDbEntity
  8
0
100
AcDbLine
 10
201.7319242051
 20
225.2350056569
 30
0.0
 11
196.7319242051
 21
216.7703990078
 31
0.0
  0
LINE
  5
159
100
AcDbEntity
  8
0
100
AcDbLine
 10
196.7319242051
 20
216.7703990078
 30
0.0
 11
71.7814319766
 21
216.7703990078
 31
0.0
  0
POINT
  5
15A
100
AcDbEntity
  8
0
 62
         7
100
AcDbPoint
 10
70.7814319766
 20
216.7703990078
 30
0.0
  0
POINT
  5
15B
100
AcDbEntity
  8
0
 62
         7
100
AcDbPoint
 10
206.7319242051
 20
225.2350056569
 30
0.0
  0
ENDBLK
  5
15C
100
AcDbEntity
  8
0
100
AcDbBlockEnd
  0
BLOCK
  5
15F
100
AcDbEntity
  8
0
 62
       255
100
AcDbBlockBegin
  2
*D11
 70
         1
 10
0.0
 20
0.0
 30
0.0
  3
*D11
  1

  0
MTEXT
  5
160
100
AcDbEntity
  8
0
 62
         7
100
AcDbMText
 10
208.3194242051
 20
207.9293448116
 30
0.0
 40
3.5
 41
0.0
 71
         7
 72
         1
  1
35
  7
SLDTEXTSTYLE0
 73
         1
 44
1.0
  0
LINE
  5
161
100
AcDbEntity
  8
0
100
AcDbLine
 10
201.7319242051
 20
209.2079231249
 30
0.0
 11
206.7319242051
 21
209.2079231249
 31
0.0
  0
LINE
  5
162
100
AcDbEntity
  8
0
100
AcDbLine
 10
201.7319242051
 20
209.2079231249
 30
0.0
 11
196.7319242051
 21
214.8529726674
 31
0.0
  0
LINE
  5
163
100
AcDbEntity
  8
0
100
AcDbLine
 10
196.7319242051
 20
214.8529726674
 30
0.0
 11
93.6977153346
 21
214.8529726674
 31
0.0
  0
POINT
  5
164
100
AcDbEntity
  8
0
 62
         7
100
AcDbPoint
 10
92.6977153346
 20
214.8529726674
 30
0.0
  0
POINT
  5
165
100
AcDbEntity
  8
0
 62
         7
100
AcDbPoint
 10
206.7319242051
 20
209.2079231249
 30
0.0
  0
ENDBLK
  5
166
100
AcDbEntity
  8
0
100
AcDbBlockEnd
  0
BLOCK
  5
169
100
AcDbEntity
  8
0
 62
       255
100
AcDbBlockBegin
  2
*D12
 70
         1
 10
0.0
 20
0.0
 30
0.0
  3
*D12
  1

  0
MTEXT
  5
16A
100
AcDbEntity
  8
0
 62
         7
100
AcDbMText
 10
208.3194242051
 20
188.5743943541
 30
0.0
 40
3.5
 41
0.0
 71
         7
 72
         1
  1
10
  7
SLDTEXTSTYLE0
 73
         1
 44
1.0
  0
LINE
  5
16B
100
AcDbEntity
  8
0
100
AcDbLine
 10
188.6977153346
 20
189.8529726674
 30
0.0
 11
206.7319242051
 21
189.8529726674
 31
0.0
  0
POINT
  5
16C
100
AcDbEntity
  8
0
 62
         7
100
AcDbPoint
 10
187.6977153346
 20
189.8529726674
 30
0.0
  0
POINT
  5
16D
100
AcDbEntity
  8
0
 62
         7
100
AcDbPoint
 10
206.7319242051
 20
189.8529726674
 30
0.0
  0
ENDBLK
  5
16E
100
AcDbEntity
  8
0
100
AcDbBlockEnd
  0
BLOCK
  5
171
100
AcDbEntity
  8
0
 62
       255
100
AcDbBlockBegin
  2
*D13
 70
         1
 10
0.0
 20
0.0
 30
0.0
  3
*D13
  1

  0
MTEXT
  5
172
100
AcDbEntity
  8
0
 62
         7
100
AcDbMText
 10
208.3194242051
 20
248.5743943541
 30
0.0
 40
3.5
 41
0.0
 71
         7
 72
         1
  1
70
  7
SLDTEXTSTYLE0
 73
         1
 44
1.0
  0
LINE
  5
173
100
AcDbEntity
  8
0
100
AcDbLine
 10
198.6977153346
 20
249.8529726674
 30
0.0
 11
206.7319242051
 21
249.8529726674
 31
0.0
  0
POINT
  5
174
100
AcDbEntity
  8
0
 62
         7
100
AcDbPoint
 10
197.6977153346
 20
249.8529726674
 30
0.0
  0
POINT
  5
175
100
AcDbEntity
  8
0
 62
         7
100
AcDbPoint
 10
206.7319242051
 20
249.8529726674
 30
0.0
  0
ENDBLK
  5
176
100
AcDbEntity
  8
0
100
AcDbBlockEnd
  0
BLOCK
  5
179
100
AcDbEntity
  8
0
 62
       255
100
AcDbBlockBegin
  2
*D14
 70
         1
 10
0.0
 20
0.0
 30
0.0
  3
*D14
  1

  0
MTEXT
  5
17A
100
AcDbEntity
  8
0
 62
         7
100
AcDbMText
 10
72.9345892727
 20
265.7196144578
 30
0.0
 40
3.5
 41
0.0
 71
         7
 72
         1
  1
%%c
  7
SLDTEXTSTYLE0
 73
         1
 44
1.0
  0
MTEXT
  5
17B
100
AcDbEntity
  8
0
 62
         7
100
AcDbMText
 10
77.9325892727
 20
265.7196144578
 30
0.0
 40
3.5
 41
0.0
 71
         7
 72
         1
  1
10
  7
SLDTEXTSTYLE0
 73
         1
 44
1.0
  0
MTEXT
  5
17C
100
AcDbEntity
  8
0
 62
         7
100
AcDbMText
 10
83.1026374655
 20
265.7196144578
 30
0.0
 40
3.5
 41
0.0
 71
         7
 72
         1
  1
 non débouchant
  7
SLDTEXTSTYLE0
 73
         1
 44
1.0
  0
LINE
  5
17D
100
AcDbEntity
  8
0
100
AcDbLine
 10
59.9158981557
 20
244.3340065851
 30
0.0
 11
69.7595892727
 21
264.2196144578
 31
0.0
  0
LINE
  5
17E
100
AcDbEntity
  8
0
100
AcDbLine
 10
55.4795325135
 20
235.3719387496
 30
0.0
 11
59.9158981557
 21
244.3340065851
 31
0.0
  0
LINE
  5
17F
100
AcDbEntity
  8
0
100
AcDbLine
 10
69.7595892727
 20
264.2196144578
 30
0.0
 11
126.3519627667
 21
264.2196144578
 31
0.0
  0
SOLID
  5
180
100
AcDbEntity
  8
0
 62
       255
100
AcDbTrace
 10
59.9158981557
 20
244.3340065851
 30
0.0
 11
61.650100901
 21
246.8229904819
 31
0.0
 12
60.8435147958
 22
247.2222633897
 32
0.0
 13
60.8435147958
 23
247.2222633897
 33
0.0
  0
POINT
  5
182
100
AcDbEntity
  8
0
 62
         7
100
AcDbPoint
 10
59.9158981557
 20
244.3340065851
 30
0.0
  0
POINT
  5
183
100
AcDbEntity
  8
0
 62
         7
100
AcDbPoint
 10
55.4795325135
 20
235.3719387496
 30
0.0
  0
ENDBLK
  5
184
100
AcDbEntity
  8
0
100
AcDbBlockEnd
  0
BLOCK
  5
187
100
AcDbEntity
  8
0
 62
       255
100
AcDbBlockBegin
  2
*D15
 70
         1
 10
0.0
 20
0.0
 30
0.0
  3
*D15
  1

  0
MTEXT
  5
188
100
AcDbEntity
  8
0
 62
         7
100
AcDbMText
 10
202.395129888
 20
200.586201025
 30
0.0
 40
3.5
 41
0.0
 71
         7
 72
         1
  1
%%c
  7
SLDTEXTSTYLE0
 73
         1
 44
1.0
  0
MTEXT
  5
189
100
AcDbEntity
  8
0
 62
         7
100
AcDbMText
 10
207.393129888
 20
200.586201025
 30
0.0
 40
3.5
 41
0.0
 71
         7
 72
         1
  1
10
  7
SLDTEXTSTYLE0
 73
         1
 44
1.0
  0
MTEXT
  5
18A
100
AcDbEntity
  8
0
 62
         7
100
AcDbMText
 10
212.5631780808
 20
200.586201025
 30
0.0
 40
3.5
 41
0.0
 71
         7
 72
         1
  1
 non débouchant
  7
SLDTEXTSTYLE0
 73
         1
 44
1.0
  0
LINE
  5
18B
100
AcDbEntity
  8
0
100
AcDbLine
 10
191.5995313233
 20
192.9796053593
 30
0.0
 11
199.220129888
 21
199.086201025
 31
0.0
  0
LINE
  5
18C
100
AcDbEntity
  8
0
100
AcDbLine
 10
183.7958993459
 20
186.7263399754
 30
0.0
 11
191.5995313233
 21
192.9796053593
 31
0.0
  0
LINE
  5
18D
100
AcDbEntity
  8
0
100
AcDbLine
 10
199.220129888
 20
199.086201025
 30
0.0
 11
255.812503382
 21
199.086201025
 31
0.0
  0
SOLID
  5
18E
100
AcDbEntity
  8
0
 62
       255
100
AcDbTrace
 10
191.5995313233
 20
192.9796053593
 30
0.0
 11
194.2220178588
 21
194.5044215355
 31
0.0
 12
193.6592239742
 22
195.2067484135
 32
0.0
 13
193.6592239742
 23
195.2067484135
 33
0.0
  0
POINT
  5
18F
100
AcDbEntity
  8
0
 62
         7
100
AcDbPoint
 10
191.5995313233
 20
192.9796053593
 30
0.0
  0
POINT
  5
190
100
AcDbEntity
  8
0
 62
         7
100
AcDbPoint
 10
183.7958993459
 20
186.7263399754
 30
0.0
  0
ENDBLK
  5
191
100
AcDbEntity
  8
0
100
AcDbBlockEnd
  0
BLOCK
  5
194
100
AcDbEntity
  8
0
 62
       255
100
AcDbBlockBegin
  2
*D16
 70
         1
 10
0.0
 20
0.0
 30
0.0
  3
*D16
  1

  0
MTEXT
  5
195
100
AcDbEntity
  8
0
 62
         7
100
AcDbMText
 10
82.0465965252
 20
256.6180074835
 30
0.0
 40
3.5
 41
0.0
 71
         7
 72
         1
  1
%%c
  7
SLDTEXTSTYLE0
 73
         1
 44
1.0
  0
MTEXT
  5
196
100
AcDbEntity
  8
0
 62
         7
100
AcDbMText
 10
87.0445965252
 20
256.6180074835
 30
0.0
 40
3.5
 41
0.0
 71
         7
 72
         1
  1
8
  7
SLDTEXTSTYLE0
 73
         1
 44
1.0
  0
LINE
  5
197
100
AcDbEntity
  8
0
100
AcDbLine
 10
71.6071336695
 20
220.6842483552
 30
0.0
 11
78.8715965252
 21
255.1180074835
 31
0.0
  0
LINE
  5
198
100
AcDbEntity
  8
0
100
AcDbLine
 10
69.9557302836
 20
212.8565496604
 30
0.0
 11
71.6071336695
 21
220.6842483552
 31
0.0
  0
LINE
  5
199
100
AcDbEntity
  8
0
100
AcDbLine
 10
78.8715965252
 20
255.1180074835
 30
0.0
 11
91.2171206216
 21
255.1180074835
 31
0.0
  0
SOLID
  5
19A
100
AcDbEntity
  8
0
 62
       255
100
AcDbTrace
 10
71.6071336695
 20
220.6842483552
 30
0.0
 11
72.6667179908
 21
223.5267439253
 31
0.0
 12
71.7861018877
 22
223.7125268062
 32
0.0
 13
71.7861018877
 23
223.7125268062
 33
0.0
  0
POINT
  5
19B
100
AcDbEntity
  8
0
 62
         7
100
AcDbPoint
 10
71.6071336695
 20
220.6842483552
 30
0.0
  0
POINT
  5
19C
100
AcDbEntity
  8
0
 62
         7
100
AcDbPoint
 10
69.9557302836
 20
212.8565496604
 30
0.0
  0
ENDBLK
  5
19D
100
AcDbEntity
  8
0
100
AcDbBlockEnd
  0
BLOCK
  5
1A0
100
AcDbEntity
  8
0
 62
       255
100
AcDbBlockBegin
  2
*D17
 70
         1
 10
0.0
 20
0.0
 30
0.0
  3
*D17
  1

  0
MTEXT
  5
1A1
100
AcDbEntity
  8
0
 62
         7
100
AcDbMText
 10
103.8446512233
 20
256.6180074835
 30
0.0
 40
3.5
 41
0.0
 71
         7
 72
         1
  1
%%c
  7
SLDTEXTSTYLE0
 73
         1
 44
1.0
  0
MTEXT
  5
1A2
100
AcDbEntity
  8
0
 62
         7
100
AcDbMText
 10
108.8426512233
 20
256.6180074835
 30
0.0
 40
3.5
 41
0.0
 71
         7
 72
         1
  1
8,50
  7
SLDTEXTSTYLE0
 73
         1
 44
1.0
  0
LINE
  5
1A3
100
AcDbEntity
  8
0
100
AcDbLine
 10
93.5231360335
 20
219.0220469855
 30
0.0
 11
100.6696512233
 21
255.1180074835
 31
0.0
  0
LINE
  5
1A4
100
AcDbEntity
  8
0
100
AcDbLine
 10
91.8722946357
 20
210.6838983493
 30
0.0
 11
93.5231360335
 21
219.0220469855
 31
0.0
  0
LINE
  5
1A5
100
AcDbEntity
  8
0
100
AcDbLine
 10
100.6696512233
 20
255.1180074835
 30
0.0
 11
119.4755849582
 21
255.1180074835
 31
0.0
  0
SOLID
  5
1A6
100
AcDbEntity
  8
0
 62
       255
100
AcDbTrace
 10
93.5231360335
 20
219.0220469855
 30
0.0
 11
94.547217337
 21
221.8775254889
 31
0.0
 12
93.6643545402
 22
222.0523204605
 32
0.0
 13
93.6643545402
 23
222.0523204605
 33
0.0
  0
POINT
  5
1A7
100
AcDbEntity
  8
0
 62
         7
100
AcDbPoint
 10
93.5231360335
 20
219.0220469855
 30
0.0
  0
POINT
  5
1A8
100
AcDbEntity
  8
0
 62
         7
100
AcDbPoint
 10
91.8722946357
 20
210.6838983493
 30
0.0
  0
ENDBLK
  5
1A9
100
AcDbEntity
  8
0
100
AcDbBlockEnd
  0
BLOCK
  5
1AC
100
AcDbEntity
  8
0
 62
       255
100
AcDbBlockBegin
  2
*D18
 70
         1
 10
0.0
 20
0.0
 30
0.0
  3
*D18
  1

  0
MTEXT
  5
1AD
100
AcDbEntity
  8
0
 62
         7
100
AcDbMText
 10
136.0489567077
 20
171.9766548474
 30
0.0
 40
3.5
 41
0.0
 71
         7
 72
         1
  1
%%c
  7
SLDTEXTSTYLE0
 73
         1
 44
1.0
  0
MTEXT
  5
1AE
100
AcDbEntity
  8
0
 62
         7
100
AcDbMText
 10
141.0469567077
 20
171.9766548474
 30
0.0
 40
3.5
 41
0.0
 71
         7
 72
         1
  1
8,50
  7
SLDTEXTSTYLE0
 73
         1
 44
1.0
  0
LINE
  5
1AF
100
AcDbEntity
  8
0
100
AcDbLine
 10
166.3834387542
 20
210.8112926862
 30
0.0
 11
153.2673904426
 21
170.4766548474
 31
0.0
  0
LINE
  5
1B0
100
AcDbEntity
  8
0
100
AcDbLine
 10
169.0119919151
 20
218.8946526485
 30
0.0
 11
166.3834387542
 21
210.8112926862
 31
0.0
  0
LINE
  5
1B1
100
AcDbEntity
  8
0
100
AcDbLine
 10
153.2673904426
 20
170.4766548474
 30
0.0
 11
134.4614567077
 21
170.4766548474
 31
0.0
  0
SOLID
  5
1B2
100
AcDbEntity
  8
0
 62
       255
100
AcDbTrace
 10
166.3834387542
 20
210.8112926862
 30
0.0
 11
165.0277715229
 21
208.097500808
 31
0.0
 12
165.8836566954
 22
207.8191834145
 32
0.0
 13
165.8836566954
 23
207.8191834145
 33
0.0
  0
POINT
  5
1B3
100
AcDbEntity
  8
0
 62
         7
100
AcDbPoint
 10
166.3834387542
 20
210.8112926862
 30
0.0
  0
POINT
  5
1B4
100
AcDbEntity
  8
0
 62
         7
100
AcDbPoint
 10
169.0119919151
 20
218.8946526485
 30
0.0
  0
ENDBLK
  5
1B5
100
AcDbEntity
  8
0
100
AcDbBlockEnd
  0
BLOCK
  5
1B9
100
AcDbEntity
  8
0
100
AcDbBlockBegin
  2
_DOT
 70
         0
 10
0.0
 20
0.0
 30
0.0
  3
_DOT
  1

  0
POLYLINE
  5
1BA
100
AcDbEntity
  8
0
100
AcDb2dPolyline
 66
         1
 10
0.0
 20
0.0
 30
0.0
 70
         1
 40
0.5
 41
0.5
  0
VERTEX
  5
1BB
100
AcDbEntity
  8
0
100
AcDbVertex
100
AcDb2dVertex
 10
-0.25
 20
0.0
 30
0.0
 42
1.0
  0
VERTEX
  5
1BC
100
AcDbEntity
  8
0
100
AcDbVertex
100
AcDb2dVertex
 10
0.25
 20
0.0
 30
0.0
 42
1.0
  0
SEQEND
  5
1BD
100
AcDbEntity
  8
0
  0
LINE
  5
1BE
100
AcDbEntity
  8
0
100
AcDbLine
 10
-0.5
 20
0.0
 30
0.0
 11
-1.0
 21
0.0
 31
0.0
  0
ENDBLK
  5
1BF
100
AcDbEntity
  8
0
100
AcDbBlockEnd
  0
BLOCK
  5
202
100
AcDbEntity
  8
0
 62
       255
100
AcDbBlockBegin
  2
*D20
 70
         1
 10
0.0
 20
0.0
 30
0.0
  3
*D20
  1

  0
MTEXT
  5
203
100
AcDbEntity
  8
0
 62
         7
100
AcDbMText
 10
31.5907772021
 20
124.146791641
 30
0.0
 40
3.5
 41
0.0
 71
         7
 72
         1
  1
10
  7
SLDTEXTSTYLE0
 11
0.0
 21
1.0
 31
0.0
 73
         1
 44
1.0
  0
LINE
  5
204
100
AcDbEntity
  8
0
100
AcDbLine
 10
46.6977153346
 20
132.0795869345
 30
0.0
 11
32.0907772021
 21
132.0795869345
 31
0.0
  0
LINE
  5
205
100
AcDbEntity
  8
0
100
AcDbLine
 10
46.6977153346
 20
122.0795869345
 30
0.0
 11
32.0907772021
 21
122.0795869345
 31
0.0
  0
LINE
  5
206
100
AcDbEntity
  8
0
100
AcDbLine
 10
33.0907772021
 20
132.0795869345
 30
0.0
 11
33.0907772021
 21
137.0795869345
 31
0.0
  0
LINE
  5
207
100
AcDbEntity
  8
0
100
AcDbLine
 10
33.0907772021
 20
132.0795869345
 30
0.0
 11
33.0907772021
 21
122.0795869345
 31
0.0
  0
LINE
  5
208
100
AcDbEntity
  8
0
100
AcDbLine
 10
33.0907772021
 20
122.0795869345
 30
0.0
 11
33.0907772021
 21
117.0795869345
 31
0.0
  0
SOLID
  5
209
100
AcDbEntity
  8
0
 62
       255
100
AcDbTrace
 10
33.0907772021
 20
132.0795869345
 30
0.0
 11
33.5407772021
 21
135.0795869345
 31
0.0
 12
32.6407772021
 22
135.0795869345
 32
0.0
 13
32.6407772021
 23
135.0795869345
 33
0.0
  0
SOLID
  5
20A
100
AcDbEntity
  8
0
 62
       255
100
AcDbTrace
 10
33.0907772021
 20
122.0795869345
 30
0.0
 11
32.6407772021
 21
119.0795869345
 31
0.0
 12
33.5407772021
 22
119.0795869345
 32
0.0
 13
33.5407772021
 23
119.0795869345
 33
0.0
  0
POINT
  5
20C
100
AcDbEntity
  8
0
 62
         7
100
AcDbPoint
 10
47.6977153346
 20
132.0795869345
 30
0.0
  0
POINT
  5
20D
100
AcDbEntity
  8
0
 62
         7
100
AcDbPoint
 10
47.6977153346
 20
122.0795869345
 30
0.0
  0
ENDBLK
  5
20E
100
AcDbEntity
  8
0
 62
       255
100
AcDbBlockEnd
  0
BLOCK
  5
211
100
AcDbEntity
  8
0
 62
       255
100
AcDbBlockBegin
  2
*D21
 70
         1
 10
0.0
 20
0.0
 30
0.0
  3
*D21
  1

  0
MTEXT
  5
212
100
AcDbEntity
  8
0
 62
         7
100
AcDbMText
 10
205.4863490376
 20
124.5150145941
 30
0.0
 40
3.5
 41
0.0
 71
         7
 72
         1
  1
8
  7
SLDTEXTSTYLE0
 11
0.0
 21
1.0
 31
0.0
 73
         1
 44
1.0
  0
LINE
  5
213
100
AcDbEntity
  8
0
100
AcDbLine
 10
193.6977153346
 20
130.0795869345
 30
0.0
 11
207.9863490376
 21
130.0795869345
 31
0.0
  0
LINE
  5
214
100
AcDbEntity
  8
0
100
AcDbLine
 10
198.6977153346
 20
122.0795869345
 30
0.0
 11
207.9863490376
 21
122.0795869345
 31
0.0
  0
LINE
  5
215
100
AcDbEntity
  8
0
100
AcDbLine
 10
206.9863490376
 20
130.0795869345
 30
0.0
 11
206.9863490376
 21
135.0795869345
 31
0.0
  0
LINE
  5
216
100
AcDbEntity
  8
0
100
AcDbLine
 10
206.9863490376
 20
130.0795869345
 30
0.0
 11
206.9863490376
 21
122.0795869345
 31
0.0
  0
LINE
  5
217
100
AcDbEntity
  8
0
100
AcDbLine
 10
206.9863490376
 20
122.0795869345
 30
0.0
 11
206.9863490376
 21
117.0795869345
 31
0.0
  0
SOLID
  5
218
100
AcDbEntity
  8
0
 62
       255
100
AcDbTrace
 10
206.9863490376
 20
130.0795869345
 30
0.0
 11
207.4363490376
 21
133.0795869345
 31
0.0
 12
206.5363490376
 22
133.0795869345
 32
0.0
 13
206.5363490376
 23
133.0795869345
 33
0.0
  0
SOLID
  5
219
100
AcDbEntity
  8
0
 62
       255
100
AcDbTrace
 10
206.9863490376
 20
122.0795869345
 30
0.0
 11
206.5363490376
 21
119.0795869345
 31
0.0
 12
207.4363490376
 22
119.0795869345
 32
0.0
 13
207.4363490376
 23
119.0795869345
 33
0.0
  0
POINT
  5
21A
100
AcDbEntity
  8
0
 62
         7
100
AcDbPoint
 10
192.6977153346
 20
130.0795869345
 30
0.0
  0
POINT
  5
21B
100
AcDbEntity
  8
0
 62
         7
100
AcDbPoint
 10
197.6977153346
 20
122.0795869345
 30
0.0
  0
ENDBLK
  5
21C
100
AcDbEntity
  8
0
 62
       255
100
AcDbBlockEnd
  0
BLOCK
  5
21F
100
AcDbEntity
  8
0
 62
       255
100
AcDbBlockBegin
  2
*D22
 70
         1
 10
0.0
 20
0.0
 30
0.0
  3
*D22
  1

  0
MTEXT
  5
220
100
AcDbEntity
  8
0
 62
         7
100
AcDbMText
 10
40.3357240493
 20
124.5150145941
 30
0.0
 40
3.5
 41
0.0
 71
         7
 72
         1
  1
8
  7
SLDTEXTSTYLE0
 11
0.0
 21
1.0
 31
0.0
 73
         1
 44
1.0
  0
LINE
  5
221
100
AcDbEntity
  8
0
100
AcDbLine
 10
51.6977153346
 20
130.0795869345
 30
0.0
 11
40.8357240493
 21
130.0795869345
 31
0.0
  0
LINE
  5
222
100
AcDbEntity
  8
0
100
AcDbLine
 10
46.6977153346
 20
122.0795869345
 30
0.0
 11
40.8357240493
 21
122.0795869345
 31
0.0
  0
LINE
  5
223
100
AcDbEntity
  8
0
100
AcDbLine
 10
41.8357240493
 20
130.0795869345
 30
0.0
 11
41.8357240493
 21
135.0795869345
 31
0.0
  0
LINE
  5
224
100
AcDbEntity
  8
0
100
AcDbLine
 10
41.8357240493
 20
130.0795869345
 30
0.0
 11
41.8357240493
 21
122.0795869345
 31
0.0
  0
LINE
  5
225
100
AcDbEntity
  8
0
100
AcDbLine
 10
41.8357240493
 20
122.0795869345
 30
0.0
 11
41.8357240493
 21
117.0795869345
 31
0.0
  0
SOLID
  5
226
100
AcDbEntity
  8
0
 62
       255
100
AcDbTrace
 10
41.8357240493
 20
130.0795869345
 30
0.0
 11
42.2857240493
 21
133.0795869345
 31
0.0
 12
41.3857240493
 22
133.0795869345
 32
0.0
 13
41.3857240493
 23
133.0795869345
 33
0.0
  0
SOLID
  5
227
100
AcDbEntity
  8
0
 62
       255
100
AcDbTrace
 10
41.8357240493
 20
122.0795869345
 30
0.0
 11
41.3857240493
 21
119.0795869345
 31
0.0
 12
42.2857240493
 22
119.0795869345
 32
0.0
 13
42.2857240493
 23
119.0795869345
 33
0.0
  0
POINT
  5
228
100
AcDbEntity
  8
0
 62
         7
100
AcDbPoint
 10
52.6977153346
 20
130.0795869345
 30
0.0
  0
POINT
  5
229
100
AcDbEntity
  8
0
 62
         7
100
AcDbPoint
 10
47.6977153346
 20
122.0795869345
 30
0.0
  0
ENDBLK
  5
22A
100
AcDbEntity
  8
0
 62
       255
100
AcDbBlockEnd
  0
BLOCK
  5
727
100
AcDbEntity
  8
0
 62
       255
100
AcDbBlockBegin
  2
*D23
 70
         1
 10
0.0
 20
0.0
 30
0.0
  3
*D23
  1

  0
MTEXT
  5
728
100
AcDbEntity
  8
0
 62
         7
100
AcDbMText
 10
356.5521462482
 20
70.3325870974
 30
0.0
 40
3.5
 41
0.0
 71
         7
 72
         1
  1
6
  7
SLDTEXTSTYLE0
 11
0.0
 21
1.0
 31
0.0
 73
         1
 44
1.0
  0
LINE
  5
729
100
AcDbEntity
  8
0
100
AcDbLine
 10
362.34240103
 20
88.3527401974
 30
0.0
 11
357.0521462482
 21
88.3527401974
 31
0.0
  0
LINE
  5
72A
100
AcDbEntity
  8
0
100
AcDbLine
 10
368.081018614
 20
82.3527401974
 30
0.0
 11
357.0521462482
 21
82.3527401974
 31
0.0
  0
LINE
  5
72B
100
AcDbEntity
  8
0
100
AcDbLine
 10
358.0521462482
 20
88.3527401974
 30
0.0
 11
358.0521462482
 21
93.3527401974
 31
0.0
  0
LINE
  5
72C
100
AcDbEntity
  8
0
100
AcDbLine
 10
358.0521462482
 20
88.3527401974
 30
0.0
 11
358.0521462482
 21
82.3527401974
 31
0.0
  0
LINE
  5
72D
100
AcDbEntity
  8
0
100
AcDbLine
 10
358.0521462482
 20
82.3527401974
 30
0.0
 11
358.0521462482
 21
68.7450870974
 31
0.0
  0
SOLID
  5
72E
100
AcDbEntity
  8
0
 62
       255
100
AcDbTrace
 10
358.0521462482
 20
88.3527401974
 30
0.0
 11
358.5021462482
 21
91.3527401974
 31
0.0
 12
357.6021462482
 22
91.3527401974
 32
0.0
 13
357.6021462482
 23
91.3527401974
 33
0.0
  0
SOLID
  5
72F
100
AcDbEntity
  8
0
 62
       255
100
AcDbTrace
 10
358.0521462482
 20
82.3527401974
 30
0.0
 11
357.6021462482
 21
79.3527401974
 31
0.0
 12
358.5021462482
 22
79.3527401974
 32
0.0
 13
358.5021462482
 23
79.3527401974
 33
0.0
  0
POINT
  5
730
100
AcDbEntity
  8
0
 62
         7
100
AcDbPoint
 10
363.34240103
 20
88.3527401974
 30
0.0
  0
POINT
  5
731
100
AcDbEntity
  8
0
 62
         7
100
AcDbPoint
 10
369.081018614
 20
82.3527401974
 30
0.0
  0
ENDBLK
  5
732
100
AcDbEntity
  8
0
 62
       255
100
AcDbBlockEnd
  0
BLOCK
  5
735
100
AcDbEntity
  8
0
 62
       255
100
AcDbBlockBegin
  2
*D24
 70
         1
 10
0.0
 20
0.0
 30
0.0
  3
*D24
  1

  0
MTEXT
  5
736
100
AcDbEntity
  8
0
 62
         7
100
AcDbMText
 10
237.0836022833
 20
68.9578287407
 30
0.0
 40
3.5
 41
0.0
 71
         7
 72
         1
  1
3,50
  7
SLDTEXTSTYLE0
 11
0.0
 21
1.0
 31
0.0
 73
         1
 44
1.0
  0
LINE
  5
737
100
AcDbEntity
  8
0
100
AcDbLine
 10
247.3056954886
 20
85.8527401974
 30
0.0
 11
237.5836022833
 21
85.8527401974
 31
0.0
  0
LINE
  5
738
100
AcDbEntity
  8
0
100
AcDbLine
 10
238.5836022833
 20
85.8527401974
 30
0.0
 11
238.5836022833
 21
90.8527401974
 31
0.0
  0
LINE
  5
739
100
AcDbEntity
  8
0
100
AcDbLine
 10
238.5836022833
 20
85.8527401974
 30
0.0
 11
238.5836022833
 21
82.3527401974
 31
0.0
  0
LINE
  5
73A
100
AcDbEntity
  8
0
100
AcDbLine
 10
238.5836022833
 20
82.3527401974
 30
0.0
 11
238.5836022833
 21
67.3703287407
 31
0.0
  0
SOLID
  5
73B
100
AcDbEntity
  8
0
 62
       255
100
AcDbTrace
 10
238.5836022833
 20
85.8527401974
 30
0.0
 11
239.0336022833
 21
88.8527401974
 31
0.0
 12
238.1336022833
 22
88.8527401974
 32
0.0
 13
238.1336022833
 23
88.8527401974
 33
0.0
  0
SOLID
  5
73C
100
AcDbEntity
  8
0
 62
       255
100
AcDbTrace
 10
238.5836022833
 20
82.3527401974
 30
0.0
 11
238.1336022833
 21
79.3527401974
 31
0.0
 12
239.0336022833
 22
79.3527401974
 32
0.0
 13
239.0336022833
 23
79.3527401974
 33
0.0
  0
POINT
  5
73D
100
AcDbEntity
  8
0
 62
         7
100
AcDbPoint
 10
248.3056954886
 20
85.8527401974
 30
0.0
  0
POINT
  5
73E
100
AcDbEntity
  8
0
 62
         7
100
AcDbPoint
 10
246.1308025134
 20
82.3527401974
 30
0.0
  0
ENDBLK
  5
73F
100
AcDbEntity
  8
0
 62
       255
100
AcDbBlockEnd
  0
BLOCK
  5
742
100
AcDbEntity
  8
0
 62
       255
100
AcDbBlockBegin
  2
*D25
 70
         1
 10
0.0
 20
0.0
 30
0.0
  3
*D25
  1

  0
MTEXT
  5
743
100
AcDbEntity
  8
0
 62
         7
100
AcDbMText
 10
293.3914077136
 20
71.6941054422
 30
0.0
 40
3.5
 41
0.0
 71
         7
 72
         1
  1
6
  7
SLDTEXTSTYLE0
 11
0.0
 21
1.0
 31
0.0
 73
         1
 44
1.0
  0
LINE
  5
744
100
AcDbEntity
  8
0
100
AcDbLine
 10
288.1324597579
 20
88.3527401974
 30
0.0
 11
295.8914077136
 21
88.3527401974
 31
0.0
  0
LINE
  5
745
100
AcDbEntity
  8
0
100
AcDbLine
 10
294.8914077136
 20
88.3527401974
 30
0.0
 11
294.8914077136
 21
93.3527401974
 31
0.0
  0
LINE
  5
746
100
AcDbEntity
  8
0
100
AcDbLine
 10
294.8914077136
 20
88.3527401974
 30
0.0
 11
294.8914077136
 21
82.3527401974
 31
0.0
  0
LINE
  5
747
100
AcDbEntity
  8
0
100
AcDbLine
 10
294.8914077136
 20
82.3527401974
 30
0.0
 11
294.8914077136
 21
70.1066054422
 31
0.0
  0
SOLID
  5
748
100
AcDbEntity
  8
0
 62
       255
100
AcDbTrace
 10
294.8914077136
 20
88.3527401974
 30
0.0
 11
295.3414077136
 21
91.3527401974
 31
0.0
 12
294.4414077136
 22
91.3527401974
 32
0.0
 13
294.4414077136
 23
91.3527401974
 33
0.0
  0
SOLID
  5
749
100
AcDbEntity
  8
0
 62
       255
100
AcDbTrace
 10
294.8914077136
 20
82.3527401974
 30
0.0
 11
294.4414077136
 21
79.3527401974
 31
0.0
 12
295.3414077136
 22
79.3527401974
 32
0.0
 13
295.3414077136
 23
79.3527401974
 33
0.0
  0
POINT
  5
74A
100
AcDbEntity
  8
0
 62
         7
100
AcDbPoint
 10
287.1324597579
 20
88.3527401974
 30
0.0
  0
POINT
  5
74B
100
AcDbEntity
  8
0
 62
         7
100
AcDbPoint
 10
288.1324597579
 20
82.3527401974
 30
0.0
  0
ENDBLK
  5
74C
100
AcDbEntity
  8
0
 62
       255
100
AcDbBlockEnd
  0
BLOCK
  5
74F
100
AcDbEntity
  8
0
 62
       255
100
AcDbBlockBegin
  2
*D26
 70
         1
 10
0.0
 20
0.0
 30
0.0
  3
*D26
  1

  0
MTEXT
  5
750
100
AcDbEntity
  8
0
 62
         7
100
AcDbMText
 10
220.113253012
 20
84.192686747
 30
0.0
 40
3.5
 41
0.0
 71
         7
 72
         1
  1
10
  7
SLDTEXTSTYLE0
 11
0.0
 21
1.0
 31
0.0
 73
         1
 44
1.0
  0
LINE
  5
751
100
AcDbEntity
  8
0
100
AcDbLine
 10
227.7324597579
 20
92.3527401974
 30
0.0
 11
220.613253012
 21
92.3527401974
 31
0.0
  0
LINE
  5
752
100
AcDbEntity
  8
0
100
AcDbLine
 10
227.7324597579
 20
82.3527401974
 30
0.0
 11
220.613253012
 21
82.3527401974
 31
0.0
  0
LINE
  5
753
100
AcDbEntity
  8
0
100
AcDbLine
 10
221.613253012
 20
92.3527401974
 30
0.0
 11
221.613253012
 21
97.3527401974
 31
0.0
  0
LINE
  5
754
100
AcDbEntity
  8
0
100
AcDbLine
 10
221.613253012
 20
92.3527401974
 30
0.0
 11
221.613253012
 21
82.3527401974
 31
0.0
  0
LINE
  5
755
100
AcDbEntity
  8
0
100
AcDbLine
 10
221.613253012
 20
82.3527401974
 30
0.0
 11
221.613253012
 21
77.3527401974
 31
0.0
  0
SOLID
  5
756
100
AcDbEntity
  8
0
 62
       255
100
AcDbTrace
 10
221.613253012
 20
92.3527401974
 30
0.0
 11
222.063253012
 21
95.3527401974
 31
0.0
 12
221.163253012
 22
95.3527401974
 32
0.0
 13
221.163253012
 23
95.3527401974
 33
0.0
  0
SOLID
  5
757
100
AcDbEntity
  8
0
 62
       255
100
AcDbTrace
 10
221.613253012
 20
82.3527401974
 30
0.0
 11
221.163253012
 21
79.3527401974
 31
0.0
 12
222.063253012
 22
79.3527401974
 32
0.0
 13
222.063253012
 23
79.3527401974
 33
0.0
  0
POINT
  5
758
100
AcDbEntity
  8
0
 62
         7
100
AcDbPoint
 10
228.7324597579
 20
92.3527401974
 30
0.0
  0
POINT
  5
759
100
AcDbEntity
  8
0
 62
         7
100
AcDbPoint
 10
228.7324597579
 20
82.3527401974
 30
0.0
  0
ENDBLK
  5
75A
100
AcDbEntity
  8
0
 62
       255
100
AcDbBlockEnd
  0
ENDSEC
  0
SECTION
  2
ENTITIES
  0
LINE
  5
30
100
AcDbEntity
  8
0
370
         0
  6
Continuous
 62
         7
100
AcDbLine
 10
12.0
 20
279.0
 30
0.0
 11
408.0
 21
279.0
 31
0.0
  0
LINE
  5
31
100
AcDbEntity
  8
0
370
         0
  6
Continuous
 62
         7
100
AcDbLine
 10
12.0
 20
279.0
 30
0.0
 11
12.0
 21
18.0
 31
0.0
  0
LINE
  5
32
100
AcDbEntity
  8
0
370
         0
  6
Continuous
 62
         7
100
AcDbLine
 10
12.0
 20
18.0
 30
0.0
 11
408.0
 21
18.0
 31
0.0
  0
LINE
  5
33
100
AcDbEntity
  8
0
370
         0
  6
Continuous
 62
         7
100
AcDbLine
 10
408.0
 20
279.0
 30
0.0
 11
408.0
 21
18.0
 31
0.0
  0
LINE
  5
34
100
AcDbEntity
  8
0
370
         0
  6
Continuous
 62
         7
100
AcDbLine
 10
230.084092326
 20
18.2522667599
 30
0.0
 11
407.7493469813
 21
18.2522667599
 31
0.0
  0
LINE
  5
35
100
AcDbEntity
  8
0
370
         0
  6
Continuous
 62
         7
100
AcDbLine
 10
408.0
 20
58.3068354107
 30
0.0
 11
230.084092326
 21
58.3068354107
 31
0.0
  0
LINE
  5
36
100
AcDbEntity
  8
0
370
         0
  6
Continuous
 62
         7
100
AcDbLine
 10
366.4090916959
 20
58.3068354107
 30
0.0
 11
366.4090916959
 21
38.2795510853
 31
0.0
  0
LINE
  5
37
100
AcDbEntity
  8
0
370
         0
  6
Continuous
 62
         7
100
AcDbLine
 10
407.7493469813
 20
18.2522667599
 30
0.0
 11
288.5242550027
 21
18.2522667599
 31
0.0
  0
LINE
  5
38
100
AcDbEntity
  8
0
370
         0
  6
Continuous
 62
         7
100
AcDbLine
 10
407.7493469813
 20
18.2522667599
 30
0.0
 11
407.7493469813
 21
38.2795510853
 31
0.0
  0
LINE
  5
39
100
AcDbEntity
  8
0
370
         0
  6
Continuous
 62
         7
100
AcDbLine
 10
407.7493469813
 20
38.2795510853
 30
0.0
 11
288.5242550027
 21
38.2795510853
 31
0.0
  0
LINE
  5
3A
100
AcDbEntity
  8
0
370
         0
  6
Continuous
 62
         7
100
AcDbLine
 10
288.5242550027
 20
18.2522667599
 30
0.0
 11
288.5242550027
 21
38.2795510853
 31
0.0
  0
LINE
  5
3B
100
AcDbEntity
  8
0
370
         0
  6
Continuous
 62
         7
100
AcDbLine
 10
288.5242550027
 20
18.2522667599
 30
0.0
 11
230.084092326
 21
18.2522667599
 31
0.0
  0
LINE
  5
3C
100
AcDbEntity
  8
0
370
         0
  6
Continuous
 62
         7
100
AcDbLine
 10
288.5242550027
 20
18.2522667599
 30
0.0
 11
288.5242550027
 21
58.3068354107
 31
0.0
  0
LINE
  5
3D
100
AcDbEntity
  8
0
370
         0
  6
Continuous
 62
         7
100
AcDbLine
 10
288.5242550027
 20
58.3068354107
 30
0.0
 11
230.084092326
 21
58.3068354107
 31
0.0
  0
LINE
  5
3E
100
AcDbEntity
  8
0
370
         0
  6
Continuous
 62
         7
100
AcDbLine
 10
230.084092326
 20
18.2522667599
 30
0.0
 11
230.084092326
 21
58.3068354107
 31
0.0
  0
LINE
  5
3F
100
AcDbEntity
  8
0
370
         0
  6
Continuous
 62
         7
100
AcDbLine
 10
366.4090916959
 20
48.293193248
 30
0.0
 11
408.0
 21
48.293193248
 31
0.0
  0
LINE
  5
40
100
AcDbEntity
  8
0
370
         0
  6
Continuous
 62
         7
100
AcDbLine
 10
366.4090916959
 20
48.293193248
 30
0.0
 11
288.5242550027
 21
48.293193248
 31
0.0
  0
LINE
  5
41
100
AcDbEntity
  8
0
370
         0
  6
Continuous
 62
         7
100
AcDbLine
 10
288.5242550027
 20
38.2795510853
 30
0.0
 11
230.084092326
 21
38.2795510853
 31
0.0
  0
LINE
  5
42
100
AcDbEntity
  8
0
370
         0
  6
CENTERX2
 62
         7
100
AcDbLine
 10
231.5034756363
 20
52.6447098121
 30
0.0
 11
241.8262640213
 21
52.6447098121
 31
0.0
  0
LINE
  5
43
100
AcDbEntity
  8
0
370
         0
  6
CENTERX2
 62
         7
100
AcDbLine
 10
254.0649093727
 20
52.6447098121
 30
0.0
 11
245.9934787816
 21
52.6447098121
 31
0.0
  0
LINE
  5
44
100
AcDbEntity
  8
0
370
         0
  6
CENTERX2
 62
         7
100
AcDbLine
 10
250.0291940771
 20
55.6569677112
 30
0.0
 11
250.0291940771
 21
49.632451913
 31
0.0
  0
LINE
  5
45
100
AcDbEntity
  8
0
370
         0
  6
Continuous
 62
         7
100
AcDbLine
 10
233.7155017188
 20
51.4968023375
 30
0.0
 11
233.7155017188
 21
53.7926172867
 31
0.0
  0
LINE
  5
46
100
AcDbEntity
  8
0
370
         0
  6
Continuous
 62
         7
100
AcDbLine
 10
233.7155017188
 20
53.7926172867
 30
0.0
 11
238.7847281578
 21
55.3594690952
 31
0.0
  0
LINE
  5
47
100
AcDbEntity
  8
0
370
         0
  6
Continuous
 62
         7
100
AcDbLine
 10
238.7847281578
 20
55.3594690952
 30
0.0
 11
238.7847281578
 21
49.9299505291
 31
0.0
  0
LINE
  5
48
100
AcDbEntity
  8
0
370
         0
  6
Continuous
 62
         7
100
AcDbLine
 10
238.7847281578
 20
49.9299505291
 30
0.0
 11
233.7155017188
 21
51.4968023375
 31
0.0
  0
CIRCLE
  5
49
100
AcDbEntity
  8
0
370
         0
  6
Continuous
 62
         5
100
AcDbCircle
 10
250.0291940771
 20
52.6447098121
 30
0.0
 40
3.1391205675
  0
CIRCLE
  5
4A
100
AcDbEntity
  8
0
370
         0
  6
Continuous
 62
         5
100
AcDbCircle
 10
250.0291940771
 20
52.6447098121
 30
0.0
 40
1.5
  0
MTEXT
  5
4C
100
AcDbEntity
  8
0
 62
         7
100
AcDbMText
 10
321.3289280526
 20
44.4688155428
 30
0.0
 40
3.5
 41
0.0
 71
         1
 72
         1
  1
   
  7
SLDTEXTSTYLE0
 73
         1
 44
1.0
  0
MTEXT
  5
4D
100
AcDbEntity
  8
0
 62
         7
100
AcDbMText
 10
312.5436188746
 20
55.2185907877
 30
0.0
 40
3.5
 41
0.0
 71
         1
 72
         1
  1
ALU AU4G - 2017
  7
SLDTEXTSTYLE0
 73
         1
 44
1.0
  0
MTEXT
  5
4E
100
AcDbEntity
  8
0
 62
         7
100
AcDbMText
 10
397.3299847037
 20
55.629067595
 30
0.0
 40
3.5
 41
0.0
 71
         1
 72
         1
  1
1
  7
SLDTEXTSTYLE0
 73
         1
 44
1.0
  0
MTEXT
  5
4F
100
AcDbEntity
  8
0
 62
         7
100
AcDbMText
 10
367.499804219
 20
55.6184159535
 30
0.0
 40
3.5
 41
0.0
 71
         1
 72
         1
  1
Quantité:
  7
SLDTEXTSTYLE0
 73
         1
 44
1.0
  0
MTEXT
  5
50
100
AcDbEntity
  8
0
 62
         7
100
AcDbMText
 10
289.4619428465
 20
55.2778536138
 30
0.0
 40
3.5
 41
0.0
 71
         1
 72
         1
  1
Matière:
  7
SLDTEXTSTYLE0
 73
         1
 44
1.0
  0
MTEXT
  5
51
100
AcDbEntity
  8
0
 62
         7
100
AcDbMText
 10
289.4390372629
 20
44.699460691
 30
0.0
 40
3.5
 41
0.0
 71
         1
 72
         1
  1
Observation:
  7
SLDTEXTSTYLE0
 73
         1
 44
1.0
  0
MTEXT
  5
52
100
AcDbEntity
  8
0
 62
         7
100
AcDbMText
 10
289.7346356121
 20
35.1462952525
 30
0.0
 40
3.5
 41
0.0
 71
         1
 72
         1
  1
Désignation:
  7
SLDTEXTSTYLE0
 73
         1
 44
1.0
  0
MTEXT
  5
53
100
AcDbEntity
  8
0
 62
         7
100
AcDbMText
 10
240.0342250463
 20
45.4874721265
 30
0.0
 40
3.5
 41
0.0
 71
         1
 72
         1
  1
Tol Gén: +/-0.2
  7
SLDTEXTSTYLE0
 73
         1
 44
1.0
  0
MTEXT
  5
54
100
AcDbEntity
  8
0
 62
         7
100
AcDbMText
 10
270.3659973884
 20
57.292987735
 30
0.0
 40
3.5
 41
0.0
 71
         2
 72
         1
  1
A3 \PEchelle 1:1
  7
SLDTEXTSTYLE0
 73
         1
 44
1.0
  0
MTEXT
  5
55
100
AcDbEntity
  8
0
 62
         7
100
AcDbMText
 10
374.545001106
 20
45.7319305088
 30
0.0
 40
3.5
 41
0.0
 71
         1
 72
         1
  1
15/02/2023
  7
SLDTEXTSTYLE0
 73
         1
 44
1.0
  0
MTEXT
  5
56
100
AcDbEntity
  8
0
 62
         7
100
AcDbMText
 10
305.7392518586
 20
27.8230098604
 30
0.0
 40
5.2916666667
 41
0.0
 71
         1
 72
         1
  1
ARL-CLIP1-02-B-MOULE HAUT
  7
SLDTEXTSTYLE0
 73
         1
 44
1.0
  0
MTEXT
  5
57
100
AcDbEntity
  8
0
 62
         7
100
AcDbMText
 10
323.7867495045
 20
47.8558472993
 30
0.0
 40
3.5
 41
0.0
 71
         1
 72
         1
  1
-
  7
SLDTEXTSTYLE0
 73
         1
 44
1.0
  0
POINT
  5
58
100
AcDbEntity
  8
0
 62
       255
100
AcDbPoint
 10
92.6977153346
 20
214.8529726674
 30
0.0
  0
LINE
  5
59
100
AcDbEntity
  8
0
370
        15
  6
Continuous
 62
         7
100
AcDbLine
 10
197.6977153346
 20
249.8529726674
 30
0.0
 11
47.6977153346
 21
249.8529726674
 31
0.0
  0
LINE
  5
5A
100
AcDbEntity
  8
0
370
        15
  6
Continuous
 62
         7
100
AcDbLine
 10
197.6977153346
 20
179.8529726674
 30
0.0
 11
197.6977153346
 21
249.8529726674
 31
0.0
  0
LINE
  5
5B
100
AcDbEntity
  8
0
370
        15
  6
Continuous
 62
         7
100
AcDbLine
 10
47.6977153346
 20
179.8529726674
 30
0.0
 11
197.6977153346
 21
179.8529726674
 31
0.0
  0
LINE
  5
5C
100
AcDbEntity
  8
0
370
        15
  6
Continuous
 62
         7
100
AcDbLine
 10
47.6977153346
 20
249.8529726674
 30
0.0
 11
47.6977153346
 21
179.8529726674
 31
0.0
  0
CIRCLE
  5
5D
100
AcDbEntity
  8
0
370
        15
  6
Continuous
 62
         7
100
AcDbCircle
 10
187.6977153346
 20
189.8529726674
 30
0.0
 40
5.0
  0
CIRCLE
  5
5E
100
AcDbEntity
  8
0
370
        15
  6
Continuous
 62
         7
100
AcDbCircle
 10
57.6977153346
 20
239.8529726674
 30
0.0
 40
5.0
  0
CIRCLE
  5
5F
100
AcDbEntity
  8
0
370
        15
  6
Continuous
 62
         7
100
AcDbCircle
 10
167.6977153346
 20
214.8529726674
 30
0.0
 40
4.25
  0
CIRCLE
  5
60
100
AcDbEntity
  8
0
370
        15
  6
Continuous
 62
         7
100
AcDbCircle
 10
92.6977153346
 20
214.8529726674
 30
0.0
 40
4.25
  0
ARC
  5
61
100
AcDbEntity
  8
0
370
        15
  6
Continuous
 62
         7
100
AcDbCircle
 10
115.6262790193
 20
101.6516874831
 30
0.0
 40
100.0
100
AcDbArc
 50
80.0
 51
101.4501747879
  0
LINE
  5
62
100
AcDbEntity
  8
0
370
        15
  6
Continuous
 62
         7
100
AcDbLine
 10
177.6197210232
 20
192.2632322194
 30
0.0
 11
132.991096786
 21
200.1324627844
 31
0.0
  0
ARC
  5
63
100
AcDbEntity
  8
0
370
        15
  6
Continuous
 62
         7
100
AcDbCircle
 10
177.9149229252
 20
193.9374053996
 30
0.0
 40
1.7
100
AcDbArc
 50
260.0
 51
5.0
  0
LINE
  5
64
100
AcDbEntity
  8
0
370
        15
  6
Continuous
 62
         7
100
AcDbLine
 10
179.1449893384
 20
199.3829944781
 30
0.0
 11
179.6084539119
 21
194.0855701622
 31
0.0
  0
ARC
  5
65
100
AcDbEntity
  8
0
370
        15
  6
Continuous
 62
         7
100
AcDbCircle
 10
176.1564052441
 20
199.1215272498
 30
0.0
 40
3.0
100
AcDbArc
 50
5.0
 51
80.0
  0
ARC
  5
66
100
AcDbEntity
  8
0
370
        15
  6
Continuous
 62
         7
100
AcDbCircle
 10
176.512852354
 20
199.0475531238
 30
0.0
 40
3.0328617054
100
AcDbArc
 50
86.890845606
 51
150.5287793654
  0
ARC
  5
67
100
AcDbEntity
  8
0
370
        15
  6
Continuous
 62
         7
100
AcDbCircle
 10
171.2606252898
 20
202.0156385712
 30
0.0
 40
3.0
100
AcDbArc
 50
189.4712206345
 51
330.5287793654
  0
ARC
  5
68
100
AcDbEntity
  8
0
370
        15
  6
Continuous
 62
         7
100
AcDbCircle
 10
165.3424150119
 20
201.0283254969
 30
0.0
 40
3.0
100
AcDbArc
 50
9.4712206345
 51
150.5287793655
  0
ARC
  5
69
100
AcDbEntity
  8
0
370
        15
  6
Continuous
 62
         7
100
AcDbCircle
 10
160.1187974446
 20
203.9802434347
 30
0.0
 40
3.0
100
AcDbArc
 50
189.4712206345
 51
330.5287793655
  0
ARC
  5
6A
100
AcDbEntity
  8
0
370
        15
  6
Continuous
 62
         7
100
AcDbCircle
 10
154.2005871667
 20
202.9929303604
 30
0.0
 40
3.0
100
AcDbArc
 50
9.4712206345
 51
150.5287793655
  0
ARC
  5
6B
100
AcDbEntity
  8
0
370
        15
  6
Continuous
 62
         7
100
AcDbCircle
 10
148.9769695995
 20
205.9448482982
 30
0.0
 40
3.0
100
AcDbArc
 50
189.4712206345
 51
330.5287793655
  0
ARC
  5
6C
100
AcDbEntity
  8
0
370
        15
  6
Continuous
 62
         7
100
AcDbCircle
 10
143.0587593216
 20
204.9575352239
 30
0.0
 40
3.0
100
AcDbArc
 50
9.4712206345
 51
150.5287793655
  0
ARC
  5
6D
100
AcDbEntity
  8
0
370
        15
  6
Continuous
 62
         7
100
AcDbCircle
 10
137.8351417544
 20
207.9094531617
 30
0.0
 40
3.0
100
AcDbArc
 50
189.4712206345
 51
330.5287793655
  0
ARC
  5
6E
100
AcDbEntity
  8
0
370
        15
  6
Continuous
 62
         7
100
AcDbCircle
 10
131.9169314765
 20
206.9221400874
 30
0.0
 40
3.0
100
AcDbArc
 50
9.4712206345
 51
150.5287793655
  0
ARC
  5
6F
100
AcDbEntity
  8
0
370
        15
  6
Continuous
 62
         7
100
AcDbCircle
 10
126.6933139093
 20
209.8740580252
 30
0.0
 40
3.0
100
AcDbArc
 50
189.4712206345
 51
330.5287793655
  0
ARC
  5
70
100
AcDbEntity
  8
0
370
        15
  6
Continuous
 62
         7
100
AcDbCircle
 10
120.7751036314
 20
208.8867449509
 30
0.0
 40
3.0
100
AcDbArc
 50
9.4712206345
 51
150.5287793655
  0
ARC
  5
71
100
AcDbEntity
  8
0
370
        15
  6
Continuous
 62
         7
100
AcDbCircle
 10
115.5514860642
 20
211.8386628887
 30
0.0
 40
3.0
100
AcDbArc
 50
189.4712206345
 51
330.5287793655
  0
ARC
  5
72
100
AcDbEntity
  8
0
370
        15
  6
Continuous
 62
         7
100
AcDbCircle
 10
109.6332757863
 20
210.8513498144
 30
0.0
 40
3.0
100
AcDbArc
 50
9.4712206345
 51
25.8173825445
  0
ARC
  5
73
100
AcDbEntity
  8
0
370
        15
  6
Continuous
 62
         7
100
AcDbCircle
 10
110.5334624747
 20
211.2868540348
 30
0.0
 40
2.0
100
AcDbArc
 50
25.8173825445
 51
174.0305083048
  0
ARC
  5
74
100
AcDbEntity
  8
0
370
        15
  6
Continuous
 62
         7
100
AcDbCircle
 10
104.1893181581
 20
211.9502352764
 30
0.0
 40
4.3787335562
100
AcDbArc
 50
268.2647326479
 51
354.0305083048
  0
ARC
  5
75
100
AcDbEntity
  8
0
370
        15
  6
Continuous
 62
         7
100
AcDbCircle
 10
103.8296123007
 20
200.0769491855
 30
0.0
 40
7.5
100
AcDbArc
 50
88.2647326479
 51
126.9934815908
  0
ARC
  5
76
100
AcDbEntity
  8
0
370
        15
  6
Continuous
 62
         7
100
AcDbCircle
 10
92.6977153346
 20
214.8529726674
 30
0.0
 40
11.0
100
AcDbArc
 50
354.9392819715
 51
306.9934815908
  0
ARC
  5
77
100
AcDbEntity
  8
0
370
        15
  6
Continuous
 62
         7
100
AcDbCircle
 10
105.3482079053
 20
213.7326880076
 30
0.0
 40
1.7
100
AcDbArc
 50
174.9392819715
 51
354.9392819715
  0
ARC
  5
78
100
AcDbEntity
  8
0
370
        15
  6
Continuous
 62
         7
100
AcDbCircle
 10
92.6977153346
 20
214.8529726674
 30
0.0
 40
14.4
100
AcDbArc
 50
354.9392819715
 51
6.7053237185
  0
ARC
  5
79
100
AcDbEntity
  8
0
370
        15
  6
Continuous
 62
         7
100
AcDbCircle
 10
109.9786959351
 20
216.8846491884
 30
0.0
 40
3.0
100
AcDbArc
 50
29.4712206345
 51
186.7053237185
  0
ARC
  5
7A
100
AcDbEntity
  8
0
370
        15
  6
Continuous
 62
         7
100
AcDbCircle
 10
115.2023135023
 20
219.8365671262
 30
0.0
 40
3.0
100
AcDbArc
 50
209.4712206345
 51
350.5287793655
  0
ARC
  5
7B
100
AcDbEntity
  8
0
370
        15
  6
Continuous
 62
         7
100
AcDbCircle
 10
121.1205237802
 20
218.8492540519
 30
0.0
 40
3.0
100
AcDbArc
 50
29.4712206345
 51
170.5287793655
  0
ARC
  5
7C
100
AcDbEntity
  8
0
370
        15
  6
Continuous
 62
         7
100
AcDbCircle
 10
126.3441413474
 20
221.8011719897
 30
0.0
 40
3.0
100
AcDbArc
 50
209.4712206345
 51
350.5287793655
  0
ARC
  5
7D
100
AcDbEntity
  8
0
370
        15
  6
Continuous
 62
         7
100
AcDbCircle
 10
132.2623516253
 20
220.8138589154
 30
0.0
 40
3.0
100
AcDbArc
 50
29.4712206345
 51
170.5287793655
  0
ARC
  5
7E
100
AcDbEntity
  8
0
370
        15
  6
Continuous
 62
         7
100
AcDbCircle
 10
137.4859691925
 20
223.7657768532
 30
0.0
 40
3.0
100
AcDbArc
 50
209.4712206345
 51
350.5287793655
  0
ARC
  5
7F
100
AcDbEntity
  8
0
370
        15
  6
Continuous
 62
         7
100
AcDbCircle
 10
143.4041794704
 20
222.7784637789
 30
0.0
 40
3.0
100
AcDbArc
 50
29.4712206345
 51
170.5287793655
  0
ARC
  5
80
100
AcDbEntity
  8
0
370
        15
  6
Continuous
 62
         7
100
AcDbCircle
 10
148.6277970377
 20
225.7303817167
 30
0.0
 40
3.0
100
AcDbArc
 50
209.4712206345
 51
350.5287793655
  0
ARC
  5
81
100
AcDbEntity
  8
0
370
        15
  6
Continuous
 62
         7
100
AcDbCircle
 10
154.5460073156
 20
224.7430686424
 30
0.0
 40
3.0
100
AcDbArc
 50
29.4712206345
 51
170.5287793655
  0
ARC
  5
82
100
AcDbEntity
  8
0
370
        15
  6
Continuous
 62
         7
100
AcDbCircle
 10
159.7696248828
 20
227.6949865802
 30
0.0
 40
3.0
100
AcDbArc
 50
209.4712206345
 51
350.5287793655
  0
ARC
  5
83
100
AcDbEntity
  8
0
370
        15
  6
Continuous
 62
         7
100
AcDbCircle
 10
165.6878351607
 20
226.707673506
 30
0.0
 40
3.0
100
AcDbArc
 50
29.4712206345
 51
170.5287793655
  0
ARC
  5
84
100
AcDbEntity
  8
0
370
        15
  6
Continuous
 62
         7
100
AcDbCircle
 10
170.9114527279
 20
229.6595914437
 30
0.0
 40
3.0
100
AcDbArc
 50
209.4712206345
 51
350.5287793655
  0
ARC
  5
85
100
AcDbEntity
  8
0
370
        15
  6
Continuous
 62
         7
100
AcDbCircle
 10
176.8296630058
 20
228.6722783695
 30
0.0
 40
3.0
100
AcDbArc
 50
100.0
 51
170.5287793655
  0
LINE
  5
86
100
AcDbEntity
  8
0
370
        15
  6
Continuous
 62
         7
100
AcDbLine
 10
178.9150204691
 20
232.0862629903
 30
0.0
 11
176.3087184728
 21
231.6267016285
 31
0.0
  0
ARC
  5
87
100
AcDbEntity
  8
0
370
        15
  6
Continuous
 62
         7
100
AcDbCircle
 10
179.2623168244
 20
230.1166474843
 30
0.0
 40
2.0
100
AcDbArc
 50
10.0000000001
 51
100.0
  0
LINE
  5
88
100
AcDbEntity
  8
0
370
        15
  6
Continuous
 62
         7
100
AcDbLine
 10
182.4474695741
 20
223.5702895685
 30
0.0
 11
181.2319323304
 21
230.4639438396
 31
0.0
  0
ARC
  5
89
100
AcDbEntity
  8
0
370
        15
  6
Continuous
 62
         7
100
AcDbCircle
 10
181.4626618211
 20
223.3966413909
 30
0.0
 40
1.0
100
AcDbArc
 50
280.0
 51
10.0
  0
LINE
  5
8A
100
AcDbEntity
  8
0
370
        15
  6
Continuous
 62
         7
100
AcDbLine
 10
180.6770886417
 20
222.2426970321
 30
0.0
 11
181.6363099987
 21
222.4118336378
 31
0.0
  0
ARC
  5
8B
100
AcDbEntity
  8
0
370
        15
  6
Continuous
 62
         7
100
AcDbCircle
 10
180.9722905438
 20
220.568523852
 30
0.0
 40
1.7
100
AcDbArc
 50
100.0
 51
200.0
  0
LINE
  5
8C
100
AcDbEntity
  8
0
370
        15
  6
Continuous
 62
         7
100
AcDbLine
 10
181.9312409746
 20
212.9633617167
 30
0.0
 11
179.3748130884
 21
219.9870896084
 31
0.0
  0
ARC
  5
8D
100
AcDbEntity
  8
0
370
        15
  6
Continuous
 62
         7
100
AcDbCircle
 10
184.937724648
 20
214.0576322836
 30
0.0
 40
3.1994330985
100
AcDbArc
 50
200.0
 51
10.0
  0
LINE
  5
8E
100
AcDbEntity
  8
0
370
        15
  6
Continuous
 62
         7
100
AcDbLine
 10
184.7370428983
 20
233.6205559328
 30
0.0
 11
188.0885511687
 21
214.6132080107
 31
0.0
  0
ARC
  5
8F
100
AcDbEntity
  8
0
370
        15
  6
Continuous
 62
         7
100
AcDbCircle
 10
179.8130041332
 20
232.7523150445
 30
0.0
 40
5.0
100
AcDbArc
 50
10.0
 51
100.0
  0
LINE
  5
90
100
AcDbEntity
  8
0
370
        15
  6
Continuous
 62
         7
100
AcDbLine
 10
132.991096786
 20
229.5734825504
 30
0.0
 11
178.9447632449
 21
237.6763538095
 31
0.0
  0
ARC
  5
91
100
AcDbEntity
  8
0
370
        15
  6
Continuous
 62
         7
100
AcDbCircle
 10
115.6262790193
 20
328.0542578516
 30
0.0
 40
100.0
100
AcDbArc
 50
258.5498252121
 51
280.0
  0
ARC
  5
92
100
AcDbEntity
  8
0
370
        15
  6
Continuous
 62
         7
100
AcDbCircle
 10
78.2350493472
 20
226.3890592021
 30
0.0
 40
3.0
100
AcDbArc
 50
274.5294259417
 51
321.4225293981
  0
LINE
  5
93
100
AcDbEntity
  8
0
370
        15
  6
Continuous
 62
         7
100
AcDbLine
 10
78.4719625924
 20
223.3984284803
 30
0.0
 11
70.3076054862
 21
222.7516604514
 31
0.0
  0
ARC
  5
94
100
AcDbEntity
  8
0
370
        15
  6
Continuous
 62
         7
100
AcDbCircle
 10
70.7814319766
 20
216.7703990078
 30
0.0
 40
6.0
100
AcDbArc
 50
94.5294259417
 51
255.4705740583
  0
LINE
  5
95
100
AcDbEntity
  8
0
370
        15
  6
Continuous
 62
         7
100
AcDbLine
 10
69.2761688254
 20
210.9622854719
 30
0.0
 11
77.2041809124
 21
208.9076175694
 31
0.0
  0
ARC
  5
96
100
AcDbEntity
  8
0
370
        15
  6
Continuous
 62
         7
100
AcDbCircle
 10
76.4515493368
 20
206.0035608014
 30
0.0
 40
3.0
100
AcDbArc
 50
28.5774706019
 51
75.4705740583
  0
ARC
  5
97
100
AcDbEntity
  8
0
370
        15
  6
Continuous
 62
         7
100
AcDbCircle
 10
92.6977153346
 20
214.8529726674
 30
0.0
 40
15.5
100
AcDbArc
 50
78.5498252121
 51
141.4225293981
  0
ARC
  5
98
100
AcDbEntity
  8
0
370
        15
  6
Continuous
 62
         7
100
AcDbCircle
 10
92.6977153346
 20
214.8529726674
 30
0.0
 40
15.5
100
AcDbArc
 50
208.5774706019
 51
281.4501747879
  0
CIRCLE
  5
99
100
AcDbEntity
  8
0
370
        15
  6
Continuous
 62
         7
100
AcDbCircle
 10
70.7814319766
 20
216.7703990078
 30
0.0
 40
4.0
  0
ARC
  5
9A
100
AcDbEntity
  8
0
370
        15
  6
Continuous
 62
         7
100
AcDbCircle
 10
92.6977153346
 20
214.8529726674
 30
0.0
 40
15.5
100
AcDbArc
 50
141.4225293981
 51
208.5774706019
  0
ARC
  5
9B
100
AcDbEntity
  8
0
370
        15
  6
Continuous
 62
         7
100
AcDbCircle
 10
176.1564052441
 20
199.1215272498
 30
0.0
 40
2.0
100
AcDbArc
 50
5.0
 51
78.2757298178
  0
POLYLINE
  5
9C
100
AcDbEntity
  8
0
370
        15
  6
Continuous
 62
         7
100
AcDb2dPolyline
 66
         1
 10
0.0
 20
0.0
 30
0.0
 70
       128
  0
VERTEX
  5
9D
100
AcDbEntity
  8
0
100
AcDbVertex
100
AcDb2dVertex
 10
176.6773497771
 20
202.0759505089
 30
0.0
  0
VERTEX
  5
9E
100
AcDbEntity
  8
0
100
AcDbVertex
100
AcDb2dVertex
 10
176.6709226722
 20
202.0200158418
 30
0.0
  0
VERTEX
  5
9F
100
AcDbEntity
  8
0
100
AcDbVertex
100
AcDb2dVertex
 10
176.6523695311
 20
201.8585676579
 30
0.0
  0
VERTEX
  5
A0
100
AcDbEntity
  8
0
100
AcDbVertex
100
AcDb2dVertex
 10
176.6237654583
 20
201.6097208863
 30
0.0
  0
VERTEX
  5
A1
100
AcDbEntity
  8
0
100
AcDbVertex
100
AcDb2dVertex
 10
176.5882717734
 20
201.3010790603
 30
0.0
  0
VERTEX
  5
A2
100
AcDbEntity
  8
0
100
AcDbVertex
100
AcDb2dVertex
 10
176.5645183759
 20
201.0946482818
 30
0.0
  0
VERTEX
  5
A3
100
AcDbEntity
  8
0
100
AcDbVertex
100
AcDb2dVertex
 10
176.5628093854
 20
201.0798008962
 30
0.0
  0
SEQEND
  5
A4
100
AcDbEntity
  8
0
  0
LINE
  5
A5
100
AcDbEntity
  8
0
370
        15
  6
Continuous
 62
         7
100
AcDbLine
 10
179.1449893384
 20
199.3829944781
 30
0.0
 11
178.1487946403
 21
199.2958387353
 31
0.0
  0
ARC
  5
A6
100
AcDbEntity
  8
0
370
        15
  6
Continuous
 62
         7
100
AcDbCircle
 10
176.512852354
 20
199.0475531238
 30
0.0
 40
2.0328617054
100
AcDbArc
 50
88.591829817
 51
150.5287793654
  0
LINE
  5
A7
100
AcDbEntity
  8
0
370
        15
  6
Continuous
 62
         7
100
AcDbLine
 10
173.8724340734
 20
200.5396796023
 30
0.0
 11
174.7430370012
 21
200.0476932793
 31
0.0
  0
ARC
  5
A8
100
AcDbEntity
  8
0
370
        15
  6
Continuous
 62
         7
100
AcDbCircle
 10
179.8130041332
 20
232.7523150445
 30
0.0
 40
4.0
100
AcDbArc
 50
10.0
 51
100.0
  0
LINE
  5
A9
100
AcDbEntity
  8
0
370
        15
  6
Continuous
 62
         7
100
AcDbLine
 10
178.9447632449
 20
237.6763538095
 30
0.0
 11
179.1184114226
 21
236.6915460565
 31
0.0
  0
LINE
  5
AA
100
AcDbEntity
  8
0
370
        15
  6
Continuous
 62
         7
100
AcDbLine
 10
184.7370428983
 20
233.6205559328
 30
0.0
 11
183.7522351453
 21
233.4469077551
 31
0.0
  0
LINE
  5
AB
100
AcDbEntity
  8
0
370
        15
  6
Continuous
 62
         7
100
AcDbLine
 10
183.7522351453
 20
233.4469077551
 30
0.0
 11
187.1037434157
 21
214.4395598331
 31
0.0
  0
LINE
  5
AC
100
AcDbEntity
  8
0
370
        15
  6
Continuous
 62
         7
100
AcDbLine
 10
188.0885511687
 20
214.6132080107
 30
0.0
 11
187.1037434157
 21
214.4395598331
 31
0.0
  0
LINE
  5
AD
100
AcDbEntity
  8
0
370
        15
  6
Continuous
 62
         7
100
AcDbLine
 10
133.1647449636
 20
228.5886747973
 30
0.0
 11
179.1184114226
 21
236.6915460565
 31
0.0
  0
LINE
  5
AE
100
AcDbEntity
  8
0
370
        15
  6
Continuous
 62
         7
100
AcDbLine
 10
132.991096786
 20
229.5734825504
 30
0.0
 11
133.1647449636
 21
228.5886747973
 31
0.0
  0
LINE
  5
AF
100
AcDbEntity
  8
0
370
        15
  6
Continuous
 62
         7
100
AcDbLine
 10
176.1350702951
 20
232.6115093815
 30
0.0
 11
176.3087184728
 21
231.6267016285
 31
0.0
  0
LINE
  5
B0
100
AcDbEntity
  8
0
370
        15
  6
Continuous
 62
         7
100
AcDbLine
 10
178.7413722914
 20
233.0710707433
 30
0.0
 11
176.1350702951
 21
232.6115093815
 31
0.0
  0
LINE
  5
B1
100
AcDbEntity
  8
0
370
        15
  6
Continuous
 62
         7
100
AcDbLine
 10
178.7413722914
 20
233.0710707433
 30
0.0
 11
178.9150204691
 21
232.0862629903
 31
0.0
  0
ARC
  5
B2
100
AcDbEntity
  8
0
370
        15
  6
Continuous
 62
         7
100
AcDbCircle
 10
179.2623168244
 20
230.1166474843
 30
0.0
 40
3.0
100
AcDbArc
 50
10.0
 51
100.0
  0
LINE
  5
B3
100
AcDbEntity
  8
0
370
        15
  6
Continuous
 62
         7
100
AcDbLine
 10
182.2167400834
 20
230.6375920173
 30
0.0
 11
181.2319323304
 21
230.4639438396
 31
0.0
  0
LINE
  5
B4
100
AcDbEntity
  8
0
370
        15
  6
Continuous
 62
         7
100
AcDbLine
 10
183.4322773271
 20
223.7439377462
 30
0.0
 11
182.2167400834
 21
230.6375920173
 31
0.0
  0
LINE
  5
B5
100
AcDbEntity
  8
0
370
        15
  6
Continuous
 62
         7
100
AcDbLine
 10
183.4322773271
 20
223.7439377462
 30
0.0
 11
182.4474695741
 21
223.5702895685
 31
0.0
  0
ARC
  5
B6
100
AcDbEntity
  8
0
370
        15
  6
Continuous
 62
         7
100
AcDbCircle
 10
181.4626618211
 20
223.3966413909
 30
0.0
 40
2.0
100
AcDbArc
 50
280.0
 51
10.0
  0
LINE
  5
B7
100
AcDbEntity
  8
0
370
        15
  6
Continuous
 62
         7
100
AcDbLine
 10
181.8099581764
 20
221.4270258848
 30
0.0
 11
181.6363099987
 21
222.4118336378
 31
0.0
  0
LINE
  5
B8
100
AcDbEntity
  8
0
370
        15
  6
Continuous
 62
         7
100
AcDbLine
 10
180.8507368194
 20
221.2578892791
 30
0.0
 11
180.6770886417
 21
222.2426970321
 31
0.0
  0
ARC
  5
B9
100
AcDbEntity
  8
0
370
        15
  6
Continuous
 62
         7
100
AcDbCircle
 10
180.9722905438
 20
220.568523852
 30
0.0
 40
0.7
100
AcDbArc
 50
100.0
 51
200.0
  0
LINE
  5
BA
100
AcDbEntity
  8
0
370
        15
  6
Continuous
 62
         7
100
AcDbLine
 10
180.3145057092
 20
220.3291097517
 30
0.0
 11
179.3748130884
 21
219.9870896084
 31
0.0
  0
LINE
  5
BB
100
AcDbEntity
  8
0
370
        15
  6
Continuous
 62
         7
100
AcDbLine
 10
180.8507368194
 20
221.2578892791
 30
0.0
 11
181.8099581764
 21
221.4270258848
 31
0.0
  0
LINE
  5
BC
100
AcDbEntity
  8
0
370
        15
  6
Continuous
 62
         7
100
AcDbLine
 10
182.8709335954
 20
213.30538186
 30
0.0
 11
180.3145057092
 21
220.3291097517
 31
0.0
  0
LINE
  5
BD
100
AcDbEntity
  8
0
370
        15
  6
Continuous
 62
         7
100
AcDbLine
 10
182.8709335954
 20
213.30538186
 30
0.0
 11
181.9312409746
 21
212.9633617167
 31
0.0
  0
LINE
  5
BE
100
AcDbEntity
  8
0
370
        15
  6
Continuous
 62
         7
100
AcDbLine
 10
172.8841894872
 20
229.3304870856
 30
0.0
 11
173.8705578669
 21
229.1659349066
 31
0.0
  0
ARC
  5
BF
100
AcDbEntity
  8
0
370
        15
  6
Continuous
 62
         7
100
AcDbCircle
 10
176.8296630058
 20
228.6722783695
 30
0.0
 40
4.0
100
AcDbArc
 50
100.0
 51
170.5287793655
  0
ARC
  5
C0
100
AcDbEntity
  8
0
370
        15
  6
Continuous
 62
         7
100
AcDbCircle
 10
184.937724648
 20
214.0576322836
 30
0.0
 40
2.1994330985
100
AcDbArc
 50
200.0
 51
10.0
  0
LINE
  5
C1
100
AcDbEntity
  8
0
370
        15
  6
Continuous
 62
         7
100
AcDbLine
 10
169.1702468722
 20
228.6756187978
 30
0.0
 11
168.2996439443
 21
228.1836324748
 31
0.0
  0
ARC
  5
C2
100
AcDbEntity
  8
0
370
        15
  6
Continuous
 62
         7
100
AcDbCircle
 10
170.9114527279
 20
229.6595914437
 30
0.0
 40
2.0
100
AcDbArc
 50
209.4712206345
 51
350.5287793655
  0
LINE
  5
C3
100
AcDbEntity
  8
0
370
        15
  6
Continuous
 62
         7
100
AcDbLine
 10
161.7423616421
 20
227.3658822221
 30
0.0
 11
162.7287300217
 21
227.2013300431
 31
0.0
  0
ARC
  5
C4
100
AcDbEntity
  8
0
370
        15
  6
Continuous
 62
         7
100
AcDbCircle
 10
165.6878351607
 20
226.707673506
 30
0.0
 40
4.0
100
AcDbArc
 50
29.4712206345
 51
170.5287793655
  0
LINE
  5
C5
100
AcDbEntity
  8
0
370
        15
  6
Continuous
 62
         7
100
AcDbLine
 10
158.028419027
 20
226.7110139343
 30
0.0
 11
157.1578160992
 21
226.2190276113
 31
0.0
  0
ARC
  5
C6
100
AcDbEntity
  8
0
370
        15
  6
Continuous
 62
         7
100
AcDbCircle
 10
159.7696248828
 20
227.6949865802
 30
0.0
 40
2.0
100
AcDbArc
 50
209.4712206345
 51
350.5287793655
  0
ARC
  5
C7
100
AcDbEntity
  8
0
370
        15
  6
Continuous
 62
         7
100
AcDbCircle
 10
115.6262790193
 20
328.0542578516
 30
0.0
 40
101.0
100
AcDbArc
 50
258.5498252121
 51
280.0
  0
LINE
  5
C8
100
AcDbEntity
  8
0
370
        15
  6
Continuous
 62
         7
100
AcDbLine
 10
95.7747087295
 20
230.0444871293
 30
0.0
 11
95.5761930266
 21
229.0643894221
 31
0.0
  0
LINE
  5
C9
100
AcDbEntity
  8
0
370
        15
  6
Continuous
 62
         7
100
AcDbLine
 10
150.600533797
 20
225.4012773586
 30
0.0
 11
151.5869021766
 21
225.2367251796
 31
0.0
  0
ARC
  5
CA
100
AcDbEntity
  8
0
370
        15
  6
Continuous
 62
         7
100
AcDbCircle
 10
154.5460073156
 20
224.7430686424
 30
0.0
 40
4.0
100
AcDbArc
 50
29.4712206345
 51
170.5287793655
  0
LINE
  5
CB
100
AcDbEntity
  8
0
370
        15
  6
Continuous
 62
         7
100
AcDbLine
 10
146.8865911819
 20
224.7464090708
 30
0.0
 11
146.0159882541
 21
224.2544227478
 31
0.0
  0
ARC
  5
CC
100
AcDbEntity
  8
0
370
        15
  6
Continuous
 62
         7
100
AcDbCircle
 10
148.6277970377
 20
225.7303817167
 30
0.0
 40
2.0
100
AcDbArc
 50
209.4712206345
 51
350.5287793655
  0
LINE
  5
CD
100
AcDbEntity
  8
0
370
        15
  6
Continuous
 62
         7
100
AcDbLine
 10
139.4587059518
 20
223.4366724951
 30
0.0
 11
140.4450743315
 21
223.2721203161
 31
0.0
  0
ARC
  5
CE
100
AcDbEntity
  8
0
370
        15
  6
Continuous
 62
         7
100
AcDbCircle
 10
143.4041794704
 20
222.7784637789
 30
0.0
 40
4.0
100
AcDbArc
 50
29.4712206345
 51
170.5287793655
  0
LINE
  5
CF
100
AcDbEntity
  8
0
370
        15
  6
Continuous
 62
         7
100
AcDbLine
 10
178.1487946403
 20
199.2958387353
 30
0.0
 11
178.6122592139
 21
193.9984144195
 31
0.0
  0
LINE
  5
D0
100
AcDbEntity
  8
0
370
        15
  6
Continuous
 62
         7
100
AcDbLine
 10
179.6084539119
 20
194.0855701622
 30
0.0
 11
178.6122592139
 21
193.9984144195
 31
0.0
  0
ARC
  5
D1
100
AcDbEntity
  8
0
370
        15
  6
Continuous
 62
         7
100
AcDbCircle
 10
92.6977153346
 20
214.8529726674
 30
0.0
 40
14.5
100
AcDbArc
 50
78.5498252121
 51
281.4501747879
  0
LINE
  5
D2
100
AcDbEntity
  8
0
370
        15
  6
Continuous
 62
         7
100
AcDbLine
 10
95.7747087295
 20
199.6614582054
 30
0.0
 11
95.5761930266
 21
200.6415559126
 31
0.0
  0
LINE
  5
D3
100
AcDbEntity
  8
0
370
        15
  6
Continuous
 62
         7
100
AcDbLine
 10
135.7447633368
 20
222.7818042073
 30
0.0
 11
134.8741604089
 21
222.2898178843
 31
0.0
  0
ARC
  5
D4
100
AcDbEntity
  8
0
370
        15
  6
Continuous
 62
         7
100
AcDbCircle
 10
137.4859691925
 20
223.7657768532
 30
0.0
 40
2.0
100
AcDbArc
 50
209.4712206345
 51
350.5287793655
  0
LINE
  5
D5
100
AcDbEntity
  8
0
370
        15
  6
Continuous
 62
         7
100
AcDbLine
 10
128.3168781067
 20
221.4720676316
 30
0.0
 11
129.3032464864
 21
221.3075154526
 31
0.0
  0
ARC
  5
D6
100
AcDbEntity
  8
0
370
        15
  6
Continuous
 62
         7
100
AcDbCircle
 10
132.2623516253
 20
220.8138589154
 30
0.0
 40
4.0
100
AcDbArc
 50
29.4712206345
 51
170.5287793655
  0
LINE
  5
D7
100
AcDbEntity
  8
0
370
        15
  6
Continuous
 62
         7
100
AcDbLine
 10
177.7933692008
 20
193.2480399725
 30
0.0
 11
133.1647449636
 21
201.1172705374
 31
0.0
  0
LINE
  5
D8
100
AcDbEntity
  8
0
370
        15
  6
Continuous
 62
         7
100
AcDbLine
 10
177.6197210232
 20
192.2632322194
 30
0.0
 11
177.7933692008
 21
193.2480399725
 31
0.0
  0
LINE
  5
D9
100
AcDbEntity
  8
0
370
        15
  6
Continuous
 62
         7
100
AcDbLine
 10
132.991096786
 20
200.1324627844
 30
0.0
 11
133.1647449636
 21
201.1172705374
 31
0.0
  0
LINE
  5
DA
100
AcDbEntity
  8
0
370
        15
  6
Continuous
 62
         7
100
AcDbLine
 10
124.6029354917
 20
220.8171993438
 30
0.0
 11
123.7323325638
 21
220.3252130208
 31
0.0
  0
ARC
  5
DB
100
AcDbEntity
  8
0
370
        15
  6
Continuous
 62
         7
100
AcDbCircle
 10
126.3441413474
 20
221.8011719897
 30
0.0
 40
2.0
100
AcDbArc
 50
209.4712206345
 51
350.5287793655
  0
ARC
  5
DC
100
AcDbEntity
  8
0
370
        15
  6
Continuous
 62
         7
100
AcDbCircle
 10
177.9149229252
 20
193.9374053996
 30
0.0
 40
0.7
100
AcDbArc
 50
260.0
 51
5.0
  0
ARC
  5
DD
100
AcDbEntity
  8
0
370
        15
  6
Continuous
 62
         7
100
AcDbCircle
 10
165.3424150119
 20
201.0283254969
 30
0.0
 40
2.0
100
AcDbArc
 50
9.4712206345
 51
150.5287793655
  0
LINE
  5
DE
100
AcDbEntity
  8
0
370
        15
  6
Continuous
 62
         7
100
AcDbLine
 10
162.7306062282
 20
202.5042844658
 30
0.0
 11
163.6012091561
 21
202.0122981428
 31
0.0
  0
LINE
  5
DF
100
AcDbEntity
  8
0
370
        15
  6
Continuous
 62
         7
100
AcDbLine
 10
168.3015201508
 20
201.521982034
 30
0.0
 11
167.3151517712
 21
201.357429855
 31
0.0
  0
ARC
  5
E0
100
AcDbEntity
  8
0
370
        15
  6
Continuous
 62
         7
100
AcDbCircle
 10
171.2606252898
 20
202.0156385712
 30
0.0
 40
4.0
100
AcDbArc
 50
189.4712206345
 51
330.5287793654
  0
LINE
  5
E1
100
AcDbEntity
  8
0
370
        15
  6
Continuous
 62
         7
100
AcDbLine
 10
117.1750502616
 20
219.5074627681
 30
0.0
 11
118.1614186413
 21
219.3429105891
 31
0.0
  0
ARC
  5
E2
100
AcDbEntity
  8
0
370
        15
  6
Continuous
 62
         7
100
AcDbCircle
 10
121.1205237802
 20
218.8492540519
 30
0.0
 40
4.0
100
AcDbArc
 50
29.4712206345
 51
170.5287793655
  0
ARC
  5
E3
100
AcDbEntity
  8
0
370
        15
  6
Continuous
 62
         7
100
AcDbCircle
 10
154.2005871667
 20
202.9929303604
 30
0.0
 40
2.0
100
AcDbArc
 50
9.4712206345
 51
150.5287793655
  0
LINE
  5
E4
100
AcDbEntity
  8
0
370
        15
  6
Continuous
 62
         7
100
AcDbLine
 10
151.5887783831
 20
204.4688893293
 30
0.0
 11
152.459381311
 21
203.9769030063
 31
0.0
  0
LINE
  5
E5
100
AcDbEntity
  8
0
370
        15
  6
Continuous
 62
         7
100
AcDbLine
 10
157.1596923057
 20
203.4865868976
 30
0.0
 11
156.173323926
 21
203.3220347185
 31
0.0
  0
ARC
  5
E6
100
AcDbEntity
  8
0
370
        15
  6
Continuous
 62
         7
100
AcDbCircle
 10
160.1187974446
 20
203.9802434347
 30
0.0
 40
4.0
100
AcDbArc
 50
189.4712206345
 51
330.5287793655
  0
LINE
  5
E7
100
AcDbEntity
  8
0
370
        15
  6
Continuous
 62
         7
100
AcDbLine
 10
113.4611076466
 20
218.8525944803
 30
0.0
 11
112.5905047187
 21
218.3606081573
 31
0.0
  0
ARC
  5
E8
100
AcDbEntity
  8
0
370
        15
  6
Continuous
 62
         7
100
AcDbCircle
 10
115.2023135023
 20
219.8365671262
 30
0.0
 40
2.0
100
AcDbArc
 50
209.4712206345
 51
350.5287793655
  0
ARC
  5
E9
100
AcDbEntity
  8
0
370
        15
  6
Continuous
 62
         7
100
AcDbCircle
 10
143.0587593216
 20
204.9575352239
 30
0.0
 40
2.0
100
AcDbArc
 50
9.4712206345
 51
150.5287793655
  0
LINE
  5
EA
100
AcDbEntity
  8
0
370
        15
  6
Continuous
 62
         7
100
AcDbLine
 10
140.446950538
 20
206.4334941928
 30
0.0
 11
141.3175534659
 21
205.9415078698
 31
0.0
  0
LINE
  5
EB
100
AcDbEntity
  8
0
370
        15
  6
Continuous
 62
         7
100
AcDbLine
 10
146.0178644606
 20
205.4511917611
 30
0.0
 11
145.0314960809
 21
205.286639582
 31
0.0
  0
ARC
  5
EC
100
AcDbEntity
  8
0
370
        15
  6
Continuous
 62
         7
100
AcDbCircle
 10
148.9769695995
 20
205.9448482982
 30
0.0
 40
4.0
100
AcDbArc
 50
189.4712206345
 51
330.5287793655
  0
ARC
  5
ED
100
AcDbEntity
  8
0
370
        15
  6
Continuous
 62
         7
100
AcDbCircle
 10
115.6262790193
 20
101.6516874831
 30
0.0
 40
101.0
100
AcDbArc
 50
80.0
 51
101.4501747879
  0
LINE
  5
EE
100
AcDbEntity
  8
0
370
        15
  6
Continuous
 62
         7
100
AcDbLine
 10
106.0060567166
 20
216.4175971146
 30
0.0
 11
106.9992165212
 21
216.5343601331
 31
0.0
  0
ARC
  5
EF
100
AcDbEntity
  8
0
370
        15
  6
Continuous
 62
         7
100
AcDbCircle
 10
109.9786959351
 20
216.8846491884
 30
0.0
 40
4.0
100
AcDbArc
 50
29.4712206345
 51
186.7053237185
  0
ARC
  5
F0
100
AcDbEntity
  8
0
370
        15
  6
Continuous
 62
         7
100
AcDbCircle
 10
110.5334624747
 20
211.2868540348
 30
0.0
 40
1.0
100
AcDbArc
 50
25.8173825445
 51
174.0305083048
  0
LINE
  5
F1
100
AcDbEntity
  8
0
370
        15
  6
Continuous
 62
         7
100
AcDbLine
 10
108.5443076493
 20
211.4948518249
 30
0.0
 11
109.538885062
 21
211.3908529299
 31
0.0
  0
LINE
  5
F2
100
AcDbEntity
  8
0
370
        15
  6
Continuous
 62
         7
100
AcDbLine
 10
112.3338358515
 20
212.1578624757
 30
0.0
 11
111.4336491631
 21
211.7223582553
 31
0.0
  0
ARC
  5
F3
100
AcDbEntity
  8
0
370
        15
  6
Continuous
 62
         7
100
AcDbCircle
 10
109.6332757863
 20
210.8513498144
 30
0.0
 40
2.0
100
AcDbArc
 50
9.4712206345
 51
25.8173825445
  0
LINE
  5
F4
100
AcDbEntity
  8
0
370
        15
  6
Continuous
 62
         7
100
AcDbLine
 10
112.5923809252
 20
211.3450063516
 30
0.0
 11
111.6060125456
 21
211.1804541725
 31
0.0
  0
ARC
  5
F5
100
AcDbEntity
  8
0
370
        15
  6
Continuous
 62
         7
100
AcDbCircle
 10
137.8351417544
 20
207.9094531617
 30
0.0
 40
4.0
100
AcDbArc
 50
189.4712206345
 51
330.5287793655
  0
LINE
  5
F6
100
AcDbEntity
  8
0
370
        15
  6
Continuous
 62
         7
100
AcDbLine
 10
134.8760366154
 20
207.4157966246
 30
0.0
 11
133.8896682358
 21
207.2512444455
 31
0.0
  0
ARC
  5
F7
100
AcDbEntity
  8
0
370
        15
  6
Continuous
 62
         7
100
AcDbCircle
 10
104.1893181581
 20
211.9502352764
 30
0.0
 40
5.3787335562
100
AcDbArc
 50
268.2647326479
 51
354.0305083048
  0
LINE
  5
F8
100
AcDbEntity
  8
0
370
        15
  6
Continuous
 62
         7
100
AcDbLine
 10
104.0264420437
 20
206.5739683522
 30
0.0
 11
104.0567235426
 21
207.5735097625
 31
0.0
  0
ARC
  5
F9
100
AcDbEntity
  8
0
370
        15
  6
Continuous
 62
         7
100
AcDbCircle
 10
131.9169314765
 20
206.9221400874
 30
0.0
 40
2.0
100
AcDbArc
 50
9.4712206345
 51
150.5287793655
  0
LINE
  5
FA
100
AcDbEntity
  8
0
370
        15
  6
Continuous
 62
         7
100
AcDbLine
 10
129.3051226929
 20
208.3980990563
 30
0.0
 11
130.1757256208
 21
207.9061127333
 31
0.0
  0
ARC
  5
FB
100
AcDbEntity
  8
0
370
        15
  6
Continuous
 62
         7
100
AcDbCircle
 10
126.6933139093
 20
209.8740580252
 30
0.0
 40
4.0
100
AcDbArc
 50
189.4712206345
 51
330.5287793655
  0
LINE
  5
FC
100
AcDbEntity
  8
0
370
        15
  6
Continuous
 62
         7
100
AcDbLine
 10
123.7342087703
 20
209.3804014881
 30
0.0
 11
122.7478403907
 21
209.215849309
 31
0.0
  0
LINE
  5
FD
100
AcDbEntity
  8
0
370
        15
  6
Continuous
 62
         7
100
AcDbLine
 10
106.0454791494
 20
213.6709400342
 30
0.0
 11
107.0415809266
 21
213.5827286437
 31
0.0
  0
ARC
  5
FE
100
AcDbEntity
  8
0
370
        15
  6
Continuous
 62
         7
100
AcDbCircle
 10
92.6977153346
 20
214.8529726674
 30
0.0
 40
13.4
100
AcDbArc
 50
354.9392819715
 51
6.7053237185
  0
ARC
  5
FF
100
AcDbEntity
  8
0
370
        15
  6
Continuous
 62
         7
100
AcDbCircle
 10
115.5514860642
 20
211.8386628887
 30
0.0
 40
4.0
100
AcDbArc
 50
189.4712206345
 51
330.5287793655
  0
LINE
  5
100
100
AcDbEntity
  8
0
370
        15
  6
Continuous
 62
         7
100
AcDbLine
 10
118.1632948478
 20
210.3627039198
 30
0.0
 11
119.0338977756
 21
209.8707175969
 31
0.0
  0
ARC
  5
101
100
AcDbEntity
  8
0
370
        15
  6
Continuous
 62
         7
100
AcDbCircle
 10
120.7751036314
 20
208.8867449509
 30
0.0
 40
2.0
100
AcDbArc
 50
9.4712206345
 51
150.5287793655
  0
LINE
  5
102
100
AcDbEntity
  8
0
370
        15
  6
Continuous
 62
         7
100
AcDbLine
 10
104.6509366613
 20
213.794435981
 30
0.0
 11
103.654834884
 21
213.8826473715
 31
0.0
  0
ARC
  5
103
100
AcDbEntity
  8
0
370
        15
  6
Continuous
 62
         7
100
AcDbCircle
 10
105.3482079053
 20
213.7326880076
 30
0.0
 40
0.7
100
AcDbArc
 50
174.9392819715
 51
354.9392819715
  0
LINE
  5
104
100
AcDbEntity
  8
0
370
        15
  6
Continuous
 62
         7
100
AcDbLine
 10
99.9184052586
 20
205.2685250035
 30
0.0
 11
99.3166810982
 21
206.0672289754
 31
0.0
  0
ARC
  5
105
100
AcDbEntity
  8
0
370
        15
  6
Continuous
 62
         7
100
AcDbCircle
 10
92.6977153346
 20
214.8529726674
 30
0.0
 40
12.0
100
AcDbArc
 50
354.9392819715
 51
306.9934815908
  0
ARC
  5
106
100
AcDbEntity
  8
0
370
        15
  6
Continuous
 62
         7
100
AcDbCircle
 10
103.8296123007
 20
200.0769491855
 30
0.0
 40
6.5
100
AcDbArc
 50
88.2647326479
 51
126.9934815908
  0
DIMENSION
  5
112
100
AcDbEntity
  8
0
100
AcDbDimension
  2
*D0
 10
47.6977153346
 20
179.8529726674
 30
0.0
 11
47.6977153346
 21
166.4794818653
 31
0.0
 70
       230
 71
         5
 72
         1
 41
1.0
 42
0.0
  3
SLDDIMSTYLE0
100
AcDbOrdinateDimension
 13
47.6977153346
 23
179.8529726674
 33
0.0
 14
47.6977153346
 24
166.4794818653
 34
0.0
  0
DIMENSION
  5
11B
100
AcDbEntity
  8
0
100
AcDbDimension
  2
*D2
 10
47.6977153346
 20
179.8529726674
 30
0.0
 11
57.6977153346
 21
166.4794818653
 31
0.0
 70
       230
 71
         5
 72
         1
 41
1.0
 42
0.0
  3
SLDDIMSTYLE1
100
AcDbOrdinateDimension
 13
57.6977153346
 23
239.8529726674
 33
0.0
 14
57.6977153346
 24
166.4794818653
 34
0.0
  0
DIMENSION
  5
123
100
AcDbEntity
  8
0
100
AcDbDimension
  2
*D3
 10
47.6977153346
 20
179.8529726674
 30
0.0
 11
70.7814319766
 21
166.4794818653
 31
0.0
 70
       230
 71
         5
 72
         1
 41
1.0
 42
0.0
  3
SLDDIMSTYLE1
100
AcDbOrdinateDimension
 13
70.7814319766
 23
216.7703990078
 33
0.0
 14
70.7814319766
 24
166.4794818653
 34
0.0
  0
DIMENSION
  5
12B
100
AcDbEntity
  8
0
100
AcDbDimension
  2
*D4
 10
47.6977153346
 20
179.8529726674
 30
0.0
 11
92.6977153346
 21
166.4794818653
 31
0.0
 70
       230
 71
         5
 72
         1
 41
1.0
 42
0.0
  3
SLDDIMSTYLE1
100
AcDbOrdinateDimension
 13
92.6977153346
 23
214.8529726674
 33
0.0
 14
92.6977153346
 24
166.4794818653
 34
0.0
  0
DIMENSION
  5
133
100
AcDbEntity
  8
0
100
AcDbDimension
  2
*D5
 10
47.6977153346
 20
179.8529726674
 30
0.0
 11
167.6977153346
 21
166.4794818653
 31
0.0
 70
       230
 71
         5
 72
         1
 41
1.0
 42
0.0
  3
SLDDIMSTYLE1
100
AcDbOrdinateDimension
 13
167.6977153346
 23
214.8529726674
 33
0.0
 14
167.6977153346
 24
166.4794818653
 34
0.0
  0
DIMENSION
  5
13B
100
AcDbEntity
  8
0
100
AcDbDimension
  2
*D6
 10
47.6977153346
 20
179.8529726674
 30
0.0
 11
187.6977153346
 21
166.4794818653
 31
0.0
 70
       230
 71
         5
 72
         1
 41
1.0
 42
0.0
  3
SLDDIMSTYLE1
100
AcDbOrdinateDimension
 13
187.6977153346
 23
189.8529726674
 33
0.0
 14
187.6977153346
 24
166.4794818653
 34
0.0
  0
DIMENSION
  5
143
100
AcDbEntity
  8
0
100
AcDbDimension
  2
*D7
 10
47.6977153346
 20
179.8529726674
 30
0.0
 11
197.6977153346
 21
166.4794818653
 31
0.0
 70
       230
 71
         5
 72
         1
 41
1.0
 42
0.0
  3
SLDDIMSTYLE1
100
AcDbOrdinateDimension
 13
197.6977153346
 23
179.8529726674
 33
0.0
 14
197.6977153346
 24
166.4794818653
 34
0.0
  0
DIMENSION
  5
14B
100
AcDbEntity
  8
0
100
AcDbDimension
  2
*D8
 10
197.6977153346
 20
179.8529726674
 30
0.0
 11
206.7319242051
 21
179.8529726674
 31
0.0
 70
       166
 71
         5
 72
         1
 41
1.0
 42
0.0
  3
SLDDIMSTYLE0
100
AcDbOrdinateDimension
 13
197.6977153346
 23
179.8529726674
 33
0.0
 14
206.7319242051
 24
179.8529726674
 34
0.0
  0
DIMENSION
  5
153
100
AcDbEntity
  8
0
100
AcDbDimension
  2
*D9
 10
197.6977153346
 20
179.8529726674
 30
0.0
 11
206.7319242051
 21
239.8529726674
 31
0.0
 70
       166
 71
         5
 72
         1
 41
1.0
 42
0.0
  3
SLDDIMSTYLE1
100
AcDbOrdinateDimension
 13
57.6977153346
 23
239.8529726674
 33
0.0
 14
206.7319242051
 24
239.8529726674
 34
0.0
  0
DIMENSION
  5
15D
100
AcDbEntity
  8
0
100
AcDbDimension
  2
*D10
 10
197.6977153346
 20
179.8529726674
 30
0.0
 11
206.7319242051
 21
225.2350056569
 31
0.0
 70
       166
 71
         5
 72
         1
 41
1.0
 42
0.0
  3
SLDDIMSTYLE1
100
AcDbOrdinateDimension
 13
70.7814319766
 23
216.7703990078
 33
0.0
 14
206.7319242051
 24
225.2350056569
 34
0.0
  0
DIMENSION
  5
167
100
AcDbEntity
  8
0
100
AcDbDimension
  2
*D11
 10
197.6977153346
 20
179.8529726674
 30
0.0
 11
206.7319242051
 21
209.2079231249
 31
0.0
 70
       166
 71
         5
 72
         1
 41
1.0
 42
0.0
  3
SLDDIMSTYLE1
100
AcDbOrdinateDimension
 13
92.6977153346
 23
214.8529726674
 33
0.0
 14
206.7319242051
 24
209.2079231249
 34
0.0
  0
DIMENSION
  5
16F
100
AcDbEntity
  8
0
100
AcDbDimension
  2
*D12
 10
197.6977153346
 20
179.8529726674
 30
0.0
 11
206.7319242051
 21
189.8529726674
 31
0.0
 70
       166
 71
         5
 72
         1
 41
1.0
 42
0.0
  3
SLDDIMSTYLE1
100
AcDbOrdinateDimension
 13
187.6977153346
 23
189.8529726674
 33
0.0
 14
206.7319242051
 24
189.8529726674
 34
0.0
  0
DIMENSION
  5
177
100
AcDbEntity
  8
0
100
AcDbDimension
  2
*D13
 10
197.6977153346
 20
179.8529726674
 30
0.0
 11
206.7319242051
 21
249.8529726674
 31
0.0
 70
       166
 71
         5
 72
         1
 41
1.0
 42
0.0
  3
SLDDIMSTYLE1
100
AcDbOrdinateDimension
 13
197.6977153346
 23
249.8529726674
 33
0.0
 14
206.7319242051
 24
249.8529726674
 34
0.0
  0
DIMENSION
  5
185
100
AcDbEntity
  8
0
100
AcDbDimension
  2
*D14
 10
55.4795325135
 20
235.3719387496
 30
0.0
 11
98.8495260197
 21
266.9981927711
 31
0.0
 70
       163
 71
         5
 72
         1
 41
1.0
 42
0.0
  1
<> non débouchant
  3
SLDDIMSTYLE2
100
AcDbDiametricDimension
 15
59.9158981557
 25
244.3340065851
 35
0.0
 40
0.0
  0
DIMENSION
  5
192
100
AcDbEntity
  8
0
100
AcDbDimension
  2
*D15
 10
183.7958993459
 20
186.7263399754
 30
0.0
 11
228.310066635
 21
201.8647793383
 31
0.0
 70
       163
 71
         5
 72
         1
 41
1.0
 42
0.0
  1
<> non débouchant
  3
SLDDIMSTYLE2
100
AcDbDiametricDimension
 15
191.5995313233
 25
192.9796053593
 35
0.0
 40
0.0
  0
DIMENSION
  5
19E
100
AcDbEntity
  8
0
100
AcDbDimension
  2
*D16
 10
69.9557302836
 20
212.8565496604
 30
0.0
 11
85.8381085734
 21
257.8965857968
 31
0.0
 70
       163
 71
         5
 72
         1
 41
1.0
 42
0.0
  1
<>
  3
SLDDIMSTYLE2
100
AcDbDiametricDimension
 15
71.6071336695
 25
220.6842483552
 35
0.0
 40
0.0
  0
DIMENSION
  5
1AA
100
AcDbEntity
  8
0
100
AcDbDimension
  2
*D17
 10
91.8722946357
 20
210.6838983493
 30
0.0
 11
110.8663680907
 21
257.8965857968
 31
0.0
 70
       163
 71
         5
 72
         1
 41
1.0
 42
0.0
  1
<>
  3
SLDDIMSTYLE2
100
AcDbDiametricDimension
 15
93.5231360335
 25
219.0220469855
 35
0.0
 40
0.0
  0
DIMENSION
  5
1B6
100
AcDbEntity
  8
0
100
AcDbDimension
  2
*D18
 10
169.0119919151
 20
218.8946526485
 30
0.0
 11
143.0706735751
 21
173.2552331606
 31
0.0
 70
       163
 71
         5
 72
         1
 41
1.0
 42
0.0
  1
<>
  3
SLDDIMSTYLE2
100
AcDbDiametricDimension
 15
166.3834387542
 25
210.8112926862
 35
0.0
 40
0.0
  0
LEADER
  5
1B7
100
AcDbEntity
  8
0
 62
       255
100
AcDbLeader
  3
SLDDIMSTYLE3
 73
         3
 74
         0
 75
         0
 40
0.0
 76
         2
 10
135.2584510095
 20
231.3842268971
 30
0.0
 10
149.1153855422
 20
261.3461638554
 30
0.0
 77
       256
340
1C1
  0
MTEXT
  5
1C1
102
{ACAD_REACTORS
330
1B7
102
}
100
AcDbEntity
  8
0
 62
         7
100
AcDbMText
 10
149.6160559807
 20
263.5998452337
 30
0.0
 40
3.5
 41
0.0
 71
         1
 72
         1
  1
forme suivant fichier STEP/IGES
  7
SLDTEXTSTYLE0
 73
         1
 44
1.0
  0
LINE
  5
1C2
100
AcDbEntity
  8
0
  6
CENTER
 62
         7
100
AcDbLine
 10
40.0817618191
 20
214.8529726674
 30
0.0
 11
245.1523619163
 21
214.8529726674
 31
0.0
  0
SOLID
  5
1C3
100
AcDbEntity
  8
0
  6
Continuous
 62
         7
100
AcDbTrace
 10
42.0817618191
 20
214.8529726674
 30
0.0
 11
43.0817618191
 21
218.8529726674
 31
0.0
 12
41.0817618191
 22
218.8529726674
 32
0.0
 13
41.0817618191
 23
218.8529726674
 33
0.0
  0
LINE
  5
1C4
100
AcDbEntity
  8
0
  6
Continuous
 62
         7
100
AcDbLine
 10
42.0817618191
 20
226.8529726674
 30
0.0
 11
42.0817618191
 21
214.8529726674
 31
0.0
  0
SOLID
  5
1C5
100
AcDbEntity
  8
0
  6
Continuous
 62
         7
100
AcDbTrace
 10
243.1523619163
 20
214.8529726674
 30
0.0
 11
244.1523619163
 21
218.8529726674
 31
0.0
 12
242.1523619163
 22
218.8529726674
 32
0.0
 13
242.1523619163
 23
218.8529726674
 33
0.0
  0
LINE
  5
1C6
100
AcDbEntity
  8
0
  6
Continuous
 62
         7
100
AcDbLine
 10
243.1523619163
 20
226.8529726674
 30
0.0
 11
243.1523619163
 21
214.8529726674
 31
0.0
  0
MTEXT
  5
1C7
100
AcDbEntity
  8
0
100
AcDbMText
 10
44.5867835059
 20
226.8529726674
 30
0.0
 40
6.35
 41
0.0
 71
         1
 72
         1
  1
A
 73
         1
 44
1.0
  0
MTEXT
  5
1C8
100
AcDbEntity
  8
0
100
AcDbMText
 10
245.6573836031
 20
226.8529726674
 30
0.0
 40
6.35
 41
0.0
 71
         1
 72
         1
  1
A
 73
         1
 44
1.0
  0
LINE
  5
1C9
100
AcDbEntity
  8
0
370
        15
  6
Continuous
 62
         7
100
AcDbLine
 10
197.6977153346
 20
122.0795869345
 30
0.0
 11
47.6977153346
 21
122.0795869345
 31
0.0
  0
LINE
  5
1CA
100
AcDbEntity
  8
0
370
        15
  6
Continuous
 62
         7
100
AcDbLine
 10
47.6977153346
 20
122.0795869345
 30
0.0
 11
47.6977153346
 21
132.0795869345
 31
0.0
  0
LINE
  5
1CB
100
AcDbEntity
  8
0
370
        15
  6
Continuous
 62
         7
100
AcDbLine
 10
197.6977153346
 20
122.0795869345
 30
0.0
 11
197.6977153346
 21
132.0795869345
 31
0.0
  0
LINE
  5
1CC
100
AcDbEntity
  8
0
370
        15
  6
Continuous
 62
         7
100
AcDbLine
 10
197.6977153346
 20
132.0795869345
 30
0.0
 11
47.6977153346
 21
132.0795869345
 31
0.0
  0
LINE
  5
1CD
100
AcDbEntity
  8
0
370
         0
  6
HIDDEN
 62
         9
100
AcDbLine
 10
62.6977153346
 20
130.0795869345
 30
0.0
 11
52.6977153346
 21
130.0795869345
 31
0.0
  0
LINE
  5
1CE
100
AcDbEntity
  8
0
370
         0
  6
HIDDEN
 62
         9
100
AcDbLine
 10
179.1184114226
 20
128.0795869345
 30
0.0
 11
183.7522351453
 21
128.0795869345
 31
0.0
  0
LINE
  5
1CF
100
AcDbEntity
  8
0
370
         0
  6
HIDDEN
 62
         9
100
AcDbLine
 10
133.1647449636
 20
128.0795869345
 30
0.0
 11
179.1184114226
 21
128.0795869345
 31
0.0
  0
LINE
  5
1D0
100
AcDbEntity
  8
0
370
         0
  6
HIDDEN
 62
         9
100
AcDbLine
 10
183.7522351453
 20
128.0795869345
 30
0.0
 11
187.1037434157
 21
128.0795869345
 31
0.0
  0
LINE
  5
1D1
100
AcDbEntity
  8
0
370
         0
  6
HIDDEN
 62
         9
100
AcDbLine
 10
78.1977153346
 20
128.0795869345
 30
0.0
 11
95.5761930266
 21
128.0795869345
 31
0.0
  0
LINE
  5
1D2
100
AcDbEntity
  8
0
370
         0
  6
HIDDEN
 62
         9
100
AcDbLine
 10
95.5761930266
 20
128.0795869345
 30
0.0
 11
133.1647449636
 21
128.0795869345
 31
0.0
  0
LINE
  5
1D3
100
AcDbEntity
  8
0
370
         0
  6
HIDDEN
 62
         9
100
AcDbLine
 10
80.5803465344
 20
125.5795869345
 30
0.0
 11
78.4719625924
 21
125.5795869345
 31
0.0
  0
LINE
  5
1D4
100
AcDbEntity
  8
0
370
         0
  6
HIDDEN
 62
         9
100
AcDbLine
 10
78.4719625924
 20
125.5795869345
 30
0.0
 11
70.3076054862
 21
125.5795869345
 31
0.0
  0
LINE
  5
1D5
100
AcDbEntity
  8
0
370
         0
  6
HIDDEN
 62
         9
100
AcDbLine
 10
70.3076054862
 20
125.5795869345
 30
0.0
 11
64.7814319766
 21
125.5795869345
 31
0.0
  0
LINE
  5
1D6
100
AcDbEntity
  8
0
370
         0
  6
HIDDEN
 62
         9
100
AcDbLine
 10
187.1037434157
 20
128.0795869345
 30
0.0
 11
187.1371577465
 21
128.0795869345
 31
0.0
  0
POLYLINE
  5
1D7
100
AcDbEntity
  8
0
370
         0
  6
HIDDEN
 62
         9
100
AcDb2dPolyline
 66
         1
 10
0.0
 20
0.0
 30
0.0
 70
       128
  0
VERTEX
  5
1D8
100
AcDbEntity
  8
0
100
AcDbVertex
100
AcDb2dVertex
 10
176.6773497771
 20
127.0795869345
 30
0.0
  0
VERTEX
  5
1D9
100
AcDbEntity
  8
0
100
AcDbVertex
100
AcDb2dVertex
 10
176.6709226722
 20
127.4101012016
 30
0.0
  0
VERTEX
  5
1DA
100
AcDbEntity
  8
0
100
AcDbVertex
100
AcDb2dVertex
 10
176.6523695311
 20
127.7033506315
 30
0.0
  0
VERTEX
  5
1DB
100
AcDbEntity
  8
0
100
AcDbVertex
100
AcDb2dVertex
 10
176.6237654583
 20
127.9265161974
 30
0.0
  0
VERTEX
  5
1DC
100
AcDbEntity
  8
0
100
AcDbVertex
100
AcDb2dVertex
 10
176.5882717734
 20
128.0546504637
 30
0.0
  0
VERTEX
  5
1DD
100
AcDbEntity
  8
0
100
AcDbVertex
100
AcDb2dVertex
 10
176.5645183759
 20
128.0794761416
 30
0.0
  0
VERTEX
  5
1DE
100
AcDbEntity
  8
0
100
AcDbVertex
100
AcDb2dVertex
 10
176.5628093854
 20
128.0795869345
 30
0.0
  0
SEQEND
  5
1DF
100
AcDbEntity
  8
0
  0
LINE
  5
1E0
100
AcDbEntity
  8
0
370
         0
  6
HIDDEN
 62
         9
100
AcDbLine
 10
176.6773497771
 20
127.0795869345
 30
0.0
 11
176.6773497771
 21
122.0795869345
 31
0.0
  0
LINE
  5
1E1
100
AcDbEntity
  8
0
370
         0
  6
HIDDEN
 62
         9
100
AcDbLine
 10
192.6977153346
 20
130.0795869345
 30
0.0
 11
182.6977153346
 21
130.0795869345
 31
0.0
  0
LINE
  5
1E2
100
AcDbEntity
  8
0
370
         0
  6
HIDDEN
 62
         9
100
AcDbLine
 10
62.6977153346
 20
122.0795869345
 30
0.0
 11
62.6977153346
 21
130.0795869345
 31
0.0
  0
LINE
  5
1E3
100
AcDbEntity
  8
0
370
         0
  6
HIDDEN
 62
         9
100
AcDbLine
 10
52.6977153346
 20
130.0795869345
 30
0.0
 11
52.6977153346
 21
122.0795869345
 31
0.0
  0
ARC
  5
1E4
100
AcDbEntity
  8
0
370
         0
  6
HIDDEN
 62
         9
100
AcDbCircle
 10
78.1977153346
 20
127.0795869345
 30
0.0
 40
1.0
100
AcDbArc
 50
90.0
 51
180.0
  0
LINE
  5
1E5
100
AcDbEntity
  8
0
370
         0
  6
HIDDEN
 62
         9
100
AcDbLine
 10
77.1977153346
 20
127.0795869345
 30
0.0
 11
77.1977153346
 21
125.5795869345
 31
0.0
  0
ARC
  5
1E6
100
AcDbEntity
  8
0
370
         0
  6
HIDDEN
 62
         9
100
AcDbCircle
 10
80.6977153346
 20
127.0795869345
 30
0.0
 40
1.0
100
AcDbArc
 50
0.0
 51
90.0
  0
ARC
  5
1E7
100
AcDbEntity
  8
0
370
         0
  6
HIDDEN
 62
         9
100
AcDbCircle
 10
104.6977153346
 20
127.0795869345
 30
0.0
 40
1.0
100
AcDbArc
 50
90.0
 51
180.0
  0
LINE
  5
1E8
100
AcDbEntity
  8
0
370
         0
  6
HIDDEN
 62
         9
100
AcDbLine
 10
103.6977153346
 20
122.0795869345
 30
0.0
 11
103.6977153346
 21
127.0795869345
 31
0.0
  0
LINE
  5
1E9
100
AcDbEntity
  8
0
370
         0
  6
HIDDEN
 62
         9
100
AcDbLine
 10
81.6977153346
 20
127.0795869345
 30
0.0
 11
81.6977153346
 21
122.0795869345
 31
0.0
  0
ARC
  5
1EA
100
AcDbEntity
  8
0
370
         0
  6
HIDDEN
 62
         9
100
AcDbCircle
 10
183.4626618211
 20
127.0795869345
 30
0.0
 40
1.0
100
AcDbArc
 50
90.0
 51
180.0
  0
LINE
  5
1EB
100
AcDbEntity
  8
0
370
         0
  6
HIDDEN
 62
         9
100
AcDbLine
 10
182.4626618211
 20
122.0795869345
 30
0.0
 11
182.4626618211
 21
127.0795869345
 31
0.0
  0
LINE
  5
1EC
100
AcDbEntity
  8
0
370
         0
  6
HIDDEN
 62
         9
100
AcDbLine
 10
64.7814319766
 20
125.5795869345
 30
0.0
 11
64.7814319766
 21
122.0795869345
 31
0.0
  0
ARC
  5
1ED
100
AcDbEntity
  8
0
370
         0
  6
HIDDEN
 62
         9
100
AcDbCircle
 10
180.2722905438
 20
127.0795869345
 30
0.0
 40
1.0
100
AcDbArc
 50
90.0
 51
180.0
  0
LINE
  5
1EE
100
AcDbEntity
  8
0
370
         0
  6
HIDDEN
 62
         9
100
AcDbLine
 10
179.2722905438
 20
127.0795869345
 30
0.0
 11
179.2722905438
 21
122.0795869345
 31
0.0
  0
ARC
  5
1EF
100
AcDbEntity
  8
0
370
         0
  6
HIDDEN
 62
         9
100
AcDbCircle
 10
105.9786959351
 20
127.0795869345
 30
0.0
 40
1.0
100
AcDbArc
 50
0.0
 51
90.0
  0
LINE
  5
1F0
100
AcDbEntity
  8
0
370
         0
  6
HIDDEN
 62
         9
100
AcDbLine
 10
74.7814319766
 20
125.5795869345
 30
0.0
 11
74.7814319766
 21
132.0795869345
 31
0.0
  0
LINE
  5
1F1
100
AcDbEntity
  8
0
370
         0
  6
HIDDEN
 62
         9
100
AcDbLine
 10
66.7814319766
 20
132.0795869345
 30
0.0
 11
66.7814319766
 21
125.5795869345
 31
0.0
  0
LINE
  5
1F2
100
AcDbEntity
  8
0
370
         0
  6
HIDDEN
 62
         9
100
AcDbLine
 10
106.9786959351
 20
127.0795869345
 30
0.0
 11
106.9786959351
 21
122.0795869345
 31
0.0
  0
LINE
  5
1F3
100
AcDbEntity
  8
0
370
         0
  6
HIDDEN
 62
         9
100
AcDbLine
 10
171.9477153346
 20
122.0795869345
 30
0.0
 11
171.9477153346
 21
132.0795869345
 31
0.0
  0
LINE
  5
1F4
100
AcDbEntity
  8
0
370
         0
  6
HIDDEN
 62
         9
100
AcDbLine
 10
163.4477153346
 20
132.0795869345
 30
0.0
 11
163.4477153346
 21
122.0795869345
 31
0.0
  0
LINE
  5
1F5
100
AcDbEntity
  8
0
370
         0
  6
HIDDEN
 62
         9
100
AcDbLine
 10
96.9477153346
 20
122.0795869345
 30
0.0
 11
96.9477153346
 21
132.0795869345
 31
0.0
  0
LINE
  5
1F6
100
AcDbEntity
  8
0
370
         0
  6
HIDDEN
 62
         9
100
AcDbLine
 10
88.4477153346
 20
132.0795869345
 30
0.0
 11
88.4477153346
 21
122.0795869345
 31
0.0
  0
ARC
  5
1F7
100
AcDbEntity
  8
0
370
         0
  6
HIDDEN
 62
         9
100
AcDbCircle
 10
106.0977153346
 20
127.0795869345
 30
0.0
 40
1.0
100
AcDbArc
 50
0.0
 51
90.0
  0
LINE
  5
1F8
100
AcDbEntity
  8
0
370
         0
  6
HIDDEN
 62
         9
100
AcDbLine
 10
107.0977153346
 20
122.0795869345
 30
0.0
 11
107.0977153346
 21
127.0795869345
 31
0.0
  0
ARC
  5
1F9
100
AcDbEntity
  8
0
370
         0
  6
HIDDEN
 62
         9
100
AcDbCircle
 10
187.1371577465
 20
127.0795869345
 30
0.0
 40
1.0
100
AcDbArc
 50
0.0
 51
90.0
  0
LINE
  5
1FA
100
AcDbEntity
  8
0
370
         0
  6
HIDDEN
 62
         9
100
AcDbLine
 10
188.1371577465
 20
122.0795869345
 30
0.0
 11
188.1371577465
 21
127.0795869345
 31
0.0
  0
ARC
  5
1FB
100
AcDbEntity
  8
0
370
         0
  6
HIDDEN
 62
         9
100
AcDbCircle
 10
104.6482079053
 20
127.0795869345
 30
0.0
 40
1.0
100
AcDbArc
 50
90.0
 51
180.0
  0
LINE
  5
1FC
100
AcDbEntity
  8
0
370
         0
  6
HIDDEN
 62
         9
100
AcDbLine
 10
103.6482079053
 20
127.0795869345
 30
0.0
 11
103.6482079053
 21
122.0795869345
 31
0.0
  0
LINE
  5
1FD
100
AcDbEntity
  8
0
370
         0
  6
HIDDEN
 62
         9
100
AcDbLine
 10
192.6977153346
 20
122.0795869345
 30
0.0
 11
192.6977153346
 21
130.0795869345
 31
0.0
  0
LINE
  5
1FE
100
AcDbEntity
  8
0
370
         0
  6
HIDDEN
 62
         9
100
AcDbLine
 10
182.6977153346
 20
130.0795869345
 30
0.0
 11
182.6977153346
 21
122.0795869345
 31
0.0
  0
ARC
  5
1FF
100
AcDbEntity
  8
0
370
         0
  6
HIDDEN
 62
         9
100
AcDbCircle
 10
178.6149229252
 20
127.0795869345
 30
0.0
 40
1.0
100
AcDbArc
 50
0.0
 51
90.0
  0
LINE
  5
200
100
AcDbEntity
  8
0
370
         0
  6
HIDDEN
 62
         9
100
AcDbLine
 10
179.6149229252
 20
122.0795869345
 30
0.0
 11
179.6149229252
 21
127.0795869345
 31
0.0
  0
DIMENSION
  5
20F
100
AcDbEntity
  8
0
 62
       255
100
AcDbDimension
  2
*D20
 10
33.0907772021
 20
122.0795869345
 30
0.0
 11
33.0907772021
 21
126.7318157374
 31
0.0
 70
       160
 71
         5
 72
         1
 41
1.0
 42
0.0
  3
SLDDIMSTYLE4
100
AcDbAlignedDimension
 13
47.6977153346
 23
132.0795869345
 33
0.0
 14
47.6977153346
 24
122.0795869345
 34
0.0
 50
90.0
100
AcDbRotatedDimension
  0
DIMENSION
  5
21D
100
AcDbEntity
  8
0
 62
       255
100
AcDbDimension
  2
*D21
 10
206.9863490376
 20
122.0795869345
 30
0.0
 11
206.9863490376
 21
125.8075266423
 31
0.0
 70
       160
 71
         5
 72
         1
 41
1.0
 42
0.0
  3
SLDDIMSTYLE4
100
AcDbAlignedDimension
 13
192.6977153346
 23
130.0795869345
 33
0.0
 14
197.6977153346
 24
122.0795869345
 34
0.0
 50
90.0
100
AcDbRotatedDimension
  0
DIMENSION
  5
22B
100
AcDbEntity
  8
0
 62
       255
100
AcDbDimension
  2
*D22
 10
41.8357240493
 20
122.0795869345
 30
0.0
 11
41.8357240493
 21
125.8075266423
 31
0.0
 70
       160
 71
         5
 72
         1
 41
1.0
 42
0.0
  3
SLDDIMSTYLE4
100
AcDbAlignedDimension
 13
52.6977153346
 23
130.0795869345
 33
0.0
 14
47.6977153346
 24
122.0795869345
 34
0.0
 50
90.0
100
AcDbRotatedDimension
  0
LINE
  5
22C
100
AcDbEntity
  8
0
370
        15
  6
Continuous
 62
         7
100
AcDbLine
 10
197.6977153346
 20
32.6334570913
 30
0.0
 11
47.6977153346
 21
32.6334570913
 31
0.0
  0
CIRCLE
  5
22D
100
AcDbEntity
  8
0
370
        15
  6
Continuous
 62
         7
100
AcDbCircle
 10
70.7814319766
 20
65.7160307508
 30
0.0
 40
4.0
  0
CIRCLE
  5
22E
100
AcDbEntity
  8
0
370
        15
  6
Continuous
 62
         7
100
AcDbCircle
 10
167.6977153346
 20
67.6334570913
 30
0.0
 40
4.25
  0
CIRCLE
  5
22F
100
AcDbEntity
  8
0
370
        15
  6
Continuous
 62
         7
100
AcDbCircle
 10
92.6977153346
 20
67.6334570913
 30
0.0
 40
4.25
  0
LINE
  5
230
100
AcDbEntity
  8
0
370
        15
  6
Continuous
 62
         7
100
AcDbLine
 10
47.6977153346
 20
32.6334570913
 30
0.0
 11
47.6977153346
 21
102.6334570913
 31
0.0
  0
LINE
  5
231
100
AcDbEntity
  8
0
370
        15
  6
Continuous
 62
         7
100
AcDbLine
 10
197.6977153346
 20
102.6334570913
 30
0.0
 11
197.6977153346
 21
32.6334570913
 31
0.0
  0
LINE
  5
232
100
AcDbEntity
  8
0
370
        15
  6
Continuous
 62
         7
100
AcDbLine
 10
47.6977153346
 20
102.6334570913
 30
0.0
 11
197.6977153346
 21
102.6334570913
 31
0.0
  0
CIRCLE
  5
233
100
AcDbEntity
  8
0
370
         0
  6
HIDDEN
 62
         9
100
AcDbCircle
 10
187.6977153346
 20
92.6334570913
 30
0.0
 40
5.0
  0
CIRCLE
  5
234
100
AcDbEntity
  8
0
370
         0
  6
HIDDEN
 62
         9
100
AcDbCircle
 10
57.6977153346
 20
42.6334570913
 30
0.0
 40
5.0
  0
POLYLINE
  5
235
100
AcDbEntity
  8
0
370
         0
  6
HIDDEN
 62
         9
100
AcDb2dPolyline
 66
         1
 10
0.0
 20
0.0
 30
0.0
 70
       128
  0
VERTEX
  5
236
100
AcDbEntity
  8
0
100
AcDbVertex
100
AcDb2dVertex
 10
176.6773497771
 20
80.4104792497
 30
0.0
  0
VERTEX
  5
237
100
AcDbEntity
  8
0
100
AcDbVertex
100
AcDb2dVertex
 10
176.6709226722
 20
80.4664139168
 30
0.0
  0
VERTEX
  5
238
100
AcDbEntity
  8
0
100
AcDbVertex
100
AcDb2dVertex
 10
176.6523695311
 20
80.6278621007
 30
0.0
  0
VERTEX
  5
239
100
AcDbEntity
  8
0
100
AcDbVertex
100
AcDb2dVertex
 10
176.6237654583
 20
80.8767088723
 30
0.0
  0
VERTEX
  5
23A
100
AcDbEntity
  8
0
100
AcDbVertex
100
AcDb2dVertex
 10
176.5882717734
 20
81.1853506984
 30
0.0
  0
VERTEX
  5
23B
100
AcDbEntity
  8
0
100
AcDbVertex
100
AcDb2dVertex
 10
176.5645183759
 20
81.3917814768
 30
0.0
  0
VERTEX
  5
23C
100
AcDbEntity
  8
0
100
AcDbVertex
100
AcDb2dVertex
 10
176.5628093854
 20
81.4066288624
 30
0.0
  0
SEQEND
  5
23D
100
AcDbEntity
  8
0
  0
ARC
  5
23E
100
AcDbEntity
  8
0
370
         0
  6
HIDDEN
 62
         9
100
AcDbCircle
 10
176.1564052441
 20
83.3649025088
 30
0.0
 40
3.0
100
AcDbArc
 50
280.0
 51
355.0
  0
ARC
  5
23F
100
AcDbEntity
  8
0
370
         0
  6
HIDDEN
 62
         9
100
AcDbCircle
 10
176.512852354
 20
83.4388766348
 30
0.0
 40
3.0328617054
100
AcDbArc
 50
209.4712206346
 51
273.109154394
  0
LINE
  5
240
100
AcDbEntity
  8
0
370
         0
  6
HIDDEN
 62
         9
100
AcDbLine
 10
132.991096786
 20
82.3539669743
 30
0.0
 11
177.6197210232
 21
90.2231975392
 31
0.0
  0
ARC
  5
241
100
AcDbEntity
  8
0
370
         0
  6
HIDDEN
 62
         9
100
AcDbCircle
 10
177.9149229252
 20
88.5490243591
 30
0.0
 40
1.7
100
AcDbArc
 50
355.0
 51
100.0
  0
LINE
  5
242
100
AcDbEntity
  8
0
370
         0
  6
HIDDEN
 62
         9
100
AcDbLine
 10
179.6084539119
 20
88.4008595964
 30
0.0
 11
179.1449893384
 21
83.1034352805
 31
0.0
  0
ARC
  5
243
100
AcDbEntity
  8
0
370
         0
  6
HIDDEN
 62
         9
100
AcDbCircle
 10
171.2606252898
 20
80.4707911874
 30
0.0
 40
3.0
100
AcDbArc
 50
29.4712206346
 51
170.5287793655
  0
ARC
  5
244
100
AcDbEntity
  8
0
370
         0
  6
HIDDEN
 62
         9
100
AcDbCircle
 10
92.6977153346
 20
67.6334570913
 30
0.0
 40
15.5
100
AcDbArc
 50
78.5498252121
 51
281.4501747879
  0
ARC
  5
245
100
AcDbEntity
  8
0
370
         0
  6
HIDDEN
 62
         9
100
AcDbCircle
 10
115.6262790193
 20
180.8347422755
 30
0.0
 40
100.0
100
AcDbArc
 50
258.5498252121
 51
280.0
  0
ARC
  5
246
100
AcDbEntity
  8
0
370
         0
  6
HIDDEN
 62
         9
100
AcDbCircle
 10
160.1187974446
 20
78.5061863239
 30
0.0
 40
3.0
100
AcDbArc
 50
29.4712206345
 51
170.5287793655
  0
ARC
  5
247
100
AcDbEntity
  8
0
370
         0
  6
HIDDEN
 62
         9
100
AcDbCircle
 10
165.3424150119
 20
81.4581042617
 30
0.0
 40
3.0
100
AcDbArc
 50
209.4712206345
 51
350.5287793655
  0
ARC
  5
248
100
AcDbEntity
  8
0
370
         0
  6
HIDDEN
 62
         9
100
AcDbCircle
 10
148.9769695995
 20
76.5415814604
 30
0.0
 40
3.0
100
AcDbArc
 50
29.4712206345
 51
170.5287793655
  0
ARC
  5
249
100
AcDbEntity
  8
0
370
         0
  6
HIDDEN
 62
         9
100
AcDbCircle
 10
92.6977153346
 20
67.6334570913
 30
0.0
 40
11.0
100
AcDbArc
 50
53.0065184092
 51
5.0607180285
  0
ARC
  5
24A
100
AcDbEntity
  8
0
370
         0
  6
HIDDEN
 62
         9
100
AcDbCircle
 10
154.2005871667
 20
79.4934993982
 30
0.0
 40
3.0
100
AcDbArc
 50
209.4712206345
 51
350.5287793655
  0
ARC
  5
24B
100
AcDbEntity
  8
0
370
         0
  6
HIDDEN
 62
         9
100
AcDbCircle
 10
137.8351417544
 20
74.5769765969
 30
0.0
 40
3.0
100
AcDbArc
 50
29.4712206345
 51
170.5287793655
  0
ARC
  5
24C
100
AcDbEntity
  8
0
370
         0
  6
HIDDEN
 62
         9
100
AcDbCircle
 10
103.8296123007
 20
82.4094805731
 30
0.0
 40
7.5
100
AcDbArc
 50
233.0065184092
 51
271.7352673521
  0
ARC
  5
24D
100
AcDbEntity
  8
0
370
         0
  6
HIDDEN
 62
         9
100
AcDbCircle
 10
143.0587593216
 20
77.5288945347
 30
0.0
 40
3.0
100
AcDbArc
 50
209.4712206345
 51
350.5287793655
  0
ARC
  5
24E
100
AcDbEntity
  8
0
370
         0
  6
HIDDEN
 62
         9
100
AcDbCircle
 10
126.6933139093
 20
72.6123717334
 30
0.0
 40
3.0
100
AcDbArc
 50
29.4712206345
 51
170.5287793655
  0
ARC
  5
24F
100
AcDbEntity
  8
0
370
         0
  6
HIDDEN
 62
         9
100
AcDbCircle
 10
104.1893181581
 20
70.5361944822
 30
0.0
 40
4.3787335562
100
AcDbArc
 50
5.9694916952
 51
91.7352673521
  0
ARC
  5
250
100
AcDbEntity
  8
0
370
         0
  6
HIDDEN
 62
         9
100
AcDbCircle
 10
131.9169314765
 20
75.5642896712
 30
0.0
 40
3.0
100
AcDbArc
 50
209.4712206345
 51
350.5287793655
  0
ARC
  5
251
100
AcDbEntity
  8
0
370
         0
  6
HIDDEN
 62
         9
100
AcDbCircle
 10
115.5514860642
 20
70.6477668699
 30
0.0
 40
3.0
100
AcDbArc
 50
29.4712206345
 51
170.5287793655
  0
ARC
  5
252
100
AcDbEntity
  8
0
370
         0
  6
HIDDEN
 62
         9
100
AcDbCircle
 10
120.7751036314
 20
73.5996848077
 30
0.0
 40
3.0
100
AcDbArc
 50
209.4712206345
 51
350.5287793655
  0
ARC
  5
253
100
AcDbEntity
  8
0
370
         0
  6
HIDDEN
 62
         9
100
AcDbCircle
 10
109.6332757863
 20
71.6350799442
 30
0.0
 40
3.0
100
AcDbArc
 50
334.1826174555
 51
350.5287793655
  0
ARC
  5
254
100
AcDbEntity
  8
0
370
         0
  6
HIDDEN
 62
         9
100
AcDbCircle
 10
110.5334624747
 20
71.1995757238
 30
0.0
 40
2.0
100
AcDbArc
 50
185.9694916952
 51
334.1826174555
  0
ARC
  5
255
100
AcDbEntity
  8
0
370
         0
  6
HIDDEN
 62
         9
100
AcDbCircle
 10
105.3482079053
 20
68.753741751
 30
0.0
 40
1.7
100
AcDbArc
 50
5.0607180285
 51
185.0607180285
  0
ARC
  5
256
100
AcDbEntity
  8
0
370
         0
  6
HIDDEN
 62
         9
100
AcDbCircle
 10
184.937724648
 20
68.428797475
 30
0.0
 40
3.1994330985
100
AcDbArc
 50
350.0
 51
160.0
  0
ARC
  5
257
100
AcDbEntity
  8
0
370
         0
  6
HIDDEN
 62
         9
100
AcDbCircle
 10
92.6977153346
 20
67.6334570913
 30
0.0
 40
14.4
100
AcDbArc
 50
353.2946762815
 51
5.0607180285
  0
LINE
  5
258
100
AcDbEntity
  8
0
370
         0
  6
HIDDEN
 62
         9
100
AcDbLine
 10
179.3748130884
 20
62.4993401503
 30
0.0
 11
181.9312409746
 21
69.5230680419
 31
0.0
  0
LINE
  5
259
100
AcDbEntity
  8
0
370
         0
  6
HIDDEN
 62
         9
100
AcDbLine
 10
188.0885511687
 20
67.8732217479
 30
0.0
 11
184.7370428983
 21
48.8658738258
 31
0.0
  0
ARC
  5
25A
100
AcDbEntity
  8
0
370
         0
  6
HIDDEN
 62
         9
100
AcDbCircle
 10
109.9786959351
 20
65.6017805702
 30
0.0
 40
3.0
100
AcDbArc
 50
173.2946762815
 51
330.5287793655
  0
ARC
  5
25B
100
AcDbEntity
  8
0
370
         0
  6
HIDDEN
 62
         9
100
AcDbCircle
 10
115.2023135023
 20
62.6498626324
 30
0.0
 40
3.0
100
AcDbArc
 50
9.4712206345
 51
150.5287793655
  0
ARC
  5
25C
100
AcDbEntity
  8
0
370
         0
  6
HIDDEN
 62
         9
100
AcDbCircle
 10
126.3441413474
 20
60.6852577689
 30
0.0
 40
3.0
100
AcDbArc
 50
9.4712206345
 51
150.5287793655
  0
ARC
  5
25D
100
AcDbEntity
  8
0
370
         0
  6
HIDDEN
 62
         9
100
AcDbCircle
 10
121.1205237802
 20
63.6371757067
 30
0.0
 40
3.0
100
AcDbArc
 50
189.4712206345
 51
330.5287793655
  0
ARC
  5
25E
100
AcDbEntity
  8
0
370
         0
  6
HIDDEN
 62
         9
100
AcDbCircle
 10
137.4859691925
 20
58.7206529054
 30
0.0
 40
3.0
100
AcDbArc
 50
9.4712206345
 51
150.5287793655
  0
ARC
  5
25F
100
AcDbEntity
  8
0
370
         0
  6
HIDDEN
 62
         9
100
AcDbCircle
 10
180.9722905438
 20
61.9179059066
 30
0.0
 40
1.7
100
AcDbArc
 50
160.0
 51
260.0
  0
ARC
  5
260
100
AcDbEntity
  8
0
370
         0
  6
HIDDEN
 62
         9
100
AcDbCircle
 10
132.2623516253
 20
61.6725708432
 30
0.0
 40
3.0
100
AcDbArc
 50
189.4712206345
 51
330.5287793655
  0
LINE
  5
261
100
AcDbEntity
  8
0
370
         0
  6
HIDDEN
 62
         9
100
AcDbLine
 10
181.6363099987
 20
60.0745961208
 30
0.0
 11
180.6770886417
 21
60.2437327265
 31
0.0
  0
ARC
  5
262
100
AcDbEntity
  8
0
370
         0
  6
HIDDEN
 62
         9
100
AcDbCircle
 10
181.4626618211
 20
59.0897883678
 30
0.0
 40
1.0
100
AcDbArc
 50
350.0
 51
80.0
  0
ARC
  5
263
100
AcDbEntity
  8
0
370
         0
  6
HIDDEN
 62
         9
100
AcDbCircle
 10
148.6277970377
 20
56.7560480419
 30
0.0
 40
3.0
100
AcDbArc
 50
9.4712206345
 51
150.5287793655
  0
ARC
  5
264
100
AcDbEntity
  8
0
370
         0
  6
HIDDEN
 62
         9
100
AcDbCircle
 10
143.4041794704
 20
59.7079659797
 30
0.0
 40
3.0
100
AcDbArc
 50
189.4712206345
 51
330.5287793655
  0
LINE
  5
265
100
AcDbEntity
  8
0
370
         0
  6
HIDDEN
 62
         9
100
AcDbLine
 10
181.2319323304
 20
52.022485919
 30
0.0
 11
182.4474695741
 21
58.9161401901
 31
0.0
  0
ARC
  5
266
100
AcDbEntity
  8
0
370
         0
  6
HIDDEN
 62
         9
100
AcDbCircle
 10
159.7696248828
 20
54.7914431784
 30
0.0
 40
3.0
100
AcDbArc
 50
9.4712206345
 51
150.5287793655
  0
ARC
  5
267
100
AcDbEntity
  8
0
370
         0
  6
HIDDEN
 62
         9
100
AcDbCircle
 10
154.5460073156
 20
57.7433611162
 30
0.0
 40
3.0
100
AcDbArc
 50
189.4712206345
 51
330.5287793655
  0
ARC
  5
268
100
AcDbEntity
  8
0
370
         0
  6
HIDDEN
 62
         9
100
AcDbCircle
 10
115.6262790193
 20
-45.567828093
 30
0.0
 40
100.0
100
AcDbArc
 50
80.0
 51
101.4501747879
  0
ARC
  5
269
100
AcDbEntity
  8
0
370
         0
  6
HIDDEN
 62
         9
100
AcDbCircle
 10
170.9114527279
 20
52.8268383149
 30
0.0
 40
3.0
100
AcDbArc
 50
9.4712206345
 51
150.5287793655
  0
ARC
  5
26A
100
AcDbEntity
  8
0
370
         0
  6
HIDDEN
 62
         9
100
AcDbCircle
 10
165.6878351607
 20
55.7787562527
 30
0.0
 40
3.0
100
AcDbArc
 50
189.4712206345
 51
330.5287793655
  0
LINE
  5
26B
100
AcDbEntity
  8
0
370
         0
  6
HIDDEN
 62
         9
100
AcDbLine
 10
178.9447632449
 20
44.8100759491
 30
0.0
 11
132.991096786
 21
52.9129472083
 31
0.0
  0
ARC
  5
26C
100
AcDbEntity
  8
0
370
         0
  6
HIDDEN
 62
         9
100
AcDbCircle
 10
176.8296630058
 20
53.8141513892
 30
0.0
 40
3.0
100
AcDbArc
 50
189.4712206345
 51
260.0
  0
ARC
  5
26D
100
AcDbEntity
  8
0
370
         0
  6
HIDDEN
 62
         9
100
AcDbCircle
 10
179.2623168244
 20
52.3697822743
 30
0.0
 40
2.0
100
AcDbArc
 50
260.0
 51
349.9999999999
  0
LINE
  5
26E
100
AcDbEntity
  8
0
370
         0
  6
HIDDEN
 62
         9
100
AcDbLine
 10
176.3087184728
 20
50.8597281301
 30
0.0
 11
178.9150204691
 21
50.4001667683
 31
0.0
  0
ARC
  5
26F
100
AcDbEntity
  8
0
370
         0
  6
HIDDEN
 62
         9
100
AcDbCircle
 10
179.8130041332
 20
49.7341147141
 30
0.0
 40
5.0
100
AcDbArc
 50
260.0
 51
350.0
  0
ARC
  5
270
100
AcDbEntity
  8
0
370
         0
  6
HIDDEN
 62
         9
100
AcDbCircle
 10
76.4515493368
 20
76.4828689572
 30
0.0
 40
3.0
100
AcDbArc
 50
284.5294259417
 51
331.4225293981
  0
LINE
  5
271
100
AcDbEntity
  8
0
370
         0
  6
HIDDEN
 62
         9
100
AcDbLine
 10
69.2761688254
 20
71.5241442867
 30
0.0
 11
77.2041809124
 21
73.5788121892
 31
0.0
  0
ARC
  5
272
100
AcDbEntity
  8
0
370
         0
  6
HIDDEN
 62
         9
100
AcDbCircle
 10
70.7814319766
 20
65.7160307508
 30
0.0
 40
6.0
100
AcDbArc
 50
104.5294259417
 51
265.4705740583
  0
LINE
  5
273
100
AcDbEntity
  8
0
370
         0
  6
HIDDEN
 62
         9
100
AcDbLine
 10
78.4719625924
 20
59.0880012783
 30
0.0
 11
70.3076054862
 21
59.7347693072
 31
0.0
  0
ARC
  5
274
100
AcDbEntity
  8
0
370
         0
  6
HIDDEN
 62
         9
100
AcDbCircle
 10
78.2350493472
 20
56.0973705565
 30
0.0
 40
3.0
100
AcDbArc
 50
38.5774706019
 51
85.4705740583
  0
LINE
  5
275
100
AcDbEntity
  8
0
370
        15
  6
Continuous
 62
         7
100
AcDbLine
 10
359.7926026961
 20
214.5929731157
 30
0.0
 11
359.7926026961
 21
212.9263064491
 31
0.0
  0
LINE
  5
276
100
AcDbEntity
  8
0
370
        15
  6
Continuous
 62
         7
100
AcDbLine
 10
352.9568012875
 20
217.3535040417
 30
0.0
 11
352.9568012875
 21
215.6868373751
 31
0.0
  0
LINE
  5
277
100
AcDbEntity
  8
0
370
        15
  6
Continuous
 62
         7
100
AcDbLine
 10
346.1209998789
 20
220.1140349677
 30
0.0
 11
346.1209998789
 21
218.4473683011
 31
0.0
  0
LINE
  5
278
100
AcDbEntity
  8
0
370
        15
  6
Continuous
 62
         7
100
AcDbLine
 10
339.2851984703
 20
222.8745658937
 30
0.0
 11
339.2851984703
 21
221.207899227
 31
0.0
  0
LINE
  5
279
100
AcDbEntity
  8
0
370
        15
  6
Continuous
 62
         7
100
AcDbLine
 10
332.4493970617
 20
225.6350968197
 30
0.0
 11
332.4493970617
 21
223.968430153
 31
0.0
  0
LINE
  5
27A
100
AcDbEntity
  8
0
370
        15
  6
Continuous
 62
         7
100
AcDbLine
 10
306.083671255
 20
233.491662309
 30
0.0
 11
306.083671255
 21
231.8249956424
 31
0.0
  0
LINE
  5
27B
100
AcDbEntity
  8
0
370
        15
  6
Continuous
 62
         7
100
AcDbLine
 10
320.7503379216
 20
231.8249956424
 30
0.0
 11
320.7503379216
 21
233.491662309
 31
0.0
  0
LINE
  5
27C
100
AcDbEntity
  8
0
370
        15
  6
Continuous
 62
         7
100
AcDbLine
 10
325.6135956531
 20
228.3956277457
 30
0.0
 11
325.6135956531
 21
226.728961079
 31
0.0
  0
LINE
  5
27D
100
AcDbEntity
  8
0
370
        15
  6
Continuous
 62
         7
100
AcDbLine
 10
373.1273472298
 20
227.4019211263
 30
0.0
 11
373.1273472298
 21
229.068587793
 31
0.0
  0
LINE
  5
27E
100
AcDbEntity
  8
0
370
        15
  6
Continuous
 62
         7
100
AcDbLine
 10
278.4001187472
 20
220.6972645964
 30
0.0
 11
278.4001187472
 21
217.3639312631
 31
0.0
  0
LINE
  5
27F
100
AcDbEntity
  8
0
370
        15
  6
Continuous
 62
         7
100
AcDbLine
 10
278.4001187472
 20
220.6972645964
 30
0.0
 11
374.9927013761
 21
198.2828777922
 31
0.0
  0
LINE
  5
280
100
AcDbEntity
  8
0
370
        15
  6
Continuous
 62
         7
100
AcDbLine
 10
374.9927013761
 20
198.2828777922
 30
0.0
 11
374.9927013761
 21
194.9495444589
 31
0.0
  0
LINE
  5
281
100
AcDbEntity
  8
0
370
        15
  6
Continuous
 62
         7
100
AcDbLine
 10
278.4001187472
 20
217.3639312631
 30
0.0
 11
374.9927013761
 21
194.9495444589
 31
0.0
  0
LINE
  5
282
100
AcDbEntity
  8
0
370
        15
  6
Continuous
 62
         7
100
AcDbLine
 10
387.0709234809
 20
237.3203053
 30
0.0
 11
290.478340852
 21
259.7346921042
 31
0.0
  0
LINE
  5
283
100
AcDbEntity
  8
0
370
        15
  6
Continuous
 62
         7
100
AcDbLine
 10
374.9927013761
 20
198.2828777922
 30
0.0
 11
387.0709234809
 21
237.3203053
 31
0.0
  0
LINE
  5
284
100
AcDbEntity
  8
0
370
        15
  6
Continuous
 62
         7
100
AcDbLine
 10
290.478340852
 20
259.7346921042
 30
0.0
 11
278.4001187472
 21
220.6972645964
 31
0.0
  0
POLYLINE
  5
285
100
AcDbEntity
  8
0
370
        15
  6
Continuous
 62
         7
100
AcDb2dPolyline
 66
         1
 10
0.0
 20
0.0
 30
0.0
 70
       128
  0
VERTEX
  5
286
100
AcDbEntity
  8
0
100
AcDbVertex
100
AcDb2dVertex
 10
369.4159260179
 20
202.565557925
 30
0.0
  0
VERTEX
  5
287
100
AcDbEntity
  8
0
100
AcDbVertex
100
AcDb2dVertex
 10
370.0222436542
 20
202.4757477651
 30
0.0
  0
VERTEX
  5
288
100
AcDbEntity
  8
0
100
AcDbVertex
100
AcDb2dVertex
 10
370.6372931112
 20
202.4839511806
 30
0.0
  0
VERTEX
  5
289
100
AcDbEntity
  8
0
100
AcDbVertex
100
AcDb2dVertex
 10
371.2401296173
 20
202.5898888141
 30
0.0
  0
VERTEX
  5
28A
100
AcDbEntity
  8
0
100
AcDbVertex
100
AcDb2dVertex
 10
371.8102242982
 20
202.7899530864
 30
0.0
  0
VERTEX
  5
28B
100
AcDbEntity
  8
0
100
AcDbVertex
100
AcDb2dVertex
 10
372.3281632633
 20
203.0773310487
 30
0.0
  0
VERTEX
  5
28C
100
AcDbEntity
  8
0
100
AcDbVertex
100
AcDb2dVertex
 10
372.7763087224
 20
203.4422363892
 30
0.0
  0
VERTEX
  5
28D
100
AcDbEntity
  8
0
100
AcDbVertex
100
AcDb2dVertex
 10
373.1393996194
 20
203.8722426942
 30
0.0
  0
VERTEX
  5
28E
100
AcDbEntity
  8
0
100
AcDbVertex
100
AcDb2dVertex
 10
373.4050713293
 20
204.3527066147
 30
0.0
  0
VERTEX
  5
28F
100
AcDbEntity
  8
0
100
AcDbVertex
100
AcDb2dVertex
 10
373.5642767205
 20
204.8672665281
 30
0.0
  0
VERTEX
  5
290
100
AcDbEntity
  8
0
100
AcDbVertex
100
AcDb2dVertex
 10
373.6115942445
 20
205.3983997137
 30
0.0
  0
VERTEX
  5
291
100
AcDbEntity
  8
0
100
AcDbVertex
100
AcDb2dVertex
 10
373.5454125598
 20
205.9280190679
 30
0.0
  0
VERTEX
  5
292
100
AcDbEntity
  8
0
100
AcDbVertex
100
AcDb2dVertex
 10
373.3679854042
 20
206.4380890389
 30
0.0
  0
VERTEX
  5
293
100
AcDbEntity
  8
0
100
AcDbVertex
100
AcDb2dVertex
 10
373.0853548467
 20
206.9112398055
 30
0.0
  0
VERTEX
  5
294
100
AcDbEntity
  8
0
100
AcDbVertex
100
AcDb2dVertex
 10
372.7071455319
 20
207.3313587858
 30
0.0
  0
VERTEX
  5
295
100
AcDbEntity
  8
0
100
AcDbVertex
100
AcDb2dVertex
 10
372.2462369246
 20
207.6841393318
 30
0.0
  0
VERTEX
  5
296
100
AcDbEntity
  8
0
100
AcDbVertex
100
AcDb2dVertex
 10
371.7183247144
 20
207.9575679252
 30
0.0
  0
VERTEX
  5
297
100
AcDbEntity
  8
0
100
AcDbVertex
100
AcDb2dVertex
 10
371.1413863186
 20
208.1423332832
 30
0.0
  0
VERTEX
  5
298
100
AcDbEntity
  8
0
100
AcDbVertex
100
AcDb2dVertex
 10
370.5350686822
 20
208.2321434431
 30
0.0
  0
VERTEX
  5
299
100
AcDbEntity
  8
0
100
AcDbVertex
100
AcDb2dVertex
 10
369.9200192252
 20
208.2239400275
 30
0.0
  0
VERTEX
  5
29A
100
AcDbEntity
  8
0
100
AcDbVertex
100
AcDb2dVertex
 10
369.3171827192
 20
208.1180023941
 30
0.0
  0
VERTEX
  5
29B
100
AcDbEntity
  8
0
100
AcDbVertex
100
AcDb2dVertex
 10
368.7470880383
 20
207.9179381218
 30
0.0
  0
VERTEX
  5
29C
100
AcDbEntity
  8
0
100
AcDbVertex
100
AcDb2dVertex
 10
368.2291490732
 20
207.6305601595
 30
0.0
  0
VERTEX
  5
29D
100
AcDbEntity
  8
0
100
AcDbVertex
100
AcDb2dVertex
 10
367.781003614
 20
207.265654819
 30
0.0
  0
VERTEX
  5
29E
100
AcDbEntity
  8
0
100
AcDbVertex
100
AcDb2dVertex
 10
367.417912717
 20
206.835648514
 30
0.0
  0
VERTEX
  5
29F
100
AcDbEntity
  8
0
100
AcDbVertex
100
AcDb2dVertex
 10
367.1522410072
 20
206.3551845935
 30
0.0
  0
VERTEX
  5
2A0
100
AcDbEntity
  8
0
100
AcDbVertex
100
AcDb2dVertex
 10
366.9930356159
 20
205.8406246801
 30
0.0
  0
VERTEX
  5
2A1
100
AcDbEntity
  8
0
100
AcDbVertex
100
AcDb2dVertex
 10
366.9457180919
 20
205.3094914945
 30
0.0
  0
VERTEX
  5
2A2
100
AcDbEntity
  8
0
100
AcDbVertex
100
AcDb2dVertex
 10
367.0118997766
 20
204.7798721402
 30
0.0
  0
VERTEX
  5
2A3
100
AcDbEntity
  8
0
100
AcDbVertex
100
AcDb2dVertex
 10
367.1893269323
 20
204.2698021693
 30
0.0
  0
VERTEX
  5
2A4
100
AcDbEntity
  8
0
100
AcDbVertex
100
AcDb2dVertex
 10
367.4719574898
 20
203.7966514027
 30
0.0
  0
VERTEX
  5
2A5
100
AcDbEntity
  8
0
100
AcDbVertex
100
AcDb2dVertex
 10
367.8501668045
 20
203.3765324224
 30
0.0
  0
VERTEX
  5
2A6
100
AcDbEntity
  8
0
100
AcDbVertex
100
AcDb2dVertex
 10
368.3110754119
 20
203.0237518763
 30
0.0
  0
VERTEX
  5
2A7
100
AcDbEntity
  8
0
100
AcDbVertex
100
AcDb2dVertex
 10
368.8389876221
 20
202.7503232829
 30
0.0
  0
VERTEX
  5
2A8
100
AcDbEntity
  8
0
100
AcDbVertex
100
AcDb2dVertex
 10
369.4159260179
 20
202.565557925
 30
0.0
  0
SEQEND
  5
2A9
100
AcDbEntity
  8
0
  0
POLYLINE
  5
2AA
100
AcDbEntity
  8
0
370
        15
  6
Continuous
 62
         7
100
AcDb2dPolyline
 66
         1
 10
0.0
 20
0.0
 30
0.0
 70
       128
  0
VERTEX
  5
2AB
100
AcDbEntity
  8
0
100
AcDbVertex
100
AcDb2dVertex
 10
294.3296559096
 20
249.8752366132
 30
0.0
  0
VERTEX
  5
2AC
100
AcDbEntity
  8
0
100
AcDbVertex
100
AcDb2dVertex
 10
294.9359735459
 20
249.7854264533
 30
0.0
  0
VERTEX
  5
2AD
100
AcDbEntity
  8
0
100
AcDbVertex
100
AcDb2dVertex
 10
295.5510230029
 20
249.7936298689
 30
0.0
  0
VERTEX
  5
2AE
100
AcDbEntity
  8
0
100
AcDbVertex
100
AcDb2dVertex
 10
296.153859509
 20
249.8995675023
 30
0.0
  0
VERTEX
  5
2AF
100
AcDbEntity
  8
0
100
AcDbVertex
100
AcDb2dVertex
 10
296.7239541899
 20
250.0996317746
 30
0.0
  0
VERTEX
  5
2B0
100
AcDbEntity
  8
0
100
AcDbVertex
100
AcDb2dVertex
 10
297.241893155
 20
250.3870097369
 30
0.0
  0
VERTEX
  5
2B1
100
AcDbEntity
  8
0
100
AcDbVertex
100
AcDb2dVertex
 10
297.6900386141
 20
250.7519150774
 30
0.0
  0
VERTEX
  5
2B2
100
AcDbEntity
  8
0
100
AcDbVertex
100
AcDb2dVertex
 10
298.0531295111
 20
251.1819213824
 30
0.0
  0
VERTEX
  5
2B3
100
AcDbEntity
  8
0
100
AcDbVertex
100
AcDb2dVertex
 10
298.318801221
 20
251.6623853029
 30
0.0
  0
VERTEX
  5
2B4
100
AcDbEntity
  8
0
100
AcDbVertex
100
AcDb2dVertex
 10
298.4780066122
 20
252.1769452163
 30
0.0
  0
VERTEX
  5
2B5
100
AcDbEntity
  8
0
100
AcDbVertex
100
AcDb2dVertex
 10
298.5253241362
 20
252.7080784019
 30
0.0
  0
VERTEX
  5
2B6
100
AcDbEntity
  8
0
100
AcDbVertex
100
AcDb2dVertex
 10
298.4591424515
 20
253.2376977562
 30
0.0
  0
VERTEX
  5
2B7
100
AcDbEntity
  8
0
100
AcDbVertex
100
AcDb2dVertex
 10
298.2817152959
 20
253.7477677271
 30
0.0
  0
VERTEX
  5
2B8
100
AcDbEntity
  8
0
100
AcDbVertex
100
AcDb2dVertex
 10
297.9990847384
 20
254.2209184937
 30
0.0
  0
VERTEX
  5
2B9
100
AcDbEntity
  8
0
100
AcDbVertex
100
AcDb2dVertex
 10
297.6208754236
 20
254.641037474
 30
0.0
  0
VERTEX
  5
2BA
100
AcDbEntity
  8
0
100
AcDbVertex
100
AcDb2dVertex
 10
297.1599668163
 20
254.9938180201
 30
0.0
  0
VERTEX
  5
2BB
100
AcDbEntity
  8
0
100
AcDbVertex
100
AcDb2dVertex
 10
296.6320546061
 20
255.2672466135
 30
0.0
  0
VERTEX
  5
2BC
100
AcDbEntity
  8
0
100
AcDbVertex
100
AcDb2dVertex
 10
296.0551162103
 20
255.4520119714
 30
0.0
  0
VERTEX
  5
2BD
100
AcDbEntity
  8
0
100
AcDbVertex
100
AcDb2dVertex
 10
295.4487985739
 20
255.5418221313
 30
0.0
  0
VERTEX
  5
2BE
100
AcDbEntity
  8
0
100
AcDbVertex
100
AcDb2dVertex
 10
294.8337491169
 20
255.5336187158
 30
0.0
  0
VERTEX
  5
2BF
100
AcDbEntity
  8
0
100
AcDbVertex
100
AcDb2dVertex
 10
294.2309126109
 20
255.4276810823
 30
0.0
  0
VERTEX
  5
2C0
100
AcDbEntity
  8
0
100
AcDbVertex
100
AcDb2dVertex
 10
293.66081793
 20
255.22761681
 30
0.0
  0
VERTEX
  5
2C1
100
AcDbEntity
  8
0
100
AcDbVertex
100
AcDb2dVertex
 10
293.1428789649
 20
254.9402388477
 30
0.0
  0
VERTEX
  5
2C2
100
AcDbEntity
  8
0
100
AcDbVertex
100
AcDb2dVertex
 10
292.6947335057
 20
254.5753335072
 30
0.0
  0
VERTEX
  5
2C3
100
AcDbEntity
  8
0
100
AcDbVertex
100
AcDb2dVertex
 10
292.3316426087
 20
254.1453272022
 30
0.0
  0
VERTEX
  5
2C4
100
AcDbEntity
  8
0
100
AcDbVertex
100
AcDb2dVertex
 10
292.0659708989
 20
253.6648632817
 30
0.0
  0
VERTEX
  5
2C5
100
AcDbEntity
  8
0
100
AcDbVertex
100
AcDb2dVertex
 10
291.9067655076
 20
253.1503033683
 30
0.0
  0
VERTEX
  5
2C6
100
AcDbEntity
  8
0
100
AcDbVertex
100
AcDb2dVertex
 10
291.8594479836
 20
252.6191701827
 30
0.0
  0
VERTEX
  5
2C7
100
AcDbEntity
  8
0
100
AcDbVertex
100
AcDb2dVertex
 10
291.9256296683
 20
252.0895508285
 30
0.0
  0
VERTEX
  5
2C8
100
AcDbEntity
  8
0
100
AcDbVertex
100
AcDb2dVertex
 10
292.103056824
 20
251.5794808575
 30
0.0
  0
VERTEX
  5
2C9
100
AcDbEntity
  8
0
100
AcDbVertex
100
AcDb2dVertex
 10
292.3856873815
 20
251.1063300909
 30
0.0
  0
VERTEX
  5
2CA
100
AcDbEntity
  8
0
100
AcDbVertex
100
AcDb2dVertex
 10
292.7638966962
 20
250.6862111106
 30
0.0
  0
VERTEX
  5
2CB
100
AcDbEntity
  8
0
100
AcDbVertex
100
AcDb2dVertex
 10
293.2248053036
 20
250.3334305646
 30
0.0
  0
VERTEX
  5
2CC
100
AcDbEntity
  8
0
100
AcDbVertex
100
AcDb2dVertex
 10
293.7527175138
 20
250.0600019712
 30
0.0
  0
VERTEX
  5
2CD
100
AcDbEntity
  8
0
100
AcDbVertex
100
AcDb2dVertex
 10
294.3296559096
 20
249.8752366132
 30
0.0
  0
SEQEND
  5
2CE
100
AcDbEntity
  8
0
  0
POLYLINE
  5
2CF
100
AcDbEntity
  8
0
370
        15
  6
Continuous
 62
         7
100
AcDb2dPolyline
 66
         1
 10
0.0
 20
0.0
 30
0.0
 70
       128
  0
VERTEX
  5
2D0
100
AcDbEntity
  8
0
100
AcDbVertex
100
AcDb2dVertex
 10
360.979975275
 20
219.9143393797
 30
0.0
  0
VERTEX
  5
2D1
100
AcDbEntity
  8
0
100
AcDbVertex
100
AcDb2dVertex
 10
361.5458981361
 20
219.8350165551
 30
0.0
  0
VERTEX
  5
2D2
100
AcDbEntity
  8
0
100
AcDbVertex
100
AcDb2dVertex
 10
362.1186742815
 20
219.8559745975
 30
0.0
  0
VERTEX
  5
2D3
100
AcDbEntity
  8
0
100
AcDbVertex
100
AcDb2dVertex
 10
362.6748541884
 20
219.9763554824
 30
0.0
  0
VERTEX
  5
2D4
100
AcDbEntity
  8
0
100
AcDbVertex
100
AcDb2dVertex
 10
363.1916677861
 20
220.191230802
 30
0.0
  0
VERTEX
  5
2D5
100
AcDbEntity
  8
0
100
AcDbVertex
100
AcDb2dVertex
 10
363.6479566653
 20
220.4918035356
 30
0.0
  0
VERTEX
  5
2D6
100
AcDbEntity
  8
0
100
AcDbVertex
100
AcDb2dVertex
 10
364.0250403055
 20
220.8657682001
 30
0.0
  0
VERTEX
  5
2D7
100
AcDbEntity
  8
0
100
AcDbVertex
100
AcDb2dVertex
 10
364.3074808582
 20
221.2978146382
 30
0.0
  0
VERTEX
  5
2D8
100
AcDbEntity
  8
0
100
AcDbVertex
100
AcDb2dVertex
 10
364.483715174
 20
221.7702548181
 30
0.0
  0
VERTEX
  5
2D9
100
AcDbEntity
  8
0
100
AcDbVertex
100
AcDb2dVertex
 10
364.5465281994
 20
222.2637469831
 30
0.0
  0
VERTEX
  5
2DA
100
AcDbEntity
  8
0
100
AcDbVertex
100
AcDb2dVertex
 10
364.4933483617
 20
222.7580875062
 30
0.0
  0
VERTEX
  5
2DB
100
AcDbEntity
  8
0
100
AcDbVertex
100
AcDb2dVertex
 10
364.3263528496
 20
223.2330380281
 30
0.0
  0
VERTEX
  5
2DC
100
AcDbEntity
  8
0
100
AcDbVertex
100
AcDb2dVertex
 10
364.0523784791
 20
223.6691540188
 30
0.0
  0
VERTEX
  5
2DD
100
AcDbEntity
  8
0
100
AcDbVertex
100
AcDb2dVertex
 10
363.6826417931
 20
224.0485808383
 30
0.0
  0
VERTEX
  5
2DE
100
AcDbEntity
  8
0
100
AcDbVertex
100
AcDb2dVertex
 10
363.232279855
 20
224.355784708
 30
0.0
  0
VERTEX
  5
2DF
100
AcDbEntity
  8
0
100
AcDbVertex
100
AcDb2dVertex
 10
362.7197305354
 20
224.5781886655
 30
0.0
  0
VERTEX
  5
2E0
100
AcDbEntity
  8
0
100
AcDbVertex
100
AcDb2dVertex
 10
362.1659776637
 20
224.7066874666
 30
0.0
  0
VERTEX
  5
2E1
100
AcDbEntity
  8
0
100
AcDbVertex
100
AcDb2dVertex
 10
361.5936919475
 20
224.7360203553
 30
0.0
  0
VERTEX
  5
2E2
100
AcDbEntity
  8
0
100
AcDbVertex
100
AcDb2dVertex
 10
361.0263028313
 20
224.6649864396
 30
0.0
  0
VERTEX
  5
2E3
100
AcDbEntity
  8
0
100
AcDbVertex
100
AcDb2dVertex
 10
360.4870392921
 20
224.4964938564
 30
0.0
  0
VERTEX
  5
2E4
100
AcDbEntity
  8
0
100
AcDbVertex
100
AcDb2dVertex
 10
359.9979788427
 20
224.2374407119
 30
0.0
  0
VERTEX
  5
2E5
100
AcDbEntity
  8
0
100
AcDbVertex
100
AcDb2dVertex
 10
359.5791436752
 20
223.8984326722
 30
0.0
  0
VERTEX
  5
2E6
100
AcDbEntity
  8
0
100
AcDbVertex
100
AcDb2dVertex
 10
359.2476809507
 20
223.4933487664
 30
0.0
  0
VERTEX
  5
2E7
100
AcDbEntity
  8
0
100
AcDbVertex
100
AcDb2dVertex
 10
359.017160792
 20
223.038773177
 30
0.0
  0
VERTEX
  5
2E8
100
AcDbEntity
  8
0
100
AcDbVertex
100
AcDb2dVertex
 10
358.8970207216
 20
222.5533162822
 30
0.0
  0
VERTEX
  5
2E9
100
AcDbEntity
  8
0
100
AcDbVertex
100
AcDb2dVertex
 10
358.8921792879
 20
222.0568527443
 30
0.0
  0
VERTEX
  5
2EA
100
AcDbEntity
  8
0
100
AcDbVertex
100
AcDb2dVertex
 10
359.0028346999
 20
221.5697078389
 30
0.0
  0
VERTEX
  5
2EB
100
AcDbEntity
  8
0
100
AcDbVertex
100
AcDb2dVertex
 10
359.2244567121
 20
221.1118253355
 30
0.0
  0
VERTEX
  5
2EC
100
AcDbEntity
  8
0
100
AcDbVertex
100
AcDb2dVertex
 10
359.5479720931
 20
220.7019509977
 30
0.0
  0
VERTEX
  5
2ED
100
AcDbEntity
  8
0
100
AcDbVertex
100
AcDb2dVertex
 10
359.9601360853
 20
220.3568651291
 30
0.0
  0
VERTEX
  5
2EE
100
AcDbEntity
  8
0
100
AcDbVertex
100
AcDb2dVertex
 10
360.4440746465
 20
220.0906955856
 30
0.0
  0
VERTEX
  5
2EF
100
AcDbEntity
  8
0
100
AcDbVertex
100
AcDb2dVertex
 10
360.979975275
 20
219.9143393797
 30
0.0
  0
SEQEND
  5
2F0
100
AcDbEntity
  8
0
  0
POLYLINE
  5
2F1
100
AcDbEntity
  8
0
370
        15
  6
Continuous
 62
         7
100
AcDb2dPolyline
 66
         1
 10
0.0
 20
0.0
 30
0.0
 70
       128
  0
VERTEX
  5
2F2
100
AcDbEntity
  8
0
100
AcDbVertex
100
AcDb2dVertex
 10
312.6836839605
 20
231.1215327818
 30
0.0
  0
VERTEX
  5
2F3
100
AcDbEntity
  8
0
100
AcDbVertex
100
AcDb2dVertex
 10
313.2496068216
 20
231.0422099572
 30
0.0
  0
VERTEX
  5
2F4
100
AcDbEntity
  8
0
100
AcDbVertex
100
AcDb2dVertex
 10
313.822382967
 20
231.0631679996
 30
0.0
  0
VERTEX
  5
2F5
100
AcDbEntity
  8
0
100
AcDbVertex
100
AcDb2dVertex
 10
314.378562874
 20
231.1835488845
 30
0.0
  0
VERTEX
  5
2F6
100
AcDbEntity
  8
0
100
AcDbVertex
100
AcDb2dVertex
 10
314.8953764717
 20
231.3984242041
 30
0.0
  0
VERTEX
  5
2F7
100
AcDbEntity
  8
0
100
AcDbVertex
100
AcDb2dVertex
 10
315.3516653508
 20
231.6989969377
 30
0.0
  0
VERTEX
  5
2F8
100
AcDbEntity
  8
0
100
AcDbVertex
100
AcDb2dVertex
 10
315.728748991
 20
232.0729616022
 30
0.0
  0
VERTEX
  5
2F9
100
AcDbEntity
  8
0
100
AcDbVertex
100
AcDb2dVertex
 10
316.0111895437
 20
232.5050080403
 30
0.0
  0
VERTEX
  5
2FA
100
AcDbEntity
  8
0
100
AcDbVertex
100
AcDb2dVertex
 10
316.1874238596
 20
232.9774482202
 30
0.0
  0
VERTEX
  5
2FB
100
AcDbEntity
  8
0
100
AcDbVertex
100
AcDb2dVertex
 10
316.250236885
 20
233.4709403852
 30
0.0
  0
VERTEX
  5
2FC
100
AcDbEntity
  8
0
100
AcDbVertex
100
AcDb2dVertex
 10
316.1970570472
 20
233.9652809083
 30
0.0
  0
VERTEX
  5
2FD
100
AcDbEntity
  8
0
100
AcDbVertex
100
AcDb2dVertex
 10
316.0300615352
 20
234.4402314302
 30
0.0
  0
VERTEX
  5
2FE
100
AcDbEntity
  8
0
100
AcDbVertex
100
AcDb2dVertex
 10
315.7560871647
 20
234.8763474209
 30
0.0
  0
VERTEX
  5
2FF
100
AcDbEntity
  8
0
100
AcDbVertex
100
AcDb2dVertex
 10
315.3863504787
 20
235.2557742404
 30
0.0
  0
VERTEX
  5
300
100
AcDbEntity
  8
0
100
AcDbVertex
100
AcDb2dVertex
 10
314.9359885406
 20
235.5629781101
 30
0.0
  0
VERTEX
  5
301
100
AcDbEntity
  8
0
100
AcDbVertex
100
AcDb2dVertex
 10
314.4234392209
 20
235.7853820676
 30
0.0
  0
VERTEX
  5
302
100
AcDbEntity
  8
0
100
AcDbVertex
100
AcDb2dVertex
 10
313.8696863492
 20
235.9138808687
 30
0.0
  0
VERTEX
  5
303
100
AcDbEntity
  8
0
100
AcDbVertex
100
AcDb2dVertex
 10
313.297400633
 20
235.9432137574
 30
0.0
  0
VERTEX
  5
304
100
AcDbEntity
  8
0
100
AcDbVertex
100
AcDb2dVertex
 10
312.7300115168
 20
235.8721798417
 30
0.0
  0
VERTEX
  5
305
100
AcDbEntity
  8
0
100
AcDbVertex
100
AcDb2dVertex
 10
312.1907479776
 20
235.7036872585
 30
0.0
  0
VERTEX
  5
306
100
AcDbEntity
  8
0
100
AcDbVertex
100
AcDb2dVertex
 10
311.7016875282
 20
235.444634114
 30
0.0
  0
VERTEX
  5
307
100
AcDbEntity
  8
0
100
AcDbVertex
100
AcDb2dVertex
 10
311.2828523607
 20
235.1056260743
 30
0.0
  0
VERTEX
  5
308
100
AcDbEntity
  8
0
100
AcDbVertex
100
AcDb2dVertex
 10
310.9513896362
 20
234.7005421685
 30
0.0
  0
VERTEX
  5
309
100
AcDbEntity
  8
0
100
AcDbVertex
100
AcDb2dVertex
 10
310.7208694776
 20
234.2459665791
 30
0.0
  0
VERTEX
  5
30A
100
AcDbEntity
  8
0
100
AcDbVertex
100
AcDb2dVertex
 10
310.6007294071
 20
233.7605096843
 30
0.0
  0
VERTEX
  5
30B
100
AcDbEntity
  8
0
100
AcDbVertex
100
AcDb2dVertex
 10
310.5958879735
 20
233.2640461464
 30
0.0
  0
VERTEX
  5
30C
100
AcDbEntity
  8
0
100
AcDbVertex
100
AcDb2dVertex
 10
310.7065433855
 20
232.776901241
 30
0.0
  0
VERTEX
  5
30D
100
AcDbEntity
  8
0
100
AcDbVertex
100
AcDb2dVertex
 10
310.9281653976
 20
232.3190187376
 30
0.0
  0
VERTEX
  5
30E
100
AcDbEntity
  8
0
100
AcDbVertex
100
AcDb2dVertex
 10
311.2516807787
 20
231.9091443998
 30
0.0
  0
VERTEX
  5
30F
100
AcDbEntity
  8
0
100
AcDbVertex
100
AcDb2dVertex
 10
311.6638447709
 20
231.5640585312
 30
0.0
  0
VERTEX
  5
310
100
AcDbEntity
  8
0
100
AcDbVertex
100
AcDb2dVertex
 10
312.147783332
 20
231.2978889877
 30
0.0
  0
VERTEX
  5
311
100
AcDbEntity
  8
0
100
AcDbVertex
100
AcDb2dVertex
 10
312.6836839605
 20
231.1215327818
 30
0.0
  0
SEQEND
  5
312
100
AcDbEntity
  8
0
  0
POLYLINE
  5
313
100
AcDbEntity
  8
0
370
        15
  6
Continuous
 62
         7
100
AcDb2dPolyline
 66
         1
 10
0.0
 20
0.0
 30
0.0
 70
       128
  0
VERTEX
  5
314
100
AcDbEntity
  8
0
100
AcDbVertex
100
AcDb2dVertex
 10
336.823984229
 20
219.2613550481
 30
0.0
  0
VERTEX
  5
315
100
AcDbEntity
  8
0
100
AcDbVertex
100
AcDb2dVertex
 10
334.2870030777
 20
220.2307685502
 30
0.0
  0
VERTEX
  5
316
100
AcDbEntity
  8
0
100
AcDbVertex
100
AcDb2dVertex
 10
331.7056666167
 20
221.1079766873
 30
0.0
  0
VERTEX
  5
317
100
AcDbEntity
  8
0
100
AcDbVertex
100
AcDb2dVertex
 10
329.0844407911
 20
221.8914618103
 30
0.0
  0
VERTEX
  5
318
100
AcDbEntity
  8
0
100
AcDbVertex
100
AcDb2dVertex
 10
326.4278605582
 20
222.579868419
 30
0.0
  0
VERTEX
  5
319
100
AcDbEntity
  8
0
100
AcDbVertex
100
AcDb2dVertex
 10
323.7405220415
 20
223.172005508
 30
0.0
  0
VERTEX
  5
31A
100
AcDbEntity
  8
0
100
AcDbVertex
100
AcDb2dVertex
 10
321.0270745794
 20
223.6668486266
 30
0.0
  0
VERTEX
  5
31B
100
AcDbEntity
  8
0
100
AcDbVertex
100
AcDb2dVertex
 10
318.2922126807
 20
224.0635416516
 30
0.0
  0
VERTEX
  5
31C
100
AcDbEntity
  8
0
100
AcDbVertex
100
AcDb2dVertex
 10
315.5406679036
 20
224.3613982681
 30
0.0
  0
VERTEX
  5
31D
100
AcDbEntity
  8
0
100
AcDbVertex
100
AcDb2dVertex
 10
312.7772006688
 20
224.5599031575
 30
0.0
  0
SEQEND
  5
31E
100
AcDbEntity
  8
0
  0
LINE
  5
31F
100
AcDbEntity
  8
0
370
        15
  6
Continuous
 62
         7
100
AcDbLine
 10
364.2048068969
 20
208.2040402965
 30
0.0
 11
336.823984229
 21
219.2613550481
 31
0.0
  0
POLYLINE
  5
320
100
AcDbEntity
  8
0
370
        15
  6
Continuous
 62
         7
100
AcDb2dPolyline
 66
         1
 10
0.0
 20
0.0
 30
0.0
 70
       128
  0
VERTEX
  5
321
100
AcDbEntity
  8
0
100
AcDbVertex
100
AcDb2dVertex
 10
365.7998897137
 20
208.9231423751
 30
0.0
  0
VERTEX
  5
322
100
AcDbEntity
  8
0
100
AcDbVertex
100
AcDb2dVertex
 10
365.72604451
 20
208.7081062905
 30
0.0
  0
VERTEX
  5
323
100
AcDbEntity
  8
0
100
AcDbVertex
100
AcDb2dVertex
 10
365.5977448118
 20
208.5132095388
 30
0.0
  0
VERTEX
  5
324
100
AcDbEntity
  8
0
100
AcDbVertex
100
AcDb2dVertex
 10
365.4216937702
 20
208.3486347038
 30
0.0
  0
VERTEX
  5
325
100
AcDbEntity
  8
0
100
AcDbVertex
100
AcDb2dVertex
 10
365.2070893553
 20
208.2229801691
 30
0.0
  0
VERTEX
  5
326
100
AcDbEntity
  8
0
100
AcDbVertex
100
AcDb2dVertex
 10
364.9651437982
 20
208.1428108867
 30
0.0
  0
VERTEX
  5
327
100
AcDbEntity
  8
0
100
AcDbVertex
100
AcDb2dVertex
 10
364.7084977966
 20
208.1123153844
 30
0.0
  0
VERTEX
  5
328
100
AcDbEntity
  8
0
100
AcDbVertex
100
AcDb2dVertex
 10
364.4505600881
 20
208.1330869314
 30
0.0
  0
VERTEX
  5
329
100
AcDbEntity
  8
0
100
AcDbVertex
100
AcDb2dVertex
 10
364.2048068969
 20
208.2040402965
 30
0.0
  0
SEQEND
  5
32A
100
AcDbEntity
  8
0
  0
LINE
  5
32B
100
AcDbEntity
  8
0
370
        15
  6
Continuous
 62
         7
100
AcDbLine
 10
366.4154909815
 20
211.9466520752
 30
0.0
 11
365.7998897137
 21
208.9231423751
 31
0.0
  0
POLYLINE
  5
32C
100
AcDbEntity
  8
0
370
        15
  6
Continuous
 62
         7
100
AcDb2dPolyline
 66
         1
 10
0.0
 20
0.0
 30
0.0
 70
       128
  0
VERTEX
  5
32D
100
AcDbEntity
  8
0
100
AcDbVertex
100
AcDb2dVertex
 10
365.291111999
 20
213.8171906761
 30
0.0
  0
VERTEX
  5
32E
100
AcDbEntity
  8
0
100
AcDbVertex
100
AcDb2dVertex
 10
365.5750893275
 20
213.6769848802
 30
0.0
  0
VERTEX
  5
32F
100
AcDbEntity
  8
0
100
AcDbVertex
100
AcDb2dVertex
 10
365.8289015871
 20
213.4985906255
 30
0.0
  0
VERTEX
  5
330
100
AcDbEntity
  8
0
100
AcDbVertex
100
AcDb2dVertex
 10
366.0457686057
 20
213.2867734173
 30
0.0
  0
VERTEX
  5
331
100
AcDbEntity
  8
0
100
AcDbVertex
100
AcDb2dVertex
 10
366.2198971419
 20
213.0471916001
 30
0.0
  0
VERTEX
  5
332
100
AcDbEntity
  8
0
100
AcDbVertex
100
AcDb2dVertex
 10
366.3466356415
 20
212.7862452032
 30
0.0
  0
VERTEX
  5
333
100
AcDbEntity
  8
0
100
AcDbVertex
100
AcDb2dVertex
 10
366.4225984964
 20
212.5109049755
 30
0.0
  0
VERTEX
  5
334
100
AcDbEntity
  8
0
100
AcDbVertex
100
AcDb2dVertex
 10
366.4457564855
 20
212.2285261729
 30
0.0
  0
VERTEX
  5
335
100
AcDbEntity
  8
0
100
AcDbVertex
100
AcDb2dVertex
 10
366.4154909815
 20
211.9466520752
 30
0.0
  0
SEQEND
  5
336
100
AcDbEntity
  8
0
  0
POLYLINE
  5
337
100
AcDbEntity
  8
0
370
        15
  6
Continuous
 62
         7
100
AcDb2dPolyline
 66
         1
 10
0.0
 20
0.0
 30
0.0
 70
       128
  0
VERTEX
  5
338
100
AcDbEntity
  8
0
100
AcDbVertex
100
AcDb2dVertex
 10
365.291111999
 20
213.8171906761
 30
0.0
  0
VERTEX
  5
339
100
AcDbEntity
  8
0
100
AcDbVertex
100
AcDb2dVertex
 10
365.0191114478
 20
213.8764980394
 30
0.0
  0
VERTEX
  5
33A
100
AcDbEntity
  8
0
100
AcDbVertex
100
AcDb2dVertex
 10
364.7402508541
 20
213.902635468
 30
0.0
  0
VERTEX
  5
33B
100
AcDbEntity
  8
0
100
AcDbVertex
100
AcDb2dVertex
 10
364.459896782
 20
213.895099957
 30
0.0
  0
VERTEX
  5
33C
100
AcDbEntity
  8
0
100
AcDbVertex
100
AcDb2dVertex
 10
364.1834445372
 20
213.8540365245
 30
0.0
  0
VERTEX
  5
33D
100
AcDbEntity
  8
0
100
AcDbVertex
100
AcDb2dVertex
 10
363.9162143362
 20
213.7802354203
 30
0.0
  0
VERTEX
  5
33E
100
AcDbEntity
  8
0
100
AcDbVertex
100
AcDb2dVertex
 10
363.6633489208
 20
213.6751169181
 30
0.0
  0
VERTEX
  5
33F
100
AcDbEntity
  8
0
100
AcDbVertex
100
AcDb2dVertex
 10
363.4297145881
 20
213.5407039828
 30
0.0
  0
VERTEX
  5
340
100
AcDbEntity
  8
0
100
AcDbVertex
100
AcDb2dVertex
 10
363.2198075404
 20
213.3795833394
 30
0.0
  0
SEQEND
  5
341
100
AcDbEntity
  8
0
  0
POLYLINE
  5
342
100
AcDbEntity
  8
0
370
        15
  6
Continuous
 62
         7
100
AcDb2dPolyline
 66
         1
 10
0.0
 20
0.0
 30
0.0
 70
       128
  0
VERTEX
  5
343
100
AcDbEntity
  8
0
100
AcDbVertex
100
AcDb2dVertex
 10
363.2198075404
 20
213.3795833394
 30
0.0
  0
VERTEX
  5
344
100
AcDbEntity
  8
0
100
AcDbVertex
100
AcDb2dVertex
 10
362.83530785
 20
213.11494251
 30
0.0
  0
VERTEX
  5
345
100
AcDbEntity
  8
0
100
AcDbVertex
100
AcDb2dVertex
 10
362.3879279027
 20
212.9394342067
 30
0.0
  0
VERTEX
  5
346
100
AcDbEntity
  8
0
100
AcDbVertex
100
AcDb2dVertex
 10
361.904646913
 20
212.8636424446
 30
0.0
  0
VERTEX
  5
347
100
AcDbEntity
  8
0
100
AcDbVertex
100
AcDb2dVertex
 10
361.414609105
 20
212.8921378404
 30
0.0
  0
VERTEX
  5
348
100
AcDbEntity
  8
0
100
AcDbVertex
100
AcDb2dVertex
 10
360.9473661726
 20
213.0232019813
 30
0.0
  0
VERTEX
  5
349
100
AcDbEntity
  8
0
100
AcDbVertex
100
AcDb2dVertex
 10
360.531095166
 20
213.248931054
 30
0.0
  0
VERTEX
  5
34A
100
AcDbEntity
  8
0
100
AcDbVertex
100
AcDb2dVertex
 10
360.1908992774
 20
213.5557124836
 30
0.0
  0
VERTEX
  5
34B
100
AcDbEntity
  8
0
100
AcDbVertex
100
AcDb2dVertex
 10
359.9472939947
 20
213.9250458387
 30
0.0
  0
VERTEX
  5
34C
100
AcDbEntity
  8
0
100
AcDbVertex
100
AcDb2dVertex
 10
359.8149699163
 20
214.3346584986
 30
0.0
  0
VERTEX
  5
34D
100
AcDbEntity
  8
0
100
AcDbVertex
100
AcDb2dVertex
 10
359.8019068361
 20
214.7598488024
 30
0.0
  0
SEQEND
  5
34E
100
AcDbEntity
  8
0
  0
POLYLINE
  5
34F
100
AcDbEntity
  8
0
370
        15
  6
Continuous
 62
         7
100
AcDb2dPolyline
 66
         1
 10
0.0
 20
0.0
 30
0.0
 70
       128
  0
VERTEX
  5
350
100
AcDbEntity
  8
0
100
AcDbVertex
100
AcDb2dVertex
 10
359.8019068361
 20
214.7598488024
 30
0.0
  0
VERTEX
  5
351
100
AcDbEntity
  8
0
100
AcDbVertex
100
AcDb2dVertex
 10
359.7888437558
 20
215.1850391062
 30
0.0
  0
VERTEX
  5
352
100
AcDbEntity
  8
0
100
AcDbVertex
100
AcDb2dVertex
 10
359.6565196775
 20
215.5946517662
 30
0.0
  0
VERTEX
  5
353
100
AcDbEntity
  8
0
100
AcDbVertex
100
AcDb2dVertex
 10
359.4129143948
 20
215.9639851212
 30
0.0
  0
VERTEX
  5
354
100
AcDbEntity
  8
0
100
AcDbVertex
100
AcDb2dVertex
 10
359.0727185062
 20
216.2707665508
 30
0.0
  0
VERTEX
  5
355
100
AcDbEntity
  8
0
100
AcDbVertex
100
AcDb2dVertex
 10
358.6564474996
 20
216.4964956235
 30
0.0
  0
VERTEX
  5
356
100
AcDbEntity
  8
0
100
AcDbVertex
100
AcDb2dVertex
 10
358.1892045671
 20
216.6275597645
 30
0.0
  0
VERTEX
  5
357
100
AcDbEntity
  8
0
100
AcDbVertex
100
AcDb2dVertex
 10
357.6991667592
 20
216.6560551602
 30
0.0
  0
VERTEX
  5
358
100
AcDbEntity
  8
0
100
AcDbVertex
100
AcDb2dVertex
 10
357.2158857694
 20
216.5802633982
 30
0.0
  0
VERTEX
  5
359
100
AcDbEntity
  8
0
100
AcDbVertex
100
AcDb2dVertex
 10
356.7685058221
 20
216.4047550948
 30
0.0
  0
VERTEX
  5
35A
100
AcDbEntity
  8
0
100
AcDbVertex
100
AcDb2dVertex
 10
356.3840061318
 20
216.1401142654
 30
0.0
  0
SEQEND
  5
35B
100
AcDbEntity
  8
0
  0
POLYLINE
  5
35C
100
AcDbEntity
  8
0
370
        15
  6
Continuous
 62
         7
100
AcDb2dPolyline
 66
         1
 10
0.0
 20
0.0
 30
0.0
 70
       128
  0
VERTEX
  5
35D
100
AcDbEntity
  8
0
100
AcDbVertex
100
AcDb2dVertex
 10
356.3840061318
 20
216.1401142654
 30
0.0
  0
VERTEX
  5
35E
100
AcDbEntity
  8
0
100
AcDbVertex
100
AcDb2dVertex
 10
355.9995064414
 20
215.875473436
 30
0.0
  0
VERTEX
  5
35F
100
AcDbEntity
  8
0
100
AcDbVertex
100
AcDb2dVertex
 10
355.5521264941
 20
215.6999651327
 30
0.0
  0
VERTEX
  5
360
100
AcDbEntity
  8
0
100
AcDbVertex
100
AcDb2dVertex
 10
355.0688455044
 20
215.6241733706
 30
0.0
  0
VERTEX
  5
361
100
AcDbEntity
  8
0
100
AcDbVertex
100
AcDb2dVertex
 10
354.5788076965
 20
215.6526687664
 30
0.0
  0
VERTEX
  5
362
100
AcDbEntity
  8
0
100
AcDbVertex
100
AcDb2dVertex
 10
354.111564764
 20
215.7837329073
 30
0.0
  0
VERTEX
  5
363
100
AcDbEntity
  8
0
100
AcDbVertex
100
AcDb2dVertex
 10
353.6952937574
 20
216.00946198
 30
0.0
  0
VERTEX
  5
364
100
AcDbEntity
  8
0
100
AcDbVertex
100
AcDb2dVertex
 10
353.3550978688
 20
216.3162434096
 30
0.0
  0
VERTEX
  5
365
100
AcDbEntity
  8
0
100
AcDbVertex
100
AcDb2dVertex
 10
353.1114925861
 20
216.6855767647
 30
0.0
  0
VERTEX
  5
366
100
AcDbEntity
  8
0
100
AcDbVertex
100
AcDb2dVertex
 10
352.9791685077
 20
217.0951894246
 30
0.0
  0
VERTEX
  5
367
100
AcDbEntity
  8
0
100
AcDbVertex
100
AcDb2dVertex
 10
352.9661054275
 20
217.5203797284
 30
0.0
  0
SEQEND
  5
368
100
AcDbEntity
  8
0
  0
POLYLINE
  5
369
100
AcDbEntity
  8
0
370
        15
  6
Continuous
 62
         7
100
AcDb2dPolyline
 66
         1
 10
0.0
 20
0.0
 30
0.0
 70
       128
  0
VERTEX
  5
36A
100
AcDbEntity
  8
0
100
AcDbVertex
100
AcDb2dVertex
 10
352.9661054275
 20
217.5203797284
 30
0.0
  0
VERTEX
  5
36B
100
AcDbEntity
  8
0
100
AcDbVertex
100
AcDb2dVertex
 10
352.9530423472
 20
217.9455700322
 30
0.0
  0
VERTEX
  5
36C
100
AcDbEntity
  8
0
100
AcDbVertex
100
AcDb2dVertex
 10
352.8207182689
 20
218.3551826922
 30
0.0
  0
VERTEX
  5
36D
100
AcDbEntity
  8
0
100
AcDbVertex
100
AcDb2dVertex
 10
352.5771129862
 20
218.7245160472
 30
0.0
  0
VERTEX
  5
36E
100
AcDbEntity
  8
0
100
AcDbVertex
100
AcDb2dVertex
 10
352.2369170976
 20
219.0312974768
 30
0.0
  0
VERTEX
  5
36F
100
AcDbEntity
  8
0
100
AcDbVertex
100
AcDb2dVertex
 10
351.820646091
 20
219.2570265495
 30
0.0
  0
VERTEX
  5
370
100
AcDbEntity
  8
0
100
AcDbVertex
100
AcDb2dVertex
 10
351.3534031585
 20
219.3880906904
 30
0.0
  0
VERTEX
  5
371
100
AcDbEntity
  8
0
100
AcDbVertex
100
AcDb2dVertex
 10
350.8633653506
 20
219.4165860862
 30
0.0
  0
VERTEX
  5
372
100
AcDbEntity
  8
0
100
AcDbVertex
100
AcDb2dVertex
 10
350.3800843608
 20
219.3407943241
 30
0.0
  0
VERTEX
  5
373
100
AcDbEntity
  8
0
100
AcDbVertex
100
AcDb2dVertex
 10
349.9327044135
 20
219.1652860208
 30
0.0
  0
VERTEX
  5
374
100
AcDbEntity
  8
0
100
AcDbVertex
100
AcDb2dVertex
 10
349.5482047232
 20
218.9006451914
 30
0.0
  0
SEQEND
  5
375
100
AcDbEntity
  8
0
  0
POLYLINE
  5
376
100
AcDbEntity
  8
0
370
        15
  6
Continuous
 62
         7
100
AcDb2dPolyline
 66
         1
 10
0.0
 20
0.0
 30
0.0
 70
       128
  0
VERTEX
  5
377
100
AcDbEntity
  8
0
100
AcDbVertex
100
AcDb2dVertex
 10
349.5482047232
 20
218.9006451914
 30
0.0
  0
VERTEX
  5
378
100
AcDbEntity
  8
0
100
AcDbVertex
100
AcDb2dVertex
 10
349.1637050329
 20
218.636004362
 30
0.0
  0
VERTEX
  5
379
100
AcDbEntity
  8
0
100
AcDbVertex
100
AcDb2dVertex
 10
348.7163250855
 20
218.4604960587
 30
0.0
  0
VERTEX
  5
37A
100
AcDbEntity
  8
0
100
AcDbVertex
100
AcDb2dVertex
 10
348.2330440958
 20
218.3847042966
 30
0.0
  0
VERTEX
  5
37B
100
AcDbEntity
  8
0
100
AcDbVertex
100
AcDb2dVertex
 10
347.7430062879
 20
218.4131996924
 30
0.0
  0
VERTEX
  5
37C
100
AcDbEntity
  8
0
100
AcDbVertex
100
AcDb2dVertex
 10
347.2757633554
 20
218.5442638333
 30
0.0
  0
VERTEX
  5
37D
100
AcDbEntity
  8
0
100
AcDbVertex
100
AcDb2dVertex
 10
346.8594923488
 20
218.769992906
 30
0.0
  0
VERTEX
  5
37E
100
AcDbEntity
  8
0
100
AcDbVertex
100
AcDb2dVertex
 10
346.5192964602
 20
219.0767743356
 30
0.0
  0
VERTEX
  5
37F
100
AcDbEntity
  8
0
100
AcDbVertex
100
AcDb2dVertex
 10
346.2756911775
 20
219.4461076906
 30
0.0
  0
VERTEX
  5
380
100
AcDbEntity
  8
0
100
AcDbVertex
100
AcDb2dVertex
 10
346.1433670991
 20
219.8557203506
 30
0.0
  0
VERTEX
  5
381
100
AcDbEntity
  8
0
100
AcDbVertex
100
AcDb2dVertex
 10
346.1303040189
 20
220.2809106544
 30
0.0
  0
SEQEND
  5
382
100
AcDbEntity
  8
0
  0
POLYLINE
  5
383
100
AcDbEntity
  8
0
370
        15
  6
Continuous
 62
         7
100
AcDb2dPolyline
 66
         1
 10
0.0
 20
0.0
 30
0.0
 70
       128
  0
VERTEX
  5
384
100
AcDbEntity
  8
0
100
AcDbVertex
100
AcDb2dVertex
 10
346.1303040189
 20
220.2809106544
 30
0.0
  0
VERTEX
  5
385
100
AcDbEntity
  8
0
100
AcDbVertex
100
AcDb2dVertex
 10
346.1172409386
 20
220.7061009582
 30
0.0
  0
VERTEX
  5
386
100
AcDbEntity
  8
0
100
AcDbVertex
100
AcDb2dVertex
 10
345.9849168603
 20
221.1157136182
 30
0.0
  0
VERTEX
  5
387
100
AcDbEntity
  8
0
100
AcDbVertex
100
AcDb2dVertex
 10
345.7413115776
 20
221.4850469732
 30
0.0
  0
VERTEX
  5
388
100
AcDbEntity
  8
0
100
AcDbVertex
100
AcDb2dVertex
 10
345.401115689
 20
221.7918284028
 30
0.0
  0
VERTEX
  5
389
100
AcDbEntity
  8
0
100
AcDbVertex
100
AcDb2dVertex
 10
344.9848446824
 20
222.0175574755
 30
0.0
  0
VERTEX
  5
38A
100
AcDbEntity
  8
0
100
AcDbVertex
100
AcDb2dVertex
 10
344.5176017499
 20
222.1486216164
 30
0.0
  0
VERTEX
  5
38B
100
AcDbEntity
  8
0
100
AcDbVertex
100
AcDb2dVertex
 10
344.027563942
 20
222.1771170122
 30
0.0
  0
VERTEX
  5
38C
100
AcDbEntity
  8
0
100
AcDbVertex
100
AcDb2dVertex
 10
343.5442829523
 20
222.1013252501
 30
0.0
  0
VERTEX
  5
38D
100
AcDbEntity
  8
0
100
AcDbVertex
100
AcDb2dVertex
 10
343.0969030049
 20
221.9258169468
 30
0.0
  0
VERTEX
  5
38E
100
AcDbEntity
  8
0
100
AcDbVertex
100
AcDb2dVertex
 10
342.7124033146
 20
221.6611761174
 30
0.0
  0
SEQEND
  5
38F
100
AcDbEntity
  8
0
  0
POLYLINE
  5
390
100
AcDbEntity
  8
0
370
        15
  6
Continuous
 62
         7
100
AcDb2dPolyline
 66
         1
 10
0.0
 20
0.0
 30
0.0
 70
       128
  0
VERTEX
  5
391
100
AcDbEntity
  8
0
100
AcDbVertex
100
AcDb2dVertex
 10
342.7124033146
 20
221.6611761174
 30
0.0
  0
VERTEX
  5
392
100
AcDbEntity
  8
0
100
AcDbVertex
100
AcDb2dVertex
 10
342.3279036243
 20
221.396535288
 30
0.0
  0
VERTEX
  5
393
100
AcDbEntity
  8
0
100
AcDbVertex
100
AcDb2dVertex
 10
341.8805236769
 20
221.2210269847
 30
0.0
  0
VERTEX
  5
394
100
AcDbEntity
  8
0
100
AcDbVertex
100
AcDb2dVertex
 10
341.3972426872
 20
221.1452352226
 30
0.0
  0
VERTEX
  5
395
100
AcDbEntity
  8
0
100
AcDbVertex
100
AcDb2dVertex
 10
340.9072048793
 20
221.1737306184
 30
0.0
  0
VERTEX
  5
396
100
AcDbEntity
  8
0
100
AcDbVertex
100
AcDb2dVertex
 10
340.4399619468
 20
221.3047947593
 30
0.0
  0
VERTEX
  5
397
100
AcDbEntity
  8
0
100
AcDbVertex
100
AcDb2dVertex
 10
340.0236909402
 20
221.530523832
 30
0.0
  0
VERTEX
  5
398
100
AcDbEntity
  8
0
100
AcDbVertex
100
AcDb2dVertex
 10
339.6834950516
 20
221.8373052616
 30
0.0
  0
VERTEX
  5
399
100
AcDbEntity
  8
0
100
AcDbVertex
100
AcDb2dVertex
 10
339.4398897689
 20
222.2066386166
 30
0.0
  0
VERTEX
  5
39A
100
AcDbEntity
  8
0
100
AcDbVertex
100
AcDb2dVertex
 10
339.3075656905
 20
222.6162512766
 30
0.0
  0
VERTEX
  5
39B
100
AcDbEntity
  8
0
100
AcDbVertex
100
AcDb2dVertex
 10
339.2945026103
 20
223.0414415804
 30
0.0
  0
SEQEND
  5
39C
100
AcDbEntity
  8
0
  0
POLYLINE
  5
39D
100
AcDbEntity
  8
0
370
        15
  6
Continuous
 62
         7
100
AcDb2dPolyline
 66
         1
 10
0.0
 20
0.0
 30
0.0
 70
       128
  0
VERTEX
  5
39E
100
AcDbEntity
  8
0
100
AcDbVertex
100
AcDb2dVertex
 10
339.2945026103
 20
223.0414415804
 30
0.0
  0
VERTEX
  5
39F
100
AcDbEntity
  8
0
100
AcDbVertex
100
AcDb2dVertex
 10
339.2814395301
 20
223.4666318842
 30
0.0
  0
VERTEX
  5
3A0
100
AcDbEntity
  8
0
100
AcDbVertex
100
AcDb2dVertex
 10
339.1491154517
 20
223.8762445441
 30
0.0
  0
VERTEX
  5
3A1
100
AcDbEntity
  8
0
100
AcDbVertex
100
AcDb2dVertex
 10
338.905510169
 20
224.2455778992
 30
0.0
  0
VERTEX
  5
3A2
100
AcDbEntity
  8
0
100
AcDbVertex
100
AcDb2dVertex
 10
338.5653142804
 20
224.5523593288
 30
0.0
  0
VERTEX
  5
3A3
100
AcDbEntity
  8
0
100
AcDbVertex
100
AcDb2dVertex
 10
338.1490432738
 20
224.7780884015
 30
0.0
  0
VERTEX
  5
3A4
100
AcDbEntity
  8
0
100
AcDbVertex
100
AcDb2dVertex
 10
337.6818003413
 20
224.9091525424
 30
0.0
  0
VERTEX
  5
3A5
100
AcDbEntity
  8
0
100
AcDbVertex
100
AcDb2dVertex
 10
337.1917625334
 20
224.9376479382
 30
0.0
  0
VERTEX
  5
3A6
100
AcDbEntity
  8
0
100
AcDbVertex
100
AcDb2dVertex
 10
336.7084815437
 20
224.8618561761
 30
0.0
  0
VERTEX
  5
3A7
100
AcDbEntity
  8
0
100
AcDbVertex
100
AcDb2dVertex
 10
336.2611015963
 20
224.6863478728
 30
0.0
  0
VERTEX
  5
3A8
100
AcDbEntity
  8
0
100
AcDbVertex
100
AcDb2dVertex
 10
335.876601906
 20
224.4217070434
 30
0.0
  0
SEQEND
  5
3A9
100
AcDbEntity
  8
0
  0
POLYLINE
  5
3AA
100
AcDbEntity
  8
0
370
        15
  6
Continuous
 62
         7
100
AcDb2dPolyline
 66
         1
 10
0.0
 20
0.0
 30
0.0
 70
       128
  0
VERTEX
  5
3AB
100
AcDbEntity
  8
0
100
AcDbVertex
100
AcDb2dVertex
 10
335.876601906
 20
224.4217070434
 30
0.0
  0
VERTEX
  5
3AC
100
AcDbEntity
  8
0
100
AcDbVertex
100
AcDb2dVertex
 10
335.4921022157
 20
224.157066214
 30
0.0
  0
VERTEX
  5
3AD
100
AcDbEntity
  8
0
100
AcDbVertex
100
AcDb2dVertex
 10
335.0447222683
 20
223.9815579107
 30
0.0
  0
VERTEX
  5
3AE
100
AcDbEntity
  8
0
100
AcDbVertex
100
AcDb2dVertex
 10
334.5614412786
 20
223.9057661486
 30
0.0
  0
VERTEX
  5
3AF
100
AcDbEntity
  8
0
100
AcDbVertex
100
AcDb2dVertex
 10
334.0714034707
 20
223.9342615444
 30
0.0
  0
VERTEX
  5
3B0
100
AcDbEntity
  8
0
100
AcDbVertex
100
AcDb2dVertex
 10
333.6041605382
 20
224.0653256853
 30
0.0
  0
VERTEX
  5
3B1
100
AcDbEntity
  8
0
100
AcDbVertex
100
AcDb2dVertex
 10
333.1878895316
 20
224.291054758
 30
0.0
  0
VERTEX
  5
3B2
100
AcDbEntity
  8
0
100
AcDbVertex
100
AcDb2dVertex
 10
332.847693643
 20
224.5978361876
 30
0.0
  0
VERTEX
  5
3B3
100
AcDbEntity
  8
0
100
AcDbVertex
100
AcDb2dVertex
 10
332.6040883603
 20
224.9671695426
 30
0.0
  0
VERTEX
  5
3B4
100
AcDbEntity
  8
0
100
AcDbVertex
100
AcDb2dVertex
 10
332.471764282
 20
225.3767822026
 30
0.0
  0
VERTEX
  5
3B5
100
AcDbEntity
  8
0
100
AcDbVertex
100
AcDb2dVertex
 10
332.4587012017
 20
225.8019725064
 30
0.0
  0
SEQEND
  5
3B6
100
AcDbEntity
  8
0
  0
POLYLINE
  5
3B7
100
AcDbEntity
  8
0
370
        15
  6
Continuous
 62
         7
100
AcDb2dPolyline
 66
         1
 10
0.0
 20
0.0
 30
0.0
 70
       128
  0
VERTEX
  5
3B8
100
AcDbEntity
  8
0
100
AcDbVertex
100
AcDb2dVertex
 10
332.4587012017
 20
225.8019725064
 30
0.0
  0
VERTEX
  5
3B9
100
AcDbEntity
  8
0
100
AcDbVertex
100
AcDb2dVertex
 10
332.4456381215
 20
226.2271628102
 30
0.0
  0
VERTEX
  5
3BA
100
AcDbEntity
  8
0
100
AcDbVertex
100
AcDb2dVertex
 10
332.3133140431
 20
226.6367754701
 30
0.0
  0
VERTEX
  5
3BB
100
AcDbEntity
  8
0
100
AcDbVertex
100
AcDb2dVertex
 10
332.0697087604
 20
227.0061088252
 30
0.0
  0
VERTEX
  5
3BC
100
AcDbEntity
  8
0
100
AcDbVertex
100
AcDb2dVertex
 10
331.7295128718
 20
227.3128902548
 30
0.0
  0
VERTEX
  5
3BD
100
AcDbEntity
  8
0
100
AcDbVertex
100
AcDb2dVertex
 10
331.3132418652
 20
227.5386193275
 30
0.0
  0
VERTEX
  5
3BE
100
AcDbEntity
  8
0
100
AcDbVertex
100
AcDb2dVertex
 10
330.8459989327
 20
227.6696834684
 30
0.0
  0
VERTEX
  5
3BF
100
AcDbEntity
  8
0
100
AcDbVertex
100
AcDb2dVertex
 10
330.3559611248
 20
227.6981788642
 30
0.0
  0
VERTEX
  5
3C0
100
AcDbEntity
  8
0
100
AcDbVertex
100
AcDb2dVertex
 10
329.8726801351
 20
227.6223871021
 30
0.0
  0
VERTEX
  5
3C1
100
AcDbEntity
  8
0
100
AcDbVertex
100
AcDb2dVertex
 10
329.4253001877
 20
227.4468787988
 30
0.0
  0
VERTEX
  5
3C2
100
AcDbEntity
  8
0
100
AcDbVertex
100
AcDb2dVertex
 10
329.0408004974
 20
227.1822379694
 30
0.0
  0
SEQEND
  5
3C3
100
AcDbEntity
  8
0
  0
POLYLINE
  5
3C4
100
AcDbEntity
  8
0
370
        15
  6
Continuous
 62
         7
100
AcDb2dPolyline
 66
         1
 10
0.0
 20
0.0
 30
0.0
 70
       128
  0
VERTEX
  5
3C5
100
AcDbEntity
  8
0
100
AcDbVertex
100
AcDb2dVertex
 10
329.0408004974
 20
227.1822379694
 30
0.0
  0
VERTEX
  5
3C6
100
AcDbEntity
  8
0
100
AcDbVertex
100
AcDb2dVertex
 10
328.6563008071
 20
226.91759714
 30
0.0
  0
VERTEX
  5
3C7
100
AcDbEntity
  8
0
100
AcDbVertex
100
AcDb2dVertex
 10
328.2089208598
 20
226.7420888366
 30
0.0
  0
VERTEX
  5
3C8
100
AcDbEntity
  8
0
100
AcDbVertex
100
AcDb2dVertex
 10
327.72563987
 20
226.6662970746
 30
0.0
  0
VERTEX
  5
3C9
100
AcDbEntity
  8
0
100
AcDbVertex
100
AcDb2dVertex
 10
327.2356020621
 20
226.6947924703
 30
0.0
  0
VERTEX
  5
3CA
100
AcDbEntity
  8
0
100
AcDbVertex
100
AcDb2dVertex
 10
326.7683591296
 20
226.8258566113
 30
0.0
  0
VERTEX
  5
3CB
100
AcDbEntity
  8
0
100
AcDbVertex
100
AcDb2dVertex
 10
326.352088123
 20
227.051585684
 30
0.0
  0
VERTEX
  5
3CC
100
AcDbEntity
  8
0
100
AcDbVertex
100
AcDb2dVertex
 10
326.0118922344
 20
227.3583671136
 30
0.0
  0
VERTEX
  5
3CD
100
AcDbEntity
  8
0
100
AcDbVertex
100
AcDb2dVertex
 10
325.7682869517
 20
227.7277004686
 30
0.0
  0
VERTEX
  5
3CE
100
AcDbEntity
  8
0
100
AcDbVertex
100
AcDb2dVertex
 10
325.6359628734
 20
228.1373131286
 30
0.0
  0
VERTEX
  5
3CF
100
AcDbEntity
  8
0
100
AcDbVertex
100
AcDb2dVertex
 10
325.6228997931
 20
228.5625034324
 30
0.0
  0
SEQEND
  5
3D0
100
AcDbEntity
  8
0
  0
POLYLINE
  5
3D1
100
AcDbEntity
  8
0
370
        15
  6
Continuous
 62
         7
100
AcDb2dPolyline
 66
         1
 10
0.0
 20
0.0
 30
0.0
 70
       128
  0
VERTEX
  5
3D2
100
AcDbEntity
  8
0
100
AcDbVertex
100
AcDb2dVertex
 10
325.6228997931
 20
228.5625034324
 30
0.0
  0
VERTEX
  5
3D3
100
AcDbEntity
  8
0
100
AcDbVertex
100
AcDb2dVertex
 10
325.6285043461
 20
228.6240771921
 30
0.0
  0
VERTEX
  5
3D4
100
AcDbEntity
  8
0
100
AcDbVertex
100
AcDb2dVertex
 10
325.6315703462
 20
228.6857848568
 30
0.0
  0
VERTEX
  5
3D5
100
AcDbEntity
  8
0
100
AcDbVertex
100
AcDb2dVertex
 10
325.6320938945
 20
228.7475479572
 30
0.0
  0
VERTEX
  5
3D6
100
AcDbEntity
  8
0
100
AcDbVertex
100
AcDb2dVertex
 10
325.6300743254
 20
228.8092879536
 30
0.0
  0
VERTEX
  5
3D7
100
AcDbEntity
  8
0
100
AcDbVertex
100
AcDb2dVertex
 10
325.6255142069
 20
228.8709263356
 30
0.0
  0
VERTEX
  5
3D8
100
AcDbEntity
  8
0
100
AcDbVertex
100
AcDb2dVertex
 10
325.6184193377
 20
228.9323847221
 30
0.0
  0
VERTEX
  5
3D9
100
AcDbEntity
  8
0
100
AcDbVertex
100
AcDb2dVertex
 10
325.6087987401
 20
228.9935849609
 30
0.0
  0
VERTEX
  5
3DA
100
AcDbEntity
  8
0
100
AcDbVertex
100
AcDb2dVertex
 10
325.5966646477
 20
229.0544492279
 30
0.0
  0
SEQEND
  5
3DB
100
AcDbEntity
  8
0
  0
POLYLINE
  5
3DC
100
AcDbEntity
  8
0
370
        15
  6
Continuous
 62
         7
100
AcDb2dPolyline
 66
         1
 10
0.0
 20
0.0
 30
0.0
 70
       128
  0
VERTEX
  5
3DD
100
AcDbEntity
  8
0
100
AcDbVertex
100
AcDb2dVertex
 10
323.0419960187
 20
229.2509694215
 30
0.0
  0
VERTEX
  5
3DE
100
AcDbEntity
  8
0
100
AcDbVertex
100
AcDb2dVertex
 10
323.258134147
 20
229.5721555397
 30
0.0
  0
VERTEX
  5
3DF
100
AcDbEntity
  8
0
100
AcDbVertex
100
AcDb2dVertex
 10
323.5809146354
 20
229.8172205466
 30
0.0
  0
VERTEX
  5
3E0
100
AcDbEntity
  8
0
100
AcDbVertex
100
AcDb2dVertex
 10
323.9768819423
 20
229.9607639524
 30
0.0
  0
VERTEX
  5
3E1
100
AcDbEntity
  8
0
100
AcDbVertex
100
AcDb2dVertex
 10
324.4049948609
 20
229.9879077747
 30
0.0
  0
VERTEX
  5
3E2
100
AcDbEntity
  8
0
100
AcDbVertex
100
AcDb2dVertex
 10
324.8208803573
 20
229.8958386114
 30
0.0
  0
VERTEX
  5
3E3
100
AcDbEntity
  8
0
100
AcDbVertex
100
AcDb2dVertex
 10
325.1814327449
 20
229.6940992443
 30
0.0
  0
VERTEX
  5
3E4
100
AcDbEntity
  8
0
100
AcDbVertex
100
AcDb2dVertex
 10
325.4492815015
 20
229.4035995488
 30
0.0
  0
VERTEX
  5
3E5
100
AcDbEntity
  8
0
100
AcDbVertex
100
AcDb2dVertex
 10
325.5966646477
 20
229.0544492279
 30
0.0
  0
SEQEND
  5
3E6
100
AcDbEntity
  8
0
  0
POLYLINE
  5
3E7
100
AcDbEntity
  8
0
370
        15
  6
Continuous
 62
         7
100
AcDb2dPolyline
 66
         1
 10
0.0
 20
0.0
 30
0.0
 70
       128
  0
VERTEX
  5
3E8
100
AcDbEntity
  8
0
100
AcDbVertex
100
AcDb2dVertex
 10
319.4756017558
 20
227.7347013495
 30
0.0
  0
VERTEX
  5
3E9
100
AcDbEntity
  8
0
100
AcDbVertex
100
AcDb2dVertex
 10
320.0103008817
 20
227.641542498
 30
0.0
  0
VERTEX
  5
3EA
100
AcDbEntity
  8
0
100
AcDbVertex
100
AcDb2dVertex
 10
320.5556776378
 20
227.6361495816
 30
0.0
  0
VERTEX
  5
3EB
100
AcDbEntity
  8
0
100
AcDbVertex
100
AcDb2dVertex
 10
321.0926935572
 20
227.7187108607
 30
0.0
  0
VERTEX
  5
3EC
100
AcDbEntity
  8
0
100
AcDbVertex
100
AcDb2dVertex
 10
321.6026020403
 20
227.8863442172
 30
0.0
  0
VERTEX
  5
3ED
100
AcDbEntity
  8
0
100
AcDbVertex
100
AcDb2dVertex
 10
322.0676027764
 20
228.1331977662
 30
0.0
  0
VERTEX
  5
3EE
100
AcDbEntity
  8
0
100
AcDbVertex
100
AcDb2dVertex
 10
322.4714631318
 20
228.4506541381
 30
0.0
  0
VERTEX
  5
3EF
100
AcDbEntity
  8
0
100
AcDbVertex
100
AcDb2dVertex
 10
322.8000848126
 20
228.8276313009
 30
0.0
  0
VERTEX
  5
3F0
100
AcDbEntity
  8
0
100
AcDbVertex
100
AcDb2dVertex
 10
323.0419960187
 20
229.2509694215
 30
0.0
  0
SEQEND
  5
3F1
100
AcDbEntity
  8
0
  0
POLYLINE
  5
3F2
100
AcDbEntity
  8
0
370
        15
  6
Continuous
 62
         7
100
AcDb2dPolyline
 66
         1
 10
0.0
 20
0.0
 30
0.0
 70
       128
  0
VERTEX
  5
3F3
100
AcDbEntity
  8
0
100
AcDbVertex
100
AcDb2dVertex
 10
319.4756017558
 20
227.7347013495
 30
0.0
  0
VERTEX
  5
3F4
100
AcDbEntity
  8
0
100
AcDbVertex
100
AcDb2dVertex
 10
319.0663749906
 20
227.8251339499
 30
0.0
  0
VERTEX
  5
3F5
100
AcDbEntity
  8
0
100
AcDbVertex
100
AcDb2dVertex
 10
318.6497956215
 20
227.8853351635
 30
0.0
  0
VERTEX
  5
3F6
100
AcDbEntity
  8
0
100
AcDbVertex
100
AcDb2dVertex
 10
318.2288358693
 20
227.9148754653
 30
0.0
  0
VERTEX
  5
3F7
100
AcDbEntity
  8
0
100
AcDbVertex
100
AcDb2dVertex
 10
317.806499208
 20
227.9135440904
 30
0.0
  0
VERTEX
  5
3F8
100
AcDbEntity
  8
0
100
AcDbVertex
100
AcDb2dVertex
 10
317.3857989356
 20
227.8813505379
 30
0.0
  0
VERTEX
  5
3F9
100
AcDbEntity
  8
0
100
AcDbVertex
100
AcDb2dVertex
 10
316.969736675
 20
227.8185245032
 30
0.0
  0
VERTEX
  5
3FA
100
AcDbEntity
  8
0
100
AcDbVertex
100
AcDb2dVertex
 10
316.5612809573
 20
227.7255142391
 30
0.0
  0
VERTEX
  5
3FB
100
AcDbEntity
  8
0
100
AcDbVertex
100
AcDb2dVertex
 10
316.1633460427
 20
227.6029833574
 30
0.0
  0
SEQEND
  5
3FC
100
AcDbEntity
  8
0
  0
POLYLINE
  5
3FD
100
AcDbEntity
  8
0
370
        15
  6
Continuous
 62
         7
100
AcDb2dPolyline
 66
         1
 10
0.0
 20
0.0
 30
0.0
 70
       128
  0
VERTEX
  5
3FE
100
AcDbEntity
  8
0
100
AcDbVertex
100
AcDb2dVertex
 10
320.3054219803
 20
231.3132195835
 30
0.0
  0
VERTEX
  5
3FF
100
AcDbEntity
  8
0
100
AcDbVertex
100
AcDb2dVertex
 10
320.5632887056
 20
232.0664251994
 30
0.0
  0
VERTEX
  5
400
100
AcDbEntity
  8
0
100
AcDbVertex
100
AcDb2dVertex
 10
320.7118013137
 20
232.8414401281
 30
0.0
  0
VERTEX
  5
401
100
AcDbEntity
  8
0
100
AcDbVertex
100
AcDb2dVertex
 10
320.7486872296
 20
233.6264049093
 30
0.0
  0
VERTEX
  5
402
100
AcDbEntity
  8
0
100
AcDbVertex
100
AcDb2dVertex
 10
320.6733820165
 20
234.4093078275
 30
0.0
  0
VERTEX
  5
403
100
AcDbEntity
  8
0
100
AcDbVertex
100
AcDb2dVertex
 10
320.4870380124
 20
235.1781687187
 30
0.0
  0
VERTEX
  5
404
100
AcDbEntity
  8
0
100
AcDbVertex
100
AcDb2dVertex
 10
320.192506697
 20
235.9212222927
 30
0.0
  0
VERTEX
  5
405
100
AcDbEntity
  8
0
100
AcDbVertex
100
AcDb2dVertex
 10
319.7942950576
 20
236.6270981696
 30
0.0
  0
VERTEX
  5
406
100
AcDbEntity
  8
0
100
AcDbVertex
100
AcDb2dVertex
 10
319.2984966223
 20
237.2849948708
 30
0.0
  0
VERTEX
  5
407
100
AcDbEntity
  8
0
100
AcDbVertex
100
AcDb2dVertex
 10
318.712698215
 20
237.8848451065
 30
0.0
  0
VERTEX
  5
408
100
AcDbEntity
  8
0
100
AcDbVertex
100
AcDb2dVertex
 10
318.0458638606
 20
238.4174698277
 30
0.0
  0
VERTEX
  5
409
100
AcDbEntity
  8
0
100
AcDbVertex
100
AcDb2dVertex
 10
317.3081976149
 20
238.8747186858
 30
0.0
  0
VERTEX
  5
40A
100
AcDbEntity
  8
0
100
AcDbVertex
100
AcDb2dVertex
 10
316.51098742
 20
239.2495947515
 30
0.0
  0
VERTEX
  5
40B
100
AcDbEntity
  8
0
100
AcDbVertex
100
AcDb2dVertex
 10
315.6664323733
 20
239.5363615831
 30
0.0
  0
VERTEX
  5
40C
100
AcDbEntity
  8
0
100
AcDbVertex
100
AcDb2dVertex
 10
314.7874560546
 20
239.7306310072
 30
0.0
  0
VERTEX
  5
40D
100
AcDbEntity
  8
0
100
AcDbVertex
100
AcDb2dVertex
 10
313.8875087659
 20
239.8294302677
 30
0.0
  0
VERTEX
  5
40E
100
AcDbEntity
  8
0
100
AcDbVertex
100
AcDb2dVertex
 10
312.9803617117
 20
239.8312475149
 30
0.0
  0
VERTEX
  5
40F
100
AcDbEntity
  8
0
100
AcDbVertex
100
AcDb2dVertex
 10
312.0798962693
 20
239.7360549409
 30
0.0
  0
VERTEX
  5
410
100
AcDbEntity
  8
0
100
AcDbVertex
100
AcDb2dVertex
 10
311.1998915724
 20
239.5453092049
 30
0.0
  0
VERTEX
  5
411
100
AcDbEntity
  8
0
100
AcDbVertex
100
AcDb2dVertex
 10
310.3538136593
 20
239.2619291428
 30
0.0
  0
VERTEX
  5
412
100
AcDbEntity
  8
0
100
AcDbVertex
100
AcDb2dVertex
 10
309.554609413
 20
238.890251103
 30
0.0
  0
VERTEX
  5
413
100
AcDbEntity
  8
0
100
AcDbVertex
100
AcDb2dVertex
 10
308.8145084445
 20
238.43596259
 30
0.0
  0
VERTEX
  5
414
100
AcDbEntity
  8
0
100
AcDbVertex
100
AcDb2dVertex
 10
308.1448359524
 20
237.9060152333
 30
0.0
  0
VERTEX
  5
415
100
AcDbEntity
  8
0
100
AcDbVertex
100
AcDb2dVertex
 10
307.5558394226
 20
237.3085184118
 30
0.0
  0
VERTEX
  5
416
100
AcDbEntity
  8
0
100
AcDbVertex
100
AcDb2dVertex
 10
307.0565318182
 20
236.6526151621
 30
0.0
  0
VERTEX
  5
417
100
AcDbEntity
  8
0
100
AcDbVertex
100
AcDb2dVertex
 10
306.6545536614
 20
235.9483422698
 30
0.0
  0
VERTEX
  5
418
100
AcDbEntity
  8
0
100
AcDbVertex
100
AcDb2dVertex
 10
306.3560561163
 20
235.2064766839
 30
0.0
  0
VERTEX
  5
419
100
AcDbEntity
  8
0
100
AcDbVertex
100
AcDb2dVertex
 10
306.1656068624
 20
234.4383706059
 30
0.0
  0
VERTEX
  5
41A
100
AcDbEntity
  8
0
100
AcDbVertex
100
AcDb2dVertex
 10
306.086120199
 20
233.6557777753
 30
0.0
  0
VERTEX
  5
41B
100
AcDbEntity
  8
0
100
AcDbVertex
100
AcDb2dVertex
 10
306.1188124495
 20
232.8706736113
 30
0.0
  0
VERTEX
  5
41C
100
AcDbEntity
  8
0
100
AcDbVertex
100
AcDb2dVertex
 10
306.2631833496
 20
232.0950719621
 30
0.0
  0
VERTEX
  5
41D
100
AcDbEntity
  8
0
100
AcDbVertex
100
AcDb2dVertex
 10
306.5170237018
 20
231.3408412663
 30
0.0
  0
VERTEX
  5
41E
100
AcDbEntity
  8
0
100
AcDbVertex
100
AcDb2dVertex
 10
306.8764491814
 20
230.6195229391
 30
0.0
  0
VERTEX
  5
41F
100
AcDbEntity
  8
0
100
AcDbVertex
100
AcDb2dVertex
 10
307.3359597754
 20
229.9421547627
 30
0.0
  0
VERTEX
  5
420
100
AcDbEntity
  8
0
100
AcDbVertex
100
AcDb2dVertex
 10
307.8885239448
 20
229.3191019842
 30
0.0
  0
VERTEX
  5
421
100
AcDbEntity
  8
0
100
AcDbVertex
100
AcDb2dVertex
 10
308.5256862229
 20
228.7598987034
 30
0.0
  0
VERTEX
  5
422
100
AcDbEntity
  8
0
100
AcDbVertex
100
AcDb2dVertex
 10
309.237696603
 20
228.2731019801
 30
0.0
  0
VERTEX
  5
423
100
AcDbEntity
  8
0
100
AcDbVertex
100
AcDb2dVertex
 10
310.0136597351
 20
227.8661608922
 30
0.0
  0
VERTEX
  5
424
100
AcDbEntity
  8
0
100
AcDbVertex
100
AcDb2dVertex
 10
310.8417016491
 20
227.5453025476
 30
0.0
  0
VERTEX
  5
425
100
AcDbEntity
  8
0
100
AcDbVertex
100
AcDb2dVertex
 10
311.7091514533
 20
227.3154367962
 30
0.0
  0
VERTEX
  5
426
100
AcDbEntity
  8
0
100
AcDbVertex
100
AcDb2dVertex
 10
312.6027352271
 20
227.1800810976
 30
0.0
  0
VERTEX
  5
427
100
AcDbEntity
  8
0
100
AcDbVertex
100
AcDb2dVertex
 10
313.5087791419
 20
227.1413066964
 30
0.0
  0
VERTEX
  5
428
100
AcDbEntity
  8
0
100
AcDbVertex
100
AcDb2dVertex
 10
314.4134187009
 20
227.1997069277
 30
0.0
  0
VERTEX
  5
429
100
AcDbEntity
  8
0
100
AcDbVertex
100
AcDb2dVertex
 10
315.3028108972
 20
227.3543881375
 30
0.0
  0
VERTEX
  5
42A
100
AcDbEntity
  8
0
100
AcDbVertex
100
AcDb2dVertex
 10
316.1633460427
 20
227.6029833574
 30
0.0
  0
SEQEND
  5
42B
100
AcDbEntity
  8
0
  0
POLYLINE
  5
42C
100
AcDbEntity
  8
0
370
        15
  6
Continuous
 62
         7
100
AcDb2dPolyline
 66
         1
 10
0.0
 20
0.0
 30
0.0
 70
       128
  0
VERTEX
  5
42D
100
AcDbEntity
  8
0
100
AcDbVertex
100
AcDb2dVertex
 10
320.3054219803
 20
231.3132195835
 30
0.0
  0
VERTEX
  5
42E
100
AcDbEntity
  8
0
100
AcDbVertex
100
AcDb2dVertex
 10
320.2373951912
 20
231.0118443264
 30
0.0
  0
VERTEX
  5
42F
100
AcDbEntity
  8
0
100
AcDbVertex
100
AcDb2dVertex
 10
320.2802352191
 20
230.7070143285
 30
0.0
  0
VERTEX
  5
430
100
AcDbEntity
  8
0
100
AcDbVertex
100
AcDb2dVertex
 10
320.4297485837
 20
230.4285684739
 30
0.0
  0
VERTEX
  5
431
100
AcDbEntity
  8
0
100
AcDbVertex
100
AcDb2dVertex
 10
320.6712998752
 20
230.2037629829
 30
0.0
  0
VERTEX
  5
432
100
AcDbEntity
  8
0
100
AcDbVertex
100
AcDb2dVertex
 10
320.98124437
 20
230.0546033831
 30
0.0
  0
VERTEX
  5
433
100
AcDbEntity
  8
0
100
AcDbVertex
100
AcDb2dVertex
 10
321.3292425416
 20
229.9956904556
 30
0.0
  0
VERTEX
  5
434
100
AcDbEntity
  8
0
100
AcDbVertex
100
AcDb2dVertex
 10
321.6812299043
 20
230.0327910081
 30
0.0
  0
VERTEX
  5
435
100
AcDbEntity
  8
0
100
AcDbVertex
100
AcDb2dVertex
 10
322.0027514825
 20
230.1622733801
 30
0.0
  0
VERTEX
  5
436
100
AcDbEntity
  8
0
100
AcDbVertex
100
AcDb2dVertex
 10
322.2623345041
 20
230.3714629348
 30
0.0
  0
VERTEX
  5
437
100
AcDbEntity
  8
0
100
AcDbVertex
100
AcDb2dVertex
 10
322.4345691742
 20
230.6398827411
 30
0.0
  0
SEQEND
  5
438
100
AcDbEntity
  8
0
  0
POLYLINE
  5
439
100
AcDbEntity
  8
0
370
        15
  6
Continuous
 62
         7
100
AcDb2dPolyline
 66
         1
 10
0.0
 20
0.0
 30
0.0
 70
       128
  0
VERTEX
  5
43A
100
AcDbEntity
  8
0
100
AcDbVertex
100
AcDb2dVertex
 10
322.4345691742
 20
230.6398827411
 30
0.0
  0
VERTEX
  5
43B
100
AcDbEntity
  8
0
100
AcDbVertex
100
AcDb2dVertex
 10
322.5161175937
 20
230.8412648133
 30
0.0
  0
VERTEX
  5
43C
100
AcDbEntity
  8
0
100
AcDbVertex
100
AcDb2dVertex
 10
322.5916707157
 20
231.0443932009
 30
0.0
  0
VERTEX
  5
43D
100
AcDbEntity
  8
0
100
AcDbVertex
100
AcDb2dVertex
 10
322.6611787591
 20
231.2491340651
 30
0.0
  0
VERTEX
  5
43E
100
AcDbEntity
  8
0
100
AcDbVertex
100
AcDb2dVertex
 10
322.7245959258
 20
231.4553525046
 30
0.0
  0
VERTEX
  5
43F
100
AcDbEntity
  8
0
100
AcDbVertex
100
AcDb2dVertex
 10
322.7818804311
 20
231.6629126444
 30
0.0
  0
VERTEX
  5
440
100
AcDbEntity
  8
0
100
AcDbVertex
100
AcDb2dVertex
 10
322.8329945309
 20
231.8716777256
 30
0.0
  0
VERTEX
  5
441
100
AcDbEntity
  8
0
100
AcDbVertex
100
AcDb2dVertex
 10
322.8779045467
 20
232.0815101955
 30
0.0
  0
VERTEX
  5
442
100
AcDbEntity
  8
0
100
AcDbVertex
100
AcDb2dVertex
 10
322.9165808877
 20
232.2922717978
 30
0.0
  0
SEQEND
  5
443
100
AcDbEntity
  8
0
  0
POLYLINE
  5
444
100
AcDbEntity
  8
0
370
        15
  6
Continuous
 62
         7
100
AcDb2dPolyline
 66
         1
 10
0.0
 20
0.0
 30
0.0
 70
       128
  0
VERTEX
  5
445
100
AcDbEntity
  8
0
100
AcDbVertex
100
AcDb2dVertex
 10
322.9165808877
 20
232.2922717978
 30
0.0
  0
VERTEX
  5
446
100
AcDbEntity
  8
0
100
AcDbVertex
100
AcDb2dVertex
 10
323.0490871096
 20
232.7077020177
 30
0.0
  0
VERTEX
  5
447
100
AcDbEntity
  8
0
100
AcDbVertex
100
AcDb2dVertex
 10
323.295927351
 20
233.081938725
 30
0.0
  0
VERTEX
  5
448
100
AcDbEntity
  8
0
100
AcDbVertex
100
AcDb2dVertex
 10
323.6418180301
 20
233.391810344
 30
0.0
  0
VERTEX
  5
449
100
AcDbEntity
  8
0
100
AcDbVertex
100
AcDb2dVertex
 10
324.0653426691
 20
233.6181305856
 30
0.0
  0
VERTEX
  5
44A
100
AcDbEntity
  8
0
100
AcDbVertex
100
AcDb2dVertex
 10
324.5402779367
 20
233.7468864026
 30
0.0
  0
VERTEX
  5
44B
100
AcDbEntity
  8
0
100
AcDbVertex
100
AcDb2dVertex
 10
325.0372173145
 20
233.7701056343
 30
0.0
  0
VERTEX
  5
44C
100
AcDbEntity
  8
0
100
AcDbVertex
100
AcDb2dVertex
 10
325.5253918583
 20
233.686350618
 30
0.0
  0
VERTEX
  5
44D
100
AcDbEntity
  8
0
100
AcDbVertex
100
AcDb2dVertex
 10
325.974575315
 20
233.5008072043
 30
0.0
  0
VERTEX
  5
44E
100
AcDbEntity
  8
0
100
AcDbVertex
100
AcDb2dVertex
 10
326.3569556387
 20
233.2249636658
 30
0.0
  0
VERTEX
  5
44F
100
AcDbEntity
  8
0
100
AcDbVertex
100
AcDb2dVertex
 10
326.6488570261
 20
232.8758993784
 30
0.0
  0
VERTEX
  5
450
100
AcDbEntity
  8
0
100
AcDbVertex
100
AcDb2dVertex
 10
326.832205849
 20
232.4752273199
 30
0.0
  0
SEQEND
  5
451
100
AcDbEntity
  8
0
  0
POLYLINE
  5
452
100
AcDbEntity
  8
0
370
        15
  6
Continuous
 62
         7
100
AcDb2dPolyline
 66
         1
 10
0.0
 20
0.0
 30
0.0
 70
       128
  0
VERTEX
  5
453
100
AcDbEntity
  8
0
100
AcDbVertex
100
AcDb2dVertex
 10
326.832205849
 20
232.4752273199
 30
0.0
  0
VERTEX
  5
454
100
AcDbEntity
  8
0
100
AcDbVertex
100
AcDb2dVertex
 10
327.0124018945
 20
232.0795483889
 30
0.0
  0
VERTEX
  5
455
100
AcDbEntity
  8
0
100
AcDbVertex
100
AcDb2dVertex
 10
327.2985145278
 20
231.7338325399
 30
0.0
  0
VERTEX
  5
456
100
AcDbEntity
  8
0
100
AcDbVertex
100
AcDb2dVertex
 10
327.6732897479
 20
231.4589281414
 30
0.0
  0
VERTEX
  5
457
100
AcDbEntity
  8
0
100
AcDbVertex
100
AcDb2dVertex
 10
328.1141267628
 20
231.2714132828
 30
0.0
  0
VERTEX
  5
458
100
AcDbEntity
  8
0
100
AcDbVertex
100
AcDb2dVertex
 10
328.5944409291
 20
231.1825960337
 30
0.0
  0
VERTEX
  5
459
100
AcDbEntity
  8
0
100
AcDbVertex
100
AcDb2dVertex
 10
329.0852669366
 20
231.1978325118
 30
0.0
  0
VERTEX
  5
45A
100
AcDbEntity
  8
0
100
AcDbVertex
100
AcDb2dVertex
 10
329.5570055593
 20
231.3162038823
 30
0.0
  0
VERTEX
  5
45B
100
AcDbEntity
  8
0
100
AcDbVertex
100
AcDb2dVertex
 10
329.9812086346
 20
231.5305717686
 30
0.0
  0
VERTEX
  5
45C
100
AcDbEntity
  8
0
100
AcDbVertex
100
AcDb2dVertex
 10
330.3322946275
 20
231.8280087312
 30
0.0
  0
VERTEX
  5
45D
100
AcDbEntity
  8
0
100
AcDbVertex
100
AcDb2dVertex
 10
330.5890913232
 20
232.190577856
 30
0.0
  0
SEQEND
  5
45E
100
AcDbEntity
  8
0
  0
POLYLINE
  5
45F
100
AcDbEntity
  8
0
370
        15
  6
Continuous
 62
         7
100
AcDb2dPolyline
 66
         1
 10
0.0
 20
0.0
 30
0.0
 70
       128
  0
VERTEX
  5
460
100
AcDbEntity
  8
0
100
AcDbVertex
100
AcDb2dVertex
 10
330.5890913232
 20
232.190577856
 30
0.0
  0
VERTEX
  5
461
100
AcDbEntity
  8
0
100
AcDbVertex
100
AcDb2dVertex
 10
330.8458880189
 20
232.5531469809
 30
0.0
  0
VERTEX
  5
462
100
AcDbEntity
  8
0
100
AcDbVertex
100
AcDb2dVertex
 10
331.1969740117
 20
232.8505839434
 30
0.0
  0
VERTEX
  5
463
100
AcDbEntity
  8
0
100
AcDbVertex
100
AcDb2dVertex
 10
331.621177087
 20
233.0649518297
 30
0.0
  0
VERTEX
  5
464
100
AcDbEntity
  8
0
100
AcDbVertex
100
AcDb2dVertex
 10
332.0929157097
 20
233.1833232002
 30
0.0
  0
VERTEX
  5
465
100
AcDbEntity
  8
0
100
AcDbVertex
100
AcDb2dVertex
 10
332.5837417172
 20
233.1985596783
 30
0.0
  0
VERTEX
  5
466
100
AcDbEntity
  8
0
100
AcDbVertex
100
AcDb2dVertex
 10
333.0640558835
 20
233.1097424292
 30
0.0
  0
VERTEX
  5
467
100
AcDbEntity
  8
0
100
AcDbVertex
100
AcDb2dVertex
 10
333.5048928984
 20
232.9222275706
 30
0.0
  0
VERTEX
  5
468
100
AcDbEntity
  8
0
100
AcDbVertex
100
AcDb2dVertex
 10
333.8796681185
 20
232.6473231721
 30
0.0
  0
VERTEX
  5
469
100
AcDbEntity
  8
0
100
AcDbVertex
100
AcDb2dVertex
 10
334.1657807518
 20
232.3016073231
 30
0.0
  0
VERTEX
  5
46A
100
AcDbEntity
  8
0
100
AcDbVertex
100
AcDb2dVertex
 10
334.3459767973
 20
231.9059283922
 30
0.0
  0
SEQEND
  5
46B
100
AcDbEntity
  8
0
  0
POLYLINE
  5
46C
100
AcDbEntity
  8
0
370
        15
  6
Continuous
 62
         7
100
AcDb2dPolyline
 66
         1
 10
0.0
 20
0.0
 30
0.0
 70
       128
  0
VERTEX
  5
46D
100
AcDbEntity
  8
0
100
AcDbVertex
100
AcDb2dVertex
 10
334.3459767973
 20
231.9059283922
 30
0.0
  0
VERTEX
  5
46E
100
AcDbEntity
  8
0
100
AcDbVertex
100
AcDb2dVertex
 10
334.5261728428
 20
231.5102494612
 30
0.0
  0
VERTEX
  5
46F
100
AcDbEntity
  8
0
100
AcDbVertex
100
AcDb2dVertex
 10
334.8122854761
 20
231.1645336122
 30
0.0
  0
VERTEX
  5
470
100
AcDbEntity
  8
0
100
AcDbVertex
100
AcDb2dVertex
 10
335.1870606962
 20
230.8896292137
 30
0.0
  0
VERTEX
  5
471
100
AcDbEntity
  8
0
100
AcDbVertex
100
AcDb2dVertex
 10
335.6278977111
 20
230.7021143551
 30
0.0
  0
VERTEX
  5
472
100
AcDbEntity
  8
0
100
AcDbVertex
100
AcDb2dVertex
 10
336.1082118774
 20
230.613297106
 30
0.0
  0
VERTEX
  5
473
100
AcDbEntity
  8
0
100
AcDbVertex
100
AcDb2dVertex
 10
336.5990378849
 20
230.6285335841
 30
0.0
  0
VERTEX
  5
474
100
AcDbEntity
  8
0
100
AcDbVertex
100
AcDb2dVertex
 10
337.0707765076
 20
230.7469049546
 30
0.0
  0
VERTEX
  5
475
100
AcDbEntity
  8
0
100
AcDbVertex
100
AcDb2dVertex
 10
337.4949795829
 20
230.9612728409
 30
0.0
  0
VERTEX
  5
476
100
AcDbEntity
  8
0
100
AcDbVertex
100
AcDb2dVertex
 10
337.8460655758
 20
231.2587098035
 30
0.0
  0
VERTEX
  5
477
100
AcDbEntity
  8
0
100
AcDbVertex
100
AcDb2dVertex
 10
338.1028622715
 20
231.6212789283
 30
0.0
  0
SEQEND
  5
478
100
AcDbEntity
  8
0
  0
POLYLINE
  5
479
100
AcDbEntity
  8
0
370
        15
  6
Continuous
 62
         7
100
AcDb2dPolyline
 66
         1
 10
0.0
 20
0.0
 30
0.0
 70
       128
  0
VERTEX
  5
47A
100
AcDbEntity
  8
0
100
AcDbVertex
100
AcDb2dVertex
 10
338.1028622715
 20
231.6212789283
 30
0.0
  0
VERTEX
  5
47B
100
AcDbEntity
  8
0
100
AcDbVertex
100
AcDb2dVertex
 10
338.3596589672
 20
231.9838480532
 30
0.0
  0
VERTEX
  5
47C
100
AcDbEntity
  8
0
100
AcDbVertex
100
AcDb2dVertex
 10
338.71074496
 20
232.2812850157
 30
0.0
  0
VERTEX
  5
47D
100
AcDbEntity
  8
0
100
AcDbVertex
100
AcDb2dVertex
 10
339.1349480353
 20
232.495652902
 30
0.0
  0
VERTEX
  5
47E
100
AcDbEntity
  8
0
100
AcDbVertex
100
AcDb2dVertex
 10
339.606686658
 20
232.6140242725
 30
0.0
  0
VERTEX
  5
47F
100
AcDbEntity
  8
0
100
AcDbVertex
100
AcDb2dVertex
 10
340.0975126655
 20
232.6292607506
 30
0.0
  0
VERTEX
  5
480
100
AcDbEntity
  8
0
100
AcDbVertex
100
AcDb2dVertex
 10
340.5778268318
 20
232.5404435015
 30
0.0
  0
VERTEX
  5
481
100
AcDbEntity
  8
0
100
AcDbVertex
100
AcDb2dVertex
 10
341.0186638467
 20
232.3529286429
 30
0.0
  0
VERTEX
  5
482
100
AcDbEntity
  8
0
100
AcDbVertex
100
AcDb2dVertex
 10
341.3934390668
 20
232.0780242444
 30
0.0
  0
VERTEX
  5
483
100
AcDbEntity
  8
0
100
AcDbVertex
100
AcDb2dVertex
 10
341.6795517001
 20
231.7323083954
 30
0.0
  0
VERTEX
  5
484
100
AcDbEntity
  8
0
100
AcDbVertex
100
AcDb2dVertex
 10
341.8597477456
 20
231.3366294645
 30
0.0
  0
SEQEND
  5
485
100
AcDbEntity
  8
0
  0
POLYLINE
  5
486
100
AcDbEntity
  8
0
370
        15
  6
Continuous
 62
         7
100
AcDb2dPolyline
 66
         1
 10
0.0
 20
0.0
 30
0.0
 70
       128
  0
VERTEX
  5
487
100
AcDbEntity
  8
0
100
AcDbVertex
100
AcDb2dVertex
 10
341.8597477456
 20
231.3366294645
 30
0.0
  0
VERTEX
  5
488
100
AcDbEntity
  8
0
100
AcDbVertex
100
AcDb2dVertex
 10
342.0399437911
 20
230.9409505336
 30
0.0
  0
VERTEX
  5
489
100
AcDbEntity
  8
0
100
AcDbVertex
100
AcDb2dVertex
 10
342.3260564244
 20
230.5952346845
 30
0.0
  0
VERTEX
  5
48A
100
AcDbEntity
  8
0
100
AcDbVertex
100
AcDb2dVertex
 10
342.7008316445
 20
230.320330286
 30
0.0
  0
VERTEX
  5
48B
100
AcDbEntity
  8
0
100
AcDbVertex
100
AcDb2dVertex
 10
343.1416686594
 20
230.1328154274
 30
0.0
  0
VERTEX
  5
48C
100
AcDbEntity
  8
0
100
AcDbVertex
100
AcDb2dVertex
 10
343.6219828257
 20
230.0439981783
 30
0.0
  0
VERTEX
  5
48D
100
AcDbEntity
  8
0
100
AcDbVertex
100
AcDb2dVertex
 10
344.1128088332
 20
230.0592346564
 30
0.0
  0
VERTEX
  5
48E
100
AcDbEntity
  8
0
100
AcDbVertex
100
AcDb2dVertex
 10
344.5845474559
 20
230.1776060269
 30
0.0
  0
VERTEX
  5
48F
100
AcDbEntity
  8
0
100
AcDbVertex
100
AcDb2dVertex
 10
345.0087505312
 20
230.3919739132
 30
0.0
  0
VERTEX
  5
490
100
AcDbEntity
  8
0
100
AcDbVertex
100
AcDb2dVertex
 10
345.3598365241
 20
230.6894108758
 30
0.0
  0
VERTEX
  5
491
100
AcDbEntity
  8
0
100
AcDbVertex
100
AcDb2dVertex
 10
345.6166332198
 20
231.0519800006
 30
0.0
  0
SEQEND
  5
492
100
AcDbEntity
  8
0
  0
POLYLINE
  5
493
100
AcDbEntity
  8
0
370
        15
  6
Continuous
 62
         7
100
AcDb2dPolyline
 66
         1
 10
0.0
 20
0.0
 30
0.0
 70
       128
  0
VERTEX
  5
494
100
AcDbEntity
  8
0
100
AcDbVertex
100
AcDb2dVertex
 10
345.6166332198
 20
231.0519800006
 30
0.0
  0
VERTEX
  5
495
100
AcDbEntity
  8
0
100
AcDbVertex
100
AcDb2dVertex
 10
345.8734299155
 20
231.4145491255
 30
0.0
  0
VERTEX
  5
496
100
AcDbEntity
  8
0
100
AcDbVertex
100
AcDb2dVertex
 10
346.2245159083
 20
231.711986088
 30
0.0
  0
VERTEX
  5
497
100
AcDbEntity
  8
0
100
AcDbVertex
100
AcDb2dVertex
 10
346.6487189836
 20
231.9263539743
 30
0.0
  0
VERTEX
  5
498
100
AcDbEntity
  8
0
100
AcDbVertex
100
AcDb2dVertex
 10
347.1204576063
 20
232.0447253449
 30
0.0
  0
VERTEX
  5
499
100
AcDbEntity
  8
0
100
AcDbVertex
100
AcDb2dVertex
 10
347.6112836138
 20
232.0599618229
 30
0.0
  0
VERTEX
  5
49A
100
AcDbEntity
  8
0
100
AcDbVertex
100
AcDb2dVertex
 10
348.0915977801
 20
231.9711445738
 30
0.0
  0
VERTEX
  5
49B
100
AcDbEntity
  8
0
100
AcDbVertex
100
AcDb2dVertex
 10
348.532434795
 20
231.7836297152
 30
0.0
  0
VERTEX
  5
49C
100
AcDbEntity
  8
0
100
AcDbVertex
100
AcDb2dVertex
 10
348.9072100151
 20
231.5087253167
 30
0.0
  0
VERTEX
  5
49D
100
AcDbEntity
  8
0
100
AcDbVertex
100
AcDb2dVertex
 10
349.1933226484
 20
231.1630094677
 30
0.0
  0
VERTEX
  5
49E
100
AcDbEntity
  8
0
100
AcDbVertex
100
AcDb2dVertex
 10
349.3735186939
 20
230.7673305368
 30
0.0
  0
SEQEND
  5
49F
100
AcDbEntity
  8
0
  0
POLYLINE
  5
4A0
100
AcDbEntity
  8
0
370
        15
  6
Continuous
 62
         7
100
AcDb2dPolyline
 66
         1
 10
0.0
 20
0.0
 30
0.0
 70
       128
  0
VERTEX
  5
4A1
100
AcDbEntity
  8
0
100
AcDbVertex
100
AcDb2dVertex
 10
349.3735186939
 20
230.7673305368
 30
0.0
  0
VERTEX
  5
4A2
100
AcDbEntity
  8
0
100
AcDbVertex
100
AcDb2dVertex
 10
349.5537147394
 20
230.3716516059
 30
0.0
  0
VERTEX
  5
4A3
100
AcDbEntity
  8
0
100
AcDbVertex
100
AcDb2dVertex
 10
349.8398273727
 20
230.0259357568
 30
0.0
  0
VERTEX
  5
4A4
100
AcDbEntity
  8
0
100
AcDbVertex
100
AcDb2dVertex
 10
350.2146025928
 20
229.7510313583
 30
0.0
  0
VERTEX
  5
4A5
100
AcDbEntity
  8
0
100
AcDbVertex
100
AcDb2dVertex
 10
350.6554396077
 20
229.5635164997
 30
0.0
  0
VERTEX
  5
4A6
100
AcDbEntity
  8
0
100
AcDbVertex
100
AcDb2dVertex
 10
351.135753774
 20
229.4746992506
 30
0.0
  0
VERTEX
  5
4A7
100
AcDbEntity
  8
0
100
AcDbVertex
100
AcDb2dVertex
 10
351.6265797815
 20
229.4899357287
 30
0.0
  0
VERTEX
  5
4A8
100
AcDbEntity
  8
0
100
AcDbVertex
100
AcDb2dVertex
 10
352.0983184042
 20
229.6083070993
 30
0.0
  0
VERTEX
  5
4A9
100
AcDbEntity
  8
0
100
AcDbVertex
100
AcDb2dVertex
 10
352.5225214795
 20
229.8226749855
 30
0.0
  0
VERTEX
  5
4AA
100
AcDbEntity
  8
0
100
AcDbVertex
100
AcDb2dVertex
 10
352.8736074724
 20
230.1201119481
 30
0.0
  0
VERTEX
  5
4AB
100
AcDbEntity
  8
0
100
AcDbVertex
100
AcDb2dVertex
 10
353.1304041681
 20
230.4826810729
 30
0.0
  0
SEQEND
  5
4AC
100
AcDbEntity
  8
0
  0
POLYLINE
  5
4AD
100
AcDbEntity
  8
0
370
        15
  6
Continuous
 62
         7
100
AcDb2dPolyline
 66
         1
 10
0.0
 20
0.0
 30
0.0
 70
       128
  0
VERTEX
  5
4AE
100
AcDbEntity
  8
0
100
AcDbVertex
100
AcDb2dVertex
 10
353.1304041681
 20
230.4826810729
 30
0.0
  0
VERTEX
  5
4AF
100
AcDbEntity
  8
0
100
AcDbVertex
100
AcDb2dVertex
 10
353.3872008637
 20
230.8452501978
 30
0.0
  0
VERTEX
  5
4B0
100
AcDbEntity
  8
0
100
AcDbVertex
100
AcDb2dVertex
 10
353.7382868566
 20
231.1426871603
 30
0.0
  0
VERTEX
  5
4B1
100
AcDbEntity
  8
0
100
AcDbVertex
100
AcDb2dVertex
 10
354.1624899319
 20
231.3570550466
 30
0.0
  0
VERTEX
  5
4B2
100
AcDbEntity
  8
0
100
AcDbVertex
100
AcDb2dVertex
 10
354.6342285546
 20
231.4754264172
 30
0.0
  0
VERTEX
  5
4B3
100
AcDbEntity
  8
0
100
AcDbVertex
100
AcDb2dVertex
 10
355.1250545621
 20
231.4906628952
 30
0.0
  0
VERTEX
  5
4B4
100
AcDbEntity
  8
0
100
AcDbVertex
100
AcDb2dVertex
 10
355.6053687284
 20
231.4018456462
 30
0.0
  0
VERTEX
  5
4B5
100
AcDbEntity
  8
0
100
AcDbVertex
100
AcDb2dVertex
 10
356.0462057433
 20
231.2143307875
 30
0.0
  0
VERTEX
  5
4B6
100
AcDbEntity
  8
0
100
AcDbVertex
100
AcDb2dVertex
 10
356.4209809634
 20
230.939426389
 30
0.0
  0
VERTEX
  5
4B7
100
AcDbEntity
  8
0
100
AcDbVertex
100
AcDb2dVertex
 10
356.7070935967
 20
230.59371054
 30
0.0
  0
VERTEX
  5
4B8
100
AcDbEntity
  8
0
100
AcDbVertex
100
AcDb2dVertex
 10
356.8872896422
 20
230.1980316091
 30
0.0
  0
SEQEND
  5
4B9
100
AcDbEntity
  8
0
  0
POLYLINE
  5
4BA
100
AcDbEntity
  8
0
370
        15
  6
Continuous
 62
         7
100
AcDb2dPolyline
 66
         1
 10
0.0
 20
0.0
 30
0.0
 70
       128
  0
VERTEX
  5
4BB
100
AcDbEntity
  8
0
100
AcDbVertex
100
AcDb2dVertex
 10
356.8872896422
 20
230.1980316091
 30
0.0
  0
VERTEX
  5
4BC
100
AcDbEntity
  8
0
100
AcDbVertex
100
AcDb2dVertex
 10
357.0674856877
 20
229.8023526782
 30
0.0
  0
VERTEX
  5
4BD
100
AcDbEntity
  8
0
100
AcDbVertex
100
AcDb2dVertex
 10
357.353598321
 20
229.4566368291
 30
0.0
  0
VERTEX
  5
4BE
100
AcDbEntity
  8
0
100
AcDbVertex
100
AcDb2dVertex
 10
357.7283735411
 20
229.1817324306
 30
0.0
  0
VERTEX
  5
4BF
100
AcDbEntity
  8
0
100
AcDbVertex
100
AcDb2dVertex
 10
358.169210556
 20
228.994217572
 30
0.0
  0
VERTEX
  5
4C0
100
AcDbEntity
  8
0
100
AcDbVertex
100
AcDb2dVertex
 10
358.6495247223
 20
228.905400323
 30
0.0
  0
VERTEX
  5
4C1
100
AcDbEntity
  8
0
100
AcDbVertex
100
AcDb2dVertex
 10
359.1403507298
 20
228.920636801
 30
0.0
  0
VERTEX
  5
4C2
100
AcDbEntity
  8
0
100
AcDbVertex
100
AcDb2dVertex
 10
359.6120893525
 20
229.0390081716
 30
0.0
  0
VERTEX
  5
4C3
100
AcDbEntity
  8
0
100
AcDbVertex
100
AcDb2dVertex
 10
360.0362924278
 20
229.2533760578
 30
0.0
  0
VERTEX
  5
4C4
100
AcDbEntity
  8
0
100
AcDbVertex
100
AcDb2dVertex
 10
360.3873784207
 20
229.5508130204
 30
0.0
  0
VERTEX
  5
4C5
100
AcDbEntity
  8
0
100
AcDbVertex
100
AcDb2dVertex
 10
360.6441751163
 20
229.9133821452
 30
0.0
  0
SEQEND
  5
4C6
100
AcDbEntity
  8
0
  0
POLYLINE
  5
4C7
100
AcDbEntity
  8
0
370
        15
  6
Continuous
 62
         7
100
AcDb2dPolyline
 66
         1
 10
0.0
 20
0.0
 30
0.0
 70
       128
  0
VERTEX
  5
4C8
100
AcDbEntity
  8
0
100
AcDbVertex
100
AcDb2dVertex
 10
360.6441751163
 20
229.9133821452
 30
0.0
  0
VERTEX
  5
4C9
100
AcDbEntity
  8
0
100
AcDbVertex
100
AcDb2dVertex
 10
360.900971812
 20
230.2759512701
 30
0.0
  0
VERTEX
  5
4CA
100
AcDbEntity
  8
0
100
AcDbVertex
100
AcDb2dVertex
 10
361.2520578049
 20
230.5733882326
 30
0.0
  0
VERTEX
  5
4CB
100
AcDbEntity
  8
0
100
AcDbVertex
100
AcDb2dVertex
 10
361.6762608802
 20
230.7877561189
 30
0.0
  0
VERTEX
  5
4CC
100
AcDbEntity
  8
0
100
AcDbVertex
100
AcDb2dVertex
 10
362.1479995029
 20
230.9061274895
 30
0.0
  0
VERTEX
  5
4CD
100
AcDbEntity
  8
0
100
AcDbVertex
100
AcDb2dVertex
 10
362.6388255104
 20
230.9213639675
 30
0.0
  0
VERTEX
  5
4CE
100
AcDbEntity
  8
0
100
AcDbVertex
100
AcDb2dVertex
 10
363.1191396767
 20
230.8325467185
 30
0.0
  0
VERTEX
  5
4CF
100
AcDbEntity
  8
0
100
AcDbVertex
100
AcDb2dVertex
 10
363.5599766916
 20
230.6450318598
 30
0.0
  0
VERTEX
  5
4D0
100
AcDbEntity
  8
0
100
AcDbVertex
100
AcDb2dVertex
 10
363.9347519117
 20
230.3701274613
 30
0.0
  0
VERTEX
  5
4D1
100
AcDbEntity
  8
0
100
AcDbVertex
100
AcDb2dVertex
 10
364.220864545
 20
230.0244116123
 30
0.0
  0
VERTEX
  5
4D2
100
AcDbEntity
  8
0
100
AcDbVertex
100
AcDb2dVertex
 10
364.4010605905
 20
229.6287326814
 30
0.0
  0
SEQEND
  5
4D3
100
AcDbEntity
  8
0
  0
POLYLINE
  5
4D4
100
AcDbEntity
  8
0
370
        15
  6
Continuous
 62
         7
100
AcDb2dPolyline
 66
         1
 10
0.0
 20
0.0
 30
0.0
 70
       128
  0
VERTEX
  5
4D5
100
AcDbEntity
  8
0
100
AcDbVertex
100
AcDb2dVertex
 10
364.4010605905
 20
229.6287326814
 30
0.0
  0
VERTEX
  5
4D6
100
AcDbEntity
  8
0
100
AcDbVertex
100
AcDb2dVertex
 10
364.581256636
 20
229.2330537505
 30
0.0
  0
VERTEX
  5
4D7
100
AcDbEntity
  8
0
100
AcDbVertex
100
AcDb2dVertex
 10
364.8673692693
 20
228.8873379014
 30
0.0
  0
VERTEX
  5
4D8
100
AcDbEntity
  8
0
100
AcDbVertex
100
AcDb2dVertex
 10
365.2421444894
 20
228.6124335029
 30
0.0
  0
VERTEX
  5
4D9
100
AcDbEntity
  8
0
100
AcDbVertex
100
AcDb2dVertex
 10
365.6829815043
 20
228.4249186443
 30
0.0
  0
VERTEX
  5
4DA
100
AcDbEntity
  8
0
100
AcDbVertex
100
AcDb2dVertex
 10
366.1632956706
 20
228.3361013953
 30
0.0
  0
VERTEX
  5
4DB
100
AcDbEntity
  8
0
100
AcDbVertex
100
AcDb2dVertex
 10
366.6541216781
 20
228.3513378733
 30
0.0
  0
VERTEX
  5
4DC
100
AcDbEntity
  8
0
100
AcDbVertex
100
AcDb2dVertex
 10
367.1258603008
 20
228.4697092439
 30
0.0
  0
VERTEX
  5
4DD
100
AcDbEntity
  8
0
100
AcDbVertex
100
AcDb2dVertex
 10
367.5500633761
 20
228.6840771301
 30
0.0
  0
VERTEX
  5
4DE
100
AcDbEntity
  8
0
100
AcDbVertex
100
AcDb2dVertex
 10
367.9011493689
 20
228.9815140927
 30
0.0
  0
VERTEX
  5
4DF
100
AcDbEntity
  8
0
100
AcDbVertex
100
AcDb2dVertex
 10
368.1579460646
 20
229.3440832176
 30
0.0
  0
SEQEND
  5
4E0
100
AcDbEntity
  8
0
  0
POLYLINE
  5
4E1
100
AcDbEntity
  8
0
370
        15
  6
Continuous
 62
         7
100
AcDb2dPolyline
 66
         1
 10
0.0
 20
0.0
 30
0.0
 70
       128
  0
VERTEX
  5
4E2
100
AcDbEntity
  8
0
100
AcDbVertex
100
AcDb2dVertex
 10
368.1579460646
 20
229.3440832176
 30
0.0
  0
VERTEX
  5
4E3
100
AcDbEntity
  8
0
100
AcDbVertex
100
AcDb2dVertex
 10
368.3064272482
 20
229.5772201728
 30
0.0
  0
VERTEX
  5
4E4
100
AcDbEntity
  8
0
100
AcDbVertex
100
AcDb2dVertex
 10
368.4944132239
 20
229.7878947821
 30
0.0
  0
VERTEX
  5
4E5
100
AcDbEntity
  8
0
100
AcDbVertex
100
AcDb2dVertex
 10
368.7174620189
 20
229.9711289563
 30
0.0
  0
VERTEX
  5
4E6
100
AcDbEntity
  8
0
100
AcDbVertex
100
AcDb2dVertex
 10
368.9703031509
 20
230.1225930041
 30
0.0
  0
VERTEX
  5
4E7
100
AcDbEntity
  8
0
100
AcDbVertex
100
AcDb2dVertex
 10
369.2469621664
 20
230.2387079392
 30
0.0
  0
VERTEX
  5
4E8
100
AcDbEntity
  8
0
100
AcDbVertex
100
AcDb2dVertex
 10
369.5409018124
 20
230.3167300495
 30
0.0
  0
VERTEX
  5
4E9
100
AcDbEntity
  8
0
100
AcDbVertex
100
AcDb2dVertex
 10
369.845176507
 20
230.3548157287
 30
0.0
  0
VERTEX
  5
4EA
100
AcDbEntity
  8
0
100
AcDbVertex
100
AcDb2dVertex
 10
370.1525964587
 20
230.3520650398
 30
0.0
  0
SEQEND
  5
4EB
100
AcDbEntity
  8
0
  0
LINE
  5
4EC
100
AcDbEntity
  8
0
370
        15
  6
Continuous
 62
         7
100
AcDbLine
 10
371.9102215535
 20
230.2188943472
 30
0.0
 11
370.1525964587
 21
230.3520650398
 31
0.0
  0
POLYLINE
  5
4ED
100
AcDbEntity
  8
0
370
        15
  6
Continuous
 62
         7
100
AcDb2dPolyline
 66
         1
 10
0.0
 20
0.0
 30
0.0
 70
       128
  0
VERTEX
  5
4EE
100
AcDbEntity
  8
0
100
AcDbVertex
100
AcDb2dVertex
 10
373.1222734939
 20
228.9679490099
 30
0.0
  0
VERTEX
  5
4EF
100
AcDbEntity
  8
0
100
AcDbVertex
100
AcDb2dVertex
 10
373.1194223474
 20
229.194296432
 30
0.0
  0
VERTEX
  5
4F0
100
AcDbEntity
  8
0
100
AcDbVertex
100
AcDb2dVertex
 10
373.0656364975
 20
229.4158129415
 30
0.0
  0
VERTEX
  5
4F1
100
AcDbEntity
  8
0
100
AcDbVertex
100
AcDb2dVertex
 10
372.9629829041
 20
229.6239857834
 30
0.0
  0
VERTEX
  5
4F2
100
AcDbEntity
  8
0
100
AcDbVertex
100
AcDb2dVertex
 10
372.8154064873
 20
229.8108149919
 30
0.0
  0
VERTEX
  5
4F3
100
AcDbEntity
  8
0
100
AcDbVertex
100
AcDb2dVertex
 10
372.628578526
 20
229.9691208255
 30
0.0
  0
VERTEX
  5
4F4
100
AcDbEntity
  8
0
100
AcDbVertex
100
AcDb2dVertex
 10
372.4096787141
 20
230.0928196796
 30
0.0
  0
VERTEX
  5
4F5
100
AcDbEntity
  8
0
100
AcDbVertex
100
AcDb2dVertex
 10
372.1671192485
 20
230.1771578767
 30
0.0
  0
VERTEX
  5
4F6
100
AcDbEntity
  8
0
100
AcDbVertex
100
AcDb2dVertex
 10
371.9102215535
 20
230.2188943472
 30
0.0
  0
SEQEND
  5
4F7
100
AcDbEntity
  8
0
  0
LINE
  5
4F8
100
AcDbEntity
  8
0
370
        15
  6
Continuous
 62
         7
100
AcDbLine
 10
372.7155466944
 20
224.9418760701
 30
0.0
 11
373.1222734939
 21
228.9679490099
 31
0.0
  0
POLYLINE
  5
4F9
100
AcDbEntity
  8
0
370
        15
  6
Continuous
 62
         7
100
AcDb2dPolyline
 66
         1
 10
0.0
 20
0.0
 30
0.0
 70
       128
  0
VERTEX
  5
4FA
100
AcDbEntity
  8
0
100
AcDbVertex
100
AcDb2dVertex
 10
371.9933130672
 20
224.4170421846
 30
0.0
  0
VERTEX
  5
4FB
100
AcDbEntity
  8
0
100
AcDbVertex
100
AcDb2dVertex
 10
372.1239948123
 20
224.4182767672
 30
0.0
  0
VERTEX
  5
4FC
100
AcDbEntity
  8
0
100
AcDbVertex
100
AcDb2dVertex
 10
372.2518874287
 20
224.4415667234
 30
0.0
  0
VERTEX
  5
4FD
100
AcDbEntity
  8
0
100
AcDbVertex
100
AcDb2dVertex
 10
372.372076075
 20
224.4860170332
 30
0.0
  0
VERTEX
  5
4FE
100
AcDbEntity
  8
0
100
AcDbVertex
100
AcDb2dVertex
 10
372.4799419688
 20
224.5499194962
 30
0.0
  0
VERTEX
  5
4FF
100
AcDbEntity
  8
0
100
AcDbVertex
100
AcDb2dVertex
 10
372.5713398844
 20
224.6308183765
 30
0.0
  0
VERTEX
  5
500
100
AcDbEntity
  8
0
100
AcDbVertex
100
AcDb2dVertex
 10
372.6427574512
 20
224.7256047755
 30
0.0
  0
VERTEX
  5
501
100
AcDbEntity
  8
0
100
AcDbVertex
100
AcDb2dVertex
 10
372.691450132
 20
224.8306361051
 30
0.0
  0
VERTEX
  5
502
100
AcDbEntity
  8
0
100
AcDbVertex
100
AcDb2dVertex
 10
372.7155466944
 20
224.9418760701
 30
0.0
  0
SEQEND
  5
503
100
AcDbEntity
  8
0
  0
LINE
  5
504
100
AcDbEntity
  8
0
370
        15
  6
Continuous
 62
         7
100
AcDbLine
 10
371.3464380961
 20
224.4660542226
 30
0.0
 11
371.9933130672
 21
224.4170421846
 31
0.0
  0
POLYLINE
  5
505
100
AcDbEntity
  8
0
370
        15
  6
Continuous
 62
         7
100
AcDb2dPolyline
 66
         1
 10
0.0
 20
0.0
 30
0.0
 70
       128
  0
VERTEX
  5
506
100
AcDbEntity
  8
0
100
AcDbVertex
100
AcDb2dVertex
 10
370.1186409298
 20
223.4027506859
 30
0.0
  0
VERTEX
  5
507
100
AcDbEntity
  8
0
100
AcDbVertex
100
AcDb2dVertex
 10
370.1240240781
 20
223.6164045163
 30
0.0
  0
VERTEX
  5
508
100
AcDbEntity
  8
0
100
AcDbVertex
100
AcDb2dVertex
 10
370.1826766174
 20
223.8239848686
 30
0.0
  0
VERTEX
  5
509
100
AcDbEntity
  8
0
100
AcDbVertex
100
AcDb2dVertex
 10
370.2918179491
 20
224.0156507765
 30
0.0
  0
VERTEX
  5
50A
100
AcDbEntity
  8
0
100
AcDbVertex
100
AcDb2dVertex
 10
370.4462739023
 20
224.1823157453
 30
0.0
  0
VERTEX
  5
50B
100
AcDbEntity
  8
0
100
AcDbVertex
100
AcDb2dVertex
 10
370.6387220315
 20
224.3160785246
 30
0.0
  0
VERTEX
  5
50C
100
AcDbEntity
  8
0
100
AcDbVertex
100
AcDb2dVertex
 10
370.8600387586
 20
224.4105976904
 30
0.0
  0
VERTEX
  5
50D
100
AcDbEntity
  8
0
100
AcDbVertex
100
AcDb2dVertex
 10
371.0997319031
 20
224.4613922794
 30
0.0
  0
VERTEX
  5
50E
100
AcDbEntity
  8
0
100
AcDbVertex
100
AcDb2dVertex
 10
371.3464380961
 20
224.4660542226
 30
0.0
  0
SEQEND
  5
50F
100
AcDbEntity
  8
0
  0
LINE
  5
510
100
AcDbEntity
  8
0
370
        15
  6
Continuous
 62
         7
100
AcDbLine
 10
370.5529377114
 20
219.1037703331
 30
0.0
 11
370.1186409298
 21
223.4027506859
 31
0.0
  0
POLYLINE
  5
511
100
AcDbEntity
  8
0
370
        15
  6
Continuous
 62
         7
100
AcDb2dPolyline
 66
         1
 10
0.0
 20
0.0
 30
0.0
 70
       128
  0
VERTEX
  5
512
100
AcDbEntity
  8
0
100
AcDbVertex
100
AcDb2dVertex
 10
374.8026154309
 20
219.1037703331
 30
0.0
  0
VERTEX
  5
513
100
AcDbEntity
  8
0
100
AcDbVertex
100
AcDb2dVertex
 10
374.7054509663
 20
218.6915915813
 30
0.0
  0
VERTEX
  5
514
100
AcDbEntity
  8
0
100
AcDbVertex
100
AcDb2dVertex
 10
374.5031198563
 20
218.3091407808
 30
0.0
  0
VERTEX
  5
515
100
AcDbEntity
  8
0
100
AcDbVertex
100
AcDb2dVertex
 10
374.2061161348
 20
217.9762539902
 30
0.0
  0
VERTEX
  5
516
100
AcDbEntity
  8
0
100
AcDbVertex
100
AcDb2dVertex
 10
373.8298440922
 20
217.7101965982
 30
0.0
  0
VERTEX
  5
517
100
AcDbEntity
  8
0
100
AcDbVertex
100
AcDb2dVertex
 10
373.3938193216
 20
217.524767844
 30
0.0
  0
VERTEX
  5
518
100
AcDbEntity
  8
0
100
AcDbVertex
100
AcDb2dVertex
 10
372.9206565301
 20
217.4295851098
 30
0.0
  0
VERTEX
  5
519
100
AcDbEntity
  8
0
100
AcDbVertex
100
AcDb2dVertex
 10
372.4348966122
 20
217.4295851098
 30
0.0
  0
VERTEX
  5
51A
100
AcDbEntity
  8
0
100
AcDbVertex
100
AcDb2dVertex
 10
371.9617338207
 20
217.524767844
 30
0.0
  0
VERTEX
  5
51B
100
AcDbEntity
  8
0
100
AcDbVertex
100
AcDb2dVertex
 10
371.5257090501
 20
217.7101965982
 30
0.0
  0
VERTEX
  5
51C
100
AcDbEntity
  8
0
100
AcDbVertex
100
AcDb2dVertex
 10
371.1494370075
 20
217.9762539902
 30
0.0
  0
VERTEX
  5
51D
100
AcDbEntity
  8
0
100
AcDbVertex
100
AcDb2dVertex
 10
370.852433286
 20
218.3091407808
 30
0.0
  0
VERTEX
  5
51E
100
AcDbEntity
  8
0
100
AcDbVertex
100
AcDb2dVertex
 10
370.6501021759
 20
218.6915915813
 30
0.0
  0
VERTEX
  5
51F
100
AcDbEntity
  8
0
100
AcDbVertex
100
AcDb2dVertex
 10
370.5529377114
 20
219.1037703331
 30
0.0
  0
SEQEND
  5
520
100
AcDbEntity
  8
0
  0
LINE
  5
521
100
AcDbEntity
  8
0
370
        15
  6
Continuous
 62
         7
100
AcDbLine
 10
375.9240522601
 20
230.2045546365
 30
0.0
 11
374.8026154309
 21
219.1037703331
 31
0.0
  0
POLYLINE
  5
522
100
AcDbEntity
  8
0
370
        15
  6
Continuous
 62
         7
100
AcDb2dPolyline
 66
         1
 10
0.0
 20
0.0
 30
0.0
 70
       128
  0
VERTEX
  5
523
100
AcDbEntity
  8
0
100
AcDbVertex
100
AcDb2dVertex
 10
372.8939224089
 20
233.3319179797
 30
0.0
  0
VERTEX
  5
524
100
AcDbEntity
  8
0
100
AcDbVertex
100
AcDb2dVertex
 10
373.5361666465
 20
233.2275768035
 30
0.0
  0
VERTEX
  5
525
100
AcDbEntity
  8
0
100
AcDbVertex
100
AcDb2dVertex
 10
374.1425653106
 20
233.0167313107
 30
0.0
  0
VERTEX
  5
526
100
AcDbEntity
  8
0
100
AcDbVertex
100
AcDb2dVertex
 10
374.6898148404
 20
232.7074841754
 30
0.0
  0
VERTEX
  5
527
100
AcDbEntity
  8
0
100
AcDbVertex
100
AcDb2dVertex
 10
375.1568847435
 20
232.3117195916
 30
0.0
  0
VERTEX
  5
528
100
AcDbEntity
  8
0
100
AcDbVertex
100
AcDb2dVertex
 10
375.5258257855
 20
231.8446465703
 30
0.0
  0
VERTEX
  5
529
100
AcDbEntity
  8
0
100
AcDbVertex
100
AcDb2dVertex
 10
375.7824597689
 20
231.3242144656
 30
0.0
  0
VERTEX
  5
52A
100
AcDbEntity
  8
0
100
AcDbVertex
100
AcDb2dVertex
 10
375.9169243938
 20
230.7704231917
 30
0.0
  0
VERTEX
  5
52B
100
AcDbEntity
  8
0
100
AcDbVertex
100
AcDb2dVertex
 10
375.9240522601
 20
230.2045546365
 30
0.0
  0
SEQEND
  5
52C
100
AcDbEntity
  8
0
  0
LINE
  5
52D
100
AcDbEntity
  8
0
370
        15
  6
Continuous
 62
         7
100
AcDbLine
 10
341.9039153108
 20
235.6799504033
 30
0.0
 11
372.8939224089
 21
233.3319179797
 31
0.0
  0
POLYLINE
  5
52E
100
AcDbEntity
  8
0
370
        15
  6
Continuous
 62
         7
100
AcDb2dPolyline
 66
         1
 10
0.0
 20
0.0
 30
0.0
 70
       128
  0
VERTEX
  5
52F
100
AcDbEntity
  8
0
100
AcDbVertex
100
AcDb2dVertex
 10
318.0196716911
 20
241.5038358587
 30
0.0
  0
VERTEX
  5
530
100
AcDbEntity
  8
0
100
AcDbVertex
100
AcDb2dVertex
 10
320.5275113702
 20
240.4791297217
 30
0.0
  0
VERTEX
  5
531
100
AcDbEntity
  8
0
100
AcDbVertex
100
AcDb2dVertex
 10
323.0823866446
 20
239.54562728
 30
0.0
  0
VERTEX
  5
532
100
AcDbEntity
  8
0
100
AcDbVertex
100
AcDb2dVertex
 10
325.6798773494
 20
238.7049435771
 30
0.0
  0
VERTEX
  5
533
100
AcDbEntity
  8
0
100
AcDbVertex
100
AcDb2dVertex
 10
328.3154895912
 20
237.9585330716
 30
0.0
  0
VERTEX
  5
534
100
AcDbEntity
  8
0
100
AcDbVertex
100
AcDb2dVertex
 10
330.984663523
 20
237.3076871212
 30
0.0
  0
VERTEX
  5
535
100
AcDbEntity
  8
0
100
AcDbVertex
100
AcDb2dVertex
 10
333.6827812327
 20
236.7535317481
 30
0.0
  0
VERTEX
  5
536
100
AcDbEntity
  8
0
100
AcDbVertex
100
AcDb2dVertex
 10
336.4051747334
 20
236.297025691
 30
0.0
  0
VERTEX
  5
537
100
AcDbEntity
  8
0
100
AcDbVertex
100
AcDb2dVertex
 10
339.1471340385
 20
235.9389587467
 30
0.0
  0
VERTEX
  5
538
100
AcDbEntity
  8
0
100
AcDbVertex
100
AcDb2dVertex
 10
341.9039153108
 20
235.6799504033
 30
0.0
  0
SEQEND
  5
539
100
AcDbEntity
  8
0
  0
POLYLINE
  5
53A
100
AcDbEntity
  8
0
370
        15
  6
Continuous
 62
         7
100
AcDb2dPolyline
 66
         1
 10
0.0
 20
0.0
 30
0.0
 70
       128
  0
VERTEX
  5
53B
100
AcDbEntity
  8
0
100
AcDbVertex
100
AcDb2dVertex
 10
307.2817394624
 20
240.6925111972
 30
0.0
  0
VERTEX
  5
53C
100
AcDbEntity
  8
0
100
AcDbVertex
100
AcDb2dVertex
 10
308.2292264709
 20
241.23107779
 30
0.0
  0
VERTEX
  5
53D
100
AcDbEntity
  8
0
100
AcDbVertex
100
AcDb2dVertex
 10
309.239119224
 20
241.6765440275
 30
0.0
  0
VERTEX
  5
53E
100
AcDbEntity
  8
0
100
AcDbVertex
100
AcDb2dVertex
 10
310.2992693399
 20
242.0235512279
 30
0.0
  0
VERTEX
  5
53F
100
AcDbEntity
  8
0
100
AcDbVertex
100
AcDb2dVertex
 10
311.396923872
 20
242.2679251104
 30
0.0
  0
VERTEX
  5
540
100
AcDbEntity
  8
0
100
AcDbVertex
100
AcDb2dVertex
 10
312.5188787189
 20
242.4067260091
 30
0.0
  0
VERTEX
  5
541
100
AcDbEntity
  8
0
100
AcDbVertex
100
AcDb2dVertex
 10
313.6516374615
 20
242.4382842355
 30
0.0
  0
VERTEX
  5
542
100
AcDbEntity
  8
0
100
AcDbVertex
100
AcDb2dVertex
 10
314.7815737166
 20
242.3622201638
 30
0.0
  0
VERTEX
  5
543
100
AcDbEntity
  8
0
100
AcDbVertex
100
AcDb2dVertex
 10
315.8950950536
 20
242.1794487974
 30
0.0
  0
VERTEX
  5
544
100
AcDbEntity
  8
0
100
AcDbVertex
100
AcDb2dVertex
 10
316.9788065033
 20
241.8921687623
 30
0.0
  0
VERTEX
  5
545
100
AcDbEntity
  8
0
100
AcDbVertex
100
AcDb2dVertex
 10
318.0196716911
 20
241.5038358587
 30
0.0
  0
SEQEND
  5
546
100
AcDbEntity
  8
0
  0
POLYLINE
  5
547
100
AcDbEntity
  8
0
370
        15
  6
Continuous
 62
         7
100
AcDb2dPolyline
 66
         1
 10
0.0
 20
0.0
 30
0.0
 70
       128
  0
VERTEX
  5
548
100
AcDbEntity
  8
0
100
AcDbVertex
100
AcDb2dVertex
 10
305.7308077492
 20
240.3830145463
 30
0.0
  0
VERTEX
  5
549
100
AcDbEntity
  8
0
100
AcDbVertex
100
AcDb2dVertex
 10
305.9335600213
 20
240.3597739097
 30
0.0
  0
VERTEX
  5
54A
100
AcDbEntity
  8
0
100
AcDbVertex
100
AcDb2dVertex
 10
306.1379928513
 20
240.3545870425
 30
0.0
  0
VERTEX
  5
54B
100
AcDbEntity
  8
0
100
AcDbVertex
100
AcDb2dVertex
 10
306.3419684517
 20
240.3675081847
 30
0.0
  0
VERTEX
  5
54C
100
AcDbEntity
  8
0
100
AcDbVertex
100
AcDb2dVertex
 10
306.5433538162
 20
240.3984022177
 30
0.0
  0
VERTEX
  5
54D
100
AcDbEntity
  8
0
100
AcDbVertex
100
AcDb2dVertex
 10
306.7400430253
 20
240.4469460776
 30
0.0
  0
VERTEX
  5
54E
100
AcDbEntity
  8
0
100
AcDbVertex
100
AcDb2dVertex
 10
306.9299792678
 20
240.5126321333
 30
0.0
  0
VERTEX
  5
54F
100
AcDbEntity
  8
0
100
AcDbVertex
100
AcDb2dVertex
 10
307.1111763493
 20
240.5947734951
 30
0.0
  0
VERTEX
  5
550
100
AcDbEntity
  8
0
100
AcDbVertex
100
AcDb2dVertex
 10
307.2817394624
 20
240.6925111972
 30
0.0
  0
SEQEND
  5
551
100
AcDbEntity
  8
0
  0
LINE
  5
552
100
AcDbEntity
  8
0
370
        15
  6
Continuous
 62
         7
100
AcDbLine
 10
305.7308077492
 20
240.3830145463
 30
0.0
 11
300.3617682375
 21
241.2423202669
 31
0.0
  0
POLYLINE
  5
553
100
AcDbEntity
  8
0
370
        15
  6
Continuous
 62
         7
100
AcDb2dPolyline
 66
         1
 10
0.0
 20
0.0
 30
0.0
 70
       128
  0
VERTEX
  5
554
100
AcDbEntity
  8
0
100
AcDbVertex
100
AcDb2dVertex
 10
300.3617682375
 20
241.2423202669
 30
0.0
  0
VERTEX
  5
555
100
AcDbEntity
  8
0
100
AcDbVertex
100
AcDb2dVertex
 10
299.6635916361
 20
241.2999137531
 30
0.0
  0
VERTEX
  5
556
100
AcDbEntity
  8
0
100
AcDbVertex
100
AcDb2dVertex
 10
298.9645313387
 20
241.2510163075
 30
0.0
  0
VERTEX
  5
557
100
AcDbEntity
  8
0
100
AcDbVertex
100
AcDb2dVertex
 10
298.2860779115
 20
241.0971311392
 30
0.0
  0
VERTEX
  5
558
100
AcDbEntity
  8
0
100
AcDbVertex
100
AcDb2dVertex
 10
297.6490884225
 20
240.842988998
 30
0.0
  0
VERTEX
  5
559
100
AcDbEntity
  8
0
100
AcDbVertex
100
AcDb2dVertex
 10
297.0731452523
 20
240.4964027415
 30
0.0
  0
VERTEX
  5
55A
100
AcDbEntity
  8
0
100
AcDbVertex
100
AcDb2dVertex
 10
296.5759540906
 20
240.0680271514
 30
0.0
  0
VERTEX
  5
55B
100
AcDbEntity
  8
0
100
AcDbVertex
100
AcDb2dVertex
 10
296.1727996268
 20
239.5710313833
 30
0.0
  0
VERTEX
  5
55C
100
AcDbEntity
  8
0
100
AcDbVertex
100
AcDb2dVertex
 10
295.876075667
 20
239.0206941199
 30
0.0
  0
VERTEX
  5
55D
100
AcDbEntity
  8
0
100
AcDbVertex
100
AcDb2dVertex
 10
295.6949041221
 20
238.4339338723
 30
0.0
  0
VERTEX
  5
55E
100
AcDbEntity
  8
0
100
AcDbVertex
100
AcDb2dVertex
 10
295.6348545819
 20
237.8287888696
 30
0.0
  0
VERTEX
  5
55F
100
AcDbEntity
  8
0
100
AcDbVertex
100
AcDb2dVertex
 10
295.6977730941
 20
237.2238625267
 30
0.0
  0
VERTEX
  5
560
100
AcDbEntity
  8
0
100
AcDbVertex
100
AcDb2dVertex
 10
295.8817254128
 20
236.6377515364
 30
0.0
  0
VERTEX
  5
561
100
AcDbEntity
  8
0
100
AcDbVertex
100
AcDb2dVertex
 10
296.1810564616
 20
236.0884741682
 30
0.0
  0
VERTEX
  5
562
100
AcDbEntity
  8
0
100
AcDbVertex
100
AcDb2dVertex
 10
296.5865641821
 20
235.59291635
 30
0.0
  0
VERTEX
  5
563
100
AcDbEntity
  8
0
100
AcDbVertex
100
AcDb2dVertex
 10
297.0857824242
 20
235.1663125587
 30
0.0
  0
VERTEX
  5
564
100
AcDbEntity
  8
0
100
AcDbVertex
100
AcDb2dVertex
 10
297.6633641819
 20
234.8217774813
 30
0.0
  0
SEQEND
  5
565
100
AcDbEntity
  8
0
  0
LINE
  5
566
100
AcDbEntity
  8
0
370
        15
  6
Continuous
 62
         7
100
AcDbLine
 10
297.6633641819
 20
234.8217774813
 30
0.0
 11
302.4140871429
 21
232.4912584851
 31
0.0
  0
POLYLINE
  5
567
100
AcDbEntity
  8
0
370
        15
  6
Continuous
 62
         7
100
AcDb2dPolyline
 66
         1
 10
0.0
 20
0.0
 30
0.0
 70
       128
  0
VERTEX
  5
568
100
AcDbEntity
  8
0
100
AcDbVertex
100
AcDb2dVertex
 10
303.3724529311
 20
231.3908125195
 30
0.0
  0
VERTEX
  5
569
100
AcDbEntity
  8
0
100
AcDbVertex
100
AcDb2dVertex
 10
303.314337587
 20
231.5606313794
 30
0.0
  0
VERTEX
  5
56A
100
AcDbEntity
  8
0
100
AcDbVertex
100
AcDb2dVertex
 10
303.2365001224
 20
231.7244223648
 30
0.0
  0
VERTEX
  5
56B
100
AcDbEntity
  8
0
100
AcDbVertex
100
AcDb2dVertex
 10
303.1397544965
 20
231.8804726867
 30
0.0
  0
VERTEX
  5
56C
100
AcDbEntity
  8
0
100
AcDbVertex
100
AcDb2dVertex
 10
303.025112394
 20
232.0271505014
 30
0.0
  0
VERTEX
  5
56D
100
AcDbEntity
  8
0
100
AcDbVertex
100
AcDb2dVertex
 10
302.8937726462
 20
232.162921975
 30
0.0
  0
VERTEX
  5
56E
100
AcDbEntity
  8
0
100
AcDbVertex
100
AcDb2dVertex
 10
302.7471086941
 20
232.286367323
 30
0.0
  0
VERTEX
  5
56F
100
AcDbEntity
  8
0
100
AcDbVertex
100
AcDb2dVertex
 10
302.5866542268
 20
232.3961956573
 30
0.0
  0
VERTEX
  5
570
100
AcDbEntity
  8
0
100
AcDbVertex
100
AcDb2dVertex
 10
302.4140871429
 20
232.4912584851
 30
0.0
  0
SEQEND
  5
571
100
AcDbEntity
  8
0
  0
POLYLINE
  5
572
100
AcDbEntity
  8
0
370
        15
  6
Continuous
 62
         7
100
AcDb2dPolyline
 66
         1
 10
0.0
 20
0.0
 30
0.0
 70
       128
  0
VERTEX
  5
573
100
AcDbEntity
  8
0
100
AcDbVertex
100
AcDb2dVertex
 10
312.7772006688
 20
224.5599031575
 30
0.0
  0
VERTEX
  5
574
100
AcDbEntity
  8
0
100
AcDbVertex
100
AcDb2dVertex
 10
311.6897176175
 20
224.6686416741
 30
0.0
  0
VERTEX
  5
575
100
AcDbEntity
  8
0
100
AcDbVertex
100
AcDb2dVertex
 10
310.6216201959
 20
224.8764024228
 30
0.0
  0
VERTEX
  5
576
100
AcDbEntity
  8
0
100
AcDbVertex
100
AcDb2dVertex
 10
309.5848958396
 20
225.1808536699
 30
0.0
  0
VERTEX
  5
577
100
AcDbEntity
  8
0
100
AcDbVertex
100
AcDb2dVertex
 10
308.5911798788
 20
225.5785785083
 30
0.0
  0
VERTEX
  5
578
100
AcDbEntity
  8
0
100
AcDbVertex
100
AcDb2dVertex
 10
307.6516249535
 20
226.0651132058
 30
0.0
  0
VERTEX
  5
579
100
AcDbEntity
  8
0
100
AcDbVertex
100
AcDb2dVertex
 10
306.7767758453
 20
226.6349973024
 30
0.0
  0
VERTEX
  5
57A
100
AcDbEntity
  8
0
100
AcDbVertex
100
AcDb2dVertex
 10
305.9764511316
 20
227.2818348938
 30
0.0
  0
VERTEX
  5
57B
100
AcDbEntity
  8
0
100
AcDbVertex
100
AcDb2dVertex
 10
305.2596329902
 20
227.9983664139
 30
0.0
  0
VERTEX
  5
57C
100
AcDbEntity
  8
0
100
AcDbVertex
100
AcDb2dVertex
 10
304.6343663907
 20
228.7765501099
 30
0.0
  0
VERTEX
  5
57D
100
AcDbEntity
  8
0
100
AcDbVertex
100
AcDb2dVertex
 10
304.1076688042
 20
229.6076522964
 30
0.0
  0
VERTEX
  5
57E
100
AcDbEntity
  8
0
100
AcDbVertex
100
AcDb2dVertex
 10
303.6854514458
 20
230.4823453751
 30
0.0
  0
VERTEX
  5
57F
100
AcDbEntity
  8
0
100
AcDbVertex
100
AcDb2dVertex
 10
303.3724529311
 20
231.3908125195
 30
0.0
  0
SEQEND
  5
580
100
AcDbEntity
  8
0
  0
LINE
  5
581
100
AcDbEntity
  8
0
370
        15
  6
Continuous
 62
         7
100
AcDbLine
 10
387.0709234809
 20
237.3203053
 30
0.0
 11
387.0709234809
 21
233.9869719667
 31
0.0
  0
LINE
  5
582
100
AcDbEntity
  8
0
370
        15
  6
Continuous
 62
         7
100
AcDbLine
 10
374.9927013761
 20
194.9495444589
 30
0.0
 11
387.0709234809
 21
233.9869719667
 31
0.0
  0
POLYLINE
  5
583
100
AcDbEntity
  8
0
370
        15
  6
Continuous
 62
         7
100
AcDb2dPolyline
 66
         1
 10
0.0
 20
0.0
 30
0.0
 70
       128
  0
VERTEX
  5
584
100
AcDbEntity
  8
0
100
AcDbVertex
100
AcDb2dVertex
 10
373.235130545
 20
204.0206122708
 30
0.0
  0
VERTEX
  5
585
100
AcDbEntity
  8
0
100
AcDbVertex
100
AcDb2dVertex
 10
373.0853548467
 20
204.2445731388
 30
0.0
  0
VERTEX
  5
586
100
AcDbEntity
  8
0
100
AcDbVertex
100
AcDb2dVertex
 10
372.7071455319
 20
204.6646921191
 30
0.0
  0
VERTEX
  5
587
100
AcDbEntity
  8
0
100
AcDbVertex
100
AcDb2dVertex
 10
372.2462369246
 20
205.0174726652
 30
0.0
  0
VERTEX
  5
588
100
AcDbEntity
  8
0
100
AcDbVertex
100
AcDb2dVertex
 10
371.7183247144
 20
205.2909012586
 30
0.0
  0
VERTEX
  5
589
100
AcDbEntity
  8
0
100
AcDbVertex
100
AcDb2dVertex
 10
371.1413863186
 20
205.4756666165
 30
0.0
  0
VERTEX
  5
58A
100
AcDbEntity
  8
0
100
AcDbVertex
100
AcDb2dVertex
 10
370.5350686822
 20
205.5654767764
 30
0.0
  0
VERTEX
  5
58B
100
AcDbEntity
  8
0
100
AcDbVertex
100
AcDb2dVertex
 10
369.9200192252
 20
205.5572733609
 30
0.0
  0
VERTEX
  5
58C
100
AcDbEntity
  8
0
100
AcDbVertex
100
AcDb2dVertex
 10
369.3171827192
 20
205.4513357274
 30
0.0
  0
VERTEX
  5
58D
100
AcDbEntity
  8
0
100
AcDbVertex
100
AcDb2dVertex
 10
368.7470880383
 20
205.2512714551
 30
0.0
  0
VERTEX
  5
58E
100
AcDbEntity
  8
0
100
AcDbVertex
100
AcDb2dVertex
 10
368.2291490732
 20
204.9638934928
 30
0.0
  0
VERTEX
  5
58F
100
AcDbEntity
  8
0
100
AcDbVertex
100
AcDb2dVertex
 10
367.781003614
 20
204.5989881523
 30
0.0
  0
VERTEX
  5
590
100
AcDbEntity
  8
0
100
AcDbVertex
100
AcDb2dVertex
 10
367.417912717
 20
204.1689818473
 30
0.0
  0
VERTEX
  5
591
100
AcDbEntity
  8
0
100
AcDbVertex
100
AcDb2dVertex
 10
367.3221817914
 20
204.0206122708
 30
0.0
  0
SEQEND
  5
592
100
AcDbEntity
  8
0
  0
LINE
  5
593
100
AcDbEntity
  8
0
370
        15
  6
Continuous
 62
         7
100
AcDbLine
 10
365.291111999
 20
212.1505240094
 30
0.0
 11
365.291111999
 21
213.8171906761
 31
0.0
  0
POLYLINE
  5
594
100
AcDbEntity
  8
0
370
        15
  6
Continuous
 62
         7
100
AcDb2dPolyline
 66
         1
 10
0.0
 20
0.0
 30
0.0
 70
       128
  0
VERTEX
  5
595
100
AcDbEntity
  8
0
100
AcDbVertex
100
AcDb2dVertex
 10
365.291111999
 20
212.1505240094
 30
0.0
  0
VERTEX
  5
596
100
AcDbEntity
  8
0
100
AcDbVertex
100
AcDb2dVertex
 10
365.2773219565
 20
212.0101194771
 30
0.0
  0
VERTEX
  5
597
100
AcDbEntity
  8
0
100
AcDbVertex
100
AcDb2dVertex
 10
365.2375174079
 20
211.8251060237
 30
0.0
  0
VERTEX
  5
598
100
AcDbEntity
  8
0
100
AcDbVertex
100
AcDb2dVertex
 10
365.1761602769
 20
211.6162155324
 30
0.0
  0
VERTEX
  5
599
100
AcDbEntity
  8
0
100
AcDbVertex
100
AcDb2dVertex
 10
365.1000491771
 20
211.4066852918
 30
0.0
  0
VERTEX
  5
59A
100
AcDbEntity
  8
0
100
AcDbVertex
100
AcDb2dVertex
 10
365.0491343524
 20
211.2868377103
 30
0.0
  0
VERTEX
  5
59B
100
AcDbEntity
  8
0
100
AcDbVertex
100
AcDb2dVertex
 10
365.0454719896
 20
211.278776099
 30
0.0
  0
SEQEND
  5
59C
100
AcDbEntity
  8
0
  0
POLYLINE
  5
59D
100
AcDbEntity
  8
0
370
        15
  6
Continuous
 62
         7
100
AcDb2dPolyline
 66
         1
 10
0.0
 20
0.0
 30
0.0
 70
       128
  0
VERTEX
  5
59E
100
AcDbEntity
  8
0
100
AcDbVertex
100
AcDb2dVertex
 10
363.7927367108
 20
220.6178022403
 30
0.0
  0
VERTEX
  5
59F
100
AcDbEntity
  8
0
100
AcDbVertex
100
AcDb2dVertex
 10
363.6826417931
 20
220.7152475049
 30
0.0
  0
VERTEX
  5
5A0
100
AcDbEntity
  8
0
100
AcDbVertex
100
AcDb2dVertex
 10
363.232279855
 20
221.0224513747
 30
0.0
  0
VERTEX
  5
5A1
100
AcDbEntity
  8
0
100
AcDbVertex
100
AcDb2dVertex
 10
362.7197305354
 20
221.2448553322
 30
0.0
  0
VERTEX
  5
5A2
100
AcDbEntity
  8
0
100
AcDbVertex
100
AcDb2dVertex
 10
362.1659776637
 20
221.3733541333
 30
0.0
  0
VERTEX
  5
5A3
100
AcDbEntity
  8
0
100
AcDbVertex
100
AcDb2dVertex
 10
361.5936919475
 20
221.4026870219
 30
0.0
  0
VERTEX
  5
5A4
100
AcDbEntity
  8
0
100
AcDbVertex
100
AcDb2dVertex
 10
361.0263028313
 20
221.3316531062
 30
0.0
  0
VERTEX
  5
5A5
100
AcDbEntity
  8
0
100
AcDbVertex
100
AcDb2dVertex
 10
360.4870392921
 20
221.1631605231
 30
0.0
  0
VERTEX
  5
5A6
100
AcDbEntity
  8
0
100
AcDbVertex
100
AcDb2dVertex
 10
359.9979788427
 20
220.9041073785
 30
0.0
  0
VERTEX
  5
5A7
100
AcDbEntity
  8
0
100
AcDbVertex
100
AcDb2dVertex
 10
359.6338550947
 20
220.6178022403
 30
0.0
  0
SEQEND
  5
5A8
100
AcDbEntity
  8
0
  0
POLYLINE
  5
5A9
100
AcDbEntity
  8
0
370
        15
  6
Continuous
 62
         7
100
AcDb2dPolyline
 66
         1
 10
0.0
 20
0.0
 30
0.0
 70
       128
  0
VERTEX
  5
5AA
100
AcDbEntity
  8
0
100
AcDbVertex
100
AcDb2dVertex
 10
303.4747139927
 20
234.263535496
 30
0.0
  0
VERTEX
  5
5AB
100
AcDbEntity
  8
0
100
AcDbVertex
100
AcDb2dVertex
 10
303.43577105
 20
234.1411489455
 30
0.0
  0
VERTEX
  5
5AC
100
AcDbEntity
  8
0
100
AcDbVertex
100
AcDb2dVertex
 10
303.211805847
 20
233.2299057183
 30
0.0
  0
VERTEX
  5
5AD
100
AcDbEntity
  8
0
100
AcDbVertex
100
AcDb2dVertex
 10
303.0984498588
 20
232.3034353501
 30
0.0
  0
VERTEX
  5
5AE
100
AcDbEntity
  8
0
100
AcDbVertex
100
AcDb2dVertex
 10
303.0877043001
 20
232.0749956423
 30
0.0
  0
SEQEND
  5
5AF
100
AcDbEntity
  8
0
  0
POLYLINE
  5
5B0
100
AcDbEntity
  8
0
370
        15
  6
Continuous
 62
         7
100
AcDb2dPolyline
 66
         1
 10
0.0
 20
0.0
 30
0.0
 70
       128
  0
VERTEX
  5
5B1
100
AcDbEntity
  8
0
100
AcDbVertex
100
AcDb2dVertex
 10
303.0930303406
 20
231.9442068119
 30
0.0
  0
VERTEX
  5
5B2
100
AcDbEntity
  8
0
100
AcDbVertex
100
AcDb2dVertex
 10
303.0866142352
 20
232.1114313704
 30
0.0
  0
VERTEX
  5
5B3
100
AcDbEntity
  8
0
100
AcDbVertex
100
AcDb2dVertex
 10
303.1189748251
 20
233.0640968405
 30
0.0
  0
VERTEX
  5
5B4
100
AcDbEntity
  8
0
100
AcDbVertex
100
AcDb2dVertex
 10
303.2681423216
 20
234.0083789474
 30
0.0
  0
VERTEX
  5
5B5
100
AcDbEntity
  8
0
100
AcDbVertex
100
AcDb2dVertex
 10
303.5324247704
 20
234.9335670333
 30
0.0
  0
VERTEX
  5
5B6
100
AcDbEntity
  8
0
100
AcDbVertex
100
AcDb2dVertex
 10
303.9088245094
 20
235.8291670173
 30
0.0
  0
VERTEX
  5
5B7
100
AcDbEntity
  8
0
100
AcDbVertex
100
AcDb2dVertex
 10
304.3930721696
 20
236.6850204256
 30
0.0
  0
VERTEX
  5
5B8
100
AcDbEntity
  8
0
100
AcDbVertex
100
AcDb2dVertex
 10
304.9796751011
 20
237.4914196161
 30
0.0
  0
VERTEX
  5
5B9
100
AcDbEntity
  8
0
100
AcDbVertex
100
AcDb2dVertex
 10
305.6619796745
 20
238.2392178882
 30
0.0
  0
VERTEX
  5
5BA
100
AcDbEntity
  8
0
100
AcDbVertex
100
AcDb2dVertex
 10
306.4322467505
 20
238.9199332307
 30
0.0
  0
VERTEX
  5
5BB
100
AcDbEntity
  8
0
100
AcDbVertex
100
AcDb2dVertex
 10
307.2817394624
 20
239.5258445305
 30
0.0
  0
SEQEND
  5
5BC
100
AcDbEntity
  8
0
  0
LINE
  5
5BD
100
AcDbEntity
  8
0
370
        15
  6
Continuous
 62
         7
100
AcDbLine
 10
320.7503379216
 20
231.8249956424
 30
0.0
 11
320.7450291211
 21
231.5833850699
 31
0.0
  0
LINE
  5
5BE
100
AcDbEntity
  8
0
370
        15
  6
Continuous
 62
         7
100
AcDbLine
 10
373.1273472298
 20
227.4019211263
 30
0.0
 11
373.1222734939
 21
227.3012823432
 31
0.0
  0
POLYLINE
  5
5BF
100
AcDbEntity
  8
0
370
        15
  6
Continuous
 62
         7
100
AcDb2dPolyline
 66
         1
 10
0.0
 20
0.0
 30
0.0
 70
       128
  0
VERTEX
  5
5C0
100
AcDbEntity
  8
0
100
AcDbVertex
100
AcDb2dVertex
 10
315.4964453963
 20
231.8249956424
 30
0.0
  0
VERTEX
  5
5C1
100
AcDbEntity
  8
0
100
AcDbVertex
100
AcDb2dVertex
 10
315.3863504787
 20
231.922440907
 30
0.0
  0
VERTEX
  5
5C2
100
AcDbEntity
  8
0
100
AcDbVertex
100
AcDb2dVertex
 10
314.9359885406
 20
232.2296447768
 30
0.0
  0
VERTEX
  5
5C3
100
AcDbEntity
  8
0
100
AcDbVertex
100
AcDb2dVertex
 10
314.4234392209
 20
232.4520487343
 30
0.0
  0
VERTEX
  5
5C4
100
AcDbEntity
  8
0
100
AcDbVertex
100
AcDb2dVertex
 10
313.8696863492
 20
232.5805475354
 30
0.0
  0
VERTEX
  5
5C5
100
AcDbEntity
  8
0
100
AcDbVertex
100
AcDb2dVertex
 10
313.297400633
 20
232.609880424
 30
0.0
  0
VERTEX
  5
5C6
100
AcDbEntity
  8
0
100
AcDbVertex
100
AcDb2dVertex
 10
312.7300115168
 20
232.5388465083
 30
0.0
  0
VERTEX
  5
5C7
100
AcDbEntity
  8
0
100
AcDbVertex
100
AcDb2dVertex
 10
312.1907479776
 20
232.3703539252
 30
0.0
  0
VERTEX
  5
5C8
100
AcDbEntity
  8
0
100
AcDbVertex
100
AcDb2dVertex
 10
311.7016875282
 20
232.1113007806
 30
0.0
  0
VERTEX
  5
5C9
100
AcDbEntity
  8
0
100
AcDbVertex
100
AcDb2dVertex
 10
311.3375637803
 20
231.8249956424
 30
0.0
  0
SEQEND
  5
5CA
100
AcDbEntity
  8
0
  0
POLYLINE
  5
5CB
100
AcDbEntity
  8
0
370
        15
  6
Continuous
 62
         7
100
AcDb2dPolyline
 66
         1
 10
0.0
 20
0.0
 30
0.0
 70
       128
  0
VERTEX
  5
5CC
100
AcDbEntity
  8
0
100
AcDbVertex
100
AcDb2dVertex
 10
298.9446620298
 20
234.4385247791
 30
0.0
  0
VERTEX
  5
5CD
100
AcDbEntity
  8
0
100
AcDbVertex
100
AcDb2dVertex
 10
298.4242048175
 20
234.611543496
 30
0.0
  0
VERTEX
  5
5CE
100
AcDbEntity
  8
0
100
AcDbVertex
100
AcDb2dVertex
 10
297.9566584406
 20
234.8744932022
 30
0.0
  0
VERTEX
  5
5CF
100
AcDbEntity
  8
0
100
AcDbVertex
100
AcDb2dVertex
 10
297.5624569195
 20
235.2158817336
 30
0.0
  0
VERTEX
  5
5D0
100
AcDbEntity
  8
0
100
AcDbVertex
100
AcDb2dVertex
 10
297.2588287523
 20
235.6207887734
 30
0.0
  0
VERTEX
  5
5D1
100
AcDbEntity
  8
0
100
AcDbVertex
100
AcDb2dVertex
 10
297.0590439467
 20
236.0715179409
 30
0.0
  0
VERTEX
  5
5D2
100
AcDbEntity
  8
0
100
AcDbVertex
100
AcDb2dVertex
 10
296.9718340574
 20
236.5483702087
 30
0.0
  0
VERTEX
  5
5D3
100
AcDbEntity
  8
0
100
AcDbVertex
100
AcDb2dVertex
 10
297.0010105752
 20
237.0305048444
 30
0.0
  0
VERTEX
  5
5D4
100
AcDbEntity
  8
0
100
AcDbVertex
100
AcDb2dVertex
 10
297.1452983461
 20
237.4968502509
 30
0.0
  0
VERTEX
  5
5D5
100
AcDbEntity
  8
0
100
AcDbVertex
100
AcDb2dVertex
 10
297.3983913022
 20
237.9270248963
 30
0.0
  0
VERTEX
  5
5D6
100
AcDbEntity
  8
0
100
AcDbVertex
100
AcDb2dVertex
 10
297.7492280669
 20
238.3022280842
 30
0.0
  0
VERTEX
  5
5D7
100
AcDbEntity
  8
0
100
AcDbVertex
100
AcDb2dVertex
 10
298.1824753901
 20
238.606061635
 30
0.0
  0
VERTEX
  5
5D8
100
AcDbEntity
  8
0
100
AcDbVertex
100
AcDb2dVertex
 10
298.6791982846
 20
238.8252465646
 30
0.0
  0
VERTEX
  5
5D9
100
AcDbEntity
  8
0
100
AcDbVertex
100
AcDb2dVertex
 10
299.2176875767
 20
238.9502034396
 30
0.0
  0
VERTEX
  5
5DA
100
AcDbEntity
  8
0
100
AcDbVertex
100
AcDb2dVertex
 10
299.7744087001
 20
238.9754710452
 30
0.0
  0
VERTEX
  5
5DB
100
AcDbEntity
  8
0
100
AcDbVertex
100
AcDb2dVertex
 10
300.3250302704
 20
238.8999450657
 30
0.0
  0
VERTEX
  5
5DC
100
AcDbEntity
  8
0
100
AcDbVertex
100
AcDb2dVertex
 10
300.8454874827
 20
238.7269263487
 30
0.0
  0
VERTEX
  5
5DD
100
AcDbEntity
  8
0
100
AcDbVertex
100
AcDb2dVertex
 10
301.3130338596
 20
238.4639766425
 30
0.0
  0
VERTEX
  5
5DE
100
AcDbEntity
  8
0
100
AcDbVertex
100
AcDb2dVertex
 10
301.7072353806
 20
238.1225881111
 30
0.0
  0
VERTEX
  5
5DF
100
AcDbEntity
  8
0
100
AcDbVertex
100
AcDb2dVertex
 10
302.0108635479
 20
237.7176810713
 30
0.0
  0
VERTEX
  5
5E0
100
AcDbEntity
  8
0
100
AcDbVertex
100
AcDb2dVertex
 10
302.2106483535
 20
237.2669519038
 30
0.0
  0
VERTEX
  5
5E1
100
AcDbEntity
  8
0
100
AcDbVertex
100
AcDb2dVertex
 10
302.2978582428
 20
236.7900996361
 30
0.0
  0
VERTEX
  5
5E2
100
AcDbEntity
  8
0
100
AcDbVertex
100
AcDb2dVertex
 10
302.268681725
 20
236.3079650004
 30
0.0
  0
VERTEX
  5
5E3
100
AcDbEntity
  8
0
100
AcDbVertex
100
AcDb2dVertex
 10
302.1243939541
 20
235.8416195938
 30
0.0
  0
VERTEX
  5
5E4
100
AcDbEntity
  8
0
100
AcDbVertex
100
AcDb2dVertex
 10
301.8713009979
 20
235.4114449485
 30
0.0
  0
VERTEX
  5
5E5
100
AcDbEntity
  8
0
100
AcDbVertex
100
AcDb2dVertex
 10
301.5204642333
 20
235.0362417605
 30
0.0
  0
VERTEX
  5
5E6
100
AcDbEntity
  8
0
100
AcDbVertex
100
AcDb2dVertex
 10
301.0872169101
 20
234.7324082097
 30
0.0
  0
VERTEX
  5
5E7
100
AcDbEntity
  8
0
100
AcDbVertex
100
AcDb2dVertex
 10
300.5904940155
 20
234.5132232802
 30
0.0
  0
VERTEX
  5
5E8
100
AcDbEntity
  8
0
100
AcDbVertex
100
AcDb2dVertex
 10
300.0520047235
 20
234.3882664051
 30
0.0
  0
VERTEX
  5
5E9
100
AcDbEntity
  8
0
100
AcDbVertex
100
AcDb2dVertex
 10
299.4952836001
 20
234.3629987995
 30
0.0
  0
VERTEX
  5
5EA
100
AcDbEntity
  8
0
100
AcDbVertex
100
AcDb2dVertex
 10
298.9446620298
 20
234.4385247791
 30
0.0
  0
SEQEND
  5
5EB
100
AcDbEntity
  8
0
  0
LINE
  5
5EC
100
AcDbEntity
  8
0
370
        15
  6
Continuous
 62
         7
100
AcDbLine
 10
305.7308077492
 20
239.2163478796
 30
0.0
 11
300.3617682375
 21
240.0756536003
 31
0.0
  0
POLYLINE
  5
5ED
100
AcDbEntity
  8
0
370
        15
  6
Continuous
 62
         7
100
AcDb2dPolyline
 66
         1
 10
0.0
 20
0.0
 30
0.0
 70
       128
  0
VERTEX
  5
5EE
100
AcDbEntity
  8
0
100
AcDbVertex
100
AcDb2dVertex
 10
307.2817394624
 20
239.5258445305
 30
0.0
  0
VERTEX
  5
5EF
100
AcDbEntity
  8
0
100
AcDbVertex
100
AcDb2dVertex
 10
307.1111763493
 20
239.4281068284
 30
0.0
  0
VERTEX
  5
5F0
100
AcDbEntity
  8
0
100
AcDbVertex
100
AcDb2dVertex
 10
306.9299792678
 20
239.3459654667
 30
0.0
  0
VERTEX
  5
5F1
100
AcDbEntity
  8
0
100
AcDbVertex
100
AcDb2dVertex
 10
306.7400430253
 20
239.2802794109
 30
0.0
  0
VERTEX
  5
5F2
100
AcDbEntity
  8
0
100
AcDbVertex
100
AcDb2dVertex
 10
306.5433538162
 20
239.231735551
 30
0.0
  0
VERTEX
  5
5F3
100
AcDbEntity
  8
0
100
AcDbVertex
100
AcDb2dVertex
 10
306.3419684517
 20
239.200841518
 30
0.0
  0
VERTEX
  5
5F4
100
AcDbEntity
  8
0
100
AcDbVertex
100
AcDb2dVertex
 10
306.1379928513
 20
239.1879203758
 30
0.0
  0
VERTEX
  5
5F5
100
AcDbEntity
  8
0
100
AcDbVertex
100
AcDb2dVertex
 10
305.9335600213
 20
239.193107243
 30
0.0
  0
VERTEX
  5
5F6
100
AcDbEntity
  8
0
100
AcDbVertex
100
AcDb2dVertex
 10
305.7308077492
 20
239.2163478796
 30
0.0
  0
SEQEND
  5
5F7
100
AcDbEntity
  8
0
  0
POLYLINE
  5
5F8
100
AcDbEntity
  8
0
370
        15
  6
Continuous
 62
         7
100
AcDb2dPolyline
 66
         1
 10
0.0
 20
0.0
 30
0.0
 70
       128
  0
VERTEX
  5
5F9
100
AcDbEntity
  8
0
100
AcDbVertex
100
AcDb2dVertex
 10
300.3617682375
 20
240.0756536003
 30
0.0
  0
VERTEX
  5
5FA
100
AcDbEntity
  8
0
100
AcDbVertex
100
AcDb2dVertex
 10
299.6635916361
 20
240.1332470864
 30
0.0
  0
VERTEX
  5
5FB
100
AcDbEntity
  8
0
100
AcDbVertex
100
AcDb2dVertex
 10
298.9645313387
 20
240.0843496408
 30
0.0
  0
VERTEX
  5
5FC
100
AcDbEntity
  8
0
100
AcDbVertex
100
AcDb2dVertex
 10
298.2860779115
 20
239.9304644725
 30
0.0
  0
VERTEX
  5
5FD
100
AcDbEntity
  8
0
100
AcDbVertex
100
AcDb2dVertex
 10
297.6490884225
 20
239.6763223314
 30
0.0
  0
VERTEX
  5
5FE
100
AcDbEntity
  8
0
100
AcDbVertex
100
AcDb2dVertex
 10
297.0731452523
 20
239.3297360749
 30
0.0
  0
VERTEX
  5
5FF
100
AcDbEntity
  8
0
100
AcDbVertex
100
AcDb2dVertex
 10
296.5759540906
 20
238.9013604847
 30
0.0
  0
VERTEX
  5
600
100
AcDbEntity
  8
0
100
AcDbVertex
100
AcDb2dVertex
 10
296.1727996268
 20
238.4043647166
 30
0.0
  0
VERTEX
  5
601
100
AcDbEntity
  8
0
100
AcDbVertex
100
AcDb2dVertex
 10
295.876075667
 20
237.8540274533
 30
0.0
  0
VERTEX
  5
602
100
AcDbEntity
  8
0
100
AcDbVertex
100
AcDb2dVertex
 10
295.6949041221
 20
237.2672672056
 30
0.0
  0
VERTEX
  5
603
100
AcDbEntity
  8
0
100
AcDbVertex
100
AcDb2dVertex
 10
295.6919669614
 20
237.2525682557
 30
0.0
  0
SEQEND
  5
604
100
AcDbEntity
  8
0
  0
POLYLINE
  5
605
100
AcDbEntity
  8
0
370
        15
  6
Continuous
 62
         7
100
AcDb2dPolyline
 66
         1
 10
0.0
 20
0.0
 30
0.0
 70
       128
  0
VERTEX
  5
606
100
AcDbEntity
  8
0
100
AcDbVertex
100
AcDb2dVertex
 10
301.9899037495
 20
235.585901589
 30
0.0
  0
VERTEX
  5
607
100
AcDbEntity
  8
0
100
AcDbVertex
100
AcDb2dVertex
 10
301.7072353806
 20
235.9559214444
 30
0.0
  0
VERTEX
  5
608
100
AcDbEntity
  8
0
100
AcDbVertex
100
AcDb2dVertex
 10
301.3130338596
 20
236.2973099759
 30
0.0
  0
VERTEX
  5
609
100
AcDbEntity
  8
0
100
AcDbVertex
100
AcDb2dVertex
 10
300.8454874827
 20
236.5602596821
 30
0.0
  0
VERTEX
  5
60A
100
AcDbEntity
  8
0
100
AcDbVertex
100
AcDb2dVertex
 10
300.3250302704
 20
236.733278399
 30
0.0
  0
VERTEX
  5
60B
100
AcDbEntity
  8
0
100
AcDbVertex
100
AcDb2dVertex
 10
299.7744087001
 20
236.8088043785
 30
0.0
  0
VERTEX
  5
60C
100
AcDbEntity
  8
0
100
AcDbVertex
100
AcDb2dVertex
 10
299.2176875767
 20
236.783536773
 30
0.0
  0
VERTEX
  5
60D
100
AcDbEntity
  8
0
100
AcDbVertex
100
AcDb2dVertex
 10
298.6791982846
 20
236.6585798979
 30
0.0
  0
VERTEX
  5
60E
100
AcDbEntity
  8
0
100
AcDbVertex
100
AcDb2dVertex
 10
298.1824753901
 20
236.4393949684
 30
0.0
  0
VERTEX
  5
60F
100
AcDbEntity
  8
0
100
AcDbVertex
100
AcDb2dVertex
 10
297.7492280669
 20
236.1355614175
 30
0.0
  0
VERTEX
  5
610
100
AcDbEntity
  8
0
100
AcDbVertex
100
AcDb2dVertex
 10
297.3983913022
 20
235.7603582296
 30
0.0
  0
VERTEX
  5
611
100
AcDbEntity
  8
0
100
AcDbVertex
100
AcDb2dVertex
 10
297.2797885507
 20
235.585901589
 30
0.0
  0
SEQEND
  5
612
100
AcDbEntity
  8
0
  0
POLYLINE
  5
613
100
AcDbEntity
  8
0
370
        15
  6
Continuous
 62
         7
100
AcDb2dPolyline
 66
         1
 10
0.0
 20
0.0
 30
0.0
 70
       128
  0
VERTEX
  5
614
100
AcDbEntity
  8
0
100
AcDbVertex
100
AcDb2dVertex
 10
298.1488604367
 20
251.330290959
 30
0.0
  0
VERTEX
  5
615
100
AcDbEntity
  8
0
100
AcDbVertex
100
AcDb2dVertex
 10
297.9990847384
 20
251.554251827
 30
0.0
  0
VERTEX
  5
616
100
AcDbEntity
  8
0
100
AcDbVertex
100
AcDb2dVertex
 10
297.6208754236
 20
251.9743708073
 30
0.0
  0
VERTEX
  5
617
100
AcDbEntity
  8
0
100
AcDbVertex
100
AcDb2dVertex
 10
297.1599668163
 20
252.3271513534
 30
0.0
  0
VERTEX
  5
618
100
AcDbEntity
  8
0
100
AcDbVertex
100
AcDb2dVertex
 10
296.6320546061
 20
252.6005799468
 30
0.0
  0
VERTEX
  5
619
100
AcDbEntity
  8
0
100
AcDbVertex
100
AcDb2dVertex
 10
296.0551162103
 20
252.7853453048
 30
0.0
  0
VERTEX
  5
61A
100
AcDbEntity
  8
0
100
AcDbVertex
100
AcDb2dVertex
 10
295.4487985739
 20
252.8751554646
 30
0.0
  0
VERTEX
  5
61B
100
AcDbEntity
  8
0
100
AcDbVertex
100
AcDb2dVertex
 10
294.8337491169
 20
252.8669520491
 30
0.0
  0
VERTEX
  5
61C
100
AcDbEntity
  8
0
100
AcDbVertex
100
AcDb2dVertex
 10
294.2309126109
 20
252.7610144157
 30
0.0
  0
VERTEX
  5
61D
100
AcDbEntity
  8
0
100
AcDbVertex
100
AcDb2dVertex
 10
293.66081793
 20
252.5609501434
 30
0.0
  0
VERTEX
  5
61E
100
AcDbEntity
  8
0
100
AcDbVertex
100
AcDb2dVertex
 10
293.1428789649
 20
252.273572181
 30
0.0
  0
VERTEX
  5
61F
100
AcDbEntity
  8
0
100
AcDbVertex
100
AcDb2dVertex
 10
292.6947335057
 20
251.9086668405
 30
0.0
  0
VERTEX
  5
620
100
AcDbEntity
  8
0
100
AcDbVertex
100
AcDb2dVertex
 10
292.3316426087
 20
251.4786605355
 30
0.0
  0
VERTEX
  5
621
100
AcDbEntity
  8
0
100
AcDbVertex
100
AcDb2dVertex
 10
292.2359116831
 20
251.330290959
 30
0.0
  0
SEQEND
  5
622
100
AcDbEntity
  8
0
  0
LINE
  5
623
100
AcDbEntity
  8
0
370
        15
  6
Continuous
 62
         7
100
AcDbLine
 10
293.4755149626
 20
188.5292178805
 30
0.0
 11
293.4755149626
 21
185.1958845472
 31
0.0
  0
LINE
  5
624
100
AcDbEntity
  8
0
370
        15
  6
Continuous
 62
         7
100
AcDbLine
 10
293.4755149626
 20
188.5292178805
 30
0.0
 11
380.0780553411
 21
145.2279476913
 31
0.0
  0
LINE
  5
625
100
AcDbEntity
  8
0
370
        15
  6
Continuous
 62
         7
100
AcDbLine
 10
380.0780553411
 20
145.2279476913
 30
0.0
 11
380.0780553411
 21
141.8946143579
 31
0.0
  0
LINE
  5
626
100
AcDbEntity
  8
0
370
        15
  6
Continuous
 62
         7
100
AcDbLine
 10
293.4755149626
 20
185.1958845472
 30
0.0
 11
380.0780553411
 21
141.8946143579
 31
0.0
  0
LINE
  5
627
100
AcDbEntity
  8
0
370
        15
  6
Continuous
 62
         7
100
AcDbLine
 10
270.1421816293
 20
153.5292178805
 30
0.0
 11
270.1421816293
 21
150.1958845472
 31
0.0
  0
LINE
  5
628
100
AcDbEntity
  8
0
370
        15
  6
Continuous
 62
         7
100
AcDbLine
 10
270.1421816293
 20
153.5292178805
 30
0.0
 11
293.4755149626
 21
188.5292178805
 31
0.0
  0
LINE
  5
629
100
AcDbEntity
  8
0
370
        15
  6
Continuous
 62
         7
100
AcDbLine
 10
270.1421816293
 20
150.1958845472
 30
0.0
 11
293.4755149626
 21
185.1958845472
 31
0.0
  0
LINE
  5
62A
100
AcDbEntity
  8
0
370
        15
  6
Continuous
 62
         7
100
AcDbLine
 10
380.0780553411
 20
141.8946143579
 30
0.0
 11
356.7447220077
 21
106.8946143579
 31
0.0
  0
LINE
  5
62B
100
AcDbEntity
  8
0
370
        15
  6
Continuous
 62
         7
100
AcDbLine
 10
356.7447220077
 20
106.8946143579
 30
0.0
 11
270.1421816293
 21
150.1958845472
 31
0.0
  0
POLYLINE
  5
62C
100
AcDbEntity
  8
0
370
        15
  6
Continuous
 62
         7
100
AcDb2dPolyline
 66
         1
 10
0.0
 20
0.0
 30
0.0
 70
       128
  0
VERTEX
  5
62D
100
AcDbEntity
  8
0
100
AcDbVertex
100
AcDb2dVertex
 10
295.830429533
 20
162.0734763684
 30
0.0
  0
VERTEX
  5
62E
100
AcDbEntity
  8
0
100
AcDbVertex
100
AcDb2dVertex
 10
296.2814444833
 20
161.7896958285
 30
0.0
  0
VERTEX
  5
62F
100
AcDbEntity
  8
0
100
AcDbVertex
100
AcDb2dVertex
 10
296.6544748513
 20
161.4309082629
 30
0.0
  0
VERTEX
  5
630
100
AcDbEntity
  8
0
100
AcDbVertex
100
AcDb2dVertex
 10
296.93321742
 20
161.0127944098
 30
0.0
  0
VERTEX
  5
631
100
AcDbEntity
  8
0
100
AcDbVertex
100
AcDb2dVertex
 10
297.1054898016
 20
160.553627851
 30
0.0
  0
VERTEX
  5
632
100
AcDbEntity
  8
0
100
AcDbVertex
100
AcDb2dVertex
 10
297.1637628663
 20
160.0734763684
 30
0.0
  0
VERTEX
  5
633
100
AcDbEntity
  8
0
100
AcDbVertex
100
AcDb2dVertex
 10
297.1054898016
 20
159.5933248857
 30
0.0
  0
VERTEX
  5
634
100
AcDbEntity
  8
0
100
AcDbVertex
100
AcDb2dVertex
 10
296.93321742
 20
159.1341583269
 30
0.0
  0
VERTEX
  5
635
100
AcDbEntity
  8
0
100
AcDbVertex
100
AcDb2dVertex
 10
296.6544748513
 20
158.7160444738
 30
0.0
  0
VERTEX
  5
636
100
AcDbEntity
  8
0
100
AcDbVertex
100
AcDb2dVertex
 10
296.2814444833
 20
158.3572569082
 30
0.0
  0
VERTEX
  5
637
100
AcDbEntity
  8
0
100
AcDbVertex
100
AcDb2dVertex
 10
295.830429533
 20
158.0734763684
 30
0.0
  0
VERTEX
  5
638
100
AcDbEntity
  8
0
100
AcDbVertex
100
AcDb2dVertex
 10
295.321141518
 20
157.8771054256
 30
0.0
  0
VERTEX
  5
639
100
AcDbEntity
  8
0
100
AcDbVertex
100
AcDb2dVertex
 10
294.7758387683
 20
157.7767264323
 30
0.0
  0
VERTEX
  5
63A
100
AcDbEntity
  8
0
100
AcDbVertex
100
AcDb2dVertex
 10
294.2183536309
 20
157.7767264323
 30
0.0
  0
VERTEX
  5
63B
100
AcDbEntity
  8
0
100
AcDbVertex
100
AcDb2dVertex
 10
293.6730508813
 20
157.8771054256
 30
0.0
  0
VERTEX
  5
63C
100
AcDbEntity
  8
0
100
AcDbVertex
100
AcDb2dVertex
 10
293.1637628663
 20
158.0734763684
 30
0.0
  0
VERTEX
  5
63D
100
AcDbEntity
  8
0
100
AcDbVertex
100
AcDb2dVertex
 10
292.712747916
 20
158.3572569082
 30
0.0
  0
VERTEX
  5
63E
100
AcDbEntity
  8
0
100
AcDbVertex
100
AcDb2dVertex
 10
292.339717548
 20
158.7160444738
 30
0.0
  0
VERTEX
  5
63F
100
AcDbEntity
  8
0
100
AcDbVertex
100
AcDb2dVertex
 10
292.0609749793
 20
159.1341583269
 30
0.0
  0
VERTEX
  5
640
100
AcDbEntity
  8
0
100
AcDbVertex
100
AcDb2dVertex
 10
291.8887025977
 20
159.5933248857
 30
0.0
  0
VERTEX
  5
641
100
AcDbEntity
  8
0
100
AcDbVertex
100
AcDb2dVertex
 10
291.830429533
 20
160.0734763684
 30
0.0
  0
VERTEX
  5
642
100
AcDbEntity
  8
0
100
AcDbVertex
100
AcDb2dVertex
 10
291.8887025977
 20
160.553627851
 30
0.0
  0
VERTEX
  5
643
100
AcDbEntity
  8
0
100
AcDbVertex
100
AcDb2dVertex
 10
292.0609749793
 20
161.0127944098
 30
0.0
  0
VERTEX
  5
644
100
AcDbEntity
  8
0
100
AcDbVertex
100
AcDb2dVertex
 10
292.339717548
 20
161.4309082629
 30
0.0
  0
VERTEX
  5
645
100
AcDbEntity
  8
0
100
AcDbVertex
100
AcDb2dVertex
 10
292.712747916
 20
161.7896958285
 30
0.0
  0
VERTEX
  5
646
100
AcDbEntity
  8
0
100
AcDbVertex
100
AcDb2dVertex
 10
293.1637628663
 20
162.0734763684
 30
0.0
  0
VERTEX
  5
647
100
AcDbEntity
  8
0
100
AcDbVertex
100
AcDb2dVertex
 10
293.6730508813
 20
162.2698473111
 30
0.0
  0
VERTEX
  5
648
100
AcDbEntity
  8
0
100
AcDbVertex
100
AcDb2dVertex
 10
294.2183536309
 20
162.3702263044
 30
0.0
  0
VERTEX
  5
649
100
AcDbEntity
  8
0
100
AcDbVertex
100
AcDb2dVertex
 10
294.7758387683
 20
162.3702263044
 30
0.0
  0
VERTEX
  5
64A
100
AcDbEntity
  8
0
100
AcDbVertex
100
AcDb2dVertex
 10
295.321141518
 20
162.2698473111
 30
0.0
  0
VERTEX
  5
64B
100
AcDbEntity
  8
0
100
AcDbVertex
100
AcDb2dVertex
 10
295.830429533
 20
162.0734763684
 30
0.0
  0
SEQEND
  5
64C
100
AcDbEntity
  8
0
  0
POLYLINE
  5
64D
100
AcDbEntity
  8
0
370
        15
  6
Continuous
 62
         7
100
AcDb2dPolyline
 66
         1
 10
0.0
 20
0.0
 30
0.0
 70
       128
  0
VERTEX
  5
64E
100
AcDbEntity
  8
0
100
AcDbVertex
100
AcDb2dVertex
 10
352.5075472654
 20
135.1798683958
 30
0.0
  0
VERTEX
  5
64F
100
AcDbEntity
  8
0
100
AcDbVertex
100
AcDb2dVertex
 10
352.9724819732
 20
134.8894025421
 30
0.0
  0
VERTEX
  5
650
100
AcDbEntity
  8
0
100
AcDbVertex
100
AcDb2dVertex
 10
353.3603836997
 20
134.5238306449
 30
0.0
  0
VERTEX
  5
651
100
AcDbEntity
  8
0
100
AcDbVertex
100
AcDb2dVertex
 10
353.6553717026
 20
134.0981192606
 30
0.0
  0
VERTEX
  5
652
100
AcDbEntity
  8
0
100
AcDbVertex
100
AcDb2dVertex
 10
353.8453691384
 20
133.6296970633
 30
0.0
  0
VERTEX
  5
653
100
AcDbEntity
  8
0
100
AcDbVertex
100
AcDb2dVertex
 10
353.9225974897
 20
133.1377413129
 30
0.0
  0
VERTEX
  5
654
100
AcDbEntity
  8
0
100
AcDbVertex
100
AcDb2dVertex
 10
353.8838950188
 20
132.6423927355
 30
0.0
  0
VERTEX
  5
655
100
AcDbEntity
  8
0
100
AcDbVertex
100
AcDb2dVertex
 10
353.7308462094
 20
132.1639309601
 30
0.0
  0
VERTEX
  5
656
100
AcDbEntity
  8
0
100
AcDbVertex
100
AcDb2dVertex
 10
353.4697168976
 20
131.7219442679
 30
0.0
  0
VERTEX
  5
657
100
AcDbEntity
  8
0
100
AcDbVertex
100
AcDb2dVertex
 10
353.1111977483
 20
131.3345276462
 30
0.0
  0
VERTEX
  5
658
100
AcDbEntity
  8
0
100
AcDbVertex
100
AcDb2dVertex
 10
352.6699665776
 20
131.0175419769
 30
0.0
  0
VERTEX
  5
659
100
AcDbEntity
  8
0
100
AcDbVertex
100
AcDb2dVertex
 10
352.1640874413
 20
130.7839646906
 30
0.0
  0
VERTEX
  5
65A
100
AcDbEntity
  8
0
100
AcDbVertex
100
AcDb2dVertex
 10
351.6142710908
 20
130.6433584688
 30
0.0
  0
VERTEX
  5
65B
100
AcDbEntity
  8
0
100
AcDbVertex
100
AcDb2dVertex
 10
351.043027072
 20
130.6014797467
 30
0.0
  0
VERTEX
  5
65C
100
AcDbEntity
  8
0
100
AcDbVertex
100
AcDb2dVertex
 10
350.4737421823
 20
130.6600430442
 30
0.0
  0
VERTEX
  5
65D
100
AcDbEntity
  8
0
100
AcDbVertex
100
AcDb2dVertex
 10
349.9297230118
 20
130.816650773
 30
0.0
  0
VERTEX
  5
65E
100
AcDbEntity
  8
0
100
AcDbVertex
100
AcDb2dVertex
 10
349.4332417694
 20
131.0648913942
 30
0.0
  0
VERTEX
  5
65F
100
AcDbEntity
  8
0
100
AcDbVertex
100
AcDb2dVertex
 10
349.0046244554
 20
131.3946019076
 30
0.0
  0
VERTEX
  5
660
100
AcDbEntity
  8
0
100
AcDbVertex
100
AcDb2dVertex
 10
348.661418713
 20
131.7922839262
 30
0.0
  0
VERTEX
  5
661
100
AcDbEntity
  8
0
100
AcDbVertex
100
AcDb2dVertex
 10
348.4176754257
 20
132.2416563013
 30
0.0
  0
VERTEX
  5
662
100
AcDbEntity
  8
0
100
AcDbVertex
100
AcDb2dVertex
 10
348.2833734723
 20
132.7243216751
 30
0.0
  0
VERTEX
  5
663
100
AcDbEntity
  8
0
100
AcDbVertex
100
AcDb2dVertex
 10
348.2640111905
 20
133.2205196705
 30
0.0
  0
VERTEX
  5
664
100
AcDbEntity
  8
0
100
AcDbVertex
100
AcDb2dVertex
 10
348.3603812744
 20
133.7099358832
 30
0.0
  0
VERTEX
  5
665
100
AcDbEntity
  8
0
100
AcDbVertex
100
AcDb2dVertex
 10
348.5685383214
 20
134.172533556
 30
0.0
  0
VERTEX
  5
666
100
AcDbEntity
  8
0
100
AcDbVertex
100
AcDb2dVertex
 10
348.8799603577
 20
134.5893738859
 30
0.0
  0
VERTEX
  5
667
100
AcDbEntity
  8
0
100
AcDbVertex
100
AcDb2dVertex
 10
349.2818977284
 20
134.9433913807
 30
0.0
  0
VERTEX
  5
668
100
AcDbEntity
  8
0
100
AcDbVertex
100
AcDb2dVertex
 10
349.7578950703
 20
135.2200925226
 30
0.0
  0
VERTEX
  5
669
100
AcDbEntity
  8
0
100
AcDbVertex
100
AcDb2dVertex
 10
350.2884649965
 20
135.4081491343
 30
0.0
  0
VERTEX
  5
66A
100
AcDbEntity
  8
0
100
AcDbVertex
100
AcDb2dVertex
 10
350.8518859116
 20
135.4998621561
 30
0.0
  0
VERTEX
  5
66B
100
AcDbEntity
  8
0
100
AcDbVertex
100
AcDb2dVertex
 10
351.4250912973
 20
135.4914768461
 30
0.0
  0
VERTEX
  5
66C
100
AcDbEntity
  8
0
100
AcDbVertex
100
AcDb2dVertex
 10
351.9846140578
 20
135.3833364998
 30
0.0
  0
VERTEX
  5
66D
100
AcDbEntity
  8
0
100
AcDbVertex
100
AcDb2dVertex
 10
352.5075472654
 20
135.1798683958
 30
0.0
  0
SEQEND
  5
66E
100
AcDbEntity
  8
0
  0
POLYLINE
  5
66F
100
AcDbEntity
  8
0
370
        15
  6
Continuous
 62
         7
100
AcDb2dPolyline
 66
         1
 10
0.0
 20
0.0
 30
0.0
 70
       128
  0
VERTEX
  5
670
100
AcDbEntity
  8
0
100
AcDbVertex
100
AcDb2dVertex
 10
309.2062770762
 20
156.8305034904
 30
0.0
  0
VERTEX
  5
671
100
AcDbEntity
  8
0
100
AcDbVertex
100
AcDb2dVertex
 10
309.671211784
 20
156.5400376367
 30
0.0
  0
VERTEX
  5
672
100
AcDbEntity
  8
0
100
AcDbVertex
100
AcDb2dVertex
 10
310.0591135105
 20
156.1744657395
 30
0.0
  0
VERTEX
  5
673
100
AcDbEntity
  8
0
100
AcDbVertex
100
AcDb2dVertex
 10
310.3541015134
 20
155.7487543552
 30
0.0
  0
VERTEX
  5
674
100
AcDbEntity
  8
0
100
AcDbVertex
100
AcDb2dVertex
 10
310.5440989491
 20
155.2803321579
 30
0.0
  0
VERTEX
  5
675
100
AcDbEntity
  8
0
100
AcDbVertex
100
AcDb2dVertex
 10
310.6213273005
 20
154.7883764075
 30
0.0
  0
VERTEX
  5
676
100
AcDbEntity
  8
0
100
AcDbVertex
100
AcDb2dVertex
 10
310.5826248296
 20
154.2930278301
 30
0.0
  0
VERTEX
  5
677
100
AcDbEntity
  8
0
100
AcDbVertex
100
AcDb2dVertex
 10
310.4295760201
 20
153.8145660547
 30
0.0
  0
VERTEX
  5
678
100
AcDbEntity
  8
0
100
AcDbVertex
100
AcDb2dVertex
 10
310.1684467084
 20
153.3725793626
 30
0.0
  0
VERTEX
  5
679
100
AcDbEntity
  8
0
100
AcDbVertex
100
AcDb2dVertex
 10
309.8099275591
 20
152.9851627408
 30
0.0
  0
VERTEX
  5
67A
100
AcDbEntity
  8
0
100
AcDbVertex
100
AcDb2dVertex
 10
309.3686963883
 20
152.6681770716
 30
0.0
  0
VERTEX
  5
67B
100
AcDbEntity
  8
0
100
AcDbVertex
100
AcDb2dVertex
 10
308.8628172521
 20
152.4345997852
 30
0.0
  0
VERTEX
  5
67C
100
AcDbEntity
  8
0
100
AcDbVertex
100
AcDb2dVertex
 10
308.3130009015
 20
152.2939935634
 30
0.0
  0
VERTEX
  5
67D
100
AcDbEntity
  8
0
100
AcDbVertex
100
AcDb2dVertex
 10
307.7417568828
 20
152.2521148413
 30
0.0
  0
VERTEX
  5
67E
100
AcDbEntity
  8
0
100
AcDbVertex
100
AcDb2dVertex
 10
307.172471993
 20
152.3106781388
 30
0.0
  0
VERTEX
  5
67F
100
AcDbEntity
  8
0
100
AcDbVertex
100
AcDb2dVertex
 10
306.6284528226
 20
152.4672858676
 30
0.0
  0
VERTEX
  5
680
100
AcDbEntity
  8
0
100
AcDbVertex
100
AcDb2dVertex
 10
306.1319715801
 20
152.7155264888
 30
0.0
  0
VERTEX
  5
681
100
AcDbEntity
  8
0
100
AcDbVertex
100
AcDb2dVertex
 10
305.7033542662
 20
153.0452370023
 30
0.0
  0
VERTEX
  5
682
100
AcDbEntity
  8
0
100
AcDbVertex
100
AcDb2dVertex
 10
305.3601485238
 20
153.4429190208
 30
0.0
  0
VERTEX
  5
683
100
AcDbEntity
  8
0
100
AcDbVertex
100
AcDb2dVertex
 10
305.1164052365
 20
153.8922913959
 30
0.0
  0
VERTEX
  5
684
100
AcDbEntity
  8
0
100
AcDbVertex
100
AcDb2dVertex
 10
304.9821032831
 20
154.3749567697
 30
0.0
  0
VERTEX
  5
685
100
AcDbEntity
  8
0
100
AcDbVertex
100
AcDb2dVertex
 10
304.9627410012
 20
154.8711547651
 30
0.0
  0
VERTEX
  5
686
100
AcDbEntity
  8
0
100
AcDbVertex
100
AcDb2dVertex
 10
305.0591110851
 20
155.3605709778
 30
0.0
  0
VERTEX
  5
687
100
AcDbEntity
  8
0
100
AcDbVertex
100
AcDb2dVertex
 10
305.2672681322
 20
155.8231686507
 30
0.0
  0
VERTEX
  5
688
100
AcDbEntity
  8
0
100
AcDbVertex
100
AcDb2dVertex
 10
305.5786901685
 20
156.2400089805
 30
0.0
  0
VERTEX
  5
689
100
AcDbEntity
  8
0
100
AcDbVertex
100
AcDb2dVertex
 10
305.9806275392
 20
156.5940264753
 30
0.0
  0
VERTEX
  5
68A
100
AcDbEntity
  8
0
100
AcDbVertex
100
AcDb2dVertex
 10
306.4566248811
 20
156.8707276172
 30
0.0
  0
VERTEX
  5
68B
100
AcDbEntity
  8
0
100
AcDbVertex
100
AcDb2dVertex
 10
306.9871948072
 20
157.0587842289
 30
0.0
  0
VERTEX
  5
68C
100
AcDbEntity
  8
0
100
AcDbVertex
100
AcDb2dVertex
 10
307.5506157224
 20
157.1504972507
 30
0.0
  0
VERTEX
  5
68D
100
AcDbEntity
  8
0
100
AcDbVertex
100
AcDb2dVertex
 10
308.1238211081
 20
157.1421119407
 30
0.0
  0
VERTEX
  5
68E
100
AcDbEntity
  8
0
100
AcDbVertex
100
AcDb2dVertex
 10
308.6833438685
 20
157.0339715944
 30
0.0
  0
VERTEX
  5
68F
100
AcDbEntity
  8
0
100
AcDbVertex
100
AcDb2dVertex
 10
309.2062770762
 20
156.8305034904
 30
0.0
  0
SEQEND
  5
690
100
AcDbEntity
  8
0
  0
POLYLINE
  5
691
100
AcDbEntity
  8
0
370
        15
  6
Continuous
 62
         7
100
AcDb2dPolyline
 66
         1
 10
0.0
 20
0.0
 30
0.0
 70
       128
  0
VERTEX
  5
692
100
AcDbEntity
  8
0
100
AcDbVertex
100
AcDb2dVertex
 10
292.1420386003
 20
161.1568097017
 30
0.0
  0
VERTEX
  5
693
100
AcDbEntity
  8
0
100
AcDbVertex
100
AcDb2dVertex
 10
292.339717548
 20
160.8827111405
 30
0.0
  0
VERTEX
  5
694
100
AcDbEntity
  8
0
100
AcDbVertex
100
AcDb2dVertex
 10
292.712747916
 20
160.5239235749
 30
0.0
  0
VERTEX
  5
695
100
AcDbEntity
  8
0
100
AcDbVertex
100
AcDb2dVertex
 10
293.1637628663
 20
160.240143035
 30
0.0
  0
VERTEX
  5
696
100
AcDbEntity
  8
0
100
AcDbVertex
100
AcDb2dVertex
 10
293.6730508813
 20
160.0437720922
 30
0.0
  0
VERTEX
  5
697
100
AcDbEntity
  8
0
100
AcDbVertex
100
AcDb2dVertex
 10
294.2183536309
 20
159.943393099
 30
0.0
  0
VERTEX
  5
698
100
AcDbEntity
  8
0
100
AcDbVertex
100
AcDb2dVertex
 10
294.7758387683
 20
159.943393099
 30
0.0
  0
VERTEX
  5
699
100
AcDbEntity
  8
0
100
AcDbVertex
100
AcDb2dVertex
 10
295.321141518
 20
160.0437720922
 30
0.0
  0
VERTEX
  5
69A
100
AcDbEntity
  8
0
100
AcDbVertex
100
AcDb2dVertex
 10
295.830429533
 20
160.240143035
 30
0.0
  0
VERTEX
  5
69B
100
AcDbEntity
  8
0
100
AcDbVertex
100
AcDb2dVertex
 10
296.2814444833
 20
160.5239235749
 30
0.0
  0
VERTEX
  5
69C
100
AcDbEntity
  8
0
100
AcDbVertex
100
AcDb2dVertex
 10
296.6544748513
 20
160.8827111405
 30
0.0
  0
VERTEX
  5
69D
100
AcDbEntity
  8
0
100
AcDbVertex
100
AcDb2dVertex
 10
296.852153799
 20
161.1568097017
 30
0.0
  0
SEQEND
  5
69E
100
AcDbEntity
  8
0
  0
POLYLINE
  5
69F
100
AcDbEntity
  8
0
370
        15
  6
Continuous
 62
         7
100
AcDb2dPolyline
 66
         1
 10
0.0
 20
0.0
 30
0.0
 70
       128
  0
VERTEX
  5
6A0
100
AcDbEntity
  8
0
100
AcDbVertex
100
AcDb2dVertex
 10
309.8690512175
 20
156.3721701571
 30
0.0
  0
VERTEX
  5
6A1
100
AcDbEntity
  8
0
100
AcDbVertex
100
AcDb2dVertex
 10
309.8099275591
 20
156.3184960742
 30
0.0
  0
VERTEX
  5
6A2
100
AcDbEntity
  8
0
100
AcDbVertex
100
AcDb2dVertex
 10
309.3686963883
 20
156.0015104049
 30
0.0
  0
VERTEX
  5
6A3
100
AcDbEntity
  8
0
100
AcDbVertex
100
AcDb2dVertex
 10
308.8628172521
 20
155.7679331186
 30
0.0
  0
VERTEX
  5
6A4
100
AcDbEntity
  8
0
100
AcDbVertex
100
AcDb2dVertex
 10
308.3130009015
 20
155.6273268967
 30
0.0
  0
VERTEX
  5
6A5
100
AcDbEntity
  8
0
100
AcDbVertex
100
AcDb2dVertex
 10
307.7417568828
 20
155.5854481747
 30
0.0
  0
VERTEX
  5
6A6
100
AcDbEntity
  8
0
100
AcDbVertex
100
AcDb2dVertex
 10
307.172471993
 20
155.6440114721
 30
0.0
  0
VERTEX
  5
6A7
100
AcDbEntity
  8
0
100
AcDbVertex
100
AcDb2dVertex
 10
306.6284528226
 20
155.8006192009
 30
0.0
  0
VERTEX
  5
6A8
100
AcDbEntity
  8
0
100
AcDbVertex
100
AcDb2dVertex
 10
306.1319715801
 20
156.0488598221
 30
0.0
  0
VERTEX
  5
6A9
100
AcDbEntity
  8
0
100
AcDbVertex
100
AcDb2dVertex
 10
305.7101696015
 20
156.3721701571
 30
0.0
  0
SEQEND
  5
6AA
100
AcDbEntity
  8
0
  0
POLYLINE
  5
6AB
100
AcDbEntity
  8
0
370
        15
  6
Continuous
 62
         7
100
AcDb2dPolyline
 66
         1
 10
0.0
 20
0.0
 30
0.0
 70
       128
  0
VERTEX
  5
6AC
100
AcDbEntity
  8
0
100
AcDbVertex
100
AcDb2dVertex
 10
353.1703214067
 20
134.7215350624
 30
0.0
  0
VERTEX
  5
6AD
100
AcDbEntity
  8
0
100
AcDbVertex
100
AcDb2dVertex
 10
353.1111977483
 20
134.6678609796
 30
0.0
  0
VERTEX
  5
6AE
100
AcDbEntity
  8
0
100
AcDbVertex
100
AcDb2dVertex
 10
352.6699665776
 20
134.3508753103
 30
0.0
  0
VERTEX
  5
6AF
100
AcDbEntity
  8
0
100
AcDbVertex
100
AcDb2dVertex
 10
352.1640874413
 20
134.1172980239
 30
0.0
  0
VERTEX
  5
6B0
100
AcDbEntity
  8
0
100
AcDbVertex
100
AcDb2dVertex
 10
351.6142710908
 20
133.9766918021
 30
0.0
  0
VERTEX
  5
6B1
100
AcDbEntity
  8
0
100
AcDbVertex
100
AcDb2dVertex
 10
351.043027072
 20
133.9348130801
 30
0.0
  0
VERTEX
  5
6B2
100
AcDbEntity
  8
0
100
AcDbVertex
100
AcDb2dVertex
 10
350.4737421823
 20
133.9933763775
 30
0.0
  0
VERTEX
  5
6B3
100
AcDbEntity
  8
0
100
AcDbVertex
100
AcDb2dVertex
 10
349.9297230118
 20
134.1499841063
 30
0.0
  0
VERTEX
  5
6B4
100
AcDbEntity
  8
0
100
AcDbVertex
100
AcDb2dVertex
 10
349.4332417694
 20
134.3982247275
 30
0.0
  0
VERTEX
  5
6B5
100
AcDbEntity
  8
0
100
AcDbVertex
100
AcDb2dVertex
 10
349.0114397907
 20
134.7215350624
 30
0.0
  0
SEQEND
  5
6B6
100
AcDbEntity
  8
0
  0
LINE
  5
6B7
100
AcDbEntity
  8
0
370
         0
  6
Continuous
 62
         7
100
AcDbLine
 10
353.1238684238
 20
92.3527401974
 30
0.0
 11
352.9824597579
 21
92.2113315315
 31
0.0
  0
LINE
  5
6B8
100
AcDbEntity
  8
0
370
         0
  6
Continuous
 62
         7
100
AcDbLine
 10
357.6139964843
 20
92.3527401974
 30
0.0
 11
352.9824597579
 21
87.721203471
 31
0.0
  0
LINE
  5
6B9
100
AcDbEntity
  8
0
370
         0
  6
Continuous
 62
         7
100
AcDbLine
 10
362.1041245449
 20
92.3527401974
 30
0.0
 11
352.9824597579
 21
83.2310754104
 31
0.0
  0
LINE
  5
6BA
100
AcDbEntity
  8
0
370
         0
  6
Continuous
 62
         7
100
AcDbLine
 10
366.5942526054
 20
92.3527401974
 30
0.0
 11
356.5942526054
 21
82.3527401974
 31
0.0
  0
LINE
  5
6BB
100
AcDbEntity
  8
0
370
         0
  6
Continuous
 62
         7
100
AcDbLine
 10
362.2782232575
 20
83.5465827889
 30
0.0
 11
361.0843806659
 21
82.3527401974
 31
0.0
  0
LINE
  5
6BC
100
AcDbEntity
  8
0
370
         0
  6
Continuous
 62
         7
100
AcDbLine
 10
371.0843806659
 20
92.3527401974
 30
0.0
 11
367.0843806659
 21
88.3527401974
 31
0.0
  0
LINE
  5
6BD
100
AcDbEntity
  8
0
370
         0
  6
Continuous
 62
         7
100
AcDbLine
 10
375.5745087265
 20
92.3527401974
 30
0.0
 11
369.081018614
 21
85.8592500849
 31
0.0
  0
LINE
  5
6BE
100
AcDbEntity
  8
0
370
         0
  6
Continuous
 62
         7
100
AcDbLine
 10
378.7324597579
 20
91.0205631683
 30
0.0
 11
370.064636787
 21
82.3527401974
 31
0.0
  0
LINE
  5
6BF
100
AcDbEntity
  8
0
370
         0
  6
Continuous
 62
         7
100
AcDbLine
 10
378.7324597579
 20
86.5304351078
 30
0.0
 11
374.5547648475
 21
82.3527401974
 31
0.0
  0
LINE
  5
6C0
100
AcDbEntity
  8
0
370
         0
  6
Continuous
 62
         7
100
AcDbLine
 10
258.8311791526
 20
92.3527401974
 30
0.0
 11
255.3266573113
 21
88.8482183561
 31
0.0
  0
LINE
  5
6C1
100
AcDbEntity
  8
0
370
         0
  6
Continuous
 62
         7
100
AcDbLine
 10
258.2324597579
 20
87.2638927422
 30
0.0
 11
256.8213072131
 21
85.8527401974
 31
0.0
  0
LINE
  5
6C2
100
AcDbEntity
  8
0
370
         0
  6
Continuous
 62
         7
100
AcDbLine
 10
263.3213072131
 20
92.3527401974
 30
0.0
 11
259.3213072131
 21
88.3527401974
 31
0.0
  0
LINE
  5
6C3
100
AcDbEntity
  8
0
370
         0
  6
Continuous
 62
         7
100
AcDbLine
 10
267.8114352736
 20
92.3527401974
 30
0.0
 11
262.7324597579
 21
87.2737646817
 31
0.0
  0
LINE
  5
6C4
100
AcDbEntity
  8
0
370
         0
  6
Continuous
 62
         7
100
AcDbLine
 10
269.4824597579
 20
89.5336366211
 30
0.0
 11
262.7324597579
 21
82.7836366211
 31
0.0
  0
LINE
  5
6C5
100
AcDbEntity
  8
0
370
         0
  6
Continuous
 62
         7
100
AcDbLine
 10
269.4824597579
 20
85.0435085606
 30
0.0
 11
266.7916913947
 21
82.3527401974
 31
0.0
  0
LINE
  5
6C6
100
AcDbEntity
  8
0
370
         0
  6
Continuous
 62
         7
100
AcDbLine
 10
281.2818194553
 20
92.3527401974
 30
0.0
 11
277.9824597579
 21
89.0533805001
 31
0.0
  0
LINE
  5
6C7
100
AcDbEntity
  8
0
370
         0
  6
Continuous
 62
         7
100
AcDbLine
 10
285.7719475158
 20
92.3527401974
 30
0.0
 11
277.9824597579
 21
84.5632524395
 31
0.0
  0
LINE
  5
6C8
100
AcDbEntity
  8
0
370
         0
  6
Continuous
 62
         7
100
AcDbLine
 10
284.7324597579
 20
86.823124379
 30
0.0
 11
280.2620755763
 21
82.3527401974
 31
0.0
  0
LINE
  5
6C9
100
AcDbEntity
  8
0
370
         0
  6
Continuous
 62
         7
100
AcDbLine
 10
290.2620755763
 20
92.3527401974
 30
0.0
 11
286.2620755763
 21
88.3527401974
 31
0.0
  0
LINE
  5
6CA
100
AcDbEntity
  8
0
370
         0
  6
Continuous
 62
         7
100
AcDbLine
 10
294.7522036369
 20
92.3527401974
 30
0.0
 11
288.1324597579
 21
85.7329963184
 31
0.0
  0
LINE
  5
6CB
100
AcDbEntity
  8
0
370
         0
  6
Continuous
 62
         7
100
AcDbLine
 10
299.2423316974
 20
92.3527401974
 30
0.0
 11
289.2423316974
 21
82.3527401974
 31
0.0
  0
LINE
  5
6CC
100
AcDbEntity
  8
0
370
         0
  6
Continuous
 62
         7
100
AcDbLine
 10
303.7324597579
 20
92.3527401974
 30
0.0
 11
293.7324597579
 21
82.3527401974
 31
0.0
  0
LINE
  5
6CD
100
AcDbEntity
  8
0
370
         0
  6
Continuous
 62
         7
100
AcDbLine
 10
308.2225878185
 20
92.3527401974
 30
0.0
 11
298.2225878185
 21
82.3527401974
 31
0.0
  0
LINE
  5
6CE
100
AcDbEntity
  8
0
370
         0
  6
Continuous
 62
         7
100
AcDbLine
 10
312.712715879
 20
92.3527401974
 30
0.0
 11
302.712715879
 21
82.3527401974
 31
0.0
  0
LINE
  5
6CF
100
AcDbEntity
  8
0
370
         0
  6
Continuous
 62
         7
100
AcDbLine
 10
317.2028439395
 20
92.3527401974
 30
0.0
 11
307.2028439395
 21
82.3527401974
 31
0.0
  0
LINE
  5
6D0
100
AcDbEntity
  8
0
370
         0
  6
Continuous
 62
         7
100
AcDbLine
 10
321.6929720001
 20
92.3527401974
 30
0.0
 11
311.6929720001
 21
82.3527401974
 31
0.0
  0
LINE
  5
6D1
100
AcDbEntity
  8
0
370
         0
  6
Continuous
 62
         7
100
AcDbLine
 10
326.1831000606
 20
92.3527401974
 30
0.0
 11
316.1831000606
 21
82.3527401974
 31
0.0
  0
LINE
  5
6D2
100
AcDbEntity
  8
0
370
         0
  6
Continuous
 62
         7
100
AcDbLine
 10
330.6732281211
 20
92.3527401974
 30
0.0
 11
320.6732281211
 21
82.3527401974
 31
0.0
  0
LINE
  5
6D3
100
AcDbEntity
  8
0
370
         0
  6
Continuous
 62
         7
100
AcDbLine
 10
335.1633561817
 20
92.3527401974
 30
0.0
 11
325.1633561817
 21
82.3527401974
 31
0.0
  0
LINE
  5
6D4
100
AcDbEntity
  8
0
370
         0
  6
Continuous
 62
         7
100
AcDbLine
 10
339.6534842422
 20
92.3527401974
 30
0.0
 11
329.6534842422
 21
82.3527401974
 31
0.0
  0
LINE
  5
6D5
100
AcDbEntity
  8
0
370
         0
  6
Continuous
 62
         7
100
AcDbLine
 10
344.1436123027
 20
92.3527401974
 30
0.0
 11
334.1436123027
 21
82.3527401974
 31
0.0
  0
LINE
  5
6D6
100
AcDbEntity
  8
0
370
         0
  6
Continuous
 62
         7
100
AcDbLine
 10
344.4824597579
 20
88.201459592
 30
0.0
 11
338.6337403633
 21
82.3527401974
 31
0.0
  0
LINE
  5
6D7
100
AcDbEntity
  8
0
370
         0
  6
Continuous
 62
         7
100
AcDbLine
 10
344.4824597579
 20
83.7113315315
 30
0.0
 11
343.1238684238
 21
82.3527401974
 31
0.0
  0
LINE
  5
6D8
100
AcDbEntity
  8
0
370
         0
  6
Continuous
 62
         7
100
AcDbLine
 10
231.8904107894
 20
92.3527401974
 30
0.0
 11
228.7324597579
 21
89.1947891659
 31
0.0
  0
LINE
  5
6D9
100
AcDbEntity
  8
0
370
         0
  6
Continuous
 62
         7
100
AcDbLine
 10
236.3805388499
 20
92.3527401974
 30
0.0
 11
228.7324597579
 21
84.7046611054
 31
0.0
  0
LINE
  5
6DA
100
AcDbEntity
  8
0
370
         0
  6
Continuous
 62
         7
100
AcDbLine
 10
240.8706669104
 20
92.3527401974
 30
0.0
 11
230.8706669104
 21
82.3527401974
 31
0.0
  0
LINE
  5
6DB
100
AcDbEntity
  8
0
370
         0
  6
Continuous
 62
         7
100
AcDbLine
 10
245.360794971
 20
92.3527401974
 30
0.0
 11
235.360794971
 21
82.3527401974
 31
0.0
  0
LINE
  5
6DC
100
AcDbEntity
  8
0
370
         0
  6
Continuous
 62
         7
100
AcDbLine
 10
248.3056954886
 20
90.8075126544
 30
0.0
 11
239.8509230315
 21
82.3527401974
 31
0.0
  0
LINE
  5
6DD
100
AcDbEntity
  8
0
370
         0
  6
Continuous
 62
         7
100
AcDbLine
 10
246.1308025134
 20
84.1424916188
 30
0.0
 11
244.341051092
 21
82.3527401974
 31
0.0
  0
LINE
  5
6DE
100
AcDbEntity
  8
0
370
         0
  6
Continuous
 62
         7
100
AcDbLine
 10
248.3056954886
 20
86.3173845939
 30
0.0
 11
247.841051092
 21
85.8527401974
 31
0.0
  0
ARC
  5
6DF
100
AcDbEntity
  8
0
370
        15
  6
Continuous
 62
         7
100
AcDbCircle
 10
287.1324597579
 20
87.3527401974
 30
0.0
 40
1.0
100
AcDbArc
 50
0.0
 51
90.0
  0
LINE
  5
6E0
100
AcDbEntity
  8
0
370
        15
  6
Continuous
 62
         7
100
AcDbLine
 10
288.1324597579
 20
87.3527401974
 30
0.0
 11
288.1324597579
 21
82.3527401974
 31
0.0
  0
LINE
  5
6E1
100
AcDbEntity
  8
0
370
        15
  6
Continuous
 62
         7
100
AcDbLine
 10
248.3056954886
 20
92.3527401974
 30
0.0
 11
255.3266573113
 21
92.3527401974
 31
0.0
  0
LINE
  5
6E2
100
AcDbEntity
  8
0
370
        15
  6
Continuous
 62
         7
100
AcDbLine
 10
255.3266573113
 20
92.3527401974
 30
0.0
 11
255.3266573113
 21
85.8527401974
 31
0.0
  0
LINE
  5
6E3
100
AcDbEntity
  8
0
370
        15
  6
Continuous
 62
         7
100
AcDbLine
 10
255.3266573113
 20
85.8527401974
 30
0.0
 11
248.3056954886
 21
85.8527401974
 31
0.0
  0
LINE
  5
6E4
100
AcDbEntity
  8
0
370
        15
  6
Continuous
 62
         7
100
AcDbLine
 10
248.3056954886
 20
85.8527401974
 30
0.0
 11
248.3056954886
 21
92.3527401974
 31
0.0
  0
ARC
  5
6E5
100
AcDbEntity
  8
0
370
        15
  6
Continuous
 62
         7
100
AcDbCircle
 10
285.7324597579
 20
87.3527401974
 30
0.0
 40
1.0
100
AcDbArc
 50
90.0
 51
180.0
  0
LINE
  5
6E6
100
AcDbEntity
  8
0
370
        15
  6
Continuous
 62
         7
100
AcDbLine
 10
284.7324597579
 20
87.3527401974
 30
0.0
 11
284.7324597579
 21
82.3527401974
 31
0.0
  0
LINE
  5
6E7
100
AcDbEntity
  8
0
370
        15
  6
Continuous
 62
         7
100
AcDbLine
 10
277.9824597579
 20
92.3527401974
 30
0.0
 11
277.9824597579
 21
82.3527401974
 31
0.0
  0
LINE
  5
6E8
100
AcDbEntity
  8
0
370
        15
  6
Continuous
 62
         7
100
AcDbLine
 10
344.4824597579
 20
92.3527401974
 30
0.0
 11
277.9824597579
 21
92.3527401974
 31
0.0
  0
LINE
  5
6E9
100
AcDbEntity
  8
0
370
        15
  6
Continuous
 62
         7
100
AcDbLine
 10
344.4824597579
 20
82.3527401974
 30
0.0
 11
344.4824597579
 21
92.3527401974
 31
0.0
  0
LINE
  5
6EA
100
AcDbEntity
  8
0
370
        15
  6
Continuous
 62
         7
100
AcDbLine
 10
285.7324597579
 20
88.3527401974
 30
0.0
 11
287.1324597579
 21
88.3527401974
 31
0.0
  0
LINE
  5
6EB
100
AcDbEntity
  8
0
370
        15
  6
Continuous
 62
         7
100
AcDbLine
 10
284.7324597579
 20
82.3527401974
 30
0.0
 11
277.9824597579
 21
82.3527401974
 31
0.0
  0
LINE
  5
6EC
100
AcDbEntity
  8
0
370
        15
  6
Continuous
 62
         7
100
AcDbLine
 10
344.4824597579
 20
82.3527401974
 30
0.0
 11
288.1324597579
 21
82.3527401974
 31
0.0
  0
LINE
  5
6ED
100
AcDbEntity
  8
0
370
        15
  6
Continuous
 62
         7
100
AcDbLine
 10
248.3056954886
 20
85.8527401974
 30
0.0
 11
246.1308025134
 21
85.8527401974
 31
0.0
  0
LINE
  5
6EE
100
AcDbEntity
  8
0
370
        15
  6
Continuous
 62
         7
100
AcDbLine
 10
246.1308025134
 20
82.3527401974
 30
0.0
 11
246.1308025134
 21
85.8527401974
 31
0.0
  0
LINE
  5
6EF
100
AcDbEntity
  8
0
370
        15
  6
Continuous
 62
         7
100
AcDbLine
 10
248.3056954886
 20
92.3527401974
 30
0.0
 11
228.7324597579
 21
92.3527401974
 31
0.0
  0
LINE
  5
6F0
100
AcDbEntity
  8
0
370
        15
  6
Continuous
 62
         7
100
AcDbLine
 10
228.7324597579
 20
92.3527401974
 30
0.0
 11
228.7324597579
 21
82.3527401974
 31
0.0
  0
LINE
  5
6F1
100
AcDbEntity
  8
0
370
        15
  6
Continuous
 62
         7
100
AcDbLine
 10
246.1308025134
 20
82.3527401974
 30
0.0
 11
228.7324597579
 21
82.3527401974
 31
0.0
  0
LINE
  5
6F2
100
AcDbEntity
  8
0
370
        15
  6
Continuous
 62
         7
100
AcDbLine
 10
344.4824597579
 20
92.3527401974
 30
0.0
 11
352.9824597579
 21
92.3527401974
 31
0.0
  0
LINE
  5
6F3
100
AcDbEntity
  8
0
370
        15
  6
Continuous
 62
         7
100
AcDbLine
 10
352.9824597579
 20
92.3527401974
 30
0.0
 11
352.9824597579
 21
82.3527401974
 31
0.0
  0
LINE
  5
6F4
100
AcDbEntity
  8
0
370
        15
  6
Continuous
 62
         7
100
AcDbLine
 10
344.4824597579
 20
82.3527401974
 30
0.0
 11
352.9824597579
 21
82.3527401974
 31
0.0
  0
LINE
  5
6F5
100
AcDbEntity
  8
0
370
        15
  6
Continuous
 62
         7
100
AcDbLine
 10
362.2782232575
 20
87.3527401974
 30
0.0
 11
362.2782232575
 21
82.3527401974
 31
0.0
  0
LINE
  5
6F6
100
AcDbEntity
  8
0
370
        15
  6
Continuous
 62
         7
100
AcDbLine
 10
378.7324597579
 20
92.3527401974
 30
0.0
 11
352.9824597579
 21
92.3527401974
 31
0.0
  0
LINE
  5
6F7
100
AcDbEntity
  8
0
370
        15
  6
Continuous
 62
         7
100
AcDbLine
 10
369.081018614
 20
82.3527401974
 30
0.0
 11
369.081018614
 21
87.3527401974
 31
0.0
  0
POLYLINE
  5
6F8
100
AcDbEntity
  8
0
370
        15
  6
Continuous
 62
         7
100
AcDb2dPolyline
 66
         1
 10
0.0
 20
0.0
 30
0.0
 70
       128
  0
VERTEX
  5
6F9
100
AcDbEntity
  8
0
100
AcDbVertex
100
AcDb2dVertex
 10
368.0655920021
 20
88.3527401974
 30
0.0
  0
VERTEX
  5
6FA
100
AcDbEntity
  8
0
100
AcDbVertex
100
AcDb2dVertex
 10
368.2419189828
 20
88.3375479504
 30
0.0
  0
VERTEX
  5
6FB
100
AcDbEntity
  8
0
100
AcDbVertex
100
AcDb2dVertex
 10
368.4128883574
 20
88.2924328182
 30
0.0
  0
VERTEX
  5
6FC
100
AcDbEntity
  8
0
100
AcDbVertex
100
AcDb2dVertex
 10
368.5733053081
 20
88.2187656012
 30
0.0
  0
VERTEX
  5
6FD
100
AcDbEntity
  8
0
100
AcDbVertex
100
AcDb2dVertex
 10
368.7182956468
 20
88.1187846405
 30
0.0
  0
VERTEX
  5
6FE
100
AcDbEntity
  8
0
100
AcDbVertex
100
AcDb2dVertex
 10
368.8434539155
 20
87.9955278071
 30
0.0
  0
VERTEX
  5
6FF
100
AcDbEntity
  8
0
100
AcDbVertex
100
AcDb2dVertex
 10
368.9449772437
 20
87.8527401974
 30
0.0
  0
VERTEX
  5
700
100
AcDbEntity
  8
0
100
AcDbVertex
100
AcDb2dVertex
 10
369.0197808962
 20
87.6947603407
 30
0.0
  0
VERTEX
  5
701
100
AcDbEntity
  8
0
100
AcDbVertex
100
AcDb2dVertex
 10
369.0655920021
 20
87.526388375
 30
0.0
  0
VERTEX
  5
702
100
AcDbEntity
  8
0
100
AcDbVertex
100
AcDb2dVertex
 10
369.081018614
 20
87.3527401974
 30
0.0
  0
SEQEND
  5
703
100
AcDbEntity
  8
0
  0
LINE
  5
704
100
AcDbEntity
  8
0
370
        15
  6
Continuous
 62
         7
100
AcDbLine
 10
363.34240103
 20
88.3527401974
 30
0.0
 11
368.0655920021
 21
88.3527401974
 31
0.0
  0
POLYLINE
  5
705
100
AcDbEntity
  8
0
370
        15
  6
Continuous
 62
         7
100
AcDb2dPolyline
 66
         1
 10
0.0
 20
0.0
 30
0.0
 70
       128
  0
VERTEX
  5
706
100
AcDbEntity
  8
0
100
AcDbVertex
100
AcDb2dVertex
 10
362.2782232575
 20
87.3527401974
 30
0.0
  0
VERTEX
  5
707
100
AcDbEntity
  8
0
100
AcDbVertex
100
AcDb2dVertex
 10
362.298671135
 20
87.5478305194
 30
0.0
  0
VERTEX
  5
708
100
AcDbEntity
  8
0
100
AcDbVertex
100
AcDb2dVertex
 10
362.359228967
 20
87.7354236297
 30
0.0
  0
VERTEX
  5
709
100
AcDbEntity
  8
0
100
AcDbVertex
100
AcDb2dVertex
 10
362.4575695501
 20
87.9083104304
 30
0.0
  0
VERTEX
  5
70A
100
AcDbEntity
  8
0
100
AcDbVertex
100
AcDb2dVertex
 10
362.5899137107
 20
88.0598469786
 30
0.0
  0
VERTEX
  5
70B
100
AcDbEntity
  8
0
100
AcDbVertex
100
AcDb2dVertex
 10
362.751175537
 20
88.1842098097
 30
0.0
  0
VERTEX
  5
70C
100
AcDbEntity
  8
0
100
AcDbVertex
100
AcDb2dVertex
 10
362.9351578274
 20
88.2766197299
 30
0.0
  0
VERTEX
  5
70D
100
AcDbEntity
  8
0
100
AcDbVertex
100
AcDb2dVertex
 10
363.1347902457
 20
88.3335254778
 30
0.0
  0
VERTEX
  5
70E
100
AcDbEntity
  8
0
100
AcDbVertex
100
AcDb2dVertex
 10
363.34240103
 20
88.3527401974
 30
0.0
  0
SEQEND
  5
70F
100
AcDbEntity
  8
0
  0
LINE
  5
710
100
AcDbEntity
  8
0
370
        15
  6
Continuous
 62
         7
100
AcDbLine
 10
378.7324597579
 20
82.3527401974
 30
0.0
 11
378.7324597579
 21
92.3527401974
 31
0.0
  0
LINE
  5
711
100
AcDbEntity
  8
0
370
        15
  6
Continuous
 62
         7
100
AcDbLine
 10
362.2782232575
 20
82.3527401974
 30
0.0
 11
352.9824597579
 21
82.3527401974
 31
0.0
  0
LINE
  5
712
100
AcDbEntity
  8
0
370
        15
  6
Continuous
 62
         7
100
AcDbLine
 10
378.7324597579
 20
82.3527401974
 30
0.0
 11
369.081018614
 21
82.3527401974
 31
0.0
  0
LINE
  5
713
100
AcDbEntity
  8
0
370
        15
  6
Continuous
 62
         7
100
AcDbLine
 10
262.7324597579
 20
82.3527401974
 30
0.0
 11
262.7324597579
 21
87.3527401974
 31
0.0
  0
ARC
  5
714
100
AcDbEntity
  8
0
370
        15
  6
Continuous
 62
         7
100
AcDbCircle
 10
261.7324597579
 20
87.3527401974
 30
0.0
 40
1.0
100
AcDbArc
 50
0.0
 51
90.0
  0
LINE
  5
715
100
AcDbEntity
  8
0
370
        15
  6
Continuous
 62
         7
100
AcDbLine
 10
259.2324597579
 20
88.3527401974
 30
0.0
 11
261.7324597579
 21
88.3527401974
 31
0.0
  0
ARC
  5
716
100
AcDbEntity
  8
0
370
        15
  6
Continuous
 62
         7
100
AcDbCircle
 10
259.2324597579
 20
87.3527401974
 30
0.0
 40
1.0
100
AcDbArc
 50
90.0
 51
180.0
  0
LINE
  5
717
100
AcDbEntity
  8
0
370
        15
  6
Continuous
 62
         7
100
AcDbLine
 10
258.2324597579
 20
87.3527401974
 30
0.0
 11
258.2324597579
 21
85.8527401974
 31
0.0
  0
LINE
  5
718
100
AcDbEntity
  8
0
370
        15
  6
Continuous
 62
         7
100
AcDbLine
 10
258.2324597579
 20
85.8527401974
 30
0.0
 11
255.3266573113
 21
85.8527401974
 31
0.0
  0
LINE
  5
719
100
AcDbEntity
  8
0
370
        15
  6
Continuous
 62
         7
100
AcDbLine
 10
269.4824597579
 20
82.3527401974
 30
0.0
 11
269.4824597579
 21
92.3527401974
 31
0.0
  0
LINE
  5
71A
100
AcDbEntity
  8
0
370
        15
  6
Continuous
 62
         7
100
AcDbLine
 10
269.4824597579
 20
92.3527401974
 30
0.0
 11
255.3266573113
 21
92.3527401974
 31
0.0
  0
LINE
  5
71B
100
AcDbEntity
  8
0
370
        15
  6
Continuous
 62
         7
100
AcDbLine
 10
269.4824597579
 20
82.3527401974
 30
0.0
 11
262.7324597579
 21
82.3527401974
 31
0.0
  0
LINE
  5
71C
100
AcDbEntity
  8
0
370
        15
  6
Continuous
 62
         7
100
AcDbLine
 10
269.4824597579
 20
92.3527401974
 30
0.0
 11
277.9824597579
 21
92.3527401974
 31
0.0
  0
LINE
  5
71D
100
AcDbEntity
  8
0
370
        15
  6
Continuous
 62
         7
100
AcDbLine
 10
269.4824597579
 20
82.3527401974
 30
0.0
 11
277.9824597579
 21
82.3527401974
 31
0.0
  0
LINE
  5
71E
100
AcDbEntity
  8
0
370
        15
  6
Continuous
 62
         7
100
AcDbLine
 10
362.9659853979
 20
82.3527401974
 30
0.0
 11
362.2782232575
 21
82.3527401974
 31
0.0
  0
LINE
  5
71F
100
AcDbEntity
  8
0
370
        15
  6
Continuous
 62
         7
100
AcDbLine
 10
260.1208071652
 20
85.8527401974
 30
0.0
 11
258.2324597579
 21
85.8527401974
 31
0.0
  0
LINE
  5
720
100
AcDbEntity
  8
0
370
        15
  6
Continuous
 62
         7
100
AcDbLine
 10
262.7324597579
 20
82.3527401974
 30
0.0
 11
260.1208071652
 21
82.3527401974
 31
0.0
  0
LINE
  5
721
100
AcDbEntity
  8
0
370
        15
  6
Continuous
 62
         7
100
AcDbLine
 10
246.1308025134
 20
82.3527401974
 30
0.0
 11
250.3109132487
 21
82.3527401974
 31
0.0
  0
LINE
  5
722
100
AcDbEntity
  8
0
370
        15
  6
Continuous
 62
         7
100
AcDbLine
 10
369.081018614
 20
82.3527401974
 30
0.0
 11
362.9659853979
 21
82.3527401974
 31
0.0
  0
LINE
  5
723
100
AcDbEntity
  8
0
370
        15
  6
Continuous
 62
         7
100
AcDbLine
 10
284.7324597579
 20
82.3527401974
 30
0.0
 11
288.0763253499
 21
82.3527401974
 31
0.0
  0
LINE
  5
724
100
AcDbEntity
  8
0
370
        15
  6
Continuous
 62
         7
100
AcDbLine
 10
250.3109132487
 20
82.3527401974
 30
0.0
 11
258.2389253357
 21
82.3527401974
 31
0.0
  0
LINE
  5
725
100
AcDbEntity
  8
0
370
        15
  6
Continuous
 62
         7
100
AcDbLine
 10
260.1208071652
 20
82.3527401974
 30
0.0
 11
258.2389253357
 21
82.3527401974
 31
0.0
  0
DIMENSION
  5
733
100
AcDbEntity
  8
0
 62
       255
100
AcDbDimension
  2
*D23
 10
358.0521462482
 20
82.3527401974
 30
0.0
 11
358.0521462482
 21
71.6250991456
 31
0.0
 70
       160
 71
         5
 72
         1
 41
1.0
 42
0.0
  3
SLDDIMSTYLE4
100
AcDbAlignedDimension
 13
363.34240103
 23
88.3527401974
 33
0.0
 14
369.081018614
 24
82.3527401974
 34
0.0
 50
90.0
100
AcDbRotatedDimension
  0
DIMENSION
  5
740
100
AcDbEntity
  8
0
 62
       255
100
AcDbDimension
  2
*D24
 10
238.5836022833
 20
82.3527401974
 30
0.0
 11
238.5836022833
 21
73.4805456082
 31
0.0
 70
       160
 71
         5
 72
         1
 41
1.0
 42
0.0
  3
SLDDIMSTYLE4
100
AcDbAlignedDimension
 13
248.3056954886
 23
85.8527401974
 33
0.0
 14
246.1308025134
 24
82.3527401974
 34
0.0
 50
90.0
100
AcDbRotatedDimension
  0
DIMENSION
  5
74D
100
AcDbEntity
  8
0
 62
       255
100
AcDbDimension
  2
*D25
 10
294.8914077136
 20
82.3527401974
 30
0.0
 11
294.8914077136
 21
72.9866174904
 31
0.0
 70
       160
 71
         5
 72
         1
 41
1.0
 42
0.0
  3
SLDDIMSTYLE4
100
AcDbAlignedDimension
 13
287.1324597579
 23
88.3527401974
 33
0.0
 14
288.1324597579
 24
82.3527401974
 34
0.0
 50
90.0
100
AcDbRotatedDimension
  0
DIMENSION
  5
75B
100
AcDbEntity
  8
0
 62
       255
100
AcDbDimension
  2
*D26
 10
221.613253012
 20
82.3527401974
 30
0.0
 11
221.613253012
 21
86.7777108434
 31
0.0
 70
       160
 71
         5
 72
         1
 41
1.0
 42
0.0
  3
SLDDIMSTYLE4
100
AcDbAlignedDimension
 13
228.7324597579
 23
92.3527401974
 33
0.0
 14
228.7324597579
 24
82.3527401974
 34
0.0
 50
90.0
100
AcDbRotatedDimension
  0
MTEXT
  5
75C
100
AcDbEntity
  8
0
 62
         7
100
AcDbMText
 10
230.8266171074
 20
104.0408192604
 30
0.0
 40
3.5
 41
0.0
 71
         2
 72
         1
  1
A-A
  7
SLDTEXTSTYLE0
 73
         1
 44
1.0
  0
ENDSEC
  0
SECTION
  2
OBJECTS
  0
DICTIONARY
  5
19
100
AcDbDictionary
280
         0
281
         1
  3
ACAD_GROUP
350
1A
  3
ACAD_MLINESTYLE
350
1B
  3
ACAD_LAYOUT
350
1E
  3
ACAD_PLOTSETTINGS
350
22
  3
ACAD_PLOTSTYLENAME
350
1F
  3
ACAD_WIPEOUT_VARS
350
23
  0
DICTIONARY
  5
1A
102
{ACAD_REACTORS
330
19
102
}
100
AcDbDictionary
280
         0
281
         1
  0
DICTIONARY
  5
1B
102
{ACAD_REACTORS
330
19
102
}
100
AcDbDictionary
280
         0
281
         1
  3
Standard
350
1C
  0
MLINESTYLE
  5
1C
102
{ACAD_REACTORS
330
1B
102
}
100
AcDbMlineStyle
  2
Standard
 70
         0
  3

 62
         0
 51
90.0
 52
90.0
 71
         2
 49
0.5
 62
       256
  6
BYLAYER
 49
-0.5
 62
       256
  6
BYLAYER
  0
ACDBDICTIONARYWDFLT
  5
1F
102
{ACAD_REACTORS
330
19
102
}
100
AcDbDictionary
281
         1
  3
Normal
350
1D
100
AcDbDictionaryWithDefault
340
1D
  0
ACDBPLACEHOLDER
  5
1D
102
{ACAD_REACTORS
330
1F
102
}
  0
LAYOUT
  5
20
102
{ACAD_REACTORS
330
1E
102
}
100
AcDbPlotSettings
  1

  2

  4

  6

 40
0.0
 41
0.0
 42
0.0
 43
0.0
 44
0.0
 45
0.0
 46
0.0
 47
0.0
 48
0.0
 49
0.0
140
0.0
141
0.0
142
1.0
143
1.0
 70
      1024
 72
         0
 73
         0
 74
         0
  7

 75
         0
147
1.0
148
0.0
149
0.0
100
AcDbLayout
  1
Model
 70
         0
 71
         0
 10
0.0
 20
0.0
 11
0.0
 21
0.0
 12
0.0
 22
0.0
 32
0.0
 14
0.0
 24
0.0
 34
0.0
 15
0.0
 25
0.0
 35
0.0
146
0.0
 13
0.0
 23
0.0
 33
0.0
 16
0.0
 26
0.0
 36
0.0
 17
0.0
 27
0.0
 37
0.0
 76
         0
330
A
331
0
345
0
346
0
  0
LAYOUT
  5
21
102
{ACAD_REACTORS
330
1E
102
}
100
AcDbPlotSettings
  1

  2

  4

  6

 40
0.0
 41
0.0
 42
0.0
 43
0.0
 44
0.0
 45
0.0
 46
0.0
 47
0.0
 48
0.0
 49
0.0
140
0.0
141
0.0
142
1.0
143
1.0
 70
         0
 72
         0
 73
         0
 74
         0
  7

 75
         0
147
1.0
148
0.0
149
0.0
100
AcDbLayout
  1
Layout1
 70
         0
 71
         0
 10
0.0
 20
0.0
 11
0.0
 21
0.0
 12
0.0
 22
0.0
 32
0.0
 14
0.0
 24
0.0
 34
0.0
 15
0.0
 25
0.0
 35
0.0
146
0.0
 13
0.0
 23
0.0
 33
0.0
 16
0.0
 26
0.0
 36
0.0
 17
0.0
 27
0.0
 37
0.0
 76
         0
330
B
331
0
345
0
346
0
  0
DICTIONARY
  5
1E
102
{ACAD_REACTORS
330
19
102
}
100
AcDbDictionary
280
         0
281
         1
  3
Layout1
350
21
  3
Model
350
20
  0
DICTIONARY
  5
22
102
{ACAD_REACTORS
330
19
102
}
100
AcDbDictionary
280
         0
281
         1
  0
WIPEOUTVARIABLES
  5
23
100
AcDbWipeoutVariables
 70
         1
  0
ENDSEC
  0
EOF
