  0
SECTION
  2
HEADER
  9
$ACADVER
  1
AC1015
  9
$ACADMAINTVER
 70
         6
  9
$DWGCODEPAGE
  3
ANSI_1252
  9
$INSBASE
 10
0.0
 20
0.0
 30
0.0
  9
$EXTMIN
 10
0.0
 20
0.0
 30
0.0
  9
$EXTMAX
 10
420.0
 20
297.0
 30
0.0
  9
$LIMMIN
 10
0.0
 20
0.0
  9
$LIMMAX
 10
0.0
 20
0.0
  9
$ORTHOMODE
 70
         0
  9
$REGENMODE
 70
         1
  9
$FILLMODE
 70
         1
  9
$QTEXTMODE
 70
         0
  9
$MIRRTEXT
 70
         1
  9
$LTSCALE
 40
1.0
  9
$ATTMODE
 70
         1
  9
$TEXTSIZE
 40
3.5
  9
$TRACEWID
 40
0.05
  9
$TEXTSTYLE
  7
Standard
  9
$CLAYER
  8
0
  9
$CELTYPE
  6
Continuous
  9
$CECOLOR
 62
       256
  9
$CELTSCALE
 40
1.0
  9
$DISPSILH
 70
         0
  9
$DIMSCALE
 40
1.0
  9
$DIMASZ
 40
3.0
  9
$DIMEXO
 40
1.0
  9
$DIMDLI
 40
0.38
  9
$DIMRND
 40
0.0
  9
$DIMDLE
 40
1.0
  9
$DIMEXE
 40
0.18
  9
$DIMTP
 40
0.0
  9
$DIMTM
 40
0.0
  9
$DIMTXT
 40
3.5
  9
$DIMCEN
 40
0.09
  9
$DIMTSZ
 40
0.0
  9
$DIMTOL
 70
         0
  9
$DIMLIM
 70
         0
  9
$DIMTIH
 70
         1
  9
$DIMTOH
 70
         1
  9
$DIMSE1
 70
         0
  9
$DIMSE2
 70
         0
  9
$DIMTAD
 70
         1
  9
$DIMZIN
 70
         0
  9
$DIMBLK
  1

  9
$DIMASO
 70
         1
  9
$DIMSHO
 70
         1
  9
$DIMPOST
  1

  9
$DIMAPOST
  1

  9
$DIMALT
 70
         0
  9
$DIMALTD
 70
         2
  9
$DIMALTF
 40
0.0394
  9
$DIMLFAC
 40
1.0
  9
$DIMTOFL
 70
         0
  9
$DIMTVP
 40
0.0
  9
$DIMTIX
 70
         0
  9
$DIMSOXD
 70
         0
  9
$DIMSAH
 70
         0
  9
$DIMBLK1
  1

  9
$DIMBLK2
  1

  9
$DIMSTYLE
  2
Standard
  9
$DIMCLRD
 70
         0
  9
$DIMCLRE
 70
         0
  9
$DIMCLRT
 70
         0
  9
$DIMTFAC
 40
1.0
  9
$DIMGAP
 40
1.0
  9
$DIMJUST
 70
         0
  9
$DIMSD1
 70
         0
  9
$DIMSD2
 70
         0
  9
$DIMTOLJ
 70
         1
  9
$DIMTZIN
 70
         0
  9
$DIMALTZ
 70
         0
  9
$DIMALTTZ
 70
         0
  9
$DIMUPT
 70
         0
  9
$DIMDEC
 70
         4
  9
$DIMTDEC
 70
         4
  9
$DIMALTU
 70
         2
  9
$DIMALTTD
 70
         2
  9
$DIMTXSTY
  7
Standard
  9
$DIMAUNIT
 70
         0
  9
$DIMADEC
 70
         0
  9
$DIMALTRND
 40
0.0
  9
$DIMAZIN
 70
         0
  9
$DIMDSEP
 70
         0
  9
$DIMATFIT
 70
         3
  9
$DIMFRAC
 70
         0
  9
$DIMLDRBLK
  1

  9
$DIMLUNIT
 70
         2
  9
$DIMLWD
 70
         0
  9
$DIMLWE
 70
         0
  9
$DIMTMOVE
 70
         0
  9
$LUNITS
 70
         2
  9
$LUPREC
 70
         2
  9
$SKETCHINC
 40
0.1
  9
$FILLETRAD
 40
0.0
  9
$AUNITS
 70
         0
  9
$AUPREC
 70
         2
  9
$MENU
  1
acad
  9
$ELEVATION
 40
0.0
  9
$PELEVATION
 40
0.0
  9
$THICKNESS
 40
0.0
  9
$LIMCHECK
 70
         0
  9
$CHAMFERA
 40
0.0
  9
$CHAMFERB
 40
0.0
  9
$CHAMFERC
 40
0.0
  9
$CHAMFERD
 40
0.0
  9
$SKPOLY
 70
         0
  9
$TDCREATE
 40
0.000000000
  9
$TDUCREATE
 40
0.000000000
  9
$TDUPDATE
 40
0.000000000
  9
$TDUUPDATE
 40
0.000000000
  9
$TDINDWG
 40
0.0000000000
  9
$TDUSRTIMER
 40
0.0000000000
  9
$USRTIMER
 70
         1
  9
$ANGBASE
 50
0.0
  9
$ANGDIR
 70
         0
  9
$PDMODE
 70
         0
  9
$PDSIZE
 40
-1.0
  9
$PLINEWID
 40
0.0
  9
$SPLFRAME
 70
         0
  9
$SPLINETYPE
 70
         6
  9
$SPLINESEGS
 70
         8
  9
$HANDSEED
  5
50B
  9
$SURFTAB1
 70
         6
  9
$SURFTAB2
 70
         6
  9
$SURFTYPE
 70
         6
  9
$SURFU
 70
         6
  9
$SURFV
 70
         6
  9
$UCSBASE
  2

  9
$UCSNAME
  2

  9
$UCSORG
 10
0.0
 20
0.0
 30
0.0
  9
$UCSXDIR
 10
1.0
 20
0.0
 30
0.0
  9
$UCSYDIR
 10
0.0
 20
1.0
 30
0.0
  9
$UCSORTHOREF
  2

  9
$UCSORTHOVIEW
 70
         0
  9
$UCSORGTOP
 10
0.0
 20
0.0
 30
0.0
  9
$UCSORGBOTTOM
 10
0.0
 20
0.0
 30
0.0
  9
$UCSORGLEFT
 10
0.0
 20
0.0
 30
0.0
  9
$UCSORGRIGHT
 10
0.0
 20
0.0
 30
0.0
  9
$UCSORGFRONT
 10
0.0
 20
0.0
 30
0.0
  9
$UCSORGBACK
 10
0.0
 20
0.0
 30
0.0
  9
$PUCSBASE
  2

  9
$PUCSNAME
  2

  9
$PUCSORG
 10
0.0
 20
0.0
 30
0.0
  9
$PUCSXDIR
 10
1.0
 20
0.0
 30
0.0
  9
$PUCSYDIR
 10
0.0
 20
1.0
 30
0.0
  9
$PUCSORTHOREF
  2

  9
$PUCSORTHOVIEW
 70
         0
  9
$PUCSORGTOP
 10
0.0
 20
0.0
 30
0.0
  9
$PUCSORGBOTTOM
 10
0.0
 20
0.0
 30
0.0
  9
$PUCSORGLEFT
 10
0.0
 20
0.0
 30
0.0
  9
$PUCSORGRIGHT
 10
0.0
 20
0.0
 30
0.0
  9
$PUCSORGFRONT
 10
0.0
 20
0.0
 30
0.0
  9
$PUCSORGBACK
 10
0.0
 20
0.0
 30
0.0
  9
$USERI1
 70
         0
  9
$USERI2
 70
         0
  9
$USERI3
 70
         0
  9
$USERI4
 70
         0
  9
$USERI5
 70
         0
  9
$USERR1
 40
0.0
  9
$USERR2
 40
0.0
  9
$USERR3
 40
0.0
  9
$USERR4
 40
0.0
  9
$USERR5
 40
0.0
  9
$WORLDVIEW
 70
         1
  9
$SHADEDGE
 70
         3
  9
$SHADEDIF
 70
        70
  9
$TILEMODE
 70
         1
  9
$MAXACTVP
 70
        16
  9
$PINSBASE
 10
0.0
 20
0.0
 30
0.0
  9
$PLIMCHECK
 70
         0
  9
$PEXTMIN
 10
1.0000000000E+20
 20
1.0000000000E+20
 30
1.0000000000E+20
  9
$PEXTMAX
 10
-1.0000000000E+20
 20
-1.0000000000E+20
 30
-1.0000000000E+20
  9
$PLIMMIN
 10
0.0
 20
0.0
  9
$PLIMMAX
 10
12.0
 20
9.0
  9
$UNITMODE
 70
         0
  9
$VISRETAIN
 70
         0
  9
$PLINEGEN
 70
         1
  9
$PSLTSCALE
 70
         1
  9
$TREEDEPTH
 70
      3020
  9
$CMLSTYLE
  2
Standard
  9
$CMLJUST
 70
         0
  9
$CMLSCALE
 40
1.0
  9
$PROXYGRAPHICS
 70
         0
  9
$MEASUREMENT
 70
         0
  9
$CELWEIGHT
370
         0
  9
$ENDCAPS
280
         0
  9
$JOINSTYLE
280
         0
  9
$LWDISPLAY
290
         0
  9
$INSUNITS
 70
         0
  9
$HYPERLINKBASE
  1

  9
$XEDIT
290
         1
  9
$CEPSNTYPE
380
         0
  9
$PSTYLEMODE
290
         1
  9
$FINGERPRINTGUID
  2

  9
$VERSIONGUID
  2

  9
$EXTNAMES
290
         1
  9
$PSVPSCALE
 40
0.0
  0
ENDSEC
  0
SECTION
  2
CLASSES
  0
CLASS
  1
LWPOLYLINE
  2
AcDbPolyline
  3
AutoCAD 2000
 90
    32768
280
         0
281
         1
  0
CLASS
  1
IMAGE
  2
AcDbRasterImage
  3
ISM
 90
    32895
280
         0
281
         1
  0
CLASS
  1
OLE2FRAME
  2
AcDbOle2Frame
  3
AutoCAD 2000
 90
    32768
280
         0
281
         1
  0
CLASS
  1
HATCH
  2
AcDbHatch
  3
AutoCAD 2000
 90
    32768
280
         0
281
         1
  0
CLASS
  1
DICTIONARYVAR
  2
AcDbDictionaryVar
  3
AutoCAD 2000
 90
    32768
280
         0
281
         0
  0
CLASS
  1
RASTERVARIABLES
  2
AcDbRasterVariables
  3
ISM
 90
    32768
280
         0
281
         0
  0
CLASS
  1
IMAGEDEF
  2
AcDbRasterImageDef
  3
ISM
 90
    32768
280
         0
281
         0
  0
CLASS
  1
IMAGEDEF_REACTOR
  2
AcDbRasterImageDefReactor
  3
ISM
 90
    32769
280
         0
281
         0
  0
CLASS
  1
IDBUFFER
  2
AcDbIdBuffer
  3
AutoCAD 2000
 90
    32768
280
         0
281
         0
  0
CLASS
  1
SPATIAL_FILTER
  2
AcDbSpatialFilter
  3
AutoCAD 2000
 90
    32768
280
         0
281
         0
  0
CLASS
  1
XRECORD
  2
AcDbXrecord
  3
AutoCAD 2000
 90
    32768
280
         0
281
         0
  0
CLASS
  1
SORTENTSTABLE
  2
AcDbSortentsTable
  3
AutoCAD 2000
 90
    32768
280
         0
281
         0
  0
CLASS
  1
LAYER_INDEX
  2
AcDbLayerIndex
  3
AutoCAD 2000
 90
    32768
280
         0
281
         0
  0
CLASS
  1
SPATIAL_INDEX
  2
AcDbSpatialIndex
  3
AutoCAD 2000
 90
    32768
280
         0
281
         0
  0
CLASS
  1
OBJECT_PTR
  2
CAseDLPNTableRecord
  3
"ASE-LPNTableRecord"
 90
    32769
280
         0
281
         0
  0
CLASS
  1
LAYOUT
  2
AcDbLayout
  3
AutoCAD 2000
 90
        0
280
         0
281
         0
  0
CLASS
  1
PLOTSETTINGS
  2
AcDbPlotSettings
  3
AutoCAD 2000
 90
    32768
280
         0
281
         0
  0
CLASS
  1
ACDBDICTIONARYWDFLT
  2
AcDbDictionaryWithDefault
  3
AutoCAD 2000
 90
        0
280
         0
281
         0
  0
CLASS
  1
ACDBPLACEHOLDER
  2
AcDbPlaceHolder
  3
AutoCAD 2000
 90
        0
280
         0
281
         0
  0
CLASS
  1
VBA_PROJECT
  2
AcDbVbaProject
  3
acadvba
 90
    32768
280
         0
281
         0
  0
CLASS
  1
WIPEOUT
  2
AcDbWipeout
  3
WipeOut|AutoCAD Express Tool|expresstools@autodesk.com
 90
    32895
280
         0
281
         1
  0
CLASS
  1
WIPEOUTVARIABLES
  2
AcDbWipeoutVariables
  3
WipeOut|AutoCAD Express Tool|expresstools@autodesk.com
 90
        0
280
         0
281
         0
  0
CLASS
  1
RTEXT
  2
RText
  3
RText|AutoCAD Express Tool|expresstools@autodesk.com
 90
    32768
280
         0
281
         1
  0
CLASS
  1
ARCALIGNEDTEXT
  2
AcDbArcAlignedText
  3
ATEXT|AutoCAD Express Tool|expresstools@autodesk.com
 90
    32768
280
         0
281
         1
  0
ENDSEC
  0
SECTION
  2
TABLES
  0
TABLE
  2
VPORT
  5
7
100
AcDbSymbolTable
 70
         1
  0
VPORT
  5
15
100
AcDbSymbolTableRecord
100
AcDbViewportTableRecord
  2
*ACTIVE
 70
         0
 10
0.0
 20
0.0
 11
1.0
 21
1.0
 12
210.0
 22
148.5
 13
0.0
 23
0.0
 14
1.0
 24
1.0
 15
0.0
 25
0.0
 16
0.0
 26
0.0
 36
1.0
 17
0.0
 27
0.0
 37
0.0
 40
297.0
 41
0.7071428571
 42
50.0
 43
0.0
 44
0.0
 50
0.0
 51
0.0
 71
         0
 72
      2000
 73
         1
 74
         1
 75
         0
 76
         0
 77
         0
 78
         0
281
         0
 65
         0
110
0.0
120
0.0
130
0.0
111
1.0
121
0.0
131
0.0
112
0.0
122
1.0
132
0.0
345
0
346
0
 79
         0
146
0.0
  0
ENDTAB
  0
TABLE
  2
LTYPE
  5
4
100
AcDbSymbolTable
 70
         9
  0
LTYPE
  5
11
100
AcDbSymbolTableRecord
100
AcDbLinetypeTableRecord
  2
ByBlock
 70
        64
  3

 72
        65
 73
         0
 40
0.0
  0
LTYPE
  5
12
100
AcDbSymbolTableRecord
100
AcDbLinetypeTableRecord
  2
ByLayer
 70
        64
  3

 72
        65
 73
         0
 40
0.0
  0
LTYPE
  5
13
100
AcDbSymbolTableRecord
100
AcDbLinetypeTableRecord
  2
Continuous
 70
        64
  3
Solid line
 72
        65
 73
         0
 40
0.0
  0
LTYPE
  5
24
100
AcDbSymbolTableRecord
100
AcDbLinetypeTableRecord
  2
CONTINUOUS
 70
        64
  3
Solid line
 72
        65
 73
         1
 40
60.96
 49
60.96
 74
         0
  0
LTYPE
  5
25
100
AcDbSymbolTableRecord
100
AcDbLinetypeTableRecord
  2
HIDDEN
 70
        64
  3
Hidden __ __ __ __ __ __ __ __ __ __ __ __ __ __
 72
        65
 73
         2
 40
1.905
 49
1.27
 74
         0
 49
-0.635
 74
         0
  0
LTYPE
  5
26
100
AcDbSymbolTableRecord
100
AcDbLinetypeTableRecord
  2
PHANTOM
 70
        64
  3
Phantom ______  __  __  ______  __  __  ______
 72
        65
 73
         6
 40
12.7
 49
6.35
 74
         0
 49
-1.27
 74
         0
 49
1.27
 74
         0
 49
-1.27
 74
         0
 49
1.27
 74
         0
 49
-1.27
 74
         0
  0
LTYPE
  5
27
100
AcDbSymbolTableRecord
100
AcDbLinetypeTableRecord
  2
CENTER
 70
        64
  3
Center ____ _ ____ _ ____ _ ____ _ ____ _ ____
 72
        65
 73
         4
 40
10.16
 49
6.35
 74
         0
 49
-1.27
 74
         0
 49
1.27
 74
         0
 49
-1.27
 74
         0
  0
LTYPE
  5
28
100
AcDbSymbolTableRecord
100
AcDbLinetypeTableRecord
  2
CENTERX2
 70
        64
  3
Center (2x) ________  __  ________  __  _____
 72
        65
 73
         4
 40
20.32
 49
12.7
 74
         0
 49
-2.54
 74
         0
 49
2.54
 74
         0
 49
-2.54
 74
         0
  0
LTYPE
  5
29
100
AcDbSymbolTableRecord
100
AcDbLinetypeTableRecord
  2
DOT2
 70
        64
  3
Dot (.5x) ........................................
 72
        65
 73
         2
 40
0.635
 49
0.0
 74
         0
 49
-0.635
 74
         0
  0
ENDTAB
  0
TABLE
  2
LAYER
  5
2
100
AcDbSymbolTable
 70
         1
  0
LAYER
  5
14
100
AcDbSymbolTableRecord
100
AcDbLayerTableRecord
  2
0
 70
         0
 62
         7
  6
Continuous
290
         1
370
        -3
390
1D
  0
ENDTAB
  0
TABLE
  2
STYLE
  5
3
100
AcDbSymbolTable
 70
         2
  0
STYLE
  5
17
100
AcDbSymbolTableRecord
100
AcDbTextStyleTableRecord
  2
Standard
 70
         0
 40
0.0
 41
1.0
 50
0.0
 71
         0
 42
0.0
  3
txt
  4

  0
STYLE
  5
59
100
AcDbSymbolTableRecord
100
AcDbTextStyleTableRecord
  2
SLDTEXTSTYLE0
 70
         0
 40
0.0
 41
0.75
 50
0.0
 71
         0
 42
0.0
  3
txt
  4

  0
ENDTAB
  0
TABLE
  2
VIEW
  5
5
100
AcDbSymbolTable
 70
         0
  0
ENDTAB
  0
TABLE
  2
UCS
  5
6
100
AcDbSymbolTable
 70
         0
  0
ENDTAB
  0
TABLE
  2
APPID
  5
8
100
AcDbSymbolTable
 70
         1
  0
APPID
  5
16
100
AcDbSymbolTableRecord
100
AcDbRegAppTableRecord
  2
ACAD
 70
         0
  0
ENDTAB
  0
TABLE
  2
DIMSTYLE
  5
9
100
AcDbSymbolTable
 70
        11
100
AcDbDimStyleTable
 71
         0
  0
DIMSTYLE
105
18
100
AcDbSymbolTableRecord
100
AcDbDimStyleTableRecord
  2
Standard
 70
         0
  3

  4

 40
1.0
 41
0.18
 42
0.0625
 43
0.38
 44
0.18
 45
0.0
 46
0.0
 47
0.0
 48
0.0
 71
         0
 72
         0
 73
         1
 74
         1
 75
         0
 76
         0
 77
         0
 78
         0
 79
         0
140
0.18
141
0.09
142
0.0
143
25.4
144
1.0
145
0.0
146
1.0
147
0.09
148
0.0
170
         0
171
         2
172
         0
173
         0
174
         0
175
         0
176
         0
177
         0
178
         0
179
         0
271
         4
272
         4
273
         2
274
         2
275
         0
276
         0
277
         2
278
        46
279
         0
280
         0
281
         0
282
         0
283
         1
284
         0
285
         0
286
         0
288
         0
340
17
341
0
342
0
343
0
344
0
371
        -2
372
        -2
  0
DIMSTYLE
105
54
100
AcDbSymbolTableRecord
100
AcDbDimStyleTableRecord
  2
SLDDIMSTYLE0
 70
         0
  3

  4

 40
1.0
 41
1.0
 42
0.0625
 43
0.38
 44
0.0
 45
0.0
 46
0.0
 47
0.0
 48
0.0
 71
         0
 72
         0
 73
         1
 74
         1
 75
         0
 76
         0
 77
         0
 78
         0
 79
         0
140
6.0
141
0.09
142
0.0
143
25.4
144
1.0
145
0.0
146
1.0
147
1.5
148
0.0
170
         0
171
         2
172
         0
173
         1
174
         0
175
         0
176
         0
177
         0
178
         0
179
         0
271
         0
272
         0
273
         2
274
         2
275
         0
276
         0
277
         2
278
        46
279
         0
280
         0
281
         0
282
         0
283
         1
284
         0
285
         0
286
         0
288
         0
340
17
341
0
342
0
343
4C
344
4C
371
        -2
372
        -2
  0
DIMSTYLE
105
56
100
AcDbSymbolTableRecord
100
AcDbDimStyleTableRecord
  2
SLDDIMSTYLE1
 70
         0
  3

  4

 40
1.0
 41
3.0
 42
0.0625
 43
0.38
 44
0.0
 45
0.0
 46
0.0
 47
0.0
 48
0.0
 71
         0
 72
         0
 73
         1
 74
         1
 75
         0
 76
         0
 77
         0
 78
         0
 79
         0
140
6.0
141
0.09
142
0.0
143
25.4
144
1.0
145
0.0
146
1.0
147
1.5
148
0.0
170
         0
171
         2
172
         0
173
         1
174
         0
175
         0
176
         0
177
         0
178
         0
179
         0
271
         0
272
         0
273
         2
274
         2
275
         0
276
         0
277
         2
278
        46
279
         0
280
         0
281
         0
282
         0
283
         1
284
         0
285
         0
286
         0
288
         0
340
17
341
0
342
0
343
0
344
0
371
        -2
372
        -2
  0
DIMSTYLE
105
276
100
AcDbSymbolTableRecord
100
AcDbDimStyleTableRecord
  2
SLDDIMSTYLE2
 70
         0
  3

  4

 40
1.0
 41
3.0
 42
0.0625
 43
0.38
 44
1.0
 45
0.0
 46
0.0
 47
0.0
 48
0.0
 71
         0
 72
         0
 73
         1
 74
         1
 75
         0
 76
         0
 77
         0
 78
         8
 79
         0
140
3.5
141
0.09
142
0.0
143
25.4
144
1.0
145
0.0
146
1.0
147
0.875
148
0.0
170
         0
171
         2
172
         0
173
         1
174
         0
175
         0
176
       255
177
       255
178
       255
179
         0
271
         0
272
         4
273
         2
274
         2
275
         0
276
         0
277
         2
278
        46
279
         0
280
         0
281
         0
282
         0
283
         1
284
        12
285
         0
286
         0
288
         0
340
17
341
0
342
0
343
277
344
277
371
        -2
372
        -2
  0
DIMSTYLE
105
282
100
AcDbSymbolTableRecord
100
AcDbDimStyleTableRecord
  2
SLDDIMSTYLE3
 70
         0
  3

  4

 40
1.0
 41
3.0
 42
0.0625
 43
0.38
 44
1.0
 45
0.0
 46
0.0
 47
0.0
 48
0.0
 71
         0
 72
         0
 73
         1
 74
         1
 75
         0
 76
         0
 77
         0
 78
        12
 79
         0
140
3.5
141
0.09
142
0.0
143
25.4
144
1.0
145
0.0
146
1.0
147
0.875
148
0.0
170
         0
171
         2
172
         0
173
         1
174
         0
175
         0
176
       255
177
       255
178
       255
179
         0
271
         2
272
         4
273
         2
274
         2
275
         0
276
         0
277
         2
278
        46
279
         0
280
         0
281
         0
282
         0
283
         1
284
        12
285
         0
286
         0
288
         0
340
17
341
0
342
0
343
277
344
277
371
        -2
372
        -2
  0
DIMSTYLE
105
2D9
100
AcDbSymbolTableRecord
100
AcDbDimStyleTableRecord
  2
SLDDIMSTYLE4
 70
         0
  3

  4

 40
1.0
 41
3.0
 42
0.0625
 43
0.38
 44
1.0
 45
0.0
 46
0.0
 47
0.0
 48
0.0
 71
         0
 72
         0
 73
         1
 74
         1
 75
         0
 76
         0
 77
         0
 78
        12
 79
         0
140
3.5
141
0.09
142
0.0
143
25.4
144
1.0
145
0.0
146
1.0
147
0.875
148
0.0
170
         0
171
         2
172
         1
173
         1
174
         0
175
         0
176
       255
177
       255
178
       255
179
         0
271
         2
272
         4
273
         2
274
         2
275
         0
276
         0
277
         2
278
        46
279
         0
280
         0
281
         0
282
         0
283
         1
284
        12
285
         0
286
         0
288
         0
340
17
341
0
342
0
343
0
344
0
371
        -2
372
        -2
  0
DIMSTYLE
105
2EA
100
AcDbSymbolTableRecord
100
AcDbDimStyleTableRecord
  2
SLDDIMSTYLE5
 70
         0
  3

  4

 40
1.0
 41
3.0
 42
0.0625
 43
0.38
 44
1.0
 45
0.0
 46
0.0
 47
0.1
 48
0.0
 71
         1
 72
         0
 73
         1
 74
         1
 75
         0
 76
         0
 77
         0
 78
        12
 79
         0
140
3.5
141
0.09
142
0.0
143
25.4
144
1.0
145
0.0
146
1.0
147
0.875
148
0.0
170
         0
171
         2
172
         1
173
         1
174
         0
175
         0
176
       255
177
       255
178
       255
179
         0
271
         2
272
         2
273
         2
274
         2
275
         0
276
         0
277
         2
278
        46
279
         0
280
         0
281
         0
282
         0
283
         1
284
         8
285
         0
286
         0
288
         0
340
17
341
0
342
0
343
0
344
0
371
        -2
372
        -2
  0
DIMSTYLE
105
2F8
100
AcDbSymbolTableRecord
100
AcDbDimStyleTableRecord
  2
SLDDIMSTYLE6
 70
         0
  3

  4

 40
1.0
 41
3.0
 42
0.0625
 43
0.38
 44
1.0
 45
0.0
 46
0.0
 47
0.0
 48
0.0
 71
         0
 72
         0
 73
         1
 74
         1
 75
         0
 76
         0
 77
         0
 78
        12
 79
         0
140
3.5
141
0.09
142
0.0
143
25.4
144
1.0
145
0.0
146
1.0
147
0.875
148
0.0
170
         0
171
         2
172
         0
173
         1
174
         0
175
         0
176
       255
177
       255
178
       255
179
         0
271
         2
272
         4
273
         2
274
         2
275
         0
276
         0
277
         2
278
        46
279
         0
280
         0
281
         0
282
         0
283
         1
284
        12
285
         0
286
         0
288
         0
340
17
341
0
342
0
343
0
344
0
371
        -2
372
        -2
  0
DIMSTYLE
105
350
100
AcDbSymbolTableRecord
100
AcDbDimStyleTableRecord
  2
SLDDIMSTYLE7
 70
         0
  3

  4

 40
1.0
 41
3.0
 42
0.0625
 43
0.38
 44
1.0
 45
0.0
 46
0.0
 47
0.0
 48
0.0
 71
         0
 72
         0
 73
         1
 74
         1
 75
         0
 76
         0
 77
         0
 78
         8
 79
         0
140
3.5
141
0.09
142
0.0
143
25.4
144
1.0
145
0.0
146
1.0
147
0.875
148
0.0
170
         0
171
         2
172
         0
173
         1
174
         0
175
         0
176
       255
177
       255
178
       255
179
         0
271
         0
272
         4
273
         2
274
         2
275
         0
276
         0
277
         2
278
        46
279
         0
280
         0
281
         0
282
         0
283
         1
284
        12
285
         0
286
         0
288
         0
340
17
341
0
342
0
343
277
344
277
371
        -2
372
        -2
  0
DIMSTYLE
105
359
100
AcDbSymbolTableRecord
100
AcDbDimStyleTableRecord
  2
SLDDIMSTYLE8
 70
         0
  3

  4

 40
1.0
 41
3.0
 42
0.0625
 43
0.38
 44
1.0
 45
0.0
 46
0.0
 47
0.0
 48
0.0
 71
         0
 72
         0
 73
         1
 74
         1
 75
         0
 76
         0
 77
         0
 78
        12
 79
         0
140
3.5
141
0.09
142
0.0
143
25.4
144
1.0
145
0.0
146
1.0
147
0.875
148
0.0
170
         0
171
         2
172
         0
173
         1
174
         0
175
         0
176
       255
177
       255
178
       255
179
         0
271
         2
272
         4
273
         2
274
         2
275
         0
276
         0
277
         2
278
        46
279
         0
280
         0
281
         0
282
         0
283
         1
284
        12
285
         0
286
         0
288
         0
340
17
341
0
342
0
343
277
344
277
371
        -2
372
        -2
  0
DIMSTYLE
105
3A7
100
AcDbSymbolTableRecord
100
AcDbDimStyleTableRecord
  2
SLDDIMSTYLE9
 70
         0
  3

  4

 40
1.0
 41
3.0
 42
0.0625
 43
0.38
 44
1.0
 45
0.0
 46
0.0
 47
0.0
 48
0.0
 71
         0
 72
         0
 73
         1
 74
         1
 75
         0
 76
         0
 77
         0
 78
        12
 79
         0
140
3.5
141
0.09
142
0.0
143
25.4
144
1.0
145
0.0
146
1.0
147
0.875
148
0.0
170
         0
171
         2
172
         1
173
         1
174
         0
175
         0
176
       255
177
       255
178
       255
179
         0
271
         2
272
         4
273
         2
274
         2
275
         0
276
         0
277
         2
278
        46
279
         0
280
         0
281
         0
282
         0
283
         1
284
        12
285
         0
286
         0
288
         0
340
17
341
0
342
0
343
0
344
0
371
        -2
372
        -2
  0
ENDTAB
  0
TABLE
  2
BLOCK_RECORD
  5
1
100
AcDbSymbolTable
 70
        28
  0
BLOCK_RECORD
  5
A
100
AcDbSymbolTableRecord
100
AcDbBlockTableRecord
  2
*MODEL_SPACE
340
20
  0
BLOCK_RECORD
  5
B
100
AcDbSymbolTableRecord
100
AcDbBlockTableRecord
  2
*PAPER_SPACE
340
21
  0
BLOCK_RECORD
  5
4C
100
AcDbSymbolTableRecord
100
AcDbBlockTableRecord
  2
_DOT
340
0
  0
BLOCK_RECORD
  5
272
100
AcDbSymbolTableRecord
100
AcDbBlockTableRecord
  2
*D1
340
0
  0
BLOCK_RECORD
  5
277
100
AcDbSymbolTableRecord
100
AcDbBlockTableRecord
  2
_NONE
340
0
  0
BLOCK_RECORD
  5
27E
100
AcDbSymbolTableRecord
100
AcDbBlockTableRecord
  2
*D3
340
0
  0
BLOCK_RECORD
  5
287
100
AcDbSymbolTableRecord
100
AcDbBlockTableRecord
  2
*D4
340
0
  0
BLOCK_RECORD
  5
28F
100
AcDbSymbolTableRecord
100
AcDbBlockTableRecord
  2
*D5
340
0
  0
BLOCK_RECORD
  5
297
100
AcDbSymbolTableRecord
100
AcDbBlockTableRecord
  2
*D6
340
0
  0
BLOCK_RECORD
  5
29F
100
AcDbSymbolTableRecord
100
AcDbBlockTableRecord
  2
*D7
340
0
  0
BLOCK_RECORD
  5
2A7
100
AcDbSymbolTableRecord
100
AcDbBlockTableRecord
  2
*D8
340
0
  0
BLOCK_RECORD
  5
2AF
100
AcDbSymbolTableRecord
100
AcDbBlockTableRecord
  2
*D9
340
0
  0
BLOCK_RECORD
  5
2B7
100
AcDbSymbolTableRecord
100
AcDbBlockTableRecord
  2
*D10
340
0
  0
BLOCK_RECORD
  5
2BF
100
AcDbSymbolTableRecord
100
AcDbBlockTableRecord
  2
*D11
340
0
  0
BLOCK_RECORD
  5
2C7
100
AcDbSymbolTableRecord
100
AcDbBlockTableRecord
  2
*D12
340
0
  0
BLOCK_RECORD
  5
2CF
100
AcDbSymbolTableRecord
100
AcDbBlockTableRecord
  2
*D13
340
0
  0
BLOCK_RECORD
  5
2DE
100
AcDbSymbolTableRecord
100
AcDbBlockTableRecord
  2
*D14
340
0
  0
BLOCK_RECORD
  5
2EF
100
AcDbSymbolTableRecord
100
AcDbBlockTableRecord
  2
*D15
340
0
  0
BLOCK_RECORD
  5
34C
100
AcDbSymbolTableRecord
100
AcDbBlockTableRecord
  2
*D16
340
0
  0
BLOCK_RECORD
  5
355
100
AcDbSymbolTableRecord
100
AcDbBlockTableRecord
  2
*D17
340
0
  0
BLOCK_RECORD
  5
35E
100
AcDbSymbolTableRecord
100
AcDbBlockTableRecord
  2
*D18
340
0
  0
BLOCK_RECORD
  5
366
100
AcDbSymbolTableRecord
100
AcDbBlockTableRecord
  2
*D19
340
0
  0
BLOCK_RECORD
  5
36E
100
AcDbSymbolTableRecord
100
AcDbBlockTableRecord
  2
*D20
340
0
  0
BLOCK_RECORD
  5
376
100
AcDbSymbolTableRecord
100
AcDbBlockTableRecord
  2
*D21
340
0
  0
BLOCK_RECORD
  5
384
100
AcDbSymbolTableRecord
100
AcDbBlockTableRecord
  2
*D22
340
0
  0
BLOCK_RECORD
  5
391
100
AcDbSymbolTableRecord
100
AcDbBlockTableRecord
  2
*D23
340
0
  0
BLOCK_RECORD
  5
39E
100
AcDbSymbolTableRecord
100
AcDbBlockTableRecord
  2
*D24
340
0
  0
BLOCK_RECORD
  5
3FD
100
AcDbSymbolTableRecord
100
AcDbBlockTableRecord
  2
*D25
340
0
  0
BLOCK_RECORD
  5
479
100
AcDbSymbolTableRecord
100
AcDbBlockTableRecord
  2
*D26
340
0
  0
BLOCK_RECORD
  5
4F9
100
AcDbSymbolTableRecord
100
AcDbBlockTableRecord
  2
*D27
340
0
  0
ENDTAB
  0
ENDSEC
  0
SECTION
  2
BLOCKS
  0
BLOCK
  5
D
100
AcDbEntity
  8
0
100
AcDbBlockBegin
  2
*MODEL_SPACE
 70
         0
 10
0.0
 20
0.0
 30
0.0
  3
*MODEL_SPACE
  1

  0
ENDBLK
  5
E
100
AcDbEntity
  8
0
100
AcDbBlockEnd
  0
BLOCK
  5
F
100
AcDbEntity
 67
         1
  8
0
100
AcDbBlockBegin
  2
*PAPER_SPACE
 70
         0
 10
0.0
 20
0.0
 30
0.0
  3
*PAPER_SPACE
  1

  0
ENDBLK
  5
10
100
AcDbEntity
 67
         1
  8
0
100
AcDbBlockEnd
  0
BLOCK
  5
4D
100
AcDbEntity
  8
0
100
AcDbBlockBegin
  2
_DOT
 70
         0
 10
0.0
 20
0.0
 30
0.0
  3
_DOT
  1

  0
POLYLINE
  5
4E
100
AcDbEntity
  8
0
100
AcDb2dPolyline
 66
         1
 10
0.0
 20
0.0
 30
0.0
 70
         1
 40
0.5
 41
0.5
  0
VERTEX
  5
4F
100
AcDbEntity
  8
0
100
AcDbVertex
100
AcDb2dVertex
 10
-0.25
 20
0.0
 30
0.0
 42
1.0
  0
VERTEX
  5
50
100
AcDbEntity
  8
0
100
AcDbVertex
100
AcDb2dVertex
 10
0.25
 20
0.0
 30
0.0
 42
1.0
  0
SEQEND
  5
51
100
AcDbEntity
  8
0
  0
LINE
  5
52
100
AcDbEntity
  8
0
100
AcDbLine
 10
-0.5
 20
0.0
 30
0.0
 11
-1.0
 21
0.0
 31
0.0
  0
ENDBLK
  5
53
100
AcDbEntity
  8
0
100
AcDbBlockEnd
  0
BLOCK
  5
273
100
AcDbEntity
  8
0
 62
       255
100
AcDbBlockBegin
  2
*D1
 70
         1
 10
0.0
 20
0.0
 30
0.0
  3
*D1
  1

  0
MTEXT
  5
274
100
AcDbEntity
  8
0
 62
         7
100
AcDbMText
 10
207.6491027607
 20
86.6938091357
 30
0.0
 40
3.5
 41
0.0
 71
         7
 72
         1
  1
0
  7
SLDTEXTSTYLE0
 11
0.0
 21
1.0
 31
0.0
 73
         1
 44
1.0
  0
LINE
  5
275
100
AcDbEntity
  8
0
100
AcDbLine
 10
206.3705244474
 20
98.9788687931
 30
0.0
 11
206.3705244474
 21
90.8663332321
 31
0.0
  0
POINT
  5
27A
100
AcDbEntity
  8
0
 62
         7
100
AcDbPoint
 10
206.3705244474
 20
99.9788687931
 30
0.0
  0
POINT
  5
27B
100
AcDbEntity
  8
0
 62
         7
100
AcDbPoint
 10
206.3705244474
 20
90.8663332321
 30
0.0
  0
ENDBLK
  5
27C
100
AcDbEntity
  8
0
100
AcDbBlockEnd
  0
BLOCK
  5
278
100
AcDbEntity
  8
0
100
AcDbBlockBegin
  2
_NONE
 70
         0
 10
0.0
 20
0.0
 30
0.0
  3
_NONE
  1

  0
ENDBLK
  5
279
100
AcDbEntity
  8
0
100
AcDbBlockEnd
  0
BLOCK
  5
27F
100
AcDbEntity
  8
0
 62
       255
100
AcDbBlockBegin
  2
*D3
 70
         1
 10
0.0
 20
0.0
 30
0.0
  3
*D3
  1

  0
MTEXT
  5
280
100
AcDbEntity
  8
0
 62
         7
100
AcDbMText
 10
216.6491027607
 20
86.6938091357
 30
0.0
 40
3.5
 41
0.0
 71
         7
 72
         1
  1
9
  7
SLDTEXTSTYLE0
 11
0.0
 21
1.0
 31
0.0
 73
         1
 44
1.0
  0
LINE
  5
281
100
AcDbEntity
  8
0
100
AcDbLine
 10
215.3705244474
 20
107.9788687931
 30
0.0
 11
215.3705244474
 21
90.8663332321
 31
0.0
  0
POINT
  5
283
100
AcDbEntity
  8
0
 62
         7
100
AcDbPoint
 10
215.3705244474
 20
108.9788687931
 30
0.0
  0
POINT
  5
284
100
AcDbEntity
  8
0
 62
         7
100
AcDbPoint
 10
215.3705244474
 20
90.8663332321
 30
0.0
  0
ENDBLK
  5
285
100
AcDbEntity
  8
0
100
AcDbBlockEnd
  0
BLOCK
  5
288
100
AcDbEntity
  8
0
 62
       255
100
AcDbBlockBegin
  2
*D4
 70
         1
 10
0.0
 20
0.0
 30
0.0
  3
*D4
  1

  0
MTEXT
  5
289
100
AcDbEntity
  8
0
 62
         7
100
AcDbMText
 10
237.6491027607
 20
84.1087850394
 30
0.0
 40
3.5
 41
0.0
 71
         7
 72
         1
  1
30
  7
SLDTEXTSTYLE0
 11
0.0
 21
1.0
 31
0.0
 73
         1
 44
1.0
  0
LINE
  5
28A
100
AcDbEntity
  8
0
100
AcDbLine
 10
236.3705244474
 20
223.9788687931
 30
0.0
 11
236.3705244474
 21
90.8663332321
 31
0.0
  0
POINT
  5
28B
100
AcDbEntity
  8
0
 62
         7
100
AcDbPoint
 10
236.3705244474
 20
224.9788687931
 30
0.0
  0
POINT
  5
28C
100
AcDbEntity
  8
0
 62
         7
100
AcDbPoint
 10
236.3705244474
 20
90.8663332321
 30
0.0
  0
ENDBLK
  5
28D
100
AcDbEntity
  8
0
100
AcDbBlockEnd
  0
BLOCK
  5
290
100
AcDbEntity
  8
0
 62
       255
100
AcDbBlockBegin
  2
*D5
 70
         1
 10
0.0
 20
0.0
 30
0.0
  3
*D5
  1

  0
MTEXT
  5
291
100
AcDbEntity
  8
0
 62
         7
100
AcDbMText
 10
258.6491027607
 20
84.1087850394
 30
0.0
 40
3.5
 41
0.0
 71
         7
 72
         1
  1
51
  7
SLDTEXTSTYLE0
 11
0.0
 21
1.0
 31
0.0
 73
         1
 44
1.0
  0
LINE
  5
292
100
AcDbEntity
  8
0
100
AcDbLine
 10
257.3705244474
 20
229.9788687931
 30
0.0
 11
257.3705244474
 21
90.8663332321
 31
0.0
  0
POINT
  5
293
100
AcDbEntity
  8
0
 62
         7
100
AcDbPoint
 10
257.3705244474
 20
230.9788687931
 30
0.0
  0
POINT
  5
294
100
AcDbEntity
  8
0
 62
         7
100
AcDbPoint
 10
257.3705244474
 20
90.8663332321
 30
0.0
  0
ENDBLK
  5
295
100
AcDbEntity
  8
0
100
AcDbBlockEnd
  0
BLOCK
  5
298
100
AcDbEntity
  8
0
 62
       255
100
AcDbBlockBegin
  2
*D6
 70
         1
 10
0.0
 20
0.0
 30
0.0
  3
*D6
  1

  0
MTEXT
  5
299
100
AcDbEntity
  8
0
 62
         7
100
AcDbMText
 10
267.6491027607
 20
84.1087850394
 30
0.0
 40
3.5
 41
0.0
 71
         7
 72
         1
  1
60
  7
SLDTEXTSTYLE0
 11
0.0
 21
1.0
 31
0.0
 73
         1
 44
1.0
  0
LINE
  5
29A
100
AcDbEntity
  8
0
100
AcDbLine
 10
266.3705244474
 20
167.4788687931
 30
0.0
 11
266.3705244474
 21
90.8663332321
 31
0.0
  0
POINT
  5
29B
100
AcDbEntity
  8
0
 62
         7
100
AcDbPoint
 10
266.3705244474
 20
168.4788687931
 30
0.0
  0
POINT
  5
29C
100
AcDbEntity
  8
0
 62
         7
100
AcDbPoint
 10
266.3705244474
 20
90.8663332321
 30
0.0
  0
ENDBLK
  5
29D
100
AcDbEntity
  8
0
100
AcDbBlockEnd
  0
BLOCK
  5
2A0
100
AcDbEntity
  8
0
 62
       255
100
AcDbBlockBegin
  2
*D7
 70
         1
 10
0.0
 20
0.0
 30
0.0
  3
*D7
  1

  0
MTEXT
  5
2A1
100
AcDbEntity
  8
0
 62
         7
100
AcDbMText
 10
274.7608294479
 20
98.7002904798
 30
0.0
 40
3.5
 41
0.0
 71
         7
 72
         1
  1
0
  7
SLDTEXTSTYLE0
 73
         1
 44
1.0
  0
LINE
  5
2A2
100
AcDbEntity
  8
0
100
AcDbLine
 10
267.3705244474
 20
99.9788687931
 30
0.0
 11
273.1733294479
 21
99.9788687931
 31
0.0
  0
POINT
  5
2A3
100
AcDbEntity
  8
0
 62
         7
100
AcDbPoint
 10
266.3705244474
 20
99.9788687931
 30
0.0
  0
POINT
  5
2A4
100
AcDbEntity
  8
0
 62
         7
100
AcDbPoint
 10
273.1733294479
 20
99.9788687931
 30
0.0
  0
ENDBLK
  5
2A5
100
AcDbEntity
  8
0
100
AcDbBlockEnd
  0
BLOCK
  5
2A8
100
AcDbEntity
  8
0
 62
       255
100
AcDbBlockBegin
  2
*D8
 70
         1
 10
0.0
 20
0.0
 30
0.0
  3
*D8
  1

  0
MTEXT
  5
2A9
100
AcDbEntity
  8
0
 62
         7
100
AcDbMText
 10
274.7608294479
 20
107.7002904798
 30
0.0
 40
3.5
 41
0.0
 71
         7
 72
         1
  1
9
  7
SLDTEXTSTYLE0
 73
         1
 44
1.0
  0
LINE
  5
2AA
100
AcDbEntity
  8
0
100
AcDbLine
 10
216.3705244474
 20
108.9788687931
 30
0.0
 11
273.1733294479
 21
108.9788687931
 31
0.0
  0
POINT
  5
2AB
100
AcDbEntity
  8
0
 62
         7
100
AcDbPoint
 10
215.3705244474
 20
108.9788687931
 30
0.0
  0
POINT
  5
2AC
100
AcDbEntity
  8
0
 62
         7
100
AcDbPoint
 10
273.1733294479
 20
108.9788687931
 30
0.0
  0
ENDBLK
  5
2AD
100
AcDbEntity
  8
0
100
AcDbBlockEnd
  0
BLOCK
  5
2B0
100
AcDbEntity
  8
0
 62
       255
100
AcDbBlockBegin
  2
*D9
 70
         1
 10
0.0
 20
0.0
 30
0.0
  3
*D9
  1

  0
MTEXT
  5
2B1
100
AcDbEntity
  8
0
 62
         7
100
AcDbMText
 10
274.7608294479
 20
128.7002904798
 30
0.0
 40
3.5
 41
0.0
 71
         7
 72
         1
  1
30
  7
SLDTEXTSTYLE0
 73
         1
 44
1.0
  0
LINE
  5
2B2
100
AcDbEntity
  8
0
100
AcDbLine
 10
237.3705244474
 20
129.9788687931
 30
0.0
 11
273.1733294479
 21
129.9788687931
 31
0.0
  0
POINT
  5
2B3
100
AcDbEntity
  8
0
 62
         7
100
AcDbPoint
 10
236.3705244474
 20
129.9788687931
 30
0.0
  0
POINT
  5
2B4
100
AcDbEntity
  8
0
 62
         7
100
AcDbPoint
 10
273.1733294479
 20
129.9788687931
 30
0.0
  0
ENDBLK
  5
2B5
100
AcDbEntity
  8
0
100
AcDbBlockEnd
  0
BLOCK
  5
2B8
100
AcDbEntity
  8
0
 62
       255
100
AcDbBlockBegin
  2
*D10
 70
         1
 10
0.0
 20
0.0
 30
0.0
  3
*D10
  1

  0
MTEXT
  5
2B9
100
AcDbEntity
  8
0
 62
         7
100
AcDbMText
 10
274.7608294479
 20
223.7002904798
 30
0.0
 40
3.5
 41
0.0
 71
         7
 72
         1
  1
125
  7
SLDTEXTSTYLE0
 73
         1
 44
1.0
  0
LINE
  5
2BA
100
AcDbEntity
  8
0
100
AcDbLine
 10
237.3705244474
 20
224.9788687931
 30
0.0
 11
273.1733294479
 21
224.9788687931
 31
0.0
  0
POINT
  5
2BB
100
AcDbEntity
  8
0
 62
         7
100
AcDbPoint
 10
236.3705244474
 20
224.9788687931
 30
0.0
  0
POINT
  5
2BC
100
AcDbEntity
  8
0
 62
         7
100
AcDbPoint
 10
273.1733294479
 20
224.9788687931
 30
0.0
  0
ENDBLK
  5
2BD
100
AcDbEntity
  8
0
100
AcDbBlockEnd
  0
BLOCK
  5
2C0
100
AcDbEntity
  8
0
 62
       255
100
AcDbBlockBegin
  2
*D11
 70
         1
 10
0.0
 20
0.0
 30
0.0
  3
*D11
  1

  0
MTEXT
  5
2C1
100
AcDbEntity
  8
0
 62
         7
100
AcDbMText
 10
274.7608294479
 20
229.7002904798
 30
0.0
 40
3.5
 41
0.0
 71
         7
 72
         1
  1
131
  7
SLDTEXTSTYLE0
 73
         1
 44
1.0
  0
LINE
  5
2C2
100
AcDbEntity
  8
0
100
AcDbLine
 10
258.3705244474
 20
230.9788687931
 30
0.0
 11
273.1733294479
 21
230.9788687931
 31
0.0
  0
POINT
  5
2C3
100
AcDbEntity
  8
0
 62
         7
100
AcDbPoint
 10
257.3705244474
 20
230.9788687931
 30
0.0
  0
POINT
  5
2C4
100
AcDbEntity
  8
0
 62
         7
100
AcDbPoint
 10
273.1733294479
 20
230.9788687931
 30
0.0
  0
ENDBLK
  5
2C5
100
AcDbEntity
  8
0
100
AcDbBlockEnd
  0
BLOCK
  5
2C8
100
AcDbEntity
  8
0
 62
       255
100
AcDbBlockBegin
  2
*D12
 70
         1
 10
0.0
 20
0.0
 30
0.0
  3
*D12
  1

  0
MTEXT
  5
2C9
100
AcDbEntity
  8
0
 62
         7
100
AcDbMText
 10
274.7608294479
 20
238.7002904798
 30
0.0
 40
3.5
 41
0.0
 71
         7
 72
         1
  1
140
  7
SLDTEXTSTYLE0
 73
         1
 44
1.0
  0
LINE
  5
2CA
100
AcDbEntity
  8
0
100
AcDbLine
 10
267.3705244474
 20
239.9788687931
 30
0.0
 11
273.1733294479
 21
239.9788687931
 31
0.0
  0
POINT
  5
2CB
100
AcDbEntity
  8
0
 62
         7
100
AcDbPoint
 10
266.3705244474
 20
239.9788687931
 30
0.0
  0
POINT
  5
2CC
100
AcDbEntity
  8
0
 62
         7
100
AcDbPoint
 10
273.1733294479
 20
239.9788687931
 30
0.0
  0
ENDBLK
  5
2CD
100
AcDbEntity
  8
0
100
AcDbBlockEnd
  0
BLOCK
  5
2D0
100
AcDbEntity
  8
0
 62
       255
100
AcDbBlockBegin
  2
*D13
 70
         1
 10
0.0
 20
0.0
 30
0.0
  3
*D13
  1

  0
MTEXT
  5
2D1
100
AcDbEntity
  8
0
 62
         7
100
AcDbMText
 10
163.0448984555
 20
142.4957299503
 30
0.0
 40
3.5
 41
0.0
 71
         7
 72
         1
  1
débouchants
  7
SLDTEXTSTYLE0
 73
         1
 44
1.0
  0
MTEXT
  5
2D2
100
AcDbEntity
  8
0
 62
         7
100
AcDbMText
 10
163.0448984555
 20
148.0528865768
 30
0.0
 40
3.5
 41
0.0
 71
         7
 72
         1
  1
2x %%c
  7
SLDTEXTSTYLE0
 73
         1
 44
1.0
  0
MTEXT
  5
2D3
100
AcDbEntity
  8
0
 62
         7
100
AcDbMText
 10
174.1549105037
 20
148.0528865768
 30
0.0
 40
3.5
 41
0.0
 71
         7
 72
         1
  1
9
  7
SLDTEXTSTYLE0
 73
         1
 44
1.0
  0
LINE
  5
2D4
100
AcDbEntity
  8
0
100
AcDbLine
 10
232.0352782988
 20
131.1853682052
 30
0.0
 11
196.7842599013
 21
140.9957299503
 31
0.0
  0
LINE
  5
2D5
100
AcDbEntity
  8
0
100
AcDbLine
 10
240.705770596
 20
128.772369381
 30
0.0
 11
237.1046261286
 21
129.774568226
 31
0.0
  0
LINE
  5
2D6
100
AcDbEntity
  8
0
100
AcDbLine
 10
235.6364227662
 20
130.1831693602
 30
0.0
 11
232.0352782988
 21
131.1853682052
 31
0.0
  0
LINE
  5
2D7
100
AcDbEntity
  8
0
100
AcDbLine
 10
196.7842599013
 20
140.9957299503
 30
0.0
 11
161.4573984555
 21
140.9957299503
 31
0.0
  0
SOLID
  5
2D8
100
AcDbEntity
  8
0
 62
       255
100
AcDbTrace
 10
232.0352782988
 20
131.1853682052
 30
0.0
 11
229.265764141
 21
132.4232257614
 31
0.0
 12
229.0244642586
 22
131.5561765317
 32
0.0
 13
229.0244642586
 23
131.5561765317
 33
0.0
  0
POINT
  5
2DA
100
AcDbEntity
  8
0
 62
         7
100
AcDbPoint
 10
232.0352782988
 20
131.1853682052
 30
0.0
  0
POINT
  5
2DB
100
AcDbEntity
  8
0
 62
         7
100
AcDbPoint
 10
240.705770596
 20
128.772369381
 30
0.0
  0
ENDBLK
  5
2DC
100
AcDbEntity
  8
0
100
AcDbBlockEnd
  0
BLOCK
  5
2DF
100
AcDbEntity
  8
0
 62
       255
100
AcDbBlockBegin
  2
*D14
 70
         1
 10
0.0
 20
0.0
 30
0.0
  3
*D14
  1

  0
MTEXT
  5
2E0
100
AcDbEntity
  8
0
 62
         7
100
AcDbMText
 10
160.4926167609
 20
115.8243258851
 30
0.0
 40
3.5
 41
0.0
 71
         7
 72
         1
  1
non débouchants
  7
SLDTEXTSTYLE0
 73
         1
 44
1.0
  0
MTEXT
  5
2E1
100
AcDbEntity
  8
0
 62
         7
100
AcDbMText
 10
160.4926167609
 20
121.3814825116
 30
0.0
 40
3.5
 41
0.0
 71
         7
 72
         1
  1
2x %%c
  7
SLDTEXTSTYLE0
 73
         1
 44
1.0
  0
MTEXT
  5
2E2
100
AcDbEntity
  8
0
 62
         7
100
AcDbMText
 10
171.6026288091
 20
121.3814825116
 30
0.0
 40
3.5
 41
0.0
 71
         7
 72
         1
  1
10
  7
SLDTEXTSTYLE0
 73
         1
 44
1.0
  0
MTEXT
  5
2E3
100
AcDbEntity
  8
0
 62
         7
100
AcDbMText
 10
180.8889300139
 20
121.3814825116
 30
0.0
 40
3.5
 41
0.0
 71
         7
 72
         1
  1
0
  7
SLDTEXTSTYLE0
 73
         1
 44
1.0
  0
MTEXT
  5
2E4
100
AcDbEntity
  8
0
 62
         7
100
AcDbMText
 10
178.0630384477
 20
126.9386391382
 30
0.0
 40
3.5
 41
0.0
 71
         7
 72
         1
  1
+
  7
SLDTEXTSTYLE0
 73
         1
 44
1.0
  0
MTEXT
  5
2E5
100
AcDbEntity
  8
0
 62
         7
100
AcDbMText
 10
180.8889300139
 20
126.9386391382
 30
0.0
 40
3.5
 41
0.0
 71
         7
 72
         1
  1
0,10
  7
SLDTEXTSTYLE0
 73
         1
 44
1.0
  0
LINE
  5
2E6
100
AcDbEntity
  8
0
100
AcDbLine
 10
210.8650556552
 20
111.1469903216
 30
0.0
 11
204.2623878453
 21
114.3243258851
 31
0.0
  0
LINE
  5
2E7
100
AcDbEntity
  8
0
100
AcDbLine
 10
219.8759932396
 20
106.8107472646
 30
0.0
 11
210.8650556552
 21
111.1469903216
 31
0.0
  0
LINE
  5
2E8
100
AcDbEntity
  8
0
100
AcDbLine
 10
204.2623878453
 20
114.3243258851
 30
0.0
 11
158.9051167609
 21
114.3243258851
 31
0.0
  0
SOLID
  5
2E9
100
AcDbEntity
  8
0
 62
       255
100
AcDbTrace
 10
210.8650556552
 20
111.1469903216
 30
0.0
 11
208.3569053174
 21
112.85335543
 31
0.0
 12
207.9666434423
 22
112.0423710474
 32
0.0
 13
207.9666434423
 23
112.0423710474
 33
0.0
  0
POINT
  5
2EB
100
AcDbEntity
  8
0
 62
         7
100
AcDbPoint
 10
210.8650556552
 20
111.1469903216
 30
0.0
  0
POINT
  5
2EC
100
AcDbEntity
  8
0
 62
         7
100
AcDbPoint
 10
219.8759932396
 20
106.8107472646
 30
0.0
  0
ENDBLK
  5
2ED
100
AcDbEntity
  8
0
100
AcDbBlockEnd
  0
BLOCK
  5
2F0
100
AcDbEntity
  8
0
 62
       255
100
AcDbBlockBegin
  2
*D15
 70
         1
 10
0.0
 20
0.0
 30
0.0
  3
*D15
  1

  0
MTEXT
  5
2F1
100
AcDbEntity
  8
0
 62
         7
100
AcDbMText
 10
198.7605616269
 20
148.0528865768
 30
0.0
 40
3.5
 41
0.0
 71
         7
 72
         1
  1
7
  7
SLDTEXTSTYLE0
 11
1.0
 21
0.0
 31
0.0
 73
         1
 44
1.0
  0
LINE
  5
2F2
100
AcDbEntity
  8
0
100
AcDbLine
 10
213.3705244474
 20
146.7288687931
 30
0.0
 11
213.3705244474
 21
145.5528865768
 31
0.0
  0
LINE
  5
2F3
100
AcDbEntity
  8
0
100
AcDbLine
 10
206.3705244474
 20
146.7288687931
 30
0.0
 11
206.3705244474
 21
145.5528865768
 31
0.0
  0
LINE
  5
2F4
100
AcDbEntity
  8
0
100
AcDbLine
 10
213.3705244474
 20
146.5528865768
 30
0.0
 11
206.3705244474
 21
146.5528865768
 31
0.0
  0
LINE
  5
2F5
100
AcDbEntity
  8
0
100
AcDbLine
 10
206.3705244474
 20
146.5528865768
 30
0.0
 11
197.1730616269
 21
146.5528865768
 31
0.0
  0
SOLID
  5
2F6
100
AcDbEntity
  8
0
 62
       255
100
AcDbTrace
 10
213.3705244474
 20
146.5528865768
 30
0.0
 11
210.3705244474
 21
147.0028865768
 31
0.0
 12
210.3705244474
 22
146.1028865768
 32
0.0
 13
210.3705244474
 23
146.1028865768
 33
0.0
  0
SOLID
  5
2F7
100
AcDbEntity
  8
0
 62
       255
100
AcDbTrace
 10
206.3705244474
 20
146.5528865768
 30
0.0
 11
209.3705244474
 21
146.1028865768
 31
0.0
 12
209.3705244474
 22
147.0028865768
 32
0.0
 13
209.3705244474
 23
147.0028865768
 33
0.0
  0
POINT
  5
2F9
100
AcDbEntity
  8
0
 62
         7
100
AcDbPoint
 10
213.3705244474
 20
147.7288687931
 30
0.0
  0
POINT
  5
2FA
100
AcDbEntity
  8
0
 62
         7
100
AcDbPoint
 10
206.3705244474
 20
147.7288687931
 30
0.0
  0
ENDBLK
  5
2FB
100
AcDbEntity
  8
0
 62
       255
100
AcDbBlockEnd
  0
BLOCK
  5
34D
100
AcDbEntity
  8
0
 62
       255
100
AcDbBlockBegin
  2
*D16
 70
         1
 10
0.0
 20
0.0
 30
0.0
  3
*D16
  1

  0
MTEXT
  5
34E
100
AcDbEntity
  8
0
 62
         7
100
AcDbMText
 10
122.6537458403
 20
98.7002904798
 30
0.0
 40
3.5
 41
0.0
 71
         7
 72
         1
  1
0
  7
SLDTEXTSTYLE0
 73
         1
 44
1.0
  0
LINE
  5
34F
100
AcDbEntity
  8
0
100
AcDbLine
 10
133.264377788
 20
99.9788687931
 30
0.0
 11
126.8262699367
 21
99.9788687931
 31
0.0
  0
POINT
  5
351
100
AcDbEntity
  8
0
 62
         7
100
AcDbPoint
 10
134.264377788
 20
99.9788687931
 30
0.0
  0
POINT
  5
352
100
AcDbEntity
  8
0
 62
         7
100
AcDbPoint
 10
126.8262699367
 20
99.9788687931
 30
0.0
  0
ENDBLK
  5
353
100
AcDbEntity
  8
0
100
AcDbBlockEnd
  0
BLOCK
  5
356
100
AcDbEntity
  8
0
 62
       255
100
AcDbBlockBegin
  2
*D17
 70
         1
 10
0.0
 20
0.0
 30
0.0
  3
*D17
  1

  0
MTEXT
  5
357
100
AcDbEntity
  8
0
 62
         7
100
AcDbMText
 10
120.0687217439
 20
135.7002904798
 30
0.0
 40
3.5
 41
0.0
 71
         7
 72
         1
  1
37
  7
SLDTEXTSTYLE0
 73
         1
 44
1.0
  0
LINE
  5
358
100
AcDbEntity
  8
0
100
AcDbLine
 10
133.264377788
 20
136.9788687931
 30
0.0
 11
126.8262699367
 21
136.9788687931
 31
0.0
  0
POINT
  5
35A
100
AcDbEntity
  8
0
 62
         7
100
AcDbPoint
 10
134.264377788
 20
136.9788687931
 30
0.0
  0
POINT
  5
35B
100
AcDbEntity
  8
0
 62
         7
100
AcDbPoint
 10
126.8262699367
 20
136.9788687931
 30
0.0
  0
ENDBLK
  5
35C
100
AcDbEntity
  8
0
100
AcDbBlockEnd
  0
BLOCK
  5
35F
100
AcDbEntity
  8
0
 62
       255
100
AcDbBlockBegin
  2
*D18
 70
         1
 10
0.0
 20
0.0
 30
0.0
  3
*D18
  1

  0
MTEXT
  5
360
100
AcDbEntity
  8
0
 62
         7
100
AcDbMText
 10
120.0687217439
 20
150.7002904798
 30
0.0
 40
3.5
 41
0.0
 71
         7
 72
         1
  1
52
  7
SLDTEXTSTYLE0
 73
         1
 44
1.0
  0
LINE
  5
361
100
AcDbEntity
  8
0
100
AcDbLine
 10
133.264377788
 20
151.9788687931
 30
0.0
 11
126.8262699367
 21
151.9788687931
 31
0.0
  0
POINT
  5
362
100
AcDbEntity
  8
0
 62
         7
100
AcDbPoint
 10
134.264377788
 20
151.9788687931
 30
0.0
  0
POINT
  5
363
100
AcDbEntity
  8
0
 62
         7
100
AcDbPoint
 10
126.8262699367
 20
151.9788687931
 30
0.0
  0
ENDBLK
  5
364
100
AcDbEntity
  8
0
100
AcDbBlockEnd
  0
BLOCK
  5
367
100
AcDbEntity
  8
0
 62
       255
100
AcDbBlockBegin
  2
*D19
 70
         1
 10
0.0
 20
0.0
 30
0.0
  3
*D19
  1

  0
MTEXT
  5
368
100
AcDbEntity
  8
0
 62
         7
100
AcDbMText
 10
120.0687217439
 20
165.7002904798
 30
0.0
 40
3.5
 41
0.0
 71
         7
 72
         1
  1
67
  7
SLDTEXTSTYLE0
 73
         1
 44
1.0
  0
LINE
  5
369
100
AcDbEntity
  8
0
100
AcDbLine
 10
133.264377788
 20
166.9788687931
 30
0.0
 11
126.8262699367
 21
166.9788687931
 31
0.0
  0
POINT
  5
36A
100
AcDbEntity
  8
0
 62
         7
100
AcDbPoint
 10
134.264377788
 20
166.9788687931
 30
0.0
  0
POINT
  5
36B
100
AcDbEntity
  8
0
 62
         7
100
AcDbPoint
 10
126.8262699367
 20
166.9788687931
 30
0.0
  0
ENDBLK
  5
36C
100
AcDbEntity
  8
0
100
AcDbBlockEnd
  0
BLOCK
  5
36F
100
AcDbEntity
  8
0
 62
       255
100
AcDbBlockBegin
  2
*D20
 70
         1
 10
0.0
 20
0.0
 30
0.0
  3
*D20
  1

  0
MTEXT
  5
370
100
AcDbEntity
  8
0
 62
         7
100
AcDbMText
 10
117.4836976475
 20
238.7002904798
 30
0.0
 40
3.5
 41
0.0
 71
         7
 72
         1
  1
140
  7
SLDTEXTSTYLE0
 73
         1
 44
1.0
  0
LINE
  5
371
100
AcDbEntity
  8
0
100
AcDbLine
 10
133.264377788
 20
239.9788687931
 30
0.0
 11
126.8262699367
 21
239.9788687931
 31
0.0
  0
POINT
  5
372
100
AcDbEntity
  8
0
 62
         7
100
AcDbPoint
 10
134.264377788
 20
239.9788687931
 30
0.0
  0
POINT
  5
373
100
AcDbEntity
  8
0
 62
         7
100
AcDbPoint
 10
126.8262699367
 20
239.9788687931
 30
0.0
  0
ENDBLK
  5
374
100
AcDbEntity
  8
0
100
AcDbBlockEnd
  0
BLOCK
  5
377
100
AcDbEntity
  8
0
 62
       255
100
AcDbBlockBegin
  2
*D21
 70
         1
 10
0.0
 20
0.0
 30
0.0
  3
*D21
  1

  0
MTEXT
  5
378
100
AcDbEntity
  8
0
 62
         7
100
AcDbMText
 10
139.6712237198
 20
251.8082919956
 30
0.0
 40
3.5
 41
0.0
 71
         7
 72
         1
  1
15
  7
SLDTEXTSTYLE0
 11
1.0
 21
0.0
 31
0.0
 73
         1
 44
1.0
  0
LINE
  5
379
100
AcDbEntity
  8
0
100
AcDbLine
 10
149.264377788
 20
240.9788687931
 30
0.0
 11
149.264377788
 21
251.3082919956
 31
0.0
  0
LINE
  5
37A
100
AcDbEntity
  8
0
100
AcDbLine
 10
134.264377788
 20
240.9788687931
 30
0.0
 11
134.264377788
 21
251.3082919956
 31
0.0
  0
LINE
  5
37B
100
AcDbEntity
  8
0
100
AcDbLine
 10
149.264377788
 20
250.3082919956
 30
0.0
 11
154.264377788
 21
250.3082919956
 31
0.0
  0
LINE
  5
37C
100
AcDbEntity
  8
0
100
AcDbLine
 10
149.264377788
 20
250.3082919956
 30
0.0
 11
134.264377788
 21
250.3082919956
 31
0.0
  0
LINE
  5
37D
100
AcDbEntity
  8
0
100
AcDbLine
 10
134.264377788
 20
250.3082919956
 30
0.0
 11
129.264377788
 21
250.3082919956
 31
0.0
  0
SOLID
  5
37E
100
AcDbEntity
  8
0
 62
       255
100
AcDbTrace
 10
149.264377788
 20
250.3082919956
 30
0.0
 11
152.264377788
 21
249.8582919956
 31
0.0
 12
152.264377788
 22
250.7582919956
 32
0.0
 13
152.264377788
 23
250.7582919956
 33
0.0
  0
SOLID
  5
37F
100
AcDbEntity
  8
0
 62
       255
100
AcDbTrace
 10
134.264377788
 20
250.3082919956
 30
0.0
 11
131.264377788
 21
250.7582919956
 31
0.0
 12
131.264377788
 22
249.8582919956
 32
0.0
 13
131.264377788
 23
249.8582919956
 33
0.0
  0
POINT
  5
380
100
AcDbEntity
  8
0
 62
         7
100
AcDbPoint
 10
149.264377788
 20
239.9788687931
 30
0.0
  0
POINT
  5
381
100
AcDbEntity
  8
0
 62
         7
100
AcDbPoint
 10
134.264377788
 20
239.9788687931
 30
0.0
  0
ENDBLK
  5
382
100
AcDbEntity
  8
0
 62
       255
100
AcDbBlockEnd
  0
BLOCK
  5
385
100
AcDbEntity
  8
0
 62
       255
100
AcDbBlockBegin
  2
*D22
 70
         1
 10
0.0
 20
0.0
 30
0.0
  3
*D22
  1

  0
MTEXT
  5
386
100
AcDbEntity
  8
0
 62
         7
100
AcDbMText
 10
113.9153123479
 20
175.5354608094
 30
0.0
 40
3.5
 41
0.0
 71
         7
 72
         1
  1
%%c
  7
SLDTEXTSTYLE0
 73
         1
 44
1.0
  0
MTEXT
  5
387
100
AcDbEntity
  8
0
 62
         7
100
AcDbMText
 10
118.9133123479
 20
175.5354608094
 30
0.0
 40
3.5
 41
0.0
 71
         7
 72
         1
  1
3
  7
SLDTEXTSTYLE0
 73
         1
 44
1.0
  0
LINE
  5
388
100
AcDbEntity
  8
0
100
AcDbLine
 10
133.0561631969
 20
167.8678105807
 30
0.0
 11
124.6733364443
 21
174.0354608094
 31
0.0
  0
LINE
  5
389
100
AcDbEntity
  8
0
100
AcDbLine
 10
135.4725923791
 20
166.0899270054
 30
0.0
 11
133.0561631969
 21
167.8678105807
 31
0.0
  0
LINE
  5
38A
100
AcDbEntity
  8
0
100
AcDbLine
 10
124.6733364443
 20
174.0354608094
 30
0.0
 11
112.3278123479
 21
174.0354608094
 31
0.0
  0
ARC
  5
38B
100
AcDbEntity
  8
0
100
AcDbCircle
 10
134.264377788
 20
166.9788687931
 30
0.0
 40
1.5
100
AcDbArc
 50
123.690067526
 51
177.3463559148
  0
SOLID
  5
38C
100
AcDbEntity
  8
0
 62
       255
100
AcDbTrace
 10
133.0561631969
 20
167.8678105807
 30
0.0
 11
130.906416551
 21
170.0081585334
 31
0.0
 12
130.3730514784
 22
169.2832297787
 32
0.0
 13
130.3730514784
 23
169.2832297787
 33
0.0
  0
POINT
  5
38D
100
AcDbEntity
  8
0
 62
         7
100
AcDbPoint
 10
133.0561631969
 20
167.8678105807
 30
0.0
  0
POINT
  5
38E
100
AcDbEntity
  8
0
 62
         7
100
AcDbPoint
 10
135.4725923791
 20
166.0899270054
 30
0.0
  0
ENDBLK
  5
38F
100
AcDbEntity
  8
0
100
AcDbBlockEnd
  0
BLOCK
  5
392
100
AcDbEntity
  8
0
 62
       255
100
AcDbBlockBegin
  2
*D23
 70
         1
 10
0.0
 20
0.0
 30
0.0
  3
*D23
  1

  0
MTEXT
  5
393
100
AcDbEntity
  8
0
 62
         7
100
AcDbMText
 10
115.4302023913
 20
126.2747205525
 30
0.0
 40
3.5
 41
0.0
 71
         7
 72
         1
  1
%%c
  7
SLDTEXTSTYLE0
 73
         1
 44
1.0
  0
MTEXT
  5
394
100
AcDbEntity
  8
0
 62
         7
100
AcDbMText
 10
120.4282023913
 20
126.2747205525
 30
0.0
 40
3.5
 41
0.0
 71
         7
 72
         1
  1
3
  7
SLDTEXTSTYLE0
 73
         1
 44
1.0
  0
LINE
  5
395
100
AcDbEntity
  8
0
100
AcDbLine
 10
133.4365862237
 20
135.7279646696
 30
0.0
 11
126.1882264877
 21
124.7747205525
 31
0.0
  0
LINE
  5
396
100
AcDbEntity
  8
0
100
AcDbLine
 10
135.0921693523
 20
138.2297729165
 30
0.0
 11
133.4365862237
 21
135.7279646696
 31
0.0
  0
LINE
  5
397
100
AcDbEntity
  8
0
100
AcDbLine
 10
126.1882264877
 20
124.7747205525
 30
0.0
 11
113.8427023913
 21
124.7747205525
 31
0.0
  0
ARC
  5
398
100
AcDbEntity
  8
0
100
AcDbCircle
 10
134.264377788
 20
136.9788687931
 30
0.0
 40
1.5
100
AcDbArc
 50
202.8151502748
 51
236.309932474
  0
SOLID
  5
399
100
AcDbEntity
  8
0
 62
       255
100
AcDbTrace
 10
133.4365862237
 20
135.7279646696
 30
0.0
 11
131.405731858
 21
133.474493892
 31
0.0
 12
132.1562743321
 22
132.9778189534
 32
0.0
 13
132.1562743321
 23
132.9778189534
 33
0.0
  0
POINT
  5
39A
100
AcDbEntity
  8
0
 62
         7
100
AcDbPoint
 10
133.4365862237
 20
135.7279646696
 30
0.0
  0
POINT
  5
39B
100
AcDbEntity
  8
0
 62
         7
100
AcDbPoint
 10
135.0921693523
 20
138.2297729165
 30
0.0
  0
ENDBLK
  5
39C
100
AcDbEntity
  8
0
100
AcDbBlockEnd
  0
BLOCK
  5
39F
100
AcDbEntity
  8
0
 62
       255
100
AcDbBlockBegin
  2
*D24
 70
         1
 10
0.0
 20
0.0
 30
0.0
  3
*D24
  1

  0
MTEXT
  5
3A0
100
AcDbEntity
  8
0
 62
         7
100
AcDbMText
 10
113.3994559001
 20
144.0106130999
 30
0.0
 40
3.5
 41
0.0
 71
         7
 72
         1
  1
%%c
  7
SLDTEXTSTYLE0
 73
         1
 44
1.0
  0
MTEXT
  5
3A1
100
AcDbEntity
  8
0
 62
         7
100
AcDbMText
 10
118.3974559001
 20
144.0106130999
 30
0.0
 40
3.5
 41
0.0
 71
         7
 72
         1
  1
8
  7
SLDTEXTSTYLE0
 73
         1
 44
1.0
  0
LINE
  5
3A2
100
AcDbEntity
  8
0
100
AcDbLine
 10
131.3452259948
 20
149.2441745125
 30
0.0
 11
124.1574799965
 21
142.5106130999
 31
0.0
  0
LINE
  5
3A3
100
AcDbEntity
  8
0
100
AcDbLine
 10
137.1835295812
 20
154.7135630737
 30
0.0
 11
131.3452259948
 21
149.2441745125
 31
0.0
  0
LINE
  5
3A4
100
AcDbEntity
  8
0
100
AcDbLine
 10
124.1574799965
 20
142.5106130999
 30
0.0
 11
111.8119559001
 21
142.5106130999
 31
0.0
  0
ARC
  5
3A5
100
AcDbEntity
  8
0
100
AcDbCircle
 10
134.264377788
 20
151.9788687931
 30
0.0
 40
4.0
100
AcDbArc
 50
209.0951365742
 51
255.9637565321
  0
SOLID
  5
3A6
100
AcDbEntity
  8
0
 62
       255
100
AcDbTrace
 10
131.3452259948
 20
149.2441745125
 30
0.0
 11
128.8482090434
 21
147.5215583788
 31
0.0
 12
129.4635152565
 22
146.8647492253
 32
0.0
 13
129.4635152565
 23
146.8647492253
 33
0.0
  0
POINT
  5
3A8
100
AcDbEntity
  8
0
 62
         7
100
AcDbPoint
 10
131.3452259948
 20
149.2441745125
 30
0.0
  0
POINT
  5
3A9
100
AcDbEntity
  8
0
 62
         7
100
AcDbPoint
 10
137.1835295812
 20
154.7135630737
 30
0.0
  0
ENDBLK
  5
3AA
100
AcDbEntity
  8
0
100
AcDbBlockEnd
  0
BLOCK
  5
3FE
100
AcDbEntity
  8
0
 62
       255
100
AcDbBlockBegin
  2
*D25
 70
         1
 10
0.0
 20
0.0
 30
0.0
  3
*D25
  1

  0
MTEXT
  5
3FF
100
AcDbEntity
  8
0
 62
         7
100
AcDbMText
 10
344.6642807603
 20
65.9299747226
 30
0.0
 40
3.5
 41
0.0
 71
         7
 72
         1
  1
8
  7
SLDTEXTSTYLE0
 11
1.0
 21
0.0
 31
0.0
 73
         1
 44
1.0
  0
LINE
  5
400
100
AcDbEntity
  8
0
100
AcDbLine
 10
339.8308353282
 20
70.5237305699
 30
0.0
 11
339.8308353282
 21
63.4299747226
 31
0.0
  0
LINE
  5
401
100
AcDbEntity
  8
0
100
AcDbLine
 10
331.8308353282
 20
70.5237305699
 30
0.0
 11
331.8308353282
 21
63.4299747226
 31
0.0
  0
LINE
  5
402
100
AcDbEntity
  8
0
100
AcDbLine
 10
339.8308353282
 20
64.4299747226
 30
0.0
 11
348.8368048567
 21
64.4299747226
 31
0.0
  0
LINE
  5
403
100
AcDbEntity
  8
0
100
AcDbLine
 10
339.8308353282
 20
64.4299747226
 30
0.0
 11
331.8308353282
 21
64.4299747226
 31
0.0
  0
SOLID
  5
404
100
AcDbEntity
  8
0
 62
       255
100
AcDbTrace
 10
339.8308353282
 20
64.4299747226
 30
0.0
 11
336.8308353282
 21
64.8799747226
 31
0.0
 12
336.8308353282
 22
63.9799747226
 32
0.0
 13
336.8308353282
 23
63.9799747226
 33
0.0
  0
SOLID
  5
405
100
AcDbEntity
  8
0
 62
       255
100
AcDbTrace
 10
331.8308353282
 20
64.4299747226
 30
0.0
 11
334.8308353282
 21
63.9799747226
 31
0.0
 12
334.8308353282
 22
64.8799747226
 32
0.0
 13
334.8308353282
 23
64.8799747226
 33
0.0
  0
POINT
  5
406
100
AcDbEntity
  8
0
 62
         7
100
AcDbPoint
 10
339.8308353282
 20
71.5237305699
 30
0.0
  0
POINT
  5
407
100
AcDbEntity
  8
0
 62
         7
100
AcDbPoint
 10
331.8308353282
 20
71.5237305699
 30
0.0
  0
ENDBLK
  5
408
100
AcDbEntity
  8
0
 62
       255
100
AcDbBlockEnd
  0
BLOCK
  5
47A
100
AcDbEntity
  8
0
 62
       255
100
AcDbBlockBegin
  2
*D26
 70
         1
 10
0.0
 20
0.0
 30
0.0
  3
*D26
  1

  0
MTEXT
  5
47B
100
AcDbEntity
  8
0
 62
         7
100
AcDbMText
 10
360.615981725
 20
90.7459281285
 30
0.0
 40
3.5
 41
0.0
 71
         7
 72
         1
  1
12,50
  7
SLDTEXTSTYLE0
 11
1.0
 21
0.0
 31
0.0
 73
         1
 44
1.0
  0
LINE
  5
47C
100
AcDbEntity
  8
0
100
AcDbLine
 10
379.5129304429
 20
128.9788687931
 30
0.0
 11
379.5129304429
 21
88.2459281285
 31
0.0
  0
LINE
  5
47D
100
AcDbEntity
  8
0
100
AcDbLine
 10
392.0126750026
 20
117.0393793168
 30
0.0
 11
392.0126750026
 21
88.2459281285
 31
0.0
  0
LINE
  5
47E
100
AcDbEntity
  8
0
100
AcDbLine
 10
379.5129304429
 20
89.2459281285
 30
0.0
 11
359.028481725
 21
89.2459281285
 31
0.0
  0
LINE
  5
47F
100
AcDbEntity
  8
0
100
AcDbLine
 10
379.5129304429
 20
89.2459281285
 30
0.0
 11
392.0126750026
 21
89.2459281285
 31
0.0
  0
SOLID
  5
480
100
AcDbEntity
  8
0
 62
       255
100
AcDbTrace
 10
379.5129304429
 20
89.2459281285
 30
0.0
 11
382.5129304429
 21
88.7959281285
 31
0.0
 12
382.5129304429
 22
89.6959281285
 32
0.0
 13
382.5129304429
 23
89.6959281285
 33
0.0
  0
SOLID
  5
481
100
AcDbEntity
  8
0
 62
       255
100
AcDbTrace
 10
392.0126750026
 20
89.2459281285
 30
0.0
 11
389.0126750026
 21
89.6959281285
 31
0.0
 12
389.0126750026
 22
88.7959281285
 32
0.0
 13
389.0126750026
 23
88.7959281285
 33
0.0
  0
POINT
  5
482
100
AcDbEntity
  8
0
 62
         7
100
AcDbPoint
 10
379.5129304429
 20
129.9788687931
 30
0.0
  0
POINT
  5
483
100
AcDbEntity
  8
0
 62
         7
100
AcDbPoint
 10
392.0126750026
 20
118.0393793168
 30
0.0
  0
ENDBLK
  5
484
100
AcDbEntity
  8
0
 62
       255
100
AcDbBlockEnd
  0
BLOCK
  5
4FA
100
AcDbEntity
  8
0
 62
       255
100
AcDbBlockBegin
  2
*D27
 70
         1
 10
0.0
 20
0.0
 30
0.0
  3
*D27
  1

  0
MTEXT
  5
4FB
100
AcDbEntity
  8
0
 62
         7
100
AcDbMText
 10
346.8592185536
 20
126.7469800858
 30
0.0
 40
3.5
 41
0.0
 71
         7
 72
         1
  1
52
  7
SLDTEXTSTYLE0
 11
0.0
 21
1.0
 31
0.0
 73
         1
 44
1.0
  0
LINE
  5
4FC
100
AcDbEntity
  8
0
100
AcDbLine
 10
344.4473056995
 20
151.9788687931
 30
0.0
 11
349.3592185536
 21
151.9788687931
 31
0.0
  0
LINE
  5
4FD
100
AcDbEntity
  8
0
100
AcDbLine
 10
337.6973056995
 20
99.9788687931
 30
0.0
 11
349.3592185536
 21
99.9788687931
 31
0.0
  0
LINE
  5
4FE
100
AcDbEntity
  8
0
100
AcDbLine
 10
348.3592185536
 20
151.9788687931
 30
0.0
 11
348.3592185536
 21
99.9788687931
 31
0.0
  0
SOLID
  5
4FF
100
AcDbEntity
  8
0
 62
       255
100
AcDbTrace
 10
348.3592185536
 20
151.9788687931
 30
0.0
 11
347.9092185536
 21
148.9788687931
 31
0.0
 12
348.8092185536
 22
148.9788687931
 32
0.0
 13
348.8092185536
 23
148.9788687931
 33
0.0
  0
SOLID
  5
500
100
AcDbEntity
  8
0
 62
       255
100
AcDbTrace
 10
348.3592185536
 20
99.9788687931
 30
0.0
 11
348.8092185536
 21
102.9788687931
 31
0.0
 12
347.9092185536
 22
102.9788687931
 32
0.0
 13
347.9092185536
 23
102.9788687931
 33
0.0
  0
POINT
  5
501
100
AcDbEntity
  8
0
 62
         7
100
AcDbPoint
 10
343.4473056995
 20
151.9788687931
 30
0.0
  0
POINT
  5
502
100
AcDbEntity
  8
0
 62
         7
100
AcDbPoint
 10
336.6973056995
 20
99.9788687931
 30
0.0
  0
ENDBLK
  5
503
100
AcDbEntity
  8
0
 62
       255
100
AcDbBlockEnd
  0
ENDSEC
  0
SECTION
  2
ENTITIES
  0
LINE
  5
30
100
AcDbEntity
  8
0
370
         0
  6
Continuous
 62
         7
100
AcDbLine
 10
12.0
 20
279.0
 30
0.0
 11
408.0
 21
279.0
 31
0.0
  0
LINE
  5
31
100
AcDbEntity
  8
0
370
         0
  6
Continuous
 62
         7
100
AcDbLine
 10
12.0
 20
279.0
 30
0.0
 11
12.0
 21
18.0
 31
0.0
  0
LINE
  5
32
100
AcDbEntity
  8
0
370
         0
  6
Continuous
 62
         7
100
AcDbLine
 10
12.0
 20
18.0
 30
0.0
 11
408.0
 21
18.0
 31
0.0
  0
LINE
  5
33
100
AcDbEntity
  8
0
370
         0
  6
Continuous
 62
         7
100
AcDbLine
 10
408.0
 20
279.0
 30
0.0
 11
408.0
 21
18.0
 31
0.0
  0
LINE
  5
34
100
AcDbEntity
  8
0
370
         0
  6
Continuous
 62
         7
100
AcDbLine
 10
230.084092326
 20
18.2522667599
 30
0.0
 11
407.7493469813
 21
18.2522667599
 31
0.0
  0
LINE
  5
35
100
AcDbEntity
  8
0
370
         0
  6
Continuous
 62
         7
100
AcDbLine
 10
408.0
 20
58.3068354107
 30
0.0
 11
230.084092326
 21
58.3068354107
 31
0.0
  0
LINE
  5
36
100
AcDbEntity
  8
0
370
         0
  6
Continuous
 62
         7
100
AcDbLine
 10
366.4090916959
 20
58.3068354107
 30
0.0
 11
366.4090916959
 21
38.2795510853
 31
0.0
  0
LINE
  5
37
100
AcDbEntity
  8
0
370
         0
  6
Continuous
 62
         7
100
AcDbLine
 10
407.7493469813
 20
18.2522667599
 30
0.0
 11
288.5242550027
 21
18.2522667599
 31
0.0
  0
LINE
  5
38
100
AcDbEntity
  8
0
370
         0
  6
Continuous
 62
         7
100
AcDbLine
 10
407.7493469813
 20
18.2522667599
 30
0.0
 11
407.7493469813
 21
38.2795510853
 31
0.0
  0
LINE
  5
39
100
AcDbEntity
  8
0
370
         0
  6
Continuous
 62
         7
100
AcDbLine
 10
407.7493469813
 20
38.2795510853
 30
0.0
 11
288.5242550027
 21
38.2795510853
 31
0.0
  0
LINE
  5
3A
100
AcDbEntity
  8
0
370
         0
  6
Continuous
 62
         7
100
AcDbLine
 10
288.5242550027
 20
18.2522667599
 30
0.0
 11
288.5242550027
 21
38.2795510853
 31
0.0
  0
LINE
  5
3B
100
AcDbEntity
  8
0
370
         0
  6
Continuous
 62
         7
100
AcDbLine
 10
288.5242550027
 20
18.2522667599
 30
0.0
 11
230.084092326
 21
18.2522667599
 31
0.0
  0
LINE
  5
3C
100
AcDbEntity
  8
0
370
         0
  6
Continuous
 62
         7
100
AcDbLine
 10
288.5242550027
 20
18.2522667599
 30
0.0
 11
288.5242550027
 21
58.3068354107
 31
0.0
  0
LINE
  5
3D
100
AcDbEntity
  8
0
370
         0
  6
Continuous
 62
         7
100
AcDbLine
 10
288.5242550027
 20
58.3068354107
 30
0.0
 11
230.084092326
 21
58.3068354107
 31
0.0
  0
LINE
  5
3E
100
AcDbEntity
  8
0
370
         0
  6
Continuous
 62
         7
100
AcDbLine
 10
230.084092326
 20
18.2522667599
 30
0.0
 11
230.084092326
 21
58.3068354107
 31
0.0
  0
LINE
  5
3F
100
AcDbEntity
  8
0
370
         0
  6
Continuous
 62
         7
100
AcDbLine
 10
366.4090916959
 20
48.293193248
 30
0.0
 11
408.0
 21
48.293193248
 31
0.0
  0
LINE
  5
40
100
AcDbEntity
  8
0
370
         0
  6
Continuous
 62
         7
100
AcDbLine
 10
366.4090916959
 20
48.293193248
 30
0.0
 11
288.5242550027
 21
48.293193248
 31
0.0
  0
LINE
  5
41
100
AcDbEntity
  8
0
370
         0
  6
Continuous
 62
         7
100
AcDbLine
 10
288.5242550027
 20
38.2795510853
 30
0.0
 11
230.084092326
 21
38.2795510853
 31
0.0
  0
LINE
  5
42
100
AcDbEntity
  8
0
370
         0
  6
CENTERX2
 62
         7
100
AcDbLine
 10
231.5034756363
 20
52.6447098121
 30
0.0
 11
241.8262640213
 21
52.6447098121
 31
0.0
  0
LINE
  5
43
100
AcDbEntity
  8
0
370
         0
  6
CENTERX2
 62
         7
100
AcDbLine
 10
254.0649093727
 20
52.6447098121
 30
0.0
 11
245.9934787816
 21
52.6447098121
 31
0.0
  0
LINE
  5
44
100
AcDbEntity
  8
0
370
         0
  6
CENTERX2
 62
         7
100
AcDbLine
 10
250.0291940771
 20
55.6569677112
 30
0.0
 11
250.0291940771
 21
49.632451913
 31
0.0
  0
LINE
  5
45
100
AcDbEntity
  8
0
370
         0
  6
Continuous
 62
         7
100
AcDbLine
 10
233.7155017188
 20
51.4968023375
 30
0.0
 11
233.7155017188
 21
53.7926172867
 31
0.0
  0
LINE
  5
46
100
AcDbEntity
  8
0
370
         0
  6
Continuous
 62
         7
100
AcDbLine
 10
233.7155017188
 20
53.7926172867
 30
0.0
 11
238.7847281578
 21
55.3594690952
 31
0.0
  0
LINE
  5
47
100
AcDbEntity
  8
0
370
         0
  6
Continuous
 62
         7
100
AcDbLine
 10
238.7847281578
 20
55.3594690952
 30
0.0
 11
238.7847281578
 21
49.9299505291
 31
0.0
  0
LINE
  5
48
100
AcDbEntity
  8
0
370
         0
  6
Continuous
 62
         7
100
AcDbLine
 10
238.7847281578
 20
49.9299505291
 30
0.0
 11
233.7155017188
 21
51.4968023375
 31
0.0
  0
CIRCLE
  5
49
100
AcDbEntity
  8
0
370
         0
  6
Continuous
 62
         5
100
AcDbCircle
 10
250.0291940771
 20
52.6447098121
 30
0.0
 40
3.1391205675
  0
CIRCLE
  5
4A
100
AcDbEntity
  8
0
370
         0
  6
Continuous
 62
         5
100
AcDbCircle
 10
250.0291940771
 20
52.6447098121
 30
0.0
 40
1.5
  0
LEADER
  5
4B
100
AcDbEntity
  8
0
 62
       255
100
AcDbLeader
  3
SLDDIMSTYLE0
 73
         3
 74
         0
 75
         0
 40
0.0
 76
         2
 10
136.5282901554
 20
169.5870466321
 30
0.0
 10
209.2763373494
 20
266.2452361446
 30
0.0
 77
       256
340
5A
  0
LEADER
  5
55
100
AcDbEntity
  8
0
 62
       255
100
AcDbLeader
  3
SLDDIMSTYLE1
 73
         3
 74
         0
 75
         0
 40
0.0
 76
         2
 10
136.5671087219
 20
155.2495614179
 30
0.0
 10
209.2763373494
 20
266.2452361446
 30
0.0
 77
       256
340
5A
  0
LEADER
  5
57
100
AcDbEntity
  8
0
 62
       255
100
AcDbLeader
  3
SLDDIMSTYLE1
 73
         3
 74
         0
 75
         0
 40
0.0
 76
         2
 10
135.5516745622
 20
137.748847374
 30
0.0
 10
209.2763373494
 20
266.2452361446
 30
0.0
 77
       256
340
5A
  0
LEADER
  5
58
100
AcDbEntity
  8
0
 62
       255
100
AcDbLeader
  3
SLDDIMSTYLE1
 73
         3
 74
         1
 75
         0
 40
0.0
 76
         2
 10
333.8348258
 20
155.1203189081
 30
0.0
 10
266.2651204819
 20
266.2452361446
 30
0.0
 77
       256
340
5A
  0
MTEXT
  5
5A
102
{ACAD_REACTORS
330
4B
102
}
100
AcDbEntity
  8
0
 62
         7
100
AcDbMText
 10
209.7780310881
 20
275.2442487047
 30
0.0
 40
3.5
 41
0.0
 71
         1
 72
         1
  1
Perçages réalisés\Pentre cuir et chair\Paprès assemblage avec\PARL-PM01-B-DEMI-MOULE:
  7
SLDTEXTSTYLE0
 73
         1
 44
1.0
  0
MTEXT
  5
5B
100
AcDbEntity
  8
0
 62
         7
100
AcDbMText
 10
321.3289280526
 20
44.4688155428
 30
0.0
 40
3.5
 41
0.0
 71
         1
 72
         1
  1
   
  7
SLDTEXTSTYLE0
 73
         1
 44
1.0
  0
MTEXT
  5
5C
100
AcDbEntity
  8
0
 62
         7
100
AcDbMText
 10
316.8264436025
 20
54.8451326599
 30
0.0
 40
3.5
 41
0.0
 71
         1
 72
         1
  1
Alu 2017A-AU4G
  7
SLDTEXTSTYLE0
 73
         1
 44
1.0
  0
MTEXT
  5
5D
100
AcDbEntity
  8
0
 62
         7
100
AcDbMText
 10
398.1902256676
 20
53.4784651853
 30
0.0
 40
3.5
 41
0.0
 71
         1
 72
         1
  1
1
  7
SLDTEXTSTYLE0
 73
         1
 44
1.0
  0
MTEXT
  5
5E
100
AcDbEntity
  8
0
 62
         7
100
AcDbMText
 10
367.499804219
 20
55.6184159535
 30
0.0
 40
3.5
 41
0.0
 71
         1
 72
         1
  1
Quantité:
  7
SLDTEXTSTYLE0
 73
         1
 44
1.0
  0
MTEXT
  5
5F
100
AcDbEntity
  8
0
 62
         7
100
AcDbMText
 10
289.4619428465
 20
55.2778536138
 30
0.0
 40
3.5
 41
0.0
 71
         1
 72
         1
  1
Matière:
  7
SLDTEXTSTYLE0
 73
         1
 44
1.0
  0
MTEXT
  5
60
100
AcDbEntity
  8
0
 62
         7
100
AcDbMText
 10
289.4390372629
 20
44.699460691
 30
0.0
 40
3.5
 41
0.0
 71
         1
 72
         1
  1
Observation:
  7
SLDTEXTSTYLE0
 73
         1
 44
1.0
  0
MTEXT
  5
61
100
AcDbEntity
  8
0
 62
         7
100
AcDbMText
 10
289.7346356121
 20
35.1462952525
 30
0.0
 40
3.5
 41
0.0
 71
         1
 72
         1
  1
Désignation:
  7
SLDTEXTSTYLE0
 73
         1
 44
1.0
  0
MTEXT
  5
62
100
AcDbEntity
  8
0
 62
         7
100
AcDbMText
 10
240.0342250463
 20
45.4874721265
 30
0.0
 40
3.5
 41
0.0
 71
         1
 72
         1
  1
Tol Gén: +/-0.2
  7
SLDTEXTSTYLE0
 73
         1
 44
1.0
  0
MTEXT
  5
63
100
AcDbEntity
  8
0
 62
         7
100
AcDbMText
 10
270.3659973884
 20
57.292987735
 30
0.0
 40
3.5
 41
0.0
 71
         2
 72
         1
  1
A3 \PEchelle 1:1
  7
SLDTEXTSTYLE0
 73
         1
 44
1.0
  0
MTEXT
  5
64
100
AcDbEntity
  8
0
 62
         7
100
AcDbMText
 10
374.545001106
 20
45.7319305088
 30
0.0
 40
3.5
 41
0.0
 71
         1
 72
         1
  1
26/01/2023
  7
SLDTEXTSTYLE0
 73
         1
 44
1.0
  0
MTEXT
  5
65
100
AcDbEntity
  8
0
 62
         7
100
AcDbMText
 10
299.7175651116
 20
28.8983110653
 30
0.0
 40
5.2916666667
 41
0.0
 71
         1
 72
         1
  1
ARL-PM02-B-DEMI-MOULE SYM
  7
SLDTEXTSTYLE0
 73
         1
 44
1.0
  0
MTEXT
  5
66
100
AcDbEntity
  8
0
 62
         7
100
AcDbMText
 10
323.7867495045
 20
47.8558472993
 30
0.0
 40
3.5
 41
0.0
 71
         1
 72
         1
  1
    
  7
SLDTEXTSTYLE0
 73
         1
 44
1.0
  0
LINE
  5
67
100
AcDbEntity
  8
0
370
        15
  6
Continuous
 62
         7
100
AcDbLine
 10
32.139275489
 20
52.3606026626
 30
0.0
 11
32.139275489
 21
49.5272693293
 31
0.0
  0
POLYLINE
  5
68
100
AcDbEntity
  8
0
370
        15
  6
Continuous
 62
         7
100
AcDb2dPolyline
 66
         1
 10
0.0
 20
0.0
 30
0.0
 70
       128
  0
VERTEX
  5
69
100
AcDbEntity
  8
0
100
AcDbVertex
100
AcDb2dVertex
 10
40.9157326243
 20
49.8510537514
 30
0.0
  0
VERTEX
  5
6A
100
AcDbEntity
  8
0
100
AcDbVertex
100
AcDb2dVertex
 10
41.4349771806
 20
50.0173425736
 30
0.0
  0
VERTEX
  5
6B
100
AcDbEntity
  8
0
100
AcDbVertex
100
AcDb2dVertex
 10
41.9100981697
 20
50.2634283076
 30
0.0
  0
VERTEX
  5
6C
100
AcDbEntity
  8
0
100
AcDbVertex
100
AcDb2dVertex
 10
42.3249159164
 20
50.5809307991
 30
0.0
  0
VERTEX
  5
6D
100
AcDbEntity
  8
0
100
AcDbVertex
100
AcDb2dVertex
 10
42.6653042996
 20
50.9590378814
 30
0.0
  0
VERTEX
  5
6E
100
AcDbEntity
  8
0
100
AcDbVertex
100
AcDb2dVertex
 10
42.9196718014
 20
51.3848735713
 30
0.0
  0
VERTEX
  5
6F
100
AcDbEntity
  8
0
100
AcDbVertex
100
AcDb2dVertex
 10
43.0793562415
 20
51.8439365451
 30
0.0
  0
VERTEX
  5
70
100
AcDbEntity
  8
0
100
AcDbVertex
100
AcDb2dVertex
 10
43.1389197577
 20
52.320593964
 30
0.0
  0
VERTEX
  5
71
100
AcDbEntity
  8
0
100
AcDbVertex
100
AcDb2dVertex
 10
43.0963339861
 20
52.798613831
 30
0.0
  0
VERTEX
  5
72
100
AcDbEntity
  8
0
100
AcDbVertex
100
AcDb2dVertex
 10
42.953049134
 20
53.2617177531
 30
0.0
  0
VERTEX
  5
73
100
AcDbEntity
  8
0
100
AcDbVertex
100
AcDb2dVertex
 10
42.7139445951
 20
53.6941352815
 30
0.0
  0
VERTEX
  5
74
100
AcDbEntity
  8
0
100
AcDbVertex
100
AcDb2dVertex
 10
42.3871627878
 20
54.081140956
 30
0.0
  0
VERTEX
  5
75
100
AcDbEntity
  8
0
100
AcDbVertex
100
AcDb2dVertex
 10
41.9838318746
 20
54.4095557625
 30
0.0
  0
VERTEX
  5
76
100
AcDbEntity
  8
0
100
AcDbVertex
100
AcDb2dVertex
 10
41.517686806
 20
54.6681959285
 30
0.0
  0
VERTEX
  5
77
100
AcDbEntity
  8
0
100
AcDbVertex
100
AcDb2dVertex
 10
41.0046015932
 20
54.8482537736
 30
0.0
  0
VERTEX
  5
78
100
AcDbEntity
  8
0
100
AcDbVertex
100
AcDb2dVertex
 10
40.4620487377
 20
54.9435976437
 30
0.0
  0
VERTEX
  5
79
100
AcDbEntity
  8
0
100
AcDbVertex
100
AcDb2dVertex
 10
39.9085042265
 20
54.9509807177
 30
0.0
  0
VERTEX
  5
7A
100
AcDbEntity
  8
0
100
AcDbVertex
100
AcDb2dVertex
 10
39.3628183537
 20
54.8701515738
 30
0.0
  0
VERTEX
  5
7B
100
AcDbEntity
  8
0
100
AcDbVertex
100
AcDb2dVertex
 10
38.8435737975
 20
54.7038627517
 30
0.0
  0
VERTEX
  5
7C
100
AcDbEntity
  8
0
100
AcDbVertex
100
AcDb2dVertex
 10
38.3684528083
 20
54.4577770176
 30
0.0
  0
VERTEX
  5
7D
100
AcDbEntity
  8
0
100
AcDbVertex
100
AcDb2dVertex
 10
37.9536350617
 20
54.1402745261
 30
0.0
  0
VERTEX
  5
7E
100
AcDbEntity
  8
0
100
AcDbVertex
100
AcDb2dVertex
 10
37.6132466784
 20
53.7621674438
 30
0.0
  0
VERTEX
  5
7F
100
AcDbEntity
  8
0
100
AcDbVertex
100
AcDb2dVertex
 10
37.3588791767
 20
53.3363317539
 30
0.0
  0
VERTEX
  5
80
100
AcDbEntity
  8
0
100
AcDbVertex
100
AcDb2dVertex
 10
37.1991947366
 20
52.8772687801
 30
0.0
  0
VERTEX
  5
81
100
AcDbEntity
  8
0
100
AcDbVertex
100
AcDb2dVertex
 10
37.1396312203
 20
52.4006113613
 30
0.0
  0
VERTEX
  5
82
100
AcDbEntity
  8
0
100
AcDbVertex
100
AcDb2dVertex
 10
37.182216992
 20
51.9225914942
 30
0.0
  0
VERTEX
  5
83
100
AcDbEntity
  8
0
100
AcDbVertex
100
AcDb2dVertex
 10
37.3255018441
 20
51.4594875721
 30
0.0
  0
VERTEX
  5
84
100
AcDbEntity
  8
0
100
AcDbVertex
100
AcDb2dVertex
 10
37.564606383
 20
51.0270700437
 30
0.0
  0
VERTEX
  5
85
100
AcDbEntity
  8
0
100
AcDbVertex
100
AcDb2dVertex
 10
37.8913881903
 20
50.6400643692
 30
0.0
  0
VERTEX
  5
86
100
AcDbEntity
  8
0
100
AcDbVertex
100
AcDb2dVertex
 10
38.2947191035
 20
50.3116495628
 30
0.0
  0
VERTEX
  5
87
100
AcDbEntity
  8
0
100
AcDbVertex
100
AcDb2dVertex
 10
38.7608641721
 20
50.0530093967
 30
0.0
  0
VERTEX
  5
88
100
AcDbEntity
  8
0
100
AcDbVertex
100
AcDb2dVertex
 10
39.2739493849
 20
49.8729515516
 30
0.0
  0
VERTEX
  5
89
100
AcDbEntity
  8
0
100
AcDbVertex
100
AcDb2dVertex
 10
39.8165022403
 20
49.7776076815
 30
0.0
  0
VERTEX
  5
8A
100
AcDbEntity
  8
0
100
AcDbVertex
100
AcDb2dVertex
 10
40.3700467516
 20
49.7702246075
 30
0.0
  0
VERTEX
  5
8B
100
AcDbEntity
  8
0
100
AcDbVertex
100
AcDb2dVertex
 10
40.9157326243
 20
49.8510537514
 30
0.0
  0
SEQEND
  5
8C
100
AcDbEntity
  8
0
  0
POLYLINE
  5
8D
100
AcDbEntity
  8
0
370
        15
  6
Continuous
 62
         7
100
AcDb2dPolyline
 66
         1
 10
0.0
 20
0.0
 30
0.0
 70
       128
  0
VERTEX
  5
8E
100
AcDbEntity
  8
0
100
AcDbVertex
100
AcDb2dVertex
 10
102.091034956
 20
64.0468320607
 30
0.0
  0
VERTEX
  5
8F
100
AcDbEntity
  8
0
100
AcDbVertex
100
AcDb2dVertex
 10
102.6102795122
 20
64.2131208829
 30
0.0
  0
VERTEX
  5
90
100
AcDbEntity
  8
0
100
AcDbVertex
100
AcDb2dVertex
 10
103.0854005014
 20
64.459206617
 30
0.0
  0
VERTEX
  5
91
100
AcDbEntity
  8
0
100
AcDbVertex
100
AcDb2dVertex
 10
103.500218248
 20
64.7767091084
 30
0.0
  0
VERTEX
  5
92
100
AcDbEntity
  8
0
100
AcDbVertex
100
AcDb2dVertex
 10
103.8406066313
 20
65.1548161907
 30
0.0
  0
VERTEX
  5
93
100
AcDbEntity
  8
0
100
AcDbVertex
100
AcDb2dVertex
 10
104.094974133
 20
65.5806518806
 30
0.0
  0
VERTEX
  5
94
100
AcDbEntity
  8
0
100
AcDbVertex
100
AcDb2dVertex
 10
104.2546585731
 20
66.0397148545
 30
0.0
  0
VERTEX
  5
95
100
AcDbEntity
  8
0
100
AcDbVertex
100
AcDb2dVertex
 10
104.3142220894
 20
66.5163722733
 30
0.0
  0
VERTEX
  5
96
100
AcDbEntity
  8
0
100
AcDbVertex
100
AcDb2dVertex
 10
104.2716363178
 20
66.9943921404
 30
0.0
  0
VERTEX
  5
97
100
AcDbEntity
  8
0
100
AcDbVertex
100
AcDb2dVertex
 10
104.1283514656
 20
67.4574960624
 30
0.0
  0
VERTEX
  5
98
100
AcDbEntity
  8
0
100
AcDbVertex
100
AcDb2dVertex
 10
103.8892469267
 20
67.8899135908
 30
0.0
  0
VERTEX
  5
99
100
AcDbEntity
  8
0
100
AcDbVertex
100
AcDb2dVertex
 10
103.5624651195
 20
68.2769192653
 30
0.0
  0
VERTEX
  5
9A
100
AcDbEntity
  8
0
100
AcDbVertex
100
AcDb2dVertex
 10
103.1591342062
 20
68.6053340718
 30
0.0
  0
VERTEX
  5
9B
100
AcDbEntity
  8
0
100
AcDbVertex
100
AcDb2dVertex
 10
102.6929891376
 20
68.8639742379
 30
0.0
  0
VERTEX
  5
9C
100
AcDbEntity
  8
0
100
AcDbVertex
100
AcDb2dVertex
 10
102.1799039248
 20
69.044032083
 30
0.0
  0
VERTEX
  5
9D
100
AcDbEntity
  8
0
100
AcDbVertex
100
AcDb2dVertex
 10
101.6373510694
 20
69.139375953
 30
0.0
  0
VERTEX
  5
9E
100
AcDbEntity
  8
0
100
AcDbVertex
100
AcDb2dVertex
 10
101.0838065581
 20
69.146759027
 30
0.0
  0
VERTEX
  5
9F
100
AcDbEntity
  8
0
100
AcDbVertex
100
AcDb2dVertex
 10
100.5381206854
 20
69.0659298832
 30
0.0
  0
VERTEX
  5
A0
100
AcDbEntity
  8
0
100
AcDbVertex
100
AcDb2dVertex
 10
100.0188761291
 20
68.899641061
 30
0.0
  0
VERTEX
  5
A1
100
AcDbEntity
  8
0
100
AcDbVertex
100
AcDb2dVertex
 10
99.54375514
 20
68.6535553269
 30
0.0
  0
VERTEX
  5
A2
100
AcDbEntity
  8
0
100
AcDbVertex
100
AcDb2dVertex
 10
99.1289373933
 20
68.3360528355
 30
0.0
  0
VERTEX
  5
A3
100
AcDbEntity
  8
0
100
AcDbVertex
100
AcDb2dVertex
 10
98.7885490101
 20
67.9579457532
 30
0.0
  0
VERTEX
  5
A4
100
AcDbEntity
  8
0
100
AcDbVertex
100
AcDb2dVertex
 10
98.5341815083
 20
67.5321100633
 30
0.0
  0
VERTEX
  5
A5
100
AcDbEntity
  8
0
100
AcDbVertex
100
AcDb2dVertex
 10
98.3744970683
 20
67.0730470894
 30
0.0
  0
VERTEX
  5
A6
100
AcDbEntity
  8
0
100
AcDbVertex
100
AcDb2dVertex
 10
98.314933552
 20
66.5963896706
 30
0.0
  0
VERTEX
  5
A7
100
AcDbEntity
  8
0
100
AcDbVertex
100
AcDb2dVertex
 10
98.3575193236
 20
66.1183698035
 30
0.0
  0
VERTEX
  5
A8
100
AcDbEntity
  8
0
100
AcDbVertex
100
AcDb2dVertex
 10
98.5008041757
 20
65.6552658815
 30
0.0
  0
VERTEX
  5
A9
100
AcDbEntity
  8
0
100
AcDbVertex
100
AcDb2dVertex
 10
98.7399087146
 20
65.222848353
 30
0.0
  0
VERTEX
  5
AA
100
AcDbEntity
  8
0
100
AcDbVertex
100
AcDb2dVertex
 10
99.0666905219
 20
64.8358426786
 30
0.0
  0
VERTEX
  5
AB
100
AcDbEntity
  8
0
100
AcDbVertex
100
AcDb2dVertex
 10
99.4700214351
 20
64.5074278721
 30
0.0
  0
VERTEX
  5
AC
100
AcDbEntity
  8
0
100
AcDbVertex
100
AcDb2dVertex
 10
99.9361665037
 20
64.248787706
 30
0.0
  0
VERTEX
  5
AD
100
AcDbEntity
  8
0
100
AcDbVertex
100
AcDb2dVertex
 10
100.4492517165
 20
64.0687298609
 30
0.0
  0
VERTEX
  5
AE
100
AcDbEntity
  8
0
100
AcDbVertex
100
AcDb2dVertex
 10
100.991804572
 20
63.9733859908
 30
0.0
  0
VERTEX
  5
AF
100
AcDbEntity
  8
0
100
AcDbVertex
100
AcDb2dVertex
 10
101.5453490833
 20
63.9660029169
 30
0.0
  0
VERTEX
  5
B0
100
AcDbEntity
  8
0
100
AcDbVertex
100
AcDb2dVertex
 10
102.091034956
 20
64.0468320607
 30
0.0
  0
SEQEND
  5
B1
100
AcDbEntity
  8
0
  0
LINE
  5
B2
100
AcDbEntity
  8
0
370
        15
  6
Continuous
 62
         7
100
AcDbLine
 10
47.6008390752
 20
67.8395550918
 30
0.0
 11
50.050328818
 21
66.6148102204
 31
0.0
  0
LINE
  5
B3
100
AcDbEntity
  8
0
370
        15
  6
Continuous
 62
         7
100
AcDbLine
 10
50.050328818
 20
66.6148102204
 30
0.0
 11
51.6602051951
 21
66.9883833338
 31
0.0
  0
LINE
  5
B4
100
AcDbEntity
  8
0
370
        15
  6
Continuous
 62
         7
100
AcDbLine
 10
51.6602051951
 20
66.9883833338
 30
0.0
 11
53.0744187575
 21
69.1097036773
 31
0.0
  0
LINE
  5
B5
100
AcDbEntity
  8
0
370
        15
  6
Continuous
 62
         7
100
AcDbLine
 10
51.866596547
 20
73.0134464281
 30
0.0
 11
53.0744187575
 21
69.1097036773
 31
0.0
  0
LINE
  5
B6
100
AcDbEntity
  8
0
370
        15
  6
Continuous
 62
         7
100
AcDbLine
 10
51.866596547
 20
73.0134464281
 30
0.0
 11
105.7974551815
 21
85.5281457271
 31
0.0
  0
LINE
  5
B7
100
AcDbEntity
  8
0
370
        15
  6
Continuous
 62
         7
100
AcDbLine
 10
105.7974551815
 20
85.5281457271
 30
0.0
 11
116.1502169856
 21
52.0674935776
 31
0.0
  0
LINE
  5
B8
100
AcDbEntity
  8
0
370
        15
  6
Continuous
 62
         7
100
AcDbLine
 10
116.1502169856
 20
52.0674935776
 30
0.0
 11
70.1077525992
 21
41.3833025342
 31
0.0
  0
LINE
  5
B9
100
AcDbEntity
  8
0
370
        15
  6
Continuous
 62
         7
100
AcDbLine
 10
68.3822922985
 20
46.9600778925
 30
0.0
 11
70.1077525992
 21
41.3833025342
 31
0.0
  0
LINE
  5
BA
100
AcDbEntity
  8
0
370
        15
  6
Continuous
 62
         7
100
AcDbLine
 10
71.8354097904
 20
47.7613765952
 30
0.0
 11
68.3822922985
 21
46.9600778925
 31
0.0
  0
POLYLINE
  5
BB
100
AcDbEntity
  8
0
370
        15
  6
Continuous
 62
         7
100
AcDb2dPolyline
 66
         1
 10
0.0
 20
0.0
 30
0.0
 70
       128
  0
VERTEX
  5
BC
100
AcDbEntity
  8
0
100
AcDbVertex
100
AcDb2dVertex
 10
78.4656475205
 20
51.3577440827
 30
0.0
  0
VERTEX
  5
BD
100
AcDbEntity
  8
0
100
AcDbVertex
100
AcDb2dVertex
 10
77.7887514835
 20
50.7293777665
 30
0.0
  0
VERTEX
  5
BE
100
AcDbEntity
  8
0
100
AcDbVertex
100
AcDb2dVertex
 10
77.0597686177
 20
50.1463482672
 30
0.0
  0
VERTEX
  5
BF
100
AcDbEntity
  8
0
100
AcDbVertex
100
AcDb2dVertex
 10
76.2827364972
 20
49.6118847756
 30
0.0
  0
VERTEX
  5
C0
100
AcDbEntity
  8
0
100
AcDbVertex
100
AcDb2dVertex
 10
75.4619588237
 20
49.128947493
 30
0.0
  0
VERTEX
  5
C1
100
AcDbEntity
  8
0
100
AcDbVertex
100
AcDb2dVertex
 10
74.6019815896
 20
48.7002112353
 30
0.0
  0
VERTEX
  5
C2
100
AcDbEntity
  8
0
100
AcDbVertex
100
AcDb2dVertex
 10
73.7075678998
 20
48.3280506186
 30
0.0
  0
VERTEX
  5
C3
100
AcDbEntity
  8
0
100
AcDbVertex
100
AcDb2dVertex
 10
72.7836715902
 20
48.0145269069
 30
0.0
  0
VERTEX
  5
C4
100
AcDbEntity
  8
0
100
AcDbVertex
100
AcDb2dVertex
 10
71.8354097904
 20
47.7613765952
 30
0.0
  0
SEQEND
  5
C5
100
AcDbEntity
  8
0
  0
LINE
  5
C6
100
AcDbEntity
  8
0
370
        15
  6
Continuous
 62
         7
100
AcDbLine
 10
101.2140235567
 20
74.1172141447
 30
0.0
 11
78.4656475205
 21
51.3577440827
 31
0.0
  0
POLYLINE
  5
C7
100
AcDbEntity
  8
0
370
        15
  6
Continuous
 62
         7
100
AcDb2dPolyline
 66
         1
 10
0.0
 20
0.0
 30
0.0
 70
       128
  0
VERTEX
  5
C8
100
AcDbEntity
  8
0
100
AcDbVertex
100
AcDb2dVertex
 10
97.1815602242
 20
77.1400874363
 30
0.0
  0
VERTEX
  5
C9
100
AcDbEntity
  8
0
100
AcDbVertex
100
AcDb2dVertex
 10
97.5607842436
 20
77.4516943463
 30
0.0
  0
VERTEX
  5
CA
100
AcDbEntity
  8
0
100
AcDbVertex
100
AcDb2dVertex
 10
98.0029175488
 20
77.6932427148
 30
0.0
  0
VERTEX
  5
CB
100
AcDbEntity
  8
0
100
AcDbVertex
100
AcDb2dVertex
 10
98.4909692049
 20
77.8554499736
 30
0.0
  0
VERTEX
  5
CC
100
AcDbEntity
  8
0
100
AcDbVertex
100
AcDb2dVertex
 10
99.0061836604
 20
77.9320825885
 30
0.0
  0
VERTEX
  5
CD
100
AcDbEntity
  8
0
100
AcDbVertex
100
AcDb2dVertex
 10
99.5287615127
 20
77.9201956112
 30
0.0
  0
VERTEX
  5
CE
100
AcDbEntity
  8
0
100
AcDbVertex
100
AcDb2dVertex
 10
100.038620388
 20
77.8202458515
 30
0.0
  0
VERTEX
  5
CF
100
AcDbEntity
  8
0
100
AcDbVertex
100
AcDb2dVertex
 10
100.5161666958
 20
77.6360743228
 30
0.0
  0
VERTEX
  5
D0
100
AcDbEntity
  8
0
100
AcDbVertex
100
AcDb2dVertex
 10
100.9430485991
 20
77.3747586334
 30
0.0
  0
VERTEX
  5
D1
100
AcDbEntity
  8
0
100
AcDbVertex
100
AcDb2dVertex
 10
101.3028612658
 20
77.0463409989
 30
0.0
  0
VERTEX
  5
D2
100
AcDbEntity
  8
0
100
AcDbVertex
100
AcDb2dVertex
 10
101.581777297
 20
76.6634423247
 30
0.0
  0
VERTEX
  5
D3
100
AcDbEntity
  8
0
100
AcDbVertex
100
AcDb2dVertex
 10
101.769078106
 20
76.2407771922
 30
0.0
  0
VERTEX
  5
D4
100
AcDbEntity
  8
0
100
AcDbVertex
100
AcDb2dVertex
 10
101.8575658277
 20
75.7945883853
 30
0.0
  0
VERTEX
  5
D5
100
AcDbEntity
  8
0
100
AcDbVertex
100
AcDb2dVertex
 10
101.8438399286
 20
75.3420226898
 30
0.0
  0
VERTEX
  5
D6
100
AcDbEntity
  8
0
100
AcDbVertex
100
AcDb2dVertex
 10
101.7284278873
 20
74.9004719514
 30
0.0
  0
VERTEX
  5
D7
100
AcDbEntity
  8
0
100
AcDbVertex
100
AcDb2dVertex
 10
101.5157649239
 20
74.4869047174
 30
0.0
  0
VERTEX
  5
D8
100
AcDbEntity
  8
0
100
AcDbVertex
100
AcDb2dVertex
 10
101.2140235567
 20
74.1172141447
 30
0.0
  0
SEQEND
  5
D9
100
AcDbEntity
  8
0
  0
LINE
  5
DA
100
AcDbEntity
  8
0
370
        15
  6
Continuous
 62
         7
100
AcDbLine
 10
74.4331841879
 20
54.3806173743
 30
0.0
 11
97.1815602242
 21
77.1400874363
 31
0.0
  0
POLYLINE
  5
DB
100
AcDbEntity
  8
0
370
        15
  6
Continuous
 62
         7
100
AcDb2dPolyline
 66
         1
 10
0.0
 20
0.0
 30
0.0
 70
       128
  0
VERTEX
  5
DC
100
AcDbEntity
  8
0
100
AcDbVertex
100
AcDb2dVertex
 10
70.4550415499
 20
52.2227968818
 30
0.0
  0
VERTEX
  5
DD
100
AcDbEntity
  8
0
100
AcDbVertex
100
AcDb2dVertex
 10
71.0239986297
 20
52.3746870688
 30
0.0
  0
VERTEX
  5
DE
100
AcDbEntity
  8
0
100
AcDbVertex
100
AcDb2dVertex
 10
71.5783364155
 20
52.5628012959
 30
0.0
  0
VERTEX
  5
DF
100
AcDbEntity
  8
0
100
AcDbVertex
100
AcDb2dVertex
 10
72.1149846294
 20
52.7860976659
 30
0.0
  0
VERTEX
  5
E0
100
AcDbEntity
  8
0
100
AcDbVertex
100
AcDb2dVertex
 10
72.6309709698
 20
53.0433394205
 30
0.0
  0
VERTEX
  5
E1
100
AcDbEntity
  8
0
100
AcDbVertex
100
AcDb2dVertex
 10
73.123437574
 20
53.33310179
 30
0.0
  0
VERTEX
  5
E2
100
AcDbEntity
  8
0
100
AcDbVertex
100
AcDb2dVertex
 10
73.5896568463
 20
53.653779885
 30
0.0
  0
VERTEX
  5
E3
100
AcDbEntity
  8
0
100
AcDbVertex
100
AcDb2dVertex
 10
74.0270465657
 20
54.0035975845
 30
0.0
  0
VERTEX
  5
E4
100
AcDbEntity
  8
0
100
AcDbVertex
100
AcDb2dVertex
 10
74.4331841879
 20
54.3806173743
 30
0.0
  0
SEQEND
  5
E5
100
AcDbEntity
  8
0
  0
LINE
  5
E6
100
AcDbEntity
  8
0
370
        15
  6
Continuous
 62
         7
100
AcDbLine
 10
42.2098278499
 20
45.6684722327
 30
0.0
 11
70.4550415499
 21
52.2227968818
 31
0.0
  0
POLYLINE
  5
E7
100
AcDbEntity
  8
0
370
        15
  6
Continuous
 62
         7
100
AcDb2dPolyline
 66
         1
 10
0.0
 20
0.0
 30
0.0
 70
       128
  0
VERTEX
  5
E8
100
AcDbEntity
  8
0
100
AcDbVertex
100
AcDb2dVertex
 10
38.0687231282
 20
59.0527330925
 30
0.0
  0
VERTEX
  5
E9
100
AcDbEntity
  8
0
100
AcDbVertex
100
AcDb2dVertex
 10
37.1856263105
 20
58.799311182
 30
0.0
  0
VERTEX
  5
EA
100
AcDbEntity
  8
0
100
AcDbVertex
100
AcDb2dVertex
 10
36.3424725311
 20
58.4588167843
 30
0.0
  0
VERTEX
  5
EB
100
AcDbEntity
  8
0
100
AcDbVertex
100
AcDb2dVertex
 10
35.5506639982
 20
58.0358545019
 30
0.0
  0
VERTEX
  5
EC
100
AcDbEntity
  8
0
100
AcDbVertex
100
AcDb2dVertex
 10
34.8209085641
 20
57.5361441743
 30
0.0
  0
VERTEX
  5
ED
100
AcDbEntity
  8
0
100
AcDbVertex
100
AcDb2dVertex
 10
34.1630749191
 20
56.9664435262
 30
0.0
  0
VERTEX
  5
EE
100
AcDbEntity
  8
0
100
AcDbVertex
100
AcDb2dVertex
 10
33.5860591347
 20
56.3344567817
 30
0.0
  0
VERTEX
  5
EF
100
AcDbEntity
  8
0
100
AcDbVertex
100
AcDb2dVertex
 10
33.0976643596
 20
55.6487304774
 30
0.0
  0
VERTEX
  5
F0
100
AcDbEntity
  8
0
100
AcDbVertex
100
AcDb2dVertex
 10
32.7044952952
 20
54.9185378851
 30
0.0
  0
VERTEX
  5
F1
100
AcDbEntity
  8
0
100
AcDbVertex
100
AcDb2dVertex
 10
32.4118688787
 20
54.1537536069
 30
0.0
  0
VERTEX
  5
F2
100
AcDbEntity
  8
0
100
AcDbVertex
100
AcDb2dVertex
 10
32.2237423804
 20
53.3647200384
 30
0.0
  0
VERTEX
  5
F3
100
AcDbEntity
  8
0
100
AcDbVertex
100
AcDb2dVertex
 10
32.1426598884
 20
52.562107505
 30
0.0
  0
VERTEX
  5
F4
100
AcDbEntity
  8
0
100
AcDbVertex
100
AcDb2dVertex
 10
32.1697179043
 20
51.7567699642
 30
0.0
  0
VERTEX
  5
F5
100
AcDbEntity
  8
0
100
AcDbVertex
100
AcDb2dVertex
 10
32.3045505149
 20
50.9595982248
 30
0.0
  0
VERTEX
  5
F6
100
AcDbEntity
  8
0
100
AcDbVertex
100
AcDb2dVertex
 10
32.5453343405
 20
50.181372667
 30
0.0
  0
VERTEX
  5
F7
100
AcDbEntity
  8
0
100
AcDbVertex
100
AcDb2dVertex
 10
32.8888131927
 20
49.4326174564
 30
0.0
  0
VERTEX
  5
F8
100
AcDbEntity
  8
0
100
AcDbVertex
100
AcDb2dVertex
 10
33.3303421095
 20
48.7234582229
 30
0.0
  0
VERTEX
  5
F9
100
AcDbEntity
  8
0
100
AcDbVertex
100
AcDb2dVertex
 10
33.8639501697
 20
48.0634851285
 30
0.0
  0
VERTEX
  5
FA
100
AcDbEntity
  8
0
100
AcDbVertex
100
AcDb2dVertex
 10
34.4824212395
 20
47.461623177
 30
0.0
  0
VERTEX
  5
FB
100
AcDbEntity
  8
0
100
AcDbVertex
100
AcDb2dVertex
 10
35.1773915589
 20
46.926011519
 30
0.0
  0
VERTEX
  5
FC
100
AcDbEntity
  8
0
100
AcDbVertex
100
AcDb2dVertex
 10
35.9394628464
 20
46.4638933833
 30
0.0
  0
VERTEX
  5
FD
100
AcDbEntity
  8
0
100
AcDbVertex
100
AcDb2dVertex
 10
36.7583293951
 20
46.0815181248
 30
0.0
  0
VERTEX
  5
FE
100
AcDbEntity
  8
0
100
AcDbVertex
100
AcDb2dVertex
 10
37.6229174398
 20
45.7840567131
 30
0.0
  0
VERTEX
  5
FF
100
AcDbEntity
  8
0
100
AcDbVertex
100
AcDb2dVertex
 10
38.5215349104
 20
45.5755318034
 30
0.0
  0
VERTEX
  5
100
100
AcDbEntity
  8
0
100
AcDbVertex
100
AcDb2dVertex
 10
39.4420295471
 20
45.4587633373
 30
0.0
  0
VERTEX
  5
101
100
AcDbEntity
  8
0
100
AcDbVertex
100
AcDb2dVertex
 10
40.371953239
 20
45.4353304081
 30
0.0
  0
VERTEX
  5
102
100
AcDbEntity
  8
0
100
AcDbVertex
100
AcDb2dVertex
 10
41.2987303635
 20
45.505549906
 30
0.0
  0
VERTEX
  5
103
100
AcDbEntity
  8
0
100
AcDbVertex
100
AcDb2dVertex
 10
42.2098278499
 20
45.6684722327
 30
0.0
  0
SEQEND
  5
104
100
AcDbEntity
  8
0
  0
POLYLINE
  5
105
100
AcDbEntity
  8
0
370
        15
  6
Continuous
 62
         7
100
AcDb2dPolyline
 66
         1
 10
0.0
 20
0.0
 30
0.0
 70
       128
  0
VERTEX
  5
106
100
AcDbEntity
  8
0
100
AcDbVertex
100
AcDb2dVertex
 10
36.6883548877
 20
63.5141533791
 30
0.0
  0
VERTEX
  5
107
100
AcDbEntity
  8
0
100
AcDbVertex
100
AcDb2dVertex
 10
37.2041306633
 20
63.5878997076
 30
0.0
  0
VERTEX
  5
108
100
AcDbEntity
  8
0
100
AcDbVertex
100
AcDb2dVertex
 10
37.7266088539
 20
63.5730870662
 30
0.0
  0
VERTEX
  5
109
100
AcDbEntity
  8
0
100
AcDbVertex
100
AcDb2dVertex
 10
38.2357109154
 20
63.4702846965
 30
0.0
  0
VERTEX
  5
10A
100
AcDbEntity
  8
0
100
AcDbVertex
100
AcDb2dVertex
 10
38.7118723413
 20
63.2834432358
 30
0.0
  0
VERTEX
  5
10B
100
AcDbEntity
  8
0
100
AcDbVertex
100
AcDb2dVertex
 10
39.1367945149
 20
63.0197428968
 30
0.0
  0
VERTEX
  5
10C
100
AcDbEntity
  8
0
100
AcDbVertex
100
AcDb2dVertex
 10
39.4941479154
 20
62.6893175355
 30
0.0
  0
VERTEX
  5
10D
100
AcDbEntity
  8
0
100
AcDbVertex
100
AcDb2dVertex
 10
39.770199652
 20
62.3048652132
 30
0.0
  0
VERTEX
  5
10E
100
AcDbEntity
  8
0
100
AcDbVertex
100
AcDb2dVertex
 10
39.9543412114
 20
61.8811602173
 30
0.0
  0
VERTEX
  5
10F
100
AcDbEntity
  8
0
100
AcDbVertex
100
AcDb2dVertex
 10
40.0394961366
 20
61.4344852929
 30
0.0
  0
VERTEX
  5
110
100
AcDbEntity
  8
0
100
AcDbVertex
100
AcDb2dVertex
 10
40.0223919716
 20
60.982005907
 30
0.0
  0
VERTEX
  5
111
100
AcDbEntity
  8
0
100
AcDbVertex
100
AcDb2dVertex
 10
39.9036860199
 20
60.5411105885
 30
0.0
  0
VERTEX
  5
112
100
AcDbEntity
  8
0
100
AcDbVertex
100
AcDb2dVertex
 10
39.6879400847
 20
60.1287426974
 30
0.0
  0
VERTEX
  5
113
100
AcDbEntity
  8
0
100
AcDbVertex
100
AcDb2dVertex
 10
39.3834451612
 20
59.7607493005
 30
0.0
  0
VERTEX
  5
114
100
AcDbEntity
  8
0
100
AcDbVertex
100
AcDb2dVertex
 10
39.0019028186
 20
59.4512721775
 30
0.0
  0
VERTEX
  5
115
100
AcDbEntity
  8
0
100
AcDbVertex
100
AcDb2dVertex
 10
38.5579755152
 20
59.2122043608
 30
0.0
  0
VERTEX
  5
116
100
AcDbEntity
  8
0
100
AcDbVertex
100
AcDb2dVertex
 10
38.0687231282
 20
59.0527330925
 30
0.0
  0
SEQEND
  5
117
100
AcDbEntity
  8
0
  0
POLYLINE
  5
118
100
AcDbEntity
  8
0
370
        15
  6
Continuous
 62
         7
100
AcDb2dPolyline
 66
         1
 10
0.0
 20
0.0
 30
0.0
 70
       128
  0
VERTEX
  5
119
100
AcDbEntity
  8
0
100
AcDbVertex
100
AcDb2dVertex
 10
43.5901960904
 20
41.2070519461
 30
0.0
  0
VERTEX
  5
11A
100
AcDbEntity
  8
0
100
AcDbVertex
100
AcDb2dVertex
 10
42.4218380517
 20
40.9840581765
 30
0.0
  0
VERTEX
  5
11B
100
AcDbEntity
  8
0
100
AcDbVertex
100
AcDb2dVertex
 10
41.2351021613
 20
40.8526616538
 30
0.0
  0
VERTEX
  5
11C
100
AcDbEntity
  8
0
100
AcDbVertex
100
AcDb2dVertex
 10
40.0395433189
 20
40.8139203056
 30
0.0
  0
VERTEX
  5
11D
100
AcDbEntity
  8
0
100
AcDbVertex
100
AcDb2dVertex
 10
38.8447874613
 20
40.8681460543
 30
0.0
  0
VERTEX
  5
11E
100
AcDbEntity
  8
0
100
AcDbVertex
100
AcDb2dVertex
 10
37.6604540602
 20
41.0149023063
 30
0.0
  0
VERTEX
  5
11F
100
AcDbEntity
  8
0
100
AcDbVertex
100
AcDb2dVertex
 10
36.4960786717
 20
41.2530074663
 30
0.0
  0
VERTEX
  5
120
100
AcDbEntity
  8
0
100
AcDbVertex
100
AcDb2dVertex
 10
35.3610361618
 20
41.5805444516
 30
0.0
  0
VERTEX
  5
121
100
AcDbEntity
  8
0
100
AcDbVertex
100
AcDb2dVertex
 10
34.2644652254
 20
41.9948761272
 30
0.0
  0
VERTEX
  5
122
100
AcDbEntity
  8
0
100
AcDbVertex
100
AcDb2dVertex
 10
33.2151948069
 20
42.4926665378
 30
0.0
  0
VERTEX
  5
123
100
AcDbEntity
  8
0
100
AcDbVertex
100
AcDb2dVertex
 10
32.2216730147
 20
43.0699077679
 30
0.0
  0
VERTEX
  5
124
100
AcDbEntity
  8
0
100
AcDbVertex
100
AcDb2dVertex
 10
31.2918991022
 20
43.7219522104
 30
0.0
  0
VERTEX
  5
125
100
AcDbEntity
  8
0
100
AcDbVertex
100
AcDb2dVertex
 10
30.4333590622
 20
44.4435499869
 30
0.0
  0
VERTEX
  5
126
100
AcDbEntity
  8
0
100
AcDbVertex
100
AcDb2dVertex
 10
29.6529653543
 20
45.2288912164
 30
0.0
  0
VERTEX
  5
127
100
AcDbEntity
  8
0
100
AcDbVertex
100
AcDb2dVertex
 10
28.9570012498
 20
46.0716527931
 30
0.0
  0
VERTEX
  5
128
100
AcDbEntity
  8
0
100
AcDbVertex
100
AcDb2dVertex
 10
28.3510702423
 20
46.9650492963
 30
0.0
  0
VERTEX
  5
129
100
AcDbEntity
  8
0
100
AcDbVertex
100
AcDb2dVertex
 10
27.8400509321
 20
47.9018876226
 30
0.0
  0
VERTEX
  5
12A
100
AcDbEntity
  8
0
100
AcDbVertex
100
AcDb2dVertex
 10
27.4280577463
 20
48.8746249008
 30
0.0
  0
VERTEX
  5
12B
100
AcDbEntity
  8
0
100
AcDbVertex
100
AcDb2dVertex
 10
27.1184078116
 20
49.8754292222
 30
0.0
  0
VERTEX
  5
12C
100
AcDbEntity
  8
0
100
AcDbVertex
100
AcDb2dVertex
 10
26.9135942473
 20
50.8962426989
 30
0.0
  0
VERTEX
  5
12D
100
AcDbEntity
  8
0
100
AcDbVertex
100
AcDb2dVertex
 10
26.8152660919
 20
51.928846341
 30
0.0
  0
VERTEX
  5
12E
100
AcDbEntity
  8
0
100
AcDbVertex
100
AcDb2dVertex
 10
26.8242150256
 20
52.9649262311
 30
0.0
  0
VERTEX
  5
12F
100
AcDbEntity
  8
0
100
AcDbVertex
100
AcDb2dVertex
 10
26.9403689971
 20
53.9961404632
 30
0.0
  0
VERTEX
  5
130
100
AcDbEntity
  8
0
100
AcDbVertex
100
AcDb2dVertex
 10
27.1627928029
 20
55.0141863066
 30
0.0
  0
VERTEX
  5
131
100
AcDbEntity
  8
0
100
AcDbVertex
100
AcDb2dVertex
 10
27.4896956172
 20
56.0108670548
 30
0.0
  0
VERTEX
  5
132
100
AcDbEntity
  8
0
100
AcDbVertex
100
AcDb2dVertex
 10
27.9184454108
 20
56.9781580204
 30
0.0
  0
VERTEX
  5
133
100
AcDbEntity
  8
0
100
AcDbVertex
100
AcDb2dVertex
 10
28.4455901424
 20
57.9082711453
 30
0.0
  0
VERTEX
  5
134
100
AcDbEntity
  8
0
100
AcDbVertex
100
AcDb2dVertex
 10
29.0668855527
 20
58.7937177056
 30
0.0
  0
VERTEX
  5
135
100
AcDbEntity
  8
0
100
AcDbVertex
100
AcDb2dVertex
 10
29.7773293363
 20
59.6273686062
 30
0.0
  0
VERTEX
  5
136
100
AcDbEntity
  8
0
100
AcDbVertex
100
AcDb2dVertex
 10
30.5712014176
 20
60.4025117802
 30
0.0
  0
VERTEX
  5
137
100
AcDbEntity
  8
0
100
AcDbVertex
100
AcDb2dVertex
 10
31.4421100053
 20
61.1129062305
 30
0.0
  0
VERTEX
  5
138
100
AcDbEntity
  8
0
100
AcDbVertex
100
AcDb2dVertex
 10
32.3830430557
 20
61.7528322788
 30
0.0
  0
VERTEX
  5
139
100
AcDbEntity
  8
0
100
AcDbVertex
100
AcDb2dVertex
 10
33.3864247291
 20
62.3171376168
 30
0.0
  0
VERTEX
  5
13A
100
AcDbEntity
  8
0
100
AcDbVertex
100
AcDb2dVertex
 10
34.4441763861
 20
62.8012787896
 30
0.0
  0
VERTEX
  5
13B
100
AcDbEntity
  8
0
100
AcDbVertex
100
AcDb2dVertex
 10
35.5477816325
 20
63.2013577773
 30
0.0
  0
VERTEX
  5
13C
100
AcDbEntity
  8
0
100
AcDbVertex
100
AcDb2dVertex
 10
36.6883548877
 20
63.5141533791
 30
0.0
  0
SEQEND
  5
13D
100
AcDbEntity
  8
0
  0
LINE
  5
13E
100
AcDbEntity
  8
0
370
        15
  6
Continuous
 62
         7
100
AcDbLine
 10
47.1319241201
 20
42.0289127956
 30
0.0
 11
43.5901960904
 21
41.2070519461
 31
0.0
  0
LINE
  5
13F
100
AcDbEntity
  8
0
370
        15
  6
Continuous
 62
         7
100
AcDbLine
 10
48.8573844208
 20
36.4521374373
 30
0.0
 11
47.1319241201
 21
42.0289127956
 31
0.0
  0
LINE
  5
140
100
AcDbEntity
  8
0
370
        15
  6
Continuous
 62
         7
100
AcDbLine
 10
48.8573844208
 20
36.4521374373
 30
0.0
 11
25.9971398653
 21
31.147399227
 31
0.0
  0
LINE
  5
141
100
AcDbEntity
  8
0
370
        15
  6
Continuous
 62
         7
100
AcDbLine
 10
25.9971398653
 20
31.147399227
 30
0.0
 11
15.6443780612
 21
64.6080513765
 31
0.0
  0
LINE
  5
142
100
AcDbEntity
  8
0
370
        15
  6
Continuous
 62
         7
100
AcDbLine
 10
15.6443780612
 20
64.6080513765
 30
0.0
 11
46.3930168647
 21
71.7432978425
 31
0.0
  0
LINE
  5
143
100
AcDbEntity
  8
0
370
        15
  6
Continuous
 62
         7
100
AcDbLine
 10
47.6008390752
 20
67.8395550918
 30
0.0
 11
46.3930168647
 21
71.7432978425
 31
0.0
  0
POLYLINE
  5
144
100
AcDbEntity
  8
0
370
        15
  6
Continuous
 62
         7
100
AcDb2dPolyline
 66
         1
 10
0.0
 20
0.0
 30
0.0
 70
       128
  0
VERTEX
  5
145
100
AcDbEntity
  8
0
100
AcDbVertex
100
AcDb2dVertex
 10
109.6644779076
 20
52.9533405126
 30
0.0
  0
VERTEX
  5
146
100
AcDbEntity
  8
0
100
AcDbVertex
100
AcDb2dVertex
 10
110.225522533
 20
53.13155916
 30
0.0
  0
VERTEX
  5
147
100
AcDbEntity
  8
0
100
AcDbVertex
100
AcDb2dVertex
 10
110.7408058656
 20
53.3936707877
 30
0.0
  0
VERTEX
  5
148
100
AcDbEntity
  8
0
100
AcDbVertex
100
AcDb2dVertex
 10
111.1937662751
 20
53.7312509124
 30
0.0
  0
VERTEX
  5
149
100
AcDbEntity
  8
0
100
AcDbVertex
100
AcDb2dVertex
 10
111.5698452414
 20
54.133449431
 30
0.0
  0
VERTEX
  5
14A
100
AcDbEntity
  8
0
100
AcDbVertex
100
AcDb2dVertex
 10
111.8569552768
 20
54.5873393523
 30
0.0
  0
VERTEX
  5
14B
100
AcDbEntity
  8
0
100
AcDbVertex
100
AcDb2dVertex
 10
112.0458684288
 20
55.0783322808
 30
0.0
  0
VERTEX
  5
14C
100
AcDbEntity
  8
0
100
AcDbVertex
100
AcDb2dVertex
 10
112.1305128731
 20
55.5906472996
 30
0.0
  0
VERTEX
  5
14D
100
AcDbEntity
  8
0
100
AcDbVertex
100
AcDb2dVertex
 10
112.1081680677
 20
56.1078181827
 30
0.0
  0
VERTEX
  5
14E
100
AcDbEntity
  8
0
100
AcDbVertex
100
AcDb2dVertex
 10
111.979552193
 20
56.6132226322
 30
0.0
  0
VERTEX
  5
14F
100
AcDbEntity
  8
0
100
AcDbVertex
100
AcDb2dVertex
 10
111.748799069
 20
57.0906165334
 30
0.0
  0
VERTEX
  5
150
100
AcDbEntity
  8
0
100
AcDbVertex
100
AcDb2dVertex
 10
111.4233252909
 20
57.5246560533
 30
0.0
  0
VERTEX
  5
151
100
AcDbEntity
  8
0
100
AcDbVertex
100
AcDb2dVertex
 10
111.013591854
 20
57.9013908048
 30
0.0
  0
VERTEX
  5
152
100
AcDbEntity
  8
0
100
AcDbVertex
100
AcDb2dVertex
 10
110.5327679278
 20
58.208712223
 30
0.0
  0
VERTEX
  5
153
100
AcDbEntity
  8
0
100
AcDbVertex
100
AcDb2dVertex
 10
109.9963075891
 20
58.4367427445
 30
0.0
  0
VERTEX
  5
154
100
AcDbEntity
  8
0
100
AcDbVertex
100
AcDb2dVertex
 10
109.4214531145
 20
58.5781532809
 30
0.0
  0
VERTEX
  5
155
100
AcDbEntity
  8
0
100
AcDbVertex
100
AcDb2dVertex
 10
108.8266807998
 20
58.628398781
 30
0.0
  0
VERTEX
  5
156
100
AcDbEntity
  8
0
100
AcDbVertex
100
AcDb2dVertex
 10
108.2311071166
 20
58.5858643133
 30
0.0
  0
VERTEX
  5
157
100
AcDbEntity
  8
0
100
AcDbVertex
100
AcDb2dVertex
 10
107.6538742931
 20
58.4519169705
 30
0.0
  0
VERTEX
  5
158
100
AcDbEntity
  8
0
100
AcDbVertex
100
AcDb2dVertex
 10
107.1135350673
 20
58.2308619303
 30
0.0
  0
VERTEX
  5
159
100
AcDbEntity
  8
0
100
AcDbVertex
100
AcDb2dVertex
 10
106.6274563863
 20
57.9298040837
 30
0.0
  0
VERTEX
  5
15A
100
AcDbEntity
  8
0
100
AcDbVertex
100
AcDb2dVertex
 10
106.2112612191
 20
57.5584196777
 30
0.0
  0
VERTEX
  5
15B
100
AcDbEntity
  8
0
100
AcDbVertex
100
AcDb2dVertex
 10
105.8783264206
 20
57.1286453124
 30
0.0
  0
VERTEX
  5
15C
100
AcDbEntity
  8
0
100
AcDbVertex
100
AcDb2dVertex
 10
105.6393527893
 20
56.6542942898
 30
0.0
  0
VERTEX
  5
15D
100
AcDbEntity
  8
0
100
AcDbVertex
100
AcDb2dVertex
 10
105.5020211343
 20
56.1506126419
 30
0.0
  0
VERTEX
  5
15E
100
AcDbEntity
  8
0
100
AcDbVertex
100
AcDb2dVertex
 10
105.470745408
 20
55.6337891114
 30
0.0
  0
VERTEX
  5
15F
100
AcDbEntity
  8
0
100
AcDbVertex
100
AcDb2dVertex
 10
105.5465308379
 20
55.1204348317
 30
0.0
  0
VERTEX
  5
160
100
AcDbEntity
  8
0
100
AcDbVertex
100
AcDb2dVertex
 10
105.726941618
 20
54.6270494318
 30
0.0
  0
VERTEX
  5
161
100
AcDbEntity
  8
0
100
AcDbVertex
100
AcDb2dVertex
 10
106.0061791975
 20
54.1694907244
 30
0.0
  0
VERTEX
  5
162
100
AcDbEntity
  8
0
100
AcDbVertex
100
AcDb2dVertex
 10
106.3752686506
 20
53.7624650228
 30
0.0
  0
VERTEX
  5
163
100
AcDbEntity
  8
0
100
AcDbVertex
100
AcDb2dVertex
 10
106.8223471387
 20
53.4190544681
 30
0.0
  0
VERTEX
  5
164
100
AcDbEntity
  8
0
100
AcDbVertex
100
AcDb2dVertex
 10
107.3330451913
 20
53.1502965579
 30
0.0
  0
VERTEX
  5
165
100
AcDbEntity
  8
0
100
AcDbVertex
100
AcDb2dVertex
 10
107.8909485529
 20
52.9648293927
 30
0.0
  0
VERTEX
  5
166
100
AcDbEntity
  8
0
100
AcDbVertex
100
AcDb2dVertex
 10
108.4781257503
 20
52.8686140397
 30
0.0
  0
VERTEX
  5
167
100
AcDbEntity
  8
0
100
AcDbVertex
100
AcDb2dVertex
 10
109.0757044253
 20
52.8647429396
 30
0.0
  0
VERTEX
  5
168
100
AcDbEntity
  8
0
100
AcDbVertex
100
AcDb2dVertex
 10
109.6644779076
 20
52.9533405126
 30
0.0
  0
SEQEND
  5
169
100
AcDbEntity
  8
0
  0
POLYLINE
  5
16A
100
AcDbEntity
  8
0
370
        15
  6
Continuous
 62
         7
100
AcDb2dPolyline
 66
         1
 10
0.0
 20
0.0
 30
0.0
 70
       128
  0
VERTEX
  5
16B
100
AcDbEntity
  8
0
100
AcDbVertex
100
AcDb2dVertex
 10
23.8555774399
 20
58.1454290832
 30
0.0
  0
VERTEX
  5
16C
100
AcDbEntity
  8
0
100
AcDbVertex
100
AcDb2dVertex
 10
24.4166220653
 20
58.3236477306
 30
0.0
  0
VERTEX
  5
16D
100
AcDbEntity
  8
0
100
AcDbVertex
100
AcDb2dVertex
 10
24.9319053979
 20
58.5857593583
 30
0.0
  0
VERTEX
  5
16E
100
AcDbEntity
  8
0
100
AcDbVertex
100
AcDb2dVertex
 10
25.3848658074
 20
58.9233394829
 30
0.0
  0
VERTEX
  5
16F
100
AcDbEntity
  8
0
100
AcDbVertex
100
AcDb2dVertex
 10
25.7609447736
 20
59.3255380016
 30
0.0
  0
VERTEX
  5
170
100
AcDbEntity
  8
0
100
AcDbVertex
100
AcDb2dVertex
 10
26.0480548091
 20
59.7794279229
 30
0.0
  0
VERTEX
  5
171
100
AcDbEntity
  8
0
100
AcDbVertex
100
AcDb2dVertex
 10
26.2369679611
 20
60.2704208514
 30
0.0
  0
VERTEX
  5
172
100
AcDbEntity
  8
0
100
AcDbVertex
100
AcDb2dVertex
 10
26.3216124054
 20
60.7827358702
 30
0.0
  0
VERTEX
  5
173
100
AcDbEntity
  8
0
100
AcDbVertex
100
AcDb2dVertex
 10
26.2992676
 20
61.2999067533
 30
0.0
  0
VERTEX
  5
174
100
AcDbEntity
  8
0
100
AcDbVertex
100
AcDb2dVertex
 10
26.1706517252
 20
61.8053112028
 30
0.0
  0
VERTEX
  5
175
100
AcDbEntity
  8
0
100
AcDbVertex
100
AcDb2dVertex
 10
25.9398986012
 20
62.2827051039
 30
0.0
  0
VERTEX
  5
176
100
AcDbEntity
  8
0
100
AcDbVertex
100
AcDb2dVertex
 10
25.6144248232
 20
62.7167446239
 30
0.0
  0
VERTEX
  5
177
100
AcDbEntity
  8
0
100
AcDbVertex
100
AcDb2dVertex
 10
25.2046913863
 20
63.0934793754
 30
0.0
  0
VERTEX
  5
178
100
AcDbEntity
  8
0
100
AcDbVertex
100
AcDb2dVertex
 10
24.7238674601
 20
63.4008007935
 30
0.0
  0
VERTEX
  5
179
100
AcDbEntity
  8
0
100
AcDbVertex
100
AcDb2dVertex
 10
24.1874071214
 20
63.6288313151
 30
0.0
  0
VERTEX
  5
17A
100
AcDbEntity
  8
0
100
AcDbVertex
100
AcDb2dVertex
 10
23.6125526468
 20
63.7702418514
 30
0.0
  0
VERTEX
  5
17B
100
AcDbEntity
  8
0
100
AcDbVertex
100
AcDb2dVertex
 10
23.0177803321
 20
63.8204873516
 30
0.0
  0
VERTEX
  5
17C
100
AcDbEntity
  8
0
100
AcDbVertex
100
AcDb2dVertex
 10
22.4222066489
 20
63.7779528839
 30
0.0
  0
VERTEX
  5
17D
100
AcDbEntity
  8
0
100
AcDbVertex
100
AcDb2dVertex
 10
21.8449738254
 20
63.644005541
 30
0.0
  0
VERTEX
  5
17E
100
AcDbEntity
  8
0
100
AcDbVertex
100
AcDb2dVertex
 10
21.3046345996
 20
63.4229505009
 30
0.0
  0
VERTEX
  5
17F
100
AcDbEntity
  8
0
100
AcDbVertex
100
AcDb2dVertex
 10
20.8185559186
 20
63.1218926543
 30
0.0
  0
VERTEX
  5
180
100
AcDbEntity
  8
0
100
AcDbVertex
100
AcDb2dVertex
 10
20.4023607514
 20
62.7505082482
 30
0.0
  0
VERTEX
  5
181
100
AcDbEntity
  8
0
100
AcDbVertex
100
AcDb2dVertex
 10
20.0694259529
 20
62.320733883
 30
0.0
  0
VERTEX
  5
182
100
AcDbEntity
  8
0
100
AcDbVertex
100
AcDb2dVertex
 10
19.8304523216
 20
61.8463828604
 30
0.0
  0
VERTEX
  5
183
100
AcDbEntity
  8
0
100
AcDbVertex
100
AcDb2dVertex
 10
19.6931206666
 20
61.3427012125
 30
0.0
  0
VERTEX
  5
184
100
AcDbEntity
  8
0
100
AcDbVertex
100
AcDb2dVertex
 10
19.6618449403
 20
60.8258776819
 30
0.0
  0
VERTEX
  5
185
100
AcDbEntity
  8
0
100
AcDbVertex
100
AcDb2dVertex
 10
19.7376303702
 20
60.3125234022
 30
0.0
  0
VERTEX
  5
186
100
AcDbEntity
  8
0
100
AcDbVertex
100
AcDb2dVertex
 10
19.9180411503
 20
59.8191380023
 30
0.0
  0
VERTEX
  5
187
100
AcDbEntity
  8
0
100
AcDbVertex
100
AcDb2dVertex
 10
20.1972787297
 20
59.361579295
 30
0.0
  0
VERTEX
  5
188
100
AcDbEntity
  8
0
100
AcDbVertex
100
AcDb2dVertex
 10
20.5663681829
 20
58.9545535934
 30
0.0
  0
VERTEX
  5
189
100
AcDbEntity
  8
0
100
AcDbVertex
100
AcDb2dVertex
 10
21.013446671
 20
58.6111430387
 30
0.0
  0
VERTEX
  5
18A
100
AcDbEntity
  8
0
100
AcDbVertex
100
AcDb2dVertex
 10
21.5241447236
 20
58.3423851285
 30
0.0
  0
VERTEX
  5
18B
100
AcDbEntity
  8
0
100
AcDbVertex
100
AcDb2dVertex
 10
22.0820480852
 20
58.1569179633
 30
0.0
  0
VERTEX
  5
18C
100
AcDbEntity
  8
0
100
AcDbVertex
100
AcDb2dVertex
 10
22.6692252826
 20
58.0607026103
 30
0.0
  0
VERTEX
  5
18D
100
AcDbEntity
  8
0
100
AcDbVertex
100
AcDb2dVertex
 10
23.2668039576
 20
58.0568315101
 30
0.0
  0
VERTEX
  5
18E
100
AcDbEntity
  8
0
100
AcDbVertex
100
AcDb2dVertex
 10
23.8555774399
 20
58.1454290832
 30
0.0
  0
SEQEND
  5
18F
100
AcDbEntity
  8
0
  0
POLYLINE
  5
190
100
AcDbEntity
  8
0
370
        15
  6
Continuous
 62
         7
100
AcDb2dPolyline
 66
         1
 10
0.0
 20
0.0
 30
0.0
 70
       128
  0
VERTEX
  5
191
100
AcDbEntity
  8
0
100
AcDbVertex
100
AcDb2dVertex
 10
62.0583707134
 20
39.5154369672
 30
0.0
  0
VERTEX
  5
192
100
AcDbEntity
  8
0
100
AcDbVertex
100
AcDb2dVertex
 10
62.0088773964
 20
39.2438315736
 30
0.0
  0
VERTEX
  5
193
100
AcDbEntity
  8
0
100
AcDbVertex
100
AcDb2dVertex
 10
61.8622994456
 20
38.9596938947
 30
0.0
  0
VERTEX
  5
194
100
AcDbEntity
  8
0
100
AcDbVertex
100
AcDb2dVertex
 10
61.6242697695
 20
38.6739431819
 30
0.0
  0
VERTEX
  5
195
100
AcDbEntity
  8
0
100
AcDbVertex
100
AcDb2dVertex
 10
61.3039357151
 20
38.397560675
 30
0.0
  0
VERTEX
  5
196
100
AcDbEntity
  8
0
100
AcDbVertex
100
AcDb2dVertex
 10
60.9136075404
 20
38.1411675987
 30
0.0
  0
VERTEX
  5
197
100
AcDbEntity
  8
0
100
AcDbVertex
100
AcDb2dVertex
 10
60.4682853383
 20
37.9146169951
 30
0.0
  0
VERTEX
  5
198
100
AcDbEntity
  8
0
100
AcDbVertex
100
AcDb2dVertex
 10
59.9850825913
 20
37.7266150769
 30
0.0
  0
VERTEX
  5
199
100
AcDbEntity
  8
0
100
AcDbVertex
100
AcDb2dVertex
 10
59.48256851
 20
37.5843866524
 30
0.0
  0
VERTEX
  5
19A
100
AcDbEntity
  8
0
100
AcDbVertex
100
AcDb2dVertex
 10
58.9800544287
 20
37.4933974802
 30
0.0
  0
VERTEX
  5
19B
100
AcDbEntity
  8
0
100
AcDbVertex
100
AcDb2dVertex
 10
58.4968516817
 20
37.457144223
 30
0.0
  0
VERTEX
  5
19C
100
AcDbEntity
  8
0
100
AcDbVertex
100
AcDb2dVertex
 10
58.0515294796
 20
37.4770200733
 30
0.0
  0
VERTEX
  5
19D
100
AcDbEntity
  8
0
100
AcDbVertex
100
AcDb2dVertex
 10
57.661201305
 20
37.5522612134
 30
0.0
  0
VERTEX
  5
19E
100
AcDbEntity
  8
0
100
AcDbVertex
100
AcDb2dVertex
 10
57.3408672506
 20
37.6799761682
 30
0.0
  0
VERTEX
  5
19F
100
AcDbEntity
  8
0
100
AcDbVertex
100
AcDb2dVertex
 10
57.1028375745
 20
37.8552569239
 30
0.0
  0
VERTEX
  5
1A0
100
AcDbEntity
  8
0
100
AcDbVertex
100
AcDb2dVertex
 10
56.9562596236
 20
38.0713675391
 30
0.0
  0
VERTEX
  5
1A1
100
AcDbEntity
  8
0
100
AcDbVertex
100
AcDb2dVertex
 10
56.9067663066
 20
38.3200030043
 30
0.0
  0
SEQEND
  5
1A2
100
AcDbEntity
  8
0
  0
LINE
  5
1A3
100
AcDbEntity
  8
0
370
        15
  6
Continuous
 62
         7
100
AcDbLine
 10
68.1759009466
 20
40.9350147981
 30
0.0
 11
62.0583707134
 21
39.5154369672
 31
0.0
  0
POLYLINE
  5
1A4
100
AcDbEntity
  8
0
370
        15
  6
Continuous
 62
         7
100
AcDb2dPolyline
 66
         1
 10
0.0
 20
0.0
 30
0.0
 70
       128
  0
VERTEX
  5
1A5
100
AcDbEntity
  8
0
100
AcDbVertex
100
AcDb2dVertex
 10
70.1077525992
 20
41.3833025342
 30
0.0
  0
VERTEX
  5
1A6
100
AcDbEntity
  8
0
100
AcDbVertex
100
AcDb2dVertex
 10
70.0495001441
 20
41.1987749333
 30
0.0
  0
VERTEX
  5
1A7
100
AcDbEntity
  8
0
100
AcDbVertex
100
AcDb2dVertex
 10
69.8817688846
 20
41.0094690259
 30
0.0
  0
VERTEX
  5
1A8
100
AcDbEntity
  8
0
100
AcDbVertex
100
AcDb2dVertex
 10
69.624789686
 20
40.8382178983
 30
0.0
  0
VERTEX
  5
1A9
100
AcDbEntity
  8
0
100
AcDbVertex
100
AcDb2dVertex
 10
69.3095580324
 20
40.7056769639
 30
0.0
  0
VERTEX
  5
1AA
100
AcDbEntity
  8
0
100
AcDbVertex
100
AcDb2dVertex
 10
68.9740955134
 20
40.6278326154
 30
0.0
  0
VERTEX
  5
1AB
100
AcDbEntity
  8
0
100
AcDbVertex
100
AcDb2dVertex
 10
68.6588638598
 20
40.6140740303
 30
0.0
  0
VERTEX
  5
1AC
100
AcDbEntity
  8
0
100
AcDbVertex
100
AcDb2dVertex
 10
68.4018846612
 20
40.6660606967
 30
0.0
  0
VERTEX
  5
1AD
100
AcDbEntity
  8
0
100
AcDbVertex
100
AcDb2dVertex
 10
68.2341534017
 20
40.7775222557
 30
0.0
  0
VERTEX
  5
1AE
100
AcDbEntity
  8
0
100
AcDbVertex
100
AcDb2dVertex
 10
68.1759009466
 20
40.9350147981
 30
0.0
  0
SEQEND
  5
1AF
100
AcDbEntity
  8
0
  0
LINE
  5
1B0
100
AcDbEntity
  8
0
370
        15
  6
Continuous
 62
         7
100
AcDbLine
 10
116.1502169856
 20
52.0674935776
 30
0.0
 11
116.1502169856
 21
47.0674935776
 31
0.0
  0
LINE
  5
1B1
100
AcDbEntity
  8
0
370
        15
  6
Continuous
 62
         7
100
AcDbLine
 10
25.9971398653
 20
26.147399227
 30
0.0
 11
116.1502169856
 21
47.0674935776
 31
0.0
  0
LINE
  5
1B2
100
AcDbEntity
  8
0
370
        15
  6
Continuous
 62
         7
100
AcDbLine
 10
25.9971398653
 20
31.147399227
 30
0.0
 11
25.9971398653
 21
26.147399227
 31
0.0
  0
POLYLINE
  5
1B3
100
AcDbEntity
  8
0
370
        15
  6
Continuous
 62
         7
100
AcDb2dPolyline
 66
         1
 10
0.0
 20
0.0
 30
0.0
 70
       128
  0
VERTEX
  5
1B4
100
AcDbEntity
  8
0
100
AcDbVertex
100
AcDb2dVertex
 10
50.7892360734
 20
36.9004251734
 30
0.0
  0
VERTEX
  5
1B5
100
AcDbEntity
  8
0
100
AcDbVertex
100
AcDb2dVertex
 10
50.7309836183
 20
36.7158975725
 30
0.0
  0
VERTEX
  5
1B6
100
AcDbEntity
  8
0
100
AcDbVertex
100
AcDb2dVertex
 10
50.5632523588
 20
36.5265916651
 30
0.0
  0
VERTEX
  5
1B7
100
AcDbEntity
  8
0
100
AcDbVertex
100
AcDb2dVertex
 10
50.3062731603
 20
36.3553405375
 30
0.0
  0
VERTEX
  5
1B8
100
AcDbEntity
  8
0
100
AcDbVertex
100
AcDb2dVertex
 10
49.9910415066
 20
36.222799603
 30
0.0
  0
VERTEX
  5
1B9
100
AcDbEntity
  8
0
100
AcDbVertex
100
AcDb2dVertex
 10
49.6555789876
 20
36.1449552546
 30
0.0
  0
VERTEX
  5
1BA
100
AcDbEntity
  8
0
100
AcDbVertex
100
AcDb2dVertex
 10
49.340347334
 20
36.1311966694
 30
0.0
  0
VERTEX
  5
1BB
100
AcDbEntity
  8
0
100
AcDbVertex
100
AcDb2dVertex
 10
49.0833681354
 20
36.1831833359
 30
0.0
  0
VERTEX
  5
1BC
100
AcDbEntity
  8
0
100
AcDbVertex
100
AcDb2dVertex
 10
48.9156368759
 20
36.2946448949
 30
0.0
  0
VERTEX
  5
1BD
100
AcDbEntity
  8
0
100
AcDbVertex
100
AcDb2dVertex
 10
48.8573844208
 20
36.4521374373
 30
0.0
  0
SEQEND
  5
1BE
100
AcDbEntity
  8
0
  0
LINE
  5
1BF
100
AcDbEntity
  8
0
370
        15
  6
Continuous
 62
         7
100
AcDbLine
 10
56.9067663066
 20
38.3200030043
 30
0.0
 11
50.7892360734
 21
36.9004251734
 31
0.0
  0
LINE
  5
1C0
100
AcDbEntity
  8
0
370
        15
  6
Continuous
 62
         7
100
AcDbLine
 10
15.6443780612
 20
59.6080513765
 30
0.0
 11
25.9971398653
 21
26.147399227
 31
0.0
  0
LINE
  5
1C1
100
AcDbEntity
  8
0
370
        15
  6
Continuous
 62
         7
100
AcDbLine
 10
15.6443780612
 20
64.6080513765
 30
0.0
 11
15.6443780612
 21
59.6080513765
 31
0.0
  0
POLYLINE
  5
1C2
100
AcDbEntity
  8
0
370
        15
  6
Continuous
 62
         7
100
AcDb2dPolyline
 66
         1
 10
0.0
 20
0.0
 30
0.0
 70
       128
  0
VERTEX
  5
1C3
100
AcDbEntity
  8
0
100
AcDbVertex
100
AcDb2dVertex
 10
49.0637757727
 20
42.4772005316
 30
0.0
  0
VERTEX
  5
1C4
100
AcDbEntity
  8
0
100
AcDbVertex
100
AcDb2dVertex
 10
49.0055233176
 20
42.2926729307
 30
0.0
  0
VERTEX
  5
1C5
100
AcDbEntity
  8
0
100
AcDbVertex
100
AcDb2dVertex
 10
48.8377920581
 20
42.1033670233
 30
0.0
  0
VERTEX
  5
1C6
100
AcDbEntity
  8
0
100
AcDbVertex
100
AcDb2dVertex
 10
48.5808128596
 20
41.9321158957
 30
0.0
  0
VERTEX
  5
1C7
100
AcDbEntity
  8
0
100
AcDbVertex
100
AcDb2dVertex
 10
48.2655812059
 20
41.7995749613
 30
0.0
  0
VERTEX
  5
1C8
100
AcDbEntity
  8
0
100
AcDbVertex
100
AcDb2dVertex
 10
47.9301186869
 20
41.7217306129
 30
0.0
  0
VERTEX
  5
1C9
100
AcDbEntity
  8
0
100
AcDbVertex
100
AcDb2dVertex
 10
47.6148870333
 20
41.7079720277
 30
0.0
  0
VERTEX
  5
1CA
100
AcDbEntity
  8
0
100
AcDbVertex
100
AcDb2dVertex
 10
47.3579078347
 20
41.7599586942
 30
0.0
  0
VERTEX
  5
1CB
100
AcDbEntity
  8
0
100
AcDbVertex
100
AcDb2dVertex
 10
47.1901765752
 20
41.8714202531
 30
0.0
  0
VERTEX
  5
1CC
100
AcDbEntity
  8
0
100
AcDbVertex
100
AcDb2dVertex
 10
47.1741184659
 20
41.8925385262
 30
0.0
  0
SEQEND
  5
1CD
100
AcDbEntity
  8
0
  0
LINE
  5
1CE
100
AcDbEntity
  8
0
370
        15
  6
Continuous
 62
         7
100
AcDbLine
 10
49.0637757727
 20
42.4772005316
 30
0.0
 11
50.7892360734
 21
36.9004251734
 31
0.0
  0
LINE
  5
1CF
100
AcDbEntity
  8
0
370
        15
  6
Continuous
 62
         7
100
AcDbLine
 10
55.1813060059
 20
43.8967783626
 30
0.0
 11
49.0637757727
 21
42.4772005316
 31
0.0
  0
LINE
  5
1D0
100
AcDbEntity
  8
0
370
        15
  6
Continuous
 62
         7
100
AcDbLine
 10
56.9067663066
 20
38.3200030043
 30
0.0
 11
55.1813060059
 21
43.8967783626
 31
0.0
  0
POLYLINE
  5
1D1
100
AcDbEntity
  8
0
370
        15
  6
Continuous
 62
         7
100
AcDb2dPolyline
 66
         1
 10
0.0
 20
0.0
 30
0.0
 70
       128
  0
VERTEX
  5
1D2
100
AcDbEntity
  8
0
100
AcDbVertex
100
AcDb2dVertex
 10
60.3329104128
 20
45.0922123254
 30
0.0
  0
VERTEX
  5
1D3
100
AcDbEntity
  8
0
100
AcDbVertex
100
AcDb2dVertex
 10
60.2834170957
 20
44.8206069319
 30
0.0
  0
VERTEX
  5
1D4
100
AcDbEntity
  8
0
100
AcDbVertex
100
AcDb2dVertex
 10
60.1368391449
 20
44.5364692529
 30
0.0
  0
VERTEX
  5
1D5
100
AcDbEntity
  8
0
100
AcDbVertex
100
AcDb2dVertex
 10
59.8988094688
 20
44.2507185401
 30
0.0
  0
VERTEX
  5
1D6
100
AcDbEntity
  8
0
100
AcDbVertex
100
AcDb2dVertex
 10
59.5784754144
 20
43.9743360332
 30
0.0
  0
VERTEX
  5
1D7
100
AcDbEntity
  8
0
100
AcDbVertex
100
AcDb2dVertex
 10
59.1881472397
 20
43.7179429569
 30
0.0
  0
VERTEX
  5
1D8
100
AcDbEntity
  8
0
100
AcDbVertex
100
AcDb2dVertex
 10
58.7428250376
 20
43.4913923534
 30
0.0
  0
VERTEX
  5
1D9
100
AcDbEntity
  8
0
100
AcDbVertex
100
AcDb2dVertex
 10
58.2596222906
 20
43.3033904352
 30
0.0
  0
VERTEX
  5
1DA
100
AcDbEntity
  8
0
100
AcDbVertex
100
AcDb2dVertex
 10
57.7571082093
 20
43.1611620107
 30
0.0
  0
VERTEX
  5
1DB
100
AcDbEntity
  8
0
100
AcDbVertex
100
AcDb2dVertex
 10
57.254594128
 20
43.0701728384
 30
0.0
  0
VERTEX
  5
1DC
100
AcDbEntity
  8
0
100
AcDbVertex
100
AcDb2dVertex
 10
56.771391381
 20
43.0339195813
 30
0.0
  0
VERTEX
  5
1DD
100
AcDbEntity
  8
0
100
AcDbVertex
100
AcDb2dVertex
 10
56.326069179
 20
43.0537954316
 30
0.0
  0
VERTEX
  5
1DE
100
AcDbEntity
  8
0
100
AcDbVertex
100
AcDb2dVertex
 10
55.9357410043
 20
43.1290365716
 30
0.0
  0
VERTEX
  5
1DF
100
AcDbEntity
  8
0
100
AcDbVertex
100
AcDb2dVertex
 10
55.6154069499
 20
43.2567515265
 30
0.0
  0
VERTEX
  5
1E0
100
AcDbEntity
  8
0
100
AcDbVertex
100
AcDb2dVertex
 10
55.3773772738
 20
43.4320322821
 30
0.0
  0
VERTEX
  5
1E1
100
AcDbEntity
  8
0
100
AcDbVertex
100
AcDb2dVertex
 10
55.2938242613
 20
43.5331136443
 30
0.0
  0
SEQEND
  5
1E2
100
AcDbEntity
  8
0
  0
LINE
  5
1E3
100
AcDbEntity
  8
0
370
        15
  6
Continuous
 62
         7
100
AcDbLine
 10
60.3329104128
 20
45.0922123254
 30
0.0
 11
62.0583707134
 21
39.5154369672
 31
0.0
  0
LINE
  5
1E4
100
AcDbEntity
  8
0
370
        15
  6
Continuous
 62
         7
100
AcDbLine
 10
66.4504406459
 20
46.5117901564
 30
0.0
 11
60.3329104128
 21
45.0922123254
 31
0.0
  0
LINE
  5
1E5
100
AcDbEntity
  8
0
370
        15
  6
Continuous
 62
         7
100
AcDbLine
 10
68.1759009466
 20
40.9350147981
 30
0.0
 11
66.4504406459
 21
46.5117901564
 31
0.0
  0
POLYLINE
  5
1E6
100
AcDbEntity
  8
0
370
        15
  6
Continuous
 62
         7
100
AcDb2dPolyline
 66
         1
 10
0.0
 20
0.0
 30
0.0
 70
       128
  0
VERTEX
  5
1E7
100
AcDbEntity
  8
0
100
AcDbVertex
100
AcDb2dVertex
 10
68.3822922985
 20
46.9600778925
 30
0.0
  0
VERTEX
  5
1E8
100
AcDbEntity
  8
0
100
AcDbVertex
100
AcDb2dVertex
 10
68.3240398434
 20
46.7755502915
 30
0.0
  0
VERTEX
  5
1E9
100
AcDbEntity
  8
0
100
AcDbVertex
100
AcDb2dVertex
 10
68.1563085839
 20
46.5862443841
 30
0.0
  0
VERTEX
  5
1EA
100
AcDbEntity
  8
0
100
AcDbVertex
100
AcDb2dVertex
 10
67.8993293854
 20
46.4149932565
 30
0.0
  0
VERTEX
  5
1EB
100
AcDbEntity
  8
0
100
AcDbVertex
100
AcDb2dVertex
 10
67.5840977317
 20
46.2824523221
 30
0.0
  0
VERTEX
  5
1EC
100
AcDbEntity
  8
0
100
AcDbVertex
100
AcDb2dVertex
 10
67.2486352127
 20
46.2046079737
 30
0.0
  0
VERTEX
  5
1ED
100
AcDbEntity
  8
0
100
AcDbVertex
100
AcDb2dVertex
 10
66.9334035591
 20
46.1908493885
 30
0.0
  0
VERTEX
  5
1EE
100
AcDbEntity
  8
0
100
AcDbVertex
100
AcDb2dVertex
 10
66.6764243605
 20
46.242836055
 30
0.0
  0
VERTEX
  5
1EF
100
AcDbEntity
  8
0
100
AcDbVertex
100
AcDb2dVertex
 10
66.508693101
 20
46.354297614
 30
0.0
  0
VERTEX
  5
1F0
100
AcDbEntity
  8
0
100
AcDbVertex
100
AcDb2dVertex
 10
66.4926349917
 20
46.375415887
 30
0.0
  0
SEQEND
  5
1F1
100
AcDbEntity
  8
0
  0
POLYLINE
  5
1F2
100
AcDbEntity
  8
0
370
        15
  6
Continuous
 62
         7
100
AcDb2dPolyline
 66
         1
 10
0.0
 20
0.0
 30
0.0
 70
       128
  0
VERTEX
  5
1F3
100
AcDbEntity
  8
0
100
AcDbVertex
100
AcDb2dVertex
 10
39.3628183537
 20
49.8701515738
 30
0.0
  0
VERTEX
  5
1F4
100
AcDbEntity
  8
0
100
AcDbVertex
100
AcDb2dVertex
 10
39.9085042265
 20
49.9509807177
 30
0.0
  0
VERTEX
  5
1F5
100
AcDbEntity
  8
0
100
AcDbVertex
100
AcDb2dVertex
 10
40.4620487377
 20
49.9435976437
 30
0.0
  0
VERTEX
  5
1F6
100
AcDbEntity
  8
0
100
AcDbVertex
100
AcDb2dVertex
 10
40.95577207
 20
49.8606026626
 30
0.0
  0
SEQEND
  5
1F7
100
AcDbEntity
  8
0
  0
POLYLINE
  5
1F8
100
AcDbEntity
  8
0
370
        15
  6
Continuous
 62
         7
100
AcDb2dPolyline
 66
         1
 10
0.0
 20
0.0
 30
0.0
 70
       128
  0
VERTEX
  5
1F9
100
AcDbEntity
  8
0
100
AcDbVertex
100
AcDb2dVertex
 10
111.523403027
 20
54.0750615251
 30
0.0
  0
VERTEX
  5
1FA
100
AcDbEntity
  8
0
100
AcDbVertex
100
AcDb2dVertex
 10
111.4233252909
 20
54.19132272
 30
0.0
  0
VERTEX
  5
1FB
100
AcDbEntity
  8
0
100
AcDbVertex
100
AcDb2dVertex
 10
111.013591854
 20
54.5680574715
 30
0.0
  0
VERTEX
  5
1FC
100
AcDbEntity
  8
0
100
AcDbVertex
100
AcDb2dVertex
 10
110.5327679278
 20
54.8753788896
 30
0.0
  0
VERTEX
  5
1FD
100
AcDbEntity
  8
0
100
AcDbVertex
100
AcDb2dVertex
 10
109.9963075891
 20
55.1034094112
 30
0.0
  0
VERTEX
  5
1FE
100
AcDbEntity
  8
0
100
AcDbVertex
100
AcDb2dVertex
 10
109.4214531145
 20
55.2448199475
 30
0.0
  0
VERTEX
  5
1FF
100
AcDbEntity
  8
0
100
AcDbVertex
100
AcDb2dVertex
 10
108.8266807998
 20
55.2950654477
 30
0.0
  0
VERTEX
  5
200
100
AcDbEntity
  8
0
100
AcDbVertex
100
AcDb2dVertex
 10
108.2311071166
 20
55.25253098
 30
0.0
  0
VERTEX
  5
201
100
AcDbEntity
  8
0
100
AcDbVertex
100
AcDb2dVertex
 10
107.6538742931
 20
55.1185836371
 30
0.0
  0
VERTEX
  5
202
100
AcDbEntity
  8
0
100
AcDbVertex
100
AcDb2dVertex
 10
107.1135350673
 20
54.897528597
 30
0.0
  0
VERTEX
  5
203
100
AcDbEntity
  8
0
100
AcDbVertex
100
AcDb2dVertex
 10
106.6274563863
 20
54.5964707504
 30
0.0
  0
VERTEX
  5
204
100
AcDbEntity
  8
0
100
AcDbVertex
100
AcDb2dVertex
 10
106.2112612191
 20
54.2250863443
 30
0.0
  0
VERTEX
  5
205
100
AcDbEntity
  8
0
100
AcDbVertex
100
AcDb2dVertex
 10
106.0800924875
 20
54.0750615251
 30
0.0
  0
SEQEND
  5
206
100
AcDbEntity
  8
0
  0
POLYLINE
  5
207
100
AcDbEntity
  8
0
370
        15
  6
Continuous
 62
         7
100
AcDb2dPolyline
 66
         1
 10
0.0
 20
0.0
 30
0.0
 70
       128
  0
VERTEX
  5
208
100
AcDbEntity
  8
0
100
AcDbVertex
100
AcDb2dVertex
 10
25.7145025593
 20
59.2671500957
 30
0.0
  0
VERTEX
  5
209
100
AcDbEntity
  8
0
100
AcDbVertex
100
AcDb2dVertex
 10
25.6144248232
 20
59.3834112906
 30
0.0
  0
VERTEX
  5
20A
100
AcDbEntity
  8
0
100
AcDbVertex
100
AcDb2dVertex
 10
25.2046913863
 20
59.7601460421
 30
0.0
  0
VERTEX
  5
20B
100
AcDbEntity
  8
0
100
AcDbVertex
100
AcDb2dVertex
 10
24.7238674601
 20
60.0674674602
 30
0.0
  0
VERTEX
  5
20C
100
AcDbEntity
  8
0
100
AcDbVertex
100
AcDb2dVertex
 10
24.1874071214
 20
60.2954979818
 30
0.0
  0
VERTEX
  5
20D
100
AcDbEntity
  8
0
100
AcDbVertex
100
AcDb2dVertex
 10
23.6125526468
 20
60.4369085181
 30
0.0
  0
VERTEX
  5
20E
100
AcDbEntity
  8
0
100
AcDbVertex
100
AcDb2dVertex
 10
23.0177803321
 20
60.4871540183
 30
0.0
  0
VERTEX
  5
20F
100
AcDbEntity
  8
0
100
AcDbVertex
100
AcDb2dVertex
 10
22.4222066489
 20
60.4446195505
 30
0.0
  0
VERTEX
  5
210
100
AcDbEntity
  8
0
100
AcDbVertex
100
AcDb2dVertex
 10
21.8449738254
 20
60.3106722077
 30
0.0
  0
VERTEX
  5
211
100
AcDbEntity
  8
0
100
AcDbVertex
100
AcDb2dVertex
 10
21.3046345996
 20
60.0896171676
 30
0.0
  0
VERTEX
  5
212
100
AcDbEntity
  8
0
100
AcDbVertex
100
AcDb2dVertex
 10
20.8185559186
 20
59.788559321
 30
0.0
  0
VERTEX
  5
213
100
AcDbEntity
  8
0
100
AcDbVertex
100
AcDb2dVertex
 10
20.4023607514
 20
59.4171749149
 30
0.0
  0
VERTEX
  5
214
100
AcDbEntity
  8
0
100
AcDbVertex
100
AcDb2dVertex
 10
20.2711920198
 20
59.2671500957
 30
0.0
  0
SEQEND
  5
215
100
AcDbEntity
  8
0
  0
POLYLINE
  5
216
100
AcDbEntity
  8
0
370
        15
  6
Continuous
 62
         7
100
AcDb2dPolyline
 66
         1
 10
0.0
 20
0.0
 30
0.0
 70
       128
  0
VERTEX
  5
217
100
AcDbEntity
  8
0
100
AcDbVertex
100
AcDb2dVertex
 10
100.5381206854
 20
64.0659298832
 30
0.0
  0
VERTEX
  5
218
100
AcDbEntity
  8
0
100
AcDbVertex
100
AcDb2dVertex
 10
101.0838065581
 20
64.146759027
 30
0.0
  0
VERTEX
  5
219
100
AcDbEntity
  8
0
100
AcDbVertex
100
AcDb2dVertex
 10
101.6373510694
 20
64.139375953
 30
0.0
  0
VERTEX
  5
21A
100
AcDbEntity
  8
0
100
AcDbVertex
100
AcDb2dVertex
 10
102.1310744016
 20
64.0563809719
 30
0.0
  0
SEQEND
  5
21B
100
AcDbEntity
  8
0
  0
POLYLINE
  5
21C
100
AcDbEntity
  8
0
370
        15
  6
Continuous
 62
         7
100
AcDb2dPolyline
 66
         1
 10
0.0
 20
0.0
 30
0.0
 70
       128
  0
VERTEX
  5
21D
100
AcDbEntity
  8
0
100
AcDbVertex
100
AcDb2dVertex
 10
52.2924788029
 20
67.9367937454
 30
0.0
  0
VERTEX
  5
21E
100
AcDbEntity
  8
0
100
AcDbVertex
100
AcDb2dVertex
 10
52.2728315717
 20
67.9219601168
 30
0.0
  0
VERTEX
  5
21F
100
AcDbEntity
  8
0
100
AcDbVertex
100
AcDb2dVertex
 10
51.8581078861
 20
67.6495424733
 30
0.0
  0
VERTEX
  5
220
100
AcDbEntity
  8
0
100
AcDbVertex
100
AcDb2dVertex
 10
51.3849530464
 20
67.408832457
 30
0.0
  0
VERTEX
  5
221
100
AcDbEntity
  8
0
100
AcDbVertex
100
AcDb2dVertex
 10
50.8715501278
 20
67.2090804189
 30
0.0
  0
VERTEX
  5
222
100
AcDbEntity
  8
0
100
AcDbVertex
100
AcDb2dVertex
 10
50.3376289164
 20
67.0579627179
 30
0.0
  0
VERTEX
  5
223
100
AcDbEntity
  8
0
100
AcDbVertex
100
AcDb2dVertex
 10
49.803707705
 20
66.9612867224
 30
0.0
  0
VERTEX
  5
224
100
AcDbEntity
  8
0
100
AcDbVertex
100
AcDb2dVertex
 10
49.425365636
 20
66.9272918114
 30
0.0
  0
SEQEND
  5
225
100
AcDbEntity
  8
0
  0
POLYLINE
  5
226
100
AcDbEntity
  8
0
370
        15
  6
Continuous
 62
         7
100
AcDb2dPolyline
 66
         1
 10
0.0
 20
0.0
 30
0.0
 70
       128
  0
VERTEX
  5
227
100
AcDbEntity
  8
0
100
AcDbVertex
100
AcDb2dVertex
 10
51.866596547
 20
73.0134464281
 30
0.0
  0
VERTEX
  5
228
100
AcDbEntity
  8
0
100
AcDbVertex
100
AcDb2dVertex
 10
51.8140098977
 20
72.7248656975
 30
0.0
  0
VERTEX
  5
229
100
AcDbEntity
  8
0
100
AcDbVertex
100
AcDb2dVertex
 10
51.6582708249
 20
72.4229694135
 30
0.0
  0
VERTEX
  5
22A
100
AcDbEntity
  8
0
100
AcDbVertex
100
AcDb2dVertex
 10
51.4053642941
 20
72.1193592812
 30
0.0
  0
VERTEX
  5
22B
100
AcDbEntity
  8
0
100
AcDbVertex
100
AcDb2dVertex
 10
51.0650093613
 20
71.8257028676
 30
0.0
  0
VERTEX
  5
22C
100
AcDbEntity
  8
0
100
AcDbVertex
100
AcDb2dVertex
 10
50.6502856757
 20
71.553285224
 30
0.0
  0
VERTEX
  5
22D
100
AcDbEntity
  8
0
100
AcDbVertex
100
AcDb2dVertex
 10
50.177130836
 20
71.3125752078
 30
0.0
  0
VERTEX
  5
22E
100
AcDbEntity
  8
0
100
AcDbVertex
100
AcDb2dVertex
 10
49.6637279173
 20
71.1128231697
 30
0.0
  0
VERTEX
  5
22F
100
AcDbEntity
  8
0
100
AcDbVertex
100
AcDb2dVertex
 10
49.1298067059
 20
70.9617054686
 30
0.0
  0
VERTEX
  5
230
100
AcDbEntity
  8
0
100
AcDbVertex
100
AcDb2dVertex
 10
48.5958854945
 20
70.8650294731
 30
0.0
  0
VERTEX
  5
231
100
AcDbEntity
  8
0
100
AcDbVertex
100
AcDb2dVertex
 10
48.0824825758
 20
70.8265103874
 30
0.0
  0
VERTEX
  5
232
100
AcDbEntity
  8
0
100
AcDbVertex
100
AcDb2dVertex
 10
47.6093277361
 20
70.8476284784
 30
0.0
  0
VERTEX
  5
233
100
AcDbEntity
  8
0
100
AcDbVertex
100
AcDb2dVertex
 10
47.1946040505
 20
70.9275721896
 30
0.0
  0
VERTEX
  5
234
100
AcDbEntity
  8
0
100
AcDbVertex
100
AcDb2dVertex
 10
46.8542491177
 20
71.0632693292
 30
0.0
  0
VERTEX
  5
235
100
AcDbEntity
  8
0
100
AcDbVertex
100
AcDb2dVertex
 10
46.6013425869
 20
71.2495051321
 30
0.0
  0
VERTEX
  5
236
100
AcDbEntity
  8
0
100
AcDbVertex
100
AcDb2dVertex
 10
46.5125675111
 20
71.3569040794
 30
0.0
  0
SEQEND
  5
237
100
AcDbEntity
  8
0
  0
LINE
  5
238
100
AcDbEntity
  8
0
370
        15
  6
Continuous
 62
         7
100
AcDbLine
 10
256.3705244474
 20
165.4788687931
 30
0.0
 11
256.3705244475
 21
155.9788687931
 31
0.0
  0
LINE
  5
239
100
AcDbEntity
  8
0
370
        15
  6
Continuous
 62
         7
100
AcDbLine
 10
266.3705244475
 20
165.4788687931
 30
0.0
 11
256.3705244474
 21
165.4788687931
 31
0.0
  0
LINE
  5
23A
100
AcDbEntity
  8
0
370
        15
  6
Continuous
 62
         7
100
AcDbLine
 10
266.3705244475
 20
165.4788687931
 30
0.0
 11
266.3705244475
 21
155.9788687931
 31
0.0
  0
LINE
  5
23B
100
AcDbEntity
  8
0
370
        15
  6
Continuous
 62
         7
100
AcDbLine
 10
256.3705244475
 20
155.9788687931
 30
0.0
 11
266.3705244475
 21
155.9788687931
 31
0.0
  0
LINE
  5
23C
100
AcDbEntity
  8
0
370
        15
  6
Continuous
 62
         7
100
AcDbLine
 10
266.3705244475
 20
147.9788687931
 30
0.0
 11
266.3705244475
 21
138.4788687931
 31
0.0
  0
LINE
  5
23D
100
AcDbEntity
  8
0
370
        15
  6
Continuous
 62
         7
100
AcDbLine
 10
256.3705244475
 20
138.4788687931
 30
0.0
 11
266.3705244475
 21
138.4788687931
 31
0.0
  0
LINE
  5
23E
100
AcDbEntity
  8
0
370
        15
  6
Continuous
 62
         7
100
AcDbLine
 10
256.3705244474
 20
147.9788687931
 30
0.0
 11
256.3705244475
 21
138.4788687931
 31
0.0
  0
LINE
  5
23F
100
AcDbEntity
  8
0
370
        15
  6
Continuous
 62
         7
100
AcDbLine
 10
266.3705244475
 20
147.9788687931
 30
0.0
 11
256.3705244474
 21
147.9788687931
 31
0.0
  0
CIRCLE
  5
240
100
AcDbEntity
  8
0
370
        15
  6
Continuous
 62
         7
100
AcDbCircle
 10
236.3705244474
 20
129.9788687931
 30
0.0
 40
4.5
  0
CIRCLE
  5
241
100
AcDbEntity
  8
0
370
        15
  6
Continuous
 62
         7
100
AcDbCircle
 10
236.3705244474
 20
224.9788687931
 30
0.0
 40
4.5
  0
LINE
  5
242
100
AcDbEntity
  8
0
370
        15
  6
Continuous
 62
         7
100
AcDbLine
 10
213.3705244474
 20
147.7288687931
 30
0.0
 11
216.3705244474
 21
150.7288687931
 31
0.0
  0
LINE
  5
243
100
AcDbEntity
  8
0
370
        15
  6
Continuous
 62
         7
100
AcDbLine
 10
216.3705244474
 20
150.7288687931
 30
0.0
 11
216.3705244474
 21
153.2288687931
 31
0.0
  0
LINE
  5
244
100
AcDbEntity
  8
0
370
        15
  6
Continuous
 62
         7
100
AcDbLine
 10
216.3705244474
 20
153.2288687931
 30
0.0
 11
213.3705244474
 21
156.2288687931
 31
0.0
  0
LINE
  5
245
100
AcDbEntity
  8
0
370
        15
  6
Continuous
 62
         7
100
AcDbLine
 10
206.3705244474
 20
156.2288687931
 30
0.0
 11
213.3705244474
 21
156.2288687931
 31
0.0
  0
LINE
  5
246
100
AcDbEntity
  8
0
370
        15
  6
Continuous
 62
         7
100
AcDbLine
 10
206.3705244474
 20
156.2288687931
 30
0.0
 11
206.3705244474
 21
239.9788687931
 31
0.0
  0
LINE
  5
247
100
AcDbEntity
  8
0
370
        15
  6
Continuous
 62
         7
100
AcDbLine
 10
206.3705244474
 20
239.9788687931
 30
0.0
 11
266.3705244474
 21
239.9788687931
 31
0.0
  0
LINE
  5
248
100
AcDbEntity
  8
0
370
        15
  6
Continuous
 62
         7
100
AcDbLine
 10
266.3705244474
 20
239.9788687931
 30
0.0
 11
266.3705244475
 21
168.4788687931
 31
0.0
  0
LINE
  5
249
100
AcDbEntity
  8
0
370
        15
  6
Continuous
 62
         7
100
AcDbLine
 10
256.3705244475
 20
168.4788687931
 30
0.0
 11
266.3705244475
 21
168.4788687931
 31
0.0
  0
LINE
  5
24A
100
AcDbEntity
  8
0
370
        15
  6
Continuous
 62
         7
100
AcDbLine
 10
256.3705244474
 20
173.8412642244
 30
0.0
 11
256.3705244475
 21
168.4788687931
 31
0.0
  0
ARC
  5
24B
100
AcDbEntity
  8
0
370
        15
  6
Continuous
 62
         7
100
AcDbCircle
 10
236.3705244474
 20
173.8412642244
 30
0.0
 40
20.0
100
AcDbArc
 50
0.0
 51
34.1204293267
  0
LINE
  5
24C
100
AcDbEntity
  8
0
370
        15
  6
Continuous
 62
         7
100
AcDbLine
 10
223.6819659718
 20
228.2226056383
 30
0.0
 11
252.9277320694
 21
185.0599484503
 31
0.0
  0
ARC
  5
24D
100
AcDbEntity
  8
0
370
        15
  6
Continuous
 62
         7
100
AcDbCircle
 10
220.3705244474
 20
225.9788687931
 30
0.0
 40
4.0
100
AcDbArc
 50
34.1204293267
 51
214.1204293267
  0
LINE
  5
24E
100
AcDbEntity
  8
0
370
        15
  6
Continuous
 62
         7
100
AcDbLine
 10
246.3048490206
 20
180.57247476
 30
0.0
 11
217.059082923
 21
223.7351319479
 31
0.0
  0
ARC
  5
24F
100
AcDbEntity
  8
0
370
        15
  6
Continuous
 62
         7
100
AcDbCircle
 10
236.3705244474
 20
173.8412642244
 30
0.0
 40
12.0
100
AcDbArc
 50
0.0
 51
34.1204293267
  0
LINE
  5
250
100
AcDbEntity
  8
0
370
        15
  6
Continuous
 62
         7
100
AcDbLine
 10
248.3705244474
 20
129.9788687931
 30
0.0
 11
248.3705244474
 21
173.8412642244
 31
0.0
  0
ARC
  5
251
100
AcDbEntity
  8
0
370
        15
  6
Continuous
 62
         7
100
AcDbCircle
 10
236.3705244474
 20
129.9788687931
 30
0.0
 40
12.0
100
AcDbArc
 50
180.0
 51
0.0
  0
ARC
  5
252
100
AcDbEntity
  8
0
370
        15
  6
Continuous
 62
         7
100
AcDbCircle
 10
220.3705244474
 20
129.9788687931
 30
0.0
 40
4.0
100
AcDbArc
 50
0.0
 51
180.0
  0
ARC
  5
253
100
AcDbEntity
  8
0
370
        15
  6
Continuous
 62
         7
100
AcDbCircle
 10
236.3705244474
 20
129.9788687931
 30
0.0
 40
20.0
100
AcDbArc
 50
180.0
 51
0.0
  0
LINE
  5
254
100
AcDbEntity
  8
0
370
        15
  6
Continuous
 62
         7
100
AcDbLine
 10
256.3705244474
 20
135.4788687931
 30
0.0
 11
256.3705244474
 21
129.9788687931
 31
0.0
  0
LINE
  5
255
100
AcDbEntity
  8
0
370
        15
  6
Continuous
 62
         7
100
AcDbLine
 10
266.3705244475
 20
135.4788687931
 30
0.0
 11
256.3705244474
 21
135.4788687931
 31
0.0
  0
LINE
  5
256
100
AcDbEntity
  8
0
370
        15
  6
Continuous
 62
         7
100
AcDbLine
 10
266.3705244475
 20
135.4788687931
 30
0.0
 11
266.3705244474
 21
99.9788687931
 31
0.0
  0
LINE
  5
257
100
AcDbEntity
  8
0
370
        15
  6
Continuous
 62
         7
100
AcDbLine
 10
266.3705244474
 20
99.9788687931
 30
0.0
 11
206.3705244474
 21
99.9788687931
 31
0.0
  0
LINE
  5
258
100
AcDbEntity
  8
0
370
        15
  6
Continuous
 62
         7
100
AcDbLine
 10
206.3705244474
 20
99.9788687931
 30
0.0
 11
206.3705244474
 21
147.7288687931
 31
0.0
  0
LINE
  5
259
100
AcDbEntity
  8
0
370
        15
  6
Continuous
 62
         7
100
AcDbLine
 10
213.3705244474
 20
147.7288687931
 30
0.0
 11
206.3705244474
 21
147.7288687931
 31
0.0
  0
CIRCLE
  5
25A
100
AcDbEntity
  8
0
370
        15
  6
Continuous
 62
         7
100
AcDbCircle
 10
257.3705244474
 20
230.9788687931
 30
0.0
 40
5.0
  0
CIRCLE
  5
25B
100
AcDbEntity
  8
0
370
        15
  6
Continuous
 62
         7
100
AcDbCircle
 10
215.3705244474
 20
108.9788687931
 30
0.0
 40
5.0
  0
LINE
  5
25C
100
AcDbEntity
  8
0
370
        15
  6
Continuous
 62
         7
100
AcDbLine
 10
256.3705244475
 20
168.4788687931
 30
0.0
 11
256.3705244474
 21
165.4788687931
 31
0.0
  0
LINE
  5
25D
100
AcDbEntity
  8
0
370
        15
  6
Continuous
 62
         7
100
AcDbLine
 10
266.3705244475
 20
168.4788687931
 30
0.0
 11
266.3705244475
 21
165.4788687931
 31
0.0
  0
LINE
  5
25E
100
AcDbEntity
  8
0
370
        15
  6
Continuous
 62
         7
100
AcDbLine
 10
256.3705244475
 20
138.4788687931
 30
0.0
 11
256.3705244474
 21
135.4788687931
 31
0.0
  0
LINE
  5
25F
100
AcDbEntity
  8
0
370
        15
  6
Continuous
 62
         7
100
AcDbLine
 10
266.3705244475
 20
138.4788687931
 30
0.0
 11
266.3705244475
 21
135.4788687931
 31
0.0
  0
LINE
  5
260
100
AcDbEntity
  8
0
370
        15
  6
Continuous
 62
         7
100
AcDbLine
 10
256.3705244475
 20
155.9788687931
 30
0.0
 11
256.3705244474
 21
147.9788687931
 31
0.0
  0
LINE
  5
261
100
AcDbEntity
  8
0
370
        15
  6
Continuous
 62
         7
100
AcDbLine
 10
266.3705244475
 20
155.9788687931
 30
0.0
 11
266.3705244475
 21
147.9788687931
 31
0.0
  0
LINE
  5
262
100
AcDbEntity
  8
0
370
        15
  6
Continuous
 62
         7
100
AcDbLine
 10
213.3705244474
 20
156.2288687931
 30
0.0
 11
213.3705244474
 21
147.7288687931
 31
0.0
  0
LINE
  5
263
100
AcDbEntity
  8
0
370
        15
  6
Continuous
 62
         7
100
AcDbLine
 10
206.3705244474
 20
156.2288687931
 30
0.0
 11
206.3705244474
 21
147.7288687931
 31
0.0
  0
ARC
  5
264
100
AcDbEntity
  8
0
370
         0
  6
DOT2
 62
         7
100
AcDbCircle
 10
236.3705244474
 20
173.8412642244
 30
0.0
 40
16.0
100
AcDbArc
 50
0.0
 51
34.1204293267
  0
LINE
  5
265
100
AcDbEntity
  8
0
370
         0
  6
DOT2
 62
         7
100
AcDbLine
 10
252.9277320694
 20
185.0599484503
 30
0.0
 11
249.616290545
 21
182.8162116052
 31
0.0
  0
LINE
  5
266
100
AcDbEntity
  8
0
370
         0
  6
DOT2
 62
         7
100
AcDbLine
 10
256.3705244474
 20
173.8412642244
 30
0.0
 11
252.3705244474
 21
173.8412642244
 31
0.0
  0
LINE
  5
267
100
AcDbEntity
  8
0
370
         0
  6
DOT2
 62
         7
100
AcDbLine
 10
252.3705244474
 20
129.9788687931
 30
0.0
 11
248.3705244474
 21
129.9788687931
 31
0.0
  0
ARC
  5
268
100
AcDbEntity
  8
0
370
         0
  6
DOT2
 62
         7
100
AcDbCircle
 10
236.3705244474
 20
129.9788687931
 30
0.0
 40
16.0
100
AcDbArc
 50
180.0
 51
0.0
  0
LINE
  5
269
100
AcDbEntity
  8
0
370
         0
  6
DOT2
 62
         7
100
AcDbLine
 10
224.3705244474
 20
129.9788687931
 30
0.0
 11
220.3705244474
 21
129.9788687931
 31
0.0
  0
LINE
  5
26A
100
AcDbEntity
  8
0
370
         0
  6
DOT2
 62
         7
100
AcDbLine
 10
249.616290545
 20
182.8162116052
 30
0.0
 11
220.3705244474
 21
225.9788687931
 31
0.0
  0
LINE
  5
26B
100
AcDbEntity
  8
0
370
         0
  6
DOT2
 62
         7
100
AcDbLine
 10
220.3705244474
 20
225.9788687931
 30
0.0
 11
223.6819659718
 21
228.2226056383
 31
0.0
  0
LINE
  5
26C
100
AcDbEntity
  8
0
370
         0
  6
DOT2
 62
         7
100
AcDbLine
 10
252.3705244474
 20
173.8412642244
 30
0.0
 11
248.3705244474
 21
173.8412642244
 31
0.0
  0
LINE
  5
26D
100
AcDbEntity
  8
0
370
         0
  6
DOT2
 62
         7
100
AcDbLine
 10
252.3705244474
 20
129.9788687931
 30
0.0
 11
252.3705244474
 21
173.8412642244
 31
0.0
  0
LINE
  5
26E
100
AcDbEntity
  8
0
370
         0
  6
DOT2
 62
         7
100
AcDbLine
 10
256.3705244474
 20
129.9788687931
 30
0.0
 11
252.3705244474
 21
129.9788687931
 31
0.0
  0
LINE
  5
26F
100
AcDbEntity
  8
0
370
         0
  6
DOT2
 62
         7
100
AcDbLine
 10
216.3705244474
 20
129.9788687931
 30
0.0
 11
220.3705244474
 21
129.9788687931
 31
0.0
  0
LINE
  5
270
100
AcDbEntity
  8
0
370
         0
  6
DOT2
 62
         7
100
AcDbLine
 10
249.616290545
 20
182.8162116052
 30
0.0
 11
246.3048490206
 21
180.57247476
 31
0.0
  0
LINE
  5
271
100
AcDbEntity
  8
0
370
         0
  6
DOT2
 62
         7
100
AcDbLine
 10
217.059082923
 20
223.7351319479
 30
0.0
 11
220.3705244474
 21
225.9788687931
 31
0.0
  0
DIMENSION
  5
27D
100
AcDbEntity
  8
0
100
AcDbDimension
  2
*D1
 10
206.3705244474
 20
99.9788687931
 30
0.0
 11
206.3705244474
 21
90.8663332321
 31
0.0
 70
       230
 71
         5
 72
         1
 41
1.0
 42
0.0
  3
SLDDIMSTYLE2
100
AcDbOrdinateDimension
 13
206.3705244474
 23
99.9788687931
 33
0.0
 14
206.3705244474
 24
90.8663332321
 34
0.0
  0
DIMENSION
  5
286
100
AcDbEntity
  8
0
100
AcDbDimension
  2
*D3
 10
206.3705244474
 20
99.9788687931
 30
0.0
 11
215.3705244474
 21
90.8663332321
 31
0.0
 70
       230
 71
         5
 72
         1
 41
1.0
 42
0.0
  3
SLDDIMSTYLE3
100
AcDbOrdinateDimension
 13
215.3705244474
 23
108.9788687931
 33
0.0
 14
215.3705244474
 24
90.8663332321
 34
0.0
  0
DIMENSION
  5
28E
100
AcDbEntity
  8
0
100
AcDbDimension
  2
*D4
 10
206.3705244474
 20
99.9788687931
 30
0.0
 11
236.3705244474
 21
90.8663332321
 31
0.0
 70
       230
 71
         5
 72
         1
 41
1.0
 42
0.0
  3
SLDDIMSTYLE3
100
AcDbOrdinateDimension
 13
236.3705244474
 23
224.9788687931
 33
0.0
 14
236.3705244474
 24
90.8663332321
 34
0.0
  0
DIMENSION
  5
296
100
AcDbEntity
  8
0
100
AcDbDimension
  2
*D5
 10
206.3705244474
 20
99.9788687931
 30
0.0
 11
257.3705244474
 21
90.8663332321
 31
0.0
 70
       230
 71
         5
 72
         1
 41
1.0
 42
0.0
  3
SLDDIMSTYLE3
100
AcDbOrdinateDimension
 13
257.3705244474
 23
230.9788687931
 33
0.0
 14
257.3705244474
 24
90.8663332321
 34
0.0
  0
DIMENSION
  5
29E
100
AcDbEntity
  8
0
100
AcDbDimension
  2
*D6
 10
206.3705244474
 20
99.9788687931
 30
0.0
 11
266.3705244474
 21
90.8663332321
 31
0.0
 70
       230
 71
         5
 72
         1
 41
1.0
 42
0.0
  3
SLDDIMSTYLE3
100
AcDbOrdinateDimension
 13
266.3705244474
 23
168.4788687931
 33
0.0
 14
266.3705244474
 24
90.8663332321
 34
0.0
  0
DIMENSION
  5
2A6
100
AcDbEntity
  8
0
100
AcDbDimension
  2
*D7
 10
266.3705244474
 20
99.9788687931
 30
0.0
 11
273.1733294479
 21
99.9788687931
 31
0.0
 70
       166
 71
         5
 72
         1
 41
1.0
 42
0.0
  3
SLDDIMSTYLE2
100
AcDbOrdinateDimension
 13
266.3705244474
 23
99.9788687931
 33
0.0
 14
273.1733294479
 24
99.9788687931
 34
0.0
  0
DIMENSION
  5
2AE
100
AcDbEntity
  8
0
100
AcDbDimension
  2
*D8
 10
266.3705244474
 20
99.9788687931
 30
0.0
 11
273.1733294479
 21
108.9788687931
 31
0.0
 70
       166
 71
         5
 72
         1
 41
1.0
 42
0.0
  3
SLDDIMSTYLE3
100
AcDbOrdinateDimension
 13
215.3705244474
 23
108.9788687931
 33
0.0
 14
273.1733294479
 24
108.9788687931
 34
0.0
  0
DIMENSION
  5
2B6
100
AcDbEntity
  8
0
100
AcDbDimension
  2
*D9
 10
266.3705244474
 20
99.9788687931
 30
0.0
 11
273.1733294479
 21
129.9788687931
 31
0.0
 70
       166
 71
         5
 72
         1
 41
1.0
 42
0.0
  3
SLDDIMSTYLE3
100
AcDbOrdinateDimension
 13
236.3705244474
 23
129.9788687931
 33
0.0
 14
273.1733294479
 24
129.9788687931
 34
0.0
  0
DIMENSION
  5
2BE
100
AcDbEntity
  8
0
100
AcDbDimension
  2
*D10
 10
266.3705244474
 20
99.9788687931
 30
0.0
 11
273.1733294479
 21
224.9788687931
 31
0.0
 70
       166
 71
         5
 72
         1
 41
1.0
 42
0.0
  3
SLDDIMSTYLE3
100
AcDbOrdinateDimension
 13
236.3705244474
 23
224.9788687931
 33
0.0
 14
273.1733294479
 24
224.9788687931
 34
0.0
  0
DIMENSION
  5
2C6
100
AcDbEntity
  8
0
100
AcDbDimension
  2
*D11
 10
266.3705244474
 20
99.9788687931
 30
0.0
 11
273.1733294479
 21
230.9788687931
 31
0.0
 70
       166
 71
         5
 72
         1
 41
1.0
 42
0.0
  3
SLDDIMSTYLE3
100
AcDbOrdinateDimension
 13
257.3705244474
 23
230.9788687931
 33
0.0
 14
273.1733294479
 24
230.9788687931
 34
0.0
  0
DIMENSION
  5
2CE
100
AcDbEntity
  8
0
100
AcDbDimension
  2
*D12
 10
266.3705244474
 20
99.9788687931
 30
0.0
 11
273.1733294479
 21
239.9788687931
 31
0.0
 70
       166
 71
         5
 72
         1
 41
1.0
 42
0.0
  3
SLDDIMSTYLE3
100
AcDbOrdinateDimension
 13
266.3705244474
 23
239.9788687931
 33
0.0
 14
273.1733294479
 24
239.9788687931
 34
0.0
  0
DIMENSION
  5
2DD
100
AcDbEntity
  8
0
100
AcDbDimension
  2
*D13
 10
240.705770596
 20
128.772369381
 30
0.0
 11
178.3270791784
 21
146.5528865768
 31
0.0
 70
       163
 71
         5
 72
         1
 41
1.0
 42
0.0
  1
2x <>\Pdébouchants
  3
SLDDIMSTYLE4
100
AcDbDiametricDimension
 15
232.0352782988
 25
131.1853682052
 35
0.0
 40
0.0
  0
DIMENSION
  5
2EE
100
AcDbEntity
  8
0
100
AcDbDimension
  2
*D14
 10
219.8759932396
 20
106.8107472646
 30
0.0
 11
180.7900023031
 21
122.6600608249
 31
0.0
 70
       163
 71
         5
 72
         1
 41
1.0
 42
0.0
  1
2x <>\Pnon débouchants
  3
SLDDIMSTYLE5
100
AcDbDiametricDimension
 15
210.8650556552
 25
111.1469903216
 35
0.0
 40
0.0
  0
DIMENSION
  5
2FC
100
AcDbEntity
  8
0
 62
       255
100
AcDbDimension
  2
*D15
 10
206.3705244474
 20
146.5528865768
 30
0.0
 11
200.0530736751
 21
146.5528865768
 31
0.0
 70
       160
 71
         5
 72
         1
 41
1.0
 42
0.0
  3
SLDDIMSTYLE6
100
AcDbAlignedDimension
 13
213.3705244474
 23
147.7288687931
 33
0.0
 14
206.3705244474
 24
147.7288687931
 34
0.0
100
AcDbRotatedDimension
  0
LEADER
  5
2FD
100
AcDbEntity
  8
0
 62
       255
100
AcDbLeader
  3
SLDDIMSTYLE1
 73
         3
 74
         1
 75
         0
 40
0.0
 76
         2
 10
233.4515391031
 20
110.1930272755
 30
0.0
 10
222.853060241
 20
79.7234891566
 30
0.0
 77
       256
340
2FE
  0
MTEXT
  5
2FE
102
{ACAD_REACTORS
330
2FD
102
}
100
AcDbEntity
  8
0
 62
         7
100
AcDbMText
 10
159.4326480813
 20
81.975333385
 30
0.0
 40
3.5
 41
0.0
 71
         1
 72
         1
  1
forme suivant fichier dxf/step
  7
SLDTEXTSTYLE0
 73
         1
 44
1.0
  0
LINE
  5
2FF
100
AcDbEntity
  8
0
  6
Continuous
 62
         7
100
AcDbLine
 10
233.8705244474
 20
129.9788687931
 30
0.0
 11
238.8705244474
 21
129.9788687931
 31
0.0
  0
LINE
  5
300
100
AcDbEntity
  8
0
  6
Continuous
 62
         7
100
AcDbLine
 10
236.3705244474
 20
127.4788687931
 30
0.0
 11
236.3705244474
 21
132.4788687931
 31
0.0
  0
LINE
  5
301
100
AcDbEntity
  8
0
  6
Continuous
 62
         7
100
AcDbLine
 10
241.3705244474
 20
129.9788687931
 30
0.0
 11
243.3705244474
 21
129.9788687931
 31
0.0
  0
LINE
  5
302
100
AcDbEntity
  8
0
  6
Continuous
 62
         7
100
AcDbLine
 10
231.3705244474
 20
129.9788687931
 30
0.0
 11
229.3705244474
 21
129.9788687931
 31
0.0
  0
LINE
  5
303
100
AcDbEntity
  8
0
  6
Continuous
 62
         7
100
AcDbLine
 10
236.3705244474
 20
134.9788687931
 30
0.0
 11
236.3705244474
 21
136.9788687931
 31
0.0
  0
LINE
  5
304
100
AcDbEntity
  8
0
  6
Continuous
 62
         7
100
AcDbLine
 10
236.3705244474
 20
124.9788687931
 30
0.0
 11
236.3705244474
 21
122.9788687931
 31
0.0
  0
LINE
  5
305
100
AcDbEntity
  8
0
  6
Continuous
 62
         7
100
AcDbLine
 10
233.8705244474
 20
224.9788687931
 30
0.0
 11
238.8705244474
 21
224.9788687931
 31
0.0
  0
LINE
  5
306
100
AcDbEntity
  8
0
  6
Continuous
 62
         7
100
AcDbLine
 10
236.3705244474
 20
222.4788687931
 30
0.0
 11
236.3705244474
 21
227.4788687931
 31
0.0
  0
LINE
  5
307
100
AcDbEntity
  8
0
  6
Continuous
 62
         7
100
AcDbLine
 10
241.3705244474
 20
224.9788687931
 30
0.0
 11
243.3705244474
 21
224.9788687931
 31
0.0
  0
LINE
  5
308
100
AcDbEntity
  8
0
  6
Continuous
 62
         7
100
AcDbLine
 10
231.3705244474
 20
224.9788687931
 30
0.0
 11
229.3705244474
 21
224.9788687931
 31
0.0
  0
LINE
  5
309
100
AcDbEntity
  8
0
  6
Continuous
 62
         7
100
AcDbLine
 10
236.3705244474
 20
229.9788687931
 30
0.0
 11
236.3705244474
 21
231.9788687931
 31
0.0
  0
LINE
  5
30A
100
AcDbEntity
  8
0
  6
Continuous
 62
         7
100
AcDbLine
 10
236.3705244474
 20
219.9788687931
 30
0.0
 11
236.3705244474
 21
217.9788687931
 31
0.0
  0
LINE
  5
30B
100
AcDbEntity
  8
0
  6
Continuous
 62
         7
100
AcDbLine
 10
254.8705244474
 20
230.9788687931
 30
0.0
 11
259.8705244474
 21
230.9788687931
 31
0.0
  0
LINE
  5
30C
100
AcDbEntity
  8
0
  6
Continuous
 62
         7
100
AcDbLine
 10
257.3705244474
 20
228.4788687931
 30
0.0
 11
257.3705244474
 21
233.4788687931
 31
0.0
  0
LINE
  5
30D
100
AcDbEntity
  8
0
  6
Continuous
 62
         7
100
AcDbLine
 10
262.3705244474
 20
230.9788687931
 30
0.0
 11
264.8705244474
 21
230.9788687931
 31
0.0
  0
LINE
  5
30E
100
AcDbEntity
  8
0
  6
Continuous
 62
         7
100
AcDbLine
 10
252.3705244474
 20
230.9788687931
 30
0.0
 11
249.8705244474
 21
230.9788687931
 31
0.0
  0
LINE
  5
30F
100
AcDbEntity
  8
0
  6
Continuous
 62
         7
100
AcDbLine
 10
257.3705244474
 20
235.9788687931
 30
0.0
 11
257.3705244474
 21
238.4788687931
 31
0.0
  0
LINE
  5
310
100
AcDbEntity
  8
0
  6
Continuous
 62
         7
100
AcDbLine
 10
257.3705244474
 20
225.9788687931
 30
0.0
 11
257.3705244474
 21
223.4788687931
 31
0.0
  0
LINE
  5
311
100
AcDbEntity
  8
0
  6
Continuous
 62
         7
100
AcDbLine
 10
212.8705244474
 20
108.9788687931
 30
0.0
 11
217.8705244474
 21
108.9788687931
 31
0.0
  0
LINE
  5
312
100
AcDbEntity
  8
0
  6
Continuous
 62
         7
100
AcDbLine
 10
215.3705244474
 20
106.4788687931
 30
0.0
 11
215.3705244474
 21
111.4788687931
 31
0.0
  0
LINE
  5
313
100
AcDbEntity
  8
0
  6
Continuous
 62
         7
100
AcDbLine
 10
220.3705244474
 20
108.9788687931
 30
0.0
 11
222.8705244474
 21
108.9788687931
 31
0.0
  0
LINE
  5
314
100
AcDbEntity
  8
0
  6
Continuous
 62
         7
100
AcDbLine
 10
210.3705244474
 20
108.9788687931
 30
0.0
 11
207.8705244474
 21
108.9788687931
 31
0.0
  0
LINE
  5
315
100
AcDbEntity
  8
0
  6
Continuous
 62
         7
100
AcDbLine
 10
215.3705244474
 20
113.9788687931
 30
0.0
 11
215.3705244474
 21
116.4788687931
 31
0.0
  0
LINE
  5
316
100
AcDbEntity
  8
0
  6
Continuous
 62
         7
100
AcDbLine
 10
215.3705244474
 20
103.9788687931
 30
0.0
 11
215.3705244474
 21
101.4788687931
 31
0.0
  0
LINE
  5
317
100
AcDbEntity
  8
0
  6
CENTER
 62
         7
100
AcDbLine
 10
196.0159585492
 20
160.7082901554
 30
0.0
 11
284.8035233161
 21
160.7082901554
 31
0.0
  0
SOLID
  5
318
100
AcDbEntity
  8
0
  6
Continuous
 62
         7
100
AcDbTrace
 10
198.0159585492
 20
160.7082901554
 30
0.0
 11
199.0159585492
 21
164.7082901554
 31
0.0
 12
197.0159585492
 22
164.7082901554
 32
0.0
 13
197.0159585492
 23
164.7082901554
 33
0.0
  0
LINE
  5
319
100
AcDbEntity
  8
0
  6
Continuous
 62
         7
100
AcDbLine
 10
198.0159585492
 20
172.7082901554
 30
0.0
 11
198.0159585492
 21
160.7082901554
 31
0.0
  0
SOLID
  5
31A
100
AcDbEntity
  8
0
  6
Continuous
 62
         7
100
AcDbTrace
 10
282.8035233161
 20
160.7082901554
 30
0.0
 11
283.8035233161
 21
164.7082901554
 31
0.0
 12
281.8035233161
 22
164.7082901554
 32
0.0
 13
281.8035233161
 23
164.7082901554
 33
0.0
  0
LINE
  5
31B
100
AcDbEntity
  8
0
  6
Continuous
 62
         7
100
AcDbLine
 10
282.8035233161
 20
172.7082901554
 30
0.0
 11
282.8035233161
 21
160.7082901554
 31
0.0
  0
MTEXT
  5
31C
100
AcDbEntity
  8
0
100
AcDbMText
 10
199.9601031275
 20
172.7082901554
 30
0.0
 40
6.35
 41
0.0
 71
         1
 72
         1
  1
B
 73
         1
 44
1.0
  0
MTEXT
  5
31D
100
AcDbEntity
  8
0
100
AcDbMText
 10
284.7476678944
 20
172.7082901554
 30
0.0
 40
6.35
 41
0.0
 71
         1
 72
         1
  1
B
 73
         1
 44
1.0
  0
LINE
  5
31E
100
AcDbEntity
  8
0
  6
CENTER
 62
         7
100
AcDbLine
 10
252.4157290595
 20
252.3241218958
 30
0.0
 11
252.4157290595
 21
74.1404145078
 31
0.0
  0
SOLID
  5
31F
100
AcDbEntity
  8
0
  6
Continuous
 62
         7
100
AcDbTrace
 10
252.4157290595
 20
250.3241218958
 30
0.0
 11
248.4157290595
 21
251.3241218958
 31
0.0
 12
248.4157290595
 22
249.3241218958
 32
0.0
 13
248.4157290595
 23
249.3241218958
 33
0.0
  0
LINE
  5
320
100
AcDbEntity
  8
0
  6
Continuous
 62
         7
100
AcDbLine
 10
240.4157290595
 20
250.3241218958
 30
0.0
 11
252.4157290595
 21
250.3241218958
 31
0.0
  0
SOLID
  5
321
100
AcDbEntity
  8
0
  6
Continuous
 62
         7
100
AcDbTrace
 10
252.4157290595
 20
76.1404145078
 30
0.0
 11
248.4157290595
 21
77.1404145078
 31
0.0
 12
248.4157290595
 22
75.1404145078
 32
0.0
 13
248.4157290595
 23
75.1404145078
 33
0.0
  0
LINE
  5
322
100
AcDbEntity
  8
0
  6
Continuous
 62
         7
100
AcDbLine
 10
240.4157290595
 20
76.1404145078
 30
0.0
 11
252.4157290595
 21
76.1404145078
 31
0.0
  0
MTEXT
  5
323
100
AcDbEntity
  8
0
100
AcDbMText
 10
240.4157290595
 20
260.4061459922
 30
0.0
 40
6.35
 41
0.0
 71
         1
 72
         1
  1
A
 73
         1
 44
1.0
  0
MTEXT
  5
324
100
AcDbEntity
  8
0
100
AcDbMText
 10
240.4157290595
 20
86.2224386042
 30
0.0
 40
6.35
 41
0.0
 71
         1
 72
         1
  1
A
 73
         1
 44
1.0
  0
ARC
  5
325
100
AcDbEntity
  8
0
370
        15
  6
Continuous
 62
         7
100
AcDbCircle
 10
134.264377788
 20
151.9788687931
 30
0.0
 40
4.0
100
AcDbArc
 50
270.0
 51
90.0
  0
ARC
  5
326
100
AcDbEntity
  8
0
370
        15
  6
Continuous
 62
         7
100
AcDbCircle
 10
134.264377788
 20
166.9788687931
 30
0.0
 40
1.5
100
AcDbArc
 50
270.0
 51
90.0
  0
LINE
  5
327
100
AcDbEntity
  8
0
370
        15
  6
Continuous
 62
         7
100
AcDbLine
 10
134.264377788
 20
239.9788687931
 30
0.0
 11
149.264377788
 21
239.9788687931
 31
0.0
  0
LINE
  5
328
100
AcDbEntity
  8
0
370
        15
  6
Continuous
 62
         7
100
AcDbLine
 10
149.264377788
 20
99.9788687931
 30
0.0
 11
149.264377788
 21
239.9788687931
 31
0.0
  0
LINE
  5
329
100
AcDbEntity
  8
0
370
        15
  6
Continuous
 62
         7
100
AcDbLine
 10
134.264377788
 20
99.9788687931
 30
0.0
 11
149.264377788
 21
99.9788687931
 31
0.0
  0
ARC
  5
32A
100
AcDbEntity
  8
0
370
        15
  6
Continuous
 62
         7
100
AcDbCircle
 10
134.264377788
 20
136.9788687931
 30
0.0
 40
1.5
100
AcDbArc
 50
270.0
 51
90.0
  0
LINE
  5
32B
100
AcDbEntity
  8
0
370
        15
  6
Continuous
 62
         7
100
AcDbLine
 10
134.264377788
 20
239.9788687931
 30
0.0
 11
134.264377788
 21
168.4788687931
 31
0.0
  0
LINE
  5
32C
100
AcDbEntity
  8
0
370
        15
  6
Continuous
 62
         7
100
AcDbLine
 10
134.264377788
 20
135.4788687931
 30
0.0
 11
134.264377788
 21
99.9788687931
 31
0.0
  0
LINE
  5
32D
100
AcDbEntity
  8
0
370
        15
  6
Continuous
 62
         7
100
AcDbLine
 10
134.264377788
 20
147.9788687931
 30
0.0
 11
134.264377788
 21
138.4788687931
 31
0.0
  0
LINE
  5
32E
100
AcDbEntity
  8
0
370
        15
  6
Continuous
 62
         7
100
AcDbLine
 10
134.264377788
 20
165.4788687931
 30
0.0
 11
134.264377788
 21
155.9788687931
 31
0.0
  0
LINE
  5
32F
100
AcDbEntity
  8
0
370
        15
  6
Continuous
 62
         7
100
AcDbLine
 10
134.264377788
 20
135.4788687931
 30
0.0
 11
134.264377788
 21
138.4788687931
 31
0.0
  0
LINE
  5
330
100
AcDbEntity
  8
0
370
        15
  6
Continuous
 62
         7
100
AcDbLine
 10
134.264377788
 20
147.9788687931
 30
0.0
 11
134.264377788
 21
155.9788687931
 31
0.0
  0
LINE
  5
331
100
AcDbEntity
  8
0
370
        15
  6
Continuous
 62
         7
100
AcDbLine
 10
134.264377788
 20
165.4788687931
 30
0.0
 11
134.264377788
 21
168.4788687931
 31
0.0
  0
LINE
  5
332
100
AcDbEntity
  8
0
370
         0
  6
HIDDEN
 62
         9
100
AcDbLine
 10
144.264377788
 20
230.9788687931
 30
0.0
 11
144.264377788
 21
235.9788687931
 31
0.0
  0
LINE
  5
333
100
AcDbEntity
  8
0
370
         0
  6
HIDDEN
 62
         9
100
AcDbLine
 10
144.264377788
 20
225.9788687931
 30
0.0
 11
144.264377788
 21
230.9788687931
 31
0.0
  0
LINE
  5
334
100
AcDbEntity
  8
0
370
         0
  6
HIDDEN
 62
         9
100
AcDbLine
 10
146.764377788
 20
129.9788687931
 30
0.0
 11
146.764377788
 21
173.8412642244
 31
0.0
  0
LINE
  5
335
100
AcDbEntity
  8
0
370
         0
  6
HIDDEN
 62
         9
100
AcDbLine
 10
146.764377788
 20
173.8412642244
 30
0.0
 11
146.764377788
 21
182.8162116052
 31
0.0
  0
LINE
  5
336
100
AcDbEntity
  8
0
370
         0
  6
HIDDEN
 62
         9
100
AcDbLine
 10
146.764377788
 20
113.9788687931
 30
0.0
 11
146.764377788
 21
129.9788687931
 31
0.0
  0
LINE
  5
337
100
AcDbEntity
  8
0
370
         0
  6
HIDDEN
 62
         9
100
AcDbLine
 10
146.764377788
 20
182.8162116052
 30
0.0
 11
146.764377788
 21
225.9788687931
 31
0.0
  0
LINE
  5
338
100
AcDbEntity
  8
0
370
         0
  6
HIDDEN
 62
         9
100
AcDbLine
 10
144.264377788
 20
108.9788687931
 30
0.0
 11
144.264377788
 21
113.9788687931
 31
0.0
  0
LINE
  5
339
100
AcDbEntity
  8
0
370
         0
  6
HIDDEN
 62
         9
100
AcDbLine
 10
144.264377788
 20
103.9788687931
 30
0.0
 11
144.264377788
 21
108.9788687931
 31
0.0
  0
ARC
  5
33A
100
AcDbEntity
  8
0
370
         0
  6
HIDDEN
 62
         9
100
AcDbCircle
 10
134.264377788
 20
151.9788687931
 30
0.0
 40
1.25
100
AcDbArc
 50
270.0
 51
90.0
  0
ARC
  5
33B
100
AcDbEntity
  8
0
370
         0
  6
HIDDEN
 62
         9
100
AcDbCircle
 10
134.264377788
 20
151.9788687931
 30
0.0
 40
4.25
100
AcDbArc
 50
270.0
 51
90.0
  0
LINE
  5
33C
100
AcDbEntity
  8
0
370
         0
  6
HIDDEN
 62
         9
100
AcDbLine
 10
134.264377788
 20
225.9788687931
 30
0.0
 11
144.264377788
 21
225.9788687931
 31
0.0
  0
LINE
  5
33D
100
AcDbEntity
  8
0
370
         0
  6
HIDDEN
 62
         9
100
AcDbLine
 10
144.264377788
 20
235.9788687931
 30
0.0
 11
134.264377788
 21
235.9788687931
 31
0.0
  0
ARC
  5
33E
100
AcDbEntity
  8
0
370
         0
  6
HIDDEN
 62
         9
100
AcDbCircle
 10
142.764377788
 20
113.9788687931
 30
0.0
 40
4.0
100
AcDbArc
 50
270.0
 51
0.0
  0
LINE
  5
33F
100
AcDbEntity
  8
0
370
         0
  6
HIDDEN
 62
         9
100
AcDbLine
 10
134.264377788
 20
109.9788687931
 30
0.0
 11
142.764377788
 21
109.9788687931
 31
0.0
  0
ARC
  5
340
100
AcDbEntity
  8
0
370
         0
  6
HIDDEN
 62
         9
100
AcDbCircle
 10
142.764377788
 20
113.9788687931
 30
0.0
 40
4.0
100
AcDbArc
 50
0.0
 51
90.0
  0
LINE
  5
341
100
AcDbEntity
  8
0
370
         0
  6
HIDDEN
 62
         9
100
AcDbLine
 10
134.264377788
 20
117.9788687931
 30
0.0
 11
142.764377788
 21
117.9788687931
 31
0.0
  0
LINE
  5
342
100
AcDbEntity
  8
0
370
         0
  6
HIDDEN
 62
         9
100
AcDbLine
 10
134.264377788
 20
220.4788687931
 30
0.0
 11
149.264377788
 21
220.4788687931
 31
0.0
  0
LINE
  5
343
100
AcDbEntity
  8
0
370
         0
  6
HIDDEN
 62
         9
100
AcDbLine
 10
149.264377788
 20
229.4788687931
 30
0.0
 11
134.264377788
 21
229.4788687931
 31
0.0
  0
LINE
  5
344
100
AcDbEntity
  8
0
370
         0
  6
HIDDEN
 62
         9
100
AcDbLine
 10
134.264377788
 20
125.4788687931
 30
0.0
 11
149.264377788
 21
125.4788687931
 31
0.0
  0
LINE
  5
345
100
AcDbEntity
  8
0
370
         0
  6
HIDDEN
 62
         9
100
AcDbLine
 10
149.264377788
 20
134.4788687931
 30
0.0
 11
134.264377788
 21
134.4788687931
 31
0.0
  0
LINE
  5
346
100
AcDbEntity
  8
0
370
         0
  6
HIDDEN
 62
         9
100
AcDbLine
 10
142.764377788
 20
133.9788687931
 30
0.0
 11
134.264377788
 21
133.9788687931
 31
0.0
  0
ARC
  5
347
100
AcDbEntity
  8
0
370
         0
  6
HIDDEN
 62
         9
100
AcDbCircle
 10
142.764377788
 20
129.9788687931
 30
0.0
 40
4.0
100
AcDbArc
 50
0.0
 51
90.0
  0
LINE
  5
348
100
AcDbEntity
  8
0
370
         0
  6
HIDDEN
 62
         9
100
AcDbLine
 10
142.764377788
 20
229.9788687931
 30
0.0
 11
134.264377788
 21
229.9788687931
 31
0.0
  0
ARC
  5
349
100
AcDbEntity
  8
0
370
         0
  6
HIDDEN
 62
         9
100
AcDbCircle
 10
142.764377788
 20
225.9788687931
 30
0.0
 40
4.0
100
AcDbArc
 50
0.0
 51
90.0
  0
LINE
  5
34A
100
AcDbEntity
  8
0
370
         0
  6
HIDDEN
 62
         9
100
AcDbLine
 10
134.264377788
 20
103.9788687931
 30
0.0
 11
144.264377788
 21
103.9788687931
 31
0.0
  0
LINE
  5
34B
100
AcDbEntity
  8
0
370
         0
  6
HIDDEN
 62
         9
100
AcDbLine
 10
144.264377788
 20
113.9788687931
 30
0.0
 11
134.264377788
 21
113.9788687931
 31
0.0
  0
DIMENSION
  5
354
100
AcDbEntity
  8
0
100
AcDbDimension
  2
*D16
 10
134.264377788
 20
99.9788687931
 30
0.0
 11
126.8262699367
 21
99.9788687931
 31
0.0
 70
       166
 71
         5
 72
         1
 41
1.0
 42
0.0
  3
SLDDIMSTYLE7
100
AcDbOrdinateDimension
 13
134.264377788
 23
99.9788687931
 33
0.0
 14
126.8262699367
 24
99.9788687931
 34
0.0
  0
DIMENSION
  5
35D
100
AcDbEntity
  8
0
100
AcDbDimension
  2
*D17
 10
134.264377788
 20
99.9788687931
 30
0.0
 11
126.8262699367
 21
136.9788687931
 31
0.0
 70
       166
 71
         5
 72
         1
 41
1.0
 42
0.0
  3
SLDDIMSTYLE8
100
AcDbOrdinateDimension
 13
134.264377788
 23
136.9788687931
 33
0.0
 14
126.8262699367
 24
136.9788687931
 34
0.0
  0
DIMENSION
  5
365
100
AcDbEntity
  8
0
100
AcDbDimension
  2
*D18
 10
134.264377788
 20
99.9788687931
 30
0.0
 11
126.8262699367
 21
151.9788687931
 31
0.0
 70
       166
 71
         5
 72
         1
 41
1.0
 42
0.0
  3
SLDDIMSTYLE8
100
AcDbOrdinateDimension
 13
134.264377788
 23
151.9788687931
 33
0.0
 14
126.8262699367
 24
151.9788687931
 34
0.0
  0
DIMENSION
  5
36D
100
AcDbEntity
  8
0
100
AcDbDimension
  2
*D19
 10
134.264377788
 20
99.9788687931
 30
0.0
 11
126.8262699367
 21
166.9788687931
 31
0.0
 70
       166
 71
         5
 72
         1
 41
1.0
 42
0.0
  3
SLDDIMSTYLE8
100
AcDbOrdinateDimension
 13
134.264377788
 23
166.9788687931
 33
0.0
 14
126.8262699367
 24
166.9788687931
 34
0.0
  0
DIMENSION
  5
375
100
AcDbEntity
  8
0
100
AcDbDimension
  2
*D20
 10
134.264377788
 20
99.9788687931
 30
0.0
 11
126.8262699367
 21
239.9788687931
 31
0.0
 70
       166
 71
         5
 72
         1
 41
1.0
 42
0.0
  3
SLDDIMSTYLE8
100
AcDbOrdinateDimension
 13
134.264377788
 23
239.9788687931
 33
0.0
 14
126.8262699367
 24
239.9788687931
 34
0.0
  0
DIMENSION
  5
383
100
AcDbEntity
  8
0
 62
       255
100
AcDbDimension
  2
*D21
 10
134.264377788
 20
250.3082919956
 30
0.0
 11
142.2562478162
 21
250.3082919956
 31
0.0
 70
       160
 71
         5
 72
         1
 41
1.0
 42
0.0
  3
SLDDIMSTYLE6
100
AcDbAlignedDimension
 13
149.264377788
 23
239.9788687931
 33
0.0
 14
134.264377788
 24
239.9788687931
 34
0.0
100
AcDbRotatedDimension
  0
DIMENSION
  5
390
100
AcDbEntity
  8
0
100
AcDbDimension
  2
*D22
 10
135.4725923791
 20
166.0899270054
 30
0.0
 11
117.7068243961
 21
176.8140391226
 31
0.0
 70
       163
 71
         5
 72
         1
 41
1.0
 42
0.0
  1
<>
  3
SLDDIMSTYLE4
100
AcDbDiametricDimension
 15
133.0561631969
 25
167.8678105807
 35
0.0
 40
0.0
  0
DIMENSION
  5
39D
100
AcDbEntity
  8
0
100
AcDbDimension
  2
*D23
 10
135.0921693523
 20
138.2297729165
 30
0.0
 11
119.2217144395
 21
127.5532988658
 31
0.0
 70
       163
 71
         5
 72
         1
 41
1.0
 42
0.0
  1
<>
  3
SLDDIMSTYLE4
100
AcDbDiametricDimension
 15
133.4365862237
 25
135.7279646696
 35
0.0
 40
0.0
  0
DIMENSION
  5
3AB
100
AcDbEntity
  8
0
100
AcDbDimension
  2
*D24
 10
137.1835295812
 20
154.7135630737
 30
0.0
 11
117.1909679483
 21
145.2891914131
 31
0.0
 70
       163
 71
         5
 72
         1
 41
1.0
 42
0.0
  1
<>
  3
SLDDIMSTYLE9
100
AcDbDiametricDimension
 15
131.3452259948
 25
149.2441745125
 35
0.0
 40
0.0
  0
LINE
  5
3AC
100
AcDbEntity
  8
0
  6
Continuous
 62
         7
100
AcDbLine
 10
131.764377788
 20
166.9788687931
 30
0.0
 11
136.764377788
 21
166.9788687931
 31
0.0
  0
LINE
  5
3AD
100
AcDbEntity
  8
0
  6
Continuous
 62
         7
100
AcDbLine
 10
134.264377788
 20
164.4788687931
 30
0.0
 11
134.264377788
 21
169.4788687931
 31
0.0
  0
LINE
  5
3AE
100
AcDbEntity
  8
0
  6
Continuous
 62
         7
100
AcDbLine
 10
131.764377788
 20
151.9788687931
 30
0.0
 11
136.764377788
 21
151.9788687931
 31
0.0
  0
LINE
  5
3AF
100
AcDbEntity
  8
0
  6
Continuous
 62
         7
100
AcDbLine
 10
134.264377788
 20
149.4788687931
 30
0.0
 11
134.264377788
 21
154.4788687931
 31
0.0
  0
LINE
  5
3B0
100
AcDbEntity
  8
0
  6
Continuous
 62
         7
100
AcDbLine
 10
139.264377788
 20
151.9788687931
 30
0.0
 11
140.764377788
 21
151.9788687931
 31
0.0
  0
LINE
  5
3B1
100
AcDbEntity
  8
0
  6
Continuous
 62
         7
100
AcDbLine
 10
129.264377788
 20
151.9788687931
 30
0.0
 11
127.764377788
 21
151.9788687931
 31
0.0
  0
LINE
  5
3B2
100
AcDbEntity
  8
0
  6
Continuous
 62
         7
100
AcDbLine
 10
134.264377788
 20
156.9788687931
 30
0.0
 11
134.264377788
 21
158.4788687931
 31
0.0
  0
LINE
  5
3B3
100
AcDbEntity
  8
0
  6
Continuous
 62
         7
100
AcDbLine
 10
134.264377788
 20
146.9788687931
 30
0.0
 11
134.264377788
 21
145.4788687931
 31
0.0
  0
LINE
  5
3B4
100
AcDbEntity
  8
0
  6
Continuous
 62
         7
100
AcDbLine
 10
131.764377788
 20
136.9788687931
 30
0.0
 11
136.764377788
 21
136.9788687931
 31
0.0
  0
LINE
  5
3B5
100
AcDbEntity
  8
0
  6
Continuous
 62
         7
100
AcDbLine
 10
134.264377788
 20
134.4788687931
 30
0.0
 11
134.264377788
 21
139.4788687931
 31
0.0
  0
CIRCLE
  5
3B6
100
AcDbEntity
  8
0
370
        15
  6
Continuous
 62
         7
100
AcDbCircle
 10
77.0406217617
 20
129.9788687931
 30
0.0
 40
4.5
  0
CIRCLE
  5
3B7
100
AcDbEntity
  8
0
370
        15
  6
Continuous
 62
         7
100
AcDbCircle
 10
77.0406217617
 20
224.9788687931
 30
0.0
 40
4.5
  0
LINE
  5
3B8
100
AcDbEntity
  8
0
370
        15
  6
Continuous
 62
         7
100
AcDbLine
 10
107.0406217617
 20
99.9788687931
 30
0.0
 11
47.0406217617
 21
99.9788687931
 31
0.0
  0
LINE
  5
3B9
100
AcDbEntity
  8
0
370
        15
  6
Continuous
 62
         7
100
AcDbLine
 10
47.0406217617
 20
99.9788687931
 30
0.0
 11
47.0406217617
 21
239.9788687931
 31
0.0
  0
LINE
  5
3BA
100
AcDbEntity
  8
0
370
        15
  6
Continuous
 62
         7
100
AcDbLine
 10
47.0406217617
 20
239.9788687931
 30
0.0
 11
107.0406217617
 21
239.9788687931
 31
0.0
  0
LINE
  5
3BB
100
AcDbEntity
  8
0
370
        15
  6
Continuous
 62
         7
100
AcDbLine
 10
107.0406217617
 20
239.9788687931
 30
0.0
 11
107.0406217617
 21
99.9788687931
 31
0.0
  0
ARC
  5
3BC
100
AcDbEntity
  8
0
370
         0
  6
HIDDEN
 62
         9
100
AcDbCircle
 10
77.0406217617
 20
129.9788687931
 30
0.0
 40
20.0
100
AcDbArc
 50
180.0
 51
0.0
  0
LINE
  5
3BD
100
AcDbEntity
  8
0
370
         0
  6
HIDDEN
 62
         9
100
AcDbLine
 10
96.3520632861
 20
223.7351319479
 30
0.0
 11
67.1062971884
 21
180.57247476
 31
0.0
  0
ARC
  5
3BE
100
AcDbEntity
  8
0
370
         0
  6
HIDDEN
 62
         9
100
AcDbCircle
 10
93.0406217617
 20
225.9788687931
 30
0.0
 40
4.0
100
AcDbArc
 50
325.8795706733
 51
145.8795706733
  0
ARC
  5
3BF
100
AcDbEntity
  8
0
370
         0
  6
HIDDEN
 62
         9
100
AcDbCircle
 10
93.0406217617
 20
129.9788687931
 30
0.0
 40
4.0
100
AcDbArc
 50
0.0
 51
180.0
  0
LINE
  5
3C0
100
AcDbEntity
  8
0
370
         0
  6
HIDDEN
 62
         9
100
AcDbLine
 10
60.4834141396
 20
185.0599484503
 30
0.0
 11
89.7291802373
 21
228.2226056383
 31
0.0
  0
ARC
  5
3C1
100
AcDbEntity
  8
0
370
         0
  6
HIDDEN
 62
         9
100
AcDbCircle
 10
77.0406217617
 20
129.9788687931
 30
0.0
 40
12.0
100
AcDbArc
 50
180.0
 51
0.0
  0
ARC
  5
3C2
100
AcDbEntity
  8
0
370
         0
  6
HIDDEN
 62
         9
100
AcDbCircle
 10
77.0406217617
 20
173.8412642244
 30
0.0
 40
12.0
100
AcDbArc
 50
145.8795706733
 51
180.0
  0
LINE
  5
3C3
100
AcDbEntity
  8
0
370
         0
  6
HIDDEN
 62
         9
100
AcDbLine
 10
65.0406217617
 20
173.8412642244
 30
0.0
 11
65.0406217617
 21
129.9788687931
 31
0.0
  0
ARC
  5
3C4
100
AcDbEntity
  8
0
370
         0
  6
HIDDEN
 62
         9
100
AcDbCircle
 10
77.0406217617
 20
173.8412642244
 30
0.0
 40
20.0
100
AcDbArc
 50
145.8795706733
 51
180.0
  0
LINE
  5
3C5
100
AcDbEntity
  8
0
370
         0
  6
HIDDEN
 62
         9
100
AcDbLine
 10
57.0406217617
 20
129.9788687931
 30
0.0
 11
57.0406217617
 21
173.8412642244
 31
0.0
  0
CIRCLE
  5
3C6
100
AcDbEntity
  8
0
370
         0
  6
HIDDEN
 62
         9
100
AcDbCircle
 10
98.0406217617
 20
108.9788687931
 30
0.0
 40
5.0
  0
CIRCLE
  5
3C7
100
AcDbEntity
  8
0
370
         0
  6
HIDDEN
 62
         9
100
AcDbCircle
 10
56.0406217617
 20
230.9788687931
 30
0.0
 40
5.0
  0
LINE
  5
3C8
100
AcDbEntity
  8
0
370
         0
  6
HIDDEN
 62
         9
100
AcDbLine
 10
100.0406217617
 20
156.2288687931
 30
0.0
 11
100.0406217617
 21
147.7288687931
 31
0.0
  0
LINE
  5
3C9
100
AcDbEntity
  8
0
370
         0
  6
HIDDEN
 62
         9
100
AcDbLine
 10
100.0406217617
 20
147.7288687931
 30
0.0
 11
107.0406217617
 21
147.7288687931
 31
0.0
  0
LINE
  5
3CA
100
AcDbEntity
  8
0
370
         0
  6
HIDDEN
 62
         9
100
AcDbLine
 10
107.0406217617
 20
156.2288687931
 30
0.0
 11
100.0406217617
 21
156.2288687931
 31
0.0
  0
LINE
  5
3CB
100
AcDbEntity
  8
0
370
         0
  6
HIDDEN
 62
         9
100
AcDbLine
 10
97.0406217617
 20
153.2288687931
 30
0.0
 11
100.0406217617
 21
156.2288687931
 31
0.0
  0
LINE
  5
3CC
100
AcDbEntity
  8
0
370
         0
  6
HIDDEN
 62
         9
100
AcDbLine
 10
97.0406217617
 20
150.7288687931
 30
0.0
 11
97.0406217617
 21
153.2288687931
 31
0.0
  0
LINE
  5
3CD
100
AcDbEntity
  8
0
370
         0
  6
HIDDEN
 62
         9
100
AcDbLine
 10
100.0406217617
 20
147.7288687931
 30
0.0
 11
97.0406217617
 21
150.7288687931
 31
0.0
  0
LINE
  5
3CE
100
AcDbEntity
  8
0
370
         0
  6
HIDDEN
 62
         9
100
AcDbLine
 10
47.0406217616
 20
147.9788687931
 30
0.0
 11
57.0406217617
 21
147.9788687931
 31
0.0
  0
LINE
  5
3CF
100
AcDbEntity
  8
0
370
         0
  6
HIDDEN
 62
         9
100
AcDbLine
 10
57.0406217616
 20
155.9788687931
 30
0.0
 11
47.0406217616
 21
155.9788687931
 31
0.0
  0
LINE
  5
3D0
100
AcDbEntity
  8
0
370
         0
  6
HIDDEN
 62
         9
100
AcDbLine
 10
47.0406217616
 20
165.4788687931
 30
0.0
 11
57.0406217617
 21
165.4788687931
 31
0.0
  0
LINE
  5
3D1
100
AcDbEntity
  8
0
370
         0
  6
HIDDEN
 62
         9
100
AcDbLine
 10
57.0406217616
 20
168.4788687931
 30
0.0
 11
47.0406217616
 21
168.4788687931
 31
0.0
  0
LINE
  5
3D2
100
AcDbEntity
  8
0
370
         0
  6
HIDDEN
 62
         9
100
AcDbLine
 10
47.0406217616
 20
135.4788687931
 30
0.0
 11
57.0406217617
 21
135.4788687931
 31
0.0
  0
LINE
  5
3D3
100
AcDbEntity
  8
0
370
         0
  6
HIDDEN
 62
         9
100
AcDbLine
 10
57.0406217616
 20
138.4788687931
 30
0.0
 11
47.0406217616
 21
138.4788687931
 31
0.0
  0
LINE
  5
3D4
100
AcDbEntity
  8
0
  6
Continuous
 62
         7
100
AcDbLine
 10
74.5406217617
 20
224.9788687931
 30
0.0
 11
79.5406217617
 21
224.9788687931
 31
0.0
  0
LINE
  5
3D5
100
AcDbEntity
  8
0
  6
Continuous
 62
         7
100
AcDbLine
 10
77.0406217617
 20
222.4788687931
 30
0.0
 11
77.0406217617
 21
227.4788687931
 31
0.0
  0
LINE
  5
3D6
100
AcDbEntity
  8
0
  6
Continuous
 62
         7
100
AcDbLine
 10
82.0406217617
 20
224.9788687931
 30
0.0
 11
84.0406217617
 21
224.9788687931
 31
0.0
  0
LINE
  5
3D7
100
AcDbEntity
  8
0
  6
Continuous
 62
         7
100
AcDbLine
 10
72.0406217617
 20
224.9788687931
 30
0.0
 11
70.0406217617
 21
224.9788687931
 31
0.0
  0
LINE
  5
3D8
100
AcDbEntity
  8
0
  6
Continuous
 62
         7
100
AcDbLine
 10
77.0406217617
 20
229.9788687931
 30
0.0
 11
77.0406217617
 21
231.9788687931
 31
0.0
  0
LINE
  5
3D9
100
AcDbEntity
  8
0
  6
Continuous
 62
         7
100
AcDbLine
 10
77.0406217617
 20
219.9788687931
 30
0.0
 11
77.0406217617
 21
217.9788687931
 31
0.0
  0
LINE
  5
3DA
100
AcDbEntity
  8
0
  6
Continuous
 62
         7
100
AcDbLine
 10
74.5406217617
 20
129.9788687931
 30
0.0
 11
79.5406217617
 21
129.9788687931
 31
0.0
  0
LINE
  5
3DB
100
AcDbEntity
  8
0
  6
Continuous
 62
         7
100
AcDbLine
 10
77.0406217617
 20
127.4788687931
 30
0.0
 11
77.0406217617
 21
132.4788687931
 31
0.0
  0
LINE
  5
3DC
100
AcDbEntity
  8
0
  6
Continuous
 62
         7
100
AcDbLine
 10
82.0406217617
 20
129.9788687931
 30
0.0
 11
84.0406217617
 21
129.9788687931
 31
0.0
  0
LINE
  5
3DD
100
AcDbEntity
  8
0
  6
Continuous
 62
         7
100
AcDbLine
 10
72.0406217617
 20
129.9788687931
 30
0.0
 11
70.0406217617
 21
129.9788687931
 31
0.0
  0
LINE
  5
3DE
100
AcDbEntity
  8
0
  6
Continuous
 62
         7
100
AcDbLine
 10
77.0406217617
 20
134.9788687931
 30
0.0
 11
77.0406217617
 21
136.9788687931
 31
0.0
  0
LINE
  5
3DF
100
AcDbEntity
  8
0
  6
Continuous
 62
         7
100
AcDbLine
 10
77.0406217617
 20
124.9788687931
 30
0.0
 11
77.0406217617
 21
122.9788687931
 31
0.0
  0
LINE
  5
3E0
100
AcDbEntity
  8
0
370
         0
  6
Continuous
 62
         7
100
AcDbLine
 10
293.7289144202
 20
86.5237305699
 30
0.0
 11
289.8308353282
 21
82.625651478
 31
0.0
  0
LINE
  5
3E1
100
AcDbEntity
  8
0
370
         0
  6
Continuous
 62
         7
100
AcDbLine
 10
298.2190424807
 20
86.5237305699
 30
0.0
 11
289.8308353282
 21
78.1355234174
 31
0.0
  0
LINE
  5
3E2
100
AcDbEntity
  8
0
370
         0
  6
Continuous
 62
         7
100
AcDbLine
 10
302.7091705412
 20
86.5237305699
 30
0.0
 11
289.8308353282
 21
73.6453953569
 31
0.0
  0
LINE
  5
3E3
100
AcDbEntity
  8
0
370
         0
  6
Continuous
 62
         7
100
AcDbLine
 10
307.1992986018
 20
86.5237305699
 30
0.0
 11
292.1992986018
 21
71.5237305699
 31
0.0
  0
LINE
  5
3E4
100
AcDbEntity
  8
0
370
         0
  6
Continuous
 62
         7
100
AcDbLine
 10
311.6894266623
 20
86.5237305699
 30
0.0
 11
296.6894266623
 21
71.5237305699
 31
0.0
  0
LINE
  5
3E5
100
AcDbEntity
  8
0
370
         0
  6
Continuous
 62
         7
100
AcDbLine
 10
316.1795547228
 20
86.5237305699
 30
0.0
 11
301.1795547228
 21
71.5237305699
 31
0.0
  0
LINE
  5
3E6
100
AcDbEntity
  8
0
370
         0
  6
Continuous
 62
         7
100
AcDbLine
 10
320.6696827834
 20
86.5237305699
 30
0.0
 11
305.6696827834
 21
71.5237305699
 31
0.0
  0
LINE
  5
3E7
100
AcDbEntity
  8
0
370
         0
  6
Continuous
 62
         7
100
AcDbLine
 10
325.1598108439
 20
86.5237305699
 30
0.0
 11
310.1598108439
 21
71.5237305699
 31
0.0
  0
LINE
  5
3E8
100
AcDbEntity
  8
0
370
         0
  6
Continuous
 62
         7
100
AcDbLine
 10
329.6499389044
 20
86.5237305699
 30
0.0
 11
314.6499389044
 21
71.5237305699
 31
0.0
  0
LINE
  5
3E9
100
AcDbEntity
  8
0
370
         0
  6
Continuous
 62
         7
100
AcDbLine
 10
334.140066965
 20
86.5237305699
 30
0.0
 11
319.140066965
 21
71.5237305699
 31
0.0
  0
LINE
  5
3EA
100
AcDbEntity
  8
0
370
         0
  6
Continuous
 62
         7
100
AcDbLine
 10
331.8308353282
 20
79.7243708726
 30
0.0
 11
323.6301950255
 21
71.5237305699
 31
0.0
  0
LINE
  5
3EB
100
AcDbEntity
  8
0
370
         0
  6
Continuous
 62
         7
100
AcDbLine
 10
338.6301950255
 20
86.5237305699
 30
0.0
 11
336.1197475947
 21
84.0132831391
 31
0.0
  0
LINE
  5
3EC
100
AcDbEntity
  8
0
370
         0
  6
Continuous
 62
         7
100
AcDbLine
 10
331.8308353282
 20
75.2342428121
 30
0.0
 11
328.120323086
 21
71.5237305699
 31
0.0
  0
LINE
  5
3ED
100
AcDbEntity
  8
0
370
         0
  6
Continuous
 62
         7
100
AcDbLine
 10
343.120323086
 20
86.5237305699
 30
0.0
 11
339.0263250489
 21
82.4297325328
 31
0.0
  0
LINE
  5
3EE
100
AcDbEntity
  8
0
370
         0
  6
Continuous
 62
         7
100
AcDbLine
 10
347.6104511466
 20
86.5237305699
 30
0.0
 11
339.8308353282
 21
78.7441147516
 31
0.0
  0
LINE
  5
3EF
100
AcDbEntity
  8
0
370
         0
  6
Continuous
 62
         7
100
AcDbLine
 10
349.8308353282
 20
84.253986691
 30
0.0
 11
339.8308353282
 21
74.253986691
 31
0.0
  0
LINE
  5
3F0
100
AcDbEntity
  8
0
370
         0
  6
Continuous
 62
         7
100
AcDbLine
 10
349.8308353282
 20
79.7638586305
 30
0.0
 11
341.5907072676
 21
71.5237305699
 31
0.0
  0
LINE
  5
3F1
100
AcDbEntity
  8
0
370
         0
  6
Continuous
 62
         7
100
AcDbLine
 10
349.8308353282
 20
75.2737305699
 30
0.0
 11
346.0808353282
 21
71.5237305699
 31
0.0
  0
LINE
  5
3F2
100
AcDbEntity
  8
0
370
        15
  6
Continuous
 62
         7
100
AcDbLine
 10
349.8308353282
 20
71.5237305699
 30
0.0
 11
339.8308353282
 21
71.5237305699
 31
0.0
  0
LINE
  5
3F3
100
AcDbEntity
  8
0
370
        15
  6
Continuous
 62
         7
100
AcDbLine
 10
339.8308353282
 20
71.5237305699
 30
0.0
 11
339.8308353282
 21
80.0237305699
 31
0.0
  0
ARC
  5
3F4
100
AcDbEntity
  8
0
370
        15
  6
Continuous
 62
         7
100
AcDbCircle
 10
335.8308353282
 20
80.0237305699
 30
0.0
 40
4.0
100
AcDbArc
 50
0.0
 51
90.0
  0
ARC
  5
3F5
100
AcDbEntity
  8
0
370
        15
  6
Continuous
 62
         7
100
AcDbCircle
 10
335.8308353282
 20
80.0237305699
 30
0.0
 40
4.0
100
AcDbArc
 50
90.0
 51
180.0
  0
LINE
  5
3F6
100
AcDbEntity
  8
0
370
        15
  6
Continuous
 62
         7
100
AcDbLine
 10
331.8308353282
 20
80.0237305699
 30
0.0
 11
331.8308353282
 21
71.5237305699
 31
0.0
  0
LINE
  5
3F7
100
AcDbEntity
  8
0
370
        15
  6
Continuous
 62
         7
100
AcDbLine
 10
331.8308353282
 20
71.5237305699
 30
0.0
 11
289.8308353282
 21
71.5237305699
 31
0.0
  0
LINE
  5
3F8
100
AcDbEntity
  8
0
370
        15
  6
Continuous
 62
         7
100
AcDbLine
 10
289.8308353282
 20
86.5237305699
 30
0.0
 11
289.8308353282
 21
71.5237305699
 31
0.0
  0
LINE
  5
3F9
100
AcDbEntity
  8
0
370
        15
  6
Continuous
 62
         7
100
AcDbLine
 10
349.8308353282
 20
86.5237305699
 30
0.0
 11
289.8308353282
 21
86.5237305699
 31
0.0
  0
LINE
  5
3FA
100
AcDbEntity
  8
0
370
        15
  6
Continuous
 62
         7
100
AcDbLine
 10
349.8308353282
 20
71.5237305699
 30
0.0
 11
349.8308353282
 21
86.5237305699
 31
0.0
  0
LINE
  5
3FB
100
AcDbEntity
  8
0
370
        15
  6
Continuous
 62
         7
100
AcDbLine
 10
339.8308353282
 20
71.5237305699
 30
0.0
 11
331.8308353282
 21
71.5237305699
 31
0.0
  0
LINE
  5
3FC
100
AcDbEntity
  8
0
370
         0
  6
DOT2
 62
         7
100
AcDbLine
 10
331.8308353282
 20
80.0237305699
 30
0.0
 11
339.8308353282
 21
80.0237305699
 31
0.0
  0
DIMENSION
  5
409
100
AcDbEntity
  8
0
 62
       255
100
AcDbDimension
  2
*D25
 10
331.8308353282
 20
64.4299747226
 30
0.0
 11
345.9567928085
 21
64.4299747226
 31
0.0
 70
       160
 71
         5
 72
         1
 41
1.0
 42
0.0
  3
SLDDIMSTYLE6
100
AcDbAlignedDimension
 13
339.8308353282
 23
71.5237305699
 33
0.0
 14
331.8308353282
 24
71.5237305699
 34
0.0
100
AcDbRotatedDimension
  0
MTEXT
  5
40A
100
AcDbEntity
  8
0
 62
         7
100
AcDbMText
 10
283.4279337738
 20
81.1479274611
 30
0.0
 40
3.5
 41
0.0
 71
         2
 72
         1
  1
B-B
  7
SLDTEXTSTYLE0
 73
         1
 44
1.0
  0
LINE
  5
40B
100
AcDbEntity
  8
0
370
         0
  6
Continuous
 62
         7
100
AcDbLine
 10
377.0126750026
 20
239.5511738827
 30
0.0
 11
377.440369913
 21
239.9788687931
 31
0.0
  0
LINE
  5
40C
100
AcDbEntity
  8
0
370
         0
  6
Continuous
 62
         7
100
AcDbLine
 10
377.0126750026
 20
235.0610458222
 30
0.0
 11
381.9304979735
 21
239.9788687931
 31
0.0
  0
LINE
  5
40D
100
AcDbEntity
  8
0
370
         0
  6
Continuous
 62
         7
100
AcDbLine
 10
377.0126750026
 20
230.5709177616
 30
0.0
 11
386.420626034
 21
239.9788687931
 31
0.0
  0
LINE
  5
40E
100
AcDbEntity
  8
0
370
         0
  6
Continuous
 62
         7
100
AcDbLine
 10
382.5815764738
 20
231.6496911723
 30
0.0
 11
390.9107540946
 21
239.9788687931
 31
0.0
  0
LINE
  5
40F
100
AcDbEntity
  8
0
370
         0
  6
Continuous
 62
         7
100
AcDbLine
 10
377.0126750026
 20
226.0807897011
 30
0.0
 11
382.0126750026
 21
231.0807897011
 31
0.0
  0
LINE
  5
410
100
AcDbEntity
  8
0
370
         0
  6
Continuous
 62
         7
100
AcDbLine
 10
387.0717045344
 20
231.6496911723
 30
0.0
 11
392.0126750026
 21
236.5906616406
 31
0.0
  0
LINE
  5
411
100
AcDbEntity
  8
0
370
         0
  6
Continuous
 62
         7
100
AcDbLine
 10
377.0126750026
 20
221.5906616406
 30
0.0
 11
385.7300597759
 21
230.3080464138
 31
0.0
  0
LINE
  5
412
100
AcDbEntity
  8
0
370
         0
  6
Continuous
 62
         7
100
AcDbLine
 10
391.5618325949
 20
231.6496911723
 30
0.0
 11
392.0126750026
 21
232.10053358
 31
0.0
  0
LINE
  5
413
100
AcDbEntity
  8
0
370
         0
  6
Continuous
 62
         7
100
AcDbLine
 10
377.0126750026
 20
217.10053358
 30
0.0
 11
390.2201878364
 21
230.3080464138
 31
0.0
  0
LINE
  5
414
100
AcDbEntity
  8
0
370
         0
  6
Continuous
 62
         7
100
AcDbLine
 10
377.0126750026
 20
212.6104055195
 30
0.0
 11
392.0126750026
 21
227.6104055195
 31
0.0
  0
LINE
  5
415
100
AcDbEntity
  8
0
370
         0
  6
Continuous
 62
         7
100
AcDbLine
 10
377.0126750026
 20
208.120277459
 30
0.0
 11
392.0126750026
 21
223.120277459
 31
0.0
  0
LINE
  5
416
100
AcDbEntity
  8
0
370
         0
  6
Continuous
 62
         7
100
AcDbLine
 10
377.0126750026
 20
203.6301493984
 30
0.0
 11
392.0126750026
 21
218.6301493984
 31
0.0
  0
LINE
  5
417
100
AcDbEntity
  8
0
370
         0
  6
Continuous
 62
         7
100
AcDbLine
 10
377.0126750026
 20
199.1400213379
 30
0.0
 11
392.0126750026
 21
214.1400213379
 31
0.0
  0
LINE
  5
418
100
AcDbEntity
  8
0
370
         0
  6
Continuous
 62
         7
100
AcDbLine
 10
377.0126750026
 20
194.6498932774
 30
0.0
 11
392.0126750026
 21
209.6498932774
 31
0.0
  0
LINE
  5
419
100
AcDbEntity
  8
0
370
         0
  6
Continuous
 62
         7
100
AcDbLine
 10
377.0126750026
 20
190.1597652168
 30
0.0
 11
392.0126750026
 21
205.1597652168
 31
0.0
  0
LINE
  5
41A
100
AcDbEntity
  8
0
370
         0
  6
Continuous
 62
         7
100
AcDbLine
 10
377.0126750026
 20
185.6696371563
 30
0.0
 11
392.0126750026
 21
200.6696371563
 31
0.0
  0
LINE
  5
41B
100
AcDbEntity
  8
0
370
         0
  6
Continuous
 62
         7
100
AcDbLine
 10
377.0126750026
 20
181.1795090958
 30
0.0
 11
392.0126750026
 21
196.1795090958
 31
0.0
  0
LINE
  5
41C
100
AcDbEntity
  8
0
370
         0
  6
Continuous
 62
         7
100
AcDbLine
 10
386.1388871945
 20
185.8155932271
 30
0.0
 11
392.0126750026
 21
191.6893810352
 31
0.0
  0
LINE
  5
41D
100
AcDbEntity
  8
0
370
         0
  6
Continuous
 62
         7
100
AcDbLine
 10
377.0126750026
 20
176.6893810352
 30
0.0
 11
379.6454473228
 21
179.3221533554
 31
0.0
  0
LINE
  5
41E
100
AcDbEntity
  8
0
370
         0
  6
Continuous
 62
         7
100
AcDbLine
 10
390.629015255
 20
185.8155932271
 30
0.0
 11
392.0126750026
 21
187.1992529747
 31
0.0
  0
LINE
  5
41F
100
AcDbEntity
  8
0
370
         0
  6
Continuous
 62
         7
100
AcDbLine
 10
377.0126750026
 20
172.1992529747
 30
0.0
 11
379.514158436
 21
174.7007364081
 31
0.0
  0
LINE
  5
420
100
AcDbEntity
  8
0
370
         0
  6
Continuous
 62
         7
100
AcDbLine
 10
377.0126750026
 20
167.7091249141
 30
0.0
 11
379.5129304429
 21
170.2093803544
 31
0.0
  0
LINE
  5
421
100
AcDbEntity
  8
0
370
         0
  6
Continuous
 62
         7
100
AcDbLine
 10
377.0126750026
 20
163.2189968536
 30
0.0
 11
379.5129304429
 21
165.7192522939
 31
0.0
  0
LINE
  5
422
100
AcDbEntity
  8
0
370
         0
  6
Continuous
 62
         7
100
AcDbLine
 10
377.0126750026
 20
158.7288687931
 30
0.0
 11
379.5129304429
 21
161.2291242334
 31
0.0
  0
LINE
  5
423
100
AcDbEntity
  8
0
370
         0
  6
Continuous
 62
         7
100
AcDbLine
 10
377.0126750026
 20
154.2387407325
 30
0.0
 11
379.5129304429
 21
156.7389961728
 31
0.0
  0
LINE
  5
424
100
AcDbEntity
  8
0
370
         0
  6
Continuous
 62
         7
100
AcDbLine
 10
377.0126750026
 20
149.748612672
 30
0.0
 11
379.5129304429
 21
152.2488681123
 31
0.0
  0
LINE
  5
425
100
AcDbEntity
  8
0
370
         0
  6
Continuous
 62
         7
100
AcDbLine
 10
377.0126750026
 20
145.2584846115
 30
0.0
 11
379.5129304429
 21
147.7587400518
 31
0.0
  0
LINE
  5
426
100
AcDbEntity
  8
0
370
         0
  6
Continuous
 62
         7
100
AcDbLine
 10
377.0126750026
 20
140.7683565509
 30
0.0
 11
379.5129304429
 21
143.2686119912
 31
0.0
  0
LINE
  5
427
100
AcDbEntity
  8
0
370
         0
  6
Continuous
 62
         7
100
AcDbLine
 10
377.0126750026
 20
136.2782284904
 30
0.0
 11
379.5129304429
 21
138.7784839307
 31
0.0
  0
LINE
  5
428
100
AcDbEntity
  8
0
370
         0
  6
Continuous
 62
         7
100
AcDbLine
 10
377.0126750026
 20
131.7881004299
 30
0.0
 11
379.5129304429
 21
134.2883558701
 31
0.0
  0
LINE
  5
429
100
AcDbEntity
  8
0
370
         0
  6
Continuous
 62
         7
100
AcDbLine
 10
377.0126750026
 20
127.2979723693
 30
0.0
 11
379.5136284084
 21
129.7989257752
 31
0.0
  0
LINE
  5
42A
100
AcDbEntity
  8
0
370
         0
  6
Continuous
 62
         7
100
AcDbLine
 10
377.0126750026
 20
122.8078443088
 30
0.0
 11
379.5829445918
 21
125.378113898
 31
0.0
  0
LINE
  5
42B
100
AcDbEntity
  8
0
370
         0
  6
Continuous
 62
         7
100
AcDbLine
 10
377.0126750026
 20
118.3177162483
 30
0.0
 11
380.1600736445
 21
121.4651148902
 31
0.0
  0
LINE
  5
42C
100
AcDbEntity
  8
0
370
         0
  6
Continuous
 62
         7
100
AcDbLine
 10
377.0126750026
 20
113.8275881877
 30
0.0
 11
381.8499299996
 21
118.6648431847
 31
0.0
  0
LINE
  5
42D
100
AcDbEntity
  8
0
370
         0
  6
Continuous
 62
         7
100
AcDbLine
 10
377.0126750026
 20
109.3374601272
 30
0.0
 11
385.7145941922
 21
118.0393793168
 31
0.0
  0
LINE
  5
42E
100
AcDbEntity
  8
0
370
         0
  6
Continuous
 62
         7
100
AcDbLine
 10
377.0126750026
 20
104.8473320667
 30
0.0
 11
390.2047222527
 21
118.0393793168
 31
0.0
  0
LINE
  5
42F
100
AcDbEntity
  8
0
370
         0
  6
Continuous
 62
         7
100
AcDbLine
 10
377.0126750026
 20
100.3572040061
 30
0.0
 11
392.0126750026
 21
115.3572040061
 31
0.0
  0
LINE
  5
430
100
AcDbEntity
  8
0
370
         0
  6
Continuous
 62
         7
100
AcDbLine
 10
381.1244678501
 20
99.9788687931
 30
0.0
 11
392.0126750026
 21
110.8670759456
 31
0.0
  0
LINE
  5
431
100
AcDbEntity
  8
0
370
         0
  6
Continuous
 62
         7
100
AcDbLine
 10
385.6145959106
 20
99.9788687931
 30
0.0
 11
392.0126750026
 21
106.3769478851
 31
0.0
  0
LINE
  5
432
100
AcDbEntity
  8
0
370
         0
  6
Continuous
 62
         7
100
AcDbLine
 10
390.1047239712
 20
99.9788687931
 30
0.0
 11
392.0126750026
 21
101.8868198245
 31
0.0
  0
LINE
  5
433
100
AcDbEntity
  8
0
370
        15
  6
Continuous
 62
         7
100
AcDbLine
 10
377.0126750026
 20
99.9788687931
 30
0.0
 11
377.0126750026
 21
239.9788687931
 31
0.0
  0
LINE
  5
434
100
AcDbEntity
  8
0
370
        15
  6
Continuous
 62
         7
100
AcDbLine
 10
377.0126750026
 20
239.9788687931
 30
0.0
 11
392.0126750026
 21
239.9788687931
 31
0.0
  0
LINE
  5
435
100
AcDbEntity
  8
0
370
        15
  6
Continuous
 62
         7
100
AcDbLine
 10
392.0126750026
 20
231.6496911723
 30
0.0
 11
392.0126750026
 21
239.9788687931
 31
0.0
  0
LINE
  5
436
100
AcDbEntity
  8
0
370
        15
  6
Continuous
 62
         7
100
AcDbLine
 10
392.0126750026
 20
231.6496911723
 30
0.0
 11
382.0126750026
 21
231.6496911723
 31
0.0
  0
LINE
  5
437
100
AcDbEntity
  8
0
370
        15
  6
Continuous
 62
         7
100
AcDbLine
 10
382.0126750026
 20
230.3080464138
 30
0.0
 11
382.0126750026
 21
231.6496911723
 31
0.0
  0
LINE
  5
438
100
AcDbEntity
  8
0
370
        15
  6
Continuous
 62
         7
100
AcDbLine
 10
382.0126750026
 20
230.3080464138
 30
0.0
 11
392.0126750026
 21
230.3080464138
 31
0.0
  0
LINE
  5
439
100
AcDbEntity
  8
0
370
        15
  6
Continuous
 62
         7
100
AcDbLine
 10
392.0126750026
 20
185.8155932271
 30
0.0
 11
392.0126750026
 21
230.3080464138
 31
0.0
  0
LINE
  5
43A
100
AcDbEntity
  8
0
370
        15
  6
Continuous
 62
         7
100
AcDbLine
 10
383.5126750026
 20
185.8155932271
 30
0.0
 11
392.0126750026
 21
185.8155932271
 31
0.0
  0
POLYLINE
  5
43B
100
AcDbEntity
  8
0
370
        15
  6
Continuous
 62
         7
100
AcDb2dPolyline
 66
         1
 10
0.0
 20
0.0
 30
0.0
 70
       128
  0
VERTEX
  5
43C
100
AcDbEntity
  8
0
100
AcDbVertex
100
AcDb2dVertex
 10
383.5126750026
 20
185.8155932271
 30
0.0
  0
VERTEX
  5
43D
100
AcDbEntity
  8
0
100
AcDbVertex
100
AcDb2dVertex
 10
382.7657344175
 20
185.6901617169
 30
0.0
  0
VERTEX
  5
43E
100
AcDbEntity
  8
0
100
AcDbVertex
100
AcDb2dVertex
 10
382.0450707634
 20
185.3182797931
 30
0.0
  0
VERTEX
  5
43F
100
AcDbEntity
  8
0
100
AcDbVertex
100
AcDb2dVertex
 10
381.3760365644
 20
184.7130300435
 30
0.0
  0
SEQEND
  5
440
100
AcDbEntity
  8
0
  0
POLYLINE
  5
441
100
AcDbEntity
  8
0
370
        15
  6
Continuous
 62
         7
100
AcDb2dPolyline
 66
         1
 10
0.0
 20
0.0
 30
0.0
 70
       128
  0
VERTEX
  5
442
100
AcDbEntity
  8
0
100
AcDbVertex
100
AcDb2dVertex
 10
381.3760365644
 20
184.7130300435
 30
0.0
  0
VERTEX
  5
443
100
AcDbEntity
  8
0
100
AcDbVertex
100
AcDb2dVertex
 10
380.9243477892
 20
184.1097502542
 30
0.0
  0
VERTEX
  5
444
100
AcDbEntity
  8
0
100
AcDbVertex
100
AcDb2dVertex
 10
380.4207614272
 20
183.1265996903
 30
0.0
  0
VERTEX
  5
445
100
AcDbEntity
  8
0
100
AcDbVertex
100
AcDb2dVertex
 10
380.0691367457
 20
182.0765477273
 30
0.0
  0
VERTEX
  5
446
100
AcDbEntity
  8
0
100
AcDbVertex
100
AcDb2dVertex
 10
379.6680955458
 20
179.7661532577
 30
0.0
  0
VERTEX
  5
447
100
AcDbEntity
  8
0
100
AcDbVertex
100
AcDb2dVertex
 10
379.5171683123
 20
176.8073481946
 30
0.0
  0
VERTEX
  5
448
100
AcDbEntity
  8
0
100
AcDbVertex
100
AcDb2dVertex
 10
379.5129304429
 20
173.8412642244
 30
0.0
  0
SEQEND
  5
449
100
AcDbEntity
  8
0
  0
LINE
  5
44A
100
AcDbEntity
  8
0
370
        15
  6
Continuous
 62
         7
100
AcDbLine
 10
379.5129304429
 20
173.8412642244
 30
0.0
 11
379.5129304429
 21
129.9788687931
 31
0.0
  0
POLYLINE
  5
44B
100
AcDbEntity
  8
0
370
        15
  6
Continuous
 62
         7
100
AcDb2dPolyline
 66
         1
 10
0.0
 20
0.0
 30
0.0
 70
       128
  0
VERTEX
  5
44C
100
AcDbEntity
  8
0
100
AcDbVertex
100
AcDb2dVertex
 10
379.5129304429
 20
129.9788687931
 30
0.0
  0
VERTEX
  5
44D
100
AcDbEntity
  8
0
100
AcDbVertex
100
AcDb2dVertex
 10
379.5241169242
 20
127.0948736944
 30
0.0
  0
VERTEX
  5
44E
100
AcDbEntity
  8
0
100
AcDbVertex
100
AcDb2dVertex
 10
379.6022026947
 20
124.8161073087
 30
0.0
  0
VERTEX
  5
44F
100
AcDbEntity
  8
0
100
AcDbVertex
100
AcDb2dVertex
 10
379.8817222237
 20
122.5580643632
 30
0.0
  0
VERTEX
  5
450
100
AcDbEntity
  8
0
100
AcDbVertex
100
AcDb2dVertex
 10
380.2125846917
 20
121.2589297696
 30
0.0
  0
VERTEX
  5
451
100
AcDbEntity
  8
0
100
AcDbVertex
100
AcDb2dVertex
 10
380.7364244259
 20
120.0293506242
 30
0.0
  0
VERTEX
  5
452
100
AcDbEntity
  8
0
100
AcDbVertex
100
AcDb2dVertex
 10
381.0050286826
 20
119.5872042638
 30
0.0
  0
VERTEX
  5
453
100
AcDbEntity
  8
0
100
AcDbVertex
100
AcDb2dVertex
 10
381.8104912674
 20
118.6879036813
 30
0.0
  0
VERTEX
  5
454
100
AcDbEntity
  8
0
100
AcDbVertex
100
AcDb2dVertex
 10
382.6466102354
 20
118.1990107193
 30
0.0
  0
VERTEX
  5
455
100
AcDbEntity
  8
0
100
AcDbVertex
100
AcDb2dVertex
 10
383.5126750026
 20
118.0393793168
 30
0.0
  0
SEQEND
  5
456
100
AcDbEntity
  8
0
  0
LINE
  5
457
100
AcDbEntity
  8
0
370
        15
  6
Continuous
 62
         7
100
AcDbLine
 10
392.0126750026
 20
118.0393793168
 30
0.0
 11
383.5126750026
 21
118.0393793168
 31
0.0
  0
LINE
  5
458
100
AcDbEntity
  8
0
370
        15
  6
Continuous
 62
         7
100
AcDbLine
 10
392.0126750026
 20
99.9788687931
 30
0.0
 11
392.0126750026
 21
118.0393793168
 31
0.0
  0
LINE
  5
459
100
AcDbEntity
  8
0
370
        15
  6
Continuous
 62
         7
100
AcDbLine
 10
392.0126750026
 20
99.9788687931
 30
0.0
 11
377.0126750026
 21
99.9788687931
 31
0.0
  0
LINE
  5
45A
100
AcDbEntity
  8
0
370
        15
  6
Continuous
 62
         7
100
AcDbLine
 10
392.0126750026
 20
230.3080464138
 30
0.0
 11
392.0126750026
 21
231.6496911723
 31
0.0
  0
LINE
  5
45B
100
AcDbEntity
  8
0
370
        15
  6
Continuous
 62
         7
100
AcDbLine
 10
392.0126750026
 20
185.8155932271
 30
0.0
 11
392.0126750026
 21
185.0599484503
 31
0.0
  0
LINE
  5
45C
100
AcDbEntity
  8
0
370
        15
  6
Continuous
 62
         7
100
AcDbLine
 10
392.0126750026
 20
129.9788687931
 30
0.0
 11
392.0126750026
 21
118.0393793168
 31
0.0
  0
LINE
  5
45D
100
AcDbEntity
  8
0
370
        15
  6
Continuous
 62
         7
100
AcDbLine
 10
392.0126750026
 20
185.0599484503
 30
0.0
 11
392.0126750026
 21
173.8412642244
 31
0.0
  0
LINE
  5
45E
100
AcDbEntity
  8
0
370
        15
  6
Continuous
 62
         7
100
AcDbLine
 10
392.0126750026
 20
147.9788687931
 30
0.0
 11
392.0126750026
 21
138.4788687931
 31
0.0
  0
ARC
  5
45F
100
AcDbEntity
  8
0
370
        15
  6
Continuous
 62
         7
100
AcDbCircle
 10
392.0126750026
 20
136.9788687931
 30
0.0
 40
1.5
100
AcDbArc
 50
90.0
 51
270.0
  0
ARC
  5
460
100
AcDbEntity
  8
0
370
        15
  6
Continuous
 62
         7
100
AcDbCircle
 10
392.0126750026
 20
166.9788687931
 30
0.0
 40
1.5
100
AcDbArc
 50
90.0
 51
270.0
  0
LINE
  5
461
100
AcDbEntity
  8
0
370
        15
  6
Continuous
 62
         7
100
AcDbLine
 10
392.0126750026
 20
165.4788687931
 30
0.0
 11
392.0126750026
 21
155.9788687931
 31
0.0
  0
ARC
  5
462
100
AcDbEntity
  8
0
370
        15
  6
Continuous
 62
         7
100
AcDbCircle
 10
392.0126750026
 20
151.9788687931
 30
0.0
 40
4.0
100
AcDbArc
 50
90.0
 51
270.0
  0
LINE
  5
463
100
AcDbEntity
  8
0
370
        15
  6
Continuous
 62
         7
100
AcDbLine
 10
392.0126750026
 20
135.4788687931
 30
0.0
 11
392.0126750026
 21
129.9788687931
 31
0.0
  0
LINE
  5
464
100
AcDbEntity
  8
0
370
        15
  6
Continuous
 62
         7
100
AcDbLine
 10
392.0126750026
 20
173.8412642244
 30
0.0
 11
392.0126750026
 21
168.4788687931
 31
0.0
  0
LINE
  5
465
100
AcDbEntity
  8
0
370
         0
  6
DOT2
 62
         7
100
AcDbLine
 10
383.5126750026
 20
118.0393793168
 30
0.0
 11
383.5126750026
 21
129.9788687931
 31
0.0
  0
LINE
  5
466
100
AcDbEntity
  8
0
370
         0
  6
DOT2
 62
         7
100
AcDbLine
 10
383.5126750026
 20
129.9788687931
 30
0.0
 11
379.5129304429
 21
129.9788687931
 31
0.0
  0
LINE
  5
467
100
AcDbEntity
  8
0
370
         0
  6
DOT2
 62
         7
100
AcDbLine
 10
383.5126750026
 20
173.8412642244
 30
0.0
 11
383.5126750026
 21
185.0599484503
 31
0.0
  0
LINE
  5
468
100
AcDbEntity
  8
0
370
         0
  6
DOT2
 62
         7
100
AcDbLine
 10
383.5126750026
 20
173.8412642244
 30
0.0
 11
379.5129304429
 21
173.8412642244
 31
0.0
  0
POLYLINE
  5
469
100
AcDbEntity
  8
0
370
         0
  6
DOT2
 62
         7
100
AcDb2dPolyline
 66
         1
 10
0.0
 20
0.0
 30
0.0
 70
       128
  0
VERTEX
  5
46A
100
AcDbEntity
  8
0
100
AcDbVertex
100
AcDb2dVertex
 10
383.5126750026
 20
185.0599484503
 30
0.0
  0
VERTEX
  5
46B
100
AcDbEntity
  8
0
100
AcDbVertex
100
AcDb2dVertex
 10
383.2311512719
 20
185.0543844035
 30
0.0
  0
VERTEX
  5
46C
100
AcDbEntity
  8
0
100
AcDbVertex
100
AcDb2dVertex
 10
382.9510237933
 20
185.0377198585
 30
0.0
  0
VERTEX
  5
46D
100
AcDbEntity
  8
0
100
AcDbVertex
100
AcDb2dVertex
 10
382.6736818943
 20
185.0100374654
 30
0.0
  0
VERTEX
  5
46E
100
AcDbEntity
  8
0
100
AcDbVertex
100
AcDb2dVertex
 10
382.4005010865
 20
184.9714745183
 30
0.0
  0
VERTEX
  5
46F
100
AcDbEntity
  8
0
100
AcDbVertex
100
AcDb2dVertex
 10
382.1328362445
 20
184.922222275
 30
0.0
  0
VERTEX
  5
470
100
AcDbEntity
  8
0
100
AcDbVertex
100
AcDb2dVertex
 10
381.8720148855
 20
184.8625250082
 30
0.0
  0
VERTEX
  5
471
100
AcDbEntity
  8
0
100
AcDbVertex
100
AcDb2dVertex
 10
381.6193305856
 20
184.792678794
 30
0.0
  0
VERTEX
  5
472
100
AcDbEntity
  8
0
100
AcDbVertex
100
AcDb2dVertex
 10
381.3760365644
 20
184.7130300435
 30
0.0
  0
SEQEND
  5
473
100
AcDbEntity
  8
0
  0
LINE
  5
474
100
AcDbEntity
  8
0
370
         0
  6
DOT2
 62
         7
100
AcDbLine
 10
383.5126750026
 20
129.9788687931
 30
0.0
 11
383.5126750026
 21
173.8412642244
 31
0.0
  0
LINE
  5
475
100
AcDbEntity
  8
0
370
         0
  6
DOT2
 62
         7
100
AcDbLine
 10
383.5126750026
 20
185.0599484503
 30
0.0
 11
383.5126750026
 21
185.8155932271
 31
0.0
  0
LINE
  5
476
100
AcDbEntity
  8
0
370
         0
  6
DOT2
 62
         7
100
AcDbLine
 10
392.0126750026
 20
185.0599484503
 30
0.0
 11
383.5126750026
 21
185.0599484503
 31
0.0
  0
LINE
  5
477
100
AcDbEntity
  8
0
370
         0
  6
DOT2
 62
         7
100
AcDbLine
 10
392.0126750026
 20
129.9788687931
 30
0.0
 11
383.5126750026
 21
129.9788687931
 31
0.0
  0
LINE
  5
478
100
AcDbEntity
  8
0
370
         0
  6
DOT2
 62
         7
100
AcDbLine
 10
392.0126750026
 20
173.8412642244
 30
0.0
 11
383.5126750026
 21
173.8412642244
 31
0.0
  0
DIMENSION
  5
485
100
AcDbEntity
  8
0
 62
       255
100
AcDbDimension
  2
*D26
 10
392.0126750026
 20
89.2459281285
 30
0.0
 11
366.4312106407
 21
89.2459281285
 31
0.0
 70
       160
 71
         5
 72
         1
 41
1.0
 42
0.0
  3
SLDDIMSTYLE6
100
AcDbAlignedDimension
 13
379.5129304429
 23
129.9788687931
 33
0.0
 14
392.0126750026
 24
118.0393793168
 34
0.0
100
AcDbRotatedDimension
  0
MTEXT
  5
486
100
AcDbEntity
  8
0
 62
         7
100
AcDbMText
 10
376.0778563497
 20
252.4813040262
 30
0.0
 40
3.5
 41
0.0
 71
         2
 72
         1
  1
A-A
  7
SLDTEXTSTYLE0
 73
         1
 44
1.0
  0
POLYLINE
  5
487
100
AcDbEntity
  8
0
370
        15
  6
Continuous
 62
         7
100
AcDb2dPolyline
 66
         1
 10
0.0
 20
0.0
 30
0.0
 70
       128
  0
VERTEX
  5
488
100
AcDbEntity
  8
0
100
AcDbVertex
100
AcDb2dVertex
 10
175.9695468243
 20
31.8310707246
 30
0.0
  0
VERTEX
  5
489
100
AcDbEntity
  8
0
100
AcDbVertex
100
AcDb2dVertex
 10
175.9223989243
 20
32.2961609604
 30
0.0
  0
VERTEX
  5
48A
100
AcDbEntity
  8
0
100
AcDbVertex
100
AcDb2dVertex
 10
175.7827670916
 20
32.7161571865
 30
0.0
  0
VERTEX
  5
48B
100
AcDbEntity
  8
0
100
AcDbVertex
100
AcDb2dVertex
 10
175.5560172993
 20
33.0749191835
 30
0.0
  0
VERTEX
  5
48C
100
AcDbEntity
  8
0
100
AcDbVertex
100
AcDb2dVertex
 10
175.2508634147
 20
33.358659929
 30
0.0
  0
VERTEX
  5
48D
100
AcDbEntity
  8
0
100
AcDbVertex
100
AcDb2dVertex
 10
174.8790323305
 20
33.5564754253
 30
0.0
  0
VERTEX
  5
48E
100
AcDbEntity
  8
0
100
AcDbVertex
100
AcDb2dVertex
 10
174.4548133067
 20
33.6607637339
 30
0.0
  0
VERTEX
  5
48F
100
AcDbEntity
  8
0
100
AcDbVertex
100
AcDb2dVertex
 10
173.9945088425
 20
33.6675171134
 30
0.0
  0
VERTEX
  5
490
100
AcDbEntity
  8
0
100
AcDbVertex
100
AcDb2dVertex
 10
173.5158081803
 20
33.5764760353
 30
0.0
  0
VERTEX
  5
491
100
AcDbEntity
  8
0
100
AcDbVertex
100
AcDb2dVertex
 10
173.0371075181
 20
33.3911391572
 30
0.0
  0
VERTEX
  5
492
100
AcDbEntity
  8
0
100
AcDbVertex
100
AcDb2dVertex
 10
172.5768030538
 20
33.1186288713
 30
0.0
  0
VERTEX
  5
493
100
AcDbEntity
  8
0
100
AcDbVertex
100
AcDb2dVertex
 10
172.15258403
 20
32.7694175952
 30
0.0
  0
VERTEX
  5
494
100
AcDbEntity
  8
0
100
AcDbVertex
100
AcDb2dVertex
 10
171.7807529458
 20
32.3569253224
 30
0.0
  0
VERTEX
  5
495
100
AcDbEntity
  8
0
100
AcDbVertex
100
AcDb2dVertex
 10
171.4755990612
 20
31.8970038994
 30
0.0
  0
VERTEX
  5
496
100
AcDbEntity
  8
0
100
AcDbVertex
100
AcDb2dVertex
 10
171.2488492689
 20
31.4073278488
 30
0.0
  0
VERTEX
  5
497
100
AcDbEntity
  8
0
100
AcDbVertex
100
AcDb2dVertex
 10
171.1092174362
 20
30.9067151465
 30
0.0
  0
VERTEX
  5
498
100
AcDbEntity
  8
0
100
AcDbVertex
100
AcDb2dVertex
 10
171.0620695362
 20
30.4144040579
 30
0.0
  0
SEQEND
  5
499
100
AcDbEntity
  8
0
  0
LINE
  5
49A
100
AcDbEntity
  8
0
370
        15
  6
Continuous
 62
         7
100
AcDbLine
 10
143.4935941824
 20
22.4560707246
 30
0.0
 11
171.0620695362
 21
30.4144040579
 31
0.0
  0
LINE
  5
49B
100
AcDbEntity
  8
0
370
        15
  6
Continuous
 62
         7
100
AcDbLine
 10
143.4935941824
 20
22.4560707246
 30
0.0
 11
143.4935941824
 21
31.1163247624
 31
0.0
  0
LINE
  5
49C
100
AcDbEntity
  8
0
370
        15
  6
Continuous
 62
         7
100
AcDbLine
 10
224.322631869
 20
54.4496580957
 30
0.0
 11
143.4935941824
 21
31.1163247624
 31
0.0
  0
LINE
  5
49D
100
AcDbEntity
  8
0
370
        15
  6
Continuous
 62
         7
100
AcDbLine
 10
224.322631869
 20
45.7894040579
 30
0.0
 11
224.322631869
 21
54.4496580957
 31
0.0
  0
LINE
  5
49E
100
AcDbEntity
  8
0
370
        15
  6
Continuous
 62
         7
100
AcDbLine
 10
175.9695468243
 20
31.8310707246
 30
0.0
 11
224.322631869
 21
45.7894040579
 31
0.0
  0
POLYLINE
  5
49F
100
AcDbEntity
  8
0
370
        15
  6
Continuous
 62
         7
100
AcDb2dPolyline
 66
         1
 10
0.0
 20
0.0
 30
0.0
 70
       128
  0
VERTEX
  5
4A0
100
AcDbEntity
  8
0
100
AcDbVertex
100
AcDb2dVertex
 10
152.3141022581
 20
43.4775406946
 30
0.0
  0
VERTEX
  5
4A1
100
AcDbEntity
  8
0
100
AcDbVertex
100
AcDb2dVertex
 10
152.7659571587
 20
43.6374714253
 30
0.0
  0
VERTEX
  5
4A2
100
AcDbEntity
  8
0
100
AcDbVertex
100
AcDb2dVertex
 10
153.1513439817
 20
43.8361930914
 30
0.0
  0
VERTEX
  5
4A3
100
AcDbEntity
  8
0
100
AcDbVertex
100
AcDb2dVertex
 10
153.457138841
 20
44.066938465
 30
0.0
  0
VERTEX
  5
4A4
100
AcDbEntity
  8
0
100
AcDbVertex
100
AcDb2dVertex
 10
153.6729282594
 20
44.3218497891
 30
0.0
  0
VERTEX
  5
4A5
100
AcDbEntity
  8
0
100
AcDbVertex
100
AcDb2dVertex
 10
153.7913637871
 20
44.5922463642
 30
0.0
  0
VERTEX
  5
4A6
100
AcDbEntity
  8
0
100
AcDbVertex
100
AcDb2dVertex
 10
153.8084122443
 20
44.8689201594
 30
0.0
  0
VERTEX
  5
4A7
100
AcDbEntity
  8
0
100
AcDbVertex
100
AcDb2dVertex
 10
153.7234930662
 20
45.1424493804
 30
0.0
  0
VERTEX
  5
4A8
100
AcDbEntity
  8
0
100
AcDbVertex
100
AcDb2dVertex
 10
153.5394980736
 20
45.4035193176
 30
0.0
  0
VERTEX
  5
4A9
100
AcDbEntity
  8
0
100
AcDbVertex
100
AcDb2dVertex
 10
153.2626929952
 20
45.6432395474
 30
0.0
  0
VERTEX
  5
4AA
100
AcDbEntity
  8
0
100
AcDbVertex
100
AcDb2dVertex
 10
152.902504096
 20
45.8534466848
 30
0.0
  0
VERTEX
  5
4AB
100
AcDbEntity
  8
0
100
AcDbVertex
100
AcDb2dVertex
 10
152.471197177
 20
46.0269823781
 30
0.0
  0
VERTEX
  5
4AC
100
AcDbEntity
  8
0
100
AcDbVertex
100
AcDb2dVertex
 10
151.983459878
 20
46.1579370772
 30
0.0
  0
VERTEX
  5
4AD
100
AcDbEntity
  8
0
100
AcDbVertex
100
AcDb2dVertex
 10
151.4559015077
 20
46.2418512769
 30
0.0
  0
VERTEX
  5
4AE
100
AcDbEntity
  8
0
100
AcDbVertex
100
AcDb2dVertex
 10
150.9064874338
 20
46.2758673798
 30
0.0
  0
VERTEX
  5
4AF
100
AcDbEntity
  8
0
100
AcDbVertex
100
AcDb2dVertex
 10
150.3539272935
 20
46.2588270084
 30
0.0
  0
VERTEX
  5
4B0
100
AcDbEntity
  8
0
100
AcDbVertex
100
AcDb2dVertex
 10
149.8170378597
 20
46.191310452
 30
0.0
  0
VERTEX
  5
4B1
100
AcDbEntity
  8
0
100
AcDbVertex
100
AcDb2dVertex
 10
149.3141022581
 20
46.0756169059
 30
0.0
  0
VERTEX
  5
4B2
100
AcDbEntity
  8
0
100
AcDbVertex
100
AcDb2dVertex
 10
148.8622473575
 20
45.9156861752
 30
0.0
  0
VERTEX
  5
4B3
100
AcDbEntity
  8
0
100
AcDbVertex
100
AcDb2dVertex
 10
148.4768605345
 20
45.7169645091
 30
0.0
  0
VERTEX
  5
4B4
100
AcDbEntity
  8
0
100
AcDbVertex
100
AcDb2dVertex
 10
148.1710656752
 20
45.4862191355
 30
0.0
  0
VERTEX
  5
4B5
100
AcDbEntity
  8
0
100
AcDbVertex
100
AcDb2dVertex
 10
147.9552762568
 20
45.2313078114
 30
0.0
  0
VERTEX
  5
4B6
100
AcDbEntity
  8
0
100
AcDbVertex
100
AcDb2dVertex
 10
147.8368407291
 20
44.9609112362
 30
0.0
  0
VERTEX
  5
4B7
100
AcDbEntity
  8
0
100
AcDbVertex
100
AcDb2dVertex
 10
147.8197922719
 20
44.684237441
 30
0.0
  0
VERTEX
  5
4B8
100
AcDbEntity
  8
0
100
AcDbVertex
100
AcDb2dVertex
 10
147.90471145
 20
44.4107082201
 30
0.0
  0
VERTEX
  5
4B9
100
AcDbEntity
  8
0
100
AcDbVertex
100
AcDb2dVertex
 10
148.0887064426
 20
44.1496382829
 30
0.0
  0
VERTEX
  5
4BA
100
AcDbEntity
  8
0
100
AcDbVertex
100
AcDb2dVertex
 10
148.365511521
 20
43.9099180531
 30
0.0
  0
VERTEX
  5
4BB
100
AcDbEntity
  8
0
100
AcDbVertex
100
AcDb2dVertex
 10
148.7257004202
 20
43.6997109156
 30
0.0
  0
VERTEX
  5
4BC
100
AcDbEntity
  8
0
100
AcDbVertex
100
AcDb2dVertex
 10
149.1570073392
 20
43.5261752224
 30
0.0
  0
VERTEX
  5
4BD
100
AcDbEntity
  8
0
100
AcDbVertex
100
AcDb2dVertex
 10
149.6447446382
 20
43.3952205233
 30
0.0
  0
VERTEX
  5
4BE
100
AcDbEntity
  8
0
100
AcDbVertex
100
AcDb2dVertex
 10
150.1723030085
 20
43.3113063236
 30
0.0
  0
VERTEX
  5
4BF
100
AcDbEntity
  8
0
100
AcDbVertex
100
AcDb2dVertex
 10
150.7217170824
 20
43.2772902207
 30
0.0
  0
VERTEX
  5
4C0
100
AcDbEntity
  8
0
100
AcDbVertex
100
AcDb2dVertex
 10
151.2742772227
 20
43.2943305921
 30
0.0
  0
VERTEX
  5
4C1
100
AcDbEntity
  8
0
100
AcDbVertex
100
AcDb2dVertex
 10
151.8111666565
 20
43.3618471485
 30
0.0
  0
VERTEX
  5
4C2
100
AcDbEntity
  8
0
100
AcDbVertex
100
AcDb2dVertex
 10
152.3141022581
 20
43.4775406946
 30
0.0
  0
SEQEND
  5
4C3
100
AcDbEntity
  8
0
  0
POLYLINE
  5
4C4
100
AcDbEntity
  8
0
370
        15
  6
Continuous
 62
         7
100
AcDb2dPolyline
 66
         1
 10
0.0
 20
0.0
 30
0.0
 70
       128
  0
VERTEX
  5
4C5
100
AcDbEntity
  8
0
100
AcDbVertex
100
AcDb2dVertex
 10
207.1623778311
 20
59.3108740279
 30
0.0
  0
VERTEX
  5
4C6
100
AcDbEntity
  8
0
100
AcDbVertex
100
AcDb2dVertex
 10
207.6142327317
 20
59.4708047586
 30
0.0
  0
VERTEX
  5
4C7
100
AcDbEntity
  8
0
100
AcDbVertex
100
AcDb2dVertex
 10
207.9996195547
 20
59.6695264247
 30
0.0
  0
VERTEX
  5
4C8
100
AcDbEntity
  8
0
100
AcDbVertex
100
AcDb2dVertex
 10
208.305414414
 20
59.9002717983
 30
0.0
  0
VERTEX
  5
4C9
100
AcDbEntity
  8
0
100
AcDbVertex
100
AcDb2dVertex
 10
208.5212038324
 20
60.1551831224
 30
0.0
  0
VERTEX
  5
4CA
100
AcDbEntity
  8
0
100
AcDbVertex
100
AcDb2dVertex
 10
208.6396393601
 20
60.4255796976
 30
0.0
  0
VERTEX
  5
4CB
100
AcDbEntity
  8
0
100
AcDbVertex
100
AcDb2dVertex
 10
208.6566878173
 20
60.7022534928
 30
0.0
  0
VERTEX
  5
4CC
100
AcDbEntity
  8
0
100
AcDbVertex
100
AcDb2dVertex
 10
208.5717686392
 20
60.9757827137
 30
0.0
  0
VERTEX
  5
4CD
100
AcDbEntity
  8
0
100
AcDbVertex
100
AcDb2dVertex
 10
208.3877736466
 20
61.2368526509
 30
0.0
  0
VERTEX
  5
4CE
100
AcDbEntity
  8
0
100
AcDbVertex
100
AcDb2dVertex
 10
208.1109685682
 20
61.4765728807
 30
0.0
  0
VERTEX
  5
4CF
100
AcDbEntity
  8
0
100
AcDbVertex
100
AcDb2dVertex
 10
207.750779669
 20
61.6867800182
 30
0.0
  0
VERTEX
  5
4D0
100
AcDbEntity
  8
0
100
AcDbVertex
100
AcDb2dVertex
 10
207.31947275
 20
61.8603157114
 30
0.0
  0
VERTEX
  5
4D1
100
AcDbEntity
  8
0
100
AcDbVertex
100
AcDb2dVertex
 10
206.831735451
 20
61.9912704105
 30
0.0
  0
VERTEX
  5
4D2
100
AcDbEntity
  8
0
100
AcDbVertex
100
AcDb2dVertex
 10
206.3041770807
 20
62.0751846102
 30
0.0
  0
VERTEX
  5
4D3
100
AcDbEntity
  8
0
100
AcDbVertex
100
AcDb2dVertex
 10
205.7547630068
 20
62.1092007131
 30
0.0
  0
VERTEX
  5
4D4
100
AcDbEntity
  8
0
100
AcDbVertex
100
AcDb2dVertex
 10
205.2022028665
 20
62.0921603417
 30
0.0
  0
VERTEX
  5
4D5
100
AcDbEntity
  8
0
100
AcDbVertex
100
AcDb2dVertex
 10
204.6653134327
 20
62.0246437853
 30
0.0
  0
VERTEX
  5
4D6
100
AcDbEntity
  8
0
100
AcDbVertex
100
AcDb2dVertex
 10
204.1623778311
 20
61.9089502393
 30
0.0
  0
VERTEX
  5
4D7
100
AcDbEntity
  8
0
100
AcDbVertex
100
AcDb2dVertex
 10
203.7105229305
 20
61.7490195086
 30
0.0
  0
VERTEX
  5
4D8
100
AcDbEntity
  8
0
100
AcDbVertex
100
AcDb2dVertex
 10
203.3251361075
 20
61.5502978424
 30
0.0
  0
VERTEX
  5
4D9
100
AcDbEntity
  8
0
100
AcDbVertex
100
AcDb2dVertex
 10
203.0193412483
 20
61.3195524688
 30
0.0
  0
VERTEX
  5
4DA
100
AcDbEntity
  8
0
100
AcDbVertex
100
AcDb2dVertex
 10
202.8035518298
 20
61.0646411447
 30
0.0
  0
VERTEX
  5
4DB
100
AcDbEntity
  8
0
100
AcDbVertex
100
AcDb2dVertex
 10
202.6851163021
 20
60.7942445696
 30
0.0
  0
VERTEX
  5
4DC
100
AcDbEntity
  8
0
100
AcDbVertex
100
AcDb2dVertex
 10
202.6680678449
 20
60.5175707744
 30
0.0
  0
VERTEX
  5
4DD
100
AcDbEntity
  8
0
100
AcDbVertex
100
AcDb2dVertex
 10
202.752987023
 20
60.2440415534
 30
0.0
  0
VERTEX
  5
4DE
100
AcDbEntity
  8
0
100
AcDbVertex
100
AcDb2dVertex
 10
202.9369820157
 20
59.9829716162
 30
0.0
  0
VERTEX
  5
4DF
100
AcDbEntity
  8
0
100
AcDbVertex
100
AcDb2dVertex
 10
203.213787094
 20
59.7432513865
 30
0.0
  0
VERTEX
  5
4E0
100
AcDbEntity
  8
0
100
AcDbVertex
100
AcDb2dVertex
 10
203.5739759932
 20
59.533044249
 30
0.0
  0
VERTEX
  5
4E1
100
AcDbEntity
  8
0
100
AcDbVertex
100
AcDb2dVertex
 10
204.0052829122
 20
59.3595085557
 30
0.0
  0
VERTEX
  5
4E2
100
AcDbEntity
  8
0
100
AcDbVertex
100
AcDb2dVertex
 10
204.4930202112
 20
59.2285538567
 30
0.0
  0
VERTEX
  5
4E3
100
AcDbEntity
  8
0
100
AcDbVertex
100
AcDb2dVertex
 10
205.0205785815
 20
59.1446396569
 30
0.0
  0
VERTEX
  5
4E4
100
AcDbEntity
  8
0
100
AcDbVertex
100
AcDb2dVertex
 10
205.5699926554
 20
59.110623554
 30
0.0
  0
VERTEX
  5
4E5
100
AcDbEntity
  8
0
100
AcDbVertex
100
AcDb2dVertex
 10
206.1225527957
 20
59.1276639255
 30
0.0
  0
VERTEX
  5
4E6
100
AcDbEntity
  8
0
100
AcDbVertex
100
AcDb2dVertex
 10
206.6594422296
 20
59.1951804819
 30
0.0
  0
VERTEX
  5
4E7
100
AcDbEntity
  8
0
100
AcDbVertex
100
AcDb2dVertex
 10
207.1623778311
 20
59.3108740279
 30
0.0
  0
SEQEND
  5
4E8
100
AcDbEntity
  8
0
  0
LINE
  5
4E9
100
AcDbEntity
  8
0
370
        15
  6
Continuous
 62
         7
100
AcDbLine
 10
204.322631869
 20
71.7701661714
 30
0.0
 11
224.322631869
 21
54.4496580957
 31
0.0
  0
LINE
  5
4EA
100
AcDbEntity
  8
0
370
        15
  6
Continuous
 62
         7
100
AcDbLine
 10
143.4935941824
 20
31.1163247624
 30
0.0
 11
123.4935941824
 21
48.4368328381
 31
0.0
  0
LINE
  5
4EB
100
AcDbEntity
  8
0
370
        15
  6
Continuous
 62
         7
100
AcDbLine
 10
123.4935941824
 20
48.4368328381
 30
0.0
 11
204.322631869
 21
71.7701661714
 31
0.0
  0
LINE
  5
4EC
100
AcDbEntity
  8
0
370
        15
  6
Continuous
 62
         7
100
AcDbLine
 10
123.4935941824
 20
39.7765788002
 30
0.0
 11
143.4935941824
 21
22.4560707246
 31
0.0
  0
LINE
  5
4ED
100
AcDbEntity
  8
0
370
        15
  6
Continuous
 62
         7
100
AcDbLine
 10
123.4935941824
 20
39.7765788002
 30
0.0
 11
123.4935941824
 21
48.4368328381
 31
0.0
  0
LINE
  5
4EE
100
AcDbEntity
  8
0
370
        15
  6
Continuous
 62
         7
100
AcDbLine
 10
175.9695468243
 20
31.8310707246
 30
0.0
 11
173.8663422723
 21
33.652499296
 31
0.0
  0
ARC
  5
4EF
100
AcDbEntity
  8
0
370
        15
  6
Continuous
 62
         7
100
AcDbCircle
 10
336.6973056995
 20
151.9788687931
 30
0.0
 40
4.25
100
AcDbArc
 50
90.0
 51
270.0
  0
LINE
  5
4F0
100
AcDbEntity
  8
0
370
        15
  6
Continuous
 62
         7
100
AcDbLine
 10
336.6973056995
 20
99.9788687931
 30
0.0
 11
336.6973056995
 21
147.7288687931
 31
0.0
  0
LINE
  5
4F1
100
AcDbEntity
  8
0
370
        15
  6
Continuous
 62
         7
100
AcDbLine
 10
336.6973056995
 20
99.9788687931
 30
0.0
 11
321.6973056995
 21
99.9788687931
 31
0.0
  0
LINE
  5
4F2
100
AcDbEntity
  8
0
370
        15
  6
Continuous
 62
         7
100
AcDbLine
 10
321.6973056995
 20
239.9788687931
 30
0.0
 11
321.6973056995
 21
99.9788687931
 31
0.0
  0
LINE
  5
4F3
100
AcDbEntity
  8
0
370
        15
  6
Continuous
 62
         7
100
AcDbLine
 10
336.6973056995
 20
239.9788687931
 30
0.0
 11
321.6973056995
 21
239.9788687931
 31
0.0
  0
LINE
  5
4F4
100
AcDbEntity
  8
0
370
        15
  6
Continuous
 62
         7
100
AcDbLine
 10
336.6973056995
 20
156.2288687931
 30
0.0
 11
336.6973056995
 21
239.9788687931
 31
0.0
  0
ARC
  5
4F5
100
AcDbEntity
  8
0
370
        15
  6
Continuous
 62
         7
100
AcDbCircle
 10
336.6973056995
 20
151.9788687931
 30
0.0
 40
1.25
100
AcDbArc
 50
90.0
 51
270.0
  0
LINE
  5
4F6
100
AcDbEntity
  8
0
370
        15
  6
Continuous
 62
         7
100
AcDbLine
 10
336.6973056995
 20
147.7288687931
 30
0.0
 11
336.6973056995
 21
150.7288687931
 31
0.0
  0
LINE
  5
4F7
100
AcDbEntity
  8
0
370
        15
  6
Continuous
 62
         7
100
AcDbLine
 10
336.6973056995
 20
153.2288687931
 30
0.0
 11
336.6973056995
 21
156.2288687931
 31
0.0
  0
LINE
  5
4F8
100
AcDbEntity
  8
0
370
        15
  6
Continuous
 62
         7
100
AcDbLine
 10
336.6973056995
 20
150.7288687931
 30
0.0
 11
336.6973056995
 21
153.2288687931
 31
0.0
  0
DIMENSION
  5
504
100
AcDbEntity
  8
0
 62
       255
100
AcDbDimension
  2
*D27
 10
348.3592185536
 20
99.9788687931
 30
0.0
 11
348.3592185536
 21
129.3320041822
 31
0.0
 70
       160
 71
         5
 72
         1
 41
1.0
 42
0.0
  3
SLDDIMSTYLE6
100
AcDbAlignedDimension
 13
343.4473056995
 23
151.9788687931
 33
0.0
 14
336.6973056995
 24
99.9788687931
 34
0.0
 50
90.0
100
AcDbRotatedDimension
  0
LINE
  5
505
100
AcDbEntity
  8
0
  6
Continuous
 62
         7
100
AcDbLine
 10
334.1973056995
 20
151.9788687931
 30
0.0
 11
339.1973056995
 21
151.9788687931
 31
0.0
  0
LINE
  5
506
100
AcDbEntity
  8
0
  6
Continuous
 62
         7
100
AcDbLine
 10
336.6973056995
 20
149.4788687931
 30
0.0
 11
336.6973056995
 21
154.4788687931
 31
0.0
  0
LINE
  5
507
100
AcDbEntity
  8
0
  6
Continuous
 62
         7
100
AcDbLine
 10
341.6973056995
 20
151.9788687931
 30
0.0
 11
343.4473056995
 21
151.9788687931
 31
0.0
  0
LINE
  5
508
100
AcDbEntity
  8
0
  6
Continuous
 62
         7
100
AcDbLine
 10
331.6973056995
 20
151.9788687931
 30
0.0
 11
329.9473056995
 21
151.9788687931
 31
0.0
  0
LINE
  5
509
100
AcDbEntity
  8
0
  6
Continuous
 62
         7
100
AcDbLine
 10
336.6973056995
 20
156.9788687931
 30
0.0
 11
336.6973056995
 21
158.7288687931
 31
0.0
  0
LINE
  5
50A
100
AcDbEntity
  8
0
  6
Continuous
 62
         7
100
AcDbLine
 10
336.6973056995
 20
146.9788687931
 30
0.0
 11
336.6973056995
 21
145.2288687931
 31
0.0
  0
ENDSEC
  0
SECTION
  2
OBJECTS
  0
DICTIONARY
  5
19
100
AcDbDictionary
280
         0
281
         1
  3
ACAD_GROUP
350
1A
  3
ACAD_MLINESTYLE
350
1B
  3
ACAD_LAYOUT
350
1E
  3
ACAD_PLOTSETTINGS
350
22
  3
ACAD_PLOTSTYLENAME
350
1F
  3
ACAD_WIPEOUT_VARS
350
23
  0
DICTIONARY
  5
1A
102
{ACAD_REACTORS
330
19
102
}
100
AcDbDictionary
280
         0
281
         1
  0
DICTIONARY
  5
1B
102
{ACAD_REACTORS
330
19
102
}
100
AcDbDictionary
280
         0
281
         1
  3
Standard
350
1C
  0
MLINESTYLE
  5
1C
102
{ACAD_REACTORS
330
1B
102
}
100
AcDbMlineStyle
  2
Standard
 70
         0
  3

 62
         0
 51
90.0
 52
90.0
 71
         2
 49
0.5
 62
       256
  6
BYLAYER
 49
-0.5
 62
       256
  6
BYLAYER
  0
ACDBDICTIONARYWDFLT
  5
1F
102
{ACAD_REACTORS
330
19
102
}
100
AcDbDictionary
281
         1
  3
Normal
350
1D
100
AcDbDictionaryWithDefault
340
1D
  0
ACDBPLACEHOLDER
  5
1D
102
{ACAD_REACTORS
330
1F
102
}
  0
LAYOUT
  5
20
102
{ACAD_REACTORS
330
1E
102
}
100
AcDbPlotSettings
  1

  2

  4

  6

 40
0.0
 41
0.0
 42
0.0
 43
0.0
 44
0.0
 45
0.0
 46
0.0
 47
0.0
 48
0.0
 49
0.0
140
0.0
141
0.0
142
1.0
143
1.0
 70
      1024
 72
         0
 73
         0
 74
         0
  7

 75
         0
147
1.0
148
0.0
149
0.0
100
AcDbLayout
  1
Model
 70
         0
 71
         0
 10
0.0
 20
0.0
 11
0.0
 21
0.0
 12
0.0
 22
0.0
 32
0.0
 14
0.0
 24
0.0
 34
0.0
 15
0.0
 25
0.0
 35
0.0
146
0.0
 13
0.0
 23
0.0
 33
0.0
 16
0.0
 26
0.0
 36
0.0
 17
0.0
 27
0.0
 37
0.0
 76
         0
330
A
331
0
345
0
346
0
  0
LAYOUT
  5
21
102
{ACAD_REACTORS
330
1E
102
}
100
AcDbPlotSettings
  1

  2

  4

  6

 40
0.0
 41
0.0
 42
0.0
 43
0.0
 44
0.0
 45
0.0
 46
0.0
 47
0.0
 48
0.0
 49
0.0
140
0.0
141
0.0
142
1.0
143
1.0
 70
         0
 72
         0
 73
         0
 74
         0
  7

 75
         0
147
1.0
148
0.0
149
0.0
100
AcDbLayout
  1
Layout1
 70
         0
 71
         0
 10
0.0
 20
0.0
 11
0.0
 21
0.0
 12
0.0
 22
0.0
 32
0.0
 14
0.0
 24
0.0
 34
0.0
 15
0.0
 25
0.0
 35
0.0
146
0.0
 13
0.0
 23
0.0
 33
0.0
 16
0.0
 26
0.0
 36
0.0
 17
0.0
 27
0.0
 37
0.0
 76
         0
330
B
331
0
345
0
346
0
  0
DICTIONARY
  5
1E
102
{ACAD_REACTORS
330
19
102
}
100
AcDbDictionary
280
         0
281
         1
  3
Layout1
350
21
  3
Model
350
20
  0
DICTIONARY
  5
22
102
{ACAD_REACTORS
330
19
102
}
100
AcDbDictionary
280
         0
281
         1
  0
WIPEOUTVARIABLES
  5
23
100
AcDbWipeoutVariables
 70
         1
  0
ENDSEC
  0
EOF
