  0
SECTION
  2
HEADER
  9
$ACADVER
  1
AC1015
  9
$ACADMAINTVER
 70
         6
  9
$DWGCODEPAGE
  3
ANSI_1252
  9
$INSBASE
 10
0.0
 20
0.0
 30
0.0
  9
$EXTMIN
 10
0.0
 20
0.0
 30
0.0
  9
$EXTMAX
 10
420.0
 20
297.0
 30
0.0
  9
$LIMMIN
 10
0.0
 20
0.0
  9
$LIMMAX
 10
0.0
 20
0.0
  9
$ORTHOMODE
 70
         0
  9
$REGENMODE
 70
         1
  9
$FILLMODE
 70
         1
  9
$QTEXTMODE
 70
         0
  9
$MIRRTEXT
 70
         1
  9
$LTSCALE
 40
1.0
  9
$ATTMODE
 70
         1
  9
$TEXTSIZE
 40
3.5
  9
$TRACEWID
 40
0.05
  9
$TEXTSTYLE
  7
Standard
  9
$CLAYER
  8
0
  9
$CELTYPE
  6
Continuous
  9
$CECOLOR
 62
       256
  9
$CELTSCALE
 40
1.0
  9
$DISPSILH
 70
         0
  9
$DIMSCALE
 40
1.0
  9
$DIMASZ
 40
3.0
  9
$DIMEXO
 40
1.0
  9
$DIMDLI
 40
0.38
  9
$DIMRND
 40
0.0
  9
$DIMDLE
 40
1.0
  9
$DIMEXE
 40
0.18
  9
$DIMTP
 40
0.0
  9
$DIMTM
 40
0.0
  9
$DIMTXT
 40
3.5
  9
$DIMCEN
 40
0.09
  9
$DIMTSZ
 40
0.0
  9
$DIMTOL
 70
         0
  9
$DIMLIM
 70
         0
  9
$DIMTIH
 70
         1
  9
$DIMTOH
 70
         1
  9
$DIMSE1
 70
         0
  9
$DIMSE2
 70
         0
  9
$DIMTAD
 70
         1
  9
$DIMZIN
 70
         0
  9
$DIMBLK
  1

  9
$DIMASO
 70
         1
  9
$DIMSHO
 70
         1
  9
$DIMPOST
  1

  9
$DIMAPOST
  1

  9
$DIMALT
 70
         0
  9
$DIMALTD
 70
         2
  9
$DIMALTF
 40
0.0394
  9
$DIMLFAC
 40
1.0
  9
$DIMTOFL
 70
         0
  9
$DIMTVP
 40
0.0
  9
$DIMTIX
 70
         0
  9
$DIMSOXD
 70
         0
  9
$DIMSAH
 70
         0
  9
$DIMBLK1
  1

  9
$DIMBLK2
  1

  9
$DIMSTYLE
  2
Standard
  9
$DIMCLRD
 70
         0
  9
$DIMCLRE
 70
         0
  9
$DIMCLRT
 70
         0
  9
$DIMTFAC
 40
1.0
  9
$DIMGAP
 40
1.0
  9
$DIMJUST
 70
         0
  9
$DIMSD1
 70
         0
  9
$DIMSD2
 70
         0
  9
$DIMTOLJ
 70
         1
  9
$DIMTZIN
 70
         0
  9
$DIMALTZ
 70
         0
  9
$DIMALTTZ
 70
         0
  9
$DIMUPT
 70
         0
  9
$DIMDEC
 70
         4
  9
$DIMTDEC
 70
         4
  9
$DIMALTU
 70
         2
  9
$DIMALTTD
 70
         2
  9
$DIMTXSTY
  7
Standard
  9
$DIMAUNIT
 70
         0
  9
$DIMADEC
 70
         0
  9
$DIMALTRND
 40
0.0
  9
$DIMAZIN
 70
         0
  9
$DIMDSEP
 70
         0
  9
$DIMATFIT
 70
         3
  9
$DIMFRAC
 70
         0
  9
$DIMLDRBLK
  1

  9
$DIMLUNIT
 70
         2
  9
$DIMLWD
 70
         0
  9
$DIMLWE
 70
         0
  9
$DIMTMOVE
 70
         0
  9
$LUNITS
 70
         2
  9
$LUPREC
 70
         2
  9
$SKETCHINC
 40
0.1
  9
$FILLETRAD
 40
0.0
  9
$AUNITS
 70
         0
  9
$AUPREC
 70
         2
  9
$MENU
  1
acad
  9
$ELEVATION
 40
0.0
  9
$PELEVATION
 40
0.0
  9
$THICKNESS
 40
0.0
  9
$LIMCHECK
 70
         0
  9
$CHAMFERA
 40
0.0
  9
$CHAMFERB
 40
0.0
  9
$CHAMFERC
 40
0.0
  9
$CHAMFERD
 40
0.0
  9
$SKPOLY
 70
         0
  9
$TDCREATE
 40
0.000000000
  9
$TDUCREATE
 40
0.000000000
  9
$TDUPDATE
 40
0.000000000
  9
$TDUUPDATE
 40
0.000000000
  9
$TDINDWG
 40
0.0000000000
  9
$TDUSRTIMER
 40
0.0000000000
  9
$USRTIMER
 70
         1
  9
$ANGBASE
 50
0.0
  9
$ANGDIR
 70
         0
  9
$PDMODE
 70
         0
  9
$PDSIZE
 40
-1.0
  9
$PLINEWID
 40
0.0
  9
$SPLFRAME
 70
         0
  9
$SPLINETYPE
 70
         6
  9
$SPLINESEGS
 70
         8
  9
$HANDSEED
  5
701
  9
$SURFTAB1
 70
         6
  9
$SURFTAB2
 70
         6
  9
$SURFTYPE
 70
         6
  9
$SURFU
 70
         6
  9
$SURFV
 70
         6
  9
$UCSBASE
  2

  9
$UCSNAME
  2

  9
$UCSORG
 10
0.0
 20
0.0
 30
0.0
  9
$UCSXDIR
 10
1.0
 20
0.0
 30
0.0
  9
$UCSYDIR
 10
0.0
 20
1.0
 30
0.0
  9
$UCSORTHOREF
  2

  9
$UCSORTHOVIEW
 70
         0
  9
$UCSORGTOP
 10
0.0
 20
0.0
 30
0.0
  9
$UCSORGBOTTOM
 10
0.0
 20
0.0
 30
0.0
  9
$UCSORGLEFT
 10
0.0
 20
0.0
 30
0.0
  9
$UCSORGRIGHT
 10
0.0
 20
0.0
 30
0.0
  9
$UCSORGFRONT
 10
0.0
 20
0.0
 30
0.0
  9
$UCSORGBACK
 10
0.0
 20
0.0
 30
0.0
  9
$PUCSBASE
  2

  9
$PUCSNAME
  2

  9
$PUCSORG
 10
0.0
 20
0.0
 30
0.0
  9
$PUCSXDIR
 10
1.0
 20
0.0
 30
0.0
  9
$PUCSYDIR
 10
0.0
 20
1.0
 30
0.0
  9
$PUCSORTHOREF
  2

  9
$PUCSORTHOVIEW
 70
         0
  9
$PUCSORGTOP
 10
0.0
 20
0.0
 30
0.0
  9
$PUCSORGBOTTOM
 10
0.0
 20
0.0
 30
0.0
  9
$PUCSORGLEFT
 10
0.0
 20
0.0
 30
0.0
  9
$PUCSORGRIGHT
 10
0.0
 20
0.0
 30
0.0
  9
$PUCSORGFRONT
 10
0.0
 20
0.0
 30
0.0
  9
$PUCSORGBACK
 10
0.0
 20
0.0
 30
0.0
  9
$USERI1
 70
         0
  9
$USERI2
 70
         0
  9
$USERI3
 70
         0
  9
$USERI4
 70
         0
  9
$USERI5
 70
         0
  9
$USERR1
 40
0.0
  9
$USERR2
 40
0.0
  9
$USERR3
 40
0.0
  9
$USERR4
 40
0.0
  9
$USERR5
 40
0.0
  9
$WORLDVIEW
 70
         1
  9
$SHADEDGE
 70
         3
  9
$SHADEDIF
 70
        70
  9
$TILEMODE
 70
         1
  9
$MAXACTVP
 70
        16
  9
$PINSBASE
 10
0.0
 20
0.0
 30
0.0
  9
$PLIMCHECK
 70
         0
  9
$PEXTMIN
 10
1.0000000000E+20
 20
1.0000000000E+20
 30
1.0000000000E+20
  9
$PEXTMAX
 10
-1.0000000000E+20
 20
-1.0000000000E+20
 30
-1.0000000000E+20
  9
$PLIMMIN
 10
0.0
 20
0.0
  9
$PLIMMAX
 10
12.0
 20
9.0
  9
$UNITMODE
 70
         0
  9
$VISRETAIN
 70
         0
  9
$PLINEGEN
 70
         1
  9
$PSLTSCALE
 70
         1
  9
$TREEDEPTH
 70
      3020
  9
$CMLSTYLE
  2
Standard
  9
$CMLJUST
 70
         0
  9
$CMLSCALE
 40
1.0
  9
$PROXYGRAPHICS
 70
         0
  9
$MEASUREMENT
 70
         0
  9
$CELWEIGHT
370
         0
  9
$ENDCAPS
280
         0
  9
$JOINSTYLE
280
         0
  9
$LWDISPLAY
290
         0
  9
$INSUNITS
 70
         0
  9
$HYPERLINKBASE
  1

  9
$XEDIT
290
         1
  9
$CEPSNTYPE
380
         0
  9
$PSTYLEMODE
290
         1
  9
$FINGERPRINTGUID
  2

  9
$VERSIONGUID
  2

  9
$EXTNAMES
290
         1
  9
$PSVPSCALE
 40
0.0
  0
ENDSEC
  0
SECTION
  2
CLASSES
  0
CLASS
  1
LWPOLYLINE
  2
AcDbPolyline
  3
AutoCAD 2000
 90
    32768
280
         0
281
         1
  0
CLASS
  1
IMAGE
  2
AcDbRasterImage
  3
ISM
 90
    32895
280
         0
281
         1
  0
CLASS
  1
OLE2FRAME
  2
AcDbOle2Frame
  3
AutoCAD 2000
 90
    32768
280
         0
281
         1
  0
CLASS
  1
HATCH
  2
AcDbHatch
  3
AutoCAD 2000
 90
    32768
280
         0
281
         1
  0
CLASS
  1
DICTIONARYVAR
  2
AcDbDictionaryVar
  3
AutoCAD 2000
 90
    32768
280
         0
281
         0
  0
CLASS
  1
RASTERVARIABLES
  2
AcDbRasterVariables
  3
ISM
 90
    32768
280
         0
281
         0
  0
CLASS
  1
IMAGEDEF
  2
AcDbRasterImageDef
  3
ISM
 90
    32768
280
         0
281
         0
  0
CLASS
  1
IMAGEDEF_REACTOR
  2
AcDbRasterImageDefReactor
  3
ISM
 90
    32769
280
         0
281
         0
  0
CLASS
  1
IDBUFFER
  2
AcDbIdBuffer
  3
AutoCAD 2000
 90
    32768
280
         0
281
         0
  0
CLASS
  1
SPATIAL_FILTER
  2
AcDbSpatialFilter
  3
AutoCAD 2000
 90
    32768
280
         0
281
         0
  0
CLASS
  1
XRECORD
  2
AcDbXrecord
  3
AutoCAD 2000
 90
    32768
280
         0
281
         0
  0
CLASS
  1
SORTENTSTABLE
  2
AcDbSortentsTable
  3
AutoCAD 2000
 90
    32768
280
         0
281
         0
  0
CLASS
  1
LAYER_INDEX
  2
AcDbLayerIndex
  3
AutoCAD 2000
 90
    32768
280
         0
281
         0
  0
CLASS
  1
SPATIAL_INDEX
  2
AcDbSpatialIndex
  3
AutoCAD 2000
 90
    32768
280
         0
281
         0
  0
CLASS
  1
OBJECT_PTR
  2
CAseDLPNTableRecord
  3
"ASE-LPNTableRecord"
 90
    32769
280
         0
281
         0
  0
CLASS
  1
LAYOUT
  2
AcDbLayout
  3
AutoCAD 2000
 90
        0
280
         0
281
         0
  0
CLASS
  1
PLOTSETTINGS
  2
AcDbPlotSettings
  3
AutoCAD 2000
 90
    32768
280
         0
281
         0
  0
CLASS
  1
ACDBDICTIONARYWDFLT
  2
AcDbDictionaryWithDefault
  3
AutoCAD 2000
 90
        0
280
         0
281
         0
  0
CLASS
  1
ACDBPLACEHOLDER
  2
AcDbPlaceHolder
  3
AutoCAD 2000
 90
        0
280
         0
281
         0
  0
CLASS
  1
VBA_PROJECT
  2
AcDbVbaProject
  3
acadvba
 90
    32768
280
         0
281
         0
  0
CLASS
  1
WIPEOUT
  2
AcDbWipeout
  3
WipeOut|AutoCAD Express Tool|expresstools@autodesk.com
 90
    32895
280
         0
281
         1
  0
CLASS
  1
WIPEOUTVARIABLES
  2
AcDbWipeoutVariables
  3
WipeOut|AutoCAD Express Tool|expresstools@autodesk.com
 90
        0
280
         0
281
         0
  0
CLASS
  1
RTEXT
  2
RText
  3
RText|AutoCAD Express Tool|expresstools@autodesk.com
 90
    32768
280
         0
281
         1
  0
CLASS
  1
ARCALIGNEDTEXT
  2
AcDbArcAlignedText
  3
ATEXT|AutoCAD Express Tool|expresstools@autodesk.com
 90
    32768
280
         0
281
         1
  0
ENDSEC
  0
SECTION
  2
TABLES
  0
TABLE
  2
VPORT
  5
7
100
AcDbSymbolTable
 70
         1
  0
VPORT
  5
15
100
AcDbSymbolTableRecord
100
AcDbViewportTableRecord
  2
*ACTIVE
 70
         0
 10
0.0
 20
0.0
 11
1.0
 21
1.0
 12
210.0
 22
148.5
 13
0.0
 23
0.0
 14
1.0
 24
1.0
 15
0.0
 25
0.0
 16
0.0
 26
0.0
 36
1.0
 17
0.0
 27
0.0
 37
0.0
 40
297.0
 41
0.7071428571
 42
50.0
 43
0.0
 44
0.0
 50
0.0
 51
0.0
 71
         0
 72
      2000
 73
         1
 74
         1
 75
         0
 76
         0
 77
         0
 78
         0
281
         0
 65
         0
110
0.0
120
0.0
130
0.0
111
1.0
121
0.0
131
0.0
112
0.0
122
1.0
132
0.0
345
0
346
0
 79
         0
146
0.0
  0
ENDTAB
  0
TABLE
  2
LTYPE
  5
4
100
AcDbSymbolTable
 70
         9
  0
LTYPE
  5
11
100
AcDbSymbolTableRecord
100
AcDbLinetypeTableRecord
  2
ByBlock
 70
        64
  3

 72
        65
 73
         0
 40
0.0
  0
LTYPE
  5
12
100
AcDbSymbolTableRecord
100
AcDbLinetypeTableRecord
  2
ByLayer
 70
        64
  3

 72
        65
 73
         0
 40
0.0
  0
LTYPE
  5
13
100
AcDbSymbolTableRecord
100
AcDbLinetypeTableRecord
  2
Continuous
 70
        64
  3
Solid line
 72
        65
 73
         0
 40
0.0
  0
LTYPE
  5
24
100
AcDbSymbolTableRecord
100
AcDbLinetypeTableRecord
  2
CONTINUOUS
 70
        64
  3
Solid line
 72
        65
 73
         1
 40
60.96
 49
60.96
 74
         0
  0
LTYPE
  5
25
100
AcDbSymbolTableRecord
100
AcDbLinetypeTableRecord
  2
HIDDEN
 70
        64
  3
Hidden __ __ __ __ __ __ __ __ __ __ __ __ __ __
 72
        65
 73
         2
 40
1.905
 49
1.27
 74
         0
 49
-0.635
 74
         0
  0
LTYPE
  5
26
100
AcDbSymbolTableRecord
100
AcDbLinetypeTableRecord
  2
PHANTOM
 70
        64
  3
Phantom ______  __  __  ______  __  __  ______
 72
        65
 73
         6
 40
12.7
 49
6.35
 74
         0
 49
-1.27
 74
         0
 49
1.27
 74
         0
 49
-1.27
 74
         0
 49
1.27
 74
         0
 49
-1.27
 74
         0
  0
LTYPE
  5
27
100
AcDbSymbolTableRecord
100
AcDbLinetypeTableRecord
  2
CENTER
 70
        64
  3
Center ____ _ ____ _ ____ _ ____ _ ____ _ ____
 72
        65
 73
         4
 40
10.16
 49
6.35
 74
         0
 49
-1.27
 74
         0
 49
1.27
 74
         0
 49
-1.27
 74
         0
  0
LTYPE
  5
28
100
AcDbSymbolTableRecord
100
AcDbLinetypeTableRecord
  2
CENTERX2
 70
        64
  3
Center (2x) ________  __  ________  __  _____
 72
        65
 73
         4
 40
20.32
 49
12.7
 74
         0
 49
-2.54
 74
         0
 49
2.54
 74
         0
 49
-2.54
 74
         0
  0
LTYPE
  5
29
100
AcDbSymbolTableRecord
100
AcDbLinetypeTableRecord
  2
DOT2
 70
        64
  3
Dot (.5x) ........................................
 72
        65
 73
         2
 40
0.635
 49
0.0
 74
         0
 49
-0.635
 74
         0
  0
ENDTAB
  0
TABLE
  2
LAYER
  5
2
100
AcDbSymbolTable
 70
         1
  0
LAYER
  5
14
100
AcDbSymbolTableRecord
100
AcDbLayerTableRecord
  2
0
 70
         0
 62
         7
  6
Continuous
290
         1
370
        -3
390
1D
  0
ENDTAB
  0
TABLE
  2
STYLE
  5
3
100
AcDbSymbolTable
 70
         2
  0
STYLE
  5
17
100
AcDbSymbolTableRecord
100
AcDbTextStyleTableRecord
  2
Standard
 70
         0
 40
0.0
 41
1.0
 50
0.0
 71
         0
 42
0.0
  3
txt
  4

  0
STYLE
  5
59
100
AcDbSymbolTableRecord
100
AcDbTextStyleTableRecord
  2
SLDTEXTSTYLE0
 70
         0
 40
0.0
 41
0.75
 50
0.0
 71
         0
 42
0.0
  3
txt
  4

  0
ENDTAB
  0
TABLE
  2
VIEW
  5
5
100
AcDbSymbolTable
 70
         0
  0
ENDTAB
  0
TABLE
  2
UCS
  5
6
100
AcDbSymbolTable
 70
         0
  0
ENDTAB
  0
TABLE
  2
APPID
  5
8
100
AcDbSymbolTable
 70
         1
  0
APPID
  5
16
100
AcDbSymbolTableRecord
100
AcDbRegAppTableRecord
  2
ACAD
 70
         0
  0
ENDTAB
  0
TABLE
  2
DIMSTYLE
  5
9
100
AcDbSymbolTable
 70
        10
100
AcDbDimStyleTable
 71
         0
  0
DIMSTYLE
105
18
100
AcDbSymbolTableRecord
100
AcDbDimStyleTableRecord
  2
Standard
 70
         0
  3

  4

 40
1.0
 41
0.18
 42
0.0625
 43
0.38
 44
0.18
 45
0.0
 46
0.0
 47
0.0
 48
0.0
 71
         0
 72
         0
 73
         1
 74
         1
 75
         0
 76
         0
 77
         0
 78
         0
 79
         0
140
0.18
141
0.09
142
0.0
143
25.4
144
1.0
145
0.0
146
1.0
147
0.09
148
0.0
170
         0
171
         2
172
         0
173
         0
174
         0
175
         0
176
         0
177
         0
178
         0
179
         0
271
         4
272
         4
273
         2
274
         2
275
         0
276
         0
277
         2
278
        46
279
         0
280
         0
281
         0
282
         0
283
         1
284
         0
285
         0
286
         0
288
         0
340
17
341
0
342
0
343
0
344
0
371
        -2
372
        -2
  0
DIMSTYLE
105
4C
100
AcDbSymbolTableRecord
100
AcDbDimStyleTableRecord
  2
SLDDIMSTYLE0
 70
         0
  3

  4

 40
1.0
 41
3.0
 42
0.0625
 43
0.38
 44
0.0
 45
0.0
 46
0.0
 47
0.0
 48
0.0
 71
         0
 72
         0
 73
         1
 74
         1
 75
         0
 76
         0
 77
         0
 78
         0
 79
         0
140
6.0
141
0.09
142
0.0
143
25.4
144
1.0
145
0.0
146
1.0
147
1.5
148
0.0
170
         0
171
         2
172
         0
173
         1
174
         0
175
         0
176
         0
177
         0
178
         0
179
         0
271
         0
272
         0
273
         2
274
         2
275
         0
276
         0
277
         2
278
        46
279
         0
280
         0
281
         0
282
         0
283
         1
284
         0
285
         0
286
         0
288
         0
340
17
341
0
342
0
343
0
344
0
371
        -2
372
        -2
  0
DIMSTYLE
105
58
100
AcDbSymbolTableRecord
100
AcDbDimStyleTableRecord
  2
SLDDIMSTYLE1
 70
         0
  3

  4

 40
1.0
 41
1.0
 42
0.0625
 43
0.38
 44
0.0
 45
0.0
 46
0.0
 47
0.0
 48
0.0
 71
         0
 72
         0
 73
         1
 74
         1
 75
         0
 76
         0
 77
         0
 78
         0
 79
         0
140
6.0
141
0.09
142
0.0
143
25.4
144
1.0
145
0.0
146
1.0
147
1.5
148
0.0
170
         0
171
         2
172
         0
173
         1
174
         0
175
         0
176
         0
177
         0
178
         0
179
         0
271
         0
272
         0
273
         2
274
         2
275
         0
276
         0
277
         2
278
        46
279
         0
280
         0
281
         0
282
         0
283
         1
284
         0
285
         0
286
         0
288
         0
340
17
341
0
342
0
343
50
344
50
371
        -2
372
        -2
  0
DIMSTYLE
105
2A1
100
AcDbSymbolTableRecord
100
AcDbDimStyleTableRecord
  2
SLDDIMSTYLE2
 70
         0
  3

  4

 40
1.0
 41
3.0
 42
0.0625
 43
0.38
 44
1.0
 45
0.0
 46
0.0
 47
0.0
 48
0.0
 71
         0
 72
         0
 73
         1
 74
         1
 75
         0
 76
         0
 77
         0
 78
        12
 79
         0
140
3.5
141
0.09
142
0.0
143
25.4
144
1.0
145
0.0
146
1.0
147
0.875
148
0.0
170
         0
171
         2
172
         0
173
         1
174
         0
175
         0
176
       255
177
       255
178
       255
179
         0
271
         2
272
         4
273
         2
274
         2
275
         0
276
         0
277
         2
278
        46
279
         0
280
         0
281
         0
282
         0
283
         1
284
        12
285
         0
286
         0
288
         0
340
17
341
0
342
0
343
0
344
0
371
        -2
372
        -2
  0
DIMSTYLE
105
360
100
AcDbSymbolTableRecord
100
AcDbDimStyleTableRecord
  2
SLDDIMSTYLE3
 70
         0
  3

  4

 40
1.0
 41
3.0
 42
0.0625
 43
0.38
 44
1.0
 45
0.0
 46
0.0
 47
0.0
 48
0.0
 71
         0
 72
         0
 73
         1
 74
         1
 75
         0
 76
         0
 77
         0
 78
        12
 79
         0
140
3.5
141
0.09
142
0.0
143
25.4
144
1.0
145
0.0
146
1.0
147
0.875
148
0.0
170
         0
171
         2
172
         0
173
         1
174
         0
175
         0
176
       255
177
       255
178
       255
179
         0
271
         2
272
         4
273
         2
274
         2
275
         0
276
         0
277
         2
278
        46
279
         0
280
         0
281
         0
282
         0
283
         1
284
        12
285
         0
286
         0
288
         0
340
17
341
0
342
0
343
0
344
0
371
        -2
372
        -2
  0
DIMSTYLE
105
402
100
AcDbSymbolTableRecord
100
AcDbDimStyleTableRecord
  2
SLDDIMSTYLE4
 70
         0
  3

  4

 40
1.0
 41
3.0
 42
0.0625
 43
0.38
 44
1.0
 45
0.0
 46
0.0
 47
0.0
 48
0.0
 71
         0
 72
         0
 73
         1
 74
         1
 75
         0
 76
         0
 77
         0
 78
         8
 79
         0
140
3.5
141
0.09
142
0.0
143
25.4
144
1.0
145
0.0
146
1.0
147
0.875
148
0.0
170
         0
171
         2
172
         0
173
         1
174
         0
175
         0
176
       255
177
       255
178
       255
179
         0
271
         0
272
         4
273
         2
274
         2
275
         0
276
         0
277
         2
278
        46
279
         0
280
         0
281
         0
282
         0
283
         1
284
        12
285
         0
286
         0
288
         0
340
17
341
0
342
0
343
403
344
403
371
        -2
372
        -2
  0
DIMSTYLE
105
40E
100
AcDbSymbolTableRecord
100
AcDbDimStyleTableRecord
  2
SLDDIMSTYLE5
 70
         0
  3

  4

 40
1.0
 41
3.0
 42
0.0625
 43
0.38
 44
1.0
 45
0.0
 46
0.0
 47
0.0
 48
0.0
 71
         0
 72
         0
 73
         1
 74
         1
 75
         0
 76
         0
 77
         0
 78
        12
 79
         0
140
3.5
141
0.09
142
0.0
143
25.4
144
1.0
145
0.0
146
1.0
147
0.875
148
0.0
170
         0
171
         2
172
         0
173
         1
174
         0
175
         0
176
       255
177
       255
178
       255
179
         0
271
         2
272
         4
273
         2
274
         2
275
         0
276
         0
277
         2
278
        46
279
         0
280
         0
281
         0
282
         0
283
         1
284
        12
285
         0
286
         0
288
         0
340
17
341
0
342
0
343
403
344
403
371
        -2
372
        -2
  0
DIMSTYLE
105
433
100
AcDbSymbolTableRecord
100
AcDbDimStyleTableRecord
  2
SLDDIMSTYLE6
 70
         0
  3

  4

 40
1.0
 41
3.0
 42
0.0625
 43
0.38
 44
1.0
 45
0.0
 46
0.0
 47
0.0
 48
0.0
 71
         0
 72
         0
 73
         1
 74
         1
 75
         0
 76
         0
 77
         0
 78
        12
 79
         0
140
3.5
141
0.09
142
0.0
143
25.4
144
1.0
145
0.0
146
1.0
147
0.875
148
0.0
170
         0
171
         2
172
         1
173
         1
174
         0
175
         0
176
       255
177
       255
178
       255
179
         0
271
         2
272
         4
273
         2
274
         2
275
         0
276
         0
277
         2
278
        46
279
         0
280
         0
281
         0
282
         0
283
         1
284
        12
285
         0
286
         0
288
         0
340
17
341
0
342
0
343
0
344
0
371
        -2
372
        -2
  0
DIMSTYLE
105
4A5
100
AcDbSymbolTableRecord
100
AcDbDimStyleTableRecord
  2
SLDDIMSTYLE7
 70
         0
  3

  4

 40
1.0
 41
3.0
 42
0.0625
 43
0.38
 44
1.0
 45
0.0
 46
0.0
 47
0.0
 48
0.0
 71
         0
 72
         0
 73
         1
 74
         1
 75
         0
 76
         0
 77
         0
 78
         8
 79
         0
140
3.5
141
0.09
142
0.0
143
25.4
144
1.0
145
0.0
146
1.0
147
0.875
148
0.0
170
         0
171
         2
172
         0
173
         1
174
         0
175
         0
176
       255
177
       255
178
       255
179
         0
271
         0
272
         4
273
         2
274
         2
275
         0
276
         0
277
         2
278
        46
279
         0
280
         0
281
         0
282
         0
283
         1
284
        12
285
         0
286
         0
288
         0
340
17
341
0
342
0
343
403
344
403
371
        -2
372
        -2
  0
DIMSTYLE
105
4AE
100
AcDbSymbolTableRecord
100
AcDbDimStyleTableRecord
  2
SLDDIMSTYLE8
 70
         0
  3

  4

 40
1.0
 41
3.0
 42
0.0625
 43
0.38
 44
1.0
 45
0.0
 46
0.0
 47
0.0
 48
0.0
 71
         0
 72
         0
 73
         1
 74
         1
 75
         0
 76
         0
 77
         0
 78
        12
 79
         0
140
3.5
141
0.09
142
0.0
143
25.4
144
1.0
145
0.0
146
1.0
147
0.875
148
0.0
170
         0
171
         2
172
         0
173
         1
174
         0
175
         0
176
       255
177
       255
178
       255
179
         0
271
         2
272
         4
273
         2
274
         2
275
         0
276
         0
277
         2
278
        46
279
         0
280
         0
281
         0
282
         0
283
         1
284
        12
285
         0
286
         0
288
         0
340
17
341
0
342
0
343
403
344
403
371
        -2
372
        -2
  0
ENDTAB
  0
TABLE
  2
BLOCK_RECORD
  5
1
100
AcDbSymbolTable
 70
        31
  0
BLOCK_RECORD
  5
A
100
AcDbSymbolTableRecord
100
AcDbBlockTableRecord
  2
*MODEL_SPACE
340
20
  0
BLOCK_RECORD
  5
B
100
AcDbSymbolTableRecord
100
AcDbBlockTableRecord
  2
*PAPER_SPACE
340
21
  0
BLOCK_RECORD
  5
50
100
AcDbSymbolTableRecord
100
AcDbBlockTableRecord
  2
_DOT
340
0
  0
BLOCK_RECORD
  5
29A
100
AcDbSymbolTableRecord
100
AcDbBlockTableRecord
  2
*D1
340
0
  0
BLOCK_RECORD
  5
32D
100
AcDbSymbolTableRecord
100
AcDbBlockTableRecord
  2
*D2
340
0
  0
BLOCK_RECORD
  5
358
100
AcDbSymbolTableRecord
100
AcDbBlockTableRecord
  2
*D3
340
0
  0
BLOCK_RECORD
  5
365
100
AcDbSymbolTableRecord
100
AcDbBlockTableRecord
  2
*D4
340
0
  0
BLOCK_RECORD
  5
373
100
AcDbSymbolTableRecord
100
AcDbBlockTableRecord
  2
*D5
340
0
  0
BLOCK_RECORD
  5
381
100
AcDbSymbolTableRecord
100
AcDbBlockTableRecord
  2
*D6
340
0
  0
BLOCK_RECORD
  5
3FE
100
AcDbSymbolTableRecord
100
AcDbBlockTableRecord
  2
*D7
340
0
  0
BLOCK_RECORD
  5
403
100
AcDbSymbolTableRecord
100
AcDbBlockTableRecord
  2
_NONE
340
0
  0
BLOCK_RECORD
  5
40A
100
AcDbSymbolTableRecord
100
AcDbBlockTableRecord
  2
*D9
340
0
  0
BLOCK_RECORD
  5
413
100
AcDbSymbolTableRecord
100
AcDbBlockTableRecord
  2
*D10
340
0
  0
BLOCK_RECORD
  5
41B
100
AcDbSymbolTableRecord
100
AcDbBlockTableRecord
  2
*D11
340
0
  0
BLOCK_RECORD
  5
423
100
AcDbSymbolTableRecord
100
AcDbBlockTableRecord
  2
*D12
340
0
  0
BLOCK_RECORD
  5
42B
100
AcDbSymbolTableRecord
100
AcDbBlockTableRecord
  2
*D13
340
0
  0
BLOCK_RECORD
  5
438
100
AcDbSymbolTableRecord
100
AcDbBlockTableRecord
  2
*D14
340
0
  0
BLOCK_RECORD
  5
444
100
AcDbSymbolTableRecord
100
AcDbBlockTableRecord
  2
*D15
340
0
  0
BLOCK_RECORD
  5
4A1
100
AcDbSymbolTableRecord
100
AcDbBlockTableRecord
  2
*D16
340
0
  0
BLOCK_RECORD
  5
4AA
100
AcDbSymbolTableRecord
100
AcDbBlockTableRecord
  2
*D17
340
0
  0
BLOCK_RECORD
  5
4B3
100
AcDbSymbolTableRecord
100
AcDbBlockTableRecord
  2
*D18
340
0
  0
BLOCK_RECORD
  5
4BB
100
AcDbSymbolTableRecord
100
AcDbBlockTableRecord
  2
*D19
340
0
  0
BLOCK_RECORD
  5
4C3
100
AcDbSymbolTableRecord
100
AcDbBlockTableRecord
  2
*D20
340
0
  0
BLOCK_RECORD
  5
4CB
100
AcDbSymbolTableRecord
100
AcDbBlockTableRecord
  2
*D21
340
0
  0
BLOCK_RECORD
  5
4D3
100
AcDbSymbolTableRecord
100
AcDbBlockTableRecord
  2
*D22
340
0
  0
BLOCK_RECORD
  5
4DB
100
AcDbSymbolTableRecord
100
AcDbBlockTableRecord
  2
*D23
340
0
  0
BLOCK_RECORD
  5
4E3
100
AcDbSymbolTableRecord
100
AcDbBlockTableRecord
  2
*D24
340
0
  0
BLOCK_RECORD
  5
4EB
100
AcDbSymbolTableRecord
100
AcDbBlockTableRecord
  2
*D25
340
0
  0
BLOCK_RECORD
  5
4F3
100
AcDbSymbolTableRecord
100
AcDbBlockTableRecord
  2
*D26
340
0
  0
BLOCK_RECORD
  5
4FB
100
AcDbSymbolTableRecord
100
AcDbBlockTableRecord
  2
*D27
340
0
  0
BLOCK_RECORD
  5
6C2
100
AcDbSymbolTableRecord
100
AcDbBlockTableRecord
  2
*D28
340
0
  0
BLOCK_RECORD
  5
6CF
100
AcDbSymbolTableRecord
100
AcDbBlockTableRecord
  2
*D29
340
0
  0
BLOCK_RECORD
  5
6DB
100
AcDbSymbolTableRecord
100
AcDbBlockTableRecord
  2
*D30
340
0
  0
ENDTAB
  0
ENDSEC
  0
SECTION
  2
BLOCKS
  0
BLOCK
  5
D
100
AcDbEntity
  8
0
100
AcDbBlockBegin
  2
*MODEL_SPACE
 70
         0
 10
0.0
 20
0.0
 30
0.0
  3
*MODEL_SPACE
  1

  0
ENDBLK
  5
E
100
AcDbEntity
  8
0
100
AcDbBlockEnd
  0
BLOCK
  5
F
100
AcDbEntity
 67
         1
  8
0
100
AcDbBlockBegin
  2
*PAPER_SPACE
 70
         0
 10
0.0
 20
0.0
 30
0.0
  3
*PAPER_SPACE
  1

  0
ENDBLK
  5
10
100
AcDbEntity
 67
         1
  8
0
100
AcDbBlockEnd
  0
BLOCK
  5
51
100
AcDbEntity
  8
0
100
AcDbBlockBegin
  2
_DOT
 70
         0
 10
0.0
 20
0.0
 30
0.0
  3
_DOT
  1

  0
POLYLINE
  5
52
100
AcDbEntity
  8
0
100
AcDb2dPolyline
 66
         1
 10
0.0
 20
0.0
 30
0.0
 70
         1
 40
0.5
 41
0.5
  0
VERTEX
  5
53
100
AcDbEntity
  8
0
100
AcDbVertex
100
AcDb2dVertex
 10
-0.25
 20
0.0
 30
0.0
 42
1.0
  0
VERTEX
  5
54
100
AcDbEntity
  8
0
100
AcDbVertex
100
AcDb2dVertex
 10
0.25
 20
0.0
 30
0.0
 42
1.0
  0
SEQEND
  5
55
100
AcDbEntity
  8
0
  0
LINE
  5
56
100
AcDbEntity
  8
0
100
AcDbLine
 10
-0.5
 20
0.0
 30
0.0
 11
-1.0
 21
0.0
 31
0.0
  0
ENDBLK
  5
57
100
AcDbEntity
  8
0
100
AcDbBlockEnd
  0
BLOCK
  5
29B
100
AcDbEntity
  8
0
 62
       255
100
AcDbBlockBegin
  2
*D1
 70
         1
 10
0.0
 20
0.0
 30
0.0
  3
*D1
  1

  0
MTEXT
  5
29C
100
AcDbEntity
  8
0
 62
         7
100
AcDbMText
 10
211.3319743101
 20
200.5394207018
 30
0.0
 40
3.5
 41
0.0
 71
         7
 72
         1
  1
8
  7
SLDTEXTSTYLE0
 11
0.8278603811
 21
-0.5609342113
 31
0.0
 73
         1
 44
1.0
  0
LINE
  5
29D
100
AcDbEntity
  8
0
100
AcDbLine
 10
184.3985985441
 20
216.9767961379
 30
0.0
 11
213.9448403817
 21
196.957118617
 31
0.0
  0
LINE
  5
29E
100
AcDbEntity
  8
0
100
AcDbLine
 10
184.3985985441
 20
216.9767961379
 30
0.0
 11
177.7757154953
 21
221.4642698283
 31
0.0
  0
SOLID
  5
29F
100
AcDbEntity
  8
0
 62
       255
100
AcDbTrace
 10
184.3985985441
 20
216.9767961379
 30
0.0
 11
182.1674377958
 21
219.0321359433
 31
0.0
 12
181.6625970057
 22
218.2870616003
 32
0.0
 13
181.6625970057
 23
218.2870616003
 33
0.0
  0
SOLID
  5
2A0
100
AcDbEntity
  8
0
 62
       255
100
AcDbTrace
 10
177.7757154953
 20
221.4642698283
 30
0.0
 11
180.0068762435
 21
219.4089300229
 31
0.0
 12
180.5117170336
 22
220.1540043659
 32
0.0
 13
180.5117170336
 23
220.1540043659
 33
0.0
  0
POINT
  5
2A2
100
AcDbEntity
  8
0
 62
         7
100
AcDbPoint
 10
189.3536780804
 20
224.2897999639
 30
0.0
  0
POINT
  5
2A3
100
AcDbEntity
  8
0
 62
         7
100
AcDbPoint
 10
182.7307950316
 20
228.7772736543
 30
0.0
  0
ENDBLK
  5
2A4
100
AcDbEntity
  8
0
 62
       255
100
AcDbBlockEnd
  0
BLOCK
  5
32E
100
AcDbEntity
  8
0
 62
       255
100
AcDbBlockBegin
  2
*D2
 70
         1
 10
0.0
 20
0.0
 30
0.0
  3
*D2
  1

  0
MTEXT
  5
32F
100
AcDbEntity
  8
0
 62
         7
100
AcDbMText
 10
17.3084057521
 20
161.9675738868
 30
0.0
 40
3.5
 41
0.0
 71
         7
 72
         1
  1
12,50
  7
SLDTEXTSTYLE0
 11
1.0
 21
0.0
 31
0.0
 73
         1
 44
1.0
  0
LINE
  5
330
100
AcDbEntity
  8
0
100
AcDbLine
 10
37.2001198472
 20
168.0335368091
 30
0.0
 11
37.2001198472
 21
159.4675738868
 31
0.0
  0
LINE
  5
331
100
AcDbEntity
  8
0
100
AcDbLine
 10
49.7001198472
 20
160.4675738868
 30
0.0
 11
37.2001198472
 21
160.4675738868
 31
0.0
  0
LINE
  5
332
100
AcDbEntity
  8
0
100
AcDbLine
 10
37.2001198472
 20
160.4675738868
 30
0.0
 11
15.7209057521
 21
160.4675738868
 31
0.0
  0
SOLID
  5
333
100
AcDbEntity
  8
0
 62
       255
100
AcDbTrace
 10
49.7001198472
 20
160.4675738868
 30
0.0
 11
46.7001198472
 21
160.9175738868
 31
0.0
 12
46.7001198472
 22
160.0175738868
 32
0.0
 13
46.7001198472
 23
160.0175738868
 33
0.0
  0
SOLID
  5
334
100
AcDbEntity
  8
0
 62
       255
100
AcDbTrace
 10
37.2001198472
 20
160.4675738868
 30
0.0
 11
40.2001198472
 21
160.0175738868
 31
0.0
 12
40.2001198472
 22
160.9175738868
 32
0.0
 13
40.2001198472
 23
160.9175738868
 33
0.0
  0
POINT
  5
335
100
AcDbEntity
  8
0
 62
         7
100
AcDbPoint
 10
49.7001198472
 20
174.3959322404
 30
0.0
  0
POINT
  5
336
100
AcDbEntity
  8
0
 62
         7
100
AcDbPoint
 10
37.2001198472
 20
169.0335368091
 30
0.0
  0
ENDBLK
  5
337
100
AcDbEntity
  8
0
 62
       255
100
AcDbBlockEnd
  0
BLOCK
  5
359
100
AcDbEntity
  8
0
 62
       255
100
AcDbBlockBegin
  2
*D3
 70
         1
 10
0.0
 20
0.0
 30
0.0
  3
*D3
  1

  0
MTEXT
  5
35A
100
AcDbEntity
  8
0
 62
         7
100
AcDbMText
 10
266.2268254313
 20
91.5200010379
 30
0.0
 40
3.5
 41
0.0
 71
         7
 72
         1
  1
R
  7
SLDTEXTSTYLE0
 73
         1
 44
1.0
  0
MTEXT
  5
35B
100
AcDbEntity
  8
0
 62
         7
100
AcDbMText
 10
269.0570182024
 20
91.5200010379
 30
0.0
 40
3.5
 41
0.0
 71
         7
 72
         1
  1
4
  7
SLDTEXTSTYLE0
 73
         1
 44
1.0
  0
LINE
  5
35C
100
AcDbEntity
  8
0
100
AcDbLine
 10
258.2552834161
 20
78.4148138821
 30
0.0
 11
263.0518254313
 21
90.0200010379
 31
0.0
  0
LINE
  5
35D
100
AcDbEntity
  8
0
100
AcDbLine
 10
256.7274006042
 20
74.7181161512
 30
0.0
 11
258.2552834161
 21
78.4148138821
 31
0.0
  0
LINE
  5
35E
100
AcDbEntity
  8
0
100
AcDbLine
 10
263.0518254313
 20
90.0200010379
 30
0.0
 11
273.2295422988
 21
90.0200010379
 31
0.0
  0
SOLID
  5
35F
100
AcDbEntity
  8
0
 62
       255
100
AcDbTrace
 10
258.2552834161
 20
78.4148138821
 30
0.0
 11
259.8170740197
 21
81.0154503639
 31
0.0
 12
258.9853170302
 22
81.3592239965
 32
0.0
 13
258.9853170302
 23
81.3592239965
 33
0.0
  0
POINT
  5
361
100
AcDbEntity
  8
0
 62
         7
100
AcDbPoint
 10
258.2552834161
 20
78.4148138821
 30
0.0
  0
POINT
  5
362
100
AcDbEntity
  8
0
 62
         7
100
AcDbPoint
 10
256.7274006042
 20
74.7181161512
 30
0.0
  0
ENDBLK
  5
363
100
AcDbEntity
  8
0
100
AcDbBlockEnd
  0
BLOCK
  5
366
100
AcDbEntity
  8
0
 62
       255
100
AcDbBlockBegin
  2
*D4
 70
         1
 10
0.0
 20
0.0
 30
0.0
  3
*D4
  1

  0
MTEXT
  5
367
100
AcDbEntity
  8
0
 62
         7
100
AcDbMText
 10
230.0623627774
 20
66.9256125608
 30
0.0
 40
3.5
 41
0.0
 71
         7
 72
         1
  1
12,50
  7
SLDTEXTSTYLE0
 11
0.0
 21
1.0
 31
0.0
 73
         1
 44
1.0
  0
LINE
  5
368
100
AcDbEntity
  8
0
100
AcDbLine
 10
261.1334574983
 20
78.7181161512
 30
0.0
 11
230.5623627774
 21
78.7181161512
 31
0.0
  0
LINE
  5
369
100
AcDbEntity
  8
0
100
AcDbLine
 10
301.7274006042
 20
66.2181161512
 30
0.0
 11
230.5623627774
 21
66.2181161512
 31
0.0
  0
LINE
  5
36A
100
AcDbEntity
  8
0
100
AcDbLine
 10
231.5623627774
 20
78.7181161512
 30
0.0
 11
231.5623627774
 21
83.7181161512
 31
0.0
  0
LINE
  5
36B
100
AcDbEntity
  8
0
100
AcDbLine
 10
231.5623627774
 20
78.7181161512
 30
0.0
 11
231.5623627774
 21
66.2181161512
 31
0.0
  0
LINE
  5
36C
100
AcDbEntity
  8
0
100
AcDbLine
 10
231.5623627774
 20
66.2181161512
 30
0.0
 11
231.5623627774
 21
61.2181161512
 31
0.0
  0
SOLID
  5
36D
100
AcDbEntity
  8
0
 62
       255
100
AcDbTrace
 10
231.5623627774
 20
78.7181161512
 30
0.0
 11
232.0123627774
 21
81.7181161512
 31
0.0
 12
231.1123627774
 22
81.7181161512
 32
0.0
 13
231.1123627774
 23
81.7181161512
 33
0.0
  0
SOLID
  5
36E
100
AcDbEntity
  8
0
 62
       255
100
AcDbTrace
 10
231.5623627774
 20
66.2181161512
 30
0.0
 11
231.1123627774
 21
63.2181161512
 31
0.0
 12
232.0123627774
 22
63.2181161512
 32
0.0
 13
232.0123627774
 23
63.2181161512
 33
0.0
  0
POINT
  5
36F
100
AcDbEntity
  8
0
 62
         7
100
AcDbPoint
 10
302.7274006042
 20
78.7181161512
 30
0.0
  0
POINT
  5
370
100
AcDbEntity
  8
0
 62
         7
100
AcDbPoint
 10
302.7274006042
 20
66.2181161512
 30
0.0
  0
ENDBLK
  5
371
100
AcDbEntity
  8
0
 62
       255
100
AcDbBlockEnd
  0
BLOCK
  5
374
100
AcDbEntity
  8
0
 62
       255
100
AcDbBlockBegin
  2
*D5
 70
         1
 10
0.0
 20
0.0
 30
0.0
  3
*D5
  1

  0
MTEXT
  5
375
100
AcDbEntity
  8
0
 62
         7
100
AcDbMText
 10
310.5730099015
 20
70.1558173801
 30
0.0
 40
3.5
 41
0.0
 71
         7
 72
         1
  1
15
  7
SLDTEXTSTYLE0
 11
0.0
 21
1.0
 31
0.0
 73
         1
 44
1.0
  0
LINE
  5
376
100
AcDbEntity
  8
0
100
AcDbLine
 10
303.7274006042
 20
81.2181161512
 30
0.0
 11
313.0730099015
 21
81.2181161512
 31
0.0
  0
LINE
  5
377
100
AcDbEntity
  8
0
100
AcDbLine
 10
303.7274006042
 20
66.2181161512
 30
0.0
 11
313.0730099015
 21
66.2181161512
 31
0.0
  0
LINE
  5
378
100
AcDbEntity
  8
0
100
AcDbLine
 10
312.0730099015
 20
81.2181161512
 30
0.0
 11
312.0730099015
 21
86.2181161512
 31
0.0
  0
LINE
  5
379
100
AcDbEntity
  8
0
100
AcDbLine
 10
312.0730099015
 20
81.2181161512
 30
0.0
 11
312.0730099015
 21
66.2181161512
 31
0.0
  0
LINE
  5
37A
100
AcDbEntity
  8
0
100
AcDbLine
 10
312.0730099015
 20
66.2181161512
 30
0.0
 11
312.0730099015
 21
61.2181161512
 31
0.0
  0
SOLID
  5
37B
100
AcDbEntity
  8
0
 62
       255
100
AcDbTrace
 10
312.0730099015
 20
81.2181161512
 30
0.0
 11
312.5230099015
 21
84.2181161512
 31
0.0
 12
311.6230099015
 22
84.2181161512
 32
0.0
 13
311.6230099015
 23
84.2181161512
 33
0.0
  0
SOLID
  5
37C
100
AcDbEntity
  8
0
 62
       255
100
AcDbTrace
 10
312.0730099015
 20
66.2181161512
 30
0.0
 11
311.6230099015
 21
63.2181161512
 31
0.0
 12
312.5230099015
 22
63.2181161512
 32
0.0
 13
312.5230099015
 23
63.2181161512
 33
0.0
  0
POINT
  5
37D
100
AcDbEntity
  8
0
 62
         7
100
AcDbPoint
 10
302.7274006042
 20
81.2181161512
 30
0.0
  0
POINT
  5
37E
100
AcDbEntity
  8
0
 62
         7
100
AcDbPoint
 10
302.7274006042
 20
66.2181161512
 30
0.0
  0
ENDBLK
  5
37F
100
AcDbEntity
  8
0
 62
       255
100
AcDbBlockEnd
  0
BLOCK
  5
382
100
AcDbEntity
  8
0
 62
       255
100
AcDbBlockBegin
  2
*D6
 70
         1
 10
0.0
 20
0.0
 30
0.0
  3
*D6
  1

  0
MTEXT
  5
383
100
AcDbEntity
  8
0
 62
         7
100
AcDbMText
 10
265.140504333
 20
61.4678902948
 30
0.0
 40
3.5
 41
0.0
 71
         7
 72
         1
  1
8
  7
SLDTEXTSTYLE0
 11
1.0
 21
0.0
 31
0.0
 73
         1
 44
1.0
  0
LINE
  5
384
100
AcDbEntity
  8
0
100
AcDbLine
 10
260.7274006042
 20
65.2181161512
 30
0.0
 11
260.7274006042
 21
58.9678902948
 31
0.0
  0
LINE
  5
385
100
AcDbEntity
  8
0
100
AcDbLine
 10
252.7274006042
 20
65.2181161512
 30
0.0
 11
252.7274006042
 21
58.9678902948
 31
0.0
  0
LINE
  5
386
100
AcDbEntity
  8
0
100
AcDbLine
 10
260.7274006042
 20
59.9678902948
 30
0.0
 11
269.3130284294
 21
59.9678902948
 31
0.0
  0
LINE
  5
387
100
AcDbEntity
  8
0
100
AcDbLine
 10
260.7274006042
 20
59.9678902948
 30
0.0
 11
252.7274006042
 21
59.9678902948
 31
0.0
  0
SOLID
  5
388
100
AcDbEntity
  8
0
 62
       255
100
AcDbTrace
 10
260.7274006042
 20
59.9678902948
 30
0.0
 11
257.7274006042
 21
60.4178902948
 31
0.0
 12
257.7274006042
 22
59.5178902948
 32
0.0
 13
257.7274006042
 23
59.5178902948
 33
0.0
  0
SOLID
  5
389
100
AcDbEntity
  8
0
 62
       255
100
AcDbTrace
 10
252.7274006042
 20
59.9678902948
 30
0.0
 11
255.7274006042
 21
59.5178902948
 31
0.0
 12
255.7274006042
 22
60.4178902948
 32
0.0
 13
255.7274006042
 23
60.4178902948
 33
0.0
  0
POINT
  5
38A
100
AcDbEntity
  8
0
 62
         7
100
AcDbPoint
 10
260.7274006042
 20
66.2181161512
 30
0.0
  0
POINT
  5
38B
100
AcDbEntity
  8
0
 62
         7
100
AcDbPoint
 10
252.7274006042
 20
66.2181161512
 30
0.0
  0
ENDBLK
  5
38C
100
AcDbEntity
  8
0
 62
       255
100
AcDbBlockEnd
  0
BLOCK
  5
3FF
100
AcDbEntity
  8
0
 62
       255
100
AcDbBlockBegin
  2
*D7
 70
         1
 10
0.0
 20
0.0
 30
0.0
  3
*D7
  1

  0
MTEXT
  5
400
100
AcDbEntity
  8
0
 62
         7
100
AcDbMText
 10
275.1897594349
 20
99.2549584959
 30
0.0
 40
3.5
 41
0.0
 71
         7
 72
         1
  1
0
  7
SLDTEXTSTYLE0
 73
         1
 44
1.0
  0
LINE
  5
401
100
AcDbEntity
  8
0
100
AcDbLine
 10
264.179162235
 20
100.5335368091
 30
0.0
 11
273.6022594349
 21
100.5335368091
 31
0.0
  0
POINT
  5
406
100
AcDbEntity
  8
0
 62
         7
100
AcDbPoint
 10
263.179162235
 20
100.5335368091
 30
0.0
  0
POINT
  5
407
100
AcDbEntity
  8
0
 62
         7
100
AcDbPoint
 10
273.6022594349
 20
100.5335368091
 30
0.0
  0
ENDBLK
  5
408
100
AcDbEntity
  8
0
100
AcDbBlockEnd
  0
BLOCK
  5
404
100
AcDbEntity
  8
0
100
AcDbBlockBegin
  2
_NONE
 70
         0
 10
0.0
 20
0.0
 30
0.0
  3
_NONE
  1

  0
ENDBLK
  5
405
100
AcDbEntity
  8
0
100
AcDbBlockEnd
  0
BLOCK
  5
40B
100
AcDbEntity
  8
0
 62
       255
100
AcDbBlockBegin
  2
*D9
 70
         1
 10
0.0
 20
0.0
 30
0.0
  3
*D9
  1

  0
MTEXT
  5
40C
100
AcDbEntity
  8
0
 62
         7
100
AcDbMText
 10
275.1897594349
 20
136.2549584959
 30
0.0
 40
3.5
 41
0.0
 71
         7
 72
         1
  1
37
  7
SLDTEXTSTYLE0
 73
         1
 44
1.0
  0
LINE
  5
40D
100
AcDbEntity
  8
0
100
AcDbLine
 10
264.179162235
 20
137.5335368091
 30
0.0
 11
273.6022594349
 21
137.5335368091
 31
0.0
  0
POINT
  5
40F
100
AcDbEntity
  8
0
 62
         7
100
AcDbPoint
 10
263.179162235
 20
137.5335368091
 30
0.0
  0
POINT
  5
410
100
AcDbEntity
  8
0
 62
         7
100
AcDbPoint
 10
273.6022594349
 20
137.5335368091
 30
0.0
  0
ENDBLK
  5
411
100
AcDbEntity
  8
0
100
AcDbBlockEnd
  0
BLOCK
  5
414
100
AcDbEntity
  8
0
 62
       255
100
AcDbBlockBegin
  2
*D10
 70
         1
 10
0.0
 20
0.0
 30
0.0
  3
*D10
  1

  0
MTEXT
  5
415
100
AcDbEntity
  8
0
 62
         7
100
AcDbMText
 10
275.1897594349
 20
151.2549584959
 30
0.0
 40
3.5
 41
0.0
 71
         7
 72
         1
  1
52
  7
SLDTEXTSTYLE0
 73
         1
 44
1.0
  0
LINE
  5
416
100
AcDbEntity
  8
0
100
AcDbLine
 10
264.179162235
 20
152.5335368091
 30
0.0
 11
273.6022594349
 21
152.5335368091
 31
0.0
  0
POINT
  5
417
100
AcDbEntity
  8
0
 62
         7
100
AcDbPoint
 10
263.179162235
 20
152.5335368091
 30
0.0
  0
POINT
  5
418
100
AcDbEntity
  8
0
 62
         7
100
AcDbPoint
 10
273.6022594349
 20
152.5335368091
 30
0.0
  0
ENDBLK
  5
419
100
AcDbEntity
  8
0
100
AcDbBlockEnd
  0
BLOCK
  5
41C
100
AcDbEntity
  8
0
 62
       255
100
AcDbBlockBegin
  2
*D11
 70
         1
 10
0.0
 20
0.0
 30
0.0
  3
*D11
  1

  0
MTEXT
  5
41D
100
AcDbEntity
  8
0
 62
         7
100
AcDbMText
 10
275.1897594349
 20
166.2549584959
 30
0.0
 40
3.5
 41
0.0
 71
         7
 72
         1
  1
67
  7
SLDTEXTSTYLE0
 73
         1
 44
1.0
  0
LINE
  5
41E
100
AcDbEntity
  8
0
100
AcDbLine
 10
264.179162235
 20
167.5335368091
 30
0.0
 11
273.6022594349
 21
167.5335368091
 31
0.0
  0
POINT
  5
41F
100
AcDbEntity
  8
0
 62
         7
100
AcDbPoint
 10
263.179162235
 20
167.5335368091
 30
0.0
  0
POINT
  5
420
100
AcDbEntity
  8
0
 62
         7
100
AcDbPoint
 10
273.6022594349
 20
167.5335368091
 30
0.0
  0
ENDBLK
  5
421
100
AcDbEntity
  8
0
100
AcDbBlockEnd
  0
BLOCK
  5
424
100
AcDbEntity
  8
0
 62
       255
100
AcDbBlockBegin
  2
*D12
 70
         1
 10
0.0
 20
0.0
 30
0.0
  3
*D12
  1

  0
MTEXT
  5
425
100
AcDbEntity
  8
0
 62
         7
100
AcDbMText
 10
275.1897594349
 20
239.2549584959
 30
0.0
 40
3.5
 41
0.0
 71
         7
 72
         1
  1
140
  7
SLDTEXTSTYLE0
 73
         1
 44
1.0
  0
LINE
  5
426
100
AcDbEntity
  8
0
100
AcDbLine
 10
264.179162235
 20
240.5335368091
 30
0.0
 11
273.6022594349
 21
240.5335368091
 31
0.0
  0
POINT
  5
427
100
AcDbEntity
  8
0
 62
         7
100
AcDbPoint
 10
263.179162235
 20
240.5335368091
 30
0.0
  0
POINT
  5
428
100
AcDbEntity
  8
0
 62
         7
100
AcDbPoint
 10
273.6022594349
 20
240.5335368091
 30
0.0
  0
ENDBLK
  5
429
100
AcDbEntity
  8
0
100
AcDbBlockEnd
  0
BLOCK
  5
42C
100
AcDbEntity
  8
0
 62
       255
100
AcDbBlockBegin
  2
*D13
 70
         1
 10
0.0
 20
0.0
 30
0.0
  3
*D13
  1

  0
MTEXT
  5
42D
100
AcDbEntity
  8
0
 62
         7
100
AcDbMText
 10
275.9139125159
 20
174.6828137259
 30
0.0
 40
3.5
 41
0.0
 71
         7
 72
         1
  1
%%c
  7
SLDTEXTSTYLE0
 73
         1
 44
1.0
  0
MTEXT
  5
42E
100
AcDbEntity
  8
0
 62
         7
100
AcDbMText
 10
280.9119125159
 20
174.6828137259
 30
0.0
 40
3.5
 41
0.0
 71
         7
 72
         1
  1
3
  7
SLDTEXTSTYLE0
 73
         1
 44
1.0
  0
LINE
  5
42F
100
AcDbEntity
  8
0
100
AcDbLine
 10
264.4705322916
 20
168.2966641752
 30
0.0
 11
272.7389125159
 21
173.1828137259
 31
0.0
  0
LINE
  5
430
100
AcDbEntity
  8
0
100
AcDbLine
 10
261.8877921783
 20
166.7704094431
 30
0.0
 11
264.4705322916
 21
168.2966641752
 31
0.0
  0
LINE
  5
431
100
AcDbEntity
  8
0
100
AcDbLine
 10
272.7389125159
 20
173.1828137259
 30
0.0
 11
285.0844366123
 21
173.1828137259
 31
0.0
  0
SOLID
  5
432
100
AcDbEntity
  8
0
 62
       255
100
AcDbTrace
 10
264.4705322916
 20
168.2966641752
 30
0.0
 11
267.2822106147
 21
169.4355078903
 31
0.0
 12
266.8243341951
 22
170.2103299243
 32
0.0
 13
266.8243341951
 23
170.2103299243
 33
0.0
  0
POINT
  5
434
100
AcDbEntity
  8
0
 62
         7
100
AcDbPoint
 10
264.4705322916
 20
168.2966641752
 30
0.0
  0
POINT
  5
435
100
AcDbEntity
  8
0
 62
         7
100
AcDbPoint
 10
261.8877921783
 20
166.7704094431
 30
0.0
  0
ENDBLK
  5
436
100
AcDbEntity
  8
0
100
AcDbBlockEnd
  0
BLOCK
  5
439
100
AcDbEntity
  8
0
 62
       255
100
AcDbBlockBegin
  2
*D14
 70
         1
 10
0.0
 20
0.0
 30
0.0
  3
*D14
  1

  0
MTEXT
  5
43A
100
AcDbEntity
  8
0
 62
         7
100
AcDbMText
 10
271.4192920492
 20
160.3025929463
 30
0.0
 40
3.5
 41
0.0
 71
         7
 72
         1
  1
%%c
  7
SLDTEXTSTYLE0
 73
         1
 44
1.0
  0
MTEXT
  5
43B
100
AcDbEntity
  8
0
 62
         7
100
AcDbMText
 10
276.4172920492
 20
160.3025929463
 30
0.0
 40
3.5
 41
0.0
 71
         7
 72
         1
  1
8
  7
SLDTEXTSTYLE0
 73
         1
 44
1.0
  0
LINE
  5
43C
100
AcDbEntity
  8
0
100
AcDbLine
 10
265.6930096476
 20
155.6448984381
 30
0.0
 11
268.2442920492
 21
158.8025929463
 31
0.0
  0
LINE
  5
43D
100
AcDbEntity
  8
0
100
AcDbLine
 10
260.6653148224
 20
149.4221751801
 30
0.0
 11
265.6930096476
 21
155.6448984381
 31
0.0
  0
LINE
  5
43E
100
AcDbEntity
  8
0
100
AcDbLine
 10
268.2442920492
 20
158.8025929463
 30
0.0
 11
280.5898161456
 21
158.8025929463
 31
0.0
  0
SOLID
  5
43F
100
AcDbEntity
  8
0
 62
       255
100
AcDbTrace
 10
265.6930096476
 20
155.6448984381
 30
0.0
 11
267.9284233903
 21
157.6956118259
 31
0.0
 12
267.2283670237
 22
158.2612274937
 32
0.0
 13
267.2283670237
 23
158.2612274937
 33
0.0
  0
POINT
  5
440
100
AcDbEntity
  8
0
 62
         7
100
AcDbPoint
 10
265.6930096476
 20
155.6448984381
 30
0.0
  0
POINT
  5
441
100
AcDbEntity
  8
0
 62
         7
100
AcDbPoint
 10
260.6653148224
 20
149.4221751801
 30
0.0
  0
ENDBLK
  5
442
100
AcDbEntity
  8
0
100
AcDbBlockEnd
  0
BLOCK
  5
445
100
AcDbEntity
  8
0
 62
       255
100
AcDbBlockBegin
  2
*D15
 70
         1
 10
0.0
 20
0.0
 30
0.0
  3
*D15
  1

  0
MTEXT
  5
446
100
AcDbEntity
  8
0
 62
         7
100
AcDbMText
 10
273.9845377389
 20
128.9507128204
 30
0.0
 40
3.5
 41
0.0
 71
         7
 72
         1
  1
%%c
  7
SLDTEXTSTYLE0
 73
         1
 44
1.0
  0
MTEXT
  5
447
100
AcDbEntity
  8
0
 62
         7
100
AcDbMText
 10
278.9825377389
 20
128.9507128204
 30
0.0
 40
3.5
 41
0.0
 71
         7
 72
         1
  1
3
  7
SLDTEXTSTYLE0
 73
         1
 44
1.0
  0
LINE
  5
448
100
AcDbEntity
  8
0
100
AcDbLine
 10
264.0843360705
 20
136.3374346699
 30
0.0
 11
270.8095377389
 21
127.4507128204
 31
0.0
  0
LINE
  5
449
100
AcDbEntity
  8
0
100
AcDbLine
 10
262.2739883994
 20
138.7296389483
 30
0.0
 11
264.0843360705
 21
136.3374346699
 31
0.0
  0
LINE
  5
44A
100
AcDbEntity
  8
0
100
AcDbLine
 10
270.8095377389
 20
127.4507128204
 30
0.0
 11
283.1550618353
 21
127.4507128204
 31
0.0
  0
ARC
  5
44B
100
AcDbEntity
  8
0
100
AcDbCircle
 10
263.179162235
 20
137.5335368091
 30
0.0
 40
1.5
100
AcDbArc
 50
303.690067526
 51
340.8073990988
  0
SOLID
  5
44C
100
AcDbEntity
  8
0
 62
       255
100
AcDbTrace
 10
264.0843360705
 20
136.3374346699
 30
0.0
 11
265.5358530999
 21
133.6736782408
 31
0.0
 12
266.2535143834
 22
134.2167825422
 32
0.0
 13
266.2535143834
 23
134.2167825422
 33
0.0
  0
POINT
  5
44D
100
AcDbEntity
  8
0
 62
         7
100
AcDbPoint
 10
264.0843360705
 20
136.3374346699
 30
0.0
  0
POINT
  5
44E
100
AcDbEntity
  8
0
 62
         7
100
AcDbPoint
 10
262.2739883994
 20
138.7296389483
 30
0.0
  0
ENDBLK
  5
44F
100
AcDbEntity
  8
0
100
AcDbBlockEnd
  0
BLOCK
  5
4A2
100
AcDbEntity
  8
0
 62
       255
100
AcDbBlockBegin
  2
*D16
 70
         1
 10
0.0
 20
0.0
 30
0.0
  3
*D16
  1

  0
MTEXT
  5
4A3
100
AcDbEntity
  8
0
 62
         7
100
AcDbMText
 10
324.7763239965
 20
90.2829866523
 30
0.0
 40
3.5
 41
0.0
 71
         7
 72
         1
  1
0
  7
SLDTEXTSTYLE0
 11
0.0
 21
1.0
 31
0.0
 73
         1
 44
1.0
  0
LINE
  5
4A4
100
AcDbEntity
  8
0
100
AcDbLine
 10
323.4977456832
 20
99.5335368091
 30
0.0
 11
323.4977456832
 21
94.4555107487
 31
0.0
  0
POINT
  5
4A6
100
AcDbEntity
  8
0
 62
         7
100
AcDbPoint
 10
323.4977456832
 20
100.5335368091
 30
0.0
  0
POINT
  5
4A7
100
AcDbEntity
  8
0
 62
         7
100
AcDbPoint
 10
323.4977456832
 20
94.4555107487
 30
0.0
  0
ENDBLK
  5
4A8
100
AcDbEntity
  8
0
100
AcDbBlockEnd
  0
BLOCK
  5
4AB
100
AcDbEntity
  8
0
 62
       255
100
AcDbBlockBegin
  2
*D17
 70
         1
 10
0.0
 20
0.0
 30
0.0
  3
*D17
  1

  0
MTEXT
  5
4AC
100
AcDbEntity
  8
0
 62
         7
100
AcDbMText
 10
333.7763239965
 20
90.2829866523
 30
0.0
 40
3.5
 41
0.0
 71
         7
 72
         1
  1
9
  7
SLDTEXTSTYLE0
 11
0.0
 21
1.0
 31
0.0
 73
         1
 44
1.0
  0
LINE
  5
4AD
100
AcDbEntity
  8
0
100
AcDbLine
 10
332.4977456832
 20
108.5335368091
 30
0.0
 11
332.4977456832
 21
94.4555107487
 31
0.0
  0
POINT
  5
4AF
100
AcDbEntity
  8
0
 62
         7
100
AcDbPoint
 10
332.4977456832
 20
109.5335368091
 30
0.0
  0
POINT
  5
4B0
100
AcDbEntity
  8
0
 62
         7
100
AcDbPoint
 10
332.4977456832
 20
94.4555107487
 30
0.0
  0
ENDBLK
  5
4B1
100
AcDbEntity
  8
0
100
AcDbBlockEnd
  0
BLOCK
  5
4B4
100
AcDbEntity
  8
0
 62
       255
100
AcDbBlockBegin
  2
*D18
 70
         1
 10
0.0
 20
0.0
 30
0.0
  3
*D18
  1

  0
MTEXT
  5
4B5
100
AcDbEntity
  8
0
 62
         7
100
AcDbMText
 10
354.7763239965
 20
87.697962556
 30
0.0
 40
3.5
 41
0.0
 71
         7
 72
         1
  1
30
  7
SLDTEXTSTYLE0
 11
0.0
 21
1.0
 31
0.0
 73
         1
 44
1.0
  0
LINE
  5
4B6
100
AcDbEntity
  8
0
100
AcDbLine
 10
353.4977456832
 20
224.5335368091
 30
0.0
 11
353.4977456832
 21
94.4555107487
 31
0.0
  0
POINT
  5
4B7
100
AcDbEntity
  8
0
 62
         7
100
AcDbPoint
 10
353.4977456832
 20
225.5335368091
 30
0.0
  0
POINT
  5
4B8
100
AcDbEntity
  8
0
 62
         7
100
AcDbPoint
 10
353.4977456832
 20
94.4555107487
 30
0.0
  0
ENDBLK
  5
4B9
100
AcDbEntity
  8
0
100
AcDbBlockEnd
  0
BLOCK
  5
4BC
100
AcDbEntity
  8
0
 62
       255
100
AcDbBlockBegin
  2
*D19
 70
         1
 10
0.0
 20
0.0
 30
0.0
  3
*D19
  1

  0
MTEXT
  5
4BD
100
AcDbEntity
  8
0
 62
         7
100
AcDbMText
 10
375.7763239965
 20
87.697962556
 30
0.0
 40
3.5
 41
0.0
 71
         7
 72
         1
  1
51
  7
SLDTEXTSTYLE0
 11
0.0
 21
1.0
 31
0.0
 73
         1
 44
1.0
  0
LINE
  5
4BE
100
AcDbEntity
  8
0
100
AcDbLine
 10
374.4977456832
 20
230.5335368091
 30
0.0
 11
374.4977456832
 21
94.4555107487
 31
0.0
  0
POINT
  5
4BF
100
AcDbEntity
  8
0
 62
         7
100
AcDbPoint
 10
374.4977456832
 20
231.5335368091
 30
0.0
  0
POINT
  5
4C0
100
AcDbEntity
  8
0
 62
         7
100
AcDbPoint
 10
374.4977456832
 20
94.4555107487
 30
0.0
  0
ENDBLK
  5
4C1
100
AcDbEntity
  8
0
100
AcDbBlockEnd
  0
BLOCK
  5
4C4
100
AcDbEntity
  8
0
 62
       255
100
AcDbBlockBegin
  2
*D20
 70
         1
 10
0.0
 20
0.0
 30
0.0
  3
*D20
  1

  0
MTEXT
  5
4C5
100
AcDbEntity
  8
0
 62
         7
100
AcDbMText
 10
384.7763239965
 20
87.697962556
 30
0.0
 40
3.5
 41
0.0
 71
         7
 72
         1
  1
60
  7
SLDTEXTSTYLE0
 11
0.0
 21
1.0
 31
0.0
 73
         1
 44
1.0
  0
LINE
  5
4C6
100
AcDbEntity
  8
0
100
AcDbLine
 10
383.4977456832
 20
99.5335368091
 30
0.0
 11
383.4977456832
 21
94.4555107487
 31
0.0
  0
POINT
  5
4C7
100
AcDbEntity
  8
0
 62
         7
100
AcDbPoint
 10
383.4977456832
 20
100.5335368091
 30
0.0
  0
POINT
  5
4C8
100
AcDbEntity
  8
0
 62
         7
100
AcDbPoint
 10
383.4977456832
 20
94.4555107487
 30
0.0
  0
ENDBLK
  5
4C9
100
AcDbEntity
  8
0
100
AcDbBlockEnd
  0
BLOCK
  5
4CC
100
AcDbEntity
  8
0
 62
       255
100
AcDbBlockBegin
  2
*D21
 70
         1
 10
0.0
 20
0.0
 30
0.0
  3
*D21
  1

  0
MTEXT
  5
4CD
100
AcDbEntity
  8
0
 62
         7
100
AcDbMText
 10
311.0444433147
 20
99.2549584959
 30
0.0
 40
3.5
 41
0.0
 71
         7
 72
         1
  1
0
  7
SLDTEXTSTYLE0
 73
         1
 44
1.0
  0
LINE
  5
4CE
100
AcDbEntity
  8
0
100
AcDbLine
 10
322.4977456832
 20
100.5335368091
 30
0.0
 11
315.2169674111
 21
100.5335368091
 31
0.0
  0
POINT
  5
4CF
100
AcDbEntity
  8
0
 62
         7
100
AcDbPoint
 10
323.4977456832
 20
100.5335368091
 30
0.0
  0
POINT
  5
4D0
100
AcDbEntity
  8
0
 62
         7
100
AcDbPoint
 10
315.2169674111
 20
100.5335368091
 30
0.0
  0
ENDBLK
  5
4D1
100
AcDbEntity
  8
0
100
AcDbBlockEnd
  0
BLOCK
  5
4D4
100
AcDbEntity
  8
0
 62
       255
100
AcDbBlockBegin
  2
*D22
 70
         1
 10
0.0
 20
0.0
 30
0.0
  3
*D22
  1

  0
MTEXT
  5
4D5
100
AcDbEntity
  8
0
 62
         7
100
AcDbMText
 10
311.0444433147
 20
108.2549584959
 30
0.0
 40
3.5
 41
0.0
 71
         7
 72
         1
  1
9
  7
SLDTEXTSTYLE0
 73
         1
 44
1.0
  0
LINE
  5
4D6
100
AcDbEntity
  8
0
100
AcDbLine
 10
331.4977456832
 20
109.5335368091
 30
0.0
 11
315.2169674111
 21
109.5335368091
 31
0.0
  0
POINT
  5
4D7
100
AcDbEntity
  8
0
 62
         7
100
AcDbPoint
 10
332.4977456832
 20
109.5335368091
 30
0.0
  0
POINT
  5
4D8
100
AcDbEntity
  8
0
 62
         7
100
AcDbPoint
 10
315.2169674111
 20
109.5335368091
 30
0.0
  0
ENDBLK
  5
4D9
100
AcDbEntity
  8
0
100
AcDbBlockEnd
  0
BLOCK
  5
4DC
100
AcDbEntity
  8
0
 62
       255
100
AcDbBlockBegin
  2
*D23
 70
         1
 10
0.0
 20
0.0
 30
0.0
  3
*D23
  1

  0
MTEXT
  5
4DD
100
AcDbEntity
  8
0
 62
         7
100
AcDbMText
 10
308.4594192183
 20
129.2549584959
 30
0.0
 40
3.5
 41
0.0
 71
         7
 72
         1
  1
30
  7
SLDTEXTSTYLE0
 73
         1
 44
1.0
  0
LINE
  5
4DE
100
AcDbEntity
  8
0
100
AcDbLine
 10
352.4977456832
 20
130.5335368091
 30
0.0
 11
315.2169674111
 21
130.5335368091
 31
0.0
  0
POINT
  5
4DF
100
AcDbEntity
  8
0
 62
         7
100
AcDbPoint
 10
353.4977456832
 20
130.5335368091
 30
0.0
  0
POINT
  5
4E0
100
AcDbEntity
  8
0
 62
         7
100
AcDbPoint
 10
315.2169674111
 20
130.5335368091
 30
0.0
  0
ENDBLK
  5
4E1
100
AcDbEntity
  8
0
100
AcDbBlockEnd
  0
BLOCK
  5
4E4
100
AcDbEntity
  8
0
 62
       255
100
AcDbBlockBegin
  2
*D24
 70
         1
 10
0.0
 20
0.0
 30
0.0
  3
*D24
  1

  0
MTEXT
  5
4E5
100
AcDbEntity
  8
0
 62
         7
100
AcDbMText
 10
305.8743951219
 20
224.2549584959
 30
0.0
 40
3.5
 41
0.0
 71
         7
 72
         1
  1
125
  7
SLDTEXTSTYLE0
 73
         1
 44
1.0
  0
LINE
  5
4E6
100
AcDbEntity
  8
0
100
AcDbLine
 10
352.4977456832
 20
225.5335368091
 30
0.0
 11
315.2169674111
 21
225.5335368091
 31
0.0
  0
POINT
  5
4E7
100
AcDbEntity
  8
0
 62
         7
100
AcDbPoint
 10
353.4977456832
 20
225.5335368091
 30
0.0
  0
POINT
  5
4E8
100
AcDbEntity
  8
0
 62
         7
100
AcDbPoint
 10
315.2169674111
 20
225.5335368091
 30
0.0
  0
ENDBLK
  5
4E9
100
AcDbEntity
  8
0
100
AcDbBlockEnd
  0
BLOCK
  5
4EC
100
AcDbEntity
  8
0
 62
       255
100
AcDbBlockBegin
  2
*D25
 70
         1
 10
0.0
 20
0.0
 30
0.0
  3
*D25
  1

  0
MTEXT
  5
4ED
100
AcDbEntity
  8
0
 62
         7
100
AcDbMText
 10
305.8743951219
 20
230.2549584959
 30
0.0
 40
3.5
 41
0.0
 71
         7
 72
         1
  1
131
  7
SLDTEXTSTYLE0
 73
         1
 44
1.0
  0
LINE
  5
4EE
100
AcDbEntity
  8
0
100
AcDbLine
 10
373.4977456832
 20
231.5335368091
 30
0.0
 11
315.2169674111
 21
231.5335368091
 31
0.0
  0
POINT
  5
4EF
100
AcDbEntity
  8
0
 62
         7
100
AcDbPoint
 10
374.4977456832
 20
231.5335368091
 30
0.0
  0
POINT
  5
4F0
100
AcDbEntity
  8
0
 62
         7
100
AcDbPoint
 10
315.2169674111
 20
231.5335368091
 30
0.0
  0
ENDBLK
  5
4F1
100
AcDbEntity
  8
0
100
AcDbBlockEnd
  0
BLOCK
  5
4F4
100
AcDbEntity
  8
0
 62
       255
100
AcDbBlockBegin
  2
*D26
 70
         1
 10
0.0
 20
0.0
 30
0.0
  3
*D26
  1

  0
MTEXT
  5
4F5
100
AcDbEntity
  8
0
 62
         7
100
AcDbMText
 10
305.8743951219
 20
239.2549584959
 30
0.0
 40
3.5
 41
0.0
 71
         7
 72
         1
  1
140
  7
SLDTEXTSTYLE0
 73
         1
 44
1.0
  0
LINE
  5
4F6
100
AcDbEntity
  8
0
100
AcDbLine
 10
322.4977456832
 20
240.5335368091
 30
0.0
 11
315.2169674111
 21
240.5335368091
 31
0.0
  0
POINT
  5
4F7
100
AcDbEntity
  8
0
 62
         7
100
AcDbPoint
 10
323.4977456832
 20
240.5335368091
 30
0.0
  0
POINT
  5
4F8
100
AcDbEntity
  8
0
 62
         7
100
AcDbPoint
 10
315.2169674111
 20
240.5335368091
 30
0.0
  0
ENDBLK
  5
4F9
100
AcDbEntity
  8
0
100
AcDbBlockEnd
  0
BLOCK
  5
4FC
100
AcDbEntity
  8
0
 62
       255
100
AcDbBlockBegin
  2
*D27
 70
         1
 10
0.0
 20
0.0
 30
0.0
  3
*D27
  1

  0
MTEXT
  5
4FD
100
AcDbEntity
  8
0
 62
         7
100
AcDbMText
 10
312.2090942433
 20
166.5794125084
 30
0.0
 40
3.5
 41
0.0
 71
         7
 72
         1
  1
7
  7
SLDTEXTSTYLE0
 11
1.0
 21
0.0
 31
0.0
 73
         1
 44
1.0
  0
LINE
  5
4FE
100
AcDbEntity
  8
0
100
AcDbLine
 10
330.4977456832
 20
157.7835368091
 30
0.0
 11
330.4977456832
 21
166.0794125084
 31
0.0
  0
LINE
  5
4FF
100
AcDbEntity
  8
0
100
AcDbLine
 10
330.4977456832
 20
165.0794125084
 30
0.0
 11
323.4977456832
 21
165.0794125084
 31
0.0
  0
LINE
  5
500
100
AcDbEntity
  8
0
100
AcDbLine
 10
323.4977456832
 20
165.0794125084
 30
0.0
 11
310.6215942433
 21
165.0794125084
 31
0.0
  0
SOLID
  5
501
100
AcDbEntity
  8
0
 62
       255
100
AcDbTrace
 10
330.4977456832
 20
165.0794125084
 30
0.0
 11
327.4977456832
 21
165.5294125084
 31
0.0
 12
327.4977456832
 22
164.6294125084
 32
0.0
 13
327.4977456832
 23
164.6294125084
 33
0.0
  0
SOLID
  5
502
100
AcDbEntity
  8
0
 62
       255
100
AcDbTrace
 10
323.4977456832
 20
165.0794125084
 30
0.0
 11
326.4977456832
 21
164.6294125084
 31
0.0
 12
326.4977456832
 22
165.5294125084
 32
0.0
 13
326.4977456832
 23
165.5294125084
 33
0.0
  0
POINT
  5
503
100
AcDbEntity
  8
0
 62
         7
100
AcDbPoint
 10
330.4977456832
 20
156.7835368091
 30
0.0
  0
POINT
  5
504
100
AcDbEntity
  8
0
 62
         7
100
AcDbPoint
 10
323.4977456832
 20
100.5335368091
 30
0.0
  0
ENDBLK
  5
505
100
AcDbEntity
  8
0
 62
       255
100
AcDbBlockEnd
  0
BLOCK
  5
6C3
100
AcDbEntity
  8
0
 62
       255
100
AcDbBlockBegin
  2
*D28
 70
         1
 10
0.0
 20
0.0
 30
0.0
  3
*D28
  1

  0
MTEXT
  5
6C4
100
AcDbEntity
  8
0
 62
         7
100
AcDbMText
 10
64.4114844304
 20
163.8977856383
 30
0.0
 40
3.5
 41
0.0
 71
         7
 72
         1
  1
%%c
  7
SLDTEXTSTYLE0
 73
         1
 44
1.0
  0
MTEXT
  5
6C5
100
AcDbEntity
  8
0
 62
         7
100
AcDbMText
 10
69.4094844304
 20
163.8977856383
 30
0.0
 40
3.5
 41
0.0
 71
         7
 72
         1
  1
8,50
  7
SLDTEXTSTYLE0
 73
         1
 44
1.0
  0
LINE
  5
6C6
100
AcDbEntity
  8
0
100
AcDbLine
 10
88.3539310747
 20
155.5631571811
 30
0.0
 11
81.6299181654
 21
162.3977856383
 31
0.0
  0
LINE
  5
6C7
100
AcDbEntity
  8
0
100
AcDbLine
 10
94.3151055904
 20
149.5039164371
 30
0.0
 11
88.3539310747
 21
155.5631571811
 31
0.0
  0
LINE
  5
6C8
100
AcDbEntity
  8
0
100
AcDbLine
 10
81.6299181654
 20
162.3977856383
 30
0.0
 11
62.8239844304
 21
162.3977856383
 31
0.0
  0
ARC
  5
6C9
100
AcDbEntity
  8
0
100
AcDbCircle
 10
91.3345183326
 20
152.5335368091
 30
0.0
 40
4.25
100
AcDbArc
 50
103.2405199152
 51
147.7730937725
  0
SOLID
  5
6CA
100
AcDbEntity
  8
0
 62
       255
100
AcDbTrace
 10
88.3539310747
 20
155.5631571811
 30
0.0
 11
86.5707704615
 21
158.0173043298
 31
0.0
 12
85.9292037945
 22
157.3861211458
 32
0.0
 13
85.9292037945
 23
157.3861211458
 33
0.0
  0
POINT
  5
6CB
100
AcDbEntity
  8
0
 62
         7
100
AcDbPoint
 10
88.3539310747
 20
155.5631571811
 30
0.0
  0
POINT
  5
6CC
100
AcDbEntity
  8
0
 62
         7
100
AcDbPoint
 10
94.3151055904
 20
149.5039164371
 30
0.0
  0
ENDBLK
  5
6CD
100
AcDbEntity
  8
0
100
AcDbBlockEnd
  0
BLOCK
  5
6D0
100
AcDbEntity
  8
0
 62
       255
100
AcDbBlockBegin
  2
*D29
 70
         1
 10
0.0
 20
0.0
 30
0.0
  3
*D29
  1

  0
MTEXT
  5
6D1
100
AcDbEntity
  8
0
 62
         7
100
AcDbMText
 10
75.8261457732
 20
120.3565722925
 30
0.0
 40
3.5
 41
0.0
 71
         7
 72
         1
  1
52
  7
SLDTEXTSTYLE0
 11
0.0
 21
1.0
 31
0.0
 73
         1
 44
1.0
  0
LINE
  5
6D2
100
AcDbEntity
  8
0
100
AcDbLine
 10
90.3345183326
 20
152.5335368091
 30
0.0
 11
76.3261457732
 21
152.5335368091
 31
0.0
  0
LINE
  5
6D3
100
AcDbEntity
  8
0
100
AcDbLine
 10
90.3345183326
 20
100.5335368091
 30
0.0
 11
76.3261457732
 21
100.5335368091
 31
0.0
  0
LINE
  5
6D4
100
AcDbEntity
  8
0
100
AcDbLine
 10
77.3261457732
 20
152.5335368091
 30
0.0
 11
77.3261457732
 21
100.5335368091
 31
0.0
  0
SOLID
  5
6D5
100
AcDbEntity
  8
0
 62
       255
100
AcDbTrace
 10
77.3261457732
 20
152.5335368091
 30
0.0
 11
76.8761457732
 21
149.5335368091
 31
0.0
 12
77.7761457732
 22
149.5335368091
 32
0.0
 13
77.7761457732
 23
149.5335368091
 33
0.0
  0
SOLID
  5
6D6
100
AcDbEntity
  8
0
 62
       255
100
AcDbTrace
 10
77.3261457732
 20
100.5335368091
 30
0.0
 11
77.7761457732
 21
103.5335368091
 31
0.0
 12
76.8761457732
 22
103.5335368091
 32
0.0
 13
76.8761457732
 23
103.5335368091
 33
0.0
  0
POINT
  5
6D7
100
AcDbEntity
  8
0
 62
         7
100
AcDbPoint
 10
91.3345183326
 20
152.5335368091
 30
0.0
  0
POINT
  5
6D8
100
AcDbEntity
  8
0
 62
         7
100
AcDbPoint
 10
91.3345183326
 20
100.5335368091
 30
0.0
  0
ENDBLK
  5
6D9
100
AcDbEntity
  8
0
 62
       255
100
AcDbBlockEnd
  0
BLOCK
  5
6DC
100
AcDbEntity
  8
0
 62
       255
100
AcDbBlockBegin
  2
*D30
 70
         1
 10
0.0
 20
0.0
 30
0.0
  3
*D30
  1

  0
MTEXT
  5
6DD
100
AcDbEntity
  8
0
 62
         7
100
AcDbMText
 10
95.7498304737
 20
248.7828115335
 30
0.0
 40
3.5
 41
0.0
 71
         7
 72
         1
  1
15
  7
SLDTEXTSTYLE0
 73
         1
 44
1.0
  0
LINE
  5
6DE
100
AcDbEntity
  8
0
100
AcDbLine
 10
91.3345183326
 20
149.2835368091
 30
0.0
 11
91.3345183326
 21
248.2828115335
 31
0.0
  0
LINE
  5
6DF
100
AcDbEntity
  8
0
100
AcDbLine
 10
106.3345183326
 20
241.5335368091
 30
0.0
 11
106.3345183326
 21
248.2828115335
 31
0.0
  0
LINE
  5
6E0
100
AcDbEntity
  8
0
100
AcDbLine
 10
91.3345183326
 20
247.2828115335
 30
0.0
 11
86.3345183326
 21
247.2828115335
 31
0.0
  0
LINE
  5
6E1
100
AcDbEntity
  8
0
100
AcDbLine
 10
91.3345183326
 20
247.2828115335
 30
0.0
 11
106.3345183326
 21
247.2828115335
 31
0.0
  0
LINE
  5
6E2
100
AcDbEntity
  8
0
100
AcDbLine
 10
106.3345183326
 20
247.2828115335
 30
0.0
 11
111.3345183326
 21
247.2828115335
 31
0.0
  0
SOLID
  5
6E3
100
AcDbEntity
  8
0
 62
       255
100
AcDbTrace
 10
91.3345183326
 20
247.2828115335
 30
0.0
 11
88.3345183326
 21
247.7328115335
 31
0.0
 12
88.3345183326
 22
246.8328115335
 32
0.0
 13
88.3345183326
 23
246.8328115335
 33
0.0
  0
SOLID
  5
6E4
100
AcDbEntity
  8
0
 62
       255
100
AcDbTrace
 10
106.3345183326
 20
247.2828115335
 30
0.0
 11
109.3345183326
 21
246.8328115335
 31
0.0
 12
109.3345183326
 22
247.7328115335
 32
0.0
 13
109.3345183326
 23
247.7328115335
 33
0.0
  0
POINT
  5
6E5
100
AcDbEntity
  8
0
 62
         7
100
AcDbPoint
 10
91.3345183326
 20
148.2835368091
 30
0.0
  0
POINT
  5
6E6
100
AcDbEntity
  8
0
 62
         7
100
AcDbPoint
 10
106.3345183326
 20
240.5335368091
 30
0.0
  0
ENDBLK
  5
6E7
100
AcDbEntity
  8
0
 62
       255
100
AcDbBlockEnd
  0
ENDSEC
  0
SECTION
  2
ENTITIES
  0
LINE
  5
30
100
AcDbEntity
  8
0
370
         0
  6
Continuous
 62
         7
100
AcDbLine
 10
12.0
 20
279.0
 30
0.0
 11
408.0
 21
279.0
 31
0.0
  0
LINE
  5
31
100
AcDbEntity
  8
0
370
         0
  6
Continuous
 62
         7
100
AcDbLine
 10
12.0
 20
279.0
 30
0.0
 11
12.0
 21
18.0
 31
0.0
  0
LINE
  5
32
100
AcDbEntity
  8
0
370
         0
  6
Continuous
 62
         7
100
AcDbLine
 10
12.0
 20
18.0
 30
0.0
 11
408.0
 21
18.0
 31
0.0
  0
LINE
  5
33
100
AcDbEntity
  8
0
370
         0
  6
Continuous
 62
         7
100
AcDbLine
 10
408.0
 20
279.0
 30
0.0
 11
408.0
 21
18.0
 31
0.0
  0
LINE
  5
34
100
AcDbEntity
  8
0
370
         0
  6
Continuous
 62
         7
100
AcDbLine
 10
230.084092326
 20
18.2522667599
 30
0.0
 11
407.7493469813
 21
18.2522667599
 31
0.0
  0
LINE
  5
35
100
AcDbEntity
  8
0
370
         0
  6
Continuous
 62
         7
100
AcDbLine
 10
408.0
 20
58.3068354107
 30
0.0
 11
230.084092326
 21
58.3068354107
 31
0.0
  0
LINE
  5
36
100
AcDbEntity
  8
0
370
         0
  6
Continuous
 62
         7
100
AcDbLine
 10
366.4090916959
 20
58.3068354107
 30
0.0
 11
366.4090916959
 21
38.2795510853
 31
0.0
  0
LINE
  5
37
100
AcDbEntity
  8
0
370
         0
  6
Continuous
 62
         7
100
AcDbLine
 10
407.7493469813
 20
18.2522667599
 30
0.0
 11
288.5242550027
 21
18.2522667599
 31
0.0
  0
LINE
  5
38
100
AcDbEntity
  8
0
370
         0
  6
Continuous
 62
         7
100
AcDbLine
 10
407.7493469813
 20
18.2522667599
 30
0.0
 11
407.7493469813
 21
38.2795510853
 31
0.0
  0
LINE
  5
39
100
AcDbEntity
  8
0
370
         0
  6
Continuous
 62
         7
100
AcDbLine
 10
407.7493469813
 20
38.2795510853
 30
0.0
 11
288.5242550027
 21
38.2795510853
 31
0.0
  0
LINE
  5
3A
100
AcDbEntity
  8
0
370
         0
  6
Continuous
 62
         7
100
AcDbLine
 10
288.5242550027
 20
18.2522667599
 30
0.0
 11
288.5242550027
 21
38.2795510853
 31
0.0
  0
LINE
  5
3B
100
AcDbEntity
  8
0
370
         0
  6
Continuous
 62
         7
100
AcDbLine
 10
288.5242550027
 20
18.2522667599
 30
0.0
 11
230.084092326
 21
18.2522667599
 31
0.0
  0
LINE
  5
3C
100
AcDbEntity
  8
0
370
         0
  6
Continuous
 62
         7
100
AcDbLine
 10
288.5242550027
 20
18.2522667599
 30
0.0
 11
288.5242550027
 21
58.3068354107
 31
0.0
  0
LINE
  5
3D
100
AcDbEntity
  8
0
370
         0
  6
Continuous
 62
         7
100
AcDbLine
 10
288.5242550027
 20
58.3068354107
 30
0.0
 11
230.084092326
 21
58.3068354107
 31
0.0
  0
LINE
  5
3E
100
AcDbEntity
  8
0
370
         0
  6
Continuous
 62
         7
100
AcDbLine
 10
230.084092326
 20
18.2522667599
 30
0.0
 11
230.084092326
 21
58.3068354107
 31
0.0
  0
LINE
  5
3F
100
AcDbEntity
  8
0
370
         0
  6
Continuous
 62
         7
100
AcDbLine
 10
366.4090916959
 20
48.293193248
 30
0.0
 11
408.0
 21
48.293193248
 31
0.0
  0
LINE
  5
40
100
AcDbEntity
  8
0
370
         0
  6
Continuous
 62
         7
100
AcDbLine
 10
366.4090916959
 20
48.293193248
 30
0.0
 11
288.5242550027
 21
48.293193248
 31
0.0
  0
LINE
  5
41
100
AcDbEntity
  8
0
370
         0
  6
Continuous
 62
         7
100
AcDbLine
 10
288.5242550027
 20
38.2795510853
 30
0.0
 11
230.084092326
 21
38.2795510853
 31
0.0
  0
LINE
  5
42
100
AcDbEntity
  8
0
370
         0
  6
CENTERX2
 62
         7
100
AcDbLine
 10
231.5034756363
 20
52.6447098121
 30
0.0
 11
241.8262640213
 21
52.6447098121
 31
0.0
  0
LINE
  5
43
100
AcDbEntity
  8
0
370
         0
  6
CENTERX2
 62
         7
100
AcDbLine
 10
254.0649093727
 20
52.6447098121
 30
0.0
 11
245.9934787816
 21
52.6447098121
 31
0.0
  0
LINE
  5
44
100
AcDbEntity
  8
0
370
         0
  6
CENTERX2
 62
         7
100
AcDbLine
 10
250.0291940771
 20
55.6569677112
 30
0.0
 11
250.0291940771
 21
49.632451913
 31
0.0
  0
LINE
  5
45
100
AcDbEntity
  8
0
370
         0
  6
Continuous
 62
         7
100
AcDbLine
 10
233.7155017188
 20
51.4968023375
 30
0.0
 11
233.7155017188
 21
53.7926172867
 31
0.0
  0
LINE
  5
46
100
AcDbEntity
  8
0
370
         0
  6
Continuous
 62
         7
100
AcDbLine
 10
233.7155017188
 20
53.7926172867
 30
0.0
 11
238.7847281578
 21
55.3594690952
 31
0.0
  0
LINE
  5
47
100
AcDbEntity
  8
0
370
         0
  6
Continuous
 62
         7
100
AcDbLine
 10
238.7847281578
 20
55.3594690952
 30
0.0
 11
238.7847281578
 21
49.9299505291
 31
0.0
  0
LINE
  5
48
100
AcDbEntity
  8
0
370
         0
  6
Continuous
 62
         7
100
AcDbLine
 10
238.7847281578
 20
49.9299505291
 30
0.0
 11
233.7155017188
 21
51.4968023375
 31
0.0
  0
CIRCLE
  5
49
100
AcDbEntity
  8
0
370
         0
  6
Continuous
 62
         5
100
AcDbCircle
 10
250.0291940771
 20
52.6447098121
 30
0.0
 40
3.1391205675
  0
CIRCLE
  5
4A
100
AcDbEntity
  8
0
370
         0
  6
Continuous
 62
         5
100
AcDbCircle
 10
250.0291940771
 20
52.6447098121
 30
0.0
 40
1.5
  0
LEADER
  5
4B
100
AcDbEntity
  8
0
 62
       255
100
AcDbLeader
  3
SLDDIMSTYLE0
 73
         3
 74
         0
 75
         0
 40
0.0
 76
         2
 10
94.8185467515
 20
154.9674731221
 30
0.0
 10
131.4632409639
 20
263.7935493976
 30
0.0
 77
       256
340
5A
  0
LEADER
  5
4D
100
AcDbEntity
  8
0
 62
       255
100
AcDbLeader
  3
SLDDIMSTYLE0
 73
         3
 74
         1
 75
         0
 40
0.0
 76
         2
 10
261.7090328776
 20
167.8313952867
 30
0.0
 10
209.8161084337
 20
263.7935493976
 30
0.0
 77
       256
340
5A
  0
LEADER
  5
4E
100
AcDbEntity
  8
0
 62
       255
100
AcDbLeader
  3
SLDDIMSTYLE0
 73
         3
 74
         1
 75
         0
 40
0.0
 76
         2
 10
259.3705723401
 20
153.7560927434
 30
0.0
 10
209.8161084337
 20
263.7935493976
 30
0.0
 77
       256
340
5A
  0
LEADER
  5
4F
100
AcDbEntity
  8
0
 62
       255
100
AcDbLeader
  3
SLDDIMSTYLE1
 73
         3
 74
         1
 75
         0
 40
0.0
 76
         2
 10
260.2854060253
 20
139.5046409091
 30
0.0
 10
209.8161084337
 20
263.7935493976
 30
0.0
 77
       256
340
5A
  0
MTEXT
  5
5A
102
{ACAD_REACTORS
330
4B
102
}
100
AcDbEntity
  8
0
 62
         7
100
AcDbMText
 10
131.9643098605
 20
270.5460395222
 30
0.0
 40
3.5
 41
0.0
 71
         1
 72
         1
  1
Perçages réalisés entre cuir et chair\Paprès assemblage avec\PARL-PM02-B-DEMI-MOULE SYM:
  7
SLDTEXTSTYLE0
 73
         1
 44
1.0
  0
MTEXT
  5
5B
100
AcDbEntity
  8
0
 62
         7
100
AcDbMText
 10
321.3289280526
 20
44.4688155428
 30
0.0
 40
3.5
 41
0.0
 71
         1
 72
         1
  1
   
  7
SLDTEXTSTYLE0
 73
         1
 44
1.0
  0
MTEXT
  5
5C
100
AcDbEntity
  8
0
 62
         7
100
AcDbMText
 10
316.0644337867
 20
56.0764772048
 30
0.0
 40
3.5
 41
0.0
 71
         1
 72
         1
  1
Alu 2017A-AU4G
  7
SLDTEXTSTYLE0
 73
         1
 44
1.0
  0
MTEXT
  5
5D
100
AcDbEntity
  8
0
 62
         7
100
AcDbMText
 10
397.3299847037
 20
55.629067595
 30
0.0
 40
3.5
 41
0.0
 71
         1
 72
         1
  1
1
  7
SLDTEXTSTYLE0
 73
         1
 44
1.0
  0
MTEXT
  5
5E
100
AcDbEntity
  8
0
 62
         7
100
AcDbMText
 10
367.499804219
 20
55.6184159535
 30
0.0
 40
3.5
 41
0.0
 71
         1
 72
         1
  1
Quantité:
  7
SLDTEXTSTYLE0
 73
         1
 44
1.0
  0
MTEXT
  5
5F
100
AcDbEntity
  8
0
 62
         7
100
AcDbMText
 10
289.4619428465
 20
55.2778536138
 30
0.0
 40
3.5
 41
0.0
 71
         1
 72
         1
  1
Matière:
  7
SLDTEXTSTYLE0
 73
         1
 44
1.0
  0
MTEXT
  5
60
100
AcDbEntity
  8
0
 62
         7
100
AcDbMText
 10
289.4390372629
 20
44.699460691
 30
0.0
 40
3.5
 41
0.0
 71
         1
 72
         1
  1
Observation:
  7
SLDTEXTSTYLE0
 73
         1
 44
1.0
  0
MTEXT
  5
61
100
AcDbEntity
  8
0
 62
         7
100
AcDbMText
 10
289.7346356121
 20
35.1462952525
 30
0.0
 40
3.5
 41
0.0
 71
         1
 72
         1
  1
Désignation:
  7
SLDTEXTSTYLE0
 73
         1
 44
1.0
  0
MTEXT
  5
62
100
AcDbEntity
  8
0
 62
         7
100
AcDbMText
 10
240.0342250463
 20
45.4874721265
 30
0.0
 40
3.5
 41
0.0
 71
         1
 72
         1
  1
Tol Gén: +/-0.2
  7
SLDTEXTSTYLE0
 73
         1
 44
1.0
  0
MTEXT
  5
63
100
AcDbEntity
  8
0
 62
         7
100
AcDbMText
 10
270.3659973884
 20
57.292987735
 30
0.0
 40
3.5
 41
0.0
 71
         2
 72
         1
  1
A3 \PEchelle 1:1
  7
SLDTEXTSTYLE0
 73
         1
 44
1.0
  0
MTEXT
  5
64
100
AcDbEntity
  8
0
 62
         7
100
AcDbMText
 10
374.545001106
 20
45.7319305088
 30
0.0
 40
3.5
 41
0.0
 71
         1
 72
         1
  1
26/01/2023
  7
SLDTEXTSTYLE0
 73
         1
 44
1.0
  0
MTEXT
  5
65
100
AcDbEntity
  8
0
 62
         7
100
AcDbMText
 10
305.7392518586
 20
27.8230098604
 30
0.0
 40
5.2916666667
 41
0.0
 71
         1
 72
         1
  1
ARL-PM01-B-DEMI-MOULE
  7
SLDTEXTSTYLE0
 73
         1
 44
1.0
  0
MTEXT
  5
66
100
AcDbEntity
  8
0
 62
         7
100
AcDbMText
 10
323.7867495045
 20
47.8558472993
 30
0.0
 40
3.5
 41
0.0
 71
         1
 72
         1
  1
  
  7
SLDTEXTSTYLE0
 73
         1
 44
1.0
  0
LINE
  5
67
100
AcDbEntity
  8
0
370
        15
  6
Continuous
 62
         7
100
AcDbLine
 10
33.488086578
 20
55.3501728336
 30
0.0
 11
33.488086578
 21
52.5168395002
 31
0.0
  0
LINE
  5
68
100
AcDbEntity
  8
0
370
        15
  6
Continuous
 62
         7
100
AcDbLine
 10
117.4990280746
 20
55.0570637486
 30
0.0
 11
117.4990280746
 21
50.0570637486
 31
0.0
  0
LINE
  5
69
100
AcDbEntity
  8
0
370
        15
  6
Continuous
 62
         7
100
AcDbLine
 10
117.4990280746
 20
50.0570637486
 30
0.0
 11
27.3459509543
 21
29.136969398
 31
0.0
  0
LINE
  5
6A
100
AcDbEntity
  8
0
370
        15
  6
Continuous
 62
         7
100
AcDbLine
 10
27.3459509543
 20
34.136969398
 30
0.0
 11
27.3459509543
 21
29.136969398
 31
0.0
  0
LINE
  5
6B
100
AcDbEntity
  8
0
370
        15
  6
Continuous
 62
         7
100
AcDbLine
 10
27.3459509543
 20
34.136969398
 30
0.0
 11
58.0945897579
 21
41.272215864
 31
0.0
  0
POLYLINE
  5
6C
100
AcDbEntity
  8
0
370
        15
  6
Continuous
 62
         7
100
AcDb2dPolyline
 66
         1
 10
0.0
 20
0.0
 30
0.0
 70
       128
  0
VERTEX
  5
6D
100
AcDbEntity
  8
0
100
AcDbVertex
100
AcDb2dVertex
 10
63.5681694402
 20
42.5423644495
 30
0.0
  0
VERTEX
  5
6E
100
AcDbEntity
  8
0
100
AcDbVertex
100
AcDb2dVertex
 10
63.5155827908
 20
42.2537837189
 30
0.0
  0
VERTEX
  5
6F
100
AcDbEntity
  8
0
100
AcDbVertex
100
AcDb2dVertex
 10
63.359843718
 20
41.951887435
 30
0.0
  0
VERTEX
  5
70
100
AcDbEntity
  8
0
100
AcDbVertex
100
AcDb2dVertex
 10
63.1069371872
 20
41.6482773027
 30
0.0
  0
VERTEX
  5
71
100
AcDbEntity
  8
0
100
AcDbVertex
100
AcDb2dVertex
 10
62.7665822544
 20
41.3546208891
 30
0.0
  0
VERTEX
  5
72
100
AcDbEntity
  8
0
100
AcDbVertex
100
AcDb2dVertex
 10
62.3518585688
 20
41.0822032455
 30
0.0
  0
VERTEX
  5
73
100
AcDbEntity
  8
0
100
AcDbVertex
100
AcDb2dVertex
 10
61.8787037291
 20
40.8414932292
 30
0.0
  0
VERTEX
  5
74
100
AcDbEntity
  8
0
100
AcDbVertex
100
AcDb2dVertex
 10
61.3653008104
 20
40.6417411911
 30
0.0
  0
VERTEX
  5
75
100
AcDbEntity
  8
0
100
AcDbVertex
100
AcDb2dVertex
 10
60.831379599
 20
40.4906234901
 30
0.0
  0
VERTEX
  5
76
100
AcDbEntity
  8
0
100
AcDbVertex
100
AcDb2dVertex
 10
60.2974583876
 20
40.3939474946
 30
0.0
  0
VERTEX
  5
77
100
AcDbEntity
  8
0
100
AcDbVertex
100
AcDb2dVertex
 10
59.7840554689
 20
40.3554284089
 30
0.0
  0
VERTEX
  5
78
100
AcDbEntity
  8
0
100
AcDbVertex
100
AcDb2dVertex
 10
59.3109006292
 20
40.3765464998
 30
0.0
  0
VERTEX
  5
79
100
AcDbEntity
  8
0
100
AcDbVertex
100
AcDb2dVertex
 10
58.8961769436
 20
40.4564902111
 30
0.0
  0
VERTEX
  5
7A
100
AcDbEntity
  8
0
100
AcDbVertex
100
AcDb2dVertex
 10
58.5558220108
 20
40.5921873506
 30
0.0
  0
VERTEX
  5
7B
100
AcDbEntity
  8
0
100
AcDbVertex
100
AcDb2dVertex
 10
58.30291548
 20
40.7784231535
 30
0.0
  0
VERTEX
  5
7C
100
AcDbEntity
  8
0
100
AcDbVertex
100
AcDb2dVertex
 10
58.1471764072
 20
41.0080406822
 30
0.0
  0
VERTEX
  5
7D
100
AcDbEntity
  8
0
100
AcDbVertex
100
AcDb2dVertex
 10
58.0945897579
 20
41.272215864
 30
0.0
  0
SEQEND
  5
7E
100
AcDbEntity
  8
0
  0
LINE
  5
7F
100
AcDbEntity
  8
0
370
        15
  6
Continuous
 62
         7
100
AcDbLine
 10
63.5681694402
 20
42.5423644495
 30
0.0
 11
117.4990280746
 21
55.0570637486
 31
0.0
  0
POLYLINE
  5
80
100
AcDbEntity
  8
0
370
        15
  6
Continuous
 62
         7
100
AcDb2dPolyline
 66
         1
 10
0.0
 20
0.0
 30
0.0
 70
       128
  0
VERTEX
  5
81
100
AcDbEntity
  8
0
100
AcDbVertex
100
AcDb2dVertex
 10
42.0704294295
 20
53.4680111502
 30
0.0
  0
VERTEX
  5
82
100
AcDbEntity
  8
0
100
AcDbVertex
100
AcDb2dVertex
 10
42.5240169525
 20
53.6204297328
 30
0.0
  0
VERTEX
  5
83
100
AcDbEntity
  8
0
100
AcDbVertex
100
AcDb2dVertex
 10
42.9291655225
 20
53.8537291804
 30
0.0
  0
VERTEX
  5
84
100
AcDbEntity
  8
0
100
AcDbVertex
100
AcDb2dVertex
 10
43.2669308427
 20
54.1570006701
 30
0.0
  0
VERTEX
  5
85
100
AcDbEntity
  8
0
100
AcDbVertex
100
AcDb2dVertex
 10
43.5215193821
 20
54.516063564
 30
0.0
  0
VERTEX
  5
86
100
AcDbEntity
  8
0
100
AcDbVertex
100
AcDb2dVertex
 10
43.6810268636
 20
54.9141284803
 30
0.0
  0
VERTEX
  5
87
100
AcDbEntity
  8
0
100
AcDbVertex
100
AcDb2dVertex
 10
43.7379948946
 20
55.3325823459
 30
0.0
  0
VERTEX
  5
88
100
AcDbEntity
  8
0
100
AcDbVertex
100
AcDb2dVertex
 10
43.6897597134
 20
55.7518587232
 30
0.0
  0
VERTEX
  5
89
100
AcDbEntity
  8
0
100
AcDbVertex
100
AcDb2dVertex
 10
43.5385767433
 20
56.1523527147
 30
0.0
  0
VERTEX
  5
8A
100
AcDbEntity
  8
0
100
AcDbVertex
100
AcDb2dVertex
 10
43.291515132
 20
56.5153376665
 30
0.0
  0
VERTEX
  5
8B
100
AcDbEntity
  8
0
100
AcDbVertex
100
AcDb2dVertex
 10
42.960127206
 20
56.8238408058
 30
0.0
  0
VERTEX
  5
8C
100
AcDbEntity
  8
0
100
AcDbVertex
100
AcDb2dVertex
 10
42.5599082962
 20
57.0634368685
 30
0.0
  0
VERTEX
  5
8D
100
AcDbEntity
  8
0
100
AcDbVertex
100
AcDb2dVertex
 10
42.1095721941
 20
57.2229226091
 30
0.0
  0
VERTEX
  5
8E
100
AcDbEntity
  8
0
100
AcDbVertex
100
AcDb2dVertex
 10
41.6301761154
 20
57.2948406516
 30
0.0
  0
VERTEX
  5
8F
100
AcDbEntity
  8
0
100
AcDbVertex
100
AcDb2dVertex
 10
41.1441360878
 20
57.2758281883
 30
0.0
  0
VERTEX
  5
90
100
AcDbEntity
  8
0
100
AcDbVertex
100
AcDb2dVertex
 10
40.6741788028
 20
57.1667742208
 30
0.0
  0
VERTEX
  5
91
100
AcDbEntity
  8
0
100
AcDbVertex
100
AcDb2dVertex
 10
40.2422789409
 20
56.9727779915
 30
0.0
  0
VERTEX
  5
92
100
AcDbEntity
  8
0
100
AcDbVertex
100
AcDb2dVertex
 10
39.8686316594
 20
56.7029105483
 30
0.0
  0
VERTEX
  5
93
100
AcDbEntity
  8
0
100
AcDbVertex
100
AcDb2dVertex
 10
39.57070829
 20
56.3697905931
 30
0.0
  0
VERTEX
  5
94
100
AcDbEntity
  8
0
100
AcDbVertex
100
AcDb2dVertex
 10
39.3624393984
 20
55.9889944447
 30
0.0
  0
VERTEX
  5
95
100
AcDbEntity
  8
0
100
AcDbVertex
100
AcDb2dVertex
 10
39.2535634064
 20
55.5783277077
 30
0.0
  0
VERTEX
  5
96
100
AcDbEntity
  8
0
100
AcDbVertex
100
AcDb2dVertex
 10
39.2491712344
 20
55.1569927024
 30
0.0
  0
VERTEX
  5
97
100
AcDbEntity
  8
0
100
AcDbVertex
100
AcDb2dVertex
 10
39.3494682555
 20
54.7446905853
 30
0.0
  0
VERTEX
  5
98
100
AcDbEntity
  8
0
100
AcDbVertex
100
AcDb2dVertex
 10
39.5497646925
 20
54.3607001452
 30
0.0
  0
VERTEX
  5
99
100
AcDbEntity
  8
0
100
AcDbVertex
100
AcDb2dVertex
 10
39.8406949065
 20
54.0229763483
 30
0.0
  0
VERTEX
  5
9A
100
AcDbEntity
  8
0
100
AcDbVertex
100
AcDb2dVertex
 10
40.2086553242
 20
53.747310784
 30
0.0
  0
VERTEX
  5
9B
100
AcDbEntity
  8
0
100
AcDbVertex
100
AcDb2dVertex
 10
40.6364405253
 20
53.5465932676
 30
0.0
  0
VERTEX
  5
9C
100
AcDbEntity
  8
0
100
AcDbVertex
100
AcDb2dVertex
 10
41.1040477493
 20
53.4302091273
 30
0.0
  0
VERTEX
  5
9D
100
AcDbEntity
  8
0
100
AcDbVertex
100
AcDb2dVertex
 10
41.5896122021
 20
53.4036003559
 30
0.0
  0
VERTEX
  5
9E
100
AcDbEntity
  8
0
100
AcDbVertex
100
AcDb2dVertex
 10
42.0704294295
 20
53.4680111502
 30
0.0
  0
SEQEND
  5
9F
100
AcDbEntity
  8
0
  0
POLYLINE
  5
A0
100
AcDbEntity
  8
0
370
        15
  6
Continuous
 62
         7
100
AcDb2dPolyline
 66
         1
 10
0.0
 20
0.0
 30
0.0
 70
       128
  0
VERTEX
  5
A1
100
AcDbEntity
  8
0
100
AcDbVertex
100
AcDb2dVertex
 10
103.2457317612
 20
67.6637894595
 30
0.0
  0
VERTEX
  5
A2
100
AcDbEntity
  8
0
100
AcDbVertex
100
AcDb2dVertex
 10
103.6993192841
 20
67.8162080422
 30
0.0
  0
VERTEX
  5
A3
100
AcDbEntity
  8
0
100
AcDbVertex
100
AcDb2dVertex
 10
104.1044678541
 20
68.0495074898
 30
0.0
  0
VERTEX
  5
A4
100
AcDbEntity
  8
0
100
AcDbVertex
100
AcDb2dVertex
 10
104.4422331743
 20
68.3527789794
 30
0.0
  0
VERTEX
  5
A5
100
AcDbEntity
  8
0
100
AcDbVertex
100
AcDb2dVertex
 10
104.6968217137
 20
68.7118418733
 30
0.0
  0
VERTEX
  5
A6
100
AcDbEntity
  8
0
100
AcDbVertex
100
AcDb2dVertex
 10
104.8563291952
 20
69.1099067896
 30
0.0
  0
VERTEX
  5
A7
100
AcDbEntity
  8
0
100
AcDbVertex
100
AcDb2dVertex
 10
104.9132972263
 20
69.5283606552
 30
0.0
  0
VERTEX
  5
A8
100
AcDbEntity
  8
0
100
AcDbVertex
100
AcDb2dVertex
 10
104.865062045
 20
69.9476370325
 30
0.0
  0
VERTEX
  5
A9
100
AcDbEntity
  8
0
100
AcDbVertex
100
AcDb2dVertex
 10
104.7138790749
 20
70.348131024
 30
0.0
  0
VERTEX
  5
AA
100
AcDbEntity
  8
0
100
AcDbVertex
100
AcDb2dVertex
 10
104.4668174637
 20
70.7111159759
 30
0.0
  0
VERTEX
  5
AB
100
AcDbEntity
  8
0
100
AcDbVertex
100
AcDb2dVertex
 10
104.1354295376
 20
71.0196191151
 30
0.0
  0
VERTEX
  5
AC
100
AcDbEntity
  8
0
100
AcDbVertex
100
AcDb2dVertex
 10
103.7352106278
 20
71.2592151778
 30
0.0
  0
VERTEX
  5
AD
100
AcDbEntity
  8
0
100
AcDbVertex
100
AcDb2dVertex
 10
103.2848745258
 20
71.4187009184
 30
0.0
  0
VERTEX
  5
AE
100
AcDbEntity
  8
0
100
AcDbVertex
100
AcDb2dVertex
 10
102.805478447
 20
71.4906189609
 30
0.0
  0
VERTEX
  5
AF
100
AcDbEntity
  8
0
100
AcDbVertex
100
AcDb2dVertex
 10
102.3194384194
 20
71.4716064976
 30
0.0
  0
VERTEX
  5
B0
100
AcDbEntity
  8
0
100
AcDbVertex
100
AcDb2dVertex
 10
101.8494811345
 20
71.3625525301
 30
0.0
  0
VERTEX
  5
B1
100
AcDbEntity
  8
0
100
AcDbVertex
100
AcDb2dVertex
 10
101.4175812725
 20
71.1685563008
 30
0.0
  0
VERTEX
  5
B2
100
AcDbEntity
  8
0
100
AcDbVertex
100
AcDb2dVertex
 10
101.0439339911
 20
70.8986888576
 30
0.0
  0
VERTEX
  5
B3
100
AcDbEntity
  8
0
100
AcDbVertex
100
AcDb2dVertex
 10
100.7460106217
 20
70.5655689024
 30
0.0
  0
VERTEX
  5
B4
100
AcDbEntity
  8
0
100
AcDbVertex
100
AcDb2dVertex
 10
100.5377417301
 20
70.184772754
 30
0.0
  0
VERTEX
  5
B5
100
AcDbEntity
  8
0
100
AcDbVertex
100
AcDb2dVertex
 10
100.4288657381
 20
69.774106017
 30
0.0
  0
VERTEX
  5
B6
100
AcDbEntity
  8
0
100
AcDbVertex
100
AcDb2dVertex
 10
100.4244735661
 20
69.3527710117
 30
0.0
  0
VERTEX
  5
B7
100
AcDbEntity
  8
0
100
AcDbVertex
100
AcDb2dVertex
 10
100.5247705872
 20
68.9404688946
 30
0.0
  0
VERTEX
  5
B8
100
AcDbEntity
  8
0
100
AcDbVertex
100
AcDb2dVertex
 10
100.7250670241
 20
68.5564784545
 30
0.0
  0
VERTEX
  5
B9
100
AcDbEntity
  8
0
100
AcDbVertex
100
AcDb2dVertex
 10
101.0159972382
 20
68.2187546576
 30
0.0
  0
VERTEX
  5
BA
100
AcDbEntity
  8
0
100
AcDbVertex
100
AcDb2dVertex
 10
101.3839576558
 20
67.9430890933
 30
0.0
  0
VERTEX
  5
BB
100
AcDbEntity
  8
0
100
AcDbVertex
100
AcDb2dVertex
 10
101.8117428569
 20
67.742371577
 30
0.0
  0
VERTEX
  5
BC
100
AcDbEntity
  8
0
100
AcDbVertex
100
AcDb2dVertex
 10
102.2793500809
 20
67.6259874366
 30
0.0
  0
VERTEX
  5
BD
100
AcDbEntity
  8
0
100
AcDbVertex
100
AcDb2dVertex
 10
102.7649145337
 20
67.5993786652
 30
0.0
  0
VERTEX
  5
BE
100
AcDbEntity
  8
0
100
AcDbVertex
100
AcDb2dVertex
 10
103.2457317612
 20
67.6637894595
 30
0.0
  0
SEQEND
  5
BF
100
AcDbEntity
  8
0
  0
LINE
  5
C0
100
AcDbEntity
  8
0
370
        15
  6
Continuous
 62
         7
100
AcDbLine
 10
16.9931891502
 20
67.5976215475
 30
0.0
 11
27.3459509543
 21
34.136969398
 31
0.0
  0
LINE
  5
C1
100
AcDbEntity
  8
0
370
        15
  6
Continuous
 62
         7
100
AcDbLine
 10
39.8534337057
 20
72.9023597579
 30
0.0
 11
16.9931891502
 21
67.5976215475
 31
0.0
  0
LINE
  5
C2
100
AcDbEntity
  8
0
370
        15
  6
Continuous
 62
         7
100
AcDbLine
 10
39.8534337057
 20
72.9023597579
 30
0.0
 11
41.5788940064
 21
67.3255843996
 31
0.0
  0
LINE
  5
C3
100
AcDbEntity
  8
0
370
        15
  6
Continuous
 62
         7
100
AcDbLine
 10
41.5788940064
 20
67.3255843996
 30
0.0
 11
38.0371659767
 21
66.5037235501
 31
0.0
  0
POLYLINE
  5
C4
100
AcDbEntity
  8
0
370
        15
  6
Continuous
 62
         7
100
AcDb2dPolyline
 66
         1
 10
0.0
 20
0.0
 30
0.0
 70
       128
  0
VERTEX
  5
C5
100
AcDbEntity
  8
0
100
AcDbVertex
100
AcDb2dVertex
 10
38.0371659767
 20
66.5037235501
 30
0.0
  0
VERTEX
  5
C6
100
AcDbEntity
  8
0
100
AcDbVertex
100
AcDb2dVertex
 10
36.8965927215
 20
66.1909279483
 30
0.0
  0
VERTEX
  5
C7
100
AcDbEntity
  8
0
100
AcDbVertex
100
AcDb2dVertex
 10
35.7929874752
 20
65.7908489606
 30
0.0
  0
VERTEX
  5
C8
100
AcDbEntity
  8
0
100
AcDbVertex
100
AcDb2dVertex
 10
34.7352358181
 20
65.3067077877
 30
0.0
  0
VERTEX
  5
C9
100
AcDbEntity
  8
0
100
AcDbVertex
100
AcDb2dVertex
 10
33.7318541447
 20
64.7424024498
 30
0.0
  0
VERTEX
  5
CA
100
AcDbEntity
  8
0
100
AcDbVertex
100
AcDb2dVertex
 10
32.7909210943
 20
64.1024764015
 30
0.0
  0
VERTEX
  5
CB
100
AcDbEntity
  8
0
100
AcDbVertex
100
AcDb2dVertex
 10
31.9200125066
 20
63.3920819511
 30
0.0
  0
VERTEX
  5
CC
100
AcDbEntity
  8
0
100
AcDbVertex
100
AcDb2dVertex
 10
31.1261404253
 20
62.6169387772
 30
0.0
  0
VERTEX
  5
CD
100
AcDbEntity
  8
0
100
AcDbVertex
100
AcDb2dVertex
 10
30.4156966417
 20
61.7832878766
 30
0.0
  0
VERTEX
  5
CE
100
AcDbEntity
  8
0
100
AcDbVertex
100
AcDb2dVertex
 10
29.7944012314
 20
60.8978413163
 30
0.0
  0
VERTEX
  5
CF
100
AcDbEntity
  8
0
100
AcDbVertex
100
AcDb2dVertex
 10
29.2672564998
 20
59.9677281913
 30
0.0
  0
VERTEX
  5
D0
100
AcDbEntity
  8
0
100
AcDbVertex
100
AcDb2dVertex
 10
28.8385067062
 20
59.0004372257
 30
0.0
  0
VERTEX
  5
D1
100
AcDbEntity
  8
0
100
AcDbVertex
100
AcDb2dVertex
 10
28.5116038919
 20
58.0037564775
 30
0.0
  0
VERTEX
  5
D2
100
AcDbEntity
  8
0
100
AcDbVertex
100
AcDb2dVertex
 10
28.2891800862
 20
56.9857106342
 30
0.0
  0
VERTEX
  5
D3
100
AcDbEntity
  8
0
100
AcDbVertex
100
AcDb2dVertex
 10
28.1730261147
 20
55.9544964021
 30
0.0
  0
VERTEX
  5
D4
100
AcDbEntity
  8
0
100
AcDbVertex
100
AcDb2dVertex
 10
28.1640771809
 20
54.918416512
 30
0.0
  0
VERTEX
  5
D5
100
AcDbEntity
  8
0
100
AcDbVertex
100
AcDb2dVertex
 10
28.2624053364
 20
53.8858128699
 30
0.0
  0
VERTEX
  5
D6
100
AcDbEntity
  8
0
100
AcDbVertex
100
AcDb2dVertex
 10
28.4672189006
 20
52.8649993932
 30
0.0
  0
VERTEX
  5
D7
100
AcDbEntity
  8
0
100
AcDbVertex
100
AcDb2dVertex
 10
28.7768688353
 20
51.8641950718
 30
0.0
  0
VERTEX
  5
D8
100
AcDbEntity
  8
0
100
AcDbVertex
100
AcDb2dVertex
 10
29.1888620212
 20
50.8914577936
 30
0.0
  0
VERTEX
  5
D9
100
AcDbEntity
  8
0
100
AcDbVertex
100
AcDb2dVertex
 10
29.6998813313
 20
49.9546194672
 30
0.0
  0
VERTEX
  5
DA
100
AcDbEntity
  8
0
100
AcDbVertex
100
AcDb2dVertex
 10
30.3058123388
 20
49.061222964
 30
0.0
  0
VERTEX
  5
DB
100
AcDbEntity
  8
0
100
AcDbVertex
100
AcDb2dVertex
 10
31.0017764433
 20
48.2184613873
 30
0.0
  0
VERTEX
  5
DC
100
AcDbEntity
  8
0
100
AcDbVertex
100
AcDb2dVertex
 10
31.7821701513
 20
47.4331201578
 30
0.0
  0
VERTEX
  5
DD
100
AcDbEntity
  8
0
100
AcDbVertex
100
AcDb2dVertex
 10
32.6407101912
 20
46.7115223813
 30
0.0
  0
VERTEX
  5
DE
100
AcDbEntity
  8
0
100
AcDbVertex
100
AcDb2dVertex
 10
33.5704841037
 20
46.0594779388
 30
0.0
  0
VERTEX
  5
DF
100
AcDbEntity
  8
0
100
AcDbVertex
100
AcDb2dVertex
 10
34.5640058959
 20
45.4822367088
 30
0.0
  0
VERTEX
  5
E0
100
AcDbEntity
  8
0
100
AcDbVertex
100
AcDb2dVertex
 10
35.6132763144
 20
44.9844462981
 30
0.0
  0
VERTEX
  5
E1
100
AcDbEntity
  8
0
100
AcDbVertex
100
AcDb2dVertex
 10
36.7098472508
 20
44.5701146226
 30
0.0
  0
VERTEX
  5
E2
100
AcDbEntity
  8
0
100
AcDbVertex
100
AcDb2dVertex
 10
37.8448897607
 20
44.2425776372
 30
0.0
  0
VERTEX
  5
E3
100
AcDbEntity
  8
0
100
AcDbVertex
100
AcDb2dVertex
 10
39.0092651492
 20
44.0044724772
 30
0.0
  0
VERTEX
  5
E4
100
AcDbEntity
  8
0
100
AcDbVertex
100
AcDb2dVertex
 10
40.1935985504
 20
43.8577162253
 30
0.0
  0
VERTEX
  5
E5
100
AcDbEntity
  8
0
100
AcDbVertex
100
AcDb2dVertex
 10
41.3883544079
 20
43.8034904765
 30
0.0
  0
VERTEX
  5
E6
100
AcDbEntity
  8
0
100
AcDbVertex
100
AcDb2dVertex
 10
42.5839132503
 20
43.8422318248
 30
0.0
  0
VERTEX
  5
E7
100
AcDbEntity
  8
0
100
AcDbVertex
100
AcDb2dVertex
 10
43.7706491407
 20
43.9736283475
 30
0.0
  0
VERTEX
  5
E8
100
AcDbEntity
  8
0
100
AcDbVertex
100
AcDb2dVertex
 10
44.9390071794
 20
44.1966221171
 30
0.0
  0
SEQEND
  5
E9
100
AcDbEntity
  8
0
  0
POLYLINE
  5
EA
100
AcDbEntity
  8
0
370
        15
  6
Continuous
 62
         7
100
AcDb2dPolyline
 66
         1
 10
0.0
 20
0.0
 30
0.0
 70
       128
  0
VERTEX
  5
EB
100
AcDbEntity
  8
0
100
AcDbVertex
100
AcDb2dVertex
 10
44.9390071794
 20
44.1966221171
 30
0.0
  0
VERTEX
  5
EC
100
AcDbEntity
  8
0
100
AcDbVertex
100
AcDb2dVertex
 10
45.4282595664
 20
44.3560933854
 30
0.0
  0
VERTEX
  5
ED
100
AcDbEntity
  8
0
100
AcDbVertex
100
AcDb2dVertex
 10
45.8721868698
 20
44.595161202
 30
0.0
  0
VERTEX
  5
EE
100
AcDbEntity
  8
0
100
AcDbVertex
100
AcDb2dVertex
 10
46.2537292124
 20
44.904638325
 30
0.0
  0
VERTEX
  5
EF
100
AcDbEntity
  8
0
100
AcDbVertex
100
AcDb2dVertex
 10
46.5582241359
 20
45.272631722
 30
0.0
  0
VERTEX
  5
F0
100
AcDbEntity
  8
0
100
AcDbVertex
100
AcDb2dVertex
 10
46.7739700711
 20
45.6849996131
 30
0.0
  0
VERTEX
  5
F1
100
AcDbEntity
  8
0
100
AcDbVertex
100
AcDb2dVertex
 10
46.8926760228
 20
46.1258949315
 30
0.0
  0
VERTEX
  5
F2
100
AcDbEntity
  8
0
100
AcDbVertex
100
AcDb2dVertex
 10
46.9097801878
 20
46.5783743174
 30
0.0
  0
VERTEX
  5
F3
100
AcDbEntity
  8
0
100
AcDbVertex
100
AcDb2dVertex
 10
46.8246252626
 20
47.0250492418
 30
0.0
  0
VERTEX
  5
F4
100
AcDbEntity
  8
0
100
AcDbVertex
100
AcDb2dVertex
 10
46.6404837032
 20
47.4487542378
 30
0.0
  0
VERTEX
  5
F5
100
AcDbEntity
  8
0
100
AcDbVertex
100
AcDb2dVertex
 10
46.3644319666
 20
47.83320656
 30
0.0
  0
VERTEX
  5
F6
100
AcDbEntity
  8
0
100
AcDbVertex
100
AcDb2dVertex
 10
46.0070785661
 20
48.1636319213
 30
0.0
  0
VERTEX
  5
F7
100
AcDbEntity
  8
0
100
AcDbVertex
100
AcDb2dVertex
 10
45.5821563925
 20
48.4273322604
 30
0.0
  0
VERTEX
  5
F8
100
AcDbEntity
  8
0
100
AcDbVertex
100
AcDb2dVertex
 10
45.1059949666
 20
48.614173721
 30
0.0
  0
VERTEX
  5
F9
100
AcDbEntity
  8
0
100
AcDbVertex
100
AcDb2dVertex
 10
44.5968929051
 20
48.7169760908
 30
0.0
  0
VERTEX
  5
FA
100
AcDbEntity
  8
0
100
AcDbVertex
100
AcDb2dVertex
 10
44.0744147145
 20
48.7317887321
 30
0.0
  0
VERTEX
  5
FB
100
AcDbEntity
  8
0
100
AcDbVertex
100
AcDb2dVertex
 10
43.5586389389
 20
48.6580424037
 30
0.0
  0
SEQEND
  5
FC
100
AcDbEntity
  8
0
  0
POLYLINE
  5
FD
100
AcDbEntity
  8
0
370
        15
  6
Continuous
 62
         7
100
AcDb2dPolyline
 66
         1
 10
0.0
 20
0.0
 30
0.0
 70
       128
  0
VERTEX
  5
FE
100
AcDbEntity
  8
0
100
AcDbVertex
100
AcDb2dVertex
 10
43.5586389389
 20
48.6580424037
 30
0.0
  0
VERTEX
  5
FF
100
AcDbEntity
  8
0
100
AcDbVertex
100
AcDb2dVertex
 10
42.6475414525
 20
48.495120077
 30
0.0
  0
VERTEX
  5
100
100
AcDbEntity
  8
0
100
AcDbVertex
100
AcDb2dVertex
 10
41.720764328
 20
48.4249005791
 30
0.0
  0
VERTEX
  5
101
100
AcDbEntity
  8
0
100
AcDbVertex
100
AcDb2dVertex
 10
40.7908406361
 20
48.4483335083
 30
0.0
  0
VERTEX
  5
102
100
AcDbEntity
  8
0
100
AcDbVertex
100
AcDb2dVertex
 10
39.8703459994
 20
48.5651019743
 30
0.0
  0
VERTEX
  5
103
100
AcDbEntity
  8
0
100
AcDbVertex
100
AcDb2dVertex
 10
38.9717285288
 20
48.7736268841
 30
0.0
  0
VERTEX
  5
104
100
AcDbEntity
  8
0
100
AcDbVertex
100
AcDb2dVertex
 10
38.1071404841
 20
49.0710882958
 30
0.0
  0
VERTEX
  5
105
100
AcDbEntity
  8
0
100
AcDbVertex
100
AcDb2dVertex
 10
37.2882739354
 20
49.4534635543
 30
0.0
  0
VERTEX
  5
106
100
AcDbEntity
  8
0
100
AcDbVertex
100
AcDb2dVertex
 10
36.5262026479
 20
49.91558169
 30
0.0
  0
VERTEX
  5
107
100
AcDbEntity
  8
0
100
AcDbVertex
100
AcDb2dVertex
 10
35.8312323286
 20
50.451193348
 30
0.0
  0
VERTEX
  5
108
100
AcDbEntity
  8
0
100
AcDbVertex
100
AcDb2dVertex
 10
35.2127612587
 20
51.0530552994
 30
0.0
  0
VERTEX
  5
109
100
AcDbEntity
  8
0
100
AcDbVertex
100
AcDb2dVertex
 10
34.6791531986
 20
51.7130283939
 30
0.0
  0
VERTEX
  5
10A
100
AcDbEntity
  8
0
100
AcDbVertex
100
AcDb2dVertex
 10
34.2376242818
 20
52.4221876274
 30
0.0
  0
VERTEX
  5
10B
100
AcDbEntity
  8
0
100
AcDbVertex
100
AcDb2dVertex
 10
33.8941454295
 20
53.1709428379
 30
0.0
  0
VERTEX
  5
10C
100
AcDbEntity
  8
0
100
AcDbVertex
100
AcDb2dVertex
 10
33.6533616039
 20
53.9491683957
 30
0.0
  0
VERTEX
  5
10D
100
AcDbEntity
  8
0
100
AcDbVertex
100
AcDb2dVertex
 10
33.5185289933
 20
54.7463401351
 30
0.0
  0
VERTEX
  5
10E
100
AcDbEntity
  8
0
100
AcDbVertex
100
AcDb2dVertex
 10
33.4914709774
 20
55.5516776759
 30
0.0
  0
VERTEX
  5
10F
100
AcDbEntity
  8
0
100
AcDbVertex
100
AcDb2dVertex
 10
33.5725534694
 20
56.3542902094
 30
0.0
  0
VERTEX
  5
110
100
AcDbEntity
  8
0
100
AcDbVertex
100
AcDb2dVertex
 10
33.7606799677
 20
57.1433237779
 30
0.0
  0
VERTEX
  5
111
100
AcDbEntity
  8
0
100
AcDbVertex
100
AcDb2dVertex
 10
34.0533063842
 20
57.908108056
 30
0.0
  0
VERTEX
  5
112
100
AcDbEntity
  8
0
100
AcDbVertex
100
AcDb2dVertex
 10
34.4464754486
 20
58.6383006483
 30
0.0
  0
VERTEX
  5
113
100
AcDbEntity
  8
0
100
AcDbVertex
100
AcDb2dVertex
 10
34.9348702237
 20
59.3240269527
 30
0.0
  0
VERTEX
  5
114
100
AcDbEntity
  8
0
100
AcDbVertex
100
AcDb2dVertex
 10
35.5118860081
 20
59.9560136972
 30
0.0
  0
VERTEX
  5
115
100
AcDbEntity
  8
0
100
AcDbVertex
100
AcDb2dVertex
 10
36.1697196531
 20
60.5257143452
 30
0.0
  0
VERTEX
  5
116
100
AcDbEntity
  8
0
100
AcDbVertex
100
AcDb2dVertex
 10
36.8994750872
 20
61.0254246729
 30
0.0
  0
VERTEX
  5
117
100
AcDbEntity
  8
0
100
AcDbVertex
100
AcDb2dVertex
 10
37.6912836201
 20
61.4483869552
 30
0.0
  0
VERTEX
  5
118
100
AcDbEntity
  8
0
100
AcDbVertex
100
AcDb2dVertex
 10
38.5344373995
 20
61.788881353
 30
0.0
  0
VERTEX
  5
119
100
AcDbEntity
  8
0
100
AcDbVertex
100
AcDb2dVertex
 10
39.4175342172
 20
62.0423032635
 30
0.0
  0
SEQEND
  5
11A
100
AcDbEntity
  8
0
  0
LINE
  5
11B
100
AcDbEntity
  8
0
370
        15
  6
Continuous
 62
         7
100
AcDbLine
 10
39.4175342172
 20
62.0423032635
 30
0.0
 11
67.6627479172
 21
68.5966279125
 31
0.0
  0
POLYLINE
  5
11C
100
AcDbEntity
  8
0
370
        15
  6
Continuous
 62
         7
100
AcDb2dPolyline
 66
         1
 10
0.0
 20
0.0
 30
0.0
 70
       128
  0
VERTEX
  5
11D
100
AcDbEntity
  8
0
100
AcDbVertex
100
AcDb2dVertex
 10
67.6627479172
 20
68.5966279125
 30
0.0
  0
VERTEX
  5
11E
100
AcDbEntity
  8
0
100
AcDbVertex
100
AcDb2dVertex
 10
68.2431730424
 20
68.7114527944
 30
0.0
  0
VERTEX
  5
11F
100
AcDbEntity
  8
0
100
AcDbVertex
100
AcDb2dVertex
 10
68.8318514468
 20
68.7885763973
 30
0.0
  0
VERTEX
  5
120
100
AcDbEntity
  8
0
100
AcDbVertex
100
AcDb2dVertex
 10
69.4255226523
 20
68.8275715614
 30
0.0
  0
VERTEX
  5
121
100
AcDbEntity
  8
0
100
AcDbVertex
100
AcDb2dVertex
 10
70.0208985274
 20
68.8282223064
 30
0.0
  0
VERTEX
  5
122
100
AcDbEntity
  8
0
100
AcDbVertex
100
AcDb2dVertex
 10
70.6146814991
 20
68.7905250281
 30
0.0
  0
VERTEX
  5
123
100
AcDbEntity
  8
0
100
AcDbVertex
100
AcDb2dVertex
 10
71.2035828171
 20
68.7146885182
 30
0.0
  0
VERTEX
  5
124
100
AcDbEntity
  8
0
100
AcDbVertex
100
AcDb2dVertex
 10
71.7843407685
 20
68.6011328079
 30
0.0
  0
VERTEX
  5
125
100
AcDbEntity
  8
0
100
AcDbVertex
100
AcDb2dVertex
 10
72.3537387439
 20
68.4504868414
 30
0.0
  0
SEQEND
  5
126
100
AcDbEntity
  8
0
  0
LINE
  5
127
100
AcDbEntity
  8
0
370
        15
  6
Continuous
 62
         7
100
AcDbLine
 10
72.3537387439
 20
68.4504868414
 30
0.0
 11
105.194596453
 21
58.5905433621
 31
0.0
  0
POLYLINE
  5
128
100
AcDbEntity
  8
0
370
        15
  6
Continuous
 62
         7
100
AcDb2dPolyline
 66
         1
 10
0.0
 20
0.0
 30
0.0
 70
       128
  0
VERTEX
  5
129
100
AcDbEntity
  8
0
100
AcDbVertex
100
AcDb2dVertex
 10
105.194596453
 20
58.5905433621
 30
0.0
  0
VERTEX
  5
12A
100
AcDbEntity
  8
0
100
AcDbVertex
100
AcDb2dVertex
 10
105.7029204209
 20
58.4848926793
 30
0.0
  0
VERTEX
  5
12B
100
AcDbEntity
  8
0
100
AcDbVertex
100
AcDb2dVertex
 10
106.2252771107
 20
58.467154993
 30
0.0
  0
VERTEX
  5
12C
100
AcDbEntity
  8
0
100
AcDbVertex
100
AcDb2dVertex
 10
106.7415926477
 20
58.5380119526
 30
0.0
  0
VERTEX
  5
12D
100
AcDbEntity
  8
0
100
AcDbVertex
100
AcDb2dVertex
 10
107.2320253154
 20
58.6947405647
 30
0.0
  0
VERTEX
  5
12E
100
AcDbEntity
  8
0
100
AcDbVertex
100
AcDb2dVertex
 10
107.6777280615
 20
58.9313178368
 30
0.0
  0
VERTEX
  5
12F
100
AcDbEntity
  8
0
100
AcDbVertex
100
AcDb2dVertex
 10
108.0615727792
 20
59.238652237
 30
0.0
  0
VERTEX
  5
130
100
AcDbEntity
  8
0
100
AcDbVertex
100
AcDb2dVertex
 10
108.3688085315
 20
59.6049330765
 30
0.0
  0
VERTEX
  5
131
100
AcDbEntity
  8
0
100
AcDbVertex
100
AcDb2dVertex
 10
108.5876284206
 20
60.0160843882
 30
0.0
  0
VERTEX
  5
132
100
AcDbEntity
  8
0
100
AcDbVertex
100
AcDb2dVertex
 10
108.7096233209
 20
60.4563058578
 30
0.0
  0
VERTEX
  5
133
100
AcDbEntity
  8
0
100
AcDbVertex
100
AcDb2dVertex
 10
108.7301050368
 20
60.908680021
 30
0.0
  0
VERTEX
  5
134
100
AcDbEntity
  8
0
100
AcDbVertex
100
AcDb2dVertex
 10
108.6482864675
 20
61.3558223924
 30
0.0
  0
VERTEX
  5
135
100
AcDbEntity
  8
0
100
AcDbVertex
100
AcDb2dVertex
 10
108.4673118547
 20
61.7805495415
 30
0.0
  0
VERTEX
  5
136
100
AcDbEntity
  8
0
100
AcDbVertex
100
AcDb2dVertex
 10
108.1941359512
 20
62.1665394421
 30
0.0
  0
VERTEX
  5
137
100
AcDbEntity
  8
0
100
AcDbVertex
100
AcDb2dVertex
 10
107.8392567539
 20
62.4989587188
 30
0.0
  0
VERTEX
  5
138
100
AcDbEntity
  8
0
100
AcDbVertex
100
AcDb2dVertex
 10
107.4163120712
 20
62.7650326852
 30
0.0
  0
VERTEX
  5
139
100
AcDbEntity
  8
0
100
AcDbVertex
100
AcDb2dVertex
 10
106.9415554302
 20
62.954536268
 30
0.0
  0
SEQEND
  5
13A
100
AcDbEntity
  8
0
  0
LINE
  5
13B
100
AcDbEntity
  8
0
370
        15
  6
Continuous
 62
         7
100
AcDbLine
 10
106.9415554302
 20
62.954536268
 30
0.0
 11
74.1006977211
 21
72.8144797472
 31
0.0
  0
POLYLINE
  5
13C
100
AcDbEntity
  8
0
370
        15
  6
Continuous
 62
         7
100
AcDb2dPolyline
 66
         1
 10
0.0
 20
0.0
 30
0.0
 70
       128
  0
VERTEX
  5
13D
100
AcDbEntity
  8
0
100
AcDbVertex
100
AcDb2dVertex
 10
74.1006977211
 20
72.8144797472
 30
0.0
  0
VERTEX
  5
13E
100
AcDbEntity
  8
0
100
AcDbVertex
100
AcDb2dVertex
 10
73.1517010955
 20
73.0655563581
 30
0.0
  0
VERTEX
  5
13F
100
AcDbEntity
  8
0
100
AcDbVertex
100
AcDb2dVertex
 10
72.1837711765
 20
73.2548158753
 30
0.0
  0
VERTEX
  5
140
100
AcDbEntity
  8
0
100
AcDbVertex
100
AcDb2dVertex
 10
71.2022689799
 20
73.3812100584
 30
0.0
  0
VERTEX
  5
141
100
AcDbEntity
  8
0
100
AcDbVertex
100
AcDb2dVertex
 10
70.2126306936
 20
73.4440388556
 30
0.0
  0
VERTEX
  5
142
100
AcDbEntity
  8
0
100
AcDbVertex
100
AcDb2dVertex
 10
69.2203375684
 20
73.4429542805
 30
0.0
  0
VERTEX
  5
143
100
AcDbEntity
  8
0
100
AcDbVertex
100
AcDb2dVertex
 10
68.2308855593
 20
73.3779623404
 30
0.0
  0
VERTEX
  5
144
100
AcDbEntity
  8
0
100
AcDbVertex
100
AcDb2dVertex
 10
67.2497548854
 20
73.2494230022
 30
0.0
  0
VERTEX
  5
145
100
AcDbEntity
  8
0
100
AcDbVertex
100
AcDb2dVertex
 10
66.2823796767
 20
73.0580481991
 30
0.0
  0
SEQEND
  5
146
100
AcDbEntity
  8
0
  0
LINE
  5
147
100
AcDbEntity
  8
0
370
        15
  6
Continuous
 62
         7
100
AcDbLine
 10
66.2823796767
 20
73.0580481991
 30
0.0
 11
62.8292621848
 21
72.2567494965
 31
0.0
  0
LINE
  5
148
100
AcDbEntity
  8
0
370
        15
  6
Continuous
 62
         7
100
AcDbLine
 10
62.8292621848
 20
72.2567494965
 30
0.0
 11
61.1038018841
 21
77.8335248548
 31
0.0
  0
LINE
  5
149
100
AcDbEntity
  8
0
370
        15
  6
Continuous
 62
         7
100
AcDbLine
 10
107.1462662705
 20
88.5177158981
 30
0.0
 11
61.1038018841
 21
77.8335248548
 31
0.0
  0
LINE
  5
14A
100
AcDbEntity
  8
0
370
        15
  6
Continuous
 62
         7
100
AcDbLine
 10
117.4990280746
 20
55.0570637486
 30
0.0
 11
107.1462662705
 21
88.5177158981
 31
0.0
  0
LINE
  5
14B
100
AcDbEntity
  8
0
370
        15
  6
Continuous
 62
         7
100
AcDbLine
 10
63.5681694402
 20
42.5423644495
 30
0.0
 11
62.3603472297
 21
46.4461072003
 31
0.0
  0
LINE
  5
14C
100
AcDbEntity
  8
0
370
        15
  6
Continuous
 62
         7
100
AcDbLine
 10
59.9108574869
 20
47.6708520717
 30
0.0
 11
62.3603472297
 21
46.4461072003
 31
0.0
  0
LINE
  5
14D
100
AcDbEntity
  8
0
370
        15
  6
Continuous
 62
         7
100
AcDbLine
 10
58.3009811097
 20
47.2972789583
 30
0.0
 11
59.9108574869
 21
47.6708520717
 31
0.0
  0
LINE
  5
14E
100
AcDbEntity
  8
0
370
        15
  6
Continuous
 62
         7
100
AcDbLine
 10
56.8867675474
 20
45.1759586148
 30
0.0
 11
58.3009811097
 21
47.2972789583
 31
0.0
  0
LINE
  5
14F
100
AcDbEntity
  8
0
370
        15
  6
Continuous
 62
         7
100
AcDbLine
 10
56.8867675474
 20
45.1759586148
 30
0.0
 11
58.0945897579
 21
41.272215864
 31
0.0
  0
POLYLINE
  5
150
100
AcDbEntity
  8
0
370
        15
  6
Continuous
 62
         7
100
AcDb2dPolyline
 66
         1
 10
0.0
 20
0.0
 30
0.0
 70
       128
  0
VERTEX
  5
151
100
AcDbEntity
  8
0
100
AcDbVertex
100
AcDb2dVertex
 10
103.3349906586
 20
80.7595610278
 30
0.0
  0
VERTEX
  5
152
100
AcDbEntity
  8
0
100
AcDbVertex
100
AcDb2dVertex
 10
103.7217985061
 20
80.8962660465
 30
0.0
  0
VERTEX
  5
153
100
AcDbEntity
  8
0
100
AcDbVertex
100
AcDb2dVertex
 10
104.0571975399
 20
81.1119837124
 30
0.0
  0
VERTEX
  5
154
100
AcDbEntity
  8
0
100
AcDbVertex
100
AcDb2dVertex
 10
104.3201134051
 20
81.3931596914
 30
0.0
  0
VERTEX
  5
155
100
AcDbEntity
  8
0
100
AcDbVertex
100
AcDb2dVertex
 10
104.4940261309
 20
81.7221266626
 30
0.0
  0
VERTEX
  5
156
100
AcDbEntity
  8
0
100
AcDbVertex
100
AcDb2dVertex
 10
104.5680081413
 20
82.0782144213
 30
0.0
  0
VERTEX
  5
157
100
AcDbEntity
  8
0
100
AcDbVertex
100
AcDb2dVertex
 10
104.5374108744
 20
82.4390486641
 30
0.0
  0
VERTEX
  5
158
100
AcDbEntity
  8
0
100
AcDbVertex
100
AcDb2dVertex
 10
104.4041568691
 20
82.7819568484
 30
0.0
  0
VERTEX
  5
159
100
AcDbEntity
  8
0
100
AcDbVertex
100
AcDb2dVertex
 10
104.1766189645
 20
83.0853927918
 30
0.0
  0
VERTEX
  5
15A
100
AcDbEntity
  8
0
100
AcDbVertex
100
AcDb2dVertex
 10
103.869094204
 20
83.3302904981
 30
0.0
  0
VERTEX
  5
15B
100
AcDbEntity
  8
0
100
AcDbVertex
100
AcDb2dVertex
 10
103.5009054993
 20
83.5012621438
 30
0.0
  0
VERTEX
  5
15C
100
AcDbEntity
  8
0
100
AcDbVertex
100
AcDb2dVertex
 10
103.0951875009
 20
83.5875649515
 30
0.0
  0
VERTEX
  5
15D
100
AcDbEntity
  8
0
100
AcDbVertex
100
AcDb2dVertex
 10
102.6774329627
 20
83.5837761984
 30
0.0
  0
VERTEX
  5
15E
100
AcDbEntity
  8
0
100
AcDbVertex
100
AcDb2dVertex
 10
102.2738909387
 20
83.4901339458
 30
0.0
  0
VERTEX
  5
15F
100
AcDbEntity
  8
0
100
AcDbVertex
100
AcDb2dVertex
 10
101.9099174585
 20
83.3125220809
 30
0.0
  0
VERTEX
  5
160
100
AcDbEntity
  8
0
100
AcDbVertex
100
AcDb2dVertex
 10
101.6083823143
 20
83.0621006103
 30
0.0
  0
VERTEX
  5
161
100
AcDbEntity
  8
0
100
AcDbVertex
100
AcDb2dVertex
 10
101.3882320683
 20
82.7546044361
 30
0.0
  0
VERTEX
  5
162
100
AcDbEntity
  8
0
100
AcDbVertex
100
AcDb2dVertex
 10
101.2632995701
 20
82.4093546736
 30
0.0
  0
VERTEX
  5
163
100
AcDbEntity
  8
0
100
AcDbVertex
100
AcDb2dVertex
 10
101.241434788
 20
82.0480446353
 30
0.0
  0
VERTEX
  5
164
100
AcDbEntity
  8
0
100
AcDbVertex
100
AcDb2dVertex
 10
101.3240115667
 20
81.6933767597
 30
0.0
  0
VERTEX
  5
165
100
AcDbEntity
  8
0
100
AcDbVertex
100
AcDb2dVertex
 10
101.5058413035
 20
81.3676361337
 30
0.0
  0
VERTEX
  5
166
100
AcDbEntity
  8
0
100
AcDbVertex
100
AcDb2dVertex
 10
101.7754989673
 20
81.0912902389
 30
0.0
  0
VERTEX
  5
167
100
AcDbEntity
  8
0
100
AcDbVertex
100
AcDb2dVertex
 10
102.1160409753
 20
80.8817029042
 30
0.0
  0
VERTEX
  5
168
100
AcDbEntity
  8
0
100
AcDbVertex
100
AcDb2dVertex
 10
102.5060698208
 20
80.7520432726
 30
0.0
  0
VERTEX
  5
169
100
AcDbEntity
  8
0
100
AcDbVertex
100
AcDb2dVertex
 10
102.9210785569
 20
80.7104583356
 30
0.0
  0
VERTEX
  5
16A
100
AcDbEntity
  8
0
100
AcDbVertex
100
AcDb2dVertex
 10
103.3349906586
 20
80.7595610278
 30
0.0
  0
SEQEND
  5
16B
100
AcDbEntity
  8
0
  0
POLYLINE
  5
16C
100
AcDbEntity
  8
0
370
        15
  6
Continuous
 62
         7
100
AcDb2dPolyline
 66
         1
 10
0.0
 20
0.0
 30
0.0
 70
       128
  0
VERTEX
  5
16D
100
AcDbEntity
  8
0
100
AcDbVertex
100
AcDb2dVertex
 10
32.0199567166
 20
39.1067365891
 30
0.0
  0
VERTEX
  5
16E
100
AcDbEntity
  8
0
100
AcDbVertex
100
AcDb2dVertex
 10
32.4067645641
 20
39.2434416077
 30
0.0
  0
VERTEX
  5
16F
100
AcDbEntity
  8
0
100
AcDbVertex
100
AcDb2dVertex
 10
32.7421635979
 20
39.4591592737
 30
0.0
  0
VERTEX
  5
170
100
AcDbEntity
  8
0
100
AcDbVertex
100
AcDb2dVertex
 10
33.0050794631
 20
39.7403352527
 30
0.0
  0
VERTEX
  5
171
100
AcDbEntity
  8
0
100
AcDbVertex
100
AcDb2dVertex
 10
33.178992189
 20
40.0693022239
 30
0.0
  0
VERTEX
  5
172
100
AcDbEntity
  8
0
100
AcDbVertex
100
AcDb2dVertex
 10
33.2529741994
 20
40.4253899826
 30
0.0
  0
VERTEX
  5
173
100
AcDbEntity
  8
0
100
AcDbVertex
100
AcDb2dVertex
 10
33.2223769325
 20
40.7862242253
 30
0.0
  0
VERTEX
  5
174
100
AcDbEntity
  8
0
100
AcDbVertex
100
AcDb2dVertex
 10
33.0891229271
 20
41.1291324096
 30
0.0
  0
VERTEX
  5
175
100
AcDbEntity
  8
0
100
AcDbVertex
100
AcDb2dVertex
 10
32.8615850225
 20
41.432568353
 30
0.0
  0
VERTEX
  5
176
100
AcDbEntity
  8
0
100
AcDbVertex
100
AcDb2dVertex
 10
32.554060262
 20
41.6774660594
 30
0.0
  0
VERTEX
  5
177
100
AcDbEntity
  8
0
100
AcDbVertex
100
AcDb2dVertex
 10
32.1858715573
 20
41.848437705
 30
0.0
  0
VERTEX
  5
178
100
AcDbEntity
  8
0
100
AcDbVertex
100
AcDb2dVertex
 10
31.7801535589
 20
41.9347405127
 30
0.0
  0
VERTEX
  5
179
100
AcDbEntity
  8
0
100
AcDbVertex
100
AcDb2dVertex
 10
31.3623990207
 20
41.9309517596
 30
0.0
  0
VERTEX
  5
17A
100
AcDbEntity
  8
0
100
AcDbVertex
100
AcDb2dVertex
 10
30.9588569967
 20
41.8373095071
 30
0.0
  0
VERTEX
  5
17B
100
AcDbEntity
  8
0
100
AcDbVertex
100
AcDb2dVertex
 10
30.5948835165
 20
41.6596976422
 30
0.0
  0
VERTEX
  5
17C
100
AcDbEntity
  8
0
100
AcDbVertex
100
AcDb2dVertex
 10
30.2933483723
 20
41.4092761716
 30
0.0
  0
VERTEX
  5
17D
100
AcDbEntity
  8
0
100
AcDbVertex
100
AcDb2dVertex
 10
30.0731981264
 20
41.1017799973
 30
0.0
  0
VERTEX
  5
17E
100
AcDbEntity
  8
0
100
AcDbVertex
100
AcDb2dVertex
 10
29.9482656282
 20
40.7565302349
 30
0.0
  0
VERTEX
  5
17F
100
AcDbEntity
  8
0
100
AcDbVertex
100
AcDb2dVertex
 10
29.9264008461
 20
40.3952201966
 30
0.0
  0
VERTEX
  5
180
100
AcDbEntity
  8
0
100
AcDbVertex
100
AcDb2dVertex
 10
30.0089776248
 20
40.0405523209
 30
0.0
  0
VERTEX
  5
181
100
AcDbEntity
  8
0
100
AcDbVertex
100
AcDb2dVertex
 10
30.1908073615
 20
39.714811695
 30
0.0
  0
VERTEX
  5
182
100
AcDbEntity
  8
0
100
AcDbVertex
100
AcDb2dVertex
 10
30.4604650253
 20
39.4384658002
 30
0.0
  0
VERTEX
  5
183
100
AcDbEntity
  8
0
100
AcDbVertex
100
AcDb2dVertex
 10
30.8010070333
 20
39.2288784654
 30
0.0
  0
VERTEX
  5
184
100
AcDbEntity
  8
0
100
AcDbVertex
100
AcDb2dVertex
 10
31.1910358788
 20
39.0992188338
 30
0.0
  0
VERTEX
  5
185
100
AcDbEntity
  8
0
100
AcDbVertex
100
AcDb2dVertex
 10
31.606044615
 20
39.0576338969
 30
0.0
  0
VERTEX
  5
186
100
AcDbEntity
  8
0
100
AcDbVertex
100
AcDb2dVertex
 10
32.0199567166
 20
39.1067365891
 30
0.0
  0
SEQEND
  5
187
100
AcDbEntity
  8
0
  0
LINE
  5
188
100
AcDbEntity
  8
0
370
        15
  6
Continuous
 62
         7
100
AcDbLine
 10
27.3459509543
 20
29.136969398
 30
0.0
 11
16.9931891502
 21
62.5976215475
 31
0.0
  0
LINE
  5
189
100
AcDbEntity
  8
0
370
        15
  6
Continuous
 62
         7
100
AcDbLine
 10
16.9931891502
 20
67.5976215475
 30
0.0
 11
16.9931891502
 21
62.5976215475
 31
0.0
  0
POLYLINE
  5
18A
100
AcDbEntity
  8
0
370
        15
  6
Continuous
 62
         7
100
AcDb2dPolyline
 66
         1
 10
0.0
 20
0.0
 30
0.0
 70
       128
  0
VERTEX
  5
18B
100
AcDbEntity
  8
0
100
AcDbVertex
100
AcDb2dVertex
 10
62.3603472297
 20
46.4461072003
 30
0.0
  0
VERTEX
  5
18C
100
AcDbEntity
  8
0
100
AcDbVertex
100
AcDb2dVertex
 10
62.3077605803
 20
46.1575264697
 30
0.0
  0
VERTEX
  5
18D
100
AcDbEntity
  8
0
100
AcDbVertex
100
AcDb2dVertex
 10
62.1520215076
 20
45.8556301858
 30
0.0
  0
VERTEX
  5
18E
100
AcDbEntity
  8
0
100
AcDbVertex
100
AcDb2dVertex
 10
61.8991149767
 20
45.5520200534
 30
0.0
  0
VERTEX
  5
18F
100
AcDbEntity
  8
0
100
AcDbVertex
100
AcDb2dVertex
 10
61.5587600439
 20
45.2583636398
 30
0.0
  0
VERTEX
  5
190
100
AcDbEntity
  8
0
100
AcDbVertex
100
AcDb2dVertex
 10
61.1440363583
 20
44.9859459963
 30
0.0
  0
VERTEX
  5
191
100
AcDbEntity
  8
0
100
AcDbVertex
100
AcDb2dVertex
 10
60.6708815186
 20
44.74523598
 30
0.0
  0
VERTEX
  5
192
100
AcDbEntity
  8
0
100
AcDbVertex
100
AcDb2dVertex
 10
60.1574785999
 20
44.5454839419
 30
0.0
  0
VERTEX
  5
193
100
AcDbEntity
  8
0
100
AcDbVertex
100
AcDb2dVertex
 10
59.6235573885
 20
44.3943662409
 30
0.0
  0
VERTEX
  5
194
100
AcDbEntity
  8
0
100
AcDbVertex
100
AcDb2dVertex
 10
59.0896361771
 20
44.2976902454
 30
0.0
  0
VERTEX
  5
195
100
AcDbEntity
  8
0
100
AcDbVertex
100
AcDb2dVertex
 10
58.5762332585
 20
44.2591711596
 30
0.0
  0
VERTEX
  5
196
100
AcDbEntity
  8
0
100
AcDbVertex
100
AcDb2dVertex
 10
58.1030784188
 20
44.2802892506
 30
0.0
  0
VERTEX
  5
197
100
AcDbEntity
  8
0
100
AcDbVertex
100
AcDb2dVertex
 10
57.6883547332
 20
44.3602329619
 30
0.0
  0
VERTEX
  5
198
100
AcDbEntity
  8
0
100
AcDbVertex
100
AcDb2dVertex
 10
57.3479998004
 20
44.4959301014
 30
0.0
  0
VERTEX
  5
199
100
AcDbEntity
  8
0
100
AcDbVertex
100
AcDb2dVertex
 10
57.0950932695
 20
44.6821659043
 30
0.0
  0
VERTEX
  5
19A
100
AcDbEntity
  8
0
100
AcDbVertex
100
AcDb2dVertex
 10
57.0063181937
 20
44.7895648516
 30
0.0
  0
SEQEND
  5
19B
100
AcDbEntity
  8
0
  0
POLYLINE
  5
19C
100
AcDbEntity
  8
0
370
        15
  6
Continuous
 62
         7
100
AcDb2dPolyline
 66
         1
 10
0.0
 20
0.0
 30
0.0
 70
       128
  0
VERTEX
  5
19D
100
AcDbEntity
  8
0
100
AcDbVertex
100
AcDb2dVertex
 10
58.3009811097
 20
47.2972789583
 30
0.0
  0
VERTEX
  5
19E
100
AcDbEntity
  8
0
100
AcDbVertex
100
AcDb2dVertex
 10
58.362253381
 20
47.1520458082
 30
0.0
  0
VERTEX
  5
19F
100
AcDbEntity
  8
0
100
AcDbVertex
100
AcDb2dVertex
 10
58.5367420467
 20
47.0573596486
 30
0.0
  0
VERTEX
  5
1A0
100
AcDbEntity
  8
0
100
AcDbVertex
100
AcDb2dVertex
 10
58.7978827895
 20
47.0276355892
 30
0.0
  0
VERTEX
  5
1A1
100
AcDbEntity
  8
0
100
AcDbVertex
100
AcDb2dVertex
 10
59.1059192983
 20
47.0673988483
 30
0.0
  0
VERTEX
  5
1A2
100
AcDbEntity
  8
0
100
AcDbVertex
100
AcDb2dVertex
 10
59.4139558072
 20
47.1705958304
 30
0.0
  0
VERTEX
  5
1A3
100
AcDbEntity
  8
0
100
AcDbVertex
100
AcDb2dVertex
 10
59.6750965499
 20
47.3215157304
 30
0.0
  0
VERTEX
  5
1A4
100
AcDbEntity
  8
0
100
AcDbVertex
100
AcDb2dVertex
 10
59.8495852157
 20
47.4971823615
 30
0.0
  0
VERTEX
  5
1A5
100
AcDbEntity
  8
0
100
AcDbVertex
100
AcDb2dVertex
 10
59.9108574869
 20
47.6708520717
 30
0.0
  0
SEQEND
  5
1A6
100
AcDbEntity
  8
0
  0
POLYLINE
  5
1A7
100
AcDbEntity
  8
0
370
        15
  6
Continuous
 62
         7
100
AcDb2dPolyline
 66
         1
 10
0.0
 20
0.0
 30
0.0
 70
       128
  0
VERTEX
  5
1A8
100
AcDbEntity
  8
0
100
AcDbVertex
100
AcDb2dVertex
 10
40.7258408706
 20
53.5168395002
 30
0.0
  0
VERTEX
  5
1A9
100
AcDbEntity
  8
0
100
AcDbVertex
100
AcDb2dVertex
 10
41.1441360878
 20
53.6091615216
 30
0.0
  0
VERTEX
  5
1AA
100
AcDbEntity
  8
0
100
AcDbVertex
100
AcDb2dVertex
 10
41.6301761154
 20
53.6281739849
 30
0.0
  0
VERTEX
  5
1AB
100
AcDbEntity
  8
0
100
AcDbVertex
100
AcDb2dVertex
 10
42.1095721941
 20
53.5562559424
 30
0.0
  0
VERTEX
  5
1AC
100
AcDbEntity
  8
0
100
AcDbVertex
100
AcDb2dVertex
 10
42.2503322855
 20
53.5168395002
 30
0.0
  0
SEQEND
  5
1AD
100
AcDbEntity
  8
0
  0
LINE
  5
1AE
100
AcDbEntity
  8
0
370
        15
  6
Continuous
 62
         7
100
AcDbLine
 10
60.8974105322
 20
71.8084617604
 30
0.0
 11
54.779880299
 21
70.3888839295
 31
0.0
  0
POLYLINE
  5
1AF
100
AcDbEntity
  8
0
370
        15
  6
Continuous
 62
         7
100
AcDb2dPolyline
 66
         1
 10
0.0
 20
0.0
 30
0.0
 70
       128
  0
VERTEX
  5
1B0
100
AcDbEntity
  8
0
100
AcDbVertex
100
AcDb2dVertex
 10
62.8292621848
 20
72.2567494965
 30
0.0
  0
VERTEX
  5
1B1
100
AcDbEntity
  8
0
100
AcDbVertex
100
AcDb2dVertex
 10
62.7710097297
 20
72.0722218956
 30
0.0
  0
VERTEX
  5
1B2
100
AcDbEntity
  8
0
100
AcDbVertex
100
AcDb2dVertex
 10
62.6032784702
 20
71.8829159882
 30
0.0
  0
VERTEX
  5
1B3
100
AcDbEntity
  8
0
100
AcDbVertex
100
AcDb2dVertex
 10
62.3462992716
 20
71.7116648606
 30
0.0
  0
VERTEX
  5
1B4
100
AcDbEntity
  8
0
100
AcDbVertex
100
AcDb2dVertex
 10
62.031067618
 20
71.5791239262
 30
0.0
  0
VERTEX
  5
1B5
100
AcDbEntity
  8
0
100
AcDbVertex
100
AcDb2dVertex
 10
61.695605099
 20
71.5012795778
 30
0.0
  0
VERTEX
  5
1B6
100
AcDbEntity
  8
0
100
AcDbVertex
100
AcDb2dVertex
 10
61.3803734453
 20
71.4875209926
 30
0.0
  0
VERTEX
  5
1B7
100
AcDbEntity
  8
0
100
AcDbVertex
100
AcDb2dVertex
 10
61.1233942468
 20
71.5395076591
 30
0.0
  0
VERTEX
  5
1B8
100
AcDbEntity
  8
0
100
AcDbVertex
100
AcDb2dVertex
 10
60.9556629873
 20
71.650969218
 30
0.0
  0
VERTEX
  5
1B9
100
AcDbEntity
  8
0
100
AcDbVertex
100
AcDb2dVertex
 10
60.8974105322
 20
71.8084617604
 30
0.0
  0
SEQEND
  5
1BA
100
AcDbEntity
  8
0
  0
POLYLINE
  5
1BB
100
AcDbEntity
  8
0
370
        15
  6
Continuous
 62
         7
100
AcDb2dPolyline
 66
         1
 10
0.0
 20
0.0
 30
0.0
 70
       128
  0
VERTEX
  5
1BC
100
AcDbEntity
  8
0
100
AcDbVertex
100
AcDb2dVertex
 10
43.510745659
 20
67.7738721357
 30
0.0
  0
VERTEX
  5
1BD
100
AcDbEntity
  8
0
100
AcDbVertex
100
AcDb2dVertex
 10
43.4524932039
 20
67.5893445348
 30
0.0
  0
VERTEX
  5
1BE
100
AcDbEntity
  8
0
100
AcDbVertex
100
AcDb2dVertex
 10
43.2847619444
 20
67.4000386274
 30
0.0
  0
VERTEX
  5
1BF
100
AcDbEntity
  8
0
100
AcDbVertex
100
AcDb2dVertex
 10
43.0277827458
 20
67.2287874998
 30
0.0
  0
VERTEX
  5
1C0
100
AcDbEntity
  8
0
100
AcDbVertex
100
AcDb2dVertex
 10
42.7125510922
 20
67.0962465654
 30
0.0
  0
VERTEX
  5
1C1
100
AcDbEntity
  8
0
100
AcDbVertex
100
AcDb2dVertex
 10
42.3770885732
 20
67.0184022169
 30
0.0
  0
VERTEX
  5
1C2
100
AcDbEntity
  8
0
100
AcDbVertex
100
AcDb2dVertex
 10
42.0618569195
 20
67.0046436317
 30
0.0
  0
VERTEX
  5
1C3
100
AcDbEntity
  8
0
100
AcDbVertex
100
AcDb2dVertex
 10
41.804877721
 20
67.0566302982
 30
0.0
  0
VERTEX
  5
1C4
100
AcDbEntity
  8
0
100
AcDbVertex
100
AcDb2dVertex
 10
41.6371464615
 20
67.1680918572
 30
0.0
  0
VERTEX
  5
1C5
100
AcDbEntity
  8
0
100
AcDbVertex
100
AcDb2dVertex
 10
41.5788940064
 20
67.3255843996
 30
0.0
  0
SEQEND
  5
1C6
100
AcDbEntity
  8
0
  0
LINE
  5
1C7
100
AcDbEntity
  8
0
370
        15
  6
Continuous
 62
         7
100
AcDbLine
 10
49.6282758922
 20
69.1934499666
 30
0.0
 11
43.510745659
 21
67.7738721357
 31
0.0
  0
POLYLINE
  5
1C8
100
AcDbEntity
  8
0
370
        15
  6
Continuous
 62
         7
100
AcDb2dPolyline
 66
         1
 10
0.0
 20
0.0
 30
0.0
 70
       128
  0
VERTEX
  5
1C9
100
AcDbEntity
  8
0
100
AcDbVertex
100
AcDb2dVertex
 10
54.779880299
 20
70.3888839295
 30
0.0
  0
VERTEX
  5
1CA
100
AcDbEntity
  8
0
100
AcDbVertex
100
AcDb2dVertex
 10
54.7303869819
 20
70.117278536
 30
0.0
  0
VERTEX
  5
1CB
100
AcDbEntity
  8
0
100
AcDbVertex
100
AcDb2dVertex
 10
54.5838090311
 20
69.833140857
 30
0.0
  0
VERTEX
  5
1CC
100
AcDbEntity
  8
0
100
AcDbVertex
100
AcDb2dVertex
 10
54.345779355
 20
69.5473901442
 30
0.0
  0
VERTEX
  5
1CD
100
AcDbEntity
  8
0
100
AcDbVertex
100
AcDb2dVertex
 10
54.0254453006
 20
69.2710076373
 30
0.0
  0
VERTEX
  5
1CE
100
AcDbEntity
  8
0
100
AcDbVertex
100
AcDb2dVertex
 10
53.6351171259
 20
69.014614561
 30
0.0
  0
VERTEX
  5
1CF
100
AcDbEntity
  8
0
100
AcDbVertex
100
AcDb2dVertex
 10
53.1897949239
 20
68.7880639574
 30
0.0
  0
VERTEX
  5
1D0
100
AcDbEntity
  8
0
100
AcDbVertex
100
AcDb2dVertex
 10
52.7065921769
 20
68.6000620393
 30
0.0
  0
VERTEX
  5
1D1
100
AcDbEntity
  8
0
100
AcDbVertex
100
AcDb2dVertex
 10
52.2040780956
 20
68.4578336147
 30
0.0
  0
VERTEX
  5
1D2
100
AcDbEntity
  8
0
100
AcDbVertex
100
AcDb2dVertex
 10
51.7015640143
 20
68.3668444425
 30
0.0
  0
VERTEX
  5
1D3
100
AcDbEntity
  8
0
100
AcDbVertex
100
AcDb2dVertex
 10
51.2183612673
 20
68.3305911854
 30
0.0
  0
VERTEX
  5
1D4
100
AcDbEntity
  8
0
100
AcDbVertex
100
AcDb2dVertex
 10
50.7730390652
 20
68.3504670357
 30
0.0
  0
VERTEX
  5
1D5
100
AcDbEntity
  8
0
100
AcDbVertex
100
AcDb2dVertex
 10
50.3827108905
 20
68.4257081757
 30
0.0
  0
VERTEX
  5
1D6
100
AcDbEntity
  8
0
100
AcDbVertex
100
AcDb2dVertex
 10
50.0623768361
 20
68.5534231306
 30
0.0
  0
VERTEX
  5
1D7
100
AcDbEntity
  8
0
100
AcDbVertex
100
AcDb2dVertex
 10
49.82434716
 20
68.7287038862
 30
0.0
  0
VERTEX
  5
1D8
100
AcDbEntity
  8
0
100
AcDbVertex
100
AcDb2dVertex
 10
49.6777692092
 20
68.9448145015
 30
0.0
  0
VERTEX
  5
1D9
100
AcDbEntity
  8
0
100
AcDbVertex
100
AcDb2dVertex
 10
49.6282758922
 20
69.1934499666
 30
0.0
  0
SEQEND
  5
1DA
100
AcDbEntity
  8
0
  0
POLYLINE
  5
1DB
100
AcDbEntity
  8
0
370
        15
  6
Continuous
 62
         7
100
AcDb2dPolyline
 66
         1
 10
0.0
 20
0.0
 30
0.0
 70
       128
  0
VERTEX
  5
1DC
100
AcDbEntity
  8
0
100
AcDbVertex
100
AcDb2dVertex
 10
101.9011432022
 20
67.7126178096
 30
0.0
  0
VERTEX
  5
1DD
100
AcDbEntity
  8
0
100
AcDbVertex
100
AcDb2dVertex
 10
102.3194384194
 20
67.804939831
 30
0.0
  0
VERTEX
  5
1DE
100
AcDbEntity
  8
0
100
AcDbVertex
100
AcDb2dVertex
 10
102.805478447
 20
67.8239522943
 30
0.0
  0
VERTEX
  5
1DF
100
AcDbEntity
  8
0
100
AcDbVertex
100
AcDb2dVertex
 10
103.2848745258
 20
67.7520342518
 30
0.0
  0
VERTEX
  5
1E0
100
AcDbEntity
  8
0
100
AcDbVertex
100
AcDb2dVertex
 10
103.4256346171
 20
67.7126178096
 30
0.0
  0
SEQEND
  5
1E1
100
AcDbEntity
  8
0
  0
POLYLINE
  5
1E2
100
AcDbEntity
  8
0
370
        15
  6
Continuous
 62
         7
100
AcDb2dPolyline
 66
         1
 10
0.0
 20
0.0
 30
0.0
 70
       128
  0
VERTEX
  5
1E3
100
AcDbEntity
  8
0
100
AcDbVertex
100
AcDb2dVertex
 10
41.7852853583
 20
73.350647494
 30
0.0
  0
VERTEX
  5
1E4
100
AcDbEntity
  8
0
100
AcDbVertex
100
AcDb2dVertex
 10
41.7270329032
 20
73.166119893
 30
0.0
  0
VERTEX
  5
1E5
100
AcDbEntity
  8
0
100
AcDbVertex
100
AcDb2dVertex
 10
41.5593016437
 20
72.9768139856
 30
0.0
  0
VERTEX
  5
1E6
100
AcDbEntity
  8
0
100
AcDbVertex
100
AcDb2dVertex
 10
41.3023224451
 20
72.805562858
 30
0.0
  0
VERTEX
  5
1E7
100
AcDbEntity
  8
0
100
AcDbVertex
100
AcDb2dVertex
 10
40.9870907915
 20
72.6730219236
 30
0.0
  0
VERTEX
  5
1E8
100
AcDbEntity
  8
0
100
AcDbVertex
100
AcDb2dVertex
 10
40.6516282725
 20
72.5951775752
 30
0.0
  0
VERTEX
  5
1E9
100
AcDbEntity
  8
0
100
AcDbVertex
100
AcDb2dVertex
 10
40.3363966189
 20
72.58141899
 30
0.0
  0
VERTEX
  5
1EA
100
AcDbEntity
  8
0
100
AcDbVertex
100
AcDb2dVertex
 10
40.0794174203
 20
72.6334056565
 30
0.0
  0
VERTEX
  5
1EB
100
AcDbEntity
  8
0
100
AcDbVertex
100
AcDb2dVertex
 10
39.9116861608
 20
72.7448672155
 30
0.0
  0
VERTEX
  5
1EC
100
AcDbEntity
  8
0
100
AcDbVertex
100
AcDb2dVertex
 10
39.8956280515
 20
72.7659854885
 30
0.0
  0
SEQEND
  5
1ED
100
AcDbEntity
  8
0
  0
LINE
  5
1EE
100
AcDbEntity
  8
0
370
        15
  6
Continuous
 62
         7
100
AcDbLine
 10
43.510745659
 20
67.7738721357
 30
0.0
 11
41.7852853583
 21
73.350647494
 31
0.0
  0
LINE
  5
1EF
100
AcDbEntity
  8
0
370
        15
  6
Continuous
 62
         7
100
AcDbLine
 10
47.9028155914
 20
74.7702253249
 30
0.0
 11
49.6282758922
 21
69.1934499666
 31
0.0
  0
LINE
  5
1F0
100
AcDbEntity
  8
0
370
        15
  6
Continuous
 62
         7
100
AcDbLine
 10
47.9028155914
 20
74.7702253249
 30
0.0
 11
41.7852853583
 21
73.350647494
 31
0.0
  0
LINE
  5
1F1
100
AcDbEntity
  8
0
370
        15
  6
Continuous
 62
         7
100
AcDbLine
 10
54.779880299
 20
70.3888839295
 30
0.0
 11
53.0544199983
 21
75.9656592878
 31
0.0
  0
POLYLINE
  5
1F2
100
AcDbEntity
  8
0
370
        15
  6
Continuous
 62
         7
100
AcDb2dPolyline
 66
         1
 10
0.0
 20
0.0
 30
0.0
 70
       128
  0
VERTEX
  5
1F3
100
AcDbEntity
  8
0
100
AcDbVertex
100
AcDb2dVertex
 10
53.0544199983
 20
75.9656592878
 30
0.0
  0
VERTEX
  5
1F4
100
AcDbEntity
  8
0
100
AcDbVertex
100
AcDb2dVertex
 10
53.0049266812
 20
75.6940538942
 30
0.0
  0
VERTEX
  5
1F5
100
AcDbEntity
  8
0
100
AcDbVertex
100
AcDb2dVertex
 10
52.8583487304
 20
75.4099162152
 30
0.0
  0
VERTEX
  5
1F6
100
AcDbEntity
  8
0
100
AcDbVertex
100
AcDb2dVertex
 10
52.6203190543
 20
75.1241655025
 30
0.0
  0
VERTEX
  5
1F7
100
AcDbEntity
  8
0
100
AcDbVertex
100
AcDb2dVertex
 10
52.2999849999
 20
74.8477829956
 30
0.0
  0
VERTEX
  5
1F8
100
AcDbEntity
  8
0
100
AcDbVertex
100
AcDb2dVertex
 10
51.9096568253
 20
74.5913899193
 30
0.0
  0
VERTEX
  5
1F9
100
AcDbEntity
  8
0
100
AcDbVertex
100
AcDb2dVertex
 10
51.4643346232
 20
74.3648393157
 30
0.0
  0
VERTEX
  5
1FA
100
AcDbEntity
  8
0
100
AcDbVertex
100
AcDb2dVertex
 10
50.9811318762
 20
74.1768373975
 30
0.0
  0
VERTEX
  5
1FB
100
AcDbEntity
  8
0
100
AcDbVertex
100
AcDb2dVertex
 10
50.4786177949
 20
74.034608973
 30
0.0
  0
VERTEX
  5
1FC
100
AcDbEntity
  8
0
100
AcDbVertex
100
AcDb2dVertex
 10
49.9761037136
 20
73.9436198007
 30
0.0
  0
VERTEX
  5
1FD
100
AcDbEntity
  8
0
100
AcDbVertex
100
AcDb2dVertex
 10
49.4929009666
 20
73.9073665436
 30
0.0
  0
VERTEX
  5
1FE
100
AcDbEntity
  8
0
100
AcDbVertex
100
AcDb2dVertex
 10
49.0475787645
 20
73.9272423939
 30
0.0
  0
VERTEX
  5
1FF
100
AcDbEntity
  8
0
100
AcDbVertex
100
AcDb2dVertex
 10
48.6572505898
 20
74.0024835339
 30
0.0
  0
VERTEX
  5
200
100
AcDbEntity
  8
0
100
AcDbVertex
100
AcDb2dVertex
 10
48.3369165354
 20
74.1301984888
 30
0.0
  0
VERTEX
  5
201
100
AcDbEntity
  8
0
100
AcDbVertex
100
AcDb2dVertex
 10
48.0988868593
 20
74.3054792445
 30
0.0
  0
VERTEX
  5
202
100
AcDbEntity
  8
0
100
AcDbVertex
100
AcDb2dVertex
 10
48.0153338469
 20
74.4065606066
 30
0.0
  0
SEQEND
  5
203
100
AcDbEntity
  8
0
  0
LINE
  5
204
100
AcDbEntity
  8
0
370
        15
  6
Continuous
 62
         7
100
AcDbLine
 10
59.1719502315
 20
77.3852371187
 30
0.0
 11
60.8974105322
 21
71.8084617604
 31
0.0
  0
LINE
  5
205
100
AcDbEntity
  8
0
370
        15
  6
Continuous
 62
         7
100
AcDbLine
 10
59.1719502315
 20
77.3852371187
 30
0.0
 11
53.0544199983
 21
75.9656592878
 31
0.0
  0
POLYLINE
  5
206
100
AcDbEntity
  8
0
370
        15
  6
Continuous
 62
         7
100
AcDb2dPolyline
 66
         1
 10
0.0
 20
0.0
 30
0.0
 70
       128
  0
VERTEX
  5
207
100
AcDbEntity
  8
0
100
AcDbVertex
100
AcDb2dVertex
 10
61.1038018841
 20
77.8335248548
 30
0.0
  0
VERTEX
  5
208
100
AcDbEntity
  8
0
100
AcDbVertex
100
AcDb2dVertex
 10
61.045549429
 20
77.6489972539
 30
0.0
  0
VERTEX
  5
209
100
AcDbEntity
  8
0
100
AcDbVertex
100
AcDb2dVertex
 10
60.8778181695
 20
77.4596913465
 30
0.0
  0
VERTEX
  5
20A
100
AcDbEntity
  8
0
100
AcDbVertex
100
AcDb2dVertex
 10
60.6208389709
 20
77.2884402189
 30
0.0
  0
VERTEX
  5
20B
100
AcDbEntity
  8
0
100
AcDbVertex
100
AcDb2dVertex
 10
60.3056073173
 20
77.1558992845
 30
0.0
  0
VERTEX
  5
20C
100
AcDbEntity
  8
0
100
AcDbVertex
100
AcDb2dVertex
 10
59.9701447983
 20
77.078054936
 30
0.0
  0
VERTEX
  5
20D
100
AcDbEntity
  8
0
100
AcDbVertex
100
AcDb2dVertex
 10
59.6549131446
 20
77.0642963508
 30
0.0
  0
VERTEX
  5
20E
100
AcDbEntity
  8
0
100
AcDbVertex
100
AcDb2dVertex
 10
59.3979339461
 20
77.1162830173
 30
0.0
  0
VERTEX
  5
20F
100
AcDbEntity
  8
0
100
AcDbVertex
100
AcDb2dVertex
 10
59.2302026866
 20
77.2277445763
 30
0.0
  0
VERTEX
  5
210
100
AcDbEntity
  8
0
100
AcDbVertex
100
AcDb2dVertex
 10
59.2141445773
 20
77.2488628494
 30
0.0
  0
SEQEND
  5
211
100
AcDbEntity
  8
0
  0
POLYLINE
  5
212
100
AcDbEntity
  8
0
  6
Continuous
 62
         7
100
AcDb2dPolyline
 66
         1
 10
0.0
 20
0.0
 30
0.0
 70
       128
  0
VERTEX
  5
213
100
AcDbEntity
  8
0
100
AcDbVertex
100
AcDb2dVertex
 10
103.35357303
 20
67.3152409996
 30
0.0
  0
VERTEX
  5
214
100
AcDbEntity
  8
0
100
AcDbVertex
100
AcDb2dVertex
 10
102.3153190638
 20
67.2563073125
 30
0.0
  0
VERTEX
  5
215
100
AcDbEntity
  8
0
100
AcDbVertex
100
AcDb2dVertex
 10
101.3300555764
 20
67.5459511429
 30
0.0
  0
VERTEX
  5
216
100
AcDbEntity
  8
0
100
AcDbVertex
100
AcDb2dVertex
 10
100.5477800022
 20
68.1400768433
 30
0.0
  0
VERTEX
  5
217
100
AcDbEntity
  8
0
100
AcDbVertex
100
AcDb2dVertex
 10
100.0875867063
 20
68.9482341615
 30
0.0
  0
VERTEX
  5
218
100
AcDbEntity
  8
0
100
AcDbVertex
100
AcDb2dVertex
 10
100.019535946
 20
69.8473884718
 30
0.0
  0
VERTEX
  5
219
100
AcDbEntity
  8
0
100
AcDbVertex
100
AcDb2dVertex
 10
100.3539878329
 20
70.7006516813
 30
0.0
  0
VERTEX
  5
21A
100
AcDbEntity
  8
0
100
AcDbVertex
100
AcDb2dVertex
 10
101.040025099
 20
71.3781222012
 30
0.0
  0
VERTEX
  5
21B
100
AcDbEntity
  8
0
100
AcDbVertex
100
AcDb2dVertex
 10
101.9732047894
 20
71.7766612862
 30
0.0
  0
VERTEX
  5
21C
100
AcDbEntity
  8
0
100
AcDbVertex
100
AcDb2dVertex
 10
103.0114587556
 20
71.8355949733
 30
0.0
  0
VERTEX
  5
21D
100
AcDbEntity
  8
0
100
AcDbVertex
100
AcDb2dVertex
 10
103.996722243
 20
71.5459511429
 30
0.0
  0
VERTEX
  5
21E
100
AcDbEntity
  8
0
100
AcDbVertex
100
AcDb2dVertex
 10
104.7789978171
 20
70.9518254425
 30
0.0
  0
VERTEX
  5
21F
100
AcDbEntity
  8
0
100
AcDbVertex
100
AcDb2dVertex
 10
105.2391911131
 20
70.1436681243
 30
0.0
  0
VERTEX
  5
220
100
AcDbEntity
  8
0
100
AcDbVertex
100
AcDb2dVertex
 10
105.3072418734
 20
69.244513814
 30
0.0
  0
VERTEX
  5
221
100
AcDbEntity
  8
0
100
AcDbVertex
100
AcDb2dVertex
 10
104.9727899864
 20
68.3912506045
 30
0.0
  0
VERTEX
  5
222
100
AcDbEntity
  8
0
100
AcDbVertex
100
AcDb2dVertex
 10
104.2867527204
 20
67.7137800846
 30
0.0
  0
VERTEX
  5
223
100
AcDbEntity
  8
0
100
AcDbVertex
100
AcDb2dVertex
 10
103.35357303
 20
67.3152409996
 30
0.0
  0
SEQEND
  5
224
100
AcDbEntity
  8
0
  0
POLYLINE
  5
225
100
AcDbEntity
  8
0
  6
Continuous
 62
         7
100
AcDb2dPolyline
 66
         1
 10
0.0
 20
0.0
 30
0.0
 70
       128
  0
VERTEX
  5
226
100
AcDbEntity
  8
0
100
AcDbVertex
100
AcDb2dVertex
 10
42.1782706983
 20
53.1194626903
 30
0.0
  0
VERTEX
  5
227
100
AcDbEntity
  8
0
100
AcDbVertex
100
AcDb2dVertex
 10
41.1400167321
 20
53.0605290032
 30
0.0
  0
VERTEX
  5
228
100
AcDbEntity
  8
0
100
AcDbVertex
100
AcDb2dVertex
 10
40.1547532447
 20
53.3501728336
 30
0.0
  0
VERTEX
  5
229
100
AcDbEntity
  8
0
100
AcDbVertex
100
AcDb2dVertex
 10
39.3724776706
 20
53.9442985339
 30
0.0
  0
VERTEX
  5
22A
100
AcDbEntity
  8
0
100
AcDbVertex
100
AcDb2dVertex
 10
38.9122843746
 20
54.7524558521
 30
0.0
  0
VERTEX
  5
22B
100
AcDbEntity
  8
0
100
AcDbVertex
100
AcDb2dVertex
 10
38.8442336144
 20
55.6516101624
 30
0.0
  0
VERTEX
  5
22C
100
AcDbEntity
  8
0
100
AcDbVertex
100
AcDb2dVertex
 10
39.1786855013
 20
56.5048733719
 30
0.0
  0
VERTEX
  5
22D
100
AcDbEntity
  8
0
100
AcDbVertex
100
AcDb2dVertex
 10
39.8647227674
 20
57.1823438919
 30
0.0
  0
VERTEX
  5
22E
100
AcDbEntity
  8
0
100
AcDbVertex
100
AcDb2dVertex
 10
40.7979024578
 20
57.5808829769
 30
0.0
  0
VERTEX
  5
22F
100
AcDbEntity
  8
0
100
AcDbVertex
100
AcDb2dVertex
 10
41.836156424
 20
57.639816664
 30
0.0
  0
VERTEX
  5
230
100
AcDbEntity
  8
0
100
AcDbVertex
100
AcDb2dVertex
 10
42.8214199114
 20
57.3501728336
 30
0.0
  0
VERTEX
  5
231
100
AcDbEntity
  8
0
100
AcDbVertex
100
AcDb2dVertex
 10
43.6036954855
 20
56.7560471332
 30
0.0
  0
VERTEX
  5
232
100
AcDbEntity
  8
0
100
AcDbVertex
100
AcDb2dVertex
 10
44.0638887815
 20
55.947889815
 30
0.0
  0
VERTEX
  5
233
100
AcDbEntity
  8
0
100
AcDbVertex
100
AcDb2dVertex
 10
44.1319395417
 20
55.0487355047
 30
0.0
  0
VERTEX
  5
234
100
AcDbEntity
  8
0
100
AcDbVertex
100
AcDb2dVertex
 10
43.7974876548
 20
54.1954722952
 30
0.0
  0
VERTEX
  5
235
100
AcDbEntity
  8
0
100
AcDbVertex
100
AcDb2dVertex
 10
43.1114503887
 20
53.5180017753
 30
0.0
  0
VERTEX
  5
236
100
AcDbEntity
  8
0
100
AcDbVertex
100
AcDb2dVertex
 10
42.1782706983
 20
53.1194626903
 30
0.0
  0
SEQEND
  5
237
100
AcDbEntity
  8
0
  0
POLYLINE
  5
238
100
AcDbEntity
  8
0
  6
Continuous
 62
         7
100
AcDb2dPolyline
 66
         1
 10
0.0
 20
0.0
 30
0.0
 70
       128
  0
VERTEX
  5
239
100
AcDbEntity
  8
0
100
AcDbVertex
100
AcDb2dVertex
 10
103.4212636736
 20
80.4807222599
 30
0.0
  0
VERTEX
  5
23A
100
AcDbEntity
  8
0
100
AcDbVertex
100
AcDb2dVertex
 10
102.642573199
 20
80.4365219946
 30
0.0
  0
VERTEX
  5
23B
100
AcDbEntity
  8
0
100
AcDbVertex
100
AcDb2dVertex
 10
101.9036255834
 20
80.6537548674
 30
0.0
  0
VERTEX
  5
23C
100
AcDbEntity
  8
0
100
AcDbVertex
100
AcDb2dVertex
 10
101.3169189028
 20
81.0993491427
 30
0.0
  0
VERTEX
  5
23D
100
AcDbEntity
  8
0
100
AcDbVertex
100
AcDb2dVertex
 10
100.9717739308
 20
81.7054671313
 30
0.0
  0
VERTEX
  5
23E
100
AcDbEntity
  8
0
100
AcDbVertex
100
AcDb2dVertex
 10
100.9207358607
 20
82.379832864
 30
0.0
  0
VERTEX
  5
23F
100
AcDbEntity
  8
0
100
AcDbVertex
100
AcDb2dVertex
 10
101.1715747758
 20
83.0197802712
 30
0.0
  0
VERTEX
  5
240
100
AcDbEntity
  8
0
100
AcDbVertex
100
AcDb2dVertex
 10
101.6861027254
 20
83.5278831611
 30
0.0
  0
VERTEX
  5
241
100
AcDbEntity
  8
0
100
AcDbVertex
100
AcDb2dVertex
 10
102.3859874932
 20
83.8267874749
 30
0.0
  0
VERTEX
  5
242
100
AcDbEntity
  8
0
100
AcDbVertex
100
AcDb2dVertex
 10
103.1646779679
 20
83.8709877402
 30
0.0
  0
VERTEX
  5
243
100
AcDbEntity
  8
0
100
AcDbVertex
100
AcDb2dVertex
 10
103.9036255834
 20
83.6537548674
 30
0.0
  0
VERTEX
  5
244
100
AcDbEntity
  8
0
100
AcDbVertex
100
AcDb2dVertex
 10
104.490332264
 20
83.2081605921
 30
0.0
  0
VERTEX
  5
245
100
AcDbEntity
  8
0
100
AcDbVertex
100
AcDb2dVertex
 10
104.835477236
 20
82.6020426035
 30
0.0
  0
VERTEX
  5
246
100
AcDbEntity
  8
0
100
AcDbVertex
100
AcDb2dVertex
 10
104.8865153062
 20
81.9276768708
 30
0.0
  0
VERTEX
  5
247
100
AcDbEntity
  8
0
100
AcDbVertex
100
AcDb2dVertex
 10
104.635676391
 20
81.2877294636
 30
0.0
  0
VERTEX
  5
248
100
AcDbEntity
  8
0
100
AcDbVertex
100
AcDb2dVertex
 10
104.1211484414
 20
80.7796265737
 30
0.0
  0
VERTEX
  5
249
100
AcDbEntity
  8
0
100
AcDbVertex
100
AcDb2dVertex
 10
103.4212636736
 20
80.4807222599
 30
0.0
  0
SEQEND
  5
24A
100
AcDbEntity
  8
0
  0
POLYLINE
  5
24B
100
AcDbEntity
  8
0
  6
Continuous
 62
         7
100
AcDb2dPolyline
 66
         1
 10
0.0
 20
0.0
 30
0.0
 70
       128
  0
VERTEX
  5
24C
100
AcDbEntity
  8
0
100
AcDbVertex
100
AcDb2dVertex
 10
32.1062297316
 20
38.8278978212
 30
0.0
  0
VERTEX
  5
24D
100
AcDbEntity
  8
0
100
AcDbVertex
100
AcDb2dVertex
 10
31.327539257
 20
38.7836975559
 30
0.0
  0
VERTEX
  5
24E
100
AcDbEntity
  8
0
100
AcDbVertex
100
AcDb2dVertex
 10
30.5885916414
 20
39.0009304287
 30
0.0
  0
VERTEX
  5
24F
100
AcDbEntity
  8
0
100
AcDbVertex
100
AcDb2dVertex
 10
30.0018849609
 20
39.4465247039
 30
0.0
  0
VERTEX
  5
250
100
AcDbEntity
  8
0
100
AcDbVertex
100
AcDb2dVertex
 10
29.6567399889
 20
40.0526426926
 30
0.0
  0
VERTEX
  5
251
100
AcDbEntity
  8
0
100
AcDbVertex
100
AcDb2dVertex
 10
29.6057019187
 20
40.7270084253
 30
0.0
  0
VERTEX
  5
252
100
AcDbEntity
  8
0
100
AcDbVertex
100
AcDb2dVertex
 10
29.8565408339
 20
41.3669558324
 30
0.0
  0
VERTEX
  5
253
100
AcDbEntity
  8
0
100
AcDbVertex
100
AcDb2dVertex
 10
30.3710687834
 20
41.8750587224
 30
0.0
  0
VERTEX
  5
254
100
AcDbEntity
  8
0
100
AcDbVertex
100
AcDb2dVertex
 10
31.0709535512
 20
42.1739630361
 30
0.0
  0
VERTEX
  5
255
100
AcDbEntity
  8
0
100
AcDbVertex
100
AcDb2dVertex
 10
31.8496440259
 20
42.2181633015
 30
0.0
  0
VERTEX
  5
256
100
AcDbEntity
  8
0
100
AcDbVertex
100
AcDb2dVertex
 10
32.5885916414
 20
42.0009304287
 30
0.0
  0
VERTEX
  5
257
100
AcDbEntity
  8
0
100
AcDbVertex
100
AcDb2dVertex
 10
33.175298322
 20
41.5553361534
 30
0.0
  0
VERTEX
  5
258
100
AcDbEntity
  8
0
100
AcDbVertex
100
AcDb2dVertex
 10
33.520443294
 20
40.9492181647
 30
0.0
  0
VERTEX
  5
259
100
AcDbEntity
  8
0
100
AcDbVertex
100
AcDb2dVertex
 10
33.5714813642
 20
40.274852432
 30
0.0
  0
VERTEX
  5
25A
100
AcDbEntity
  8
0
100
AcDbVertex
100
AcDb2dVertex
 10
33.320642449
 20
39.6349050249
 30
0.0
  0
VERTEX
  5
25B
100
AcDbEntity
  8
0
100
AcDbVertex
100
AcDb2dVertex
 10
32.8061144995
 20
39.1268021349
 30
0.0
  0
VERTEX
  5
25C
100
AcDbEntity
  8
0
100
AcDbVertex
100
AcDb2dVertex
 10
32.1062297316
 20
38.8278978212
 30
0.0
  0
SEQEND
  5
25D
100
AcDbEntity
  8
0
  0
LINE
  5
25E
100
AcDbEntity
  8
0
370
        15
  6
Continuous
 62
         7
100
AcDbLine
 10
140.0422365559
 20
166.0335368091
 30
0.0
 11
140.0422365559
 21
156.5335368091
 31
0.0
  0
LINE
  5
25F
100
AcDbEntity
  8
0
370
        15
  6
Continuous
 62
         7
100
AcDbLine
 10
140.0422365559
 20
166.0335368091
 30
0.0
 11
150.042236556
 21
166.0335368091
 31
0.0
  0
LINE
  5
260
100
AcDbEntity
  8
0
370
        15
  6
Continuous
 62
         7
100
AcDbLine
 10
150.042236556
 20
166.0335368091
 30
0.0
 11
150.0422365559
 21
156.5335368091
 31
0.0
  0
LINE
  5
261
100
AcDbEntity
  8
0
370
        15
  6
Continuous
 62
         7
100
AcDbLine
 10
150.0422365559
 20
156.5335368091
 30
0.0
 11
140.0422365559
 21
156.5335368091
 31
0.0
  0
LINE
  5
262
100
AcDbEntity
  8
0
370
        15
  6
Continuous
 62
         7
100
AcDbLine
 10
150.042236556
 20
148.5335368091
 30
0.0
 11
150.0422365559
 21
139.0335368091
 31
0.0
  0
LINE
  5
263
100
AcDbEntity
  8
0
370
        15
  6
Continuous
 62
         7
100
AcDbLine
 10
150.0422365559
 20
139.0335368091
 30
0.0
 11
140.0422365559
 21
139.0335368091
 31
0.0
  0
LINE
  5
264
100
AcDbEntity
  8
0
370
        15
  6
Continuous
 62
         7
100
AcDbLine
 10
140.0422365559
 20
148.5335368091
 30
0.0
 11
140.0422365559
 21
139.0335368091
 31
0.0
  0
LINE
  5
265
100
AcDbEntity
  8
0
370
        15
  6
Continuous
 62
         7
100
AcDbLine
 10
140.0422365559
 20
148.5335368091
 30
0.0
 11
150.042236556
 21
148.5335368091
 31
0.0
  0
CIRCLE
  5
266
100
AcDbEntity
  8
0
370
        15
  6
Continuous
 62
         7
100
AcDbCircle
 10
170.042236556
 20
130.5335368091
 30
0.0
 40
3.375
  0
CIRCLE
  5
267
100
AcDbEntity
  8
0
370
        15
  6
Continuous
 62
         7
100
AcDbCircle
 10
170.042236556
 20
225.5335368091
 30
0.0
 40
3.375
  0
LINE
  5
268
100
AcDbEntity
  8
0
370
        15
  6
Continuous
 62
         7
100
AcDbLine
 10
200.042236556
 20
100.5335368091
 30
0.0
 11
200.042236556
 21
148.2835368091
 31
0.0
  0
LINE
  5
269
100
AcDbEntity
  8
0
370
        15
  6
Continuous
 62
         7
100
AcDbLine
 10
140.042236556
 20
100.5335368091
 30
0.0
 11
200.042236556
 21
100.5335368091
 31
0.0
  0
LINE
  5
26A
100
AcDbEntity
  8
0
370
        15
  6
Continuous
 62
         7
100
AcDbLine
 10
140.0422365559
 20
136.0335368091
 30
0.0
 11
140.042236556
 21
100.5335368091
 31
0.0
  0
LINE
  5
26B
100
AcDbEntity
  8
0
370
        15
  6
Continuous
 62
         7
100
AcDbLine
 10
140.0422365559
 20
136.0335368091
 30
0.0
 11
150.042236556
 21
136.0335368091
 31
0.0
  0
LINE
  5
26C
100
AcDbEntity
  8
0
370
        15
  6
Continuous
 62
         7
100
AcDbLine
 10
150.042236556
 20
136.0335368091
 30
0.0
 11
150.042236556
 21
130.5335368091
 31
0.0
  0
ARC
  5
26D
100
AcDbEntity
  8
0
370
        15
  6
Continuous
 62
         7
100
AcDbCircle
 10
170.042236556
 20
130.5335368091
 30
0.0
 40
20.0
100
AcDbArc
 50
180.0
 51
0.0
  0
ARC
  5
26E
100
AcDbEntity
  8
0
370
        15
  6
Continuous
 62
         7
100
AcDbCircle
 10
186.042236556
 20
130.5335368091
 30
0.0
 40
4.0
100
AcDbArc
 50
0.0
 51
180.0
  0
ARC
  5
26F
100
AcDbEntity
  8
0
370
        15
  6
Continuous
 62
         7
100
AcDbCircle
 10
170.042236556
 20
130.5335368091
 30
0.0
 40
12.0
100
AcDbArc
 50
180.0
 51
0.0
  0
LINE
  5
270
100
AcDbEntity
  8
0
370
        15
  6
Continuous
 62
         7
100
AcDbLine
 10
158.042236556
 20
130.5335368091
 30
0.0
 11
158.042236556
 21
174.3959322404
 31
0.0
  0
ARC
  5
271
100
AcDbEntity
  8
0
370
        15
  6
Continuous
 62
         7
100
AcDbCircle
 10
170.042236556
 20
174.3959322404
 30
0.0
 40
12.0
100
AcDbArc
 50
145.8795706733
 51
180.0
  0
LINE
  5
272
100
AcDbEntity
  8
0
370
        15
  6
Continuous
 62
         7
100
AcDbLine
 10
160.1079119828
 20
181.127142776
 30
0.0
 11
189.3536780804
 21
224.2897999639
 31
0.0
  0
ARC
  5
273
100
AcDbEntity
  8
0
370
        15
  6
Continuous
 62
         7
100
AcDbCircle
 10
186.042236556
 20
226.5335368091
 30
0.0
 40
4.0
100
AcDbArc
 50
325.8795706733
 51
145.8795706733
  0
LINE
  5
274
100
AcDbEntity
  8
0
370
        15
  6
Continuous
 62
         7
100
AcDbLine
 10
182.7307950316
 20
228.7772736543
 30
0.0
 11
153.485028934
 21
185.6146164664
 31
0.0
  0
ARC
  5
275
100
AcDbEntity
  8
0
370
        15
  6
Continuous
 62
         7
100
AcDbCircle
 10
170.042236556
 20
174.3959322404
 30
0.0
 40
20.0
100
AcDbArc
 50
145.8795706733
 51
180.0
  0
LINE
  5
276
100
AcDbEntity
  8
0
370
        15
  6
Continuous
 62
         7
100
AcDbLine
 10
150.042236556
 20
174.3959322404
 30
0.0
 11
150.0422365559
 21
169.0335368091
 31
0.0
  0
LINE
  5
277
100
AcDbEntity
  8
0
370
        15
  6
Continuous
 62
         7
100
AcDbLine
 10
150.0422365559
 20
169.0335368091
 30
0.0
 11
140.0422365559
 21
169.0335368091
 31
0.0
  0
LINE
  5
278
100
AcDbEntity
  8
0
370
        15
  6
Continuous
 62
         7
100
AcDbLine
 10
140.042236556
 20
240.5335368091
 30
0.0
 11
140.0422365559
 21
169.0335368091
 31
0.0
  0
LINE
  5
279
100
AcDbEntity
  8
0
370
        15
  6
Continuous
 62
         7
100
AcDbLine
 10
200.042236556
 20
240.5335368091
 30
0.0
 11
140.042236556
 21
240.5335368091
 31
0.0
  0
LINE
  5
27A
100
AcDbEntity
  8
0
370
        15
  6
Continuous
 62
         7
100
AcDbLine
 10
200.042236556
 20
156.7835368091
 30
0.0
 11
200.042236556
 21
240.5335368091
 31
0.0
  0
LINE
  5
27B
100
AcDbEntity
  8
0
370
        15
  6
Continuous
 62
         7
100
AcDbLine
 10
200.042236556
 20
156.7835368091
 30
0.0
 11
193.042236556
 21
156.7835368091
 31
0.0
  0
LINE
  5
27C
100
AcDbEntity
  8
0
370
        15
  6
Continuous
 62
         7
100
AcDbLine
 10
190.042236556
 20
153.7835368091
 30
0.0
 11
193.042236556
 21
156.7835368091
 31
0.0
  0
LINE
  5
27D
100
AcDbEntity
  8
0
370
        15
  6
Continuous
 62
         7
100
AcDbLine
 10
190.042236556
 20
151.2835368091
 30
0.0
 11
190.042236556
 21
153.7835368091
 31
0.0
  0
LINE
  5
27E
100
AcDbEntity
  8
0
370
        15
  6
Continuous
 62
         7
100
AcDbLine
 10
193.042236556
 20
148.2835368091
 30
0.0
 11
190.042236556
 21
151.2835368091
 31
0.0
  0
LINE
  5
27F
100
AcDbEntity
  8
0
370
        15
  6
Continuous
 62
         7
100
AcDbLine
 10
193.042236556
 20
148.2835368091
 30
0.0
 11
200.042236556
 21
148.2835368091
 31
0.0
  0
CIRCLE
  5
280
100
AcDbEntity
  8
0
370
        15
  6
Continuous
 62
         7
100
AcDbCircle
 10
149.042236556
 20
231.5335368091
 30
0.0
 40
2.5
  0
CIRCLE
  5
281
100
AcDbEntity
  8
0
370
        15
  6
Continuous
 62
         7
100
AcDbCircle
 10
191.042236556
 20
109.5335368091
 30
0.0
 40
2.5
  0
LINE
  5
282
100
AcDbEntity
  8
0
370
        15
  6
Continuous
 62
         7
100
AcDbLine
 10
150.0422365559
 20
169.0335368091
 30
0.0
 11
150.042236556
 21
166.0335368091
 31
0.0
  0
LINE
  5
283
100
AcDbEntity
  8
0
370
        15
  6
Continuous
 62
         7
100
AcDbLine
 10
140.0422365559
 20
169.0335368091
 30
0.0
 11
140.0422365559
 21
166.0335368091
 31
0.0
  0
LINE
  5
284
100
AcDbEntity
  8
0
370
        15
  6
Continuous
 62
         7
100
AcDbLine
 10
150.0422365559
 20
139.0335368091
 30
0.0
 11
150.042236556
 21
136.0335368091
 31
0.0
  0
LINE
  5
285
100
AcDbEntity
  8
0
370
        15
  6
Continuous
 62
         7
100
AcDbLine
 10
140.0422365559
 20
139.0335368091
 30
0.0
 11
140.0422365559
 21
136.0335368091
 31
0.0
  0
LINE
  5
286
100
AcDbEntity
  8
0
370
        15
  6
Continuous
 62
         7
100
AcDbLine
 10
150.0422365559
 20
156.5335368091
 30
0.0
 11
150.042236556
 21
148.5335368091
 31
0.0
  0
LINE
  5
287
100
AcDbEntity
  8
0
370
        15
  6
Continuous
 62
         7
100
AcDbLine
 10
140.0422365559
 20
156.5335368091
 30
0.0
 11
140.0422365559
 21
148.5335368091
 31
0.0
  0
LINE
  5
288
100
AcDbEntity
  8
0
370
        15
  6
Continuous
 62
         7
100
AcDbLine
 10
193.042236556
 20
156.7835368091
 30
0.0
 11
193.042236556
 21
148.2835368091
 31
0.0
  0
LINE
  5
289
100
AcDbEntity
  8
0
370
        15
  6
Continuous
 62
         7
100
AcDbLine
 10
200.042236556
 20
156.7835368091
 30
0.0
 11
200.042236556
 21
148.2835368091
 31
0.0
  0
LINE
  5
28A
100
AcDbEntity
  8
0
370
         0
  6
DOT2
 62
         7
100
AcDbLine
 10
156.7964704584
 20
183.3708796212
 30
0.0
 11
186.042236556
 21
226.5335368091
 31
0.0
  0
LINE
  5
28B
100
AcDbEntity
  8
0
370
         0
  6
DOT2
 62
         7
100
AcDbLine
 10
153.485028934
 20
185.6146164664
 30
0.0
 11
156.7964704584
 21
183.3708796212
 31
0.0
  0
LINE
  5
28C
100
AcDbEntity
  8
0
370
         0
  6
DOT2
 62
         7
100
AcDbLine
 10
186.042236556
 20
226.5335368091
 30
0.0
 11
182.7307950316
 21
228.7772736543
 31
0.0
  0
ARC
  5
28D
100
AcDbEntity
  8
0
370
         0
  6
DOT2
 62
         7
100
AcDbCircle
 10
170.042236556
 20
130.5335368091
 30
0.0
 40
16.0
100
AcDbArc
 50
180.0
 51
0.0
  0
LINE
  5
28E
100
AcDbEntity
  8
0
370
         0
  6
DOT2
 62
         7
100
AcDbLine
 10
154.042236556
 20
130.5335368091
 30
0.0
 11
158.042236556
 21
130.5335368091
 31
0.0
  0
LINE
  5
28F
100
AcDbEntity
  8
0
370
         0
  6
DOT2
 62
         7
100
AcDbLine
 10
182.042236556
 20
130.5335368091
 30
0.0
 11
186.042236556
 21
130.5335368091
 31
0.0
  0
LINE
  5
290
100
AcDbEntity
  8
0
370
         0
  6
DOT2
 62
         7
100
AcDbLine
 10
190.042236556
 20
130.5335368091
 30
0.0
 11
186.042236556
 21
130.5335368091
 31
0.0
  0
LINE
  5
291
100
AcDbEntity
  8
0
370
         0
  6
DOT2
 62
         7
100
AcDbLine
 10
154.042236556
 20
130.5335368091
 30
0.0
 11
154.042236556
 21
174.3959322404
 31
0.0
  0
LINE
  5
292
100
AcDbEntity
  8
0
370
         0
  6
DOT2
 62
         7
100
AcDbLine
 10
154.042236556
 20
174.3959322404
 30
0.0
 11
158.042236556
 21
174.3959322404
 31
0.0
  0
LINE
  5
293
100
AcDbEntity
  8
0
370
         0
  6
DOT2
 62
         7
100
AcDbLine
 10
150.042236556
 20
130.5335368091
 30
0.0
 11
154.042236556
 21
130.5335368091
 31
0.0
  0
ARC
  5
294
100
AcDbEntity
  8
0
370
         0
  6
DOT2
 62
         7
100
AcDbCircle
 10
170.042236556
 20
174.3959322404
 30
0.0
 40
16.0
100
AcDbArc
 50
145.8795706733
 51
180.0
  0
LINE
  5
295
100
AcDbEntity
  8
0
370
         0
  6
DOT2
 62
         7
100
AcDbLine
 10
156.7964704584
 20
183.3708796212
 30
0.0
 11
160.1079119828
 21
181.127142776
 31
0.0
  0
LINE
  5
296
100
AcDbEntity
  8
0
370
         0
  6
DOT2
 62
         7
100
AcDbLine
 10
150.042236556
 20
174.3959322404
 30
0.0
 11
154.042236556
 21
174.3959322404
 31
0.0
  0
LINE
  5
297
100
AcDbEntity
  8
0
370
         0
  6
DOT2
 62
         7
100
AcDbLine
 10
189.3536780804
 20
224.2897999639
 30
0.0
 11
186.042236556
 21
226.5335368091
 31
0.0
  0
CIRCLE
  5
298
100
AcDbEntity
  8
0
370
         0
  6
HIDDEN
 62
         9
100
AcDbCircle
 10
170.042236556
 20
225.5335368091
 30
0.0
 40
7.375
  0
CIRCLE
  5
299
100
AcDbEntity
  8
0
370
         0
  6
HIDDEN
 62
         9
100
AcDbCircle
 10
170.042236556
 20
130.5335368091
 30
0.0
 40
7.375
  0
DIMENSION
  5
2A5
100
AcDbEntity
  8
0
 62
       255
100
AcDbDimension
  2
*D1
 10
177.7757154953
 20
221.4642698283
 30
0.0
 11
211.5605925099
 21
198.5726159038
 31
0.0
 70
       160
 71
         5
 72
         1
 41
1.0
 42
0.0
  3
SLDDIMSTYLE2
100
AcDbAlignedDimension
 13
189.3536780804
 23
224.2897999639
 33
0.0
 14
182.7307950316
 24
228.7772736543
 34
0.0
 50
-34.1204293267
100
AcDbRotatedDimension
  0
LEADER
  5
2A6
100
AcDbEntity
  8
0
 62
       255
100
AcDbLeader
  3
SLDDIMSTYLE0
 73
         3
 74
         0
 75
         0
 40
0.0
 76
         2
 10
176.8734116868
 20
111.7363283373
 30
0.0
 10
192.1596626506
 20
78.6051759036
 30
0.0
 77
       256
340
2A7
  0
MTEXT
  5
2A7
102
{ACAD_REACTORS
330
2A6
102
}
100
AcDbEntity
  8
0
 62
         7
100
AcDbMText
 10
128.738471583
 20
80.8550075038
 30
0.0
 40
3.5
 41
0.0
 71
         1
 72
         1
  1
forme suivant fichier dxf/step
  7
SLDTEXTSTYLE0
 73
         1
 44
1.0
  0
LINE
  5
2A8
100
AcDbEntity
  8
0
  6
Continuous
 62
         7
100
AcDbLine
 10
167.542236556
 20
130.5335368091
 30
0.0
 11
172.542236556
 21
130.5335368091
 31
0.0
  0
LINE
  5
2A9
100
AcDbEntity
  8
0
  6
Continuous
 62
         7
100
AcDbLine
 10
170.042236556
 20
128.0335368091
 30
0.0
 11
170.042236556
 21
133.0335368091
 31
0.0
  0
LINE
  5
2AA
100
AcDbEntity
  8
0
  6
Continuous
 62
         7
100
AcDbLine
 10
175.042236556
 20
130.5335368091
 30
0.0
 11
175.917236556
 21
130.5335368091
 31
0.0
  0
LINE
  5
2AB
100
AcDbEntity
  8
0
  6
Continuous
 62
         7
100
AcDbLine
 10
165.042236556
 20
130.5335368091
 30
0.0
 11
164.167236556
 21
130.5335368091
 31
0.0
  0
LINE
  5
2AC
100
AcDbEntity
  8
0
  6
Continuous
 62
         7
100
AcDbLine
 10
170.042236556
 20
135.5335368091
 30
0.0
 11
170.042236556
 21
136.4085368091
 31
0.0
  0
LINE
  5
2AD
100
AcDbEntity
  8
0
  6
Continuous
 62
         7
100
AcDbLine
 10
170.042236556
 20
125.5335368091
 30
0.0
 11
170.042236556
 21
124.6585368091
 31
0.0
  0
LINE
  5
2AE
100
AcDbEntity
  8
0
  6
Continuous
 62
         7
100
AcDbLine
 10
167.542236556
 20
225.5335368091
 30
0.0
 11
172.542236556
 21
225.5335368091
 31
0.0
  0
LINE
  5
2AF
100
AcDbEntity
  8
0
  6
Continuous
 62
         7
100
AcDbLine
 10
170.042236556
 20
223.0335368091
 30
0.0
 11
170.042236556
 21
228.0335368091
 31
0.0
  0
LINE
  5
2B0
100
AcDbEntity
  8
0
  6
Continuous
 62
         7
100
AcDbLine
 10
175.042236556
 20
225.5335368091
 30
0.0
 11
175.917236556
 21
225.5335368091
 31
0.0
  0
LINE
  5
2B1
100
AcDbEntity
  8
0
  6
Continuous
 62
         7
100
AcDbLine
 10
165.042236556
 20
225.5335368091
 30
0.0
 11
164.167236556
 21
225.5335368091
 31
0.0
  0
LINE
  5
2B2
100
AcDbEntity
  8
0
  6
Continuous
 62
         7
100
AcDbLine
 10
170.042236556
 20
230.5335368091
 30
0.0
 11
170.042236556
 21
231.4085368091
 31
0.0
  0
LINE
  5
2B3
100
AcDbEntity
  8
0
  6
Continuous
 62
         7
100
AcDbLine
 10
170.042236556
 20
220.5335368091
 30
0.0
 11
170.042236556
 21
219.6585368091
 31
0.0
  0
LINE
  5
2B4
100
AcDbEntity
  8
0
  6
CENTER
 62
         7
100
AcDbLine
 10
154.042236556
 20
85.0317313051
 30
0.0
 11
154.042236556
 21
250.0033536327
 31
0.0
  0
SOLID
  5
2B5
100
AcDbEntity
  8
0
  6
Continuous
 62
         7
100
AcDbTrace
 10
154.042236556
 20
87.0317313051
 30
0.0
 11
158.042236556
 21
86.0317313051
 31
0.0
 12
158.042236556
 22
88.0317313051
 32
0.0
 13
158.042236556
 23
88.0317313051
 33
0.0
  0
LINE
  5
2B6
100
AcDbEntity
  8
0
  6
Continuous
 62
         7
100
AcDbLine
 10
166.042236556
 20
87.0317313051
 30
0.0
 11
154.042236556
 21
87.0317313051
 31
0.0
  0
SOLID
  5
2B7
100
AcDbEntity
  8
0
  6
Continuous
 62
         7
100
AcDbTrace
 10
154.042236556
 20
248.0033536327
 30
0.0
 11
158.042236556
 21
247.0033536327
 31
0.0
 12
158.042236556
 22
249.0033536327
 32
0.0
 13
158.042236556
 23
249.0033536327
 33
0.0
  0
LINE
  5
2B8
100
AcDbEntity
  8
0
  6
Continuous
 62
         7
100
AcDbLine
 10
166.042236556
 20
248.0033536327
 30
0.0
 11
154.042236556
 21
248.0033536327
 31
0.0
  0
MTEXT
  5
2B9
100
AcDbEntity
  8
0
100
AcDbMText
 10
159.7796823391
 20
97.1137554015
 30
0.0
 40
6.35
 41
0.0
 71
         1
 72
         1
  1
A
 73
         1
 44
1.0
  0
MTEXT
  5
2BA
100
AcDbEntity
  8
0
100
AcDbMText
 10
159.7796823391
 20
258.0853777291
 30
0.0
 40
6.35
 41
0.0
 71
         1
 72
         1
  1
A
 73
         1
 44
1.0
  0
LINE
  5
2BB
100
AcDbEntity
  8
0
  6
CENTER
 62
         7
100
AcDbLine
 10
125.8271738102
 20
161.7876335803
 30
0.0
 11
208.9457064355
 21
161.7876335803
 31
0.0
  0
SOLID
  5
2BC
100
AcDbEntity
  8
0
  6
Continuous
 62
         7
100
AcDbTrace
 10
127.8271738102
 20
161.7876335803
 30
0.0
 11
128.8271738102
 21
165.7876335803
 31
0.0
 12
126.8271738102
 22
165.7876335803
 32
0.0
 13
126.8271738102
 23
165.7876335803
 33
0.0
  0
LINE
  5
2BD
100
AcDbEntity
  8
0
  6
Continuous
 62
         7
100
AcDbLine
 10
127.8271738102
 20
173.7876335803
 30
0.0
 11
127.8271738102
 21
161.7876335803
 31
0.0
  0
SOLID
  5
2BE
100
AcDbEntity
  8
0
  6
Continuous
 62
         7
100
AcDbTrace
 10
206.9457064355
 20
161.7876335803
 30
0.0
 11
207.9457064355
 21
165.7876335803
 31
0.0
 12
205.9457064355
 22
165.7876335803
 32
0.0
 13
205.9457064355
 23
165.7876335803
 33
0.0
  0
LINE
  5
2BF
100
AcDbEntity
  8
0
  6
Continuous
 62
         7
100
AcDbLine
 10
206.9457064355
 20
173.7876335803
 30
0.0
 11
206.9457064355
 21
161.7876335803
 31
0.0
  0
MTEXT
  5
2C0
100
AcDbEntity
  8
0
100
AcDbMText
 10
129.7713183885
 20
173.7876335803
 30
0.0
 40
6.35
 41
0.0
 71
         1
 72
         1
  1
B
 73
         1
 44
1.0
  0
MTEXT
  5
2C1
100
AcDbEntity
  8
0
100
AcDbMText
 10
208.8898510138
 20
173.7876335803
 30
0.0
 40
6.35
 41
0.0
 71
         1
 72
         1
  1
B
 73
         1
 44
1.0
  0
ARC
  5
2C2
100
AcDbEntity
  8
0
  6
Continuous
 62
         7
100
AcDbCircle
 10
170.042236556
 20
225.5335368091
 30
0.0
 40
4.0
100
AcDbArc
 50
255.0
 51
195.0
  0
ARC
  5
2C3
100
AcDbEntity
  8
0
  6
Continuous
 62
         7
100
AcDbCircle
 10
170.042236556
 20
130.5335368091
 30
0.0
 40
4.0
100
AcDbArc
 50
255.0
 51
195.0
  0
ARC
  5
2C4
100
AcDbEntity
  8
0
  6
Continuous
 62
         7
100
AcDbCircle
 10
149.042236556
 20
231.5335368091
 30
0.0
 40
3.0
100
AcDbArc
 50
255.0
 51
195.0
  0
ARC
  5
2C5
100
AcDbEntity
  8
0
  6
Continuous
 62
         7
100
AcDbCircle
 10
191.042236556
 20
109.5335368091
 30
0.0
 40
3.0
100
AcDbArc
 50
255.0
 51
195.0
  0
LINE
  5
2C6
100
AcDbEntity
  8
0
370
         0
  6
Continuous
 62
         7
100
AcDbLine
 10
37.2001198472
 20
237.1453296566
 30
0.0
 11
40.5883269998
 21
240.5335368091
 31
0.0
  0
LINE
  5
2C7
100
AcDbEntity
  8
0
370
         0
  6
Continuous
 62
         7
100
AcDbLine
 10
37.2001198472
 20
232.6552015961
 30
0.0
 11
45.0784550603
 21
240.5335368091
 31
0.0
  0
LINE
  5
2C8
100
AcDbEntity
  8
0
370
         0
  6
Continuous
 62
         7
100
AcDbLine
 10
37.2001198472
 20
228.1650735355
 30
0.0
 11
49.5685831208
 21
240.5335368091
 31
0.0
  0
LINE
  5
2C9
100
AcDbEntity
  8
0
370
         0
  6
Continuous
 62
         7
100
AcDbLine
 10
37.2001198472
 20
223.674945475
 30
0.0
 11
52.2001198472
 21
238.674945475
 31
0.0
  0
LINE
  5
2CA
100
AcDbEntity
  8
0
370
         0
  6
Continuous
 62
         7
100
AcDbLine
 10
37.2001198472
 20
219.1848174145
 30
0.0
 11
52.2001198472
 21
234.1848174145
 31
0.0
  0
LINE
  5
2CB
100
AcDbEntity
  8
0
370
         0
  6
Continuous
 62
         7
100
AcDbLine
 10
37.2001198472
 20
214.6946893539
 30
0.0
 11
52.2001198472
 21
229.6946893539
 31
0.0
  0
LINE
  5
2CC
100
AcDbEntity
  8
0
370
         0
  6
Continuous
 62
         7
100
AcDbLine
 10
37.2001198472
 20
210.2045612934
 30
0.0
 11
52.2001198472
 21
225.2045612934
 31
0.0
  0
LINE
  5
2CD
100
AcDbEntity
  8
0
370
         0
  6
Continuous
 62
         7
100
AcDbLine
 10
37.2001198472
 20
205.7144332329
 30
0.0
 11
52.2001198472
 21
220.7144332329
 31
0.0
  0
LINE
  5
2CE
100
AcDbEntity
  8
0
370
         0
  6
Continuous
 62
         7
100
AcDbLine
 10
37.2001198472
 20
201.2243051723
 30
0.0
 11
52.2001198472
 21
216.2243051723
 31
0.0
  0
LINE
  5
2CF
100
AcDbEntity
  8
0
370
         0
  6
Continuous
 62
         7
100
AcDbLine
 10
37.2001198472
 20
196.7341771118
 30
0.0
 11
52.2001198472
 21
211.7341771118
 31
0.0
  0
LINE
  5
2D0
100
AcDbEntity
  8
0
370
         0
  6
Continuous
 62
         7
100
AcDbLine
 10
37.2001198472
 20
192.2440490513
 30
0.0
 11
52.2001198472
 21
207.2440490513
 31
0.0
  0
LINE
  5
2D1
100
AcDbEntity
  8
0
370
         0
  6
Continuous
 62
         7
100
AcDbLine
 10
37.2001198472
 20
187.7539209907
 30
0.0
 11
52.2001198472
 21
202.7539209907
 31
0.0
  0
LINE
  5
2D2
100
AcDbEntity
  8
0
370
         0
  6
Continuous
 62
         7
100
AcDbLine
 10
40.3733038404
 20
186.4369769233
 30
0.0
 11
52.2001198472
 21
198.2637929302
 31
0.0
  0
LINE
  5
2D3
100
AcDbEntity
  8
0
370
         0
  6
Continuous
 62
         7
100
AcDbLine
 10
44.8634319009
 20
186.4369769233
 30
0.0
 11
52.2001198472
 21
193.7736648696
 31
0.0
  0
LINE
  5
2D4
100
AcDbEntity
  8
0
370
         0
  6
Continuous
 62
         7
100
AcDbLine
 10
48.0126242965
 20
185.0960412583
 30
0.0
 11
52.2001198472
 21
189.2835368091
 31
0.0
  0
LINE
  5
2D5
100
AcDbEntity
  8
0
370
         0
  6
Continuous
 62
         7
100
AcDbLine
 10
49.3107954705
 20
181.9040843719
 30
0.0
 11
52.2001198472
 21
184.7934087486
 31
0.0
  0
LINE
  5
2D6
100
AcDbEntity
  8
0
370
         0
  6
Continuous
 62
         7
100
AcDbLine
 10
49.6719115994
 20
177.7750724402
 30
0.0
 11
52.2001198472
 21
180.303280688
 31
0.0
  0
LINE
  5
2D7
100
AcDbEntity
  8
0
370
         0
  6
Continuous
 62
         7
100
AcDbLine
 10
49.7001198472
 20
173.3131526275
 30
0.0
 11
52.2001198472
 21
175.8131526275
 31
0.0
  0
LINE
  5
2D8
100
AcDbEntity
  8
0
370
         0
  6
Continuous
 62
         7
100
AcDbLine
 10
49.7001198472
 20
168.823024567
 30
0.0
 11
52.2001198472
 21
171.323024567
 31
0.0
  0
LINE
  5
2D9
100
AcDbEntity
  8
0
370
         0
  6
Continuous
 62
         7
100
AcDbLine
 10
49.7001198472
 20
164.3328965064
 30
0.0
 11
52.2001198472
 21
166.8328965064
 31
0.0
  0
LINE
  5
2DA
100
AcDbEntity
  8
0
370
         0
  6
Continuous
 62
         7
100
AcDbLine
 10
49.7001198472
 20
159.8427684459
 30
0.0
 11
52.2001198472
 21
162.3427684459
 31
0.0
  0
LINE
  5
2DB
100
AcDbEntity
  8
0
370
         0
  6
Continuous
 62
         7
100
AcDbLine
 10
49.7001198472
 20
155.3526403854
 30
0.0
 11
52.2001198472
 21
157.8526403854
 31
0.0
  0
LINE
  5
2DC
100
AcDbEntity
  8
0
370
         0
  6
Continuous
 62
         7
100
AcDbLine
 10
49.7001198472
 20
150.8625123248
 30
0.0
 11
52.2001198472
 21
153.3625123248
 31
0.0
  0
LINE
  5
2DD
100
AcDbEntity
  8
0
370
         0
  6
Continuous
 62
         7
100
AcDbLine
 10
49.7001198472
 20
146.3723842643
 30
0.0
 11
52.2001198472
 21
148.8723842643
 31
0.0
  0
LINE
  5
2DE
100
AcDbEntity
  8
0
370
         0
  6
Continuous
 62
         7
100
AcDbLine
 10
49.7001198472
 20
141.8822562038
 30
0.0
 11
52.2001198472
 21
144.3822562038
 31
0.0
  0
LINE
  5
2DF
100
AcDbEntity
  8
0
370
         0
  6
Continuous
 62
         7
100
AcDbLine
 10
49.7001198472
 20
137.3921281432
 30
0.0
 11
52.2001198472
 21
139.8921281432
 31
0.0
  0
LINE
  5
2E0
100
AcDbEntity
  8
0
370
         0
  6
Continuous
 62
         7
100
AcDbLine
 10
49.7001198472
 20
132.9020000827
 30
0.0
 11
52.2001198472
 21
135.4020000827
 31
0.0
  0
LINE
  5
2E1
100
AcDbEntity
  8
0
370
         0
  6
Continuous
 62
         7
100
AcDbLine
 10
49.6939816354
 20
128.4057338103
 30
0.0
 11
52.2001198472
 21
130.9118720222
 31
0.0
  0
LINE
  5
2E2
100
AcDbEntity
  8
0
370
         0
  6
Continuous
 62
         7
100
AcDbLine
 10
37.2001198472
 20
115.9118720222
 30
0.0
 11
39.8217846342
 21
118.5335368091
 31
0.0
  0
LINE
  5
2E3
100
AcDbEntity
  8
0
370
         0
  6
Continuous
 62
         7
100
AcDbLine
 10
49.3658408895
 20
123.5874650039
 30
0.0
 11
52.2001198472
 21
126.4217439616
 31
0.0
  0
LINE
  5
2E4
100
AcDbEntity
  8
0
370
         0
  6
Continuous
 62
         7
100
AcDbLine
 10
37.2001198472
 20
111.4217439616
 30
0.0
 11
44.3119126947
 21
118.5335368091
 31
0.0
  0
LINE
  5
2E5
100
AcDbEntity
  8
0
370
         0
  6
Continuous
 62
         7
100
AcDbLine
 10
37.2001198472
 20
106.9316159011
 30
0.0
 11
52.2001198472
 21
121.9316159011
 31
0.0
  0
LINE
  5
2E6
100
AcDbEntity
  8
0
370
         0
  6
Continuous
 62
         7
100
AcDbLine
 10
37.2001198472
 20
102.4414878406
 30
0.0
 11
52.2001198472
 21
117.4414878406
 31
0.0
  0
LINE
  5
2E7
100
AcDbEntity
  8
0
370
         0
  6
Continuous
 62
         7
100
AcDbLine
 10
39.7822968763
 20
100.5335368091
 30
0.0
 11
52.2001198472
 21
112.95135978
 31
0.0
  0
LINE
  5
2E8
100
AcDbEntity
  8
0
370
         0
  6
Continuous
 62
         7
100
AcDbLine
 10
44.2724249369
 20
100.5335368091
 30
0.0
 11
52.2001198472
 21
108.4612317195
 31
0.0
  0
LINE
  5
2E9
100
AcDbEntity
  8
0
370
         0
  6
Continuous
 62
         7
100
AcDbLine
 10
48.7625529974
 20
100.5335368091
 30
0.0
 11
52.2001198472
 21
103.971103659
 31
0.0
  0
POLYLINE
  5
2EA
100
AcDbEntity
  8
0
370
        15
  6
Continuous
 62
         7
100
AcDb2dPolyline
 66
         1
 10
0.0
 20
0.0
 30
0.0
 70
       128
  0
VERTEX
  5
2EB
100
AcDbEntity
  8
0
100
AcDbVertex
100
AcDb2dVertex
 10
45.7001198472
 20
118.5335368091
 30
0.0
  0
VERTEX
  5
2EC
100
AcDbEntity
  8
0
100
AcDbVertex
100
AcDb2dVertex
 10
46.267768955
 20
118.6011306417
 30
0.0
  0
VERTEX
  5
2ED
100
AcDbEntity
  8
0
100
AcDbVertex
100
AcDb2dVertex
 10
47.0192439164
 20
118.9103158232
 30
0.0
  0
VERTEX
  5
2EE
100
AcDbEntity
  8
0
100
AcDbVertex
100
AcDb2dVertex
 10
47.8912312989
 20
119.6575596432
 30
0.0
  0
VERTEX
  5
2EF
100
AcDbEntity
  8
0
100
AcDbVertex
100
AcDb2dVertex
 10
48.240478685
 20
120.1211071959
 30
0.0
  0
VERTEX
  5
2F0
100
AcDbEntity
  8
0
100
AcDbVertex
100
AcDb2dVertex
 10
48.7244486122
 20
121.0131092283
 30
0.0
  0
VERTEX
  5
2F1
100
AcDbEntity
  8
0
100
AcDbVertex
100
AcDb2dVertex
 10
49.0741620896
 20
121.9681266935
 30
0.0
  0
VERTEX
  5
2F2
100
AcDbEntity
  8
0
100
AcDbVertex
100
AcDb2dVertex
 10
49.473111446
 20
123.8285889208
 30
0.0
  0
VERTEX
  5
2F3
100
AcDbEntity
  8
0
100
AcDbVertex
100
AcDb2dVertex
 10
49.6438060868
 20
125.7353478081
 30
0.0
  0
VERTEX
  5
2F4
100
AcDbEntity
  8
0
100
AcDbVertex
100
AcDb2dVertex
 10
49.6917999689
 20
127.6494620239
 30
0.0
  0
VERTEX
  5
2F5
100
AcDbEntity
  8
0
100
AcDbVertex
100
AcDb2dVertex
 10
49.7001198472
 20
130.5335368091
 30
0.0
  0
SEQEND
  5
2F6
100
AcDbEntity
  8
0
  0
LINE
  5
2F7
100
AcDbEntity
  8
0
370
        15
  6
Continuous
 62
         7
100
AcDbLine
 10
49.7001198472
 20
130.5335368091
 30
0.0
 11
49.7001198472
 21
174.3959322404
 31
0.0
  0
LINE
  5
2F8
100
AcDbEntity
  8
0
370
        15
  6
Continuous
 62
         7
100
AcDbLine
 10
52.2001198472
 20
100.5335368091
 30
0.0
 11
37.2001198472
 21
100.5335368091
 31
0.0
  0
LINE
  5
2F9
100
AcDbEntity
  8
0
370
        15
  6
Continuous
 62
         7
100
AcDbLine
 10
37.2001198472
 20
118.5335368091
 30
0.0
 11
37.2001198472
 21
100.5335368091
 31
0.0
  0
LINE
  5
2FA
100
AcDbEntity
  8
0
370
        15
  6
Continuous
 62
         7
100
AcDbLine
 10
45.7001198472
 20
118.5335368091
 30
0.0
 11
37.2001198472
 21
118.5335368091
 31
0.0
  0
POLYLINE
  5
2FB
100
AcDbEntity
  8
0
370
        15
  6
Continuous
 62
         7
100
AcDb2dPolyline
 66
         1
 10
0.0
 20
0.0
 30
0.0
 70
       128
  0
VERTEX
  5
2FC
100
AcDbEntity
  8
0
100
AcDbVertex
100
AcDb2dVertex
 10
49.7001198472
 20
174.3959322404
 30
0.0
  0
VERTEX
  5
2FD
100
AcDbEntity
  8
0
100
AcDbVertex
100
AcDb2dVertex
 10
49.6909282691
 20
177.3532739003
 30
0.0
  0
VERTEX
  5
2FE
100
AcDbEntity
  8
0
100
AcDbVertex
100
AcDb2dVertex
 10
49.5575973441
 20
180.3106155602
 30
0.0
  0
VERTEX
  5
2FF
100
AcDbEntity
  8
0
100
AcDbVertex
100
AcDb2dVertex
 10
49.2509500412
 20
182.2904745712
 30
0.0
  0
VERTEX
  5
300
100
AcDbEntity
  8
0
100
AcDbVertex
100
AcDb2dVertex
 10
48.9709260643
 20
183.2840911595
 30
0.0
  0
VERTEX
  5
301
100
AcDbEntity
  8
0
100
AcDbVertex
100
AcDb2dVertex
 10
48.5730853153
 20
184.2350229434
 30
0.0
  0
VERTEX
  5
302
100
AcDbEntity
  8
0
100
AcDbVertex
100
AcDb2dVertex
 10
47.9208255558
 20
185.2370687239
 30
0.0
  0
SEQEND
  5
303
100
AcDbEntity
  8
0
  0
POLYLINE
  5
304
100
AcDbEntity
  8
0
370
        15
  6
Continuous
 62
         7
100
AcDb2dPolyline
 66
         1
 10
0.0
 20
0.0
 30
0.0
 70
       128
  0
VERTEX
  5
305
100
AcDbEntity
  8
0
100
AcDbVertex
100
AcDb2dVertex
 10
47.9208255558
 20
185.2370687239
 30
0.0
  0
VERTEX
  5
306
100
AcDbEntity
  8
0
100
AcDbVertex
100
AcDb2dVertex
 10
47.4090558569
 20
185.7534107583
 30
0.0
  0
VERTEX
  5
307
100
AcDbEntity
  8
0
100
AcDbVertex
100
AcDb2dVertex
 10
46.8603522028
 20
186.130410072
 30
0.0
  0
VERTEX
  5
308
100
AcDbEntity
  8
0
100
AcDbVertex
100
AcDb2dVertex
 10
46.286573315
 20
186.3599188609
 30
0.0
  0
VERTEX
  5
309
100
AcDbEntity
  8
0
100
AcDbVertex
100
AcDb2dVertex
 10
45.7001198472
 20
186.4369769233
 30
0.0
  0
SEQEND
  5
30A
100
AcDbEntity
  8
0
  0
LINE
  5
30B
100
AcDbEntity
  8
0
370
        15
  6
Continuous
 62
         7
100
AcDbLine
 10
37.2001198472
 20
186.4369769233
 30
0.0
 11
45.7001198472
 21
186.4369769233
 31
0.0
  0
LINE
  5
30C
100
AcDbEntity
  8
0
370
        15
  6
Continuous
 62
         7
100
AcDbLine
 10
37.2001198472
 20
240.5335368091
 30
0.0
 11
37.2001198472
 21
186.4369769233
 31
0.0
  0
LINE
  5
30D
100
AcDbEntity
  8
0
370
        15
  6
Continuous
 62
         7
100
AcDbLine
 10
37.2001198472
 20
240.5335368091
 30
0.0
 11
52.2001198472
 21
240.5335368091
 31
0.0
  0
LINE
  5
30E
100
AcDbEntity
  8
0
370
        15
  6
Continuous
 62
         7
100
AcDbLine
 10
52.2001198472
 20
240.5335368091
 30
0.0
 11
52.2001198472
 21
100.5335368091
 31
0.0
  0
LINE
  5
30F
100
AcDbEntity
  8
0
370
        15
  6
Continuous
 62
         7
100
AcDbLine
 10
37.2001198472
 20
186.4369769233
 30
0.0
 11
37.2001198472
 21
185.6146164664
 31
0.0
  0
LINE
  5
310
100
AcDbEntity
  8
0
370
        15
  6
Continuous
 62
         7
100
AcDbLine
 10
37.2001198472
 20
130.5335368091
 30
0.0
 11
37.2001198472
 21
118.5335368091
 31
0.0
  0
LINE
  5
311
100
AcDbEntity
  8
0
370
        15
  6
Continuous
 62
         7
100
AcDbLine
 10
37.2001198472
 20
185.6146164664
 30
0.0
 11
37.2001198472
 21
174.3959322404
 31
0.0
  0
LINE
  5
312
100
AcDbEntity
  8
0
370
        15
  6
Continuous
 62
         7
100
AcDbLine
 10
37.2001198472
 20
166.0335368091
 30
0.0
 11
37.2001198472
 21
156.5335368091
 31
0.0
  0
ARC
  5
313
100
AcDbEntity
  8
0
370
        15
  6
Continuous
 62
         7
100
AcDbCircle
 10
37.2001198472
 20
167.5335368091
 30
0.0
 40
1.5
100
AcDbArc
 50
270.0
 51
90.0
  0
ARC
  5
314
100
AcDbEntity
  8
0
370
        15
  6
Continuous
 62
         7
100
AcDbCircle
 10
37.2001198472
 20
137.5335368091
 30
0.0
 40
1.5
100
AcDbArc
 50
270.0
 51
90.0
  0
LINE
  5
315
100
AcDbEntity
  8
0
370
        15
  6
Continuous
 62
         7
100
AcDbLine
 10
37.2001198472
 20
148.5335368091
 30
0.0
 11
37.2001198472
 21
139.0335368091
 31
0.0
  0
ARC
  5
316
100
AcDbEntity
  8
0
370
        15
  6
Continuous
 62
         7
100
AcDbCircle
 10
37.2001198472
 20
152.5335368091
 30
0.0
 40
4.0
100
AcDbArc
 50
270.0
 51
90.0
  0
LINE
  5
317
100
AcDbEntity
  8
0
370
        15
  6
Continuous
 62
         7
100
AcDbLine
 10
37.2001198472
 20
174.3959322404
 30
0.0
 11
37.2001198472
 21
169.0335368091
 31
0.0
  0
LINE
  5
318
100
AcDbEntity
  8
0
370
        15
  6
Continuous
 62
         7
100
AcDbLine
 10
37.2001198472
 20
136.0335368091
 30
0.0
 11
37.2001198472
 21
130.5335368091
 31
0.0
  0
LINE
  5
319
100
AcDbEntity
  8
0
370
         0
  6
DOT2
 62
         7
100
AcDbLine
 10
45.7001198472
 20
130.5335368091
 30
0.0
 11
49.7001198472
 21
130.5335368091
 31
0.0
  0
LINE
  5
31A
100
AcDbEntity
  8
0
370
         0
  6
DOT2
 62
         7
100
AcDbLine
 10
45.7001198472
 20
118.5335368091
 30
0.0
 11
45.7001198472
 21
130.5335368091
 31
0.0
  0
LINE
  5
31B
100
AcDbEntity
  8
0
370
         0
  6
DOT2
 62
         7
100
AcDbLine
 10
45.7001198472
 20
130.5335368091
 30
0.0
 11
45.7001198472
 21
174.3959322404
 31
0.0
  0
LINE
  5
31C
100
AcDbEntity
  8
0
370
         0
  6
DOT2
 62
         7
100
AcDbLine
 10
45.7001198472
 20
174.3959322404
 30
0.0
 11
49.7001198472
 21
174.3959322404
 31
0.0
  0
LINE
  5
31D
100
AcDbEntity
  8
0
370
         0
  6
DOT2
 62
         7
100
AcDbLine
 10
45.7001198472
 20
174.3959322404
 30
0.0
 11
45.7001198472
 21
185.6146164664
 31
0.0
  0
POLYLINE
  5
31E
100
AcDbEntity
  8
0
370
         0
  6
DOT2
 62
         7
100
AcDb2dPolyline
 66
         1
 10
0.0
 20
0.0
 30
0.0
 70
       128
  0
VERTEX
  5
31F
100
AcDbEntity
  8
0
100
AcDbVertex
100
AcDb2dVertex
 10
45.7001198472
 20
185.6146164664
 30
0.0
  0
VERTEX
  5
320
100
AcDbEntity
  8
0
100
AcDbVertex
100
AcDb2dVertex
 10
45.994141967
 20
185.6085467308
 30
0.0
  0
VERTEX
  5
321
100
AcDbEntity
  8
0
100
AcDbVertex
100
AcDb2dVertex
 10
46.286573315
 20
185.5903703636
 30
0.0
  0
VERTEX
  5
322
100
AcDbEntity
  8
0
100
AcDbVertex
100
AcDb2dVertex
 10
46.5758317264
 20
185.560185706
 30
0.0
  0
VERTEX
  5
323
100
AcDbEntity
  8
0
100
AcDbVertex
100
AcDb2dVertex
 10
46.8603522028
 20
185.5181560683
 30
0.0
  0
VERTEX
  5
324
100
AcDbEntity
  8
0
100
AcDbVertex
100
AcDb2dVertex
 10
47.1385953802
 20
185.4645088469
 30
0.0
  0
VERTEX
  5
325
100
AcDbEntity
  8
0
100
AcDbVertex
100
AcDb2dVertex
 10
47.4090558569
 20
185.3995342938
 30
0.0
  0
VERTEX
  5
326
100
AcDbEntity
  8
0
100
AcDbVertex
100
AcDb2dVertex
 10
47.6702703387
 20
185.323583946
 30
0.0
  0
VERTEX
  5
327
100
AcDbEntity
  8
0
100
AcDbVertex
100
AcDb2dVertex
 10
47.9208255558
 20
185.2370687239
 30
0.0
  0
SEQEND
  5
328
100
AcDbEntity
  8
0
  0
LINE
  5
329
100
AcDbEntity
  8
0
370
         0
  6
DOT2
 62
         7
100
AcDbLine
 10
45.7001198472
 20
185.6146164664
 30
0.0
 11
45.7001198472
 21
186.4369769233
 31
0.0
  0
LINE
  5
32A
100
AcDbEntity
  8
0
370
         0
  6
DOT2
 62
         7
100
AcDbLine
 10
37.2001198472
 20
185.6146164664
 30
0.0
 11
45.7001198472
 21
185.6146164664
 31
0.0
  0
LINE
  5
32B
100
AcDbEntity
  8
0
370
         0
  6
DOT2
 62
         7
100
AcDbLine
 10
37.2001198472
 20
130.5335368091
 30
0.0
 11
45.7001198472
 21
130.5335368091
 31
0.0
  0
LINE
  5
32C
100
AcDbEntity
  8
0
370
         0
  6
DOT2
 62
         7
100
AcDbLine
 10
37.2001198472
 20
174.3959322404
 30
0.0
 11
45.7001198472
 21
174.3959322404
 31
0.0
  0
DIMENSION
  5
338
100
AcDbEntity
  8
0
 62
       255
100
AcDbDimension
  2
*D2
 10
37.2001198472
 20
160.4675738868
 30
0.0
 11
23.1236346678
 21
160.4675738868
 31
0.0
 70
       160
 71
         5
 72
         1
 41
1.0
 42
0.0
  3
SLDDIMSTYLE2
100
AcDbAlignedDimension
 13
49.7001198472
 23
174.3959322404
 33
0.0
 14
37.2001198472
 24
169.0335368091
 34
0.0
100
AcDbRotatedDimension
  0
MTEXT
  5
339
100
AcDbEntity
  8
0
 62
         7
100
AcDbMText
 10
35.1595892001
 20
249.3529965556
 30
0.0
 40
3.5
 41
0.0
 71
         2
 72
         1
  1
A-A
  7
SLDTEXTSTYLE0
 73
         1
 44
1.0
  0
LINE
  5
33A
100
AcDbEntity
  8
0
370
         0
  6
Continuous
 62
         7
100
AcDbLine
 10
243.5168883621
 20
81.2181161512
 30
0.0
 11
242.7274006042
 21
80.4286283934
 31
0.0
  0
LINE
  5
33B
100
AcDbEntity
  8
0
370
         0
  6
Continuous
 62
         7
100
AcDbLine
 10
248.0070164226
 20
81.2181161512
 30
0.0
 11
242.7274006042
 21
75.9385003328
 31
0.0
  0
LINE
  5
33C
100
AcDbEntity
  8
0
370
         0
  6
Continuous
 62
         7
100
AcDbLine
 10
252.4971444831
 20
81.2181161512
 30
0.0
 11
242.7274006042
 21
71.4483722723
 31
0.0
  0
LINE
  5
33D
100
AcDbEntity
  8
0
370
         0
  6
Continuous
 62
         7
100
AcDbLine
 10
256.9872725437
 20
81.2181161512
 30
0.0
 11
242.7274006042
 21
66.9582442118
 31
0.0
  0
LINE
  5
33E
100
AcDbEntity
  8
0
370
         0
  6
Continuous
 62
         7
100
AcDbLine
 10
252.7274006042
 20
72.4681161512
 30
0.0
 11
246.4774006042
 21
66.2181161512
 31
0.0
  0
LINE
  5
33F
100
AcDbEntity
  8
0
370
         0
  6
Continuous
 62
         7
100
AcDbLine
 10
261.4774006042
 20
81.2181161512
 30
0.0
 11
258.5420799531
 21
78.2827955001
 31
0.0
  0
LINE
  5
340
100
AcDbEntity
  8
0
370
         0
  6
Continuous
 62
         7
100
AcDbLine
 10
252.7274006042
 20
67.9779880907
 30
0.0
 11
250.9675286647
 21
66.2181161512
 31
0.0
  0
LINE
  5
341
100
AcDbEntity
  8
0
370
         0
  6
Continuous
 62
         7
100
AcDbLine
 10
265.9675286647
 20
81.2181161512
 30
0.0
 11
260.5719190295
 21
75.822506516
 31
0.0
  0
LINE
  5
342
100
AcDbEntity
  8
0
370
         0
  6
Continuous
 62
         7
100
AcDbLine
 10
270.4576567253
 20
81.2181161512
 30
0.0
 11
260.7274006042
 21
71.4878600302
 31
0.0
  0
LINE
  5
343
100
AcDbEntity
  8
0
370
         0
  6
Continuous
 62
         7
100
AcDbLine
 10
274.9477847858
 20
81.2181161512
 30
0.0
 11
260.7274006042
 21
66.9977319696
 31
0.0
  0
LINE
  5
344
100
AcDbEntity
  8
0
370
         0
  6
Continuous
 62
         7
100
AcDbLine
 10
279.4379128463
 20
81.2181161512
 30
0.0
 11
264.4379128463
 21
66.2181161512
 31
0.0
  0
LINE
  5
345
100
AcDbEntity
  8
0
370
         0
  6
Continuous
 62
         7
100
AcDbLine
 10
283.9280409069
 20
81.2181161512
 30
0.0
 11
268.9280409069
 21
66.2181161512
 31
0.0
  0
LINE
  5
346
100
AcDbEntity
  8
0
370
         0
  6
Continuous
 62
         7
100
AcDbLine
 10
288.4181689674
 20
81.2181161512
 30
0.0
 11
273.4181689674
 21
66.2181161512
 31
0.0
  0
LINE
  5
347
100
AcDbEntity
  8
0
370
         0
  6
Continuous
 62
         7
100
AcDbLine
 10
292.9082970279
 20
81.2181161512
 30
0.0
 11
277.9082970279
 21
66.2181161512
 31
0.0
  0
LINE
  5
348
100
AcDbEntity
  8
0
370
         0
  6
Continuous
 62
         7
100
AcDbLine
 10
297.3984250885
 20
81.2181161512
 30
0.0
 11
282.3984250885
 21
66.2181161512
 31
0.0
  0
LINE
  5
349
100
AcDbEntity
  8
0
370
         0
  6
Continuous
 62
         7
100
AcDbLine
 10
301.888553149
 20
81.2181161512
 30
0.0
 11
286.888553149
 21
66.2181161512
 31
0.0
  0
LINE
  5
34A
100
AcDbEntity
  8
0
370
         0
  6
Continuous
 62
         7
100
AcDbLine
 10
302.7274006042
 20
77.5668355459
 30
0.0
 11
291.3786812096
 21
66.2181161512
 31
0.0
  0
LINE
  5
34B
100
AcDbEntity
  8
0
370
         0
  6
Continuous
 62
         7
100
AcDbLine
 10
302.7274006042
 20
73.0767074853
 30
0.0
 11
295.8688092701
 21
66.2181161512
 31
0.0
  0
LINE
  5
34C
100
AcDbEntity
  8
0
370
         0
  6
Continuous
 62
         7
100
AcDbLine
 10
302.7274006042
 20
68.5865794248
 30
0.0
 11
300.3589373306
 21
66.2181161512
 31
0.0
  0
LINE
  5
34D
100
AcDbEntity
  8
0
370
        15
  6
Continuous
 62
         7
100
AcDbLine
 10
302.7274006042
 20
66.2181161512
 30
0.0
 11
260.7274006042
 21
66.2181161512
 31
0.0
  0
LINE
  5
34E
100
AcDbEntity
  8
0
370
        15
  6
Continuous
 62
         7
100
AcDbLine
 10
260.7274006042
 20
66.2181161512
 30
0.0
 11
260.7274006042
 21
74.7181161512
 31
0.0
  0
ARC
  5
34F
100
AcDbEntity
  8
0
370
        15
  6
Continuous
 62
         7
100
AcDbCircle
 10
256.7274006042
 20
74.7181161512
 30
0.0
 40
4.0
100
AcDbArc
 50
0.0
 51
90.0
  0
ARC
  5
350
100
AcDbEntity
  8
0
370
        15
  6
Continuous
 62
         7
100
AcDbCircle
 10
256.7274006042
 20
74.7181161512
 30
0.0
 40
4.0
100
AcDbArc
 50
90.0
 51
180.0
  0
LINE
  5
351
100
AcDbEntity
  8
0
370
        15
  6
Continuous
 62
         7
100
AcDbLine
 10
252.7274006042
 20
74.7181161512
 30
0.0
 11
252.7274006042
 21
66.2181161512
 31
0.0
  0
LINE
  5
352
100
AcDbEntity
  8
0
370
        15
  6
Continuous
 62
         7
100
AcDbLine
 10
252.7274006042
 20
66.2181161512
 30
0.0
 11
242.7274006042
 21
66.2181161512
 31
0.0
  0
LINE
  5
353
100
AcDbEntity
  8
0
370
        15
  6
Continuous
 62
         7
100
AcDbLine
 10
242.7274006042
 20
81.2181161512
 30
0.0
 11
242.7274006042
 21
66.2181161512
 31
0.0
  0
LINE
  5
354
100
AcDbEntity
  8
0
370
        15
  6
Continuous
 62
         7
100
AcDbLine
 10
302.7274006042
 20
81.2181161512
 30
0.0
 11
242.7274006042
 21
81.2181161512
 31
0.0
  0
LINE
  5
355
100
AcDbEntity
  8
0
370
        15
  6
Continuous
 62
         7
100
AcDbLine
 10
302.7274006042
 20
66.2181161512
 30
0.0
 11
302.7274006042
 21
81.2181161512
 31
0.0
  0
LINE
  5
356
100
AcDbEntity
  8
0
370
        15
  6
Continuous
 62
         7
100
AcDbLine
 10
252.7274006042
 20
66.2181161512
 30
0.0
 11
260.7274006042
 21
66.2181161512
 31
0.0
  0
LINE
  5
357
100
AcDbEntity
  8
0
370
         0
  6
DOT2
 62
         7
100
AcDbLine
 10
260.7274006042
 20
74.7181161512
 30
0.0
 11
252.7274006042
 21
74.7181161512
 31
0.0
  0
DIMENSION
  5
364
100
AcDbEntity
  8
0
100
AcDbDimension
  2
*D3
 10
256.7274006042
 20
74.7181161512
 30
0.0
 11
268.9344338651
 21
92.7985793512
 31
0.0
 70
       164
 71
         5
 72
         1
 41
1.0
 42
0.0
  1
<>
  3
SLDDIMSTYLE3
100
AcDbRadialDimension
 15
258.2552834161
 25
78.4148138821
 35
0.0
 40
0.0
  0
DIMENSION
  5
372
100
AcDbEntity
  8
0
 62
       255
100
AcDbDimension
  2
*D4
 10
231.5623627774
 20
66.2181161512
 30
0.0
 11
231.5623627774
 21
72.7408414765
 31
0.0
 70
       160
 71
         5
 72
         1
 41
1.0
 42
0.0
  3
SLDDIMSTYLE2
100
AcDbAlignedDimension
 13
302.7274006042
 23
78.7181161512
 33
0.0
 14
302.7274006042
 24
66.2181161512
 34
0.0
 50
90.0
100
AcDbRotatedDimension
  0
DIMENSION
  5
380
100
AcDbEntity
  8
0
 62
       255
100
AcDbDimension
  2
*D5
 10
312.0730099015
 20
66.2181161512
 30
0.0
 11
312.0730099015
 21
72.7408414765
 31
0.0
 70
       160
 71
         5
 72
         1
 41
1.0
 42
0.0
  3
SLDDIMSTYLE2
100
AcDbAlignedDimension
 13
302.7274006042
 23
81.2181161512
 33
0.0
 14
302.7274006042
 24
66.2181161512
 34
0.0
 50
90.0
100
AcDbRotatedDimension
  0
DIMENSION
  5
38D
100
AcDbEntity
  8
0
 62
       255
100
AcDbDimension
  2
*D6
 10
252.7274006042
 20
59.9678902948
 30
0.0
 11
266.4330163812
 21
59.9678902948
 31
0.0
 70
       160
 71
         5
 72
         1
 41
1.0
 42
0.0
  3
SLDDIMSTYLE2
100
AcDbAlignedDimension
 13
260.7274006042
 23
66.2181161512
 33
0.0
 14
252.7274006042
 24
66.2181161512
 34
0.0
100
AcDbRotatedDimension
  0
MTEXT
  5
38E
100
AcDbEntity
  8
0
 62
         7
100
AcDbMText
 10
252.2354359487
 20
252.8734167113
 30
0.0
 40
3.5
 41
0.0
 71
         2
 72
         1
  1
B-B
  7
SLDTEXTSTYLE0
 73
         1
 44
1.0
  0
LINE
  5
38F
100
AcDbEntity
  8
0
370
        15
  6
Continuous
 62
         7
100
AcDbLine
 10
263.179162235
 20
100.5335368091
 30
0.0
 11
248.179162235
 21
100.5335368091
 31
0.0
  0
LINE
  5
390
100
AcDbEntity
  8
0
370
        15
  6
Continuous
 62
         7
100
AcDbLine
 10
248.179162235
 20
100.5335368091
 30
0.0
 11
248.179162235
 21
240.5335368091
 31
0.0
  0
LINE
  5
391
100
AcDbEntity
  8
0
370
        15
  6
Continuous
 62
         7
100
AcDbLine
 10
263.179162235
 20
240.5335368091
 30
0.0
 11
248.179162235
 21
240.5335368091
 31
0.0
  0
LINE
  5
392
100
AcDbEntity
  8
0
370
        15
  6
Continuous
 62
         7
100
AcDbLine
 10
263.179162235
 20
166.0335368091
 30
0.0
 11
263.179162235
 21
156.5335368091
 31
0.0
  0
LINE
  5
393
100
AcDbEntity
  8
0
370
        15
  6
Continuous
 62
         7
100
AcDbLine
 10
263.179162235
 20
136.0335368091
 30
0.0
 11
263.179162235
 21
100.5335368091
 31
0.0
  0
LINE
  5
394
100
AcDbEntity
  8
0
370
        15
  6
Continuous
 62
         7
100
AcDbLine
 10
263.179162235
 20
240.5335368091
 30
0.0
 11
263.179162235
 21
169.0335368091
 31
0.0
  0
LINE
  5
395
100
AcDbEntity
  8
0
370
        15
  6
Continuous
 62
         7
100
AcDbLine
 10
263.179162235
 20
148.5335368091
 30
0.0
 11
263.179162235
 21
139.0335368091
 31
0.0
  0
ARC
  5
396
100
AcDbEntity
  8
0
370
        15
  6
Continuous
 62
         7
100
AcDbCircle
 10
263.179162235
 20
137.5335368091
 30
0.0
 40
1.5
100
AcDbArc
 50
90.0
 51
270.0
  0
ARC
  5
397
100
AcDbEntity
  8
0
370
        15
  6
Continuous
 62
         7
100
AcDbCircle
 10
263.179162235
 20
167.5335368091
 30
0.0
 40
1.5
100
AcDbArc
 50
90.0
 51
270.0
  0
ARC
  5
398
100
AcDbEntity
  8
0
370
        15
  6
Continuous
 62
         7
100
AcDbCircle
 10
263.179162235
 20
152.5335368091
 30
0.0
 40
4.0
100
AcDbArc
 50
90.0
 51
270.0
  0
LINE
  5
399
100
AcDbEntity
  8
0
370
        15
  6
Continuous
 62
         7
100
AcDbLine
 10
263.179162235
 20
136.0335368091
 30
0.0
 11
263.179162235
 21
139.0335368091
 31
0.0
  0
LINE
  5
39A
100
AcDbEntity
  8
0
370
        15
  6
Continuous
 62
         7
100
AcDbLine
 10
263.179162235
 20
148.5335368091
 30
0.0
 11
263.179162235
 21
156.5335368091
 31
0.0
  0
LINE
  5
39B
100
AcDbEntity
  8
0
370
        15
  6
Continuous
 62
         7
100
AcDbLine
 10
263.179162235
 20
166.0335368091
 30
0.0
 11
263.179162235
 21
169.0335368091
 31
0.0
  0
LINE
  5
39C
100
AcDbEntity
  8
0
370
         0
  6
HIDDEN
 62
         9
100
AcDbLine
 10
250.679162235
 20
174.3959322404
 30
0.0
 11
250.679162235
 21
183.3708796212
 31
0.0
  0
LINE
  5
39D
100
AcDbEntity
  8
0
370
         0
  6
HIDDEN
 62
         9
100
AcDbLine
 10
250.679162235
 20
130.5335368091
 30
0.0
 11
250.679162235
 21
174.3959322404
 31
0.0
  0
LINE
  5
39E
100
AcDbEntity
  8
0
370
         0
  6
HIDDEN
 62
         9
100
AcDbLine
 10
250.679162235
 20
114.5335368091
 30
0.0
 11
250.679162235
 21
130.5335368091
 31
0.0
  0
LINE
  5
39F
100
AcDbEntity
  8
0
370
         0
  6
HIDDEN
 62
         9
100
AcDbLine
 10
250.679162235
 20
183.3708796212
 30
0.0
 11
250.679162235
 21
226.5335368091
 31
0.0
  0
LINE
  5
3A0
100
AcDbEntity
  8
0
370
         0
  6
HIDDEN
 62
         9
100
AcDbLine
 10
252.179162235
 20
222.1585368091
 30
0.0
 11
252.179162235
 21
228.9085368091
 31
0.0
  0
LINE
  5
3A1
100
AcDbEntity
  8
0
370
         0
  6
HIDDEN
 62
         9
100
AcDbLine
 10
252.179162235
 20
127.1585368091
 30
0.0
 11
252.179162235
 21
133.9085368091
 31
0.0
  0
ARC
  5
3A2
100
AcDbEntity
  8
0
370
         0
  6
HIDDEN
 62
         9
100
AcDbCircle
 10
263.179162235
 20
152.5335368091
 30
0.0
 40
1.25
100
AcDbArc
 50
90.0
 51
270.0
  0
ARC
  5
3A3
100
AcDbEntity
  8
0
370
         0
  6
HIDDEN
 62
         9
100
AcDbCircle
 10
263.179162235
 20
152.5335368091
 30
0.0
 40
4.25
100
AcDbArc
 50
90.0
 51
270.0
  0
LINE
  5
3A4
100
AcDbEntity
  8
0
370
         0
  6
HIDDEN
 62
         9
100
AcDbLine
 10
263.179162235
 20
234.0335368091
 30
0.0
 11
248.179162235
 21
234.0335368091
 31
0.0
  0
LINE
  5
3A5
100
AcDbEntity
  8
0
370
         0
  6
HIDDEN
 62
         9
100
AcDbLine
 10
248.179162235
 20
229.0335368091
 30
0.0
 11
263.179162235
 21
229.0335368091
 31
0.0
  0
LINE
  5
3A6
100
AcDbEntity
  8
0
370
         0
  6
HIDDEN
 62
         9
100
AcDbLine
 10
254.679162235
 20
110.5335368091
 30
0.0
 11
263.179162235
 21
110.5335368091
 31
0.0
  0
ARC
  5
3A7
100
AcDbEntity
  8
0
370
         0
  6
HIDDEN
 62
         9
100
AcDbCircle
 10
254.679162235
 20
114.5335368091
 30
0.0
 40
4.0
100
AcDbArc
 50
180.0
 51
270.0
  0
ARC
  5
3A8
100
AcDbEntity
  8
0
370
         0
  6
HIDDEN
 62
         9
100
AcDbCircle
 10
254.679162235
 20
114.5335368091
 30
0.0
 40
4.0
100
AcDbArc
 50
90.0
 51
180.0
  0
LINE
  5
3A9
100
AcDbEntity
  8
0
370
         0
  6
HIDDEN
 62
         9
100
AcDbLine
 10
254.679162235
 20
118.5335368091
 30
0.0
 11
263.179162235
 21
118.5335368091
 31
0.0
  0
LINE
  5
3AA
100
AcDbEntity
  8
0
370
         0
  6
HIDDEN
 62
         9
100
AcDbLine
 10
248.179162235
 20
218.1585368091
 30
0.0
 11
252.179162235
 21
222.1585368091
 31
0.0
  0
LINE
  5
3AB
100
AcDbEntity
  8
0
370
         0
  6
HIDDEN
 62
         9
100
AcDbLine
 10
252.179162235
 20
228.9085368091
 30
0.0
 11
248.179162235
 21
232.9085368091
 31
0.0
  0
LINE
  5
3AC
100
AcDbEntity
  8
0
370
         0
  6
HIDDEN
 62
         9
100
AcDbLine
 10
248.179162235
 20
123.1585368091
 30
0.0
 11
252.179162235
 21
127.1585368091
 31
0.0
  0
LINE
  5
3AD
100
AcDbEntity
  8
0
370
         0
  6
HIDDEN
 62
         9
100
AcDbLine
 10
252.179162235
 20
133.9085368091
 30
0.0
 11
248.179162235
 21
137.9085368091
 31
0.0
  0
LINE
  5
3AE
100
AcDbEntity
  8
0
370
         0
  6
HIDDEN
 62
         9
100
AcDbLine
 10
263.179162235
 20
228.9085368091
 30
0.0
 11
252.179162235
 21
228.9085368091
 31
0.0
  0
LINE
  5
3AF
100
AcDbEntity
  8
0
370
         0
  6
HIDDEN
 62
         9
100
AcDbLine
 10
252.179162235
 20
222.1585368091
 30
0.0
 11
263.179162235
 21
222.1585368091
 31
0.0
  0
LINE
  5
3B0
100
AcDbEntity
  8
0
370
         0
  6
HIDDEN
 62
         9
100
AcDbLine
 10
263.179162235
 20
133.9085368091
 30
0.0
 11
252.179162235
 21
133.9085368091
 31
0.0
  0
LINE
  5
3B1
100
AcDbEntity
  8
0
370
         0
  6
HIDDEN
 62
         9
100
AcDbLine
 10
252.179162235
 20
127.1585368091
 30
0.0
 11
263.179162235
 21
127.1585368091
 31
0.0
  0
ARC
  5
3B2
100
AcDbEntity
  8
0
370
         0
  6
HIDDEN
 62
         9
100
AcDbCircle
 10
254.679162235
 20
130.5335368091
 30
0.0
 40
4.0
100
AcDbArc
 50
90.0
 51
180.0
  0
LINE
  5
3B3
100
AcDbEntity
  8
0
370
         0
  6
HIDDEN
 62
         9
100
AcDbLine
 10
263.179162235
 20
134.5335368091
 30
0.0
 11
254.679162235
 21
134.5335368091
 31
0.0
  0
LINE
  5
3B4
100
AcDbEntity
  8
0
370
         0
  6
HIDDEN
 62
         9
100
AcDbLine
 10
263.179162235
 20
230.5335368091
 30
0.0
 11
254.679162235
 21
230.5335368091
 31
0.0
  0
ARC
  5
3B5
100
AcDbEntity
  8
0
370
         0
  6
HIDDEN
 62
         9
100
AcDbCircle
 10
254.679162235
 20
226.5335368091
 30
0.0
 40
4.0
100
AcDbArc
 50
90.0
 51
180.0
  0
LINE
  5
3B6
100
AcDbEntity
  8
0
370
         0
  6
HIDDEN
 62
         9
100
AcDbLine
 10
263.179162235
 20
112.0335368091
 30
0.0
 11
248.179162235
 21
112.0335368091
 31
0.0
  0
LINE
  5
3B7
100
AcDbEntity
  8
0
370
         0
  6
HIDDEN
 62
         9
100
AcDbLine
 10
248.179162235
 20
107.0335368091
 30
0.0
 11
263.179162235
 21
107.0335368091
 31
0.0
  0
POLYLINE
  5
3B8
100
AcDbEntity
  8
0
370
         0
  6
DOT2
 62
         9
100
AcDb2dPolyline
 66
         1
 10
0.0
 20
0.0
 30
0.0
 70
       128
  0
VERTEX
  5
3B9
100
AcDbEntity
  8
0
100
AcDbVertex
100
AcDb2dVertex
 10
254.679162235
 20
185.6146164664
 30
0.0
  0
VERTEX
  5
3BA
100
AcDbEntity
  8
0
100
AcDbVertex
100
AcDb2dVertex
 10
253.8988009469
 20
185.571503692
 30
0.0
  0
VERTEX
  5
3BB
100
AcDbEntity
  8
0
100
AcDbVertex
100
AcDb2dVertex
 10
253.1484285055
 20
185.4438221688
 30
0.0
  0
VERTEX
  5
3BC
100
AcDbEntity
  8
0
100
AcDbVertex
100
AcDb2dVertex
 10
252.4568813029
 20
185.236478626
 30
0.0
  0
VERTEX
  5
3BD
100
AcDbEntity
  8
0
100
AcDbVertex
100
AcDb2dVertex
 10
251.8507351102
 20
184.9574411596
 30
0.0
  0
VERTEX
  5
3BE
100
AcDbEntity
  8
0
100
AcDbVertex
100
AcDb2dVertex
 10
251.3532837858
 20
184.6174330231
 30
0.0
  0
VERTEX
  5
3BF
100
AcDbEntity
  8
0
100
AcDbVertex
100
AcDb2dVertex
 10
250.9836441049
 20
184.2295205384
 30
0.0
  0
VERTEX
  5
3C0
100
AcDbEntity
  8
0
100
AcDbVertex
100
AcDb2dVertex
 10
250.7560211134
 20
183.8086109648
 30
0.0
  0
VERTEX
  5
3C1
100
AcDbEntity
  8
0
100
AcDbVertex
100
AcDb2dVertex
 10
250.679162235
 20
183.3708796212
 30
0.0
  0
SEQEND
  5
3C2
100
AcDbEntity
  8
0
  0
LINE
  5
3C3
100
AcDbEntity
  8
0
370
         0
  6
DOT2
 62
         9
100
AcDbLine
 10
254.679162235
 20
174.3959322404
 30
0.0
 11
250.679162235
 21
174.3959322404
 31
0.0
  0
LINE
  5
3C4
100
AcDbEntity
  8
0
370
         0
  6
DOT2
 62
         9
100
AcDbLine
 10
254.679162235
 20
174.3959322404
 30
0.0
 11
254.679162235
 21
185.6146164664
 31
0.0
  0
LINE
  5
3C5
100
AcDbEntity
  8
0
370
         0
  6
DOT2
 62
         9
100
AcDbLine
 10
254.679162235
 20
130.5335368091
 30
0.0
 11
254.679162235
 21
174.3959322404
 31
0.0
  0
LINE
  5
3C6
100
AcDbEntity
  8
0
370
         0
  6
DOT2
 62
         9
100
AcDbLine
 10
254.679162235
 20
130.5335368091
 30
0.0
 11
250.679162235
 21
130.5335368091
 31
0.0
  0
LINE
  5
3C7
100
AcDbEntity
  8
0
370
         0
  6
DOT2
 62
         9
100
AcDbLine
 10
263.179162235
 20
174.3959322404
 30
0.0
 11
254.679162235
 21
174.3959322404
 31
0.0
  0
LINE
  5
3C8
100
AcDbEntity
  8
0
370
         0
  6
DOT2
 62
         9
100
AcDbLine
 10
254.679162235
 20
130.5335368091
 30
0.0
 11
254.679162235
 21
110.5536754783
 31
0.0
  0
LINE
  5
3C9
100
AcDbEntity
  8
0
370
         0
  6
DOT2
 62
         9
100
AcDbLine
 10
263.179162235
 20
130.5335368091
 30
0.0
 11
254.679162235
 21
130.5335368091
 31
0.0
  0
LINE
  5
3CA
100
AcDbEntity
  8
0
370
         0
  6
DOT2
 62
         9
100
AcDbLine
 10
263.179162235
 20
130.5335368091
 30
0.0
 11
254.679162235
 21
130.5335368091
 31
0.0
  0
LINE
  5
3CB
100
AcDbEntity
  8
0
370
         0
  6
DOT2
 62
         9
100
AcDbLine
 10
254.679162235
 20
130.5335368091
 30
0.0
 11
250.679162235
 21
130.5335368091
 31
0.0
  0
LINE
  5
3CC
100
AcDbEntity
  8
0
370
         0
  6
DOT2
 62
         9
100
AcDbLine
 10
254.679162235
 20
185.6146164664
 30
0.0
 11
254.679162235
 21
228.7772736543
 31
0.0
  0
POLYLINE
  5
3CD
100
AcDbEntity
  8
0
370
         0
  6
DOT2
 62
         9
100
AcDb2dPolyline
 66
         1
 10
0.0
 20
0.0
 30
0.0
 70
       128
  0
VERTEX
  5
3CE
100
AcDbEntity
  8
0
100
AcDbVertex
100
AcDb2dVertex
 10
250.679162235
 20
226.5335368091
 30
0.0
  0
VERTEX
  5
3CF
100
AcDbEntity
  8
0
100
AcDbVertex
100
AcDb2dVertex
 10
250.7560211134
 20
226.9712681528
 30
0.0
  0
VERTEX
  5
3D0
100
AcDbEntity
  8
0
100
AcDbVertex
100
AcDb2dVertex
 10
250.9836441049
 20
227.3921777264
 30
0.0
  0
VERTEX
  5
3D1
100
AcDbEntity
  8
0
100
AcDbVertex
100
AcDb2dVertex
 10
251.3532837858
 20
227.780090211
 30
0.0
  0
VERTEX
  5
3D2
100
AcDbEntity
  8
0
100
AcDbVertex
100
AcDb2dVertex
 10
251.8507351102
 20
228.1200983475
 30
0.0
  0
VERTEX
  5
3D3
100
AcDbEntity
  8
0
100
AcDbVertex
100
AcDb2dVertex
 10
252.4568813029
 20
228.3991358139
 30
0.0
  0
VERTEX
  5
3D4
100
AcDbEntity
  8
0
100
AcDbVertex
100
AcDb2dVertex
 10
253.1484285055
 20
228.6064793567
 30
0.0
  0
VERTEX
  5
3D5
100
AcDbEntity
  8
0
100
AcDbVertex
100
AcDb2dVertex
 10
253.8988009469
 20
228.73416088
 30
0.0
  0
VERTEX
  5
3D6
100
AcDbEntity
  8
0
100
AcDbVertex
100
AcDb2dVertex
 10
254.679162235
 20
228.7772736543
 30
0.0
  0
SEQEND
  5
3D7
100
AcDbEntity
  8
0
  0
LINE
  5
3D8
100
AcDbEntity
  8
0
370
         0
  6
DOT2
 62
         9
100
AcDbLine
 10
263.179162235
 20
185.6146164664
 30
0.0
 11
254.679162235
 21
185.6146164664
 31
0.0
  0
LINE
  5
3D9
100
AcDbEntity
  8
0
370
         0
  6
DOT2
 62
         9
100
AcDbLine
 10
250.679162235
 20
130.5335368091
 30
0.0
 11
254.679162235
 21
130.5335368091
 31
0.0
  0
LINE
  5
3DA
100
AcDbEntity
  8
0
370
         0
  6
DOT2
 62
         9
100
AcDbLine
 10
254.679162235
 20
130.5335368091
 30
0.0
 11
254.679162235
 21
118.5538389099
 31
0.0
  0
LINE
  5
3DB
100
AcDbEntity
  8
0
370
         0
  6
DOT2
 62
         9
100
AcDbLine
 10
254.679162235
 20
130.5335368091
 30
0.0
 11
250.679162235
 21
130.5335368091
 31
0.0
  0
POLYLINE
  5
3DC
100
AcDbEntity
  8
0
370
         0
  6
DOT2
 62
         9
100
AcDb2dPolyline
 66
         1
 10
0.0
 20
0.0
 30
0.0
 70
       128
  0
VERTEX
  5
3DD
100
AcDbEntity
  8
0
100
AcDbVertex
100
AcDb2dVertex
 10
250.679162235
 20
183.3708796212
 30
0.0
  0
VERTEX
  5
3DE
100
AcDbEntity
  8
0
100
AcDbVertex
100
AcDb2dVertex
 10
250.7560211134
 20
182.9331482775
 30
0.0
  0
VERTEX
  5
3DF
100
AcDbEntity
  8
0
100
AcDbVertex
100
AcDb2dVertex
 10
250.9836441049
 20
182.512238704
 30
0.0
  0
VERTEX
  5
3E0
100
AcDbEntity
  8
0
100
AcDbVertex
100
AcDb2dVertex
 10
251.3532837858
 20
182.1243262193
 30
0.0
  0
VERTEX
  5
3E1
100
AcDbEntity
  8
0
100
AcDbVertex
100
AcDb2dVertex
 10
251.8507351102
 20
181.7843180828
 30
0.0
  0
VERTEX
  5
3E2
100
AcDbEntity
  8
0
100
AcDbVertex
100
AcDb2dVertex
 10
252.4568813029
 20
181.5052806164
 30
0.0
  0
VERTEX
  5
3E3
100
AcDbEntity
  8
0
100
AcDbVertex
100
AcDb2dVertex
 10
253.1484285055
 20
181.2979370736
 30
0.0
  0
VERTEX
  5
3E4
100
AcDbEntity
  8
0
100
AcDbVertex
100
AcDb2dVertex
 10
253.8988009469
 20
181.1702555503
 30
0.0
  0
VERTEX
  5
3E5
100
AcDbEntity
  8
0
100
AcDbVertex
100
AcDb2dVertex
 10
254.679162235
 20
181.127142776
 30
0.0
  0
SEQEND
  5
3E6
100
AcDbEntity
  8
0
  0
LINE
  5
3E7
100
AcDbEntity
  8
0
370
         0
  6
DOT2
 62
         9
100
AcDbLine
 10
254.679162235
 20
181.127142776
 30
0.0
 11
254.679162235
 21
174.3959322404
 31
0.0
  0
LINE
  5
3E8
100
AcDbEntity
  8
0
370
         0
  6
DOT2
 62
         9
100
AcDbLine
 10
250.679162235
 20
174.3959322404
 30
0.0
 11
254.679162235
 21
174.3959322404
 31
0.0
  0
LINE
  5
3E9
100
AcDbEntity
  8
0
370
         0
  6
DOT2
 62
         9
100
AcDbLine
 10
254.679162235
 20
174.3959322404
 30
0.0
 11
254.679162235
 21
130.5335368091
 31
0.0
  0
POLYLINE
  5
3EA
100
AcDbEntity
  8
0
370
         0
  6
DOT2
 62
         9
100
AcDb2dPolyline
 66
         1
 10
0.0
 20
0.0
 30
0.0
 70
       128
  0
VERTEX
  5
3EB
100
AcDbEntity
  8
0
100
AcDbVertex
100
AcDb2dVertex
 10
254.679162235
 20
224.2897999639
 30
0.0
  0
VERTEX
  5
3EC
100
AcDbEntity
  8
0
100
AcDbVertex
100
AcDb2dVertex
 10
253.8988009469
 20
224.3329127383
 30
0.0
  0
VERTEX
  5
3ED
100
AcDbEntity
  8
0
100
AcDbVertex
100
AcDb2dVertex
 10
253.1484285055
 20
224.4605942615
 30
0.0
  0
VERTEX
  5
3EE
100
AcDbEntity
  8
0
100
AcDbVertex
100
AcDb2dVertex
 10
252.4568813029
 20
224.6679378043
 30
0.0
  0
VERTEX
  5
3EF
100
AcDbEntity
  8
0
100
AcDbVertex
100
AcDb2dVertex
 10
251.8507351102
 20
224.9469752707
 30
0.0
  0
VERTEX
  5
3F0
100
AcDbEntity
  8
0
100
AcDbVertex
100
AcDb2dVertex
 10
251.3532837858
 20
225.2869834072
 30
0.0
  0
VERTEX
  5
3F1
100
AcDbEntity
  8
0
100
AcDbVertex
100
AcDb2dVertex
 10
250.9836441049
 20
225.6748958919
 30
0.0
  0
VERTEX
  5
3F2
100
AcDbEntity
  8
0
100
AcDbVertex
100
AcDb2dVertex
 10
250.7560211134
 20
226.0958054655
 30
0.0
  0
VERTEX
  5
3F3
100
AcDbEntity
  8
0
100
AcDbVertex
100
AcDb2dVertex
 10
250.679162235
 20
226.5335368091
 30
0.0
  0
SEQEND
  5
3F4
100
AcDbEntity
  8
0
  0
LINE
  5
3F5
100
AcDbEntity
  8
0
370
         0
  6
DOT2
 62
         9
100
AcDbLine
 10
254.679162235
 20
224.2897999639
 30
0.0
 11
254.679162235
 21
181.127142776
 31
0.0
  0
LINE
  5
3F6
100
AcDbEntity
  8
0
370
         0
  6
DOT2
 62
         9
100
AcDbLine
 10
263.179162235
 20
130.5335368091
 30
0.0
 11
254.679162235
 21
130.5335368091
 31
0.0
  0
LINE
  5
3F7
100
AcDbEntity
  8
0
370
         0
  6
DOT2
 62
         9
100
AcDbLine
 10
263.179162235
 20
130.5335368091
 30
0.0
 11
254.679162235
 21
130.5335368091
 31
0.0
  0
LINE
  5
3F8
100
AcDbEntity
  8
0
370
         0
  6
DOT2
 62
         9
100
AcDbLine
 10
263.179162235
 20
174.3959322404
 30
0.0
 11
254.679162235
 21
174.3959322404
 31
0.0
  0
LINE
  5
3F9
100
AcDbEntity
  8
0
370
         0
  6
DOT2
 62
         9
100
AcDbLine
 10
263.179162235
 20
181.127142776
 30
0.0
 11
254.679162235
 21
181.127142776
 31
0.0
  0
LINE
  5
3FA
100
AcDbEntity
  8
0
370
         0
  6
DOT2
 62
         9
100
AcDbLine
 10
263.179162235
 20
224.2897999639
 30
0.0
 11
254.679162235
 21
224.2897999639
 31
0.0
  0
LINE
  5
3FB
100
AcDbEntity
  8
0
370
         0
  6
DOT2
 62
         9
100
AcDbLine
 10
254.679162235
 20
130.5335368091
 30
0.0
 11
254.679162235
 21
134.5335368091
 31
0.0
  0
LINE
  5
3FC
100
AcDbEntity
  8
0
370
         0
  6
DOT2
 62
         9
100
AcDbLine
 10
254.679162235
 20
224.2897999639
 30
0.0
 11
254.679162235
 21
230.5334532115
 31
0.0
  0
LINE
  5
3FD
100
AcDbEntity
  8
0
370
         0
  6
DOT2
 62
         9
100
AcDbLine
 10
263.179162235
 20
228.7772736543
 30
0.0
 11
254.679162235
 21
228.7772736543
 31
0.0
  0
DIMENSION
  5
409
100
AcDbEntity
  8
0
100
AcDbDimension
  2
*D7
 10
263.179162235
 20
100.5335368091
 30
0.0
 11
273.6022594349
 21
100.5335368091
 31
0.0
 70
       166
 71
         5
 72
         1
 41
1.0
 42
0.0
  3
SLDDIMSTYLE4
100
AcDbOrdinateDimension
 13
263.179162235
 23
100.5335368091
 33
0.0
 14
273.6022594349
 24
100.5335368091
 34
0.0
  0
DIMENSION
  5
412
100
AcDbEntity
  8
0
100
AcDbDimension
  2
*D9
 10
263.179162235
 20
100.5335368091
 30
0.0
 11
273.6022594349
 21
137.5335368091
 31
0.0
 70
       166
 71
         5
 72
         1
 41
1.0
 42
0.0
  3
SLDDIMSTYLE5
100
AcDbOrdinateDimension
 13
263.179162235
 23
137.5335368091
 33
0.0
 14
273.6022594349
 24
137.5335368091
 34
0.0
  0
DIMENSION
  5
41A
100
AcDbEntity
  8
0
100
AcDbDimension
  2
*D10
 10
263.179162235
 20
100.5335368091
 30
0.0
 11
273.6022594349
 21
152.5335368091
 31
0.0
 70
       166
 71
         5
 72
         1
 41
1.0
 42
0.0
  3
SLDDIMSTYLE5
100
AcDbOrdinateDimension
 13
263.179162235
 23
152.5335368091
 33
0.0
 14
273.6022594349
 24
152.5335368091
 34
0.0
  0
DIMENSION
  5
422
100
AcDbEntity
  8
0
100
AcDbDimension
  2
*D11
 10
263.179162235
 20
100.5335368091
 30
0.0
 11
273.6022594349
 21
167.5335368091
 31
0.0
 70
       166
 71
         5
 72
         1
 41
1.0
 42
0.0
  3
SLDDIMSTYLE5
100
AcDbOrdinateDimension
 13
263.179162235
 23
167.5335368091
 33
0.0
 14
273.6022594349
 24
167.5335368091
 34
0.0
  0
DIMENSION
  5
42A
100
AcDbEntity
  8
0
100
AcDbDimension
  2
*D12
 10
263.179162235
 20
100.5335368091
 30
0.0
 11
273.6022594349
 21
240.5335368091
 31
0.0
 70
       166
 71
         5
 72
         1
 41
1.0
 42
0.0
  3
SLDDIMSTYLE5
100
AcDbOrdinateDimension
 13
263.179162235
 23
240.5335368091
 33
0.0
 14
273.6022594349
 24
240.5335368091
 34
0.0
  0
DIMENSION
  5
437
100
AcDbEntity
  8
0
100
AcDbDimension
  2
*D13
 10
261.8877921783
 20
166.7704094431
 30
0.0
 11
279.7054245641
 21
175.9613920392
 31
0.0
 70
       163
 71
         5
 72
         1
 41
1.0
 42
0.0
  1
<>
  3
SLDDIMSTYLE6
100
AcDbDiametricDimension
 15
264.4705322916
 25
168.2966641752
 35
0.0
 40
0.0
  0
DIMENSION
  5
443
100
AcDbEntity
  8
0
100
AcDbDimension
  2
*D14
 10
260.6653148224
 20
149.4221751801
 30
0.0
 11
275.2108040974
 21
161.5811712595
 31
0.0
 70
       163
 71
         5
 72
         1
 41
1.0
 42
0.0
  1
<>
  3
SLDDIMSTYLE6
100
AcDbDiametricDimension
 15
265.6930096476
 25
155.6448984381
 35
0.0
 40
0.0
  0
DIMENSION
  5
450
100
AcDbEntity
  8
0
100
AcDbDimension
  2
*D15
 10
262.2739883994
 20
138.7296389483
 30
0.0
 11
277.7760497871
 21
130.2292911336
 31
0.0
 70
       163
 71
         5
 72
         1
 41
1.0
 42
0.0
  1
<>
  3
SLDDIMSTYLE6
100
AcDbDiametricDimension
 15
264.0843360705
 25
136.3374346699
 35
0.0
 40
0.0
  0
LINE
  5
451
100
AcDbEntity
  8
0
  6
Continuous
 62
         7
100
AcDbLine
 10
260.679162235
 20
167.5335368091
 30
0.0
 11
265.679162235
 21
167.5335368091
 31
0.0
  0
LINE
  5
452
100
AcDbEntity
  8
0
  6
Continuous
 62
         7
100
AcDbLine
 10
263.179162235
 20
165.0335368091
 30
0.0
 11
263.179162235
 21
170.0335368091
 31
0.0
  0
LINE
  5
453
100
AcDbEntity
  8
0
  6
Continuous
 62
         7
100
AcDbLine
 10
260.679162235
 20
152.5335368091
 30
0.0
 11
265.679162235
 21
152.5335368091
 31
0.0
  0
LINE
  5
454
100
AcDbEntity
  8
0
  6
Continuous
 62
         7
100
AcDbLine
 10
263.179162235
 20
150.0335368091
 30
0.0
 11
263.179162235
 21
155.0335368091
 31
0.0
  0
LINE
  5
455
100
AcDbEntity
  8
0
  6
Continuous
 62
         7
100
AcDbLine
 10
268.179162235
 20
152.5335368091
 30
0.0
 11
269.679162235
 21
152.5335368091
 31
0.0
  0
LINE
  5
456
100
AcDbEntity
  8
0
  6
Continuous
 62
         7
100
AcDbLine
 10
258.179162235
 20
152.5335368091
 30
0.0
 11
256.679162235
 21
152.5335368091
 31
0.0
  0
LINE
  5
457
100
AcDbEntity
  8
0
  6
Continuous
 62
         7
100
AcDbLine
 10
263.179162235
 20
157.5335368091
 30
0.0
 11
263.179162235
 21
159.0335368091
 31
0.0
  0
LINE
  5
458
100
AcDbEntity
  8
0
  6
Continuous
 62
         7
100
AcDbLine
 10
263.179162235
 20
147.5335368091
 30
0.0
 11
263.179162235
 21
146.0335368091
 31
0.0
  0
LINE
  5
459
100
AcDbEntity
  8
0
  6
Continuous
 62
         7
100
AcDbLine
 10
260.679162235
 20
137.5335368091
 30
0.0
 11
265.679162235
 21
137.5335368091
 31
0.0
  0
LINE
  5
45A
100
AcDbEntity
  8
0
  6
Continuous
 62
         7
100
AcDbLine
 10
263.179162235
 20
135.0335368091
 30
0.0
 11
263.179162235
 21
140.0335368091
 31
0.0
  0
LINE
  5
45B
100
AcDbEntity
  8
0
  6
HIDDEN
 62
       255
100
AcDbLine
 10
263.179162235
 20
229.5335368091
 30
0.0
 11
251.554162235
 21
229.5335368091
 31
0.0
  0
LINE
  5
45C
100
AcDbEntity
  8
0
  6
HIDDEN
 62
       255
100
AcDbLine
 10
251.554162235
 20
229.5335368091
 30
0.0
 11
251.554162235
 21
229.5335368091
 31
0.0
  0
LINE
  5
45D
100
AcDbEntity
  8
0
  6
HIDDEN
 62
       255
100
AcDbLine
 10
263.179162235
 20
221.5335368091
 30
0.0
 11
251.554162235
 21
221.5335368091
 31
0.0
  0
LINE
  5
45E
100
AcDbEntity
  8
0
  6
HIDDEN
 62
       255
100
AcDbLine
 10
251.554162235
 20
221.5335368091
 30
0.0
 11
251.554162235
 21
221.5335368091
 31
0.0
  0
LINE
  5
45F
100
AcDbEntity
  8
0
  6
HIDDEN
 62
       255
100
AcDbLine
 10
251.554162235
 20
229.5335368091
 30
0.0
 11
251.554162235
 21
229.5335368091
 31
0.0
  0
LINE
  5
460
100
AcDbEntity
  8
0
  6
HIDDEN
 62
       255
100
AcDbLine
 10
251.554162235
 20
229.5335368091
 30
0.0
 11
251.554162235
 21
229.5335368091
 31
0.0
  0
LINE
  5
461
100
AcDbEntity
  8
0
  6
HIDDEN
 62
       255
100
AcDbLine
 10
263.179162235
 20
134.5335368091
 30
0.0
 11
251.554162235
 21
134.5335368091
 31
0.0
  0
LINE
  5
462
100
AcDbEntity
  8
0
  6
HIDDEN
 62
       255
100
AcDbLine
 10
251.554162235
 20
134.5335368091
 30
0.0
 11
251.554162235
 21
134.5335368091
 31
0.0
  0
LINE
  5
463
100
AcDbEntity
  8
0
  6
HIDDEN
 62
       255
100
AcDbLine
 10
263.179162235
 20
126.5335368091
 30
0.0
 11
251.554162235
 21
126.5335368091
 31
0.0
  0
LINE
  5
464
100
AcDbEntity
  8
0
  6
HIDDEN
 62
       255
100
AcDbLine
 10
251.554162235
 20
126.5335368091
 30
0.0
 11
251.554162235
 21
126.5335368091
 31
0.0
  0
LINE
  5
465
100
AcDbEntity
  8
0
  6
HIDDEN
 62
       255
100
AcDbLine
 10
251.554162235
 20
134.5335368091
 30
0.0
 11
251.554162235
 21
134.5335368091
 31
0.0
  0
LINE
  5
466
100
AcDbEntity
  8
0
  6
HIDDEN
 62
       255
100
AcDbLine
 10
251.554162235
 20
134.5335368091
 30
0.0
 11
251.554162235
 21
134.5335368091
 31
0.0
  0
LINE
  5
467
100
AcDbEntity
  8
0
  6
HIDDEN
 62
       255
100
AcDbLine
 10
263.179162235
 20
234.5335368091
 30
0.0
 11
248.179162235
 21
234.5335368091
 31
0.0
  0
LINE
  5
468
100
AcDbEntity
  8
0
  6
HIDDEN
 62
       255
100
AcDbLine
 10
248.179162235
 20
234.5335368091
 30
0.0
 11
248.179162235
 21
234.5335368091
 31
0.0
  0
LINE
  5
469
100
AcDbEntity
  8
0
  6
HIDDEN
 62
       255
100
AcDbLine
 10
263.179162235
 20
228.5335368091
 30
0.0
 11
248.179162235
 21
228.5335368091
 31
0.0
  0
LINE
  5
46A
100
AcDbEntity
  8
0
  6
HIDDEN
 62
       255
100
AcDbLine
 10
248.179162235
 20
228.5335368091
 30
0.0
 11
248.179162235
 21
228.5335368091
 31
0.0
  0
LINE
  5
46B
100
AcDbEntity
  8
0
  6
HIDDEN
 62
       255
100
AcDbLine
 10
248.179162235
 20
234.5335368091
 30
0.0
 11
248.179162235
 21
234.5335368091
 31
0.0
  0
LINE
  5
46C
100
AcDbEntity
  8
0
  6
HIDDEN
 62
       255
100
AcDbLine
 10
248.179162235
 20
234.5335368091
 30
0.0
 11
248.179162235
 21
234.5335368091
 31
0.0
  0
LINE
  5
46D
100
AcDbEntity
  8
0
  6
HIDDEN
 62
       255
100
AcDbLine
 10
263.179162235
 20
112.5335368091
 30
0.0
 11
248.179162235
 21
112.5335368091
 31
0.0
  0
LINE
  5
46E
100
AcDbEntity
  8
0
  6
HIDDEN
 62
       255
100
AcDbLine
 10
248.179162235
 20
112.5335368091
 30
0.0
 11
248.179162235
 21
112.5335368091
 31
0.0
  0
LINE
  5
46F
100
AcDbEntity
  8
0
  6
HIDDEN
 62
       255
100
AcDbLine
 10
263.179162235
 20
106.5335368091
 30
0.0
 11
248.179162235
 21
106.5335368091
 31
0.0
  0
LINE
  5
470
100
AcDbEntity
  8
0
  6
HIDDEN
 62
       255
100
AcDbLine
 10
248.179162235
 20
106.5335368091
 30
0.0
 11
248.179162235
 21
106.5335368091
 31
0.0
  0
LINE
  5
471
100
AcDbEntity
  8
0
  6
HIDDEN
 62
       255
100
AcDbLine
 10
248.179162235
 20
112.5335368091
 30
0.0
 11
248.179162235
 21
112.5335368091
 31
0.0
  0
LINE
  5
472
100
AcDbEntity
  8
0
  6
HIDDEN
 62
       255
100
AcDbLine
 10
248.179162235
 20
112.5335368091
 30
0.0
 11
248.179162235
 21
112.5335368091
 31
0.0
  0
LINE
  5
473
100
AcDbEntity
  8
0
370
        15
  6
Continuous
 62
         7
100
AcDbLine
 10
323.4977456832
 20
100.5335368091
 30
0.0
 11
383.4977456832
 21
100.5335368091
 31
0.0
  0
LINE
  5
474
100
AcDbEntity
  8
0
370
        15
  6
Continuous
 62
         7
100
AcDbLine
 10
383.4977456832
 20
100.5335368091
 30
0.0
 11
383.4977456832
 21
240.5335368091
 31
0.0
  0
CIRCLE
  5
475
100
AcDbEntity
  8
0
370
        15
  6
Continuous
 62
         7
100
AcDbCircle
 10
374.4977456832
 20
231.5335368091
 30
0.0
 40
2.5
  0
CIRCLE
  5
476
100
AcDbEntity
  8
0
370
        15
  6
Continuous
 62
         7
100
AcDbCircle
 10
332.4977456832
 20
109.5335368091
 30
0.0
 40
2.5
  0
CIRCLE
  5
477
100
AcDbEntity
  8
0
370
        15
  6
Continuous
 62
         7
100
AcDbCircle
 10
353.4977456832
 20
130.5335368091
 30
0.0
 40
7.375
  0
CIRCLE
  5
478
100
AcDbEntity
  8
0
370
        15
  6
Continuous
 62
         7
100
AcDbCircle
 10
353.4977456832
 20
225.5335368091
 30
0.0
 40
7.375
  0
LINE
  5
479
100
AcDbEntity
  8
0
370
        15
  6
Continuous
 62
         7
100
AcDbLine
 10
383.4977456832
 20
240.5335368091
 30
0.0
 11
323.4977456832
 21
240.5335368091
 31
0.0
  0
LINE
  5
47A
100
AcDbEntity
  8
0
370
        15
  6
Continuous
 62
         7
100
AcDbLine
 10
323.4977456832
 20
240.5335368091
 30
0.0
 11
323.4977456832
 21
100.5335368091
 31
0.0
  0
CIRCLE
  5
47B
100
AcDbEntity
  8
0
370
        15
  6
Continuous
 62
         7
100
AcDbCircle
 10
353.4977456832
 20
225.5335368091
 30
0.0
 40
3.375
  0
CIRCLE
  5
47C
100
AcDbEntity
  8
0
370
        15
  6
Continuous
 62
         7
100
AcDbCircle
 10
353.4977456832
 20
130.5335368091
 30
0.0
 40
3.375
  0
ARC
  5
47D
100
AcDbEntity
  8
0
370
         0
  6
HIDDEN
 62
         9
100
AcDbCircle
 10
353.4977456832
 20
130.5335368091
 30
0.0
 40
20.0
100
AcDbArc
 50
180.0
 51
0.0
  0
ARC
  5
47E
100
AcDbEntity
  8
0
370
         0
  6
HIDDEN
 62
         9
100
AcDbCircle
 10
337.4977456832
 20
226.5335368091
 30
0.0
 40
4.0
100
AcDbArc
 50
34.1204293267
 51
214.1204293267
  0
ARC
  5
47F
100
AcDbEntity
  8
0
370
         0
  6
HIDDEN
 62
         9
100
AcDbCircle
 10
337.4977456832
 20
130.5335368091
 30
0.0
 40
4.0
100
AcDbArc
 50
0.0
 51
180.0
  0
LINE
  5
480
100
AcDbEntity
  8
0
370
         0
  6
HIDDEN
 62
         9
100
AcDbLine
 10
334.1863041588
 20
224.2897999639
 30
0.0
 11
363.4320702564
 21
181.127142776
 31
0.0
  0
LINE
  5
481
100
AcDbEntity
  8
0
370
         0
  6
HIDDEN
 62
         9
100
AcDbLine
 10
370.0549533052
 20
185.6146164664
 30
0.0
 11
340.8091872076
 21
228.7772736543
 31
0.0
  0
ARC
  5
482
100
AcDbEntity
  8
0
370
         0
  6
HIDDEN
 62
         9
100
AcDbCircle
 10
353.4977456832
 20
130.5335368091
 30
0.0
 40
12.0
100
AcDbArc
 50
180.0
 51
0.0
  0
ARC
  5
483
100
AcDbEntity
  8
0
370
         0
  6
HIDDEN
 62
         9
100
AcDbCircle
 10
353.4977456832
 20
174.3959322404
 30
0.0
 40
12.0
100
AcDbArc
 50
0.0
 51
34.1204293267
  0
LINE
  5
484
100
AcDbEntity
  8
0
370
         0
  6
HIDDEN
 62
         9
100
AcDbLine
 10
365.4977456832
 20
174.3959322404
 30
0.0
 11
365.4977456832
 21
130.5335368091
 31
0.0
  0
ARC
  5
485
100
AcDbEntity
  8
0
370
         0
  6
HIDDEN
 62
         9
100
AcDbCircle
 10
353.4977456832
 20
174.3959322404
 30
0.0
 40
20.0
100
AcDbArc
 50
0.0
 51
34.1204293267
  0
LINE
  5
486
100
AcDbEntity
  8
0
370
         0
  6
HIDDEN
 62
         9
100
AcDbLine
 10
373.4977456832
 20
130.5335368091
 30
0.0
 11
373.4977456832
 21
174.3959322404
 31
0.0
  0
LINE
  5
487
100
AcDbEntity
  8
0
370
         0
  6
HIDDEN
 62
         9
100
AcDbLine
 10
330.4977456832
 20
148.2835368091
 30
0.0
 11
323.4977456832
 21
148.2835368091
 31
0.0
  0
LINE
  5
488
100
AcDbEntity
  8
0
370
         0
  6
HIDDEN
 62
         9
100
AcDbLine
 10
330.4977456832
 20
156.7835368091
 30
0.0
 11
330.4977456832
 21
148.2835368091
 31
0.0
  0
LINE
  5
489
100
AcDbEntity
  8
0
370
         0
  6
HIDDEN
 62
         9
100
AcDbLine
 10
323.4977456832
 20
156.7835368091
 30
0.0
 11
330.4977456832
 21
156.7835368091
 31
0.0
  0
LINE
  5
48A
100
AcDbEntity
  8
0
370
         0
  6
HIDDEN
 62
         9
100
AcDbLine
 10
333.4977456832
 20
151.2835368091
 30
0.0
 11
333.4977456832
 21
153.7835368091
 31
0.0
  0
LINE
  5
48B
100
AcDbEntity
  8
0
370
         0
  6
HIDDEN
 62
         9
100
AcDbLine
 10
333.4977456832
 20
153.7835368091
 30
0.0
 11
330.4977456832
 21
156.7835368091
 31
0.0
  0
LINE
  5
48C
100
AcDbEntity
  8
0
370
         0
  6
HIDDEN
 62
         9
100
AcDbLine
 10
330.4977456832
 20
148.2835368091
 30
0.0
 11
333.4977456832
 21
151.2835368091
 31
0.0
  0
LINE
  5
48D
100
AcDbEntity
  8
0
370
         0
  6
HIDDEN
 62
         9
100
AcDbLine
 10
383.4977456833
 20
148.5335368091
 30
0.0
 11
373.4977456832
 21
148.5335368091
 31
0.0
  0
LINE
  5
48E
100
AcDbEntity
  8
0
370
         0
  6
HIDDEN
 62
         9
100
AcDbLine
 10
373.4977456833
 20
156.5335368091
 30
0.0
 11
383.4977456833
 21
156.5335368091
 31
0.0
  0
LINE
  5
48F
100
AcDbEntity
  8
0
370
         0
  6
HIDDEN
 62
         9
100
AcDbLine
 10
383.4977456833
 20
166.0335368091
 30
0.0
 11
373.4977456832
 21
166.0335368091
 31
0.0
  0
LINE
  5
490
100
AcDbEntity
  8
0
370
         0
  6
HIDDEN
 62
         9
100
AcDbLine
 10
373.4977456833
 20
169.0335368091
 30
0.0
 11
383.4977456833
 21
169.0335368091
 31
0.0
  0
LINE
  5
491
100
AcDbEntity
  8
0
370
         0
  6
HIDDEN
 62
         9
100
AcDbLine
 10
383.4977456833
 20
136.0335368091
 30
0.0
 11
373.4977456832
 21
136.0335368091
 31
0.0
  0
LINE
  5
492
100
AcDbEntity
  8
0
370
         0
  6
HIDDEN
 62
         9
100
AcDbLine
 10
373.4977456833
 20
139.0335368091
 30
0.0
 11
383.4977456833
 21
139.0335368091
 31
0.0
  0
LINE
  5
493
100
AcDbEntity
  8
0
370
         0
  6
DOT2
 62
         9
100
AcDbLine
 10
373.4977456832
 20
130.5335368091
 30
0.0
 11
369.4977456832
 21
130.5335368091
 31
0.0
  0
ARC
  5
494
100
AcDbEntity
  8
0
370
         0
  6
DOT2
 62
         9
100
AcDbCircle
 10
353.4977456832
 20
130.5335368091
 30
0.0
 40
16.0
100
AcDbArc
 50
180.0
 51
0.0
  0
LINE
  5
495
100
AcDbEntity
  8
0
370
         0
  6
DOT2
 62
         9
100
AcDbLine
 10
333.4977456832
 20
130.5335368091
 30
0.0
 11
337.4977456832
 21
130.5335368091
 31
0.0
  0
LINE
  5
496
100
AcDbEntity
  8
0
370
         0
  6
DOT2
 62
         9
100
AcDbLine
 10
337.4977456832
 20
226.5335368091
 30
0.0
 11
340.8091872076
 21
228.7772736543
 31
0.0
  0
LINE
  5
497
100
AcDbEntity
  8
0
370
         0
  6
DOT2
 62
         9
100
AcDbLine
 10
334.1863041588
 20
224.2897999639
 30
0.0
 11
337.4977456832
 21
226.5335368091
 31
0.0
  0
LINE
  5
498
100
AcDbEntity
  8
0
370
         0
  6
DOT2
 62
         9
100
AcDbLine
 10
341.4977456832
 20
130.5335368091
 30
0.0
 11
337.4977456832
 21
130.5335368091
 31
0.0
  0
LINE
  5
499
100
AcDbEntity
  8
0
370
         0
  6
DOT2
 62
         9
100
AcDbLine
 10
366.7435117808
 20
183.3708796212
 30
0.0
 11
363.4320702564
 21
181.127142776
 31
0.0
  0
LINE
  5
49A
100
AcDbEntity
  8
0
370
         0
  6
DOT2
 62
         9
100
AcDbLine
 10
366.7435117808
 20
183.3708796212
 30
0.0
 11
337.4977456832
 21
226.5335368091
 31
0.0
  0
LINE
  5
49B
100
AcDbEntity
  8
0
370
         0
  6
DOT2
 62
         9
100
AcDbLine
 10
370.0549533052
 20
185.6146164664
 30
0.0
 11
366.7435117808
 21
183.3708796212
 31
0.0
  0
LINE
  5
49C
100
AcDbEntity
  8
0
370
         0
  6
DOT2
 62
         9
100
AcDbLine
 10
369.4977456832
 20
130.5335368091
 30
0.0
 11
365.4977456832
 21
130.5335368091
 31
0.0
  0
ARC
  5
49D
100
AcDbEntity
  8
0
370
         0
  6
DOT2
 62
         9
100
AcDbCircle
 10
353.4977456832
 20
174.3959322404
 30
0.0
 40
16.0
100
AcDbArc
 50
0.0
 51
34.1204293267
  0
LINE
  5
49E
100
AcDbEntity
  8
0
370
         0
  6
DOT2
 62
         9
100
AcDbLine
 10
369.4977456832
 20
174.3959322404
 30
0.0
 11
365.4977456832
 21
174.3959322404
 31
0.0
  0
LINE
  5
49F
100
AcDbEntity
  8
0
370
         0
  6
DOT2
 62
         9
100
AcDbLine
 10
369.4977456832
 20
130.5335368091
 30
0.0
 11
369.4977456832
 21
174.3959322404
 31
0.0
  0
LINE
  5
4A0
100
AcDbEntity
  8
0
370
         0
  6
DOT2
 62
         9
100
AcDbLine
 10
373.4977456832
 20
174.3959322404
 30
0.0
 11
369.4977456832
 21
174.3959322404
 31
0.0
  0
DIMENSION
  5
4A9
100
AcDbEntity
  8
0
100
AcDbDimension
  2
*D16
 10
323.4977456832
 20
100.5335368091
 30
0.0
 11
323.4977456832
 21
94.4555107487
 31
0.0
 70
       230
 71
         5
 72
         1
 41
1.0
 42
0.0
  3
SLDDIMSTYLE7
100
AcDbOrdinateDimension
 13
323.4977456832
 23
100.5335368091
 33
0.0
 14
323.4977456832
 24
94.4555107487
 34
0.0
  0
DIMENSION
  5
4B2
100
AcDbEntity
  8
0
100
AcDbDimension
  2
*D17
 10
323.4977456832
 20
100.5335368091
 30
0.0
 11
332.4977456832
 21
94.4555107487
 31
0.0
 70
       230
 71
         5
 72
         1
 41
1.0
 42
0.0
  3
SLDDIMSTYLE8
100
AcDbOrdinateDimension
 13
332.4977456832
 23
109.5335368091
 33
0.0
 14
332.4977456832
 24
94.4555107487
 34
0.0
  0
DIMENSION
  5
4BA
100
AcDbEntity
  8
0
100
AcDbDimension
  2
*D18
 10
323.4977456832
 20
100.5335368091
 30
0.0
 11
353.4977456832
 21
94.4555107487
 31
0.0
 70
       230
 71
         5
 72
         1
 41
1.0
 42
0.0
  3
SLDDIMSTYLE8
100
AcDbOrdinateDimension
 13
353.4977456832
 23
225.5335368091
 33
0.0
 14
353.4977456832
 24
94.4555107487
 34
0.0
  0
DIMENSION
  5
4C2
100
AcDbEntity
  8
0
100
AcDbDimension
  2
*D19
 10
323.4977456832
 20
100.5335368091
 30
0.0
 11
374.4977456832
 21
94.4555107487
 31
0.0
 70
       230
 71
         5
 72
         1
 41
1.0
 42
0.0
  3
SLDDIMSTYLE8
100
AcDbOrdinateDimension
 13
374.4977456832
 23
231.5335368091
 33
0.0
 14
374.4977456832
 24
94.4555107487
 34
0.0
  0
DIMENSION
  5
4CA
100
AcDbEntity
  8
0
100
AcDbDimension
  2
*D20
 10
323.4977456832
 20
100.5335368091
 30
0.0
 11
383.4977456832
 21
94.4555107487
 31
0.0
 70
       230
 71
         5
 72
         1
 41
1.0
 42
0.0
  3
SLDDIMSTYLE8
100
AcDbOrdinateDimension
 13
383.4977456832
 23
100.5335368091
 33
0.0
 14
383.4977456832
 24
94.4555107487
 34
0.0
  0
DIMENSION
  5
4D2
100
AcDbEntity
  8
0
100
AcDbDimension
  2
*D21
 10
323.4977456832
 20
100.5335368091
 30
0.0
 11
315.2169674111
 21
100.5335368091
 31
0.0
 70
       166
 71
         5
 72
         1
 41
1.0
 42
0.0
  3
SLDDIMSTYLE7
100
AcDbOrdinateDimension
 13
323.4977456832
 23
100.5335368091
 33
0.0
 14
315.2169674111
 24
100.5335368091
 34
0.0
  0
DIMENSION
  5
4DA
100
AcDbEntity
  8
0
100
AcDbDimension
  2
*D22
 10
323.4977456832
 20
100.5335368091
 30
0.0
 11
315.2169674111
 21
109.5335368091
 31
0.0
 70
       166
 71
         5
 72
         1
 41
1.0
 42
0.0
  3
SLDDIMSTYLE8
100
AcDbOrdinateDimension
 13
332.4977456832
 23
109.5335368091
 33
0.0
 14
315.2169674111
 24
109.5335368091
 34
0.0
  0
DIMENSION
  5
4E2
100
AcDbEntity
  8
0
100
AcDbDimension
  2
*D23
 10
323.4977456832
 20
100.5335368091
 30
0.0
 11
315.2169674111
 21
130.5335368091
 31
0.0
 70
       166
 71
         5
 72
         1
 41
1.0
 42
0.0
  3
SLDDIMSTYLE8
100
AcDbOrdinateDimension
 13
353.4977456832
 23
130.5335368091
 33
0.0
 14
315.2169674111
 24
130.5335368091
 34
0.0
  0
DIMENSION
  5
4EA
100
AcDbEntity
  8
0
100
AcDbDimension
  2
*D24
 10
323.4977456832
 20
100.5335368091
 30
0.0
 11
315.2169674111
 21
225.5335368091
 31
0.0
 70
       166
 71
         5
 72
         1
 41
1.0
 42
0.0
  3
SLDDIMSTYLE8
100
AcDbOrdinateDimension
 13
353.4977456832
 23
225.5335368091
 33
0.0
 14
315.2169674111
 24
225.5335368091
 34
0.0
  0
DIMENSION
  5
4F2
100
AcDbEntity
  8
0
100
AcDbDimension
  2
*D25
 10
323.4977456832
 20
100.5335368091
 30
0.0
 11
315.2169674111
 21
231.5335368091
 31
0.0
 70
       166
 71
         5
 72
         1
 41
1.0
 42
0.0
  3
SLDDIMSTYLE8
100
AcDbOrdinateDimension
 13
374.4977456832
 23
231.5335368091
 33
0.0
 14
315.2169674111
 24
231.5335368091
 34
0.0
  0
DIMENSION
  5
4FA
100
AcDbEntity
  8
0
100
AcDbDimension
  2
*D26
 10
323.4977456832
 20
100.5335368091
 30
0.0
 11
315.2169674111
 21
240.5335368091
 31
0.0
 70
       166
 71
         5
 72
         1
 41
1.0
 42
0.0
  3
SLDDIMSTYLE8
100
AcDbOrdinateDimension
 13
323.4977456832
 23
240.5335368091
 33
0.0
 14
315.2169674111
 24
240.5335368091
 34
0.0
  0
DIMENSION
  5
506
100
AcDbEntity
  8
0
 62
       255
100
AcDbDimension
  2
*D27
 10
323.4977456832
 20
165.0794125084
 30
0.0
 11
313.5016062915
 21
165.0794125084
 31
0.0
 70
       160
 71
         5
 72
         1
 41
1.0
 42
0.0
  3
SLDDIMSTYLE2
100
AcDbAlignedDimension
 13
330.4977456832
 23
156.7835368091
 33
0.0
 14
323.4977456832
 24
100.5335368091
 34
0.0
100
AcDbRotatedDimension
  0
LEADER
  5
507
100
AcDbEntity
  8
0
 62
       255
100
AcDbLeader
  3
SLDDIMSTYLE0
 73
         3
 74
         0
 75
         0
 40
0.0
 76
         3
 10
353.4977456832
 20
229.5335368091
 30
0.0
 10
371.4525060241
 20
258.7525373494
 30
0.0
 10
365.1025060241
 20
258.7525373494
 30
0.0
 77
       256
340
508
  0
MTEXT
  5
508
102
{ACAD_REACTORS
330
507
102
}
100
AcDbEntity
  8
0
 62
         7
100
AcDbMText
 10
333.9165753803
 20
261.0052162471
 30
0.0
 40
3.5
 41
0.0
 71
         2
 72
         1
  1
2 M8 + logement vis FHC M8
  7
SLDTEXTSTYLE0
 73
         1
 44
1.0
  0
LEADER
  5
509
100
AcDbEntity
  8
0
 62
       255
100
AcDbLeader
  3
SLDDIMSTYLE0
 73
         3
 74
         0
 75
         0
 40
0.0
 76
         3
 10
374.4977456832
 20
234.5335368091
 30
0.0
 10
381.0693373494
 20
248.6576096386
 30
0.0
 10
387.4193373494
 20
248.6576096386
 30
0.0
 77
       256
340
50A
  0
MTEXT
  5
50A
102
{ACAD_REACTORS
330
509
102
}
100
AcDbEntity
  8
0
 62
         7
100
AcDbMText
 10
393.09522823
 20
250.9113302368
 30
0.0
 40
3.5
 41
0.0
 71
         2
 72
         1
  1
2 M6
  7
SLDTEXTSTYLE0
 73
         1
 44
1.0
  0
ARC
  5
50B
100
AcDbEntity
  8
0
  6
Continuous
 62
         7
100
AcDbCircle
 10
353.4977456832
 20
225.5335368091
 30
0.0
 40
4.0
100
AcDbArc
 50
255.0
 51
195.0
  0
ARC
  5
50C
100
AcDbEntity
  8
0
  6
Continuous
 62
         7
100
AcDbCircle
 10
353.4977456832
 20
130.5335368091
 30
0.0
 40
4.0
100
AcDbArc
 50
255.0
 51
195.0
  0
ARC
  5
50D
100
AcDbEntity
  8
0
  6
Continuous
 62
         7
100
AcDbCircle
 10
374.4977456832
 20
231.5335368091
 30
0.0
 40
3.0
100
AcDbArc
 50
255.0
 51
195.0
  0
ARC
  5
50E
100
AcDbEntity
  8
0
  6
Continuous
 62
         7
100
AcDbCircle
 10
332.4977456832
 20
109.5335368091
 30
0.0
 40
3.0
100
AcDbArc
 50
255.0
 51
195.0
  0
LINE
  5
50F
100
AcDbEntity
  8
0
370
        15
  6
Continuous
 62
         7
100
AcDbLine
 10
123.0391612303
 20
50.5666207068
 30
0.0
 11
143.0391612303
 21
33.2461126311
 31
0.0
  0
LINE
  5
510
100
AcDbEntity
  8
0
370
        15
  6
Continuous
 62
         7
100
AcDbLine
 10
203.8681989168
 20
73.8999540401
 30
0.0
 11
123.0391612303
 21
50.5666207068
 31
0.0
  0
LINE
  5
511
100
AcDbEntity
  8
0
370
        15
  6
Continuous
 62
         7
100
AcDbLine
 10
223.8681989168
 20
56.5794459644
 30
0.0
 11
203.8681989168
 21
73.8999540401
 31
0.0
  0
LINE
  5
512
100
AcDbEntity
  8
0
370
        15
  6
Continuous
 62
         7
100
AcDbLine
 10
143.0391612303
 20
33.2461126311
 30
0.0
 11
223.8681989168
 21
56.5794459644
 31
0.0
  0
POLYLINE
  5
513
100
AcDbEntity
  8
0
370
        15
  6
Continuous
 62
         7
100
AcDb2dPolyline
 66
         1
 10
0.0
 20
0.0
 30
0.0
 70
       128
  0
VERTEX
  5
514
100
AcDbEntity
  8
0
100
AcDbVertex
100
AcDb2dVertex
 10
214.8387131608
 20
58.3992100123
 30
0.0
  0
VERTEX
  5
515
100
AcDbEntity
  8
0
100
AcDbVertex
100
AcDb2dVertex
 10
215.2238467931
 20
58.4801576481
 30
0.0
  0
VERTEX
  5
516
100
AcDbEntity
  8
0
100
AcDbVertex
100
AcDb2dVertex
 10
215.637142461
 20
58.5106727454
 30
0.0
  0
VERTEX
  5
517
100
AcDbEntity
  8
0
100
AcDbVertex
100
AcDb2dVertex
 10
216.0526312776
 20
58.4888379282
 30
0.0
  0
VERTEX
  5
518
100
AcDbEntity
  8
0
100
AcDbVertex
100
AcDb2dVertex
 10
216.4442065526
 20
58.4160251585
 30
0.0
  0
VERTEX
  5
519
100
AcDbEntity
  8
0
100
AcDbVertex
100
AcDb2dVertex
 10
216.7872641714
 20
58.2968095304
 30
0.0
  0
VERTEX
  5
51A
100
AcDbEntity
  8
0
100
AcDbVertex
100
AcDb2dVertex
 10
217.060248562
 20
58.1386818002
 30
0.0
  0
VERTEX
  5
51B
100
AcDbEntity
  8
0
100
AcDbVertex
100
AcDb2dVertex
 10
217.2460071112
 20
57.9515777147
 30
0.0
  0
VERTEX
  5
51C
100
AcDbEntity
  8
0
100
AcDbVertex
100
AcDb2dVertex
 10
217.3328679262
 20
57.7472537119
 30
0.0
  0
VERTEX
  5
51D
100
AcDbEntity
  8
0
100
AcDbVertex
100
AcDb2dVertex
 10
217.3153732226
 20
57.5385482202
 30
0.0
  0
VERTEX
  5
51E
100
AcDbEntity
  8
0
100
AcDbVertex
100
AcDb2dVertex
 10
217.1946222569
 20
57.3385749732
 30
0.0
  0
VERTEX
  5
51F
100
AcDbEntity
  8
0
100
AcDbVertex
100
AcDb2dVertex
 10
216.9782022563
 20
57.1598990256
 30
0.0
  0
VERTEX
  5
520
100
AcDbEntity
  8
0
100
AcDbVertex
100
AcDb2dVertex
 10
216.6797116856
 20
57.0137472441
 30
0.0
  0
VERTEX
  5
521
100
AcDbEntity
  8
0
100
AcDbVertex
100
AcDb2dVertex
 10
216.3179058049
 20
56.9093028828
 30
0.0
  0
VERTEX
  5
522
100
AcDbEntity
  8
0
100
AcDbVertex
100
AcDb2dVertex
 10
215.9155182084
 20
56.853128565
 30
0.0
  0
VERTEX
  5
523
100
AcDbEntity
  8
0
100
AcDbVertex
100
AcDb2dVertex
 10
215.4978323887
 20
56.8487539297
 30
0.0
  0
VERTEX
  5
524
100
AcDbEntity
  8
0
100
AcDbVertex
100
AcDb2dVertex
 10
215.0910930819
 20
56.8964538512
 30
0.0
  0
VERTEX
  5
525
100
AcDbEntity
  8
0
100
AcDbVertex
100
AcDb2dVertex
 10
214.7208572146
 20
56.9932311682
 30
0.0
  0
VERTEX
  5
526
100
AcDbEntity
  8
0
100
AcDbVertex
100
AcDb2dVertex
 10
214.410388068
 20
57.1330050058
 30
0.0
  0
VERTEX
  5
527
100
AcDbEntity
  8
0
100
AcDbVertex
100
AcDb2dVertex
 10
214.1791935604
 20
57.3069928598
 30
0.0
  0
VERTEX
  5
528
100
AcDbEntity
  8
0
100
AcDbVertex
100
AcDb2dVertex
 10
214.0418004929
 20
57.5042624334
 30
0.0
  0
VERTEX
  5
529
100
AcDbEntity
  8
0
100
AcDbVertex
100
AcDb2dVertex
 10
214.0068417773
 20
57.7124185539
 30
0.0
  0
VERTEX
  5
52A
100
AcDbEntity
  8
0
100
AcDbVertex
100
AcDb2dVertex
 10
214.0765139982
 20
57.9183820066
 30
0.0
  0
VERTEX
  5
52B
100
AcDbEntity
  8
0
100
AcDbVertex
100
AcDb2dVertex
 10
214.2464393938
 20
58.1092113503
 30
0.0
  0
VERTEX
  5
52C
100
AcDbEntity
  8
0
100
AcDbVertex
100
AcDb2dVertex
 10
214.5059409266
 20
58.2729160755
 30
0.0
  0
VERTEX
  5
52D
100
AcDbEntity
  8
0
100
AcDbVertex
100
AcDb2dVertex
 10
214.8387131608
 20
58.3992100123
 30
0.0
  0
SEQEND
  5
52E
100
AcDbEntity
  8
0
  0
POLYLINE
  5
52F
100
AcDbEntity
  8
0
370
        15
  6
Continuous
 62
         7
100
AcDb2dPolyline
 66
         1
 10
0.0
 20
0.0
 30
0.0
 70
       128
  0
VERTEX
  5
530
100
AcDbEntity
  8
0
100
AcDbVertex
100
AcDb2dVertex
 10
130.4019803196
 20
50.1902323319
 30
0.0
  0
VERTEX
  5
531
100
AcDbEntity
  8
0
100
AcDbVertex
100
AcDb2dVertex
 10
130.787113952
 20
50.2711799678
 30
0.0
  0
VERTEX
  5
532
100
AcDbEntity
  8
0
100
AcDbVertex
100
AcDb2dVertex
 10
131.2004096198
 20
50.301695065
 30
0.0
  0
VERTEX
  5
533
100
AcDbEntity
  8
0
100
AcDbVertex
100
AcDb2dVertex
 10
131.6158984365
 20
50.2798602478
 30
0.0
  0
VERTEX
  5
534
100
AcDbEntity
  8
0
100
AcDbVertex
100
AcDb2dVertex
 10
132.0074737115
 20
50.2070474781
 30
0.0
  0
VERTEX
  5
535
100
AcDbEntity
  8
0
100
AcDbVertex
100
AcDb2dVertex
 10
132.3505313302
 20
50.08783185
 30
0.0
  0
VERTEX
  5
536
100
AcDbEntity
  8
0
100
AcDbVertex
100
AcDb2dVertex
 10
132.6235157208
 20
49.9297041198
 30
0.0
  0
VERTEX
  5
537
100
AcDbEntity
  8
0
100
AcDbVertex
100
AcDb2dVertex
 10
132.80927427
 20
49.7426000344
 30
0.0
  0
VERTEX
  5
538
100
AcDbEntity
  8
0
100
AcDbVertex
100
AcDb2dVertex
 10
132.8961350851
 20
49.5382760316
 30
0.0
  0
VERTEX
  5
539
100
AcDbEntity
  8
0
100
AcDbVertex
100
AcDb2dVertex
 10
132.8786403814
 20
49.3295705398
 30
0.0
  0
VERTEX
  5
53A
100
AcDbEntity
  8
0
100
AcDbVertex
100
AcDb2dVertex
 10
132.7578894157
 20
49.1295972929
 30
0.0
  0
VERTEX
  5
53B
100
AcDbEntity
  8
0
100
AcDbVertex
100
AcDb2dVertex
 10
132.5414694152
 20
48.9509213452
 30
0.0
  0
VERTEX
  5
53C
100
AcDbEntity
  8
0
100
AcDbVertex
100
AcDb2dVertex
 10
132.2429788444
 20
48.8047695638
 30
0.0
  0
VERTEX
  5
53D
100
AcDbEntity
  8
0
100
AcDbVertex
100
AcDb2dVertex
 10
131.8811729637
 20
48.7003252025
 30
0.0
  0
VERTEX
  5
53E
100
AcDbEntity
  8
0
100
AcDbVertex
100
AcDb2dVertex
 10
131.4787853673
 20
48.6441508846
 30
0.0
  0
VERTEX
  5
53F
100
AcDbEntity
  8
0
100
AcDbVertex
100
AcDb2dVertex
 10
131.0610995475
 20
48.6397762493
 30
0.0
  0
VERTEX
  5
540
100
AcDbEntity
  8
0
100
AcDbVertex
100
AcDb2dVertex
 10
130.6543602408
 20
48.6874761709
 30
0.0
  0
VERTEX
  5
541
100
AcDbEntity
  8
0
100
AcDbVertex
100
AcDb2dVertex
 10
130.2841243735
 20
48.7842534878
 30
0.0
  0
VERTEX
  5
542
100
AcDbEntity
  8
0
100
AcDbVertex
100
AcDb2dVertex
 10
129.9736552269
 20
48.9240273254
 30
0.0
  0
VERTEX
  5
543
100
AcDbEntity
  8
0
100
AcDbVertex
100
AcDb2dVertex
 10
129.7424607192
 20
49.0980151795
 30
0.0
  0
VERTEX
  5
544
100
AcDbEntity
  8
0
100
AcDbVertex
100
AcDb2dVertex
 10
129.6050676518
 20
49.2952847531
 30
0.0
  0
VERTEX
  5
545
100
AcDbEntity
  8
0
100
AcDbVertex
100
AcDb2dVertex
 10
129.5701089361
 20
49.5034408735
 30
0.0
  0
VERTEX
  5
546
100
AcDbEntity
  8
0
100
AcDbVertex
100
AcDb2dVertex
 10
129.6397811571
 20
49.7094043262
 30
0.0
  0
VERTEX
  5
547
100
AcDbEntity
  8
0
100
AcDbVertex
100
AcDb2dVertex
 10
129.8097065527
 20
49.9002336699
 30
0.0
  0
VERTEX
  5
548
100
AcDbEntity
  8
0
100
AcDbVertex
100
AcDb2dVertex
 10
130.0692080855
 20
50.0639383951
 30
0.0
  0
VERTEX
  5
549
100
AcDbEntity
  8
0
100
AcDbVertex
100
AcDb2dVertex
 10
130.4019803196
 20
50.1902323319
 30
0.0
  0
SEQEND
  5
54A
100
AcDbEntity
  8
0
  0
POLYLINE
  5
54B
100
AcDbEntity
  8
0
370
        15
  6
Continuous
 62
         7
100
AcDb2dPolyline
 66
         1
 10
0.0
 20
0.0
 30
0.0
 70
       128
  0
VERTEX
  5
54C
100
AcDbEntity
  8
0
100
AcDbVertex
100
AcDb2dVertex
 10
147.9013359726
 20
49.0353457866
 30
0.0
  0
VERTEX
  5
54D
100
AcDbEntity
  8
0
100
AcDbVertex
100
AcDb2dVertex
 10
148.5474972173
 20
49.1916261418
 30
0.0
  0
VERTEX
  5
54E
100
AcDbEntity
  8
0
100
AcDbVertex
100
AcDb2dVertex
 10
149.2322817639
 20
49.2992001588
 30
0.0
  0
VERTEX
  5
54F
100
AcDbEntity
  8
0
100
AcDbVertex
100
AcDb2dVertex
 10
149.9410946186
 20
49.3557750844
 30
0.0
  0
VERTEX
  5
550
100
AcDbEntity
  8
0
100
AcDbVertex
100
AcDb2dVertex
 10
150.6588286661
 20
49.3601451221
 30
0.0
  0
VERTEX
  5
551
100
AcDbEntity
  8
0
100
AcDbVertex
100
AcDb2dVertex
 10
151.3701866512
 20
49.3122171322
 30
0.0
  0
VERTEX
  5
552
100
AcDbEntity
  8
0
100
AcDbVertex
100
AcDb2dVertex
 10
152.0600072135
 20
49.2130126166
 30
0.0
  0
VERTEX
  5
553
100
AcDbEntity
  8
0
100
AcDbVertex
100
AcDb2dVertex
 10
152.7135880253
 20
49.0646459473
 30
0.0
  0
VERTEX
  5
554
100
AcDbEntity
  8
0
100
AcDbVertex
100
AcDb2dVertex
 10
153.3169991464
 20
48.8702793023
 30
0.0
  0
VERTEX
  5
555
100
AcDbEntity
  8
0
100
AcDbVertex
100
AcDb2dVertex
 10
153.8573799163
 20
48.6340552692
 30
0.0
  0
VERTEX
  5
556
100
AcDbEntity
  8
0
100
AcDbVertex
100
AcDb2dVertex
 10
154.3232130571
 20
48.3610085531
 30
0.0
  0
VERTEX
  5
557
100
AcDbEntity
  8
0
100
AcDbVertex
100
AcDb2dVertex
 10
154.7045701441
 20
48.0569586706
 30
0.0
  0
VERTEX
  5
558
100
AcDbEntity
  8
0
100
AcDbVertex
100
AcDb2dVertex
 10
154.9933232132
 20
47.7283859173
 30
0.0
  0
VERTEX
  5
559
100
AcDbEntity
  8
0
100
AcDbVertex
100
AcDb2dVertex
 10
155.183317994
 20
47.3822932509
 30
0.0
  0
VERTEX
  5
55A
100
AcDbEntity
  8
0
100
AcDbVertex
100
AcDb2dVertex
 10
155.2705050776
 20
47.0260570356
 30
0.0
  0
VERTEX
  5
55B
100
AcDbEntity
  8
0
100
AcDbVertex
100
AcDb2dVertex
 10
155.2530262226
 20
46.667269828
 30
0.0
  0
VERTEX
  5
55C
100
AcDbEntity
  8
0
100
AcDbVertex
100
AcDb2dVertex
 10
155.1312539606
 20
46.3135785544
 30
0.0
  0
VERTEX
  5
55D
100
AcDbEntity
  8
0
100
AcDbVertex
100
AcDb2dVertex
 10
154.9077836558
 20
45.9725215303
 30
0.0
  0
VERTEX
  5
55E
100
AcDbEntity
  8
0
100
AcDbVertex
100
AcDb2dVertex
 10
154.5873781899
 20
45.6513677941
 30
0.0
  0
VERTEX
  5
55F
100
AcDbEntity
  8
0
100
AcDbVertex
100
AcDb2dVertex
 10
154.1768664491
 20
45.35696218
 30
0.0
  0
VERTEX
  5
560
100
AcDbEntity
  8
0
100
AcDbVertex
100
AcDb2dVertex
 10
153.6849977783
 20
45.0955794326
 30
0.0
  0
VERTEX
  5
561
100
AcDbEntity
  8
0
100
AcDbVertex
100
AcDb2dVertex
 10
153.1222555045
 20
44.8727904713
 30
0.0
  0
VERTEX
  5
562
100
AcDbEntity
  8
0
100
AcDbVertex
100
AcDb2dVertex
 10
152.5006335021
 20
44.6933436561
 30
0.0
  0
VERTEX
  5
563
100
AcDbEntity
  8
0
100
AcDbVertex
100
AcDb2dVertex
 10
151.8333805649
 20
44.5610635843
 30
0.0
  0
VERTEX
  5
564
100
AcDbEntity
  8
0
100
AcDbVertex
100
AcDb2dVertex
 10
151.1347180308
 20
44.4787695759
 30
0.0
  0
VERTEX
  5
565
100
AcDbEntity
  8
0
100
AcDbVertex
100
AcDb2dVertex
 10
150.4195366787
 20
44.4482155849
 30
0.0
  0
VERTEX
  5
566
100
AcDbEntity
  8
0
100
AcDbVertex
100
AcDb2dVertex
 10
149.7030793576
 20
44.4700528165
 30
0.0
  0
VERTEX
  5
567
100
AcDbEntity
  8
0
100
AcDbVertex
100
AcDb2dVertex
 10
149.0006161112
 20
44.5438158481
 30
0.0
  0
VERTEX
  5
568
100
AcDbEntity
  8
0
100
AcDbVertex
100
AcDb2dVertex
 10
148.3271187241
 20
44.6679325487
 30
0.0
  0
VERTEX
  5
569
100
AcDbEntity
  8
0
100
AcDbVertex
100
AcDb2dVertex
 10
147.6969416239
 20
44.8397575863
 30
0.0
  0
VERTEX
  5
56A
100
AcDbEntity
  8
0
100
AcDbVertex
100
AcDb2dVertex
 10
147.1235159414
 20
45.0556288085
 30
0.0
  0
VERTEX
  5
56B
100
AcDbEntity
  8
0
100
AcDbVertex
100
AcDb2dVertex
 10
146.6190632493
 20
45.3109452951
 30
0.0
  0
VERTEX
  5
56C
100
AcDbEntity
  8
0
100
AcDbVertex
100
AcDb2dVertex
 10
146.1943350811
 20
45.6002654184
 30
0.0
  0
VERTEX
  5
56D
100
AcDbEntity
  8
0
100
AcDbVertex
100
AcDb2dVertex
 10
145.8583837803
 20
45.9174228223
 30
0.0
  0
VERTEX
  5
56E
100
AcDbEntity
  8
0
100
AcDbVertex
100
AcDb2dVertex
 10
145.6183695655
 20
46.2556578472
 30
0.0
  0
VERTEX
  5
56F
100
AcDbEntity
  8
0
100
AcDbVertex
100
AcDb2dVertex
 10
145.4794079231
 20
46.607761601
 30
0.0
  0
VERTEX
  5
570
100
AcDbEntity
  8
0
100
AcDbVertex
100
AcDb2dVertex
 10
145.4444605792
 20
46.9662296034
 30
0.0
  0
VERTEX
  5
571
100
AcDbEntity
  8
0
100
AcDbVertex
100
AcDb2dVertex
 10
145.5142723758
 20
47.3234217313
 30
0.0
  0
VERTEX
  5
572
100
AcDbEntity
  8
0
100
AcDbVertex
100
AcDb2dVertex
 10
145.6873553956
 20
47.6717250546
 30
0.0
  0
VERTEX
  5
573
100
AcDbEntity
  8
0
100
AcDbVertex
100
AcDb2dVertex
 10
145.9600206745
 20
48.0037160927
 30
0.0
  0
VERTEX
  5
574
100
AcDbEntity
  8
0
100
AcDbVertex
100
AcDb2dVertex
 10
146.3264568256
 20
48.312319033
 30
0.0
  0
VERTEX
  5
575
100
AcDbEntity
  8
0
100
AcDbVertex
100
AcDb2dVertex
 10
146.7788538985
 20
48.5909565396
 30
0.0
  0
VERTEX
  5
576
100
AcDbEntity
  8
0
100
AcDbVertex
100
AcDb2dVertex
 10
147.3075698349
 20
48.8336899377
 30
0.0
  0
VERTEX
  5
577
100
AcDbEntity
  8
0
100
AcDbVertex
100
AcDb2dVertex
 10
147.9013359726
 20
49.0353457866
 30
0.0
  0
SEQEND
  5
578
100
AcDbEntity
  8
0
  0
POLYLINE
  5
579
100
AcDbEntity
  8
0
370
        15
  6
Continuous
 62
         7
100
AcDb2dPolyline
 66
         1
 10
0.0
 20
0.0
 30
0.0
 70
       128
  0
VERTEX
  5
57A
100
AcDbEntity
  8
0
100
AcDbVertex
100
AcDb2dVertex
 10
202.7496115456
 20
64.8686791199
 30
0.0
  0
VERTEX
  5
57B
100
AcDbEntity
  8
0
100
AcDbVertex
100
AcDb2dVertex
 10
203.3957727903
 20
65.0249594751
 30
0.0
  0
VERTEX
  5
57C
100
AcDbEntity
  8
0
100
AcDbVertex
100
AcDb2dVertex
 10
204.0805573369
 20
65.1325334922
 30
0.0
  0
VERTEX
  5
57D
100
AcDbEntity
  8
0
100
AcDbVertex
100
AcDb2dVertex
 10
204.7893701916
 20
65.1891084177
 30
0.0
  0
VERTEX
  5
57E
100
AcDbEntity
  8
0
100
AcDbVertex
100
AcDb2dVertex
 10
205.5071042391
 20
65.1934784554
 30
0.0
  0
VERTEX
  5
57F
100
AcDbEntity
  8
0
100
AcDbVertex
100
AcDb2dVertex
 10
206.2184622242
 20
65.1455504655
 30
0.0
  0
VERTEX
  5
580
100
AcDbEntity
  8
0
100
AcDbVertex
100
AcDb2dVertex
 10
206.9082827865
 20
65.0463459499
 30
0.0
  0
VERTEX
  5
581
100
AcDbEntity
  8
0
100
AcDbVertex
100
AcDb2dVertex
 10
207.5618635983
 20
64.8979792807
 30
0.0
  0
VERTEX
  5
582
100
AcDbEntity
  8
0
100
AcDbVertex
100
AcDb2dVertex
 10
208.1652747194
 20
64.7036126357
 30
0.0
  0
VERTEX
  5
583
100
AcDbEntity
  8
0
100
AcDbVertex
100
AcDb2dVertex
 10
208.7056554893
 20
64.4673886025
 30
0.0
  0
VERTEX
  5
584
100
AcDbEntity
  8
0
100
AcDbVertex
100
AcDb2dVertex
 10
209.1714886301
 20
64.1943418864
 30
0.0
  0
VERTEX
  5
585
100
AcDbEntity
  8
0
100
AcDbVertex
100
AcDb2dVertex
 10
209.5528457172
 20
63.890292004
 30
0.0
  0
VERTEX
  5
586
100
AcDbEntity
  8
0
100
AcDbVertex
100
AcDb2dVertex
 10
209.8415987862
 20
63.5617192507
 30
0.0
  0
VERTEX
  5
587
100
AcDbEntity
  8
0
100
AcDbVertex
100
AcDb2dVertex
 10
210.031593567
 20
63.2156265842
 30
0.0
  0
VERTEX
  5
588
100
AcDbEntity
  8
0
100
AcDbVertex
100
AcDb2dVertex
 10
210.1187806506
 20
62.8593903689
 30
0.0
  0
VERTEX
  5
589
100
AcDbEntity
  8
0
100
AcDbVertex
100
AcDb2dVertex
 10
210.1013017956
 20
62.5006031613
 30
0.0
  0
VERTEX
  5
58A
100
AcDbEntity
  8
0
100
AcDbVertex
100
AcDb2dVertex
 10
209.9795295336
 20
62.1469118877
 30
0.0
  0
VERTEX
  5
58B
100
AcDbEntity
  8
0
100
AcDbVertex
100
AcDb2dVertex
 10
209.7560592288
 20
61.8058548636
 30
0.0
  0
VERTEX
  5
58C
100
AcDbEntity
  8
0
100
AcDbVertex
100
AcDb2dVertex
 10
209.4356537629
 20
61.4847011274
 30
0.0
  0
VERTEX
  5
58D
100
AcDbEntity
  8
0
100
AcDbVertex
100
AcDb2dVertex
 10
209.0251420221
 20
61.1902955133
 30
0.0
  0
VERTEX
  5
58E
100
AcDbEntity
  8
0
100
AcDbVertex
100
AcDb2dVertex
 10
208.5332733514
 20
60.9289127659
 30
0.0
  0
VERTEX
  5
58F
100
AcDbEntity
  8
0
100
AcDbVertex
100
AcDb2dVertex
 10
207.9705310775
 20
60.7061238046
 30
0.0
  0
VERTEX
  5
590
100
AcDbEntity
  8
0
100
AcDbVertex
100
AcDb2dVertex
 10
207.3489090751
 20
60.5266769894
 30
0.0
  0
VERTEX
  5
591
100
AcDbEntity
  8
0
100
AcDbVertex
100
AcDb2dVertex
 10
206.6816561379
 20
60.3943969176
 30
0.0
  0
VERTEX
  5
592
100
AcDbEntity
  8
0
100
AcDbVertex
100
AcDb2dVertex
 10
205.9829936038
 20
60.3121029092
 30
0.0
  0
VERTEX
  5
593
100
AcDbEntity
  8
0
100
AcDbVertex
100
AcDb2dVertex
 10
205.2678122518
 20
60.2815489182
 30
0.0
  0
VERTEX
  5
594
100
AcDbEntity
  8
0
100
AcDbVertex
100
AcDb2dVertex
 10
204.5513549306
 20
60.3033861498
 30
0.0
  0
VERTEX
  5
595
100
AcDbEntity
  8
0
100
AcDbVertex
100
AcDb2dVertex
 10
203.8488916842
 20
60.3771491814
 30
0.0
  0
VERTEX
  5
596
100
AcDbEntity
  8
0
100
AcDbVertex
100
AcDb2dVertex
 10
203.1753942972
 20
60.501265882
 30
0.0
  0
VERTEX
  5
597
100
AcDbEntity
  8
0
100
AcDbVertex
100
AcDb2dVertex
 10
202.545217197
 20
60.6730909196
 30
0.0
  0
VERTEX
  5
598
100
AcDbEntity
  8
0
100
AcDbVertex
100
AcDb2dVertex
 10
201.9717915144
 20
60.8889621419
 30
0.0
  0
VERTEX
  5
599
100
AcDbEntity
  8
0
100
AcDbVertex
100
AcDb2dVertex
 10
201.4673388224
 20
61.1442786285
 30
0.0
  0
VERTEX
  5
59A
100
AcDbEntity
  8
0
100
AcDbVertex
100
AcDb2dVertex
 10
201.0426106542
 20
61.4335987517
 30
0.0
  0
VERTEX
  5
59B
100
AcDbEntity
  8
0
100
AcDbVertex
100
AcDb2dVertex
 10
200.7066593533
 20
61.7507561556
 30
0.0
  0
VERTEX
  5
59C
100
AcDbEntity
  8
0
100
AcDbVertex
100
AcDb2dVertex
 10
200.4666451386
 20
62.0889911806
 30
0.0
  0
VERTEX
  5
59D
100
AcDbEntity
  8
0
100
AcDbVertex
100
AcDb2dVertex
 10
200.3276834961
 20
62.4410949344
 30
0.0
  0
VERTEX
  5
59E
100
AcDbEntity
  8
0
100
AcDbVertex
100
AcDb2dVertex
 10
200.2927361522
 20
62.7995629368
 30
0.0
  0
VERTEX
  5
59F
100
AcDbEntity
  8
0
100
AcDbVertex
100
AcDb2dVertex
 10
200.3625479488
 20
63.1567550647
 30
0.0
  0
VERTEX
  5
5A0
100
AcDbEntity
  8
0
100
AcDbVertex
100
AcDb2dVertex
 10
200.5356309686
 20
63.5050583879
 30
0.0
  0
VERTEX
  5
5A1
100
AcDbEntity
  8
0
100
AcDbVertex
100
AcDb2dVertex
 10
200.8082962476
 20
63.837049426
 30
0.0
  0
VERTEX
  5
5A2
100
AcDbEntity
  8
0
100
AcDbVertex
100
AcDb2dVertex
 10
201.1747323986
 20
64.1456523663
 30
0.0
  0
VERTEX
  5
5A3
100
AcDbEntity
  8
0
100
AcDbVertex
100
AcDb2dVertex
 10
201.6271294715
 20
64.4242898729
 30
0.0
  0
VERTEX
  5
5A4
100
AcDbEntity
  8
0
100
AcDbVertex
100
AcDb2dVertex
 10
202.1558454079
 20
64.6670232711
 30
0.0
  0
VERTEX
  5
5A5
100
AcDbEntity
  8
0
100
AcDbVertex
100
AcDb2dVertex
 10
202.7496115456
 20
64.8686791199
 30
0.0
  0
SEQEND
  5
5A6
100
AcDbEntity
  8
0
  0
POLYLINE
  5
5A7
100
AcDbEntity
  8
0
370
        15
  6
Continuous
 62
         7
100
AcDb2dPolyline
 66
         1
 10
0.0
 20
0.0
 30
0.0
 70
       128
  0
VERTEX
  5
5A8
100
AcDbEntity
  8
0
100
AcDbVertex
100
AcDb2dVertex
 10
165.2671465941
 20
31.0025252599
 30
0.0
  0
VERTEX
  5
5A9
100
AcDbEntity
  8
0
100
AcDbVertex
100
AcDb2dVertex
 10
165.2149188717
 20
31.2836465478
 30
0.0
  0
VERTEX
  5
5AA
100
AcDbEntity
  8
0
100
AcDbVertex
100
AcDb2dVertex
 10
165.0645351385
 20
31.5007067699
 30
0.0
  0
VERTEX
  5
5AB
100
AcDbEntity
  8
0
100
AcDbVertex
100
AcDb2dVertex
 10
164.8341338922
 20
31.6275252599
 30
0.0
  0
VERTEX
  5
5AC
100
AcDbEntity
  8
0
100
AcDbVertex
100
AcDb2dVertex
 10
164.5515049235
 20
31.6488058363
 30
0.0
  0
VERTEX
  5
5AD
100
AcDbEntity
  8
0
100
AcDbVertex
100
AcDb2dVertex
 10
164.2507374571
 20
31.5619817474
 30
0.0
  0
VERTEX
  5
5AE
100
AcDbEntity
  8
0
100
AcDbVertex
100
AcDb2dVertex
 10
163.9681084884
 20
31.3775252599
 30
0.0
  0
VERTEX
  5
5AF
100
AcDbEntity
  8
0
100
AcDbVertex
100
AcDb2dVertex
 10
163.7377072422
 20
31.1176845483
 30
0.0
  0
VERTEX
  5
5B0
100
AcDbEntity
  8
0
100
AcDbVertex
100
AcDb2dVertex
 10
163.587323509
 20
30.8138002374
 30
0.0
  0
VERTEX
  5
5B1
100
AcDbEntity
  8
0
100
AcDbVertex
100
AcDb2dVertex
 10
163.5350957865
 20
30.5025252599
 30
0.0
  0
SEQEND
  5
5B2
100
AcDbEntity
  8
0
  0
LINE
  5
5B3
100
AcDbEntity
  8
0
370
        15
  6
Continuous
 62
         7
100
AcDbLine
 10
163.5350957865
 20
30.5025252599
 30
0.0
 11
143.0391612303
 21
24.5858585933
 31
0.0
  0
LINE
  5
5B4
100
AcDbEntity
  8
0
370
        15
  6
Continuous
 62
         7
100
AcDbLine
 10
143.0391612303
 20
24.5858585933
 30
0.0
 11
143.0391612303
 21
33.2461126311
 31
0.0
  0
LINE
  5
5B5
100
AcDbEntity
  8
0
370
        15
  6
Continuous
 62
         7
100
AcDbLine
 10
223.8681989168
 20
47.9191919266
 30
0.0
 11
223.8681989168
 21
56.5794459644
 31
0.0
  0
LINE
  5
5B6
100
AcDbEntity
  8
0
370
        15
  6
Continuous
 62
         7
100
AcDbLine
 10
223.8681989168
 20
47.9191919266
 30
0.0
 11
182.5876546698
 21
36.0025252599
 31
0.0
  0
POLYLINE
  5
5B7
100
AcDbEntity
  8
0
370
        15
  6
Continuous
 62
         7
100
AcDb2dPolyline
 66
         1
 10
0.0
 20
0.0
 30
0.0
 70
       128
  0
VERTEX
  5
5B8
100
AcDbEntity
  8
0
100
AcDbVertex
100
AcDb2dVertex
 10
182.5876546698
 20
36.0025252599
 30
0.0
  0
VERTEX
  5
5B9
100
AcDbEntity
  8
0
100
AcDbVertex
100
AcDb2dVertex
 10
182.5354269474
 20
36.2836465478
 30
0.0
  0
VERTEX
  5
5BA
100
AcDbEntity
  8
0
100
AcDbVertex
100
AcDb2dVertex
 10
182.3850432142
 20
36.5007067699
 30
0.0
  0
VERTEX
  5
5BB
100
AcDbEntity
  8
0
100
AcDbVertex
100
AcDb2dVertex
 10
182.1546419679
 20
36.6275252599
 30
0.0
  0
VERTEX
  5
5BC
100
AcDbEntity
  8
0
100
AcDbVertex
100
AcDb2dVertex
 10
181.8720129992
 20
36.6488058363
 30
0.0
  0
VERTEX
  5
5BD
100
AcDbEntity
  8
0
100
AcDbVertex
100
AcDb2dVertex
 10
181.5712455328
 20
36.5619817474
 30
0.0
  0
VERTEX
  5
5BE
100
AcDbEntity
  8
0
100
AcDbVertex
100
AcDb2dVertex
 10
181.2886165641
 20
36.3775252599
 30
0.0
  0
VERTEX
  5
5BF
100
AcDbEntity
  8
0
100
AcDbVertex
100
AcDb2dVertex
 10
181.0582153178
 20
36.1176845483
 30
0.0
  0
VERTEX
  5
5C0
100
AcDbEntity
  8
0
100
AcDbVertex
100
AcDb2dVertex
 10
180.9078315847
 20
35.8138002374
 30
0.0
  0
VERTEX
  5
5C1
100
AcDbEntity
  8
0
100
AcDbVertex
100
AcDb2dVertex
 10
180.8556038622
 20
35.5025252599
 30
0.0
  0
SEQEND
  5
5C2
100
AcDbEntity
  8
0
  0
LINE
  5
5C3
100
AcDbEntity
  8
0
370
        15
  6
Continuous
 62
         7
100
AcDbLine
 10
180.8556038622
 20
35.5025252599
 30
0.0
 11
175.3707763049
 21
33.9191919266
 31
0.0
  0
POLYLINE
  5
5C4
100
AcDbEntity
  8
0
370
        15
  6
Continuous
 62
         7
100
AcDb2dPolyline
 66
         1
 10
0.0
 20
0.0
 30
0.0
 70
       128
  0
VERTEX
  5
5C5
100
AcDbEntity
  8
0
100
AcDbVertex
100
AcDb2dVertex
 10
175.3707763049
 20
33.9191919266
 30
0.0
  0
VERTEX
  5
5C6
100
AcDbEntity
  8
0
100
AcDbVertex
100
AcDb2dVertex
 10
175.3264018108
 20
34.3569239132
 30
0.0
  0
VERTEX
  5
5C7
100
AcDbEntity
  8
0
100
AcDbVertex
100
AcDb2dVertex
 10
175.1949836153
 20
34.752214479
 30
0.0
  0
VERTEX
  5
5C8
100
AcDbEntity
  8
0
100
AcDbVertex
100
AcDb2dVertex
 10
174.9815720461
 20
35.0898728291
 30
0.0
  0
VERTEX
  5
5C9
100
AcDbEntity
  8
0
100
AcDbVertex
100
AcDb2dVertex
 10
174.69436839
 20
35.3569229425
 30
0.0
  0
VERTEX
  5
5CA
100
AcDbEntity
  8
0
100
AcDbVertex
100
AcDb2dVertex
 10
174.3444097225
 20
35.5431022332
 30
0.0
  0
VERTEX
  5
5CB
100
AcDbEntity
  8
0
100
AcDbVertex
100
AcDb2dVertex
 10
173.9451447589
 20
35.6412559353
 30
0.0
  0
VERTEX
  5
5CC
100
AcDbEntity
  8
0
100
AcDbVertex
100
AcDb2dVertex
 10
173.5119170279
 20
35.6476120572
 30
0.0
  0
VERTEX
  5
5CD
100
AcDbEntity
  8
0
100
AcDbVertex
100
AcDb2dVertex
 10
173.0613752282
 20
35.5619263367
 30
0.0
  0
VERTEX
  5
5CE
100
AcDbEntity
  8
0
100
AcDbVertex
100
AcDb2dVertex
 10
172.6108334284
 20
35.3874916279
 30
0.0
  0
VERTEX
  5
5CF
100
AcDbEntity
  8
0
100
AcDbVertex
100
AcDb2dVertex
 10
172.1776056974
 20
35.1310113588
 30
0.0
  0
VERTEX
  5
5D0
100
AcDbEntity
  8
0
100
AcDbVertex
100
AcDb2dVertex
 10
171.7783407338
 20
34.8023419225
 30
0.0
  0
VERTEX
  5
5D1
100
AcDbEntity
  8
0
100
AcDbVertex
100
AcDb2dVertex
 10
171.4283820663
 20
34.414113901
 30
0.0
  0
VERTEX
  5
5D2
100
AcDbEntity
  8
0
100
AcDbVertex
100
AcDb2dVertex
 10
171.1411784102
 20
33.9812466794
 30
0.0
  0
VERTEX
  5
5D3
100
AcDbEntity
  8
0
100
AcDbVertex
100
AcDb2dVertex
 10
170.927766841
 20
33.5203751023
 30
0.0
  0
VERTEX
  5
5D4
100
AcDbEntity
  8
0
100
AcDbVertex
100
AcDb2dVertex
 10
170.7963486455
 20
33.049210206
 30
0.0
  0
VERTEX
  5
5D5
100
AcDbEntity
  8
0
100
AcDbVertex
100
AcDb2dVertex
 10
170.7519741514
 20
32.5858585932
 30
0.0
  0
SEQEND
  5
5D6
100
AcDbEntity
  8
0
  0
LINE
  5
5D7
100
AcDbEntity
  8
0
370
        15
  6
Continuous
 62
         7
100
AcDbLine
 10
170.7519741514
 20
32.5858585932
 30
0.0
 11
165.2671465941
 21
31.0025252599
 31
0.0
  0
LINE
  5
5D8
100
AcDbEntity
  8
0
370
        15
  6
Continuous
 62
         7
100
AcDbLine
 10
143.0391612303
 20
24.5858585933
 30
0.0
 11
123.0391612303
 21
41.906366669
 31
0.0
  0
LINE
  5
5D9
100
AcDbEntity
  8
0
370
        15
  6
Continuous
 62
         7
100
AcDbLine
 10
123.0391612303
 20
41.906366669
 30
0.0
 11
123.0391612303
 21
50.5666207068
 31
0.0
  0
LINE
  5
5DA
100
AcDbEntity
  8
0
370
        15
  6
Continuous
 62
         7
100
AcDbLine
 10
164.5248391052
 20
31.6453824028
 30
0.0
 11
165.2671465941
 21
31.0025252599
 31
0.0
  0
LINE
  5
5DB
100
AcDbEntity
  8
0
370
        15
  6
Continuous
 62
         7
100
AcDbLine
 10
173.3912896677
 20
35.6334776409
 30
0.0
 11
175.3707763049
 21
33.9191919266
 31
0.0
  0
POLYLINE
  5
5DC
100
AcDbEntity
  8
0
370
        15
  6
Continuous
 62
         7
100
AcDb2dPolyline
 66
         1
 10
0.0
 20
0.0
 30
0.0
 70
       128
  0
VERTEX
  5
5DD
100
AcDbEntity
  8
0
100
AcDbVertex
100
AcDb2dVertex
 10
149.234669306
 20
45.5712441714
 30
0.0
  0
VERTEX
  5
5DE
100
AcDbEntity
  8
0
100
AcDbVertex
100
AcDb2dVertex
 10
148.8420889906
 20
45.4275452071
 30
0.0
  0
VERTEX
  5
5DF
100
AcDbEntity
  8
0
100
AcDbVertex
100
AcDb2dVertex
 10
148.5204690442
 20
45.245009263
 30
0.0
  0
VERTEX
  5
5E0
100
AcDbEntity
  8
0
100
AcDbVertex
100
AcDb2dVertex
 10
148.2848480579
 20
45.0321715172
 30
0.0
  0
VERTEX
  5
5E1
100
AcDbEntity
  8
0
100
AcDbVertex
100
AcDb2dVertex
 10
148.1462434071
 20
44.798984026
 30
0.0
  0
VERTEX
  5
5E2
100
AcDbEntity
  8
0
100
AcDbVertex
100
AcDb2dVertex
 10
148.1225663513
 20
44.7172468983
 30
0.0
  0
SEQEND
  5
5E3
100
AcDbEntity
  8
0
  0
POLYLINE
  5
5E4
100
AcDbEntity
  8
0
370
        15
  6
Continuous
 62
         7
100
AcDb2dPolyline
 66
         1
 10
0.0
 20
0.0
 30
0.0
 70
       128
  0
VERTEX
  5
5E5
100
AcDbEntity
  8
0
100
AcDbVertex
100
AcDb2dVertex
 10
152.5967722606
 20
44.7172468983
 30
0.0
  0
VERTEX
  5
5E6
100
AcDbEntity
  8
0
100
AcDbVertex
100
AcDb2dVertex
 10
152.5862389682
 20
44.758897321
 30
0.0
  0
VERTEX
  5
5E7
100
AcDbEntity
  8
0
100
AcDbVertex
100
AcDb2dVertex
 10
152.4645619368
 20
44.9944347774
 30
0.0
  0
VERTEX
  5
5E8
100
AcDbEntity
  8
0
100
AcDbVertex
100
AcDb2dVertex
 10
152.2444624654
 20
45.2113870164
 30
0.0
  0
VERTEX
  5
5E9
100
AcDbEntity
  8
0
100
AcDbVertex
100
AcDb2dVertex
 10
151.9362321606
 20
45.3996095926
 30
0.0
  0
VERTEX
  5
5EA
100
AcDbEntity
  8
0
100
AcDbVertex
100
AcDb2dVertex
 10
151.554283529
 20
45.5503014273
 30
0.0
  0
VERTEX
  5
5EB
100
AcDbEntity
  8
0
100
AcDbVertex
100
AcDb2dVertex
 10
151.1164760641
 20
45.656416338
 30
0.0
  0
VERTEX
  5
5EC
100
AcDbEntity
  8
0
100
AcDbVertex
100
AcDb2dVertex
 10
150.6432811562
 20
45.7129925093
 30
0.0
  0
VERTEX
  5
5ED
100
AcDbEntity
  8
0
100
AcDbVertex
100
AcDb2dVertex
 10
150.1568248735
 20
45.7173845023
 30
0.0
  0
VERTEX
  5
5EE
100
AcDbEntity
  8
0
100
AcDbVertex
100
AcDb2dVertex
 10
149.6798533709
 20
45.6693869523
 30
0.0
  0
VERTEX
  5
5EF
100
AcDbEntity
  8
0
100
AcDbVertex
100
AcDb2dVertex
 10
149.234669306
 20
45.5712441714
 30
0.0
  0
SEQEND
  5
5F0
100
AcDbEntity
  8
0
  0
LINE
  5
5F1
100
AcDbEntity
  8
0
370
        15
  6
Continuous
 62
         7
100
AcDbLine
 10
181.8453471808
 20
36.6453824028
 30
0.0
 11
182.5876546698
 21
36.0025252599
 31
0.0
  0
POLYLINE
  5
5F2
100
AcDbEntity
  8
0
370
        15
  6
Continuous
 62
         7
100
AcDb2dPolyline
 66
         1
 10
0.0
 20
0.0
 30
0.0
 70
       128
  0
VERTEX
  5
5F3
100
AcDbEntity
  8
0
100
AcDbVertex
100
AcDb2dVertex
 10
204.082944879
 20
61.4045775048
 30
0.0
  0
VERTEX
  5
5F4
100
AcDbEntity
  8
0
100
AcDbVertex
100
AcDb2dVertex
 10
203.6903645637
 20
61.2608785404
 30
0.0
  0
VERTEX
  5
5F5
100
AcDbEntity
  8
0
100
AcDbVertex
100
AcDb2dVertex
 10
203.3687446172
 20
61.0783425963
 30
0.0
  0
VERTEX
  5
5F6
100
AcDbEntity
  8
0
100
AcDbVertex
100
AcDb2dVertex
 10
203.1331236309
 20
60.8655048505
 30
0.0
  0
VERTEX
  5
5F7
100
AcDbEntity
  8
0
100
AcDbVertex
100
AcDb2dVertex
 10
202.9945189801
 20
60.6323173593
 30
0.0
  0
VERTEX
  5
5F8
100
AcDbEntity
  8
0
100
AcDbVertex
100
AcDb2dVertex
 10
202.9708419243
 20
60.5505802316
 30
0.0
  0
SEQEND
  5
5F9
100
AcDbEntity
  8
0
  0
POLYLINE
  5
5FA
100
AcDbEntity
  8
0
370
        15
  6
Continuous
 62
         7
100
AcDb2dPolyline
 66
         1
 10
0.0
 20
0.0
 30
0.0
 70
       128
  0
VERTEX
  5
5FB
100
AcDbEntity
  8
0
100
AcDbVertex
100
AcDb2dVertex
 10
207.4450478336
 20
60.5505802316
 30
0.0
  0
VERTEX
  5
5FC
100
AcDbEntity
  8
0
100
AcDbVertex
100
AcDb2dVertex
 10
207.4345145412
 20
60.5922306543
 30
0.0
  0
VERTEX
  5
5FD
100
AcDbEntity
  8
0
100
AcDbVertex
100
AcDb2dVertex
 10
207.3128375098
 20
60.8277681107
 30
0.0
  0
VERTEX
  5
5FE
100
AcDbEntity
  8
0
100
AcDbVertex
100
AcDb2dVertex
 10
207.0927380384
 20
61.0447203498
 30
0.0
  0
VERTEX
  5
5FF
100
AcDbEntity
  8
0
100
AcDbVertex
100
AcDb2dVertex
 10
206.7845077336
 20
61.2329429259
 30
0.0
  0
VERTEX
  5
600
100
AcDbEntity
  8
0
100
AcDbVertex
100
AcDb2dVertex
 10
206.402559102
 20
61.3836347606
 30
0.0
  0
VERTEX
  5
601
100
AcDbEntity
  8
0
100
AcDbVertex
100
AcDb2dVertex
 10
205.9647516371
 20
61.4897496713
 30
0.0
  0
VERTEX
  5
602
100
AcDbEntity
  8
0
100
AcDbVertex
100
AcDb2dVertex
 10
205.4915567292
 20
61.5463258426
 30
0.0
  0
VERTEX
  5
603
100
AcDbEntity
  8
0
100
AcDbVertex
100
AcDb2dVertex
 10
205.0051004465
 20
61.5507178356
 30
0.0
  0
VERTEX
  5
604
100
AcDbEntity
  8
0
100
AcDbVertex
100
AcDb2dVertex
 10
204.5281289439
 20
61.5027202856
 30
0.0
  0
VERTEX
  5
605
100
AcDbEntity
  8
0
100
AcDbVertex
100
AcDb2dVertex
 10
204.082944879
 20
61.4045775048
 30
0.0
  0
SEQEND
  5
606
100
AcDbEntity
  8
0
  0
POLYLINE
  5
607
100
AcDbEntity
  8
0
  6
Continuous
 62
         7
100
AcDb2dPolyline
 66
         1
 10
0.0
 20
0.0
 30
0.0
 70
       128
  0
VERTEX
  5
608
100
AcDbEntity
  8
0
100
AcDbVertex
100
AcDb2dVertex
 10
203.8746115456
 20
55.2341465028
 30
0.0
  0
VERTEX
  5
609
100
AcDbEntity
  8
0
100
AcDbVertex
100
AcDb2dVertex
 10
203.0923359715
 20
54.8911278698
 30
0.0
  0
VERTEX
  5
60A
100
AcDbEntity
  8
0
100
AcDbVertex
100
AcDb2dVertex
 10
202.6321426755
 20
54.4245380246
 30
0.0
  0
VERTEX
  5
60B
100
AcDbEntity
  8
0
100
AcDbVertex
100
AcDb2dVertex
 10
202.5640919153
 20
53.9054110415
 30
0.0
  0
VERTEX
  5
60C
100
AcDbEntity
  8
0
100
AcDbVertex
100
AcDb2dVertex
 10
202.8985438022
 20
53.4127792978
 30
0.0
  0
VERTEX
  5
60D
100
AcDbEntity
  8
0
100
AcDbVertex
100
AcDb2dVertex
 10
203.5845810683
 20
53.0216415107
 30
0.0
  0
VERTEX
  5
60E
100
AcDbEntity
  8
0
100
AcDbVertex
100
AcDb2dVertex
 10
204.5177607587
 20
52.7915448627
 30
0.0
  0
VERTEX
  5
60F
100
AcDbEntity
  8
0
100
AcDbVertex
100
AcDb2dVertex
 10
205.5560147249
 20
52.7575194826
 30
0.0
  0
VERTEX
  5
610
100
AcDbEntity
  8
0
100
AcDbVertex
100
AcDb2dVertex
 10
206.5412782123
 20
52.9247454261
 30
0.0
  0
VERTEX
  5
611
100
AcDbEntity
  8
0
100
AcDbVertex
100
AcDb2dVertex
 10
207.3235537864
 20
53.2677640591
 30
0.0
  0
VERTEX
  5
612
100
AcDbEntity
  8
0
100
AcDbVertex
100
AcDb2dVertex
 10
207.7837470824
 20
53.7343539043
 30
0.0
  0
VERTEX
  5
613
100
AcDbEntity
  8
0
100
AcDbVertex
100
AcDb2dVertex
 10
207.8517978426
 20
54.2534808874
 30
0.0
  0
VERTEX
  5
614
100
AcDbEntity
  8
0
100
AcDbVertex
100
AcDb2dVertex
 10
207.5173459557
 20
54.7461126311
 30
0.0
  0
VERTEX
  5
615
100
AcDbEntity
  8
0
100
AcDbVertex
100
AcDb2dVertex
 10
206.8313086897
 20
55.1372504182
 30
0.0
  0
VERTEX
  5
616
100
AcDbEntity
  8
0
100
AcDbVertex
100
AcDb2dVertex
 10
205.8981289993
 20
55.3673470662
 30
0.0
  0
VERTEX
  5
617
100
AcDbEntity
  8
0
100
AcDbVertex
100
AcDb2dVertex
 10
204.8598750331
 20
55.4013724463
 30
0.0
  0
VERTEX
  5
618
100
AcDbEntity
  8
0
100
AcDbVertex
100
AcDb2dVertex
 10
203.8746115456
 20
55.2341465028
 30
0.0
  0
SEQEND
  5
619
100
AcDbEntity
  8
0
  0
POLYLINE
  5
61A
100
AcDbEntity
  8
0
  6
Continuous
 62
         7
100
AcDb2dPolyline
 66
         1
 10
0.0
 20
0.0
 30
0.0
 70
       128
  0
VERTEX
  5
61B
100
AcDbEntity
  8
0
100
AcDbVertex
100
AcDb2dVertex
 10
149.0263359726
 20
39.4008131695
 30
0.0
  0
VERTEX
  5
61C
100
AcDbEntity
  8
0
100
AcDbVertex
100
AcDb2dVertex
 10
148.2440603985
 20
39.0577945365
 30
0.0
  0
VERTEX
  5
61D
100
AcDbEntity
  8
0
100
AcDbVertex
100
AcDb2dVertex
 10
147.7838671025
 20
38.5912046912
 30
0.0
  0
VERTEX
  5
61E
100
AcDbEntity
  8
0
100
AcDbVertex
100
AcDb2dVertex
 10
147.7158163423
 20
38.0720777081
 30
0.0
  0
VERTEX
  5
61F
100
AcDbEntity
  8
0
100
AcDbVertex
100
AcDb2dVertex
 10
148.0502682292
 20
37.5794459644
 30
0.0
  0
VERTEX
  5
620
100
AcDbEntity
  8
0
100
AcDbVertex
100
AcDb2dVertex
 10
148.7363054953
 20
37.1883081774
 30
0.0
  0
VERTEX
  5
621
100
AcDbEntity
  8
0
100
AcDbVertex
100
AcDb2dVertex
 10
149.6694851857
 20
36.9582115294
 30
0.0
  0
VERTEX
  5
622
100
AcDbEntity
  8
0
100
AcDbVertex
100
AcDb2dVertex
 10
150.7077391519
 20
36.9241861493
 30
0.0
  0
VERTEX
  5
623
100
AcDbEntity
  8
0
100
AcDbVertex
100
AcDb2dVertex
 10
151.6930026393
 20
37.0914120927
 30
0.0
  0
VERTEX
  5
624
100
AcDbEntity
  8
0
100
AcDbVertex
100
AcDb2dVertex
 10
152.4752782134
 20
37.4344307258
 30
0.0
  0
VERTEX
  5
625
100
AcDbEntity
  8
0
100
AcDbVertex
100
AcDb2dVertex
 10
152.9354715094
 20
37.901020571
 30
0.0
  0
VERTEX
  5
626
100
AcDbEntity
  8
0
100
AcDbVertex
100
AcDb2dVertex
 10
153.0035222696
 20
38.4201475541
 30
0.0
  0
VERTEX
  5
627
100
AcDbEntity
  8
0
100
AcDbVertex
100
AcDb2dVertex
 10
152.6690703827
 20
38.9127792978
 30
0.0
  0
VERTEX
  5
628
100
AcDbEntity
  8
0
100
AcDbVertex
100
AcDb2dVertex
 10
151.9830331167
 20
39.3039170848
 30
0.0
  0
VERTEX
  5
629
100
AcDbEntity
  8
0
100
AcDbVertex
100
AcDb2dVertex
 10
151.0498534262
 20
39.5340137328
 30
0.0
  0
VERTEX
  5
62A
100
AcDbEntity
  8
0
100
AcDbVertex
100
AcDb2dVertex
 10
150.01159946
 20
39.5680391129
 30
0.0
  0
VERTEX
  5
62B
100
AcDbEntity
  8
0
100
AcDbVertex
100
AcDb2dVertex
 10
149.0263359726
 20
39.4008131695
 30
0.0
  0
SEQEND
  5
62C
100
AcDbEntity
  8
0
  0
POLYLINE
  5
62D
100
AcDbEntity
  8
0
  6
Continuous
 62
         7
100
AcDb2dPolyline
 66
         1
 10
0.0
 20
0.0
 30
0.0
 70
       128
  0
VERTEX
  5
62E
100
AcDbEntity
  8
0
100
AcDbVertex
100
AcDb2dVertex
 10
214.6720464941
 20
49.8832935417
 30
0.0
  0
VERTEX
  5
62F
100
AcDbEntity
  8
0
100
AcDbVertex
100
AcDb2dVertex
 10
214.0853398135
 20
49.626029567
 30
0.0
  0
VERTEX
  5
630
100
AcDbEntity
  8
0
100
AcDbVertex
100
AcDb2dVertex
 10
213.7401948415
 20
49.2760871831
 30
0.0
  0
VERTEX
  5
631
100
AcDbEntity
  8
0
100
AcDbVertex
100
AcDb2dVertex
 10
213.6891567714
 20
48.8867419457
 30
0.0
  0
VERTEX
  5
632
100
AcDbEntity
  8
0
100
AcDbVertex
100
AcDb2dVertex
 10
213.9399956865
 20
48.5172681379
 30
0.0
  0
VERTEX
  5
633
100
AcDbEntity
  8
0
100
AcDbVertex
100
AcDb2dVertex
 10
214.4545236361
 20
48.2239147977
 30
0.0
  0
VERTEX
  5
634
100
AcDbEntity
  8
0
100
AcDbVertex
100
AcDb2dVertex
 10
215.1544084039
 20
48.0513423117
 30
0.0
  0
VERTEX
  5
635
100
AcDbEntity
  8
0
100
AcDbVertex
100
AcDb2dVertex
 10
215.9330988786
 20
48.0258232766
 30
0.0
  0
VERTEX
  5
636
100
AcDbEntity
  8
0
100
AcDbVertex
100
AcDb2dVertex
 10
216.6720464941
 20
48.1512427342
 30
0.0
  0
VERTEX
  5
637
100
AcDbEntity
  8
0
100
AcDbVertex
100
AcDb2dVertex
 10
217.2587531747
 20
48.4085067089
 30
0.0
  0
VERTEX
  5
638
100
AcDbEntity
  8
0
100
AcDbVertex
100
AcDb2dVertex
 10
217.6038981467
 20
48.7584490928
 30
0.0
  0
VERTEX
  5
639
100
AcDbEntity
  8
0
100
AcDbVertex
100
AcDb2dVertex
 10
217.6549362169
 20
49.1477943302
 30
0.0
  0
VERTEX
  5
63A
100
AcDbEntity
  8
0
100
AcDbVertex
100
AcDb2dVertex
 10
217.4040973017
 20
49.5172681379
 30
0.0
  0
VERTEX
  5
63B
100
AcDbEntity
  8
0
100
AcDbVertex
100
AcDb2dVertex
 10
216.8895693521
 20
49.8106214782
 30
0.0
  0
VERTEX
  5
63C
100
AcDbEntity
  8
0
100
AcDbVertex
100
AcDb2dVertex
 10
216.1896845843
 20
49.9831939642
 30
0.0
  0
VERTEX
  5
63D
100
AcDbEntity
  8
0
100
AcDbVertex
100
AcDb2dVertex
 10
215.4109941097
 20
50.0087129993
 30
0.0
  0
VERTEX
  5
63E
100
AcDbEntity
  8
0
100
AcDbVertex
100
AcDb2dVertex
 10
214.6720464941
 20
49.8832935417
 30
0.0
  0
SEQEND
  5
63F
100
AcDbEntity
  8
0
  0
POLYLINE
  5
640
100
AcDbEntity
  8
0
  6
Continuous
 62
         7
100
AcDb2dPolyline
 66
         1
 10
0.0
 20
0.0
 30
0.0
 70
       128
  0
VERTEX
  5
641
100
AcDbEntity
  8
0
100
AcDbVertex
100
AcDb2dVertex
 10
130.235313653
 20
41.6743158614
 30
0.0
  0
VERTEX
  5
642
100
AcDbEntity
  8
0
100
AcDbVertex
100
AcDb2dVertex
 10
129.6486069724
 20
41.4170518866
 30
0.0
  0
VERTEX
  5
643
100
AcDbEntity
  8
0
100
AcDbVertex
100
AcDb2dVertex
 10
129.3034620004
 20
41.0671095027
 30
0.0
  0
VERTEX
  5
644
100
AcDbEntity
  8
0
100
AcDbVertex
100
AcDb2dVertex
 10
129.2524239302
 20
40.6777642654
 30
0.0
  0
VERTEX
  5
645
100
AcDbEntity
  8
0
100
AcDbVertex
100
AcDb2dVertex
 10
129.5032628454
 20
40.3082904576
 30
0.0
  0
VERTEX
  5
646
100
AcDbEntity
  8
0
100
AcDbVertex
100
AcDb2dVertex
 10
130.017790795
 20
40.0149371173
 30
0.0
  0
VERTEX
  5
647
100
AcDbEntity
  8
0
100
AcDbVertex
100
AcDb2dVertex
 10
130.7176755628
 20
39.8423646313
 30
0.0
  0
VERTEX
  5
648
100
AcDbEntity
  8
0
100
AcDbVertex
100
AcDb2dVertex
 10
131.4963660374
 20
39.8168455962
 30
0.0
  0
VERTEX
  5
649
100
AcDbEntity
  8
0
100
AcDbVertex
100
AcDb2dVertex
 10
132.235313653
 20
39.9422650538
 30
0.0
  0
VERTEX
  5
64A
100
AcDbEntity
  8
0
100
AcDbVertex
100
AcDb2dVertex
 10
132.8220203336
 20
40.1995290286
 30
0.0
  0
VERTEX
  5
64B
100
AcDbEntity
  8
0
100
AcDbVertex
100
AcDb2dVertex
 10
133.1671653056
 20
40.5494714125
 30
0.0
  0
VERTEX
  5
64C
100
AcDbEntity
  8
0
100
AcDbVertex
100
AcDb2dVertex
 10
133.2182033757
 20
40.9388166498
 30
0.0
  0
VERTEX
  5
64D
100
AcDbEntity
  8
0
100
AcDbVertex
100
AcDb2dVertex
 10
132.9673644605
 20
41.3082904576
 30
0.0
  0
VERTEX
  5
64E
100
AcDbEntity
  8
0
100
AcDbVertex
100
AcDb2dVertex
 10
132.452836511
 20
41.6016437979
 30
0.0
  0
VERTEX
  5
64F
100
AcDbEntity
  8
0
100
AcDbVertex
100
AcDb2dVertex
 10
131.7529517432
 20
41.7742162839
 30
0.0
  0
VERTEX
  5
650
100
AcDbEntity
  8
0
100
AcDbVertex
100
AcDb2dVertex
 10
130.9742612685
 20
41.799735319
 30
0.0
  0
VERTEX
  5
651
100
AcDbEntity
  8
0
100
AcDbVertex
100
AcDb2dVertex
 10
130.235313653
 20
41.6743158614
 30
0.0
  0
SEQEND
  5
652
100
AcDbEntity
  8
0
  0
LINE
  5
653
100
AcDbEntity
  8
0
370
        15
  6
Continuous
 62
         7
100
AcDbLine
 10
91.3345183326
 20
240.5335368091
 30
0.0
 11
106.3345183326
 21
240.5335368091
 31
0.0
  0
LINE
  5
654
100
AcDbEntity
  8
0
370
        15
  6
Continuous
 62
         7
100
AcDbLine
 10
106.3345183326
 20
240.5335368091
 30
0.0
 11
106.3345183326
 21
100.5335368091
 31
0.0
  0
LINE
  5
655
100
AcDbEntity
  8
0
370
        15
  6
Continuous
 62
         7
100
AcDbLine
 10
91.3345183326
 20
100.5335368091
 30
0.0
 11
106.3345183326
 21
100.5335368091
 31
0.0
  0
LINE
  5
656
100
AcDbEntity
  8
0
370
        15
  6
Continuous
 62
         7
100
AcDbLine
 10
91.3345183326
 20
100.5335368091
 30
0.0
 11
91.3345183326
 21
148.2835368091
 31
0.0
  0
ARC
  5
657
100
AcDbEntity
  8
0
370
        15
  6
Continuous
 62
         7
100
AcDbCircle
 10
91.3345183326
 20
152.5335368091
 30
0.0
 40
4.25
100
AcDbArc
 50
270.0
 51
90.0
  0
LINE
  5
658
100
AcDbEntity
  8
0
370
        15
  6
Continuous
 62
         7
100
AcDbLine
 10
91.3345183326
 20
156.7835368091
 30
0.0
 11
91.3345183326
 21
240.5335368091
 31
0.0
  0
ARC
  5
659
100
AcDbEntity
  8
0
370
        15
  6
Continuous
 62
         7
100
AcDbCircle
 10
91.3345183326
 20
152.5335368091
 30
0.0
 40
1.25
100
AcDbArc
 50
270.0
 51
90.0
  0
LINE
  5
65A
100
AcDbEntity
  8
0
370
        15
  6
Continuous
 62
         7
100
AcDbLine
 10
91.3345183326
 20
153.7835368091
 30
0.0
 11
91.3345183326
 21
156.7835368091
 31
0.0
  0
LINE
  5
65B
100
AcDbEntity
  8
0
370
        15
  6
Continuous
 62
         7
100
AcDbLine
 10
91.3345183326
 20
148.2835368091
 30
0.0
 11
91.3345183326
 21
151.2835368091
 31
0.0
  0
LINE
  5
65C
100
AcDbEntity
  8
0
370
        15
  6
Continuous
 62
         7
100
AcDbLine
 10
91.3345183326
 20
151.2835368091
 30
0.0
 11
91.3345183326
 21
153.7835368091
 31
0.0
  0
LINE
  5
65D
100
AcDbEntity
  8
0
370
         0
  6
HIDDEN
 62
         9
100
AcDbLine
 10
103.8345183326
 20
130.5335368091
 30
0.0
 11
103.8345183326
 21
114.5335368091
 31
0.0
  0
LINE
  5
65E
100
AcDbEntity
  8
0
370
         0
  6
HIDDEN
 62
         9
100
AcDbLine
 10
103.8345183326
 20
183.3708796212
 30
0.0
 11
103.8345183326
 21
226.5335368091
 31
0.0
  0
LINE
  5
65F
100
AcDbEntity
  8
0
370
         0
  6
HIDDEN
 62
         9
100
AcDbLine
 10
102.3345183326
 20
130.5335368091
 30
0.0
 11
102.3345183326
 21
127.1585368091
 31
0.0
  0
LINE
  5
660
100
AcDbEntity
  8
0
370
         0
  6
HIDDEN
 62
         9
100
AcDbLine
 10
102.3345183326
 20
133.9085368091
 30
0.0
 11
102.3345183326
 21
130.5335368091
 31
0.0
  0
LINE
  5
661
100
AcDbEntity
  8
0
370
         0
  6
HIDDEN
 62
         9
100
AcDbLine
 10
102.3345183326
 20
225.5335368091
 30
0.0
 11
102.3345183326
 21
222.1585368091
 31
0.0
  0
LINE
  5
662
100
AcDbEntity
  8
0
370
         0
  6
HIDDEN
 62
         9
100
AcDbLine
 10
102.3345183326
 20
228.9085368091
 30
0.0
 11
102.3345183326
 21
225.5335368091
 31
0.0
  0
LINE
  5
663
100
AcDbEntity
  8
0
370
         0
  6
HIDDEN
 62
         9
100
AcDbLine
 10
103.8345183326
 20
174.3959322404
 30
0.0
 11
103.8345183326
 21
183.3708796212
 31
0.0
  0
LINE
  5
664
100
AcDbEntity
  8
0
370
         0
  6
HIDDEN
 62
         9
100
AcDbLine
 10
103.8345183326
 20
130.5335368091
 30
0.0
 11
103.8345183326
 21
174.3959322404
 31
0.0
  0
ARC
  5
665
100
AcDbEntity
  8
0
370
         0
  6
HIDDEN
 62
         9
100
AcDbCircle
 10
91.3345183326
 20
167.5335368091
 30
0.0
 40
1.5
100
AcDbArc
 50
270.0
 51
90.0
  0
ARC
  5
666
100
AcDbEntity
  8
0
370
         0
  6
HIDDEN
 62
         9
100
AcDbCircle
 10
91.3345183326
 20
137.5335368091
 30
0.0
 40
1.5
100
AcDbArc
 50
270.0
 51
90.0
  0
ARC
  5
667
100
AcDbEntity
  8
0
370
         0
  6
HIDDEN
 62
         9
100
AcDbCircle
 10
91.3345183326
 20
152.5335368091
 30
0.0
 40
4.0
100
AcDbArc
 50
270.0
 51
90.0
  0
LINE
  5
668
100
AcDbEntity
  8
0
370
         0
  6
HIDDEN
 62
         9
100
AcDbLine
 10
91.3345183326
 20
107.0335368091
 30
0.0
 11
106.3345183326
 21
107.0335368091
 31
0.0
  0
LINE
  5
669
100
AcDbEntity
  8
0
370
         0
  6
HIDDEN
 62
         9
100
AcDbLine
 10
106.3345183326
 20
112.0335368091
 30
0.0
 11
91.3345183326
 21
112.0335368091
 31
0.0
  0
ARC
  5
66A
100
AcDbEntity
  8
0
370
         0
  6
HIDDEN
 62
         9
100
AcDbCircle
 10
99.8345183326
 20
114.5335368091
 30
0.0
 40
4.0
100
AcDbArc
 50
270.0
 51
0.0
  0
ARC
  5
66B
100
AcDbEntity
  8
0
370
         0
  6
HIDDEN
 62
         9
100
AcDbCircle
 10
99.8345183326
 20
130.5335368091
 30
0.0
 40
4.0
100
AcDbArc
 50
0.0
 51
90.0
  0
ARC
  5
66C
100
AcDbEntity
  8
0
370
         0
  6
HIDDEN
 62
         9
100
AcDbCircle
 10
99.8345183326
 20
226.5335368091
 30
0.0
 40
4.0
100
AcDbArc
 50
0.0
 51
90.0
  0
LINE
  5
66D
100
AcDbEntity
  8
0
370
         0
  6
HIDDEN
 62
         9
100
AcDbLine
 10
99.8345183326
 20
230.5335368091
 30
0.0
 11
91.3345183326
 21
230.5335368091
 31
0.0
  0
LINE
  5
66E
100
AcDbEntity
  8
0
370
         0
  6
HIDDEN
 62
         9
100
AcDbLine
 10
99.8345183326
 20
134.5335368091
 30
0.0
 11
91.3345183326
 21
134.5335368091
 31
0.0
  0
LINE
  5
66F
100
AcDbEntity
  8
0
370
         0
  6
HIDDEN
 62
         9
100
AcDbLine
 10
91.3345183326
 20
110.5335368091
 30
0.0
 11
99.8345183326
 21
110.5335368091
 31
0.0
  0
ARC
  5
670
100
AcDbEntity
  8
0
370
         0
  6
HIDDEN
 62
         9
100
AcDbCircle
 10
99.8345183326
 20
114.5335368091
 30
0.0
 40
4.0
100
AcDbArc
 50
0.0
 51
90.0
  0
LINE
  5
671
100
AcDbEntity
  8
0
370
         0
  6
HIDDEN
 62
         9
100
AcDbLine
 10
91.3345183326
 20
118.5335368091
 30
0.0
 11
99.8345183326
 21
118.5335368091
 31
0.0
  0
LINE
  5
672
100
AcDbEntity
  8
0
370
         0
  6
HIDDEN
 62
         9
100
AcDbLine
 10
106.3345183326
 20
137.9085368091
 30
0.0
 11
102.3345183326
 21
133.9085368091
 31
0.0
  0
LINE
  5
673
100
AcDbEntity
  8
0
370
         0
  6
HIDDEN
 62
         9
100
AcDbLine
 10
102.3345183326
 20
127.1585368091
 30
0.0
 11
106.3345183326
 21
123.1585368091
 31
0.0
  0
LINE
  5
674
100
AcDbEntity
  8
0
370
         0
  6
HIDDEN
 62
         9
100
AcDbLine
 10
106.3345183326
 20
232.9085368091
 30
0.0
 11
102.3345183326
 21
228.9085368091
 31
0.0
  0
LINE
  5
675
100
AcDbEntity
  8
0
370
         0
  6
HIDDEN
 62
         9
100
AcDbLine
 10
102.3345183326
 20
222.1585368091
 30
0.0
 11
106.3345183326
 21
218.1585368091
 31
0.0
  0
LINE
  5
676
100
AcDbEntity
  8
0
370
         0
  6
HIDDEN
 62
         9
100
AcDbLine
 10
91.3345183326
 20
127.1585368091
 30
0.0
 11
102.3345183326
 21
127.1585368091
 31
0.0
  0
LINE
  5
677
100
AcDbEntity
  8
0
370
         0
  6
HIDDEN
 62
         9
100
AcDbLine
 10
102.3345183326
 20
133.9085368091
 30
0.0
 11
91.3345183326
 21
133.9085368091
 31
0.0
  0
LINE
  5
678
100
AcDbEntity
  8
0
370
         0
  6
HIDDEN
 62
         9
100
AcDbLine
 10
91.3345183326
 20
222.1585368091
 30
0.0
 11
102.3345183326
 21
222.1585368091
 31
0.0
  0
LINE
  5
679
100
AcDbEntity
  8
0
370
         0
  6
HIDDEN
 62
         9
100
AcDbLine
 10
102.3345183326
 20
228.9085368091
 30
0.0
 11
91.3345183326
 21
228.9085368091
 31
0.0
  0
LINE
  5
67A
100
AcDbEntity
  8
0
370
         0
  6
HIDDEN
 62
         9
100
AcDbLine
 10
91.3345183326
 20
229.0335368091
 30
0.0
 11
106.3345183326
 21
229.0335368091
 31
0.0
  0
LINE
  5
67B
100
AcDbEntity
  8
0
370
         0
  6
HIDDEN
 62
         9
100
AcDbLine
 10
106.3345183326
 20
234.0335368091
 30
0.0
 11
91.3345183326
 21
234.0335368091
 31
0.0
  0
LINE
  5
67C
100
AcDbEntity
  8
0
370
         0
  6
DOT2
 62
         9
100
AcDbLine
 10
99.8345183326
 20
130.5335368091
 30
0.0
 11
99.8345183326
 21
110.5536754783
 31
0.0
  0
LINE
  5
67D
100
AcDbEntity
  8
0
370
         0
  6
DOT2
 62
         9
100
AcDbLine
 10
99.8345183326
 20
130.5335368091
 30
0.0
 11
103.8345183326
 21
130.5335368091
 31
0.0
  0
LINE
  5
67E
100
AcDbEntity
  8
0
370
         0
  6
DOT2
 62
         9
100
AcDbLine
 10
99.8345183326
 20
130.5335368091
 30
0.0
 11
103.8345183326
 21
130.5335368091
 31
0.0
  0
LINE
  5
67F
100
AcDbEntity
  8
0
370
         0
  6
DOT2
 62
         9
100
AcDbLine
 10
99.8345183326
 20
130.5335368091
 30
0.0
 11
103.8345183326
 21
130.5335368091
 31
0.0
  0
LINE
  5
680
100
AcDbEntity
  8
0
370
         0
  6
DOT2
 62
         9
100
AcDbLine
 10
99.8345183326
 20
130.5335368091
 30
0.0
 11
99.8345183326
 21
134.5335368091
 31
0.0
  0
POLYLINE
  5
681
100
AcDbEntity
  8
0
370
         0
  6
DOT2
 62
         9
100
AcDb2dPolyline
 66
         1
 10
0.0
 20
0.0
 30
0.0
 70
       128
  0
VERTEX
  5
682
100
AcDbEntity
  8
0
100
AcDbVertex
100
AcDb2dVertex
 10
103.8345183326
 20
226.5335368091
 30
0.0
  0
VERTEX
  5
683
100
AcDbEntity
  8
0
100
AcDbVertex
100
AcDb2dVertex
 10
103.7576594542
 20
226.9712681528
 30
0.0
  0
VERTEX
  5
684
100
AcDbEntity
  8
0
100
AcDbVertex
100
AcDb2dVertex
 10
103.5300364626
 20
227.3921777264
 30
0.0
  0
VERTEX
  5
685
100
AcDbEntity
  8
0
100
AcDbVertex
100
AcDb2dVertex
 10
103.1603967818
 20
227.780090211
 30
0.0
  0
VERTEX
  5
686
100
AcDbEntity
  8
0
100
AcDbVertex
100
AcDb2dVertex
 10
102.6629454573
 20
228.1200983475
 30
0.0
  0
VERTEX
  5
687
100
AcDbEntity
  8
0
100
AcDbVertex
100
AcDb2dVertex
 10
102.0567992646
 20
228.3991358139
 30
0.0
  0
VERTEX
  5
688
100
AcDbEntity
  8
0
100
AcDbVertex
100
AcDb2dVertex
 10
101.365252062
 20
228.6064793567
 30
0.0
  0
VERTEX
  5
689
100
AcDbEntity
  8
0
100
AcDbVertex
100
AcDb2dVertex
 10
100.6148796206
 20
228.73416088
 30
0.0
  0
VERTEX
  5
68A
100
AcDbEntity
  8
0
100
AcDbVertex
100
AcDb2dVertex
 10
99.8345183326
 20
228.7772736543
 30
0.0
  0
SEQEND
  5
68B
100
AcDbEntity
  8
0
  0
LINE
  5
68C
100
AcDbEntity
  8
0
370
         0
  6
DOT2
 62
         9
100
AcDbLine
 10
99.8345183326
 20
224.2897999639
 30
0.0
 11
99.8345183326
 21
230.5334532115
 31
0.0
  0
POLYLINE
  5
68D
100
AcDbEntity
  8
0
370
         0
  6
DOT2
 62
         9
100
AcDb2dPolyline
 66
         1
 10
0.0
 20
0.0
 30
0.0
 70
       128
  0
VERTEX
  5
68E
100
AcDbEntity
  8
0
100
AcDbVertex
100
AcDb2dVertex
 10
99.8345183326
 20
224.2897999639
 30
0.0
  0
VERTEX
  5
68F
100
AcDbEntity
  8
0
100
AcDbVertex
100
AcDb2dVertex
 10
100.6148796206
 20
224.3329127383
 30
0.0
  0
VERTEX
  5
690
100
AcDbEntity
  8
0
100
AcDbVertex
100
AcDb2dVertex
 10
101.365252062
 20
224.4605942615
 30
0.0
  0
VERTEX
  5
691
100
AcDbEntity
  8
0
100
AcDbVertex
100
AcDb2dVertex
 10
102.0567992646
 20
224.6679378043
 30
0.0
  0
VERTEX
  5
692
100
AcDbEntity
  8
0
100
AcDbVertex
100
AcDb2dVertex
 10
102.6629454573
 20
224.9469752707
 30
0.0
  0
VERTEX
  5
693
100
AcDbEntity
  8
0
100
AcDbVertex
100
AcDb2dVertex
 10
103.1603967818
 20
225.2869834072
 30
0.0
  0
VERTEX
  5
694
100
AcDbEntity
  8
0
100
AcDbVertex
100
AcDb2dVertex
 10
103.5300364626
 20
225.6748958919
 30
0.0
  0
VERTEX
  5
695
100
AcDbEntity
  8
0
100
AcDbVertex
100
AcDb2dVertex
 10
103.7576594542
 20
226.0958054655
 30
0.0
  0
VERTEX
  5
696
100
AcDbEntity
  8
0
100
AcDbVertex
100
AcDb2dVertex
 10
103.8345183326
 20
226.5335368091
 30
0.0
  0
SEQEND
  5
697
100
AcDbEntity
  8
0
  0
LINE
  5
698
100
AcDbEntity
  8
0
370
         0
  6
DOT2
 62
         9
100
AcDbLine
 10
91.3345183326
 20
224.2897999639
 30
0.0
 11
99.8345183326
 21
224.2897999639
 31
0.0
  0
LINE
  5
699
100
AcDbEntity
  8
0
370
         0
  6
DOT2
 62
         9
100
AcDbLine
 10
91.3345183326
 20
228.7772736543
 30
0.0
 11
99.8345183326
 21
228.7772736543
 31
0.0
  0
LINE
  5
69A
100
AcDbEntity
  8
0
370
         0
  6
DOT2
 62
         9
100
AcDbLine
 10
91.3345183326
 20
130.5335368091
 30
0.0
 11
99.8345183326
 21
130.5335368091
 31
0.0
  0
LINE
  5
69B
100
AcDbEntity
  8
0
370
         0
  6
DOT2
 62
         9
100
AcDbLine
 10
91.3345183326
 20
130.5335368091
 30
0.0
 11
99.8345183326
 21
130.5335368091
 31
0.0
  0
LINE
  5
69C
100
AcDbEntity
  8
0
370
         0
  6
DOT2
 62
         9
100
AcDbLine
 10
91.3345183326
 20
130.5335368091
 30
0.0
 11
99.8345183326
 21
130.5335368091
 31
0.0
  0
POLYLINE
  5
69D
100
AcDbEntity
  8
0
370
         0
  6
DOT2
 62
         9
100
AcDb2dPolyline
 66
         1
 10
0.0
 20
0.0
 30
0.0
 70
       128
  0
VERTEX
  5
69E
100
AcDbEntity
  8
0
100
AcDbVertex
100
AcDb2dVertex
 10
103.8345183326
 20
183.3708796212
 30
0.0
  0
VERTEX
  5
69F
100
AcDbEntity
  8
0
100
AcDbVertex
100
AcDb2dVertex
 10
103.7576594542
 20
182.9331482775
 30
0.0
  0
VERTEX
  5
6A0
100
AcDbEntity
  8
0
100
AcDbVertex
100
AcDb2dVertex
 10
103.5300364626
 20
182.512238704
 30
0.0
  0
VERTEX
  5
6A1
100
AcDbEntity
  8
0
100
AcDbVertex
100
AcDb2dVertex
 10
103.1603967818
 20
182.1243262193
 30
0.0
  0
VERTEX
  5
6A2
100
AcDbEntity
  8
0
100
AcDbVertex
100
AcDb2dVertex
 10
102.6629454573
 20
181.7843180828
 30
0.0
  0
VERTEX
  5
6A3
100
AcDbEntity
  8
0
100
AcDbVertex
100
AcDb2dVertex
 10
102.0567992646
 20
181.5052806164
 30
0.0
  0
VERTEX
  5
6A4
100
AcDbEntity
  8
0
100
AcDbVertex
100
AcDb2dVertex
 10
101.365252062
 20
181.2979370736
 30
0.0
  0
VERTEX
  5
6A5
100
AcDbEntity
  8
0
100
AcDbVertex
100
AcDb2dVertex
 10
100.6148796206
 20
181.1702555503
 30
0.0
  0
VERTEX
  5
6A6
100
AcDbEntity
  8
0
100
AcDbVertex
100
AcDb2dVertex
 10
99.8345183326
 20
181.127142776
 30
0.0
  0
SEQEND
  5
6A7
100
AcDbEntity
  8
0
  0
LINE
  5
6A8
100
AcDbEntity
  8
0
370
         0
  6
DOT2
 62
         9
100
AcDbLine
 10
99.8345183326
 20
224.2897999639
 30
0.0
 11
99.8345183326
 21
181.127142776
 31
0.0
  0
LINE
  5
6A9
100
AcDbEntity
  8
0
370
         0
  6
DOT2
 62
         9
100
AcDbLine
 10
103.8345183326
 20
130.5335368091
 30
0.0
 11
99.8345183326
 21
130.5335368091
 31
0.0
  0
LINE
  5
6AA
100
AcDbEntity
  8
0
370
         0
  6
DOT2
 62
         9
100
AcDbLine
 10
99.8345183326
 20
130.5335368091
 30
0.0
 11
99.8345183326
 21
118.5538389099
 31
0.0
  0
POLYLINE
  5
6AB
100
AcDbEntity
  8
0
370
         0
  6
DOT2
 62
         9
100
AcDb2dPolyline
 66
         1
 10
0.0
 20
0.0
 30
0.0
 70
       128
  0
VERTEX
  5
6AC
100
AcDbEntity
  8
0
100
AcDbVertex
100
AcDb2dVertex
 10
99.8345183326
 20
185.6146164664
 30
0.0
  0
VERTEX
  5
6AD
100
AcDbEntity
  8
0
100
AcDbVertex
100
AcDb2dVertex
 10
100.6148796206
 20
185.571503692
 30
0.0
  0
VERTEX
  5
6AE
100
AcDbEntity
  8
0
100
AcDbVertex
100
AcDb2dVertex
 10
101.365252062
 20
185.4438221688
 30
0.0
  0
VERTEX
  5
6AF
100
AcDbEntity
  8
0
100
AcDbVertex
100
AcDb2dVertex
 10
102.0567992646
 20
185.236478626
 30
0.0
  0
VERTEX
  5
6B0
100
AcDbEntity
  8
0
100
AcDbVertex
100
AcDb2dVertex
 10
102.6629454573
 20
184.9574411596
 30
0.0
  0
VERTEX
  5
6B1
100
AcDbEntity
  8
0
100
AcDbVertex
100
AcDb2dVertex
 10
103.1603967818
 20
184.6174330231
 30
0.0
  0
VERTEX
  5
6B2
100
AcDbEntity
  8
0
100
AcDbVertex
100
AcDb2dVertex
 10
103.5300364626
 20
184.2295205384
 30
0.0
  0
VERTEX
  5
6B3
100
AcDbEntity
  8
0
100
AcDbVertex
100
AcDb2dVertex
 10
103.7576594542
 20
183.8086109648
 30
0.0
  0
VERTEX
  5
6B4
100
AcDbEntity
  8
0
100
AcDbVertex
100
AcDb2dVertex
 10
103.8345183326
 20
183.3708796212
 30
0.0
  0
SEQEND
  5
6B5
100
AcDbEntity
  8
0
  0
LINE
  5
6B6
100
AcDbEntity
  8
0
370
         0
  6
DOT2
 62
         9
100
AcDbLine
 10
99.8345183326
 20
185.6146164664
 30
0.0
 11
99.8345183326
 21
228.7772736543
 31
0.0
  0
LINE
  5
6B7
100
AcDbEntity
  8
0
370
         0
  6
DOT2
 62
         9
100
AcDbLine
 10
91.3345183326
 20
185.6146164664
 30
0.0
 11
99.8345183326
 21
185.6146164664
 31
0.0
  0
LINE
  5
6B8
100
AcDbEntity
  8
0
370
         0
  6
DOT2
 62
         9
100
AcDbLine
 10
91.3345183326
 20
130.5335368091
 30
0.0
 11
99.8345183326
 21
130.5335368091
 31
0.0
  0
LINE
  5
6B9
100
AcDbEntity
  8
0
370
         0
  6
DOT2
 62
         9
100
AcDbLine
 10
99.8345183326
 20
181.127142776
 30
0.0
 11
99.8345183326
 21
174.3959322404
 31
0.0
  0
LINE
  5
6BA
100
AcDbEntity
  8
0
370
         0
  6
DOT2
 62
         9
100
AcDbLine
 10
103.8345183326
 20
174.3959322404
 30
0.0
 11
99.8345183326
 21
174.3959322404
 31
0.0
  0
LINE
  5
6BB
100
AcDbEntity
  8
0
370
         0
  6
DOT2
 62
         9
100
AcDbLine
 10
91.3345183326
 20
181.127142776
 30
0.0
 11
99.8345183326
 21
181.127142776
 31
0.0
  0
LINE
  5
6BC
100
AcDbEntity
  8
0
370
         0
  6
DOT2
 62
         9
100
AcDbLine
 10
99.8345183326
 20
174.3959322404
 30
0.0
 11
99.8345183326
 21
130.5335368091
 31
0.0
  0
LINE
  5
6BD
100
AcDbEntity
  8
0
370
         0
  6
DOT2
 62
         9
100
AcDbLine
 10
91.3345183326
 20
174.3959322404
 30
0.0
 11
99.8345183326
 21
174.3959322404
 31
0.0
  0
LINE
  5
6BE
100
AcDbEntity
  8
0
370
         0
  6
DOT2
 62
         9
100
AcDbLine
 10
99.8345183326
 20
174.3959322404
 30
0.0
 11
99.8345183326
 21
185.6146164664
 31
0.0
  0
LINE
  5
6BF
100
AcDbEntity
  8
0
370
         0
  6
DOT2
 62
         9
100
AcDbLine
 10
99.8345183326
 20
174.3959322404
 30
0.0
 11
103.8345183326
 21
174.3959322404
 31
0.0
  0
LINE
  5
6C0
100
AcDbEntity
  8
0
370
         0
  6
DOT2
 62
         9
100
AcDbLine
 10
99.8345183326
 20
130.5335368091
 30
0.0
 11
99.8345183326
 21
174.3959322404
 31
0.0
  0
LINE
  5
6C1
100
AcDbEntity
  8
0
370
         0
  6
DOT2
 62
         9
100
AcDbLine
 10
91.3345183326
 20
174.3959322404
 30
0.0
 11
99.8345183326
 21
174.3959322404
 31
0.0
  0
DIMENSION
  5
6CE
100
AcDbEntity
  8
0
100
AcDbDimension
  2
*D28
 10
94.3151055904
 20
149.5039164371
 30
0.0
 11
71.4332012979
 21
165.1763639515
 31
0.0
 70
       163
 71
         5
 72
         1
 41
1.0
 42
0.0
  1
<>
  3
SLDDIMSTYLE6
100
AcDbDiametricDimension
 15
88.3539310747
 25
155.5631571811
 35
0.0
 40
0.0
  0
DIMENSION
  5
6DA
100
AcDbEntity
  8
0
 62
       255
100
AcDbDimension
  2
*D29
 10
77.3261457732
 20
100.5335368091
 30
0.0
 11
77.3261457732
 21
122.9415963889
 31
0.0
 70
       160
 71
         5
 72
         1
 41
1.0
 42
0.0
  3
SLDDIMSTYLE2
100
AcDbAlignedDimension
 13
91.3345183326
 23
152.5335368091
 33
0.0
 14
91.3345183326
 24
100.5335368091
 34
0.0
 50
90.0
100
AcDbRotatedDimension
  0
DIMENSION
  5
6E8
100
AcDbEntity
  8
0
 62
       255
100
AcDbDimension
  2
*D30
 10
106.3345183326
 20
247.2828115335
 30
0.0
 11
98.3348545701
 21
247.2828115335
 31
0.0
 70
       160
 71
         5
 72
         1
 41
1.0
 42
0.0
  3
SLDDIMSTYLE2
100
AcDbAlignedDimension
 13
91.3345183326
 23
148.2835368091
 33
0.0
 14
106.3345183326
 24
240.5335368091
 34
0.0
100
AcDbRotatedDimension
  0
LINE
  5
6E9
100
AcDbEntity
  8
0
  6
HIDDEN
 62
       255
100
AcDbLine
 10
91.3345183326
 20
221.5335368091
 30
0.0
 11
102.9595183326
 21
221.5335368091
 31
0.0
  0
LINE
  5
6EA
100
AcDbEntity
  8
0
  6
HIDDEN
 62
       255
100
AcDbLine
 10
102.9595183326
 20
221.5335368091
 30
0.0
 11
102.9595183326
 21
221.5335368091
 31
0.0
  0
LINE
  5
6EB
100
AcDbEntity
  8
0
  6
HIDDEN
 62
       255
100
AcDbLine
 10
91.3345183326
 20
229.5335368091
 30
0.0
 11
102.9595183326
 21
229.5335368091
 31
0.0
  0
LINE
  5
6EC
100
AcDbEntity
  8
0
  6
HIDDEN
 62
       255
100
AcDbLine
 10
102.9595183326
 20
229.5335368091
 30
0.0
 11
102.9595183326
 21
229.5335368091
 31
0.0
  0
LINE
  5
6ED
100
AcDbEntity
  8
0
  6
HIDDEN
 62
       255
100
AcDbLine
 10
102.9595183326
 20
221.5335368091
 30
0.0
 11
102.9595183326
 21
221.5335368091
 31
0.0
  0
LINE
  5
6EE
100
AcDbEntity
  8
0
  6
HIDDEN
 62
       255
100
AcDbLine
 10
102.9595183326
 20
221.5335368091
 30
0.0
 11
102.9595183326
 21
221.5335368091
 31
0.0
  0
LINE
  5
6EF
100
AcDbEntity
  8
0
  6
HIDDEN
 62
       255
100
AcDbLine
 10
91.3345183326
 20
126.5335368091
 30
0.0
 11
102.9595183326
 21
126.5335368091
 31
0.0
  0
LINE
  5
6F0
100
AcDbEntity
  8
0
  6
HIDDEN
 62
       255
100
AcDbLine
 10
102.9595183326
 20
126.5335368091
 30
0.0
 11
102.9595183326
 21
126.5335368091
 31
0.0
  0
LINE
  5
6F1
100
AcDbEntity
  8
0
  6
HIDDEN
 62
       255
100
AcDbLine
 10
91.3345183326
 20
134.5335368091
 30
0.0
 11
102.9595183326
 21
134.5335368091
 31
0.0
  0
LINE
  5
6F2
100
AcDbEntity
  8
0
  6
HIDDEN
 62
       255
100
AcDbLine
 10
102.9595183326
 20
134.5335368091
 30
0.0
 11
102.9595183326
 21
134.5335368091
 31
0.0
  0
LINE
  5
6F3
100
AcDbEntity
  8
0
  6
HIDDEN
 62
       255
100
AcDbLine
 10
102.9595183326
 20
126.5335368091
 30
0.0
 11
102.9595183326
 21
126.5335368091
 31
0.0
  0
LINE
  5
6F4
100
AcDbEntity
  8
0
  6
HIDDEN
 62
       255
100
AcDbLine
 10
102.9595183326
 20
126.5335368091
 30
0.0
 11
102.9595183326
 21
126.5335368091
 31
0.0
  0
LINE
  5
6F5
100
AcDbEntity
  8
0
  6
HIDDEN
 62
       255
100
AcDbLine
 10
91.3345183326
 20
228.5335368091
 30
0.0
 11
106.3345183326
 21
228.5335368091
 31
0.0
  0
LINE
  5
6F6
100
AcDbEntity
  8
0
  6
HIDDEN
 62
       255
100
AcDbLine
 10
106.3345183326
 20
228.5335368091
 30
0.0
 11
106.3345183326
 21
228.5335368091
 31
0.0
  0
LINE
  5
6F7
100
AcDbEntity
  8
0
  6
HIDDEN
 62
       255
100
AcDbLine
 10
91.3345183326
 20
234.5335368091
 30
0.0
 11
106.3345183326
 21
234.5335368091
 31
0.0
  0
LINE
  5
6F8
100
AcDbEntity
  8
0
  6
HIDDEN
 62
       255
100
AcDbLine
 10
106.3345183326
 20
234.5335368091
 30
0.0
 11
106.3345183326
 21
234.5335368091
 31
0.0
  0
LINE
  5
6F9
100
AcDbEntity
  8
0
  6
HIDDEN
 62
       255
100
AcDbLine
 10
106.3345183326
 20
228.5335368091
 30
0.0
 11
106.3345183326
 21
228.5335368091
 31
0.0
  0
LINE
  5
6FA
100
AcDbEntity
  8
0
  6
HIDDEN
 62
       255
100
AcDbLine
 10
106.3345183326
 20
228.5335368091
 30
0.0
 11
106.3345183326
 21
228.5335368091
 31
0.0
  0
LINE
  5
6FB
100
AcDbEntity
  8
0
  6
HIDDEN
 62
       255
100
AcDbLine
 10
91.3345183326
 20
106.5335368091
 30
0.0
 11
106.3345183326
 21
106.5335368091
 31
0.0
  0
LINE
  5
6FC
100
AcDbEntity
  8
0
  6
HIDDEN
 62
       255
100
AcDbLine
 10
106.3345183326
 20
106.5335368091
 30
0.0
 11
106.3345183326
 21
106.5335368091
 31
0.0
  0
LINE
  5
6FD
100
AcDbEntity
  8
0
  6
HIDDEN
 62
       255
100
AcDbLine
 10
91.3345183326
 20
112.5335368091
 30
0.0
 11
106.3345183326
 21
112.5335368091
 31
0.0
  0
LINE
  5
6FE
100
AcDbEntity
  8
0
  6
HIDDEN
 62
       255
100
AcDbLine
 10
106.3345183326
 20
112.5335368091
 30
0.0
 11
106.3345183326
 21
112.5335368091
 31
0.0
  0
LINE
  5
6FF
100
AcDbEntity
  8
0
  6
HIDDEN
 62
       255
100
AcDbLine
 10
106.3345183326
 20
106.5335368091
 30
0.0
 11
106.3345183326
 21
106.5335368091
 31
0.0
  0
LINE
  5
700
100
AcDbEntity
  8
0
  6
HIDDEN
 62
       255
100
AcDbLine
 10
106.3345183326
 20
106.5335368091
 30
0.0
 11
106.3345183326
 21
106.5335368091
 31
0.0
  0
ENDSEC
  0
SECTION
  2
OBJECTS
  0
DICTIONARY
  5
19
100
AcDbDictionary
280
         0
281
         1
  3
ACAD_GROUP
350
1A
  3
ACAD_MLINESTYLE
350
1B
  3
ACAD_LAYOUT
350
1E
  3
ACAD_PLOTSETTINGS
350
22
  3
ACAD_PLOTSTYLENAME
350
1F
  3
ACAD_WIPEOUT_VARS
350
23
  0
DICTIONARY
  5
1A
102
{ACAD_REACTORS
330
19
102
}
100
AcDbDictionary
280
         0
281
         1
  0
DICTIONARY
  5
1B
102
{ACAD_REACTORS
330
19
102
}
100
AcDbDictionary
280
         0
281
         1
  3
Standard
350
1C
  0
MLINESTYLE
  5
1C
102
{ACAD_REACTORS
330
1B
102
}
100
AcDbMlineStyle
  2
Standard
 70
         0
  3

 62
         0
 51
90.0
 52
90.0
 71
         2
 49
0.5
 62
       256
  6
BYLAYER
 49
-0.5
 62
       256
  6
BYLAYER
  0
ACDBDICTIONARYWDFLT
  5
1F
102
{ACAD_REACTORS
330
19
102
}
100
AcDbDictionary
281
         1
  3
Normal
350
1D
100
AcDbDictionaryWithDefault
340
1D
  0
ACDBPLACEHOLDER
  5
1D
102
{ACAD_REACTORS
330
1F
102
}
  0
LAYOUT
  5
20
102
{ACAD_REACTORS
330
1E
102
}
100
AcDbPlotSettings
  1

  2

  4

  6

 40
0.0
 41
0.0
 42
0.0
 43
0.0
 44
0.0
 45
0.0
 46
0.0
 47
0.0
 48
0.0
 49
0.0
140
0.0
141
0.0
142
1.0
143
1.0
 70
      1024
 72
         0
 73
         0
 74
         0
  7

 75
         0
147
1.0
148
0.0
149
0.0
100
AcDbLayout
  1
Model
 70
         0
 71
         0
 10
0.0
 20
0.0
 11
0.0
 21
0.0
 12
0.0
 22
0.0
 32
0.0
 14
0.0
 24
0.0
 34
0.0
 15
0.0
 25
0.0
 35
0.0
146
0.0
 13
0.0
 23
0.0
 33
0.0
 16
0.0
 26
0.0
 36
0.0
 17
0.0
 27
0.0
 37
0.0
 76
         0
330
A
331
0
345
0
346
0
  0
LAYOUT
  5
21
102
{ACAD_REACTORS
330
1E
102
}
100
AcDbPlotSettings
  1

  2

  4

  6

 40
0.0
 41
0.0
 42
0.0
 43
0.0
 44
0.0
 45
0.0
 46
0.0
 47
0.0
 48
0.0
 49
0.0
140
0.0
141
0.0
142
1.0
143
1.0
 70
         0
 72
         0
 73
         0
 74
         0
  7

 75
         0
147
1.0
148
0.0
149
0.0
100
AcDbLayout
  1
Layout1
 70
         0
 71
         0
 10
0.0
 20
0.0
 11
0.0
 21
0.0
 12
0.0
 22
0.0
 32
0.0
 14
0.0
 24
0.0
 34
0.0
 15
0.0
 25
0.0
 35
0.0
146
0.0
 13
0.0
 23
0.0
 33
0.0
 16
0.0
 26
0.0
 36
0.0
 17
0.0
 27
0.0
 37
0.0
 76
         0
330
B
331
0
345
0
346
0
  0
DICTIONARY
  5
1E
102
{ACAD_REACTORS
330
19
102
}
100
AcDbDictionary
280
         0
281
         1
  3
Layout1
350
21
  3
Model
350
20
  0
DICTIONARY
  5
22
102
{ACAD_REACTORS
330
19
102
}
100
AcDbDictionary
280
         0
281
         1
  0
WIPEOUTVARIABLES
  5
23
100
AcDbWipeoutVariables
 70
         1
  0
ENDSEC
  0
EOF
