  0
SECTION
  2
HEADER
  9
$ACADVER
  1
AC1015
  9
$ACADMAINTVER
 70
         6
  9
$DWGCODEPAGE
  3
ANSI_1252
  9
$INSBASE
 10
0.0
 20
0.0
 30
0.0
  9
$EXTMIN
 10
0.0
 20
0.0
 30
0.0
  9
$EXTMAX
 10
210.0
 20
297.0
 30
0.0
  9
$LIMMIN
 10
0.0
 20
0.0
  9
$LIMMAX
 10
0.0
 20
0.0
  9
$ORTHOMODE
 70
         0
  9
$REGENMODE
 70
         1
  9
$FILLMODE
 70
         1
  9
$QTEXTMODE
 70
         0
  9
$MIRRTEXT
 70
         1
  9
$LTSCALE
 40
1.0
  9
$ATTMODE
 70
         1
  9
$TEXTSIZE
 40
3.5
  9
$TRACEWID
 40
0.05
  9
$TEXTSTYLE
  7
Standard
  9
$CLAYER
  8
0
  9
$CELTYPE
  6
Continuous
  9
$CECOLOR
 62
       256
  9
$CELTSCALE
 40
1.0
  9
$DISPSILH
 70
         0
  9
$DIMSCALE
 40
1.0
  9
$DIMASZ
 40
3.0
  9
$DIMEXO
 40
1.0
  9
$DIMDLI
 40
0.38
  9
$DIMRND
 40
0.0
  9
$DIMDLE
 40
1.0
  9
$DIMEXE
 40
0.18
  9
$DIMTP
 40
0.0
  9
$DIMTM
 40
0.0
  9
$DIMTXT
 40
3.5
  9
$DIMCEN
 40
0.09
  9
$DIMTSZ
 40
0.0
  9
$DIMTOL
 70
         0
  9
$DIMLIM
 70
         0
  9
$DIMTIH
 70
         1
  9
$DIMTOH
 70
         1
  9
$DIMSE1
 70
         0
  9
$DIMSE2
 70
         0
  9
$DIMTAD
 70
         1
  9
$DIMZIN
 70
         0
  9
$DIMBLK
  1

  9
$DIMASO
 70
         1
  9
$DIMSHO
 70
         1
  9
$DIMPOST
  1

  9
$DIMAPOST
  1

  9
$DIMALT
 70
         0
  9
$DIMALTD
 70
         2
  9
$DIMALTF
 40
0.0394
  9
$DIMLFAC
 40
1.0
  9
$DIMTOFL
 70
         0
  9
$DIMTVP
 40
0.0
  9
$DIMTIX
 70
         0
  9
$DIMSOXD
 70
         0
  9
$DIMSAH
 70
         0
  9
$DIMBLK1
  1

  9
$DIMBLK2
  1

  9
$DIMSTYLE
  2
Standard
  9
$DIMCLRD
 70
         0
  9
$DIMCLRE
 70
         0
  9
$DIMCLRT
 70
         0
  9
$DIMTFAC
 40
1.0
  9
$DIMGAP
 40
1.0
  9
$DIMJUST
 70
         0
  9
$DIMSD1
 70
         0
  9
$DIMSD2
 70
         0
  9
$DIMTOLJ
 70
         1
  9
$DIMTZIN
 70
         0
  9
$DIMALTZ
 70
         0
  9
$DIMALTTZ
 70
         0
  9
$DIMUPT
 70
         0
  9
$DIMDEC
 70
         4
  9
$DIMTDEC
 70
         4
  9
$DIMALTU
 70
         2
  9
$DIMALTTD
 70
         2
  9
$DIMTXSTY
  7
Standard
  9
$DIMAUNIT
 70
         0
  9
$DIMADEC
 70
         0
  9
$DIMALTRND
 40
0.0
  9
$DIMAZIN
 70
         0
  9
$DIMDSEP
 70
         0
  9
$DIMATFIT
 70
         3
  9
$DIMFRAC
 70
         0
  9
$DIMLDRBLK
  1

  9
$DIMLUNIT
 70
         2
  9
$DIMLWD
 70
         0
  9
$DIMLWE
 70
         0
  9
$DIMTMOVE
 70
         0
  9
$LUNITS
 70
         2
  9
$LUPREC
 70
         2
  9
$SKETCHINC
 40
0.1
  9
$FILLETRAD
 40
0.0
  9
$AUNITS
 70
         0
  9
$AUPREC
 70
         2
  9
$MENU
  1
acad
  9
$ELEVATION
 40
0.0
  9
$PELEVATION
 40
0.0
  9
$THICKNESS
 40
0.0
  9
$LIMCHECK
 70
         0
  9
$CHAMFERA
 40
0.0
  9
$CHAMFERB
 40
0.0
  9
$CHAMFERC
 40
0.0
  9
$CHAMFERD
 40
0.0
  9
$SKPOLY
 70
         0
  9
$TDCREATE
 40
0.000000000
  9
$TDUCREATE
 40
0.000000000
  9
$TDUPDATE
 40
0.000000000
  9
$TDUUPDATE
 40
0.000000000
  9
$TDINDWG
 40
0.0000000000
  9
$TDUSRTIMER
 40
0.0000000000
  9
$USRTIMER
 70
         1
  9
$ANGBASE
 50
0.0
  9
$ANGDIR
 70
         0
  9
$PDMODE
 70
         0
  9
$PDSIZE
 40
-1.0
  9
$PLINEWID
 40
0.0
  9
$SPLFRAME
 70
         0
  9
$SPLINETYPE
 70
         6
  9
$SPLINESEGS
 70
         8
  9
$HANDSEED
  5
198
  9
$SURFTAB1
 70
         6
  9
$SURFTAB2
 70
         6
  9
$SURFTYPE
 70
         6
  9
$SURFU
 70
         6
  9
$SURFV
 70
         6
  9
$UCSBASE
  2

  9
$UCSNAME
  2

  9
$UCSORG
 10
0.0
 20
0.0
 30
0.0
  9
$UCSXDIR
 10
1.0
 20
0.0
 30
0.0
  9
$UCSYDIR
 10
0.0
 20
1.0
 30
0.0
  9
$UCSORTHOREF
  2

  9
$UCSORTHOVIEW
 70
         0
  9
$UCSORGTOP
 10
0.0
 20
0.0
 30
0.0
  9
$UCSORGBOTTOM
 10
0.0
 20
0.0
 30
0.0
  9
$UCSORGLEFT
 10
0.0
 20
0.0
 30
0.0
  9
$UCSORGRIGHT
 10
0.0
 20
0.0
 30
0.0
  9
$UCSORGFRONT
 10
0.0
 20
0.0
 30
0.0
  9
$UCSORGBACK
 10
0.0
 20
0.0
 30
0.0
  9
$PUCSBASE
  2

  9
$PUCSNAME
  2

  9
$PUCSORG
 10
0.0
 20
0.0
 30
0.0
  9
$PUCSXDIR
 10
1.0
 20
0.0
 30
0.0
  9
$PUCSYDIR
 10
0.0
 20
1.0
 30
0.0
  9
$PUCSORTHOREF
  2

  9
$PUCSORTHOVIEW
 70
         0
  9
$PUCSORGTOP
 10
0.0
 20
0.0
 30
0.0
  9
$PUCSORGBOTTOM
 10
0.0
 20
0.0
 30
0.0
  9
$PUCSORGLEFT
 10
0.0
 20
0.0
 30
0.0
  9
$PUCSORGRIGHT
 10
0.0
 20
0.0
 30
0.0
  9
$PUCSORGFRONT
 10
0.0
 20
0.0
 30
0.0
  9
$PUCSORGBACK
 10
0.0
 20
0.0
 30
0.0
  9
$USERI1
 70
         0
  9
$USERI2
 70
         0
  9
$USERI3
 70
         0
  9
$USERI4
 70
         0
  9
$USERI5
 70
         0
  9
$USERR1
 40
0.0
  9
$USERR2
 40
0.0
  9
$USERR3
 40
0.0
  9
$USERR4
 40
0.0
  9
$USERR5
 40
0.0
  9
$WORLDVIEW
 70
         1
  9
$SHADEDGE
 70
         3
  9
$SHADEDIF
 70
        70
  9
$TILEMODE
 70
         1
  9
$MAXACTVP
 70
        16
  9
$PINSBASE
 10
0.0
 20
0.0
 30
0.0
  9
$PLIMCHECK
 70
         0
  9
$PEXTMIN
 10
1.0000000000E+20
 20
1.0000000000E+20
 30
1.0000000000E+20
  9
$PEXTMAX
 10
-1.0000000000E+20
 20
-1.0000000000E+20
 30
-1.0000000000E+20
  9
$PLIMMIN
 10
0.0
 20
0.0
  9
$PLIMMAX
 10
12.0
 20
9.0
  9
$UNITMODE
 70
         0
  9
$VISRETAIN
 70
         0
  9
$PLINEGEN
 70
         1
  9
$PSLTSCALE
 70
         1
  9
$TREEDEPTH
 70
      3020
  9
$CMLSTYLE
  2
Standard
  9
$CMLJUST
 70
         0
  9
$CMLSCALE
 40
1.0
  9
$PROXYGRAPHICS
 70
         0
  9
$MEASUREMENT
 70
         0
  9
$CELWEIGHT
370
         0
  9
$ENDCAPS
280
         0
  9
$JOINSTYLE
280
         0
  9
$LWDISPLAY
290
         0
  9
$INSUNITS
 70
         0
  9
$HYPERLINKBASE
  1

  9
$XEDIT
290
         1
  9
$CEPSNTYPE
380
         0
  9
$PSTYLEMODE
290
         1
  9
$FINGERPRINTGUID
  2

  9
$VERSIONGUID
  2

  9
$EXTNAMES
290
         1
  9
$PSVPSCALE
 40
0.0
  0
ENDSEC
  0
SECTION
  2
CLASSES
  0
CLASS
  1
LWPOLYLINE
  2
AcDbPolyline
  3
AutoCAD 2000
 90
    32768
280
         0
281
         1
  0
CLASS
  1
IMAGE
  2
AcDbRasterImage
  3
ISM
 90
    32895
280
         0
281
         1
  0
CLASS
  1
OLE2FRAME
  2
AcDbOle2Frame
  3
AutoCAD 2000
 90
    32768
280
         0
281
         1
  0
CLASS
  1
HATCH
  2
AcDbHatch
  3
AutoCAD 2000
 90
    32768
280
         0
281
         1
  0
CLASS
  1
DICTIONARYVAR
  2
AcDbDictionaryVar
  3
AutoCAD 2000
 90
    32768
280
         0
281
         0
  0
CLASS
  1
RASTERVARIABLES
  2
AcDbRasterVariables
  3
ISM
 90
    32768
280
         0
281
         0
  0
CLASS
  1
IMAGEDEF
  2
AcDbRasterImageDef
  3
ISM
 90
    32768
280
         0
281
         0
  0
CLASS
  1
IMAGEDEF_REACTOR
  2
AcDbRasterImageDefReactor
  3
ISM
 90
    32769
280
         0
281
         0
  0
CLASS
  1
IDBUFFER
  2
AcDbIdBuffer
  3
AutoCAD 2000
 90
    32768
280
         0
281
         0
  0
CLASS
  1
SPATIAL_FILTER
  2
AcDbSpatialFilter
  3
AutoCAD 2000
 90
    32768
280
         0
281
         0
  0
CLASS
  1
XRECORD
  2
AcDbXrecord
  3
AutoCAD 2000
 90
    32768
280
         0
281
         0
  0
CLASS
  1
SORTENTSTABLE
  2
AcDbSortentsTable
  3
AutoCAD 2000
 90
    32768
280
         0
281
         0
  0
CLASS
  1
LAYER_INDEX
  2
AcDbLayerIndex
  3
AutoCAD 2000
 90
    32768
280
         0
281
         0
  0
CLASS
  1
SPATIAL_INDEX
  2
AcDbSpatialIndex
  3
AutoCAD 2000
 90
    32768
280
         0
281
         0
  0
CLASS
  1
OBJECT_PTR
  2
CAseDLPNTableRecord
  3
"ASE-LPNTableRecord"
 90
    32769
280
         0
281
         0
  0
CLASS
  1
LAYOUT
  2
AcDbLayout
  3
AutoCAD 2000
 90
        0
280
         0
281
         0
  0
CLASS
  1
PLOTSETTINGS
  2
AcDbPlotSettings
  3
AutoCAD 2000
 90
    32768
280
         0
281
         0
  0
CLASS
  1
ACDBDICTIONARYWDFLT
  2
AcDbDictionaryWithDefault
  3
AutoCAD 2000
 90
        0
280
         0
281
         0
  0
CLASS
  1
ACDBPLACEHOLDER
  2
AcDbPlaceHolder
  3
AutoCAD 2000
 90
        0
280
         0
281
         0
  0
CLASS
  1
VBA_PROJECT
  2
AcDbVbaProject
  3
acadvba
 90
    32768
280
         0
281
         0
  0
CLASS
  1
WIPEOUT
  2
AcDbWipeout
  3
WipeOut|AutoCAD Express Tool|expresstools@autodesk.com
 90
    32895
280
         0
281
         1
  0
CLASS
  1
WIPEOUTVARIABLES
  2
AcDbWipeoutVariables
  3
WipeOut|AutoCAD Express Tool|expresstools@autodesk.com
 90
        0
280
         0
281
         0
  0
CLASS
  1
RTEXT
  2
RText
  3
RText|AutoCAD Express Tool|expresstools@autodesk.com
 90
    32768
280
         0
281
         1
  0
CLASS
  1
ARCALIGNEDTEXT
  2
AcDbArcAlignedText
  3
ATEXT|AutoCAD Express Tool|expresstools@autodesk.com
 90
    32768
280
         0
281
         1
  0
ENDSEC
  0
SECTION
  2
TABLES
  0
TABLE
  2
VPORT
  5
7
100
AcDbSymbolTable
 70
         1
  0
VPORT
  5
15
100
AcDbSymbolTableRecord
100
AcDbViewportTableRecord
  2
*ACTIVE
 70
         0
 10
0.0
 20
0.0
 11
1.0
 21
1.0
 12
105.0
 22
148.5
 13
0.0
 23
0.0
 14
1.0
 24
1.0
 15
0.0
 25
0.0
 16
0.0
 26
0.0
 36
1.0
 17
0.0
 27
0.0
 37
0.0
 40
297.0
 41
1.4142857143
 42
50.0
 43
0.0
 44
0.0
 50
0.0
 51
0.0
 71
         0
 72
      2000
 73
         1
 74
         1
 75
         0
 76
         0
 77
         0
 78
         0
281
         0
 65
         0
110
0.0
120
0.0
130
0.0
111
1.0
121
0.0
131
0.0
112
0.0
122
1.0
132
0.0
345
0
346
0
 79
         0
146
0.0
  0
ENDTAB
  0
TABLE
  2
LTYPE
  5
4
100
AcDbSymbolTable
 70
         9
  0
LTYPE
  5
11
100
AcDbSymbolTableRecord
100
AcDbLinetypeTableRecord
  2
ByBlock
 70
        64
  3

 72
        65
 73
         0
 40
0.0
  0
LTYPE
  5
12
100
AcDbSymbolTableRecord
100
AcDbLinetypeTableRecord
  2
ByLayer
 70
        64
  3

 72
        65
 73
         0
 40
0.0
  0
LTYPE
  5
13
100
AcDbSymbolTableRecord
100
AcDbLinetypeTableRecord
  2
Continuous
 70
        64
  3
Solid line
 72
        65
 73
         0
 40
0.0
  0
LTYPE
  5
24
100
AcDbSymbolTableRecord
100
AcDbLinetypeTableRecord
  2
CONTINUOUS
 70
        64
  3
Solid line
 72
        65
 73
         1
 40
60.96
 49
60.96
 74
         0
  0
LTYPE
  5
25
100
AcDbSymbolTableRecord
100
AcDbLinetypeTableRecord
  2
HIDDEN
 70
        64
  3
Hidden __ __ __ __ __ __ __ __ __ __ __ __ __ __
 72
        65
 73
         2
 40
1.905
 49
1.27
 74
         0
 49
-0.635
 74
         0
  0
LTYPE
  5
26
100
AcDbSymbolTableRecord
100
AcDbLinetypeTableRecord
  2
PHANTOM
 70
        64
  3
Phantom ______  __  __  ______  __  __  ______
 72
        65
 73
         6
 40
12.7
 49
6.35
 74
         0
 49
-1.27
 74
         0
 49
1.27
 74
         0
 49
-1.27
 74
         0
 49
1.27
 74
         0
 49
-1.27
 74
         0
  0
LTYPE
  5
27
100
AcDbSymbolTableRecord
100
AcDbLinetypeTableRecord
  2
CENTER
 70
        64
  3
Center ____ _ ____ _ ____ _ ____ _ ____ _ ____
 72
        65
 73
         4
 40
10.16
 49
6.35
 74
         0
 49
-1.27
 74
         0
 49
1.27
 74
         0
 49
-1.27
 74
         0
  0
LTYPE
  5
28
100
AcDbSymbolTableRecord
100
AcDbLinetypeTableRecord
  2
CENTERX2
 70
        64
  3
Center (2x) ________  __  ________  __  _____
 72
        65
 73
         4
 40
20.32
 49
12.7
 74
         0
 49
-2.54
 74
         0
 49
2.54
 74
         0
 49
-2.54
 74
         0
  0
LTYPE
  5
29
100
AcDbSymbolTableRecord
100
AcDbLinetypeTableRecord
  2
DOT2
 70
        64
  3
Dot (.5x) ........................................
 72
        65
 73
         2
 40
0.635
 49
0.0
 74
         0
 49
-0.635
 74
         0
  0
ENDTAB
  0
TABLE
  2
LAYER
  5
2
100
AcDbSymbolTable
 70
         1
  0
LAYER
  5
14
100
AcDbSymbolTableRecord
100
AcDbLayerTableRecord
  2
0
 70
         0
 62
         7
  6
Continuous
290
         1
370
        -3
390
1D
  0
ENDTAB
  0
TABLE
  2
STYLE
  5
3
100
AcDbSymbolTable
 70
         2
  0
STYLE
  5
17
100
AcDbSymbolTableRecord
100
AcDbTextStyleTableRecord
  2
Standard
 70
         0
 40
0.0
 41
1.0
 50
0.0
 71
         0
 42
0.0
  3
txt
  4

  0
STYLE
  5
4A
100
AcDbSymbolTableRecord
100
AcDbTextStyleTableRecord
  2
SLDTEXTSTYLE0
 70
         0
 40
0.0
 41
0.75
 50
0.0
 71
         0
 42
0.0
  3
txt
  4

  0
ENDTAB
  0
TABLE
  2
VIEW
  5
5
100
AcDbSymbolTable
 70
         0
  0
ENDTAB
  0
TABLE
  2
UCS
  5
6
100
AcDbSymbolTable
 70
         0
  0
ENDTAB
  0
TABLE
  2
APPID
  5
8
100
AcDbSymbolTable
 70
         1
  0
APPID
  5
16
100
AcDbSymbolTableRecord
100
AcDbRegAppTableRecord
  2
ACAD
 70
         0
  0
ENDTAB
  0
TABLE
  2
DIMSTYLE
  5
9
100
AcDbSymbolTable
 70
         5
100
AcDbDimStyleTable
 71
         0
  0
DIMSTYLE
105
18
100
AcDbSymbolTableRecord
100
AcDbDimStyleTableRecord
  2
Standard
 70
         0
  3

  4

 40
1.0
 41
0.18
 42
0.0625
 43
0.38
 44
0.18
 45
0.0
 46
0.0
 47
0.0
 48
0.0
 71
         0
 72
         0
 73
         1
 74
         1
 75
         0
 76
         0
 77
         0
 78
         0
 79
         0
140
0.18
141
0.09
142
0.0
143
25.4
144
1.0
145
0.0
146
1.0
147
0.09
148
0.0
170
         0
171
         2
172
         0
173
         0
174
         0
175
         0
176
         0
177
         0
178
         0
179
         0
271
         4
272
         4
273
         2
274
         2
275
         0
276
         0
277
         2
278
        46
279
         0
280
         0
281
         0
282
         0
283
         1
284
         0
285
         0
286
         0
288
         0
340
17
341
0
342
0
343
0
344
0
371
        -2
372
        -2
  0
DIMSTYLE
105
60
100
AcDbSymbolTableRecord
100
AcDbDimStyleTableRecord
  2
SLDDIMSTYLE0
 70
         0
  3

  4

 40
1.0
 41
3.0
 42
0.0625
 43
0.38
 44
1.0
 45
0.0
 46
0.0
 47
0.0
 48
0.0
 71
         0
 72
         0
 73
         1
 74
         1
 75
         0
 76
         0
 77
         0
 78
         8
 79
         0
140
3.5
141
0.09
142
0.0
143
25.4
144
1.0
145
0.0
146
1.0
147
0.875
148
0.0
170
         0
171
         2
172
         0
173
         1
174
         0
175
         0
176
       255
177
       255
178
       255
179
         0
271
         0
272
         4
273
         2
274
         2
275
         0
276
         0
277
         2
278
        46
279
         0
280
         0
281
         0
282
         0
283
         1
284
        12
285
         0
286
         0
288
         0
340
17
341
0
342
0
343
61
344
61
371
        -2
372
        -2
  0
DIMSTYLE
105
6C
100
AcDbSymbolTableRecord
100
AcDbDimStyleTableRecord
  2
SLDDIMSTYLE1
 70
         0
  3

  4

 40
1.0
 41
3.0
 42
0.0625
 43
0.38
 44
1.0
 45
0.0
 46
0.0
 47
0.0
 48
0.0
 71
         0
 72
         0
 73
         1
 74
         1
 75
         0
 76
         0
 77
         0
 78
        12
 79
         0
140
3.5
141
0.09
142
0.0
143
25.4
144
1.0
145
0.0
146
1.0
147
0.875
148
0.0
170
         0
171
         2
172
         0
173
         1
174
         0
175
         0
176
       255
177
       255
178
       255
179
         0
271
         2
272
         4
273
         2
274
         2
275
         0
276
         0
277
         2
278
        46
279
         0
280
         0
281
         0
282
         0
283
         1
284
        12
285
         0
286
         0
288
         0
340
17
341
0
342
0
343
61
344
61
371
        -2
372
        -2
  0
DIMSTYLE
105
B9
100
AcDbSymbolTableRecord
100
AcDbDimStyleTableRecord
  2
SLDDIMSTYLE2
 70
         0
  3

  4

 40
1.0
 41
3.0
 42
0.0625
 43
0.38
 44
1.0
 45
0.0
 46
0.0
 47
0.0
 48
0.0
 71
         0
 72
         0
 73
         1
 74
         1
 75
         0
 76
         0
 77
         0
 78
        12
 79
         0
140
3.5
141
0.09
142
0.0
143
25.4
144
1.0
145
0.0
146
1.0
147
0.875
148
0.0
170
         0
171
         2
172
         1
173
         1
174
         0
175
         0
176
       255
177
       255
178
       255
179
         0
271
         2
272
         4
273
         2
274
         2
275
         0
276
         0
277
         2
278
        46
279
         0
280
         0
281
         0
282
         0
283
         1
284
        12
285
         0
286
         0
288
         0
340
17
341
0
342
0
343
0
344
0
371
        -2
372
        -2
  0
DIMSTYLE
105
F0
100
AcDbSymbolTableRecord
100
AcDbDimStyleTableRecord
  2
SLDDIMSTYLE3
 70
         0
  3

  4

 40
1.0
 41
3.0
 42
0.0625
 43
0.38
 44
1.0
 45
0.0
 46
0.0
 47
0.0
 48
0.0
 71
         0
 72
         0
 73
         1
 74
         1
 75
         0
 76
         0
 77
         0
 78
        12
 79
         0
140
3.5
141
0.09
142
0.0
143
25.4
144
1.0
145
0.0
146
1.0
147
0.875
148
0.0
170
         0
171
         2
172
         0
173
         1
174
         0
175
         0
176
       255
177
       255
178
       255
179
         0
271
         2
272
         4
273
         2
274
         2
275
         0
276
         0
277
         2
278
        46
279
         0
280
         0
281
         0
282
         0
283
         1
284
        12
285
         0
286
         0
288
         0
340
17
341
0
342
0
343
0
344
0
371
        -2
372
        -2
  0
ENDTAB
  0
TABLE
  2
BLOCK_RECORD
  5
1
100
AcDbSymbolTable
 70
        14
  0
BLOCK_RECORD
  5
A
100
AcDbSymbolTableRecord
100
AcDbBlockTableRecord
  2
*MODEL_SPACE
340
20
  0
BLOCK_RECORD
  5
B
100
AcDbSymbolTableRecord
100
AcDbBlockTableRecord
  2
*PAPER_SPACE
340
21
  0
BLOCK_RECORD
  5
5C
100
AcDbSymbolTableRecord
100
AcDbBlockTableRecord
  2
*D0
340
0
  0
BLOCK_RECORD
  5
61
100
AcDbSymbolTableRecord
100
AcDbBlockTableRecord
  2
_NONE
340
0
  0
BLOCK_RECORD
  5
68
100
AcDbSymbolTableRecord
100
AcDbBlockTableRecord
  2
*D2
340
0
  0
BLOCK_RECORD
  5
71
100
AcDbSymbolTableRecord
100
AcDbBlockTableRecord
  2
*D3
340
0
  0
BLOCK_RECORD
  5
79
100
AcDbSymbolTableRecord
100
AcDbBlockTableRecord
  2
*D4
340
0
  0
BLOCK_RECORD
  5
81
100
AcDbSymbolTableRecord
100
AcDbBlockTableRecord
  2
*D5
340
0
  0
BLOCK_RECORD
  5
89
100
AcDbSymbolTableRecord
100
AcDbBlockTableRecord
  2
*D6
340
0
  0
BLOCK_RECORD
  5
91
100
AcDbSymbolTableRecord
100
AcDbBlockTableRecord
  2
*D7
340
0
  0
BLOCK_RECORD
  5
99
100
AcDbSymbolTableRecord
100
AcDbBlockTableRecord
  2
*D8
340
0
  0
BLOCK_RECORD
  5
A1
100
AcDbSymbolTableRecord
100
AcDbBlockTableRecord
  2
*D9
340
0
  0
BLOCK_RECORD
  5
A9
100
AcDbSymbolTableRecord
100
AcDbBlockTableRecord
  2
*D10
340
0
  0
BLOCK_RECORD
  5
B1
100
AcDbSymbolTableRecord
100
AcDbBlockTableRecord
  2
*D11
340
0
  0
BLOCK_RECORD
  5
BE
100
AcDbSymbolTableRecord
100
AcDbBlockTableRecord
  2
*D12
340
0
  0
BLOCK_RECORD
  5
E6
100
AcDbSymbolTableRecord
100
AcDbBlockTableRecord
  2
*D13
340
0
  0
ENDTAB
  0
ENDSEC
  0
SECTION
  2
BLOCKS
  0
BLOCK
  5
D
100
AcDbEntity
  8
0
100
AcDbBlockBegin
  2
*MODEL_SPACE
 70
         0
 10
0.0
 20
0.0
 30
0.0
  3
*MODEL_SPACE
  1

  0
ENDBLK
  5
E
100
AcDbEntity
  8
0
100
AcDbBlockEnd
  0
BLOCK
  5
F
100
AcDbEntity
 67
         1
  8
0
100
AcDbBlockBegin
  2
*PAPER_SPACE
 70
         0
 10
0.0
 20
0.0
 30
0.0
  3
*PAPER_SPACE
  1

  0
ENDBLK
  5
10
100
AcDbEntity
 67
         1
  8
0
100
AcDbBlockEnd
  0
BLOCK
  5
5D
100
AcDbEntity
  8
0
 62
       255
100
AcDbBlockBegin
  2
*D0
 70
         1
 10
0.0
 20
0.0
 30
0.0
  3
*D0
  1

  0
MTEXT
  5
5E
100
AcDbEntity
  8
0
 62
         7
100
AcDbMText
 10
54.9445723291
 20
164.0705865169
 30
0.0
 40
3.5
 41
0.0
 71
         7
 72
         1
  1
0
  7
SLDTEXTSTYLE0
 11
0.0
 21
1.0
 31
0.0
 73
         1
 44
1.0
  0
LINE
  5
5F
100
AcDbEntity
  8
0
100
AcDbLine
 10
53.6666768235
 20
177.762361455
 30
0.0
 11
53.6666768235
 21
168.2412078652
 31
0.0
  0
POINT
  5
64
100
AcDbEntity
  8
0
 62
         7
100
AcDbPoint
 10
53.6666768235
 20
178.762361455
 30
0.0
  0
POINT
  5
65
100
AcDbEntity
  8
0
 62
         7
100
AcDbPoint
 10
53.6666768235
 20
168.2412078652
 30
0.0
  0
ENDBLK
  5
66
100
AcDbEntity
  8
0
100
AcDbBlockEnd
  0
BLOCK
  5
62
100
AcDbEntity
  8
0
100
AcDbBlockBegin
  2
_NONE
 70
         0
 10
0.0
 20
0.0
 30
0.0
  3
_NONE
  1

  0
ENDBLK
  5
63
100
AcDbEntity
  8
0
100
AcDbBlockEnd
  0
BLOCK
  5
69
100
AcDbEntity
  8
0
 62
       255
100
AcDbBlockBegin
  2
*D2
 70
         1
 10
0.0
 20
0.0
 30
0.0
  3
*D2
  1

  0
MTEXT
  5
6A
100
AcDbEntity
  8
0
 62
         7
100
AcDbMText
 10
64.9445723291
 20
161.4874651685
 30
0.0
 40
3.5
 41
0.0
 71
         7
 72
         1
  1
10
  7
SLDTEXTSTYLE0
 11
0.0
 21
1.0
 31
0.0
 73
         1
 44
1.0
  0
LINE
  5
6B
100
AcDbEntity
  8
0
100
AcDbLine
 10
63.6666768235
 20
187.762361455
 30
0.0
 11
63.6666768235
 21
168.2412078652
 31
0.0
  0
POINT
  5
6D
100
AcDbEntity
  8
0
 62
         7
100
AcDbPoint
 10
63.6666768235
 20
188.762361455
 30
0.0
  0
POINT
  5
6E
100
AcDbEntity
  8
0
 62
         7
100
AcDbPoint
 10
63.6666768235
 20
168.2412078652
 30
0.0
  0
ENDBLK
  5
6F
100
AcDbEntity
  8
0
100
AcDbBlockEnd
  0
BLOCK
  5
72
100
AcDbEntity
  8
0
 62
       255
100
AcDbBlockBegin
  2
*D3
 70
         1
 10
0.0
 20
0.0
 30
0.0
  3
*D3
  1

  0
MTEXT
  5
73
100
AcDbEntity
  8
0
 62
         7
100
AcDbMText
 10
86.9445723291
 20
161.4874651685
 30
0.0
 40
3.5
 41
0.0
 71
         7
 72
         1
  1
32
  7
SLDTEXTSTYLE0
 11
0.0
 21
1.0
 31
0.0
 73
         1
 44
1.0
  0
LINE
  5
74
100
AcDbEntity
  8
0
100
AcDbLine
 10
85.6666768235
 20
209.762361455
 30
0.0
 11
85.6666768235
 21
168.2412078652
 31
0.0
  0
POINT
  5
75
100
AcDbEntity
  8
0
 62
         7
100
AcDbPoint
 10
85.6666768235
 20
210.762361455
 30
0.0
  0
POINT
  5
76
100
AcDbEntity
  8
0
 62
         7
100
AcDbPoint
 10
85.6666768235
 20
168.2412078652
 30
0.0
  0
ENDBLK
  5
77
100
AcDbEntity
  8
0
100
AcDbBlockEnd
  0
BLOCK
  5
7A
100
AcDbEntity
  8
0
 62
       255
100
AcDbBlockBegin
  2
*D4
 70
         1
 10
0.0
 20
0.0
 30
0.0
  3
*D4
  1

  0
MTEXT
  5
7B
100
AcDbEntity
  8
0
 62
         7
100
AcDbMText
 10
144.9445723291
 20
161.4874651685
 30
0.0
 40
3.5
 41
0.0
 71
         7
 72
         1
  1
90
  7
SLDTEXTSTYLE0
 11
0.0
 21
1.0
 31
0.0
 73
         1
 44
1.0
  0
LINE
  5
7C
100
AcDbEntity
  8
0
100
AcDbLine
 10
143.6666768235
 20
227.762361455
 30
0.0
 11
143.6666768235
 21
168.2412078652
 31
0.0
  0
POINT
  5
7D
100
AcDbEntity
  8
0
 62
         7
100
AcDbPoint
 10
143.6666768235
 20
228.762361455
 30
0.0
  0
POINT
  5
7E
100
AcDbEntity
  8
0
 62
         7
100
AcDbPoint
 10
143.6666768235
 20
168.2412078652
 30
0.0
  0
ENDBLK
  5
7F
100
AcDbEntity
  8
0
100
AcDbBlockEnd
  0
BLOCK
  5
82
100
AcDbEntity
  8
0
 62
       255
100
AcDbBlockBegin
  2
*D5
 70
         1
 10
0.0
 20
0.0
 30
0.0
  3
*D5
  1

  0
MTEXT
  5
83
100
AcDbEntity
  8
0
 62
         7
100
AcDbMText
 10
154.9445723291
 20
158.9043438202
 30
0.0
 40
3.5
 41
0.0
 71
         7
 72
         1
  1
100
  7
SLDTEXTSTYLE0
 11
0.0
 21
1.0
 31
0.0
 73
         1
 44
1.0
  0
LINE
  5
84
100
AcDbEntity
  8
0
100
AcDbLine
 10
153.6666768235
 20
177.762361455
 30
0.0
 11
153.6666768235
 21
168.2412078652
 31
0.0
  0
POINT
  5
85
100
AcDbEntity
  8
0
 62
         7
100
AcDbPoint
 10
153.6666768235
 20
178.762361455
 30
0.0
  0
POINT
  5
86
100
AcDbEntity
  8
0
 62
         7
100
AcDbPoint
 10
153.6666768235
 20
168.2412078652
 30
0.0
  0
ENDBLK
  5
87
100
AcDbEntity
  8
0
100
AcDbBlockEnd
  0
BLOCK
  5
8A
100
AcDbEntity
  8
0
 62
       255
100
AcDbBlockBegin
  2
*D6
 70
         1
 10
0.0
 20
0.0
 30
0.0
  3
*D6
  1

  0
MTEXT
  5
8B
100
AcDbEntity
  8
0
 62
         7
100
AcDbMText
 10
171.8273876404
 20
177.4844659493
 30
0.0
 40
3.5
 41
0.0
 71
         7
 72
         1
  1
0
  7
SLDTEXTSTYLE0
 73
         1
 44
1.0
  0
LINE
  5
8C
100
AcDbEntity
  8
0
100
AcDbLine
 10
154.6666768235
 20
178.762361455
 30
0.0
 11
170.2398876404
 21
178.762361455
 31
0.0
  0
POINT
  5
8D
100
AcDbEntity
  8
0
 62
         7
100
AcDbPoint
 10
153.6666768235
 20
178.762361455
 30
0.0
  0
POINT
  5
8E
100
AcDbEntity
  8
0
 62
         7
100
AcDbPoint
 10
170.2398876404
 20
178.762361455
 30
0.0
  0
ENDBLK
  5
8F
100
AcDbEntity
  8
0
100
AcDbBlockEnd
  0
BLOCK
  5
92
100
AcDbEntity
  8
0
 62
       255
100
AcDbBlockBegin
  2
*D7
 70
         1
 10
0.0
 20
0.0
 30
0.0
  3
*D7
  1

  0
MTEXT
  5
93
100
AcDbEntity
  8
0
 62
         7
100
AcDbMText
 10
171.8273876404
 20
187.4844659493
 30
0.0
 40
3.5
 41
0.0
 71
         7
 72
         1
  1
10
  7
SLDTEXTSTYLE0
 73
         1
 44
1.0
  0
LINE
  5
94
100
AcDbEntity
  8
0
100
AcDbLine
 10
64.6666768235
 20
188.762361455
 30
0.0
 11
170.2398876404
 21
188.762361455
 31
0.0
  0
POINT
  5
95
100
AcDbEntity
  8
0
 62
         7
100
AcDbPoint
 10
63.6666768235
 20
188.762361455
 30
0.0
  0
POINT
  5
96
100
AcDbEntity
  8
0
 62
         7
100
AcDbPoint
 10
170.2398876404
 20
188.762361455
 30
0.0
  0
ENDBLK
  5
97
100
AcDbEntity
  8
0
100
AcDbBlockEnd
  0
BLOCK
  5
9A
100
AcDbEntity
  8
0
 62
       255
100
AcDbBlockBegin
  2
*D8
 70
         1
 10
0.0
 20
0.0
 30
0.0
  3
*D8
  1

  0
MTEXT
  5
9B
100
AcDbEntity
  8
0
 62
         7
100
AcDbMText
 10
171.8273876404
 20
209.4844659493
 30
0.0
 40
3.5
 41
0.0
 71
         7
 72
         1
  1
32
  7
SLDTEXTSTYLE0
 73
         1
 44
1.0
  0
LINE
  5
9C
100
AcDbEntity
  8
0
100
AcDbLine
 10
86.6666768235
 20
210.762361455
 30
0.0
 11
170.2398876404
 21
210.762361455
 31
0.0
  0
POINT
  5
9D
100
AcDbEntity
  8
0
 62
         7
100
AcDbPoint
 10
85.6666768235
 20
210.762361455
 30
0.0
  0
POINT
  5
9E
100
AcDbEntity
  8
0
 62
         7
100
AcDbPoint
 10
170.2398876404
 20
210.762361455
 30
0.0
  0
ENDBLK
  5
9F
100
AcDbEntity
  8
0
100
AcDbBlockEnd
  0
BLOCK
  5
A2
100
AcDbEntity
  8
0
 62
       255
100
AcDbBlockBegin
  2
*D9
 70
         1
 10
0.0
 20
0.0
 30
0.0
  3
*D9
  1

  0
MTEXT
  5
A3
100
AcDbEntity
  8
0
 62
         7
100
AcDbMText
 10
171.8273876404
 20
227.4844659493
 30
0.0
 40
3.5
 41
0.0
 71
         7
 72
         1
  1
50
  7
SLDTEXTSTYLE0
 73
         1
 44
1.0
  0
LINE
  5
A4
100
AcDbEntity
  8
0
100
AcDbLine
 10
144.6666768235
 20
228.762361455
 30
0.0
 11
170.2398876404
 21
228.762361455
 31
0.0
  0
POINT
  5
A5
100
AcDbEntity
  8
0
 62
         7
100
AcDbPoint
 10
143.6666768235
 20
228.762361455
 30
0.0
  0
POINT
  5
A6
100
AcDbEntity
  8
0
 62
         7
100
AcDbPoint
 10
170.2398876404
 20
228.762361455
 30
0.0
  0
ENDBLK
  5
A7
100
AcDbEntity
  8
0
100
AcDbBlockEnd
  0
BLOCK
  5
AA
100
AcDbEntity
  8
0
 62
       255
100
AcDbBlockBegin
  2
*D10
 70
         1
 10
0.0
 20
0.0
 30
0.0
  3
*D10
  1

  0
MTEXT
  5
AB
100
AcDbEntity
  8
0
 62
         7
100
AcDbMText
 10
171.8273876404
 20
237.4844659493
 30
0.0
 40
3.5
 41
0.0
 71
         7
 72
         1
  1
60
  7
SLDTEXTSTYLE0
 73
         1
 44
1.0
  0
LINE
  5
AC
100
AcDbEntity
  8
0
100
AcDbLine
 10
154.6666768235
 20
238.762361455
 30
0.0
 11
170.2398876404
 21
238.762361455
 31
0.0
  0
POINT
  5
AD
100
AcDbEntity
  8
0
 62
         7
100
AcDbPoint
 10
153.6666768235
 20
238.762361455
 30
0.0
  0
POINT
  5
AE
100
AcDbEntity
  8
0
 62
         7
100
AcDbPoint
 10
170.2398876404
 20
238.762361455
 30
0.0
  0
ENDBLK
  5
AF
100
AcDbEntity
  8
0
100
AcDbBlockEnd
  0
BLOCK
  5
B2
100
AcDbEntity
  8
0
 62
       255
100
AcDbBlockBegin
  2
*D11
 70
         1
 10
0.0
 20
0.0
 30
0.0
  3
*D11
  1

  0
MTEXT
  5
B3
100
AcDbEntity
  8
0
 62
         7
100
AcDbMText
 10
111.223901132
 20
247.7201978508
 30
0.0
 40
3.5
 41
0.0
 71
         7
 72
         1
  1
%%c
  7
SLDTEXTSTYLE0
 73
         1
 44
1.0
  0
MTEXT
  5
B4
100
AcDbEntity
  8
0
 62
         7
100
AcDbMText
 10
116.2237348398
 20
247.7201978508
 30
0.0
 40
3.5
 41
0.0
 71
         7
 72
         1
  1
8
  7
SLDTEXTSTYLE0
 73
         1
 44
1.0
  0
LINE
  5
B5
100
AcDbEntity
  8
0
100
AcDbLine
 10
87.8018168616
 20
214.1448423518
 30
0.0
 11
108.048901132
 21
246.2201978508
 31
0.0
  0
LINE
  5
B6
100
AcDbEntity
  8
0
100
AcDbLine
 10
83.5315367854
 20
207.3798805581
 30
0.0
 11
87.8018168616
 21
214.1448423518
 31
0.0
  0
LINE
  5
B7
100
AcDbEntity
  8
0
100
AcDbLine
 10
108.048901132
 20
246.2201978508
 30
0.0
 11
120.3943561881
 21
246.2201978508
 31
0.0
  0
SOLID
  5
B8
100
AcDbEntity
  8
0
 62
       255
100
AcDbTrace
 10
87.8018168616
 20
214.1448423518
 30
0.0
 11
89.783700991
 21
216.4414997702
 31
0.0
 12
89.0226427892
 22
216.9219062788
 32
0.0
 13
89.0226427892
 23
216.9219062788
 33
0.0
  0
POINT
  5
BA
100
AcDbEntity
  8
0
 62
         7
100
AcDbPoint
 10
87.8018168616
 20
214.1448423518
 30
0.0
  0
POINT
  5
BB
100
AcDbEntity
  8
0
 62
         7
100
AcDbPoint
 10
83.5315367854
 20
207.3798805581
 30
0.0
  0
ENDBLK
  5
BC
100
AcDbEntity
  8
0
100
AcDbBlockEnd
  0
BLOCK
  5
BF
100
AcDbEntity
  8
0
 62
       255
100
AcDbBlockBegin
  2
*D12
 70
         1
 10
0.0
 20
0.0
 30
0.0
  3
*D12
  1

  0
MTEXT
  5
C0
100
AcDbEntity
  8
0
 62
         7
100
AcDbMText
 10
158.2735685393
 20
254.434916952
 30
0.0
 40
3.5
 41
0.0
 71
         7
 72
         1
  1
2x %%c
  7
SLDTEXTSTYLE0
 73
         1
 44
1.0
  0
MTEXT
  5
C1
100
AcDbEntity
  8
0
 62
         7
100
AcDbMText
 10
169.3851505618
 20
254.434916952
 30
0.0
 40
3.5
 41
0.0
 71
         7
 72
         1
  1
8,50
  7
SLDTEXTSTYLE0
 73
         1
 44
1.0
  0
LINE
  5
C2
100
AcDbEntity
  8
0
100
AcDbLine
 10
145.4836722445
 20
232.6043697371
 30
0.0
 11
155.0985685393
 21
252.934916952
 31
0.0
  0
LINE
  5
C3
100
AcDbEntity
  8
0
100
AcDbLine
 10
141.8496814024
 20
224.9203531728
 30
0.0
 11
145.4836722445
 21
232.6043697371
 31
0.0
  0
LINE
  5
C4
100
AcDbEntity
  8
0
100
AcDbLine
 10
155.0985685393
 20
252.934916952
 30
0.0
 11
180.0116842697
 21
252.934916952
 31
0.0
  0
SOLID
  5
C5
100
AcDbEntity
  8
0
 62
       255
100
AcDbTrace
 10
145.4836722445
 20
232.6043697371
 30
0.0
 11
147.1730581245
 21
235.1239878328
 31
0.0
 12
146.3594563706
 22
235.5087633338
 32
0.0
 13
146.3594563706
 23
235.5087633338
 33
0.0
  0
POINT
  5
C6
100
AcDbEntity
  8
0
 62
         7
100
AcDbPoint
 10
145.4836722445
 20
232.6043697371
 30
0.0
  0
POINT
  5
C7
100
AcDbEntity
  8
0
 62
         7
100
AcDbPoint
 10
141.8496814024
 20
224.9203531728
 30
0.0
  0
ENDBLK
  5
C8
100
AcDbEntity
  8
0
100
AcDbBlockEnd
  0
BLOCK
  5
E7
100
AcDbEntity
  8
0
 62
       255
100
AcDbBlockBegin
  2
*D13
 70
         1
 10
0.0
 20
0.0
 30
0.0
  3
*D13
  1

  0
MTEXT
  5
E8
100
AcDbEntity
  8
0
 62
         7
100
AcDbMText
 10
41.6639325843
 20
136.6509235955
 30
0.0
 40
3.5
 41
0.0
 71
         7
 72
         1
  1
10
  7
SLDTEXTSTYLE0
 11
0.0
 21
1.0
 31
0.0
 73
         1
 44
1.0
  0
LINE
  5
E9
100
AcDbEntity
  8
0
100
AcDbLine
 10
52.6666768235
 20
144.9904494382
 30
0.0
 11
42.1639325843
 21
144.9904494382
 31
0.0
  0
LINE
  5
EA
100
AcDbEntity
  8
0
100
AcDbLine
 10
52.6666768235
 20
134.9904494382
 30
0.0
 11
42.1639325843
 21
134.9904494382
 31
0.0
  0
LINE
  5
EB
100
AcDbEntity
  8
0
100
AcDbLine
 10
43.1639325843
 20
144.9904494382
 30
0.0
 11
43.1639325843
 21
149.9904494382
 31
0.0
  0
LINE
  5
EC
100
AcDbEntity
  8
0
100
AcDbLine
 10
43.1639325843
 20
144.9904494382
 30
0.0
 11
43.1639325843
 21
134.9904494382
 31
0.0
  0
LINE
  5
ED
100
AcDbEntity
  8
0
100
AcDbLine
 10
43.1639325843
 20
134.9904494382
 30
0.0
 11
43.1639325843
 21
129.9904494382
 31
0.0
  0
SOLID
  5
EE
100
AcDbEntity
  8
0
 62
       255
100
AcDbTrace
 10
43.1639325843
 20
144.9904494382
 30
0.0
 11
43.6139325843
 21
147.9904494382
 31
0.0
 12
42.7139325843
 22
147.9904494382
 32
0.0
 13
42.7139325843
 23
147.9904494382
 33
0.0
  0
SOLID
  5
EF
100
AcDbEntity
  8
0
 62
       255
100
AcDbTrace
 10
43.1639325843
 20
134.9904494382
 30
0.0
 11
42.7139325843
 21
131.9904494382
 31
0.0
 12
43.6139325843
 22
131.9904494382
 32
0.0
 13
43.6139325843
 23
131.9904494382
 33
0.0
  0
POINT
  5
F1
100
AcDbEntity
  8
0
 62
         7
100
AcDbPoint
 10
53.6666768235
 20
144.9904494382
 30
0.0
  0
POINT
  5
F2
100
AcDbEntity
  8
0
 62
         7
100
AcDbPoint
 10
53.6666768235
 20
134.9904494382
 30
0.0
  0
ENDBLK
  5
F3
100
AcDbEntity
  8
0
 62
       255
100
AcDbBlockEnd
  0
ENDSEC
  0
SECTION
  2
ENTITIES
  0
LINE
  5
30
100
AcDbEntity
  8
0
370
         0
  6
CENTERX2
 62
         7
100
AcDbLine
 10
15.73913136
 20
46.1706597895
 30
0.0
 11
26.0619197449
 21
46.1706597895
 31
0.0
  0
LINE
  5
31
100
AcDbEntity
  8
0
370
         0
  6
Continuous
 62
         7
100
AcDbLine
 10
12.0
 20
285.0
 30
0.0
 11
198.0
 21
285.0
 31
0.0
  0
LINE
  5
32
100
AcDbEntity
  8
0
370
         0
  6
Continuous
 62
         7
100
AcDbLine
 10
12.0
 20
285.0
 30
0.0
 11
12.0
 21
12.0
 31
0.0
  0
LINE
  5
33
100
AcDbEntity
  8
0
370
         0
  6
Continuous
 62
         7
100
AcDbLine
 10
12.0
 20
12.0
 30
0.0
 11
198.0
 21
12.0
 31
0.0
  0
LINE
  5
34
100
AcDbEntity
  8
0
370
         0
  6
Continuous
 62
         7
100
AcDbLine
 10
198.0
 20
285.0
 30
0.0
 11
198.0
 21
12.0
 31
0.0
  0
LINE
  5
35
100
AcDbEntity
  8
0
370
         0
  6
CENTERX2
 62
         7
100
AcDbLine
 10
38.3005650963
 20
46.1706597895
 30
0.0
 11
30.2291345052
 21
46.1706597895
 31
0.0
  0
LINE
  5
36
100
AcDbEntity
  8
0
370
         0
  6
CENTERX2
 62
         7
100
AcDbLine
 10
34.2648498008
 20
49.1829176886
 30
0.0
 11
34.2648498008
 21
43.1584018904
 31
0.0
  0
LINE
  5
37
100
AcDbEntity
  8
0
370
         0
  6
Continuous
 62
         7
100
AcDbLine
 10
17.9511574424
 20
45.0227523149
 30
0.0
 11
17.9511574424
 21
47.3185672641
 31
0.0
  0
LINE
  5
38
100
AcDbEntity
  8
0
370
         0
  6
Continuous
 62
         7
100
AcDbLine
 10
17.9511574424
 20
47.3185672641
 30
0.0
 11
23.0203838815
 21
48.8854190726
 31
0.0
  0
LINE
  5
39
100
AcDbEntity
  8
0
370
         0
  6
Continuous
 62
         7
100
AcDbLine
 10
23.0203838815
 20
48.8854190726
 30
0.0
 11
23.0203838815
 21
43.4559005065
 31
0.0
  0
LINE
  5
3A
100
AcDbEntity
  8
0
370
         0
  6
Continuous
 62
         7
100
AcDbLine
 10
23.0203838815
 20
43.4559005065
 30
0.0
 11
17.9511574424
 21
45.0227523149
 31
0.0
  0
LINE
  5
3B
100
AcDbEntity
  8
0
370
         0
  6
Continuous
 62
         7
100
AcDbLine
 10
198.0
 20
53.1939488102
 30
0.0
 11
12.0
 21
53.1939488102
 31
0.0
  0
LINE
  5
3C
100
AcDbEntity
  8
0
370
         0
  6
Continuous
 62
         7
100
AcDbLine
 10
148.3249993699
 20
53.1939488102
 30
0.0
 11
148.3249993699
 21
29.806982774
 31
0.0
  0
LINE
  5
3D
100
AcDbEntity
  8
0
370
         0
  6
Continuous
 62
         7
100
AcDbLine
 10
198.0
 20
12.0
 30
0.0
 11
70.4401626767
 21
12.0
 31
0.0
  0
LINE
  5
3E
100
AcDbEntity
  8
0
370
         0
  6
Continuous
 62
         7
100
AcDbLine
 10
198.0
 20
12.0
 30
0.0
 11
198.0
 21
29.806982774
 31
0.0
  0
LINE
  5
3F
100
AcDbEntity
  8
0
370
         0
  6
Continuous
 62
         7
100
AcDbLine
 10
198.0
 20
29.806982774
 30
0.0
 11
70.4401626767
 21
29.806982774
 31
0.0
  0
LINE
  5
40
100
AcDbEntity
  8
0
370
         0
  6
Continuous
 62
         7
100
AcDbLine
 10
70.4401626767
 20
12.0
 30
0.0
 11
70.4401626767
 21
29.806982774
 31
0.0
  0
LINE
  5
41
100
AcDbEntity
  8
0
370
         0
  6
Continuous
 62
         7
100
AcDbLine
 10
70.4401626767
 20
12.0
 30
0.0
 11
12.0
 21
12.0
 31
0.0
  0
LINE
  5
42
100
AcDbEntity
  8
0
370
         0
  6
Continuous
 62
         7
100
AcDbLine
 10
70.4401626767
 20
12.0
 30
0.0
 11
70.4401626767
 21
53.1939488102
 31
0.0
  0
LINE
  5
43
100
AcDbEntity
  8
0
370
         0
  6
Continuous
 62
         7
100
AcDbLine
 10
70.4401626767
 20
53.1939488102
 30
0.0
 11
12.0
 21
53.1939488102
 31
0.0
  0
LINE
  5
44
100
AcDbEntity
  8
0
370
         0
  6
Continuous
 62
         7
100
AcDbLine
 10
12.0
 20
12.0
 30
0.0
 11
12.0
 21
53.1939488102
 31
0.0
  0
LINE
  5
45
100
AcDbEntity
  8
0
370
         0
  6
Continuous
 62
         7
100
AcDbLine
 10
148.3249993699
 20
41.5004657921
 30
0.0
 11
198.0
 21
41.5004657921
 31
0.0
  0
LINE
  5
46
100
AcDbEntity
  8
0
370
         0
  6
Continuous
 62
         7
100
AcDbLine
 10
148.3249993699
 20
41.5004657921
 30
0.0
 11
70.4401626767
 21
41.5004657921
 31
0.0
  0
LINE
  5
47
100
AcDbEntity
  8
0
370
         0
  6
Continuous
 62
         7
100
AcDbLine
 10
70.4401626767
 20
32.5969744051
 30
0.0
 11
12.0
 21
32.5969744051
 31
0.0
  0
CIRCLE
  5
48
100
AcDbEntity
  8
0
370
         0
  6
Continuous
 62
         5
100
AcDbCircle
 10
34.2648498008
 20
46.1706597895
 30
0.0
 40
3.1391205675
  0
CIRCLE
  5
49
100
AcDbEntity
  8
0
370
         0
  6
Continuous
 62
         5
100
AcDbCircle
 10
34.2648498008
 20
46.1706597895
 30
0.0
 40
1.5
  0
MTEXT
  5
4B
100
AcDbEntity
  8
0
 62
         7
100
AcDbMText
 10
90.5361554048
 20
21.8783954377
 30
0.0
 40
5.2916666667
 41
0.0
 71
         1
 72
         1
  1
ARL-ST02-03-A-COUVERCLE
  7
SLDTEXTSTYLE0
 73
         1
 44
1.0
  0
MTEXT
  5
4C
100
AcDbEntity
  8
0
 62
         7
100
AcDbMText
 10
159.1208968099
 20
37.4920483588
 30
0.0
 40
3.5
 41
0.0
 71
         1
 72
         1
  1
26/01/2023
  7
SLDTEXTSTYLE0
 73
         1
 44
1.0
  0
MTEXT
  5
4D
100
AcDbEntity
  8
0
 62
         7
100
AcDbMText
 10
55.1629009346
 20
51.3483733122
 30
0.0
 40
3.5
 41
0.0
 71
         2
 72
         1
  1
A4 \PEchelle 1:1
  7
SLDTEXTSTYLE0
 73
         1
 44
1.0
  0
MTEXT
  5
4E
100
AcDbEntity
  8
0
 62
         7
100
AcDbMText
 10
24.8311285925
 20
39.5428577037
 30
0.0
 40
3.5
 41
0.0
 71
         1
 72
         1
  1
Tol Gén: +/-0.2
  7
SLDTEXTSTYLE0
 73
         1
 44
1.0
  0
MTEXT
  5
4F
100
AcDbEntity
  8
0
 62
         7
100
AcDbMText
 10
71.9255642628
 20
28.7484840676
 30
0.0
 40
3.5
 41
0.0
 71
         1
 72
         1
  1
Désignation:
  7
SLDTEXTSTYLE0
 73
         1
 44
1.0
  0
MTEXT
  5
50
100
AcDbEntity
  8
0
 62
         7
100
AcDbMText
 10
71.5883486038
 20
38.4908095824
 30
0.0
 40
3.5
 41
0.0
 71
         1
 72
         1
  1
Observation:
  7
SLDTEXTSTYLE0
 73
         1
 44
1.0
  0
MTEXT
  5
51
100
AcDbEntity
  8
0
 62
         7
100
AcDbMText
 10
72.052519555
 20
50.0312998863
 30
0.0
 40
3.5
 41
0.0
 71
         1
 72
         1
  1
Matière:
  7
SLDTEXTSTYLE0
 73
         1
 44
1.0
  0
MTEXT
  5
52
100
AcDbEntity
  8
0
 62
         7
100
AcDbMText
 10
152.20665097
 20
50.1889458277
 30
0.0
 40
3.5
 41
0.0
 71
         1
 72
         1
  1
Quantité:
  7
SLDTEXTSTYLE0
 73
         1
 44
1.0
  0
MTEXT
  5
53
100
AcDbEntity
  8
0
 62
         7
100
AcDbMText
 10
182.1799712454
 20
50.6741546648
 30
0.0
 40
3.5
 41
0.0
 71
         1
 72
         1
  1
02
  7
SLDTEXTSTYLE0
 73
         1
 44
1.0
  0
MTEXT
  5
54
100
AcDbEntity
  8
0
 62
         7
100
AcDbMText
 10
98.9461171982
 20
50.2647551309
 30
0.0
 40
3.5
 41
0.0
 71
         1
 72
         1
  1
Alu 2017A-AU4G
  7
SLDTEXTSTYLE0
 73
         1
 44
1.0
  0
CIRCLE
  5
55
100
AcDbEntity
  8
0
370
        15
  6
Continuous
 62
         7
100
AcDbCircle
 10
63.6666768235
 20
188.762361455
 30
0.0
 40
4.25
  0
CIRCLE
  5
56
100
AcDbEntity
  8
0
370
        15
  6
Continuous
 62
         7
100
AcDbCircle
 10
143.6666768235
 20
228.762361455
 30
0.0
 40
4.25
  0
CIRCLE
  5
57
100
AcDbEntity
  8
0
370
        15
  6
Continuous
 62
         7
100
AcDbCircle
 10
85.6666768235
 20
210.762361455
 30
0.0
 40
4.0
  0
LINE
  5
58
100
AcDbEntity
  8
0
370
        15
  6
Continuous
 62
         7
100
AcDbLine
 10
153.6666775685
 20
178.7623621255
 30
0.0
 11
53.6666760784
 21
178.7623621255
 31
0.0
  0
LINE
  5
59
100
AcDbEntity
  8
0
370
        15
  6
Continuous
 62
         7
100
AcDbLine
 10
153.6666775685
 20
238.7623607844
 30
0.0
 11
153.6666775685
 21
178.7623621255
 31
0.0
  0
LINE
  5
5A
100
AcDbEntity
  8
0
370
        15
  6
Continuous
 62
         7
100
AcDbLine
 10
53.6666760784
 20
238.7623607844
 30
0.0
 11
153.6666775685
 21
238.7623607844
 31
0.0
  0
LINE
  5
5B
100
AcDbEntity
  8
0
370
        15
  6
Continuous
 62
         7
100
AcDbLine
 10
53.6666760784
 20
178.7623621255
 30
0.0
 11
53.6666760784
 21
238.7623607844
 31
0.0
  0
DIMENSION
  5
67
100
AcDbEntity
  8
0
100
AcDbDimension
  2
*D0
 10
53.6666768235
 20
178.762361455
 30
0.0
 11
53.6666768235
 21
168.2412078652
 31
0.0
 70
       230
 71
         5
 72
         1
 41
1.0
 42
0.0
  3
SLDDIMSTYLE0
100
AcDbOrdinateDimension
 13
53.6666768235
 23
178.762361455
 33
0.0
 14
53.6666768235
 24
168.2412078652
 34
0.0
  0
DIMENSION
  5
70
100
AcDbEntity
  8
0
100
AcDbDimension
  2
*D2
 10
53.6666768235
 20
178.762361455
 30
0.0
 11
63.6666768235
 21
168.2412078652
 31
0.0
 70
       230
 71
         5
 72
         1
 41
1.0
 42
0.0
  3
SLDDIMSTYLE1
100
AcDbOrdinateDimension
 13
63.6666768235
 23
188.762361455
 33
0.0
 14
63.6666768235
 24
168.2412078652
 34
0.0
  0
DIMENSION
  5
78
100
AcDbEntity
  8
0
100
AcDbDimension
  2
*D3
 10
53.6666768235
 20
178.762361455
 30
0.0
 11
85.6666768235
 21
168.2412078652
 31
0.0
 70
       230
 71
         5
 72
         1
 41
1.0
 42
0.0
  3
SLDDIMSTYLE1
100
AcDbOrdinateDimension
 13
85.6666768235
 23
210.762361455
 33
0.0
 14
85.6666768235
 24
168.2412078652
 34
0.0
  0
DIMENSION
  5
80
100
AcDbEntity
  8
0
100
AcDbDimension
  2
*D4
 10
53.6666768235
 20
178.762361455
 30
0.0
 11
143.6666768235
 21
168.2412078652
 31
0.0
 70
       230
 71
         5
 72
         1
 41
1.0
 42
0.0
  3
SLDDIMSTYLE1
100
AcDbOrdinateDimension
 13
143.6666768235
 23
228.762361455
 33
0.0
 14
143.6666768235
 24
168.2412078652
 34
0.0
  0
DIMENSION
  5
88
100
AcDbEntity
  8
0
100
AcDbDimension
  2
*D5
 10
53.6666768235
 20
178.762361455
 30
0.0
 11
153.6666768235
 21
168.2412078652
 31
0.0
 70
       230
 71
         5
 72
         1
 41
1.0
 42
0.0
  3
SLDDIMSTYLE1
100
AcDbOrdinateDimension
 13
153.6666768235
 23
178.762361455
 33
0.0
 14
153.6666768235
 24
168.2412078652
 34
0.0
  0
DIMENSION
  5
90
100
AcDbEntity
  8
0
100
AcDbDimension
  2
*D6
 10
153.6666768235
 20
178.762361455
 30
0.0
 11
170.2398876404
 21
178.762361455
 31
0.0
 70
       166
 71
         5
 72
         1
 41
1.0
 42
0.0
  3
SLDDIMSTYLE0
100
AcDbOrdinateDimension
 13
153.6666768235
 23
178.762361455
 33
0.0
 14
170.2398876404
 24
178.762361455
 34
0.0
  0
DIMENSION
  5
98
100
AcDbEntity
  8
0
100
AcDbDimension
  2
*D7
 10
153.6666768235
 20
178.762361455
 30
0.0
 11
170.2398876404
 21
188.762361455
 31
0.0
 70
       166
 71
         5
 72
         1
 41
1.0
 42
0.0
  3
SLDDIMSTYLE1
100
AcDbOrdinateDimension
 13
63.6666768235
 23
188.762361455
 33
0.0
 14
170.2398876404
 24
188.762361455
 34
0.0
  0
DIMENSION
  5
A0
100
AcDbEntity
  8
0
100
AcDbDimension
  2
*D8
 10
153.6666768235
 20
178.762361455
 30
0.0
 11
170.2398876404
 21
210.762361455
 31
0.0
 70
       166
 71
         5
 72
         1
 41
1.0
 42
0.0
  3
SLDDIMSTYLE1
100
AcDbOrdinateDimension
 13
85.6666768235
 23
210.762361455
 33
0.0
 14
170.2398876404
 24
210.762361455
 34
0.0
  0
DIMENSION
  5
A8
100
AcDbEntity
  8
0
100
AcDbDimension
  2
*D9
 10
153.6666768235
 20
178.762361455
 30
0.0
 11
170.2398876404
 21
228.762361455
 31
0.0
 70
       166
 71
         5
 72
         1
 41
1.0
 42
0.0
  3
SLDDIMSTYLE1
100
AcDbOrdinateDimension
 13
143.6666768235
 23
228.762361455
 33
0.0
 14
170.2398876404
 24
228.762361455
 34
0.0
  0
DIMENSION
  5
B0
100
AcDbEntity
  8
0
100
AcDbDimension
  2
*D10
 10
153.6666768235
 20
178.762361455
 30
0.0
 11
170.2398876404
 21
238.762361455
 31
0.0
 70
       166
 71
         5
 72
         1
 41
1.0
 42
0.0
  3
SLDDIMSTYLE1
100
AcDbOrdinateDimension
 13
153.6666768235
 23
238.762361455
 33
0.0
 14
170.2398876404
 24
238.762361455
 34
0.0
  0
DIMENSION
  5
BD
100
AcDbEntity
  8
0
100
AcDbDimension
  2
*D11
 10
83.5315367854
 20
207.3798805581
 30
0.0
 11
115.01537866
 21
248.9980933564
 31
0.0
 70
       163
 71
         5
 72
         1
 41
1.0
 42
0.0
  1
<>
  3
SLDDIMSTYLE2
100
AcDbDiametricDimension
 15
87.8018168616
 25
214.1448423518
 35
0.0
 40
0.0
  0
DIMENSION
  5
C9
100
AcDbEntity
  8
0
100
AcDbDimension
  2
*D12
 10
141.8496814024
 20
224.9203531728
 30
0.0
 11
168.3488764045
 21
255.7128124576
 31
0.0
 70
       163
 71
         5
 72
         1
 41
1.0
 42
0.0
  1
2x <>
  3
SLDDIMSTYLE2
100
AcDbDiametricDimension
 15
145.4836722445
 25
232.6043697371
 35
0.0
 40
0.0
  0
LINE
  5
CA
100
AcDbEntity
  8
0
  6
Continuous
 62
         7
100
AcDbLine
 10
61.1666768235
 20
188.762361455
 30
0.0
 11
66.1666768235
 21
188.762361455
 31
0.0
  0
LINE
  5
CB
100
AcDbEntity
  8
0
  6
Continuous
 62
         7
100
AcDbLine
 10
63.6666768235
 20
186.262361455
 30
0.0
 11
63.6666768235
 21
191.262361455
 31
0.0
  0
LINE
  5
CC
100
AcDbEntity
  8
0
  6
Continuous
 62
         7
100
AcDbLine
 10
68.6666768235
 20
188.762361455
 30
0.0
 11
70.4166768235
 21
188.762361455
 31
0.0
  0
LINE
  5
CD
100
AcDbEntity
  8
0
  6
Continuous
 62
         7
100
AcDbLine
 10
58.6666768235
 20
188.762361455
 30
0.0
 11
56.9166768235
 21
188.762361455
 31
0.0
  0
LINE
  5
CE
100
AcDbEntity
  8
0
  6
Continuous
 62
         7
100
AcDbLine
 10
63.6666768235
 20
193.762361455
 30
0.0
 11
63.6666768235
 21
195.512361455
 31
0.0
  0
LINE
  5
CF
100
AcDbEntity
  8
0
  6
Continuous
 62
         7
100
AcDbLine
 10
63.6666768235
 20
183.762361455
 30
0.0
 11
63.6666768235
 21
182.012361455
 31
0.0
  0
LINE
  5
D0
100
AcDbEntity
  8
0
  6
Continuous
 62
         7
100
AcDbLine
 10
83.1666768235
 20
210.762361455
 30
0.0
 11
88.1666768235
 21
210.762361455
 31
0.0
  0
LINE
  5
D1
100
AcDbEntity
  8
0
  6
Continuous
 62
         7
100
AcDbLine
 10
85.6666768235
 20
208.262361455
 30
0.0
 11
85.6666768235
 21
213.262361455
 31
0.0
  0
LINE
  5
D2
100
AcDbEntity
  8
0
  6
Continuous
 62
         7
100
AcDbLine
 10
90.6666768235
 20
210.762361455
 30
0.0
 11
92.1666768235
 21
210.762361455
 31
0.0
  0
LINE
  5
D3
100
AcDbEntity
  8
0
  6
Continuous
 62
         7
100
AcDbLine
 10
80.6666768235
 20
210.762361455
 30
0.0
 11
79.1666768235
 21
210.762361455
 31
0.0
  0
LINE
  5
D4
100
AcDbEntity
  8
0
  6
Continuous
 62
         7
100
AcDbLine
 10
85.6666768235
 20
215.762361455
 30
0.0
 11
85.6666768235
 21
217.262361455
 31
0.0
  0
LINE
  5
D5
100
AcDbEntity
  8
0
  6
Continuous
 62
         7
100
AcDbLine
 10
85.6666768235
 20
205.762361455
 30
0.0
 11
85.6666768235
 21
204.262361455
 31
0.0
  0
LINE
  5
D6
100
AcDbEntity
  8
0
  6
Continuous
 62
         7
100
AcDbLine
 10
141.1666768235
 20
228.762361455
 30
0.0
 11
146.1666768235
 21
228.762361455
 31
0.0
  0
LINE
  5
D7
100
AcDbEntity
  8
0
  6
Continuous
 62
         7
100
AcDbLine
 10
143.6666768235
 20
226.262361455
 30
0.0
 11
143.6666768235
 21
231.262361455
 31
0.0
  0
LINE
  5
D8
100
AcDbEntity
  8
0
  6
Continuous
 62
         7
100
AcDbLine
 10
148.6666768235
 20
228.762361455
 30
0.0
 11
150.4166768235
 21
228.762361455
 31
0.0
  0
LINE
  5
D9
100
AcDbEntity
  8
0
  6
Continuous
 62
         7
100
AcDbLine
 10
138.6666768235
 20
228.762361455
 30
0.0
 11
136.9166768235
 21
228.762361455
 31
0.0
  0
LINE
  5
DA
100
AcDbEntity
  8
0
  6
Continuous
 62
         7
100
AcDbLine
 10
143.6666768235
 20
233.762361455
 30
0.0
 11
143.6666768235
 21
235.512361455
 31
0.0
  0
LINE
  5
DB
100
AcDbEntity
  8
0
  6
Continuous
 62
         7
100
AcDbLine
 10
143.6666768235
 20
223.762361455
 30
0.0
 11
143.6666768235
 21
222.012361455
 31
0.0
  0
LINE
  5
DC
100
AcDbEntity
  8
0
370
        15
  6
Continuous
 62
         7
100
AcDbLine
 10
53.6666760784
 20
144.9904492147
 30
0.0
 11
153.6666775685
 21
144.9904492147
 31
0.0
  0
LINE
  5
DD
100
AcDbEntity
  8
0
370
        15
  6
Continuous
 62
         7
100
AcDbLine
 10
153.6666775685
 20
144.9904492147
 30
0.0
 11
153.6666775685
 21
134.9904494382
 31
0.0
  0
LINE
  5
DE
100
AcDbEntity
  8
0
370
        15
  6
Continuous
 62
         7
100
AcDbLine
 10
53.6666760784
 20
134.9904494382
 30
0.0
 11
153.6666775685
 21
134.9904494382
 31
0.0
  0
LINE
  5
DF
100
AcDbEntity
  8
0
370
        15
  6
Continuous
 62
         7
100
AcDbLine
 10
53.6666760784
 20
144.9904492147
 30
0.0
 11
53.6666760784
 21
134.9904494382
 31
0.0
  0
LINE
  5
E0
100
AcDbEntity
  8
0
370
         0
  6
HIDDEN
 62
         9
100
AcDbLine
 10
147.9166770917
 20
134.9904494382
 30
0.0
 11
147.9166770917
 21
144.9904492147
 31
0.0
  0
LINE
  5
E1
100
AcDbEntity
  8
0
370
         0
  6
HIDDEN
 62
         9
100
AcDbLine
 10
139.4166784924
 20
144.9904492147
 30
0.0
 11
139.4166784924
 21
134.9904494382
 31
0.0
  0
LINE
  5
E2
100
AcDbEntity
  8
0
370
         0
  6
HIDDEN
 62
         9
100
AcDbLine
 10
89.6666763913
 20
134.9904494382
 30
0.0
 11
89.6666763913
 21
144.9904492147
 31
0.0
  0
LINE
  5
E3
100
AcDbEntity
  8
0
370
         0
  6
HIDDEN
 62
         9
100
AcDbLine
 10
81.6666769427
 20
144.9904492147
 30
0.0
 11
81.6666769427
 21
134.9904494382
 31
0.0
  0
LINE
  5
E4
100
AcDbEntity
  8
0
370
         0
  6
HIDDEN
 62
         9
100
AcDbLine
 10
67.9166751545
 20
134.9904494382
 30
0.0
 11
67.9166751545
 21
144.9904492147
 31
0.0
  0
LINE
  5
E5
100
AcDbEntity
  8
0
370
         0
  6
HIDDEN
 62
         9
100
AcDbLine
 10
59.4166765552
 20
144.9904492147
 30
0.0
 11
59.4166765552
 21
134.9904494382
 31
0.0
  0
DIMENSION
  5
F4
100
AcDbEntity
  8
0
 62
       255
100
AcDbDimension
  2
*D13
 10
43.1639325843
 20
134.9904494382
 30
0.0
 11
43.1639325843
 21
139.2340449438
 31
0.0
 70
       160
 71
         5
 72
         1
 41
1.0
 42
0.0
  3
SLDDIMSTYLE3
100
AcDbAlignedDimension
 13
53.6666768235
 23
144.9904494382
 33
0.0
 14
53.6666768235
 24
134.9904494382
 34
0.0
 50
90.0
100
AcDbRotatedDimension
  0
LINE
  5
F5
100
AcDbEntity
  8
0
370
        15
  6
Continuous
 62
         7
100
AcDbLine
 10
72.8756814065
 20
110.3283241084
 30
0.0
 11
137.2707364925
 21
110.3283241084
 31
0.0
  0
LINE
  5
F6
100
AcDbEntity
  8
0
370
        15
  6
Continuous
 62
         7
100
AcDbLine
 10
137.2707364925
 20
110.3283241084
 30
0.0
 11
132.0943555904
 21
75.687307957
 31
0.0
  0
LINE
  5
F7
100
AcDbEntity
  8
0
370
        15
  6
Continuous
 62
         7
100
AcDbLine
 10
132.0943555904
 20
75.687307957
 30
0.0
 11
67.6993005045
 21
75.687307957
 31
0.0
  0
LINE
  5
F8
100
AcDbEntity
  8
0
370
        15
  6
Continuous
 62
         7
100
AcDbLine
 10
67.6993005045
 20
75.687307957
 30
0.0
 11
72.8756814065
 21
110.3283241084
 31
0.0
  0
POLYLINE
  5
F9
100
AcDbEntity
  8
0
370
        15
  6
Continuous
 62
         7
100
AcDb2dPolyline
 66
         1
 10
0.0
 20
0.0
 30
0.0
 70
       128
  0
VERTEX
  5
FA
100
AcDbEntity
  8
0
100
AcDbVertex
100
AcDb2dVertex
 10
74.6348758495
 20
79.0070720049
 30
0.0
  0
VERTEX
  5
FB
100
AcDbEntity
  8
0
100
AcDbVertex
100
AcDb2dVertex
 10
75.1026696526
 20
79.0423668015
 30
0.0
  0
VERTEX
  5
FC
100
AcDbEntity
  8
0
100
AcDbVertex
100
AcDb2dVertex
 10
75.5675540292
 20
79.1472358244
 30
0.0
  0
VERTEX
  5
FD
100
AcDbEntity
  8
0
100
AcDbVertex
100
AcDb2dVertex
 10
76.0161551025
 20
79.3186621826
 30
0.0
  0
VERTEX
  5
FE
100
AcDbEntity
  8
0
100
AcDbVertex
100
AcDb2dVertex
 10
76.4355674361
 20
79.5517142521
 30
0.0
  0
VERTEX
  5
FF
100
AcDbEntity
  8
0
100
AcDbVertex
100
AcDb2dVertex
 10
76.813725301
 20
79.839687549
 30
0.0
  0
VERTEX
  5
100
100
AcDbEntity
  8
0
100
AcDbVertex
100
AcDb2dVertex
 10
77.1397497838
 20
80.1742976059
 30
0.0
  0
VERTEX
  5
101
100
AcDbEntity
  8
0
100
AcDbVertex
100
AcDb2dVertex
 10
77.4042617539
 20
80.5459183007
 30
0.0
  0
VERTEX
  5
102
100
AcDbEntity
  8
0
100
AcDbVertex
100
AcDb2dVertex
 10
77.5996516833
 20
80.9438587826
 30
0.0
  0
VERTEX
  5
103
100
AcDbEntity
  8
0
100
AcDbVertex
100
AcDb2dVertex
 10
77.7202985595
 20
81.3566710285
 30
0.0
  0
VERTEX
  5
104
100
AcDbEntity
  8
0
100
AcDbVertex
100
AcDb2dVertex
 10
77.7627315917
 20
81.7724791817
 30
0.0
  0
VERTEX
  5
105
100
AcDbEntity
  8
0
100
AcDbVertex
100
AcDb2dVertex
 10
77.7257300587
 20
82.1793211987
 30
0.0
  0
VERTEX
  5
106
100
AcDbEntity
  8
0
100
AcDbVertex
100
AcDb2dVertex
 10
77.6103584273
 20
82.5654929753
 30
0.0
  0
VERTEX
  5
107
100
AcDbEntity
  8
0
100
AcDbVertex
100
AcDb2dVertex
 10
77.4199357292
 20
82.9198850527
 30
0.0
  0
VERTEX
  5
108
100
AcDbEntity
  8
0
100
AcDbVertex
100
AcDb2dVertex
 10
77.1599400788
 20
83.232302216
 30
0.0
  0
VERTEX
  5
109
100
AcDbEntity
  8
0
100
AcDbVertex
100
AcDb2dVertex
 10
76.8378510775
 20
83.4937567922
 30
0.0
  0
VERTEX
  5
10A
100
AcDbEntity
  8
0
100
AcDbVertex
100
AcDb2dVertex
 10
76.4629346395
 20
83.6967272093
 30
0.0
  0
VERTEX
  5
10B
100
AcDbEntity
  8
0
100
AcDbVertex
100
AcDb2dVertex
 10
76.0459764281
 20
83.8353743779
 30
0.0
  0
VERTEX
  5
10C
100
AcDbEntity
  8
0
100
AcDbVertex
100
AcDb2dVertex
 10
75.5989715719
 20
83.9057096714
 30
0.0
  0
VERTEX
  5
10D
100
AcDbEntity
  8
0
100
AcDbVertex
100
AcDb2dVertex
 10
75.1347795868
 20
83.9057096714
 30
0.0
  0
VERTEX
  5
10E
100
AcDbEntity
  8
0
100
AcDbVertex
100
AcDb2dVertex
 10
74.6667544309
 20
83.8353743779
 30
0.0
  0
VERTEX
  5
10F
100
AcDbEntity
  8
0
100
AcDbVertex
100
AcDb2dVertex
 10
74.208360336
 20
83.6967272093
 30
0.0
  0
VERTEX
  5
110
100
AcDbEntity
  8
0
100
AcDbVertex
100
AcDb2dVertex
 10
73.7727844655
 20
83.4937567922
 30
0.0
  0
VERTEX
  5
111
100
AcDbEntity
  8
0
100
AcDbVertex
100
AcDb2dVertex
 10
73.3725575441
 20
83.232302216
 30
0.0
  0
VERTEX
  5
112
100
AcDbEntity
  8
0
100
AcDbVertex
100
AcDb2dVertex
 10
73.0191933718
 20
82.9198850527
 30
0.0
  0
VERTEX
  5
113
100
AcDbEntity
  8
0
100
AcDbVertex
100
AcDb2dVertex
 10
72.7228575923
 20
82.5654929753
 30
0.0
  0
VERTEX
  5
114
100
AcDbEntity
  8
0
100
AcDbVertex
100
AcDb2dVertex
 10
72.4920752466
 20
82.1793211987
 30
0.0
  0
VERTEX
  5
115
100
AcDbEntity
  8
0
100
AcDbVertex
100
AcDb2dVertex
 10
72.3334855224
 20
81.7724791817
 30
0.0
  0
VERTEX
  5
116
100
AcDbEntity
  8
0
100
AcDbVertex
100
AcDb2dVertex
 10
72.2516507575
 20
81.3566710285
 30
0.0
  0
VERTEX
  5
117
100
AcDbEntity
  8
0
100
AcDbVertex
100
AcDb2dVertex
 10
72.248925189
 20
80.9438587826
 30
0.0
  0
VERTEX
  5
118
100
AcDbEntity
  8
0
100
AcDbVertex
100
AcDb2dVertex
 10
72.3253872266
 20
80.5459183007
 30
0.0
  0
VERTEX
  5
119
100
AcDbEntity
  8
0
100
AcDbVertex
100
AcDb2dVertex
 10
72.4788371967
 20
80.1742976059
 30
0.0
  0
VERTEX
  5
11A
100
AcDbEntity
  8
0
100
AcDbVertex
100
AcDb2dVertex
 10
72.7048606229
 20
79.839687549
 30
0.0
  0
VERTEX
  5
11B
100
AcDbEntity
  8
0
100
AcDbVertex
100
AcDb2dVertex
 10
72.9969552229
 20
79.5517142521
 30
0.0
  0
VERTEX
  5
11C
100
AcDbEntity
  8
0
100
AcDbVertex
100
AcDb2dVertex
 10
73.3467179668
 20
79.3186621826
 30
0.0
  0
VERTEX
  5
11D
100
AcDbEntity
  8
0
100
AcDbVertex
100
AcDb2dVertex
 10
73.7440868174
 20
79.1472358244
 30
0.0
  0
VERTEX
  5
11E
100
AcDbEntity
  8
0
100
AcDbVertex
100
AcDb2dVertex
 10
74.1776301961
 20
79.0423668015
 30
0.0
  0
VERTEX
  5
11F
100
AcDbEntity
  8
0
100
AcDbVertex
100
AcDb2dVertex
 10
74.6348758495
 20
79.0070720049
 30
0.0
  0
SEQEND
  5
120
100
AcDbEntity
  8
0
  0
POLYLINE
  5
121
100
AcDbEntity
  8
0
370
        15
  6
Continuous
 62
         7
100
AcDb2dPolyline
 66
         1
 10
0.0
 20
0.0
 30
0.0
 70
       128
  0
VERTEX
  5
122
100
AcDbEntity
  8
0
100
AcDbVertex
100
AcDb2dVertex
 10
129.6018405196
 20
102.1010827724
 30
0.0
  0
VERTEX
  5
123
100
AcDbEntity
  8
0
100
AcDbVertex
100
AcDb2dVertex
 10
130.0696343227
 20
102.1363775691
 30
0.0
  0
VERTEX
  5
124
100
AcDbEntity
  8
0
100
AcDbVertex
100
AcDb2dVertex
 10
130.5345186994
 20
102.241246592
 30
0.0
  0
VERTEX
  5
125
100
AcDbEntity
  8
0
100
AcDbVertex
100
AcDb2dVertex
 10
130.9831197726
 20
102.4126729502
 30
0.0
  0
VERTEX
  5
126
100
AcDbEntity
  8
0
100
AcDbVertex
100
AcDb2dVertex
 10
131.4025321062
 20
102.6457250197
 30
0.0
  0
VERTEX
  5
127
100
AcDbEntity
  8
0
100
AcDbVertex
100
AcDb2dVertex
 10
131.7806899711
 20
102.9336983166
 30
0.0
  0
VERTEX
  5
128
100
AcDbEntity
  8
0
100
AcDbVertex
100
AcDb2dVertex
 10
132.106714454
 20
103.2683083735
 30
0.0
  0
VERTEX
  5
129
100
AcDbEntity
  8
0
100
AcDbVertex
100
AcDb2dVertex
 10
132.371226424
 20
103.6399290683
 30
0.0
  0
VERTEX
  5
12A
100
AcDbEntity
  8
0
100
AcDbVertex
100
AcDb2dVertex
 10
132.5666163534
 20
104.0378695502
 30
0.0
  0
VERTEX
  5
12B
100
AcDbEntity
  8
0
100
AcDbVertex
100
AcDb2dVertex
 10
132.6872632297
 20
104.4506817961
 30
0.0
  0
VERTEX
  5
12C
100
AcDbEntity
  8
0
100
AcDbVertex
100
AcDb2dVertex
 10
132.7296962618
 20
104.8664899493
 30
0.0
  0
VERTEX
  5
12D
100
AcDbEntity
  8
0
100
AcDbVertex
100
AcDb2dVertex
 10
132.6926947289
 20
105.2733319662
 30
0.0
  0
VERTEX
  5
12E
100
AcDbEntity
  8
0
100
AcDbVertex
100
AcDb2dVertex
 10
132.5773230974
 20
105.6595037429
 30
0.0
  0
VERTEX
  5
12F
100
AcDbEntity
  8
0
100
AcDbVertex
100
AcDb2dVertex
 10
132.3869003993
 20
106.0138958202
 30
0.0
  0
VERTEX
  5
130
100
AcDbEntity
  8
0
100
AcDbVertex
100
AcDb2dVertex
 10
132.1269047489
 20
106.3263129836
 30
0.0
  0
VERTEX
  5
131
100
AcDbEntity
  8
0
100
AcDbVertex
100
AcDb2dVertex
 10
131.8048157476
 20
106.5877675598
 30
0.0
  0
VERTEX
  5
132
100
AcDbEntity
  8
0
100
AcDbVertex
100
AcDb2dVertex
 10
131.4298993096
 20
106.7907379769
 30
0.0
  0
VERTEX
  5
133
100
AcDbEntity
  8
0
100
AcDbVertex
100
AcDb2dVertex
 10
131.0129410982
 20
106.9293851455
 30
0.0
  0
VERTEX
  5
134
100
AcDbEntity
  8
0
100
AcDbVertex
100
AcDb2dVertex
 10
130.565936242
 20
106.999720439
 30
0.0
  0
VERTEX
  5
135
100
AcDbEntity
  8
0
100
AcDbVertex
100
AcDb2dVertex
 10
130.1017442569
 20
106.999720439
 30
0.0
  0
VERTEX
  5
136
100
AcDbEntity
  8
0
100
AcDbVertex
100
AcDb2dVertex
 10
129.633719101
 20
106.9293851455
 30
0.0
  0
VERTEX
  5
137
100
AcDbEntity
  8
0
100
AcDbVertex
100
AcDb2dVertex
 10
129.1753250061
 20
106.7907379769
 30
0.0
  0
VERTEX
  5
138
100
AcDbEntity
  8
0
100
AcDbVertex
100
AcDb2dVertex
 10
128.7397491356
 20
106.5877675598
 30
0.0
  0
VERTEX
  5
139
100
AcDbEntity
  8
0
100
AcDbVertex
100
AcDb2dVertex
 10
128.3395222142
 20
106.3263129836
 30
0.0
  0
VERTEX
  5
13A
100
AcDbEntity
  8
0
100
AcDbVertex
100
AcDb2dVertex
 10
127.9861580419
 20
106.0138958202
 30
0.0
  0
VERTEX
  5
13B
100
AcDbEntity
  8
0
100
AcDbVertex
100
AcDb2dVertex
 10
127.6898222624
 20
105.6595037429
 30
0.0
  0
VERTEX
  5
13C
100
AcDbEntity
  8
0
100
AcDbVertex
100
AcDb2dVertex
 10
127.4590399167
 20
105.2733319662
 30
0.0
  0
VERTEX
  5
13D
100
AcDbEntity
  8
0
100
AcDbVertex
100
AcDb2dVertex
 10
127.3004501925
 20
104.8664899493
 30
0.0
  0
VERTEX
  5
13E
100
AcDbEntity
  8
0
100
AcDbVertex
100
AcDb2dVertex
 10
127.2186154276
 20
104.4506817961
 30
0.0
  0
VERTEX
  5
13F
100
AcDbEntity
  8
0
100
AcDbVertex
100
AcDb2dVertex
 10
127.2158898592
 20
104.0378695502
 30
0.0
  0
VERTEX
  5
140
100
AcDbEntity
  8
0
100
AcDbVertex
100
AcDb2dVertex
 10
127.2923518967
 20
103.6399290683
 30
0.0
  0
VERTEX
  5
141
100
AcDbEntity
  8
0
100
AcDbVertex
100
AcDb2dVertex
 10
127.4458018668
 20
103.2683083735
 30
0.0
  0
VERTEX
  5
142
100
AcDbEntity
  8
0
100
AcDbVertex
100
AcDb2dVertex
 10
127.671825293
 20
102.9336983166
 30
0.0
  0
VERTEX
  5
143
100
AcDbEntity
  8
0
100
AcDbVertex
100
AcDb2dVertex
 10
127.963919893
 20
102.6457250197
 30
0.0
  0
VERTEX
  5
144
100
AcDbEntity
  8
0
100
AcDbVertex
100
AcDb2dVertex
 10
128.313682637
 20
102.4126729502
 30
0.0
  0
VERTEX
  5
145
100
AcDbEntity
  8
0
100
AcDbVertex
100
AcDb2dVertex
 10
128.7110514875
 20
102.241246592
 30
0.0
  0
VERTEX
  5
146
100
AcDbEntity
  8
0
100
AcDbVertex
100
AcDb2dVertex
 10
129.1445948663
 20
102.1363775691
 30
0.0
  0
VERTEX
  5
147
100
AcDbEntity
  8
0
100
AcDbVertex
100
AcDb2dVertex
 10
129.6018405196
 20
102.1010827724
 30
0.0
  0
SEQEND
  5
148
100
AcDbEntity
  8
0
  0
POLYLINE
  5
149
100
AcDbEntity
  8
0
370
        15
  6
Continuous
 62
         7
100
AcDb2dPolyline
 66
         1
 10
0.0
 20
0.0
 30
0.0
 70
       128
  0
VERTEX
  5
14A
100
AcDbEntity
  8
0
100
AcDbVertex
100
AcDb2dVertex
 10
90.7213625529
 20
91.8531154943
 30
0.0
  0
VERTEX
  5
14B
100
AcDbEntity
  8
0
100
AcDbVertex
100
AcDb2dVertex
 10
91.1738886354
 20
91.8882004859
 30
0.0
  0
VERTEX
  5
14C
100
AcDbEntity
  8
0
100
AcDbVertex
100
AcDb2dVertex
 10
91.6231503895
 20
91.9923894208
 30
0.0
  0
VERTEX
  5
14D
100
AcDbEntity
  8
0
100
AcDbVertex
100
AcDb2dVertex
 10
92.0554972241
 20
92.1625165711
 30
0.0
  0
VERTEX
  5
14E
100
AcDbEntity
  8
0
100
AcDbVertex
100
AcDb2dVertex
 10
92.4577924994
 20
92.3934127093
 30
0.0
  0
VERTEX
  5
14F
100
AcDbEntity
  8
0
100
AcDbVertex
100
AcDb2dVertex
 10
92.8178126771
 20
92.6780621732
 30
0.0
  0
VERTEX
  5
150
100
AcDbEntity
  8
0
100
AcDbVertex
100
AcDb2dVertex
 10
93.1246187263
 20
93.0078160327
 30
0.0
  0
VERTEX
  5
151
100
AcDbEntity
  8
0
100
AcDbVertex
100
AcDb2dVertex
 10
93.3688885004
 20
93.3726548838
 30
0.0
  0
VERTEX
  5
152
100
AcDbEntity
  8
0
100
AcDbVertex
100
AcDb2dVertex
 10
93.5431999859
 20
93.7614932826
 30
0.0
  0
VERTEX
  5
153
100
AcDbEntity
  8
0
100
AcDbVertex
100
AcDb2dVertex
 10
93.6422568165
 20
94.1625165711
 30
0.0
  0
VERTEX
  5
154
100
AcDbEntity
  8
0
100
AcDbVertex
100
AcDb2dVertex
 10
93.6630492006
 20
94.5635398596
 30
0.0
  0
VERTEX
  5
155
100
AcDbEntity
  8
0
100
AcDbVertex
100
AcDb2dVertex
 10
93.6049453721
 20
94.9523782584
 30
0.0
  0
VERTEX
  5
156
100
AcDbEntity
  8
0
100
AcDbVertex
100
AcDb2dVertex
 10
93.4697107864
 20
95.3172171095
 30
0.0
  0
VERTEX
  5
157
100
AcDbEntity
  8
0
100
AcDbVertex
100
AcDb2dVertex
 10
93.2614544781
 20
95.646970969
 30
0.0
  0
VERTEX
  5
158
100
AcDbEntity
  8
0
100
AcDbVertex
100
AcDb2dVertex
 10
92.9865042095
 20
95.9316204329
 30
0.0
  0
VERTEX
  5
159
100
AcDbEntity
  8
0
100
AcDbVertex
100
AcDb2dVertex
 10
92.6532142055
 20
96.1625165711
 30
0.0
  0
VERTEX
  5
15A
100
AcDbEntity
  8
0
100
AcDbVertex
100
AcDb2dVertex
 10
92.2717113143
 20
96.3326437214
 30
0.0
  0
VERTEX
  5
15B
100
AcDbEntity
  8
0
100
AcDbVertex
100
AcDb2dVertex
 10
91.8535873081
 20
96.4368326563
 30
0.0
  0
VERTEX
  5
15C
100
AcDbEntity
  8
0
100
AcDbVertex
100
AcDb2dVertex
 10
91.4115466732
 20
96.4719176478
 30
0.0
  0
VERTEX
  5
15D
100
AcDbEntity
  8
0
100
AcDbVertex
100
AcDb2dVertex
 10
90.9590205907
 20
96.4368326563
 30
0.0
  0
VERTEX
  5
15E
100
AcDbEntity
  8
0
100
AcDbVertex
100
AcDb2dVertex
 10
90.5097588367
 20
96.3326437214
 30
0.0
  0
VERTEX
  5
15F
100
AcDbEntity
  8
0
100
AcDbVertex
100
AcDb2dVertex
 10
90.0774120021
 20
96.1625165711
 30
0.0
  0
VERTEX
  5
160
100
AcDbEntity
  8
0
100
AcDbVertex
100
AcDb2dVertex
 10
89.6751167267
 20
95.9316204329
 30
0.0
  0
VERTEX
  5
161
100
AcDbEntity
  8
0
100
AcDbVertex
100
AcDb2dVertex
 10
89.315096549
 20
95.646970969
 30
0.0
  0
VERTEX
  5
162
100
AcDbEntity
  8
0
100
AcDbVertex
100
AcDb2dVertex
 10
89.0082904998
 20
95.3172171095
 30
0.0
  0
VERTEX
  5
163
100
AcDbEntity
  8
0
100
AcDbVertex
100
AcDb2dVertex
 10
88.7640207258
 20
94.9523782584
 30
0.0
  0
VERTEX
  5
164
100
AcDbEntity
  8
0
100
AcDbVertex
100
AcDb2dVertex
 10
88.5897092403
 20
94.5635398596
 30
0.0
  0
VERTEX
  5
165
100
AcDbEntity
  8
0
100
AcDbVertex
100
AcDb2dVertex
 10
88.4906524096
 20
94.1625165711
 30
0.0
  0
VERTEX
  5
166
100
AcDbEntity
  8
0
100
AcDbVertex
100
AcDb2dVertex
 10
88.4698600255
 20
93.7614932826
 30
0.0
  0
VERTEX
  5
167
100
AcDbEntity
  8
0
100
AcDbVertex
100
AcDb2dVertex
 10
88.527963854
 20
93.3726548838
 30
0.0
  0
VERTEX
  5
168
100
AcDbEntity
  8
0
100
AcDbVertex
100
AcDb2dVertex
 10
88.6631984397
 20
93.0078160327
 30
0.0
  0
VERTEX
  5
169
100
AcDbEntity
  8
0
100
AcDbVertex
100
AcDb2dVertex
 10
88.8714547481
 20
92.6780621732
 30
0.0
  0
VERTEX
  5
16A
100
AcDbEntity
  8
0
100
AcDbVertex
100
AcDb2dVertex
 10
89.1464050167
 20
92.3934127093
 30
0.0
  0
VERTEX
  5
16B
100
AcDbEntity
  8
0
100
AcDbVertex
100
AcDb2dVertex
 10
89.4796950206
 20
92.1625165711
 30
0.0
  0
VERTEX
  5
16C
100
AcDbEntity
  8
0
100
AcDbVertex
100
AcDb2dVertex
 10
89.8611979119
 20
91.9923894208
 30
0.0
  0
VERTEX
  5
16D
100
AcDbEntity
  8
0
100
AcDbVertex
100
AcDb2dVertex
 10
90.2793219181
 20
91.8882004859
 30
0.0
  0
VERTEX
  5
16E
100
AcDbEntity
  8
0
100
AcDbVertex
100
AcDb2dVertex
 10
90.7213625529
 20
91.8531154943
 30
0.0
  0
SEQEND
  5
16F
100
AcDbEntity
  8
0
  0
LINE
  5
170
100
AcDbEntity
  8
0
370
        15
  6
Continuous
 62
         7
100
AcDbLine
 10
133.588648044
 20
72.3539746237
 30
0.0
 11
132.0943555904
 21
75.687307957
 31
0.0
  0
LINE
  5
171
100
AcDbEntity
  8
0
370
        15
  6
Continuous
 62
         7
100
AcDbLine
 10
133.588648044
 20
72.3539746237
 30
0.0
 11
69.1935929581
 21
72.3539746237
 31
0.0
  0
LINE
  5
172
100
AcDbEntity
  8
0
370
        15
  6
Continuous
 62
         7
100
AcDbLine
 10
69.1935929581
 20
72.3539746237
 30
0.0
 11
67.6993005045
 21
75.687307957
 31
0.0
  0
LINE
  5
173
100
AcDbEntity
  8
0
370
        15
  6
Continuous
 62
         7
100
AcDbLine
 10
138.7650289461
 20
106.9949907751
 30
0.0
 11
137.2707364925
 21
110.3283241084
 31
0.0
  0
LINE
  5
174
100
AcDbEntity
  8
0
370
        15
  6
Continuous
 62
         7
100
AcDbLine
 10
138.7650289461
 20
106.9949907751
 30
0.0
 11
133.588648044
 21
72.3539746237
 31
0.0
  0
POLYLINE
  5
175
100
AcDbEntity
  8
0
370
        15
  6
Continuous
 62
         7
100
AcDb2dPolyline
 66
         1
 10
0.0
 20
0.0
 30
0.0
 70
       128
  0
VERTEX
  5
176
100
AcDbEntity
  8
0
100
AcDbVertex
100
AcDb2dVertex
 10
132.3633239194
 20
103.6267880788
 30
0.0
  0
VERTEX
  5
177
100
AcDbEntity
  8
0
100
AcDbVertex
100
AcDb2dVertex
 10
132.0602286956
 20
103.6663871056
 30
0.0
  0
VERTEX
  5
178
100
AcDbEntity
  8
0
100
AcDbVertex
100
AcDb2dVertex
 10
131.5960367105
 20
103.6663871056
 30
0.0
  0
VERTEX
  5
179
100
AcDbEntity
  8
0
100
AcDbVertex
100
AcDb2dVertex
 10
131.1280115546
 20
103.5960518122
 30
0.0
  0
VERTEX
  5
17A
100
AcDbEntity
  8
0
100
AcDbVertex
100
AcDb2dVertex
 10
130.6696174597
 20
103.4574046436
 30
0.0
  0
VERTEX
  5
17B
100
AcDbEntity
  8
0
100
AcDbVertex
100
AcDb2dVertex
 10
130.2340415892
 20
103.2544342265
 30
0.0
  0
VERTEX
  5
17C
100
AcDbEntity
  8
0
100
AcDbVertex
100
AcDb2dVertex
 10
129.8338146679
 20
102.9929796502
 30
0.0
  0
VERTEX
  5
17D
100
AcDbEntity
  8
0
100
AcDbVertex
100
AcDb2dVertex
 10
129.4804504955
 20
102.6805624869
 30
0.0
  0
VERTEX
  5
17E
100
AcDbEntity
  8
0
100
AcDbVertex
100
AcDb2dVertex
 10
129.1841147161
 20
102.3261704095
 30
0.0
  0
VERTEX
  5
17F
100
AcDbEntity
  8
0
100
AcDbVertex
100
AcDb2dVertex
 10
129.0679702013
 20
102.1495214209
 30
0.0
  0
SEQEND
  5
180
100
AcDbEntity
  8
0
  0
POLYLINE
  5
181
100
AcDbEntity
  8
0
370
        15
  6
Continuous
 62
         7
100
AcDb2dPolyline
 66
         1
 10
0.0
 20
0.0
 30
0.0
 70
       128
  0
VERTEX
  5
182
100
AcDbEntity
  8
0
100
AcDbVertex
100
AcDb2dVertex
 10
77.3963592492
 20
80.5327773112
 30
0.0
  0
VERTEX
  5
183
100
AcDbEntity
  8
0
100
AcDbVertex
100
AcDb2dVertex
 10
77.0932640255
 20
80.5723763381
 30
0.0
  0
VERTEX
  5
184
100
AcDbEntity
  8
0
100
AcDbVertex
100
AcDb2dVertex
 10
76.6290720404
 20
80.5723763381
 30
0.0
  0
VERTEX
  5
185
100
AcDbEntity
  8
0
100
AcDbVertex
100
AcDb2dVertex
 10
76.1610468845
 20
80.5020410446
 30
0.0
  0
VERTEX
  5
186
100
AcDbEntity
  8
0
100
AcDbVertex
100
AcDb2dVertex
 10
75.7026527896
 20
80.363393876
 30
0.0
  0
VERTEX
  5
187
100
AcDbEntity
  8
0
100
AcDbVertex
100
AcDb2dVertex
 10
75.2670769191
 20
80.1604234589
 30
0.0
  0
VERTEX
  5
188
100
AcDbEntity
  8
0
100
AcDbVertex
100
AcDb2dVertex
 10
74.8668499977
 20
79.8989688826
 30
0.0
  0
VERTEX
  5
189
100
AcDbEntity
  8
0
100
AcDbVertex
100
AcDb2dVertex
 10
74.5134858254
 20
79.5865517193
 30
0.0
  0
VERTEX
  5
18A
100
AcDbEntity
  8
0
100
AcDbVertex
100
AcDb2dVertex
 10
74.2171500459
 20
79.2321596419
 30
0.0
  0
VERTEX
  5
18B
100
AcDbEntity
  8
0
100
AcDbVertex
100
AcDb2dVertex
 10
74.1010055312
 20
79.0555106533
 30
0.0
  0
SEQEND
  5
18C
100
AcDbEntity
  8
0
  0
POLYLINE
  5
18D
100
AcDbEntity
  8
0
370
        15
  6
Continuous
 62
         7
100
AcDb2dPolyline
 66
         1
 10
0.0
 20
0.0
 30
0.0
 70
       128
  0
VERTEX
  5
18E
100
AcDbEntity
  8
0
100
AcDbVertex
100
AcDb2dVertex
 10
93.2105840071
 20
93.1221003258
 30
0.0
  0
VERTEX
  5
18F
100
AcDbEntity
  8
0
100
AcDbVertex
100
AcDb2dVertex
 10
92.9058391268
 20
93.1385843145
 30
0.0
  0
VERTEX
  5
190
100
AcDbEntity
  8
0
100
AcDbVertex
100
AcDb2dVertex
 10
92.4533130444
 20
93.103499323
 30
0.0
  0
VERTEX
  5
191
100
AcDbEntity
  8
0
100
AcDbVertex
100
AcDb2dVertex
 10
92.0040512903
 20
92.999310388
 30
0.0
  0
VERTEX
  5
192
100
AcDbEntity
  8
0
100
AcDbVertex
100
AcDb2dVertex
 10
91.5717044557
 20
92.8291832378
 30
0.0
  0
VERTEX
  5
193
100
AcDbEntity
  8
0
100
AcDbVertex
100
AcDb2dVertex
 10
91.1694091804
 20
92.5982870995
 30
0.0
  0
VERTEX
  5
194
100
AcDbEntity
  8
0
100
AcDbVertex
100
AcDb2dVertex
 10
90.8093890026
 20
92.3136376357
 30
0.0
  0
VERTEX
  5
195
100
AcDbEntity
  8
0
100
AcDbVertex
100
AcDb2dVertex
 10
90.5025829535
 20
91.9838837761
 30
0.0
  0
VERTEX
  5
196
100
AcDbEntity
  8
0
100
AcDbVertex
100
AcDb2dVertex
 10
90.4166176727
 20
91.8695994831
 30
0.0
  0
SEQEND
  5
197
100
AcDbEntity
  8
0
  0
ENDSEC
  0
SECTION
  2
OBJECTS
  0
DICTIONARY
  5
19
100
AcDbDictionary
280
         0
281
         1
  3
ACAD_GROUP
350
1A
  3
ACAD_MLINESTYLE
350
1B
  3
ACAD_LAYOUT
350
1E
  3
ACAD_PLOTSETTINGS
350
22
  3
ACAD_PLOTSTYLENAME
350
1F
  3
ACAD_WIPEOUT_VARS
350
23
  0
DICTIONARY
  5
1A
102
{ACAD_REACTORS
330
19
102
}
100
AcDbDictionary
280
         0
281
         1
  0
DICTIONARY
  5
1B
102
{ACAD_REACTORS
330
19
102
}
100
AcDbDictionary
280
         0
281
         1
  3
Standard
350
1C
  0
MLINESTYLE
  5
1C
102
{ACAD_REACTORS
330
1B
102
}
100
AcDbMlineStyle
  2
Standard
 70
         0
  3

 62
         0
 51
90.0
 52
90.0
 71
         2
 49
0.5
 62
       256
  6
BYLAYER
 49
-0.5
 62
       256
  6
BYLAYER
  0
ACDBDICTIONARYWDFLT
  5
1F
102
{ACAD_REACTORS
330
19
102
}
100
AcDbDictionary
281
         1
  3
Normal
350
1D
100
AcDbDictionaryWithDefault
340
1D
  0
ACDBPLACEHOLDER
  5
1D
102
{ACAD_REACTORS
330
1F
102
}
  0
LAYOUT
  5
20
102
{ACAD_REACTORS
330
1E
102
}
100
AcDbPlotSettings
  1

  2

  4

  6

 40
0.0
 41
0.0
 42
0.0
 43
0.0
 44
0.0
 45
0.0
 46
0.0
 47
0.0
 48
0.0
 49
0.0
140
0.0
141
0.0
142
1.0
143
1.0
 70
      1024
 72
         0
 73
         0
 74
         0
  7

 75
         0
147
1.0
148
0.0
149
0.0
100
AcDbLayout
  1
Model
 70
         0
 71
         0
 10
0.0
 20
0.0
 11
0.0
 21
0.0
 12
0.0
 22
0.0
 32
0.0
 14
0.0
 24
0.0
 34
0.0
 15
0.0
 25
0.0
 35
0.0
146
0.0
 13
0.0
 23
0.0
 33
0.0
 16
0.0
 26
0.0
 36
0.0
 17
0.0
 27
0.0
 37
0.0
 76
         0
330
A
331
0
345
0
346
0
  0
LAYOUT
  5
21
102
{ACAD_REACTORS
330
1E
102
}
100
AcDbPlotSettings
  1

  2

  4

  6

 40
0.0
 41
0.0
 42
0.0
 43
0.0
 44
0.0
 45
0.0
 46
0.0
 47
0.0
 48
0.0
 49
0.0
140
0.0
141
0.0
142
1.0
143
1.0
 70
         0
 72
         0
 73
         0
 74
         0
  7

 75
         0
147
1.0
148
0.0
149
0.0
100
AcDbLayout
  1
Layout1
 70
         0
 71
         0
 10
0.0
 20
0.0
 11
0.0
 21
0.0
 12
0.0
 22
0.0
 32
0.0
 14
0.0
 24
0.0
 34
0.0
 15
0.0
 25
0.0
 35
0.0
146
0.0
 13
0.0
 23
0.0
 33
0.0
 16
0.0
 26
0.0
 36
0.0
 17
0.0
 27
0.0
 37
0.0
 76
         0
330
B
331
0
345
0
346
0
  0
DICTIONARY
  5
1E
102
{ACAD_REACTORS
330
19
102
}
100
AcDbDictionary
280
         0
281
         1
  3
Layout1
350
21
  3
Model
350
20
  0
DICTIONARY
  5
22
102
{ACAD_REACTORS
330
19
102
}
100
AcDbDictionary
280
         0
281
         1
  0
WIPEOUTVARIABLES
  5
23
100
AcDbWipeoutVariables
 70
         1
  0
ENDSEC
  0
EOF
