  0
SECTION
  2
HEADER
  9
$ACADVER
  1
AC1015
  9
$ACADMAINTVER
 70
         6
  9
$DWGCODEPAGE
  3
ANSI_1252
  9
$INSBASE
 10
0.0
 20
0.0
 30
0.0
  9
$EXTMIN
 10
0.0
 20
0.0
 30
0.0
  9
$EXTMAX
 10
210.0
 20
297.0
 30
0.0
  9
$LIMMIN
 10
0.0
 20
0.0
  9
$LIMMAX
 10
0.0
 20
0.0
  9
$ORTHOMODE
 70
         0
  9
$REGENMODE
 70
         1
  9
$FILLMODE
 70
         1
  9
$QTEXTMODE
 70
         0
  9
$MIRRTEXT
 70
         1
  9
$LTSCALE
 40
1.0
  9
$ATTMODE
 70
         1
  9
$TEXTSIZE
 40
3.5
  9
$TRACEWID
 40
0.05
  9
$TEXTSTYLE
  7
Standard
  9
$CLAYER
  8
0
  9
$CELTYPE
  6
Continuous
  9
$CECOLOR
 62
       256
  9
$CELTSCALE
 40
1.0
  9
$DISPSILH
 70
         0
  9
$DIMSCALE
 40
1.0
  9
$DIMASZ
 40
3.0
  9
$DIMEXO
 40
1.0
  9
$DIMDLI
 40
0.38
  9
$DIMRND
 40
0.0
  9
$DIMDLE
 40
1.0
  9
$DIMEXE
 40
0.18
  9
$DIMTP
 40
0.0
  9
$DIMTM
 40
0.0
  9
$DIMTXT
 40
3.5
  9
$DIMCEN
 40
0.09
  9
$DIMTSZ
 40
0.0
  9
$DIMTOL
 70
         0
  9
$DIMLIM
 70
         0
  9
$DIMTIH
 70
         1
  9
$DIMTOH
 70
         1
  9
$DIMSE1
 70
         0
  9
$DIMSE2
 70
         0
  9
$DIMTAD
 70
         1
  9
$DIMZIN
 70
         0
  9
$DIMBLK
  1

  9
$DIMASO
 70
         1
  9
$DIMSHO
 70
         1
  9
$DIMPOST
  1

  9
$DIMAPOST
  1

  9
$DIMALT
 70
         0
  9
$DIMALTD
 70
         2
  9
$DIMALTF
 40
0.0394
  9
$DIMLFAC
 40
1.0
  9
$DIMTOFL
 70
         0
  9
$DIMTVP
 40
0.0
  9
$DIMTIX
 70
         0
  9
$DIMSOXD
 70
         0
  9
$DIMSAH
 70
         0
  9
$DIMBLK1
  1

  9
$DIMBLK2
  1

  9
$DIMSTYLE
  2
Standard
  9
$DIMCLRD
 70
         0
  9
$DIMCLRE
 70
         0
  9
$DIMCLRT
 70
         0
  9
$DIMTFAC
 40
1.0
  9
$DIMGAP
 40
1.0
  9
$DIMJUST
 70
         0
  9
$DIMSD1
 70
         0
  9
$DIMSD2
 70
         0
  9
$DIMTOLJ
 70
         1
  9
$DIMTZIN
 70
         0
  9
$DIMALTZ
 70
         0
  9
$DIMALTTZ
 70
         0
  9
$DIMUPT
 70
         0
  9
$DIMDEC
 70
         4
  9
$DIMTDEC
 70
         4
  9
$DIMALTU
 70
         2
  9
$DIMALTTD
 70
         2
  9
$DIMTXSTY
  7
Standard
  9
$DIMAUNIT
 70
         0
  9
$DIMADEC
 70
         0
  9
$DIMALTRND
 40
0.0
  9
$DIMAZIN
 70
         0
  9
$DIMDSEP
 70
         0
  9
$DIMATFIT
 70
         3
  9
$DIMFRAC
 70
         0
  9
$DIMLDRBLK
  1

  9
$DIMLUNIT
 70
         2
  9
$DIMLWD
 70
         0
  9
$DIMLWE
 70
         0
  9
$DIMTMOVE
 70
         0
  9
$LUNITS
 70
         2
  9
$LUPREC
 70
         2
  9
$SKETCHINC
 40
0.1
  9
$FILLETRAD
 40
0.0
  9
$AUNITS
 70
         0
  9
$AUPREC
 70
         2
  9
$MENU
  1
acad
  9
$ELEVATION
 40
0.0
  9
$PELEVATION
 40
0.0
  9
$THICKNESS
 40
0.0
  9
$LIMCHECK
 70
         0
  9
$CHAMFERA
 40
0.0
  9
$CHAMFERB
 40
0.0
  9
$CHAMFERC
 40
0.0
  9
$CHAMFERD
 40
0.0
  9
$SKPOLY
 70
         0
  9
$TDCREATE
 40
0.000000000
  9
$TDUCREATE
 40
0.000000000
  9
$TDUPDATE
 40
0.000000000
  9
$TDUUPDATE
 40
0.000000000
  9
$TDINDWG
 40
0.0000000000
  9
$TDUSRTIMER
 40
0.0000000000
  9
$USRTIMER
 70
         1
  9
$ANGBASE
 50
0.0
  9
$ANGDIR
 70
         0
  9
$PDMODE
 70
         0
  9
$PDSIZE
 40
-1.0
  9
$PLINEWID
 40
0.0
  9
$SPLFRAME
 70
         0
  9
$SPLINETYPE
 70
         6
  9
$SPLINESEGS
 70
         8
  9
$HANDSEED
  5
50C
  9
$SURFTAB1
 70
         6
  9
$SURFTAB2
 70
         6
  9
$SURFTYPE
 70
         6
  9
$SURFU
 70
         6
  9
$SURFV
 70
         6
  9
$UCSBASE
  2

  9
$UCSNAME
  2

  9
$UCSORG
 10
0.0
 20
0.0
 30
0.0
  9
$UCSXDIR
 10
1.0
 20
0.0
 30
0.0
  9
$UCSYDIR
 10
0.0
 20
1.0
 30
0.0
  9
$UCSORTHOREF
  2

  9
$UCSORTHOVIEW
 70
         0
  9
$UCSORGTOP
 10
0.0
 20
0.0
 30
0.0
  9
$UCSORGBOTTOM
 10
0.0
 20
0.0
 30
0.0
  9
$UCSORGLEFT
 10
0.0
 20
0.0
 30
0.0
  9
$UCSORGRIGHT
 10
0.0
 20
0.0
 30
0.0
  9
$UCSORGFRONT
 10
0.0
 20
0.0
 30
0.0
  9
$UCSORGBACK
 10
0.0
 20
0.0
 30
0.0
  9
$PUCSBASE
  2

  9
$PUCSNAME
  2

  9
$PUCSORG
 10
0.0
 20
0.0
 30
0.0
  9
$PUCSXDIR
 10
1.0
 20
0.0
 30
0.0
  9
$PUCSYDIR
 10
0.0
 20
1.0
 30
0.0
  9
$PUCSORTHOREF
  2

  9
$PUCSORTHOVIEW
 70
         0
  9
$PUCSORGTOP
 10
0.0
 20
0.0
 30
0.0
  9
$PUCSORGBOTTOM
 10
0.0
 20
0.0
 30
0.0
  9
$PUCSORGLEFT
 10
0.0
 20
0.0
 30
0.0
  9
$PUCSORGRIGHT
 10
0.0
 20
0.0
 30
0.0
  9
$PUCSORGFRONT
 10
0.0
 20
0.0
 30
0.0
  9
$PUCSORGBACK
 10
0.0
 20
0.0
 30
0.0
  9
$USERI1
 70
         0
  9
$USERI2
 70
         0
  9
$USERI3
 70
         0
  9
$USERI4
 70
         0
  9
$USERI5
 70
         0
  9
$USERR1
 40
0.0
  9
$USERR2
 40
0.0
  9
$USERR3
 40
0.0
  9
$USERR4
 40
0.0
  9
$USERR5
 40
0.0
  9
$WORLDVIEW
 70
         1
  9
$SHADEDGE
 70
         3
  9
$SHADEDIF
 70
        70
  9
$TILEMODE
 70
         1
  9
$MAXACTVP
 70
        16
  9
$PINSBASE
 10
0.0
 20
0.0
 30
0.0
  9
$PLIMCHECK
 70
         0
  9
$PEXTMIN
 10
1.0000000000E+20
 20
1.0000000000E+20
 30
1.0000000000E+20
  9
$PEXTMAX
 10
-1.0000000000E+20
 20
-1.0000000000E+20
 30
-1.0000000000E+20
  9
$PLIMMIN
 10
0.0
 20
0.0
  9
$PLIMMAX
 10
12.0
 20
9.0
  9
$UNITMODE
 70
         0
  9
$VISRETAIN
 70
         0
  9
$PLINEGEN
 70
         1
  9
$PSLTSCALE
 70
         1
  9
$TREEDEPTH
 70
      3020
  9
$CMLSTYLE
  2
Standard
  9
$CMLJUST
 70
         0
  9
$CMLSCALE
 40
1.0
  9
$PROXYGRAPHICS
 70
         0
  9
$MEASUREMENT
 70
         0
  9
$CELWEIGHT
370
         0
  9
$ENDCAPS
280
         0
  9
$JOINSTYLE
280
         0
  9
$LWDISPLAY
290
         0
  9
$INSUNITS
 70
         0
  9
$HYPERLINKBASE
  1

  9
$XEDIT
290
         1
  9
$CEPSNTYPE
380
         0
  9
$PSTYLEMODE
290
         1
  9
$FINGERPRINTGUID
  2

  9
$VERSIONGUID
  2

  9
$EXTNAMES
290
         1
  9
$PSVPSCALE
 40
0.0
  0
ENDSEC
  0
SECTION
  2
CLASSES
  0
CLASS
  1
LWPOLYLINE
  2
AcDbPolyline
  3
AutoCAD 2000
 90
    32768
280
         0
281
         1
  0
CLASS
  1
IMAGE
  2
AcDbRasterImage
  3
ISM
 90
    32895
280
         0
281
         1
  0
CLASS
  1
OLE2FRAME
  2
AcDbOle2Frame
  3
AutoCAD 2000
 90
    32768
280
         0
281
         1
  0
CLASS
  1
HATCH
  2
AcDbHatch
  3
AutoCAD 2000
 90
    32768
280
         0
281
         1
  0
CLASS
  1
DICTIONARYVAR
  2
AcDbDictionaryVar
  3
AutoCAD 2000
 90
    32768
280
         0
281
         0
  0
CLASS
  1
RASTERVARIABLES
  2
AcDbRasterVariables
  3
ISM
 90
    32768
280
         0
281
         0
  0
CLASS
  1
IMAGEDEF
  2
AcDbRasterImageDef
  3
ISM
 90
    32768
280
         0
281
         0
  0
CLASS
  1
IMAGEDEF_REACTOR
  2
AcDbRasterImageDefReactor
  3
ISM
 90
    32769
280
         0
281
         0
  0
CLASS
  1
IDBUFFER
  2
AcDbIdBuffer
  3
AutoCAD 2000
 90
    32768
280
         0
281
         0
  0
CLASS
  1
SPATIAL_FILTER
  2
AcDbSpatialFilter
  3
AutoCAD 2000
 90
    32768
280
         0
281
         0
  0
CLASS
  1
XRECORD
  2
AcDbXrecord
  3
AutoCAD 2000
 90
    32768
280
         0
281
         0
  0
CLASS
  1
SORTENTSTABLE
  2
AcDbSortentsTable
  3
AutoCAD 2000
 90
    32768
280
         0
281
         0
  0
CLASS
  1
LAYER_INDEX
  2
AcDbLayerIndex
  3
AutoCAD 2000
 90
    32768
280
         0
281
         0
  0
CLASS
  1
SPATIAL_INDEX
  2
AcDbSpatialIndex
  3
AutoCAD 2000
 90
    32768
280
         0
281
         0
  0
CLASS
  1
OBJECT_PTR
  2
CAseDLPNTableRecord
  3
"ASE-LPNTableRecord"
 90
    32769
280
         0
281
         0
  0
CLASS
  1
LAYOUT
  2
AcDbLayout
  3
AutoCAD 2000
 90
        0
280
         0
281
         0
  0
CLASS
  1
PLOTSETTINGS
  2
AcDbPlotSettings
  3
AutoCAD 2000
 90
    32768
280
         0
281
         0
  0
CLASS
  1
ACDBDICTIONARYWDFLT
  2
AcDbDictionaryWithDefault
  3
AutoCAD 2000
 90
        0
280
         0
281
         0
  0
CLASS
  1
ACDBPLACEHOLDER
  2
AcDbPlaceHolder
  3
AutoCAD 2000
 90
        0
280
         0
281
         0
  0
CLASS
  1
VBA_PROJECT
  2
AcDbVbaProject
  3
acadvba
 90
    32768
280
         0
281
         0
  0
CLASS
  1
WIPEOUT
  2
AcDbWipeout
  3
WipeOut|AutoCAD Express Tool|expresstools@autodesk.com
 90
    32895
280
         0
281
         1
  0
CLASS
  1
WIPEOUTVARIABLES
  2
AcDbWipeoutVariables
  3
WipeOut|AutoCAD Express Tool|expresstools@autodesk.com
 90
        0
280
         0
281
         0
  0
CLASS
  1
RTEXT
  2
RText
  3
RText|AutoCAD Express Tool|expresstools@autodesk.com
 90
    32768
280
         0
281
         1
  0
CLASS
  1
ARCALIGNEDTEXT
  2
AcDbArcAlignedText
  3
ATEXT|AutoCAD Express Tool|expresstools@autodesk.com
 90
    32768
280
         0
281
         1
  0
ENDSEC
  0
SECTION
  2
TABLES
  0
TABLE
  2
VPORT
  5
7
100
AcDbSymbolTable
 70
         1
  0
VPORT
  5
15
100
AcDbSymbolTableRecord
100
AcDbViewportTableRecord
  2
*ACTIVE
 70
         0
 10
0.0
 20
0.0
 11
1.0
 21
1.0
 12
105.0
 22
148.5
 13
0.0
 23
0.0
 14
1.0
 24
1.0
 15
0.0
 25
0.0
 16
0.0
 26
0.0
 36
1.0
 17
0.0
 27
0.0
 37
0.0
 40
297.0
 41
1.4142857143
 42
50.0
 43
0.0
 44
0.0
 50
0.0
 51
0.0
 71
         0
 72
      2000
 73
         1
 74
         1
 75
         0
 76
         0
 77
         0
 78
         0
281
         0
 65
         0
110
0.0
120
0.0
130
0.0
111
1.0
121
0.0
131
0.0
112
0.0
122
1.0
132
0.0
345
0
346
0
 79
         0
146
0.0
  0
ENDTAB
  0
TABLE
  2
LTYPE
  5
4
100
AcDbSymbolTable
 70
         9
  0
LTYPE
  5
11
100
AcDbSymbolTableRecord
100
AcDbLinetypeTableRecord
  2
ByBlock
 70
        64
  3

 72
        65
 73
         0
 40
0.0
  0
LTYPE
  5
12
100
AcDbSymbolTableRecord
100
AcDbLinetypeTableRecord
  2
ByLayer
 70
        64
  3

 72
        65
 73
         0
 40
0.0
  0
LTYPE
  5
13
100
AcDbSymbolTableRecord
100
AcDbLinetypeTableRecord
  2
Continuous
 70
        64
  3
Solid line
 72
        65
 73
         0
 40
0.0
  0
LTYPE
  5
24
100
AcDbSymbolTableRecord
100
AcDbLinetypeTableRecord
  2
CONTINUOUS
 70
        64
  3
Solid line
 72
        65
 73
         1
 40
60.96
 49
60.96
 74
         0
  0
LTYPE
  5
25
100
AcDbSymbolTableRecord
100
AcDbLinetypeTableRecord
  2
HIDDEN
 70
        64
  3
Hidden __ __ __ __ __ __ __ __ __ __ __ __ __ __
 72
        65
 73
         2
 40
1.905
 49
1.27
 74
         0
 49
-0.635
 74
         0
  0
LTYPE
  5
26
100
AcDbSymbolTableRecord
100
AcDbLinetypeTableRecord
  2
PHANTOM
 70
        64
  3
Phantom ______  __  __  ______  __  __  ______
 72
        65
 73
         6
 40
12.7
 49
6.35
 74
         0
 49
-1.27
 74
         0
 49
1.27
 74
         0
 49
-1.27
 74
         0
 49
1.27
 74
         0
 49
-1.27
 74
         0
  0
LTYPE
  5
27
100
AcDbSymbolTableRecord
100
AcDbLinetypeTableRecord
  2
CENTER
 70
        64
  3
Center ____ _ ____ _ ____ _ ____ _ ____ _ ____
 72
        65
 73
         4
 40
10.16
 49
6.35
 74
         0
 49
-1.27
 74
         0
 49
1.27
 74
         0
 49
-1.27
 74
         0
  0
LTYPE
  5
28
100
AcDbSymbolTableRecord
100
AcDbLinetypeTableRecord
  2
CENTERX2
 70
        64
  3
Center (2x) ________  __  ________  __  _____
 72
        65
 73
         4
 40
20.32
 49
12.7
 74
         0
 49
-2.54
 74
         0
 49
2.54
 74
         0
 49
-2.54
 74
         0
  0
LTYPE
  5
29
100
AcDbSymbolTableRecord
100
AcDbLinetypeTableRecord
  2
DOT2
 70
        64
  3
Dot (.5x) ........................................
 72
        65
 73
         2
 40
0.635
 49
0.0
 74
         0
 49
-0.635
 74
         0
  0
ENDTAB
  0
TABLE
  2
LAYER
  5
2
100
AcDbSymbolTable
 70
         1
  0
LAYER
  5
14
100
AcDbSymbolTableRecord
100
AcDbLayerTableRecord
  2
0
 70
         0
 62
         7
  6
Continuous
290
         1
370
        -3
390
1D
  0
ENDTAB
  0
TABLE
  2
STYLE
  5
3
100
AcDbSymbolTable
 70
         2
  0
STYLE
  5
17
100
AcDbSymbolTableRecord
100
AcDbTextStyleTableRecord
  2
Standard
 70
         0
 40
0.0
 41
1.0
 50
0.0
 71
         0
 42
0.0
  3
txt
  4

  0
STYLE
  5
4A
100
AcDbSymbolTableRecord
100
AcDbTextStyleTableRecord
  2
SLDTEXTSTYLE0
 70
         0
 40
0.0
 41
0.75
 50
0.0
 71
         0
 42
0.0
  3
txt
  4

  0
ENDTAB
  0
TABLE
  2
VIEW
  5
5
100
AcDbSymbolTable
 70
         0
  0
ENDTAB
  0
TABLE
  2
UCS
  5
6
100
AcDbSymbolTable
 70
         0
  0
ENDTAB
  0
TABLE
  2
APPID
  5
8
100
AcDbSymbolTable
 70
         1
  0
APPID
  5
16
100
AcDbSymbolTableRecord
100
AcDbRegAppTableRecord
  2
ACAD
 70
         0
  0
ENDTAB
  0
TABLE
  2
DIMSTYLE
  5
9
100
AcDbSymbolTable
 70
         8
100
AcDbDimStyleTable
 71
         0
  0
DIMSTYLE
105
18
100
AcDbSymbolTableRecord
100
AcDbDimStyleTableRecord
  2
Standard
 70
         0
  3

  4

 40
1.0
 41
0.18
 42
0.0625
 43
0.38
 44
0.18
 45
0.0
 46
0.0
 47
0.0
 48
0.0
 71
         0
 72
         0
 73
         1
 74
         1
 75
         0
 76
         0
 77
         0
 78
         0
 79
         0
140
0.18
141
0.09
142
0.0
143
25.4
144
1.0
145
0.0
146
1.0
147
0.09
148
0.0
170
         0
171
         2
172
         0
173
         0
174
         0
175
         0
176
         0
177
         0
178
         0
179
         0
271
         4
272
         4
273
         2
274
         2
275
         0
276
         0
277
         2
278
        46
279
         0
280
         0
281
         0
282
         0
283
         1
284
         0
285
         0
286
         0
288
         0
340
17
341
0
342
0
343
0
344
0
371
        -2
372
        -2
  0
DIMSTYLE
105
6A
100
AcDbSymbolTableRecord
100
AcDbDimStyleTableRecord
  2
SLDDIMSTYLE0
 70
         0
  3

  4

 40
1.0
 41
3.0
 42
0.0625
 43
0.38
 44
1.0
 45
0.0
 46
0.0
 47
0.0
 48
0.0
 71
         0
 72
         0
 73
         1
 74
         1
 75
         0
 76
         0
 77
         0
 78
        12
 79
         0
140
3.5
141
0.09
142
0.0
143
25.4
144
1.0
145
0.0
146
1.0
147
0.875
148
0.0
170
         0
171
         2
172
         0
173
         1
174
         0
175
         0
176
       255
177
       255
178
       255
179
         0
271
         2
272
         4
273
         2
274
         2
275
         0
276
         0
277
         2
278
        46
279
         0
280
         0
281
         0
282
         0
283
         1
284
        12
285
         0
286
         0
288
         0
340
17
341
0
342
0
343
0
344
0
371
        -2
372
        -2
  0
DIMSTYLE
105
83
100
AcDbSymbolTableRecord
100
AcDbDimStyleTableRecord
  2
SLDDIMSTYLE1
 70
         0
  3

  4

 40
1.0
 41
3.0
 42
0.0625
 43
0.38
 44
1.0
 45
0.0
 46
0.0
 47
0.0
 48
0.0
 71
         0
 72
         0
 73
         1
 74
         1
 75
         0
 76
         0
 77
         0
 78
        12
 79
         0
140
3.5
141
0.09
142
0.0
143
25.4
144
1.0
145
0.0
146
1.0
147
0.875
148
0.0
170
         0
171
         2
172
         1
173
         1
174
         0
175
         0
176
       255
177
       255
178
       255
179
         0
271
         2
272
         4
273
         2
274
         2
275
         0
276
         0
277
         2
278
        46
279
         0
280
         0
281
         0
282
         0
283
         1
284
        12
285
         0
286
         0
288
         0
340
17
341
0
342
0
343
0
344
0
371
        -2
372
        -2
  0
DIMSTYLE
105
287
100
AcDbSymbolTableRecord
100
AcDbDimStyleTableRecord
  2
SLDDIMSTYLE2
 70
         0
  3

  4

 40
1.0
 41
3.0
 42
0.0625
 43
0.38
 44
1.0
 45
0.0
 46
0.0
 47
0.0
 48
0.0
 71
         0
 72
         0
 73
         1
 74
         1
 75
         0
 76
         0
 77
         0
 78
        12
 79
         0
140
3.5
141
0.09
142
0.0
143
25.4
144
1.0
145
0.0
146
1.0
147
0.875
148
0.0
170
         0
171
         2
172
         0
173
         1
174
         0
175
         0
176
       255
177
       255
178
       255
179
         0
271
         2
272
         4
273
         2
274
         2
275
         0
276
         0
277
         2
278
        46
279
         0
280
         0
281
         0
282
         0
283
         1
284
        12
285
         0
286
         0
288
         0
340
17
341
0
342
0
343
0
344
0
371
        -2
372
        -2
  0
DIMSTYLE
105
295
100
AcDbSymbolTableRecord
100
AcDbDimStyleTableRecord
  2
SLDDIMSTYLE3
 70
         0
  3

  4

 40
1.0
 41
3.0
 42
0.0625
 43
0.38
 44
1.0
 45
0.0
 46
0.0
 47
0.0
 48
0.0
 71
         0
 72
         0
 73
         1
 74
         1
 75
         0
 76
         0
 77
         0
 78
        12
 79
         0
140
3.5
141
0.09
142
0.0
143
25.4
144
1.0
145
0.0
146
1.0
147
0.875
148
0.0
170
         0
171
         2
172
         0
173
         1
174
         0
175
         0
176
       255
177
       255
178
       255
179
         0
271
         2
272
         4
273
         2
274
         2
275
         0
276
         0
277
         2
278
        46
279
         0
280
         0
281
         0
282
         0
283
         1
284
        12
285
         0
286
         0
288
         0
340
17
341
0
342
0
343
0
344
0
371
        -2
372
        -2
  0
DIMSTYLE
105
2DF
100
AcDbSymbolTableRecord
100
AcDbDimStyleTableRecord
  2
SLDDIMSTYLE4
 70
         0
  3

  4

 40
1.0
 41
3.0
 42
0.0625
 43
0.38
 44
1.0
 45
0.0
 46
0.0
 47
0.0
 48
0.0
 71
         0
 72
         0
 73
         1
 74
         1
 75
         0
 76
         0
 77
         0
 78
         8
 79
         0
140
3.5
141
0.09
142
0.0
143
25.4
144
1.0
145
0.0
146
1.0
147
0.875
148
0.0
170
         0
171
         2
172
         0
173
         1
174
         0
175
         0
176
       255
177
       255
178
       255
179
         0
271
         0
272
         4
273
         2
274
         2
275
         0
276
         0
277
         2
278
        46
279
         0
280
         0
281
         0
282
         0
283
         1
284
        12
285
         0
286
         0
288
         0
340
17
341
0
342
0
343
2E0
344
2E0
371
        -2
372
        -2
  0
DIMSTYLE
105
2EB
100
AcDbSymbolTableRecord
100
AcDbDimStyleTableRecord
  2
SLDDIMSTYLE5
 70
         0
  3

  4

 40
1.0
 41
3.0
 42
0.0625
 43
0.38
 44
1.0
 45
0.0
 46
0.0
 47
0.0
 48
0.0
 71
         0
 72
         0
 73
         1
 74
         1
 75
         0
 76
         0
 77
         0
 78
        12
 79
         0
140
3.5
141
0.09
142
0.0
143
25.4
144
1.0
145
0.0
146
1.0
147
0.875
148
0.0
170
         0
171
         2
172
         0
173
         1
174
         0
175
         0
176
       255
177
       255
178
       255
179
         0
271
         2
272
         4
273
         2
274
         2
275
         0
276
         0
277
         2
278
        46
279
         0
280
         0
281
         0
282
         0
283
         1
284
        12
285
         0
286
         0
288
         0
340
17
341
0
342
0
343
2E0
344
2E0
371
        -2
372
        -2
  0
DIMSTYLE
105
33D
100
AcDbSymbolTableRecord
100
AcDbDimStyleTableRecord
  2
SLDDIMSTYLE6
 70
         0
  3

  4

 40
1.0
 41
3.0
 42
0.0625
 43
0.38
 44
0.0
 45
0.0
 46
0.0
 47
0.0
 48
0.0
 71
         0
 72
         0
 73
         1
 74
         1
 75
         0
 76
         0
 77
         0
 78
         0
 79
         0
140
6.0
141
0.09
142
0.0
143
25.4
144
1.0
145
0.0
146
1.0
147
1.5
148
0.0
170
         0
171
         2
172
         0
173
         1
174
         0
175
         0
176
         0
177
         0
178
         0
179
         0
271
         0
272
         0
273
         2
274
         2
275
         0
276
         0
277
         2
278
        46
279
         0
280
         0
281
         0
282
         0
283
         1
284
         0
285
         0
286
         0
288
         0
340
17
341
0
342
0
343
0
344
0
371
        -2
372
        -2
  0
ENDTAB
  0
TABLE
  2
BLOCK_RECORD
  5
1
100
AcDbSymbolTable
 70
        23
  0
BLOCK_RECORD
  5
A
100
AcDbSymbolTableRecord
100
AcDbBlockTableRecord
  2
*MODEL_SPACE
340
20
  0
BLOCK_RECORD
  5
B
100
AcDbSymbolTableRecord
100
AcDbBlockTableRecord
  2
*PAPER_SPACE
340
21
  0
BLOCK_RECORD
  5
62
100
AcDbSymbolTableRecord
100
AcDbBlockTableRecord
  2
*D0
340
0
  0
BLOCK_RECORD
  5
6F
100
AcDbSymbolTableRecord
100
AcDbBlockTableRecord
  2
*D1
340
0
  0
BLOCK_RECORD
  5
7B
100
AcDbSymbolTableRecord
100
AcDbBlockTableRecord
  2
*D2
340
0
  0
BLOCK_RECORD
  5
264
100
AcDbSymbolTableRecord
100
AcDbBlockTableRecord
  2
*D3
340
0
  0
BLOCK_RECORD
  5
271
100
AcDbSymbolTableRecord
100
AcDbBlockTableRecord
  2
*D4
340
0
  0
BLOCK_RECORD
  5
27F
100
AcDbSymbolTableRecord
100
AcDbBlockTableRecord
  2
*D5
340
0
  0
BLOCK_RECORD
  5
28C
100
AcDbSymbolTableRecord
100
AcDbBlockTableRecord
  2
*D6
340
0
  0
BLOCK_RECORD
  5
29C
100
AcDbSymbolTableRecord
100
AcDbBlockTableRecord
  2
*D7
340
0
  0
BLOCK_RECORD
  5
2A8
100
AcDbSymbolTableRecord
100
AcDbBlockTableRecord
  2
*D8
340
0
  0
BLOCK_RECORD
  5
2B5
100
AcDbSymbolTableRecord
100
AcDbBlockTableRecord
  2
*D9
340
0
  0
BLOCK_RECORD
  5
2C1
100
AcDbSymbolTableRecord
100
AcDbBlockTableRecord
  2
*D10
340
0
  0
BLOCK_RECORD
  5
2DB
100
AcDbSymbolTableRecord
100
AcDbBlockTableRecord
  2
*D11
340
0
  0
BLOCK_RECORD
  5
2E0
100
AcDbSymbolTableRecord
100
AcDbBlockTableRecord
  2
_NONE
340
0
  0
BLOCK_RECORD
  5
2E7
100
AcDbSymbolTableRecord
100
AcDbBlockTableRecord
  2
*D13
340
0
  0
BLOCK_RECORD
  5
2F0
100
AcDbSymbolTableRecord
100
AcDbBlockTableRecord
  2
*D14
340
0
  0
BLOCK_RECORD
  5
2F8
100
AcDbSymbolTableRecord
100
AcDbBlockTableRecord
  2
*D15
340
0
  0
BLOCK_RECORD
  5
300
100
AcDbSymbolTableRecord
100
AcDbBlockTableRecord
  2
*D16
340
0
  0
BLOCK_RECORD
  5
308
100
AcDbSymbolTableRecord
100
AcDbBlockTableRecord
  2
*D17
340
0
  0
BLOCK_RECORD
  5
310
100
AcDbSymbolTableRecord
100
AcDbBlockTableRecord
  2
*D18
340
0
  0
BLOCK_RECORD
  5
318
100
AcDbSymbolTableRecord
100
AcDbBlockTableRecord
  2
*D19
340
0
  0
BLOCK_RECORD
  5
320
100
AcDbSymbolTableRecord
100
AcDbBlockTableRecord
  2
*D20
340
0
  0
BLOCK_RECORD
  5
328
100
AcDbSymbolTableRecord
100
AcDbBlockTableRecord
  2
*D21
340
0
  0
BLOCK_RECORD
  5
330
100
AcDbSymbolTableRecord
100
AcDbBlockTableRecord
  2
*D22
340
0
  0
ENDTAB
  0
ENDSEC
  0
SECTION
  2
BLOCKS
  0
BLOCK
  5
D
100
AcDbEntity
  8
0
100
AcDbBlockBegin
  2
*MODEL_SPACE
 70
         0
 10
0.0
 20
0.0
 30
0.0
  3
*MODEL_SPACE
  1

  0
ENDBLK
  5
E
100
AcDbEntity
  8
0
100
AcDbBlockEnd
  0
BLOCK
  5
F
100
AcDbEntity
 67
         1
  8
0
100
AcDbBlockBegin
  2
*PAPER_SPACE
 70
         0
 10
0.0
 20
0.0
 30
0.0
  3
*PAPER_SPACE
  1

  0
ENDBLK
  5
10
100
AcDbEntity
 67
         1
  8
0
100
AcDbBlockEnd
  0
BLOCK
  5
63
100
AcDbEntity
  8
0
 62
       255
100
AcDbBlockBegin
  2
*D0
 70
         1
 10
0.0
 20
0.0
 30
0.0
  3
*D0
  1

  0
MTEXT
  5
64
100
AcDbEntity
  8
0
 62
         7
100
AcDbMText
 10
96.0613949965
 20
97.6325294027
 30
0.0
 40
3.5
 41
0.0
 71
         7
 72
         1
  1
50
  7
SLDTEXTSTYLE0
 11
0.0
 21
1.0
 31
0.0
 73
         1
 44
1.0
  0
LINE
  5
65
100
AcDbEntity
  8
0
100
AcDbLine
 10
116.5531718315
 20
125.1959917233
 30
0.0
 11
96.5613949965
 21
125.1959917233
 31
0.0
  0
LINE
  5
66
100
AcDbEntity
  8
0
100
AcDbLine
 10
116.5531718315
 20
75.1959917233
 30
0.0
 11
96.5613949965
 21
75.1959917233
 31
0.0
  0
LINE
  5
67
100
AcDbEntity
  8
0
100
AcDbLine
 10
97.5613949965
 20
125.1959917233
 30
0.0
 11
97.5613949965
 21
75.1959917233
 31
0.0
  0
SOLID
  5
68
100
AcDbEntity
  8
0
 62
       255
100
AcDbTrace
 10
97.5613949965
 20
125.1959917233
 30
0.0
 11
97.1113949965
 21
122.1959917233
 31
0.0
 12
98.0113949965
 22
122.1959917233
 32
0.0
 13
98.0113949965
 23
122.1959917233
 33
0.0
  0
SOLID
  5
69
100
AcDbEntity
  8
0
 62
       255
100
AcDbTrace
 10
97.5613949965
 20
75.1959917233
 30
0.0
 11
98.0113949965
 21
78.1959917233
 31
0.0
 12
97.1113949965
 22
78.1959917233
 32
0.0
 13
97.1113949965
 23
78.1959917233
 33
0.0
  0
POINT
  5
6B
100
AcDbEntity
  8
0
 62
         7
100
AcDbPoint
 10
117.5531718315
 20
125.1959917233
 30
0.0
  0
POINT
  5
6C
100
AcDbEntity
  8
0
 62
         7
100
AcDbPoint
 10
117.5531718315
 20
75.1959917233
 30
0.0
  0
ENDBLK
  5
6D
100
AcDbEntity
  8
0
 62
       255
100
AcDbBlockEnd
  0
BLOCK
  5
70
100
AcDbEntity
  8
0
 62
       255
100
AcDbBlockBegin
  2
*D1
 70
         1
 10
0.0
 20
0.0
 30
0.0
  3
*D1
  1

  0
MTEXT
  5
71
100
AcDbEntity
  8
0
 62
         7
100
AcDbMText
 10
138.7692259232
 20
65.3544067305
 30
0.0
 40
3.5
 41
0.0
 71
         7
 72
         1
  1
50
  7
SLDTEXTSTYLE0
 73
         1
 44
1.0
  0
LINE
  5
72
100
AcDbEntity
  8
0
100
AcDbLine
 10
117.5531718315
 20
74.1959917233
 30
0.0
 11
117.5531718315
 21
62.8544067305
 31
0.0
  0
LINE
  5
73
100
AcDbEntity
  8
0
100
AcDbLine
 10
167.5531718315
 20
74.1959917233
 30
0.0
 11
167.5531718315
 21
62.8544067305
 31
0.0
  0
LINE
  5
74
100
AcDbEntity
  8
0
100
AcDbLine
 10
117.5531718315
 20
63.8544067305
 30
0.0
 11
167.5531718315
 21
63.8544067305
 31
0.0
  0
SOLID
  5
75
100
AcDbEntity
  8
0
 62
       255
100
AcDbTrace
 10
117.5531718315
 20
63.8544067305
 30
0.0
 11
120.5531718315
 21
63.4044067305
 31
0.0
 12
120.5531718315
 22
64.3044067305
 32
0.0
 13
120.5531718315
 23
64.3044067305
 33
0.0
  0
SOLID
  5
76
100
AcDbEntity
  8
0
 62
       255
100
AcDbTrace
 10
167.5531718315
 20
63.8544067305
 30
0.0
 11
164.5531718315
 21
64.3044067305
 31
0.0
 12
164.5531718315
 22
63.4044067305
 32
0.0
 13
164.5531718315
 23
63.4044067305
 33
0.0
  0
POINT
  5
77
100
AcDbEntity
  8
0
 62
         7
100
AcDbPoint
 10
117.5531718315
 20
75.1959917233
 30
0.0
  0
POINT
  5
78
100
AcDbEntity
  8
0
 62
         7
100
AcDbPoint
 10
167.5531718315
 20
75.1959917233
 30
0.0
  0
ENDBLK
  5
79
100
AcDbEntity
  8
0
 62
       255
100
AcDbBlockEnd
  0
BLOCK
  5
7C
100
AcDbEntity
  8
0
 62
       255
100
AcDbBlockBegin
  2
*D2
 70
         1
 10
0.0
 20
0.0
 30
0.0
  3
*D2
  1

  0
MTEXT
  5
7D
100
AcDbEntity
  8
0
 62
         7
100
AcDbMText
 10
176.7514597534
 20
121.0387150295
 30
0.0
 40
3.5
 41
0.0
 71
         7
 72
         1
  1
%%c
  7
SLDTEXTSTYLE0
 73
         1
 44
1.0
  0
MTEXT
  5
7E
100
AcDbEntity
  8
0
 62
         7
100
AcDbMText
 10
181.7512934613
 20
121.0387150295
 30
0.0
 40
3.5
 41
0.0
 71
         7
 72
         1
  1
40
  7
SLDTEXTSTYLE0
 73
         1
 44
1.0
  0
LINE
  5
7F
100
AcDbEntity
  8
0
100
AcDbLine
 10
159.5246422984
 20
110.7775412408
 30
0.0
 11
173.5764597534
 21
119.5387150295
 31
0.0
  0
LINE
  5
80
100
AcDbEntity
  8
0
100
AcDbLine
 10
125.5817013646
 20
89.6144422058
 30
0.0
 11
159.5246422984
 21
110.7775412408
 31
0.0
  0
LINE
  5
81
100
AcDbEntity
  8
0
100
AcDbLine
 10
173.5764597534
 20
119.5387150295
 30
0.0
 11
188.5050361579
 21
119.5387150295
 31
0.0
  0
SOLID
  5
82
100
AcDbEntity
  8
0
 62
       255
100
AcDbTrace
 10
159.5246422984
 20
110.7775412408
 30
0.0
 11
162.3084477325
 21
111.9829155829
 31
0.0
 12
161.8322780043
 22
112.7466317539
 32
0.0
 13
161.8322780043
 23
112.7466317539
 33
0.0
  0
POINT
  5
84
100
AcDbEntity
  8
0
 62
         7
100
AcDbPoint
 10
159.5246422984
 20
110.7775412408
 30
0.0
  0
POINT
  5
85
100
AcDbEntity
  8
0
 62
         7
100
AcDbPoint
 10
125.5817013646
 20
89.6144422058
 30
0.0
  0
ENDBLK
  5
86
100
AcDbEntity
  8
0
100
AcDbBlockEnd
  0
BLOCK
  5
265
100
AcDbEntity
  8
0
 62
       255
100
AcDbBlockBegin
  2
*D3
 70
         1
 10
0.0
 20
0.0
 30
0.0
  3
*D3
  1

  0
MTEXT
  5
266
100
AcDbEntity
  8
0
 62
         7
100
AcDbMText
 10
95.9590919669
 20
147.2291996754
 30
0.0
 40
3.5
 41
0.0
 71
         7
 72
         1
  1
9,23
  7
SLDTEXTSTYLE0
 11
0.0
 21
1.0
 31
0.0
 73
         1
 44
1.0
  0
LINE
  5
267
100
AcDbEntity
  8
0
100
AcDbLine
 10
139.3240004868
 20
150.8867445292
 30
0.0
 11
96.4590919669
 21
150.8867445292
 31
0.0
  0
LINE
  5
268
100
AcDbEntity
  8
0
100
AcDbLine
 10
116.5531718315
 20
141.6602472211
 30
0.0
 11
96.4590919669
 21
141.6602472211
 31
0.0
  0
LINE
  5
269
100
AcDbEntity
  8
0
100
AcDbLine
 10
97.4590919669
 20
150.8867445292
 30
0.0
 11
97.4590919669
 21
157.8557333832
 31
0.0
  0
LINE
  5
26A
100
AcDbEntity
  8
0
100
AcDbLine
 10
97.4590919669
 20
150.8867445292
 30
0.0
 11
97.4590919669
 21
141.6602472211
 31
0.0
  0
SOLID
  5
26B
100
AcDbEntity
  8
0
 62
       255
100
AcDbTrace
 10
97.4590919669
 20
150.8867445292
 30
0.0
 11
97.0090919669
 21
147.8867445292
 31
0.0
 12
97.9090919669
 22
147.8867445292
 32
0.0
 13
97.9090919669
 23
147.8867445292
 33
0.0
  0
SOLID
  5
26C
100
AcDbEntity
  8
0
 62
       255
100
AcDbTrace
 10
97.4590919669
 20
141.6602472211
 30
0.0
 11
97.9090919669
 21
144.6602472211
 31
0.0
 12
97.0090919669
 22
144.6602472211
 32
0.0
 13
97.0090919669
 23
144.6602472211
 33
0.0
  0
POINT
  5
26D
100
AcDbEntity
  8
0
 62
         7
100
AcDbPoint
 10
140.3240004868
 20
150.8867445292
 30
0.0
  0
POINT
  5
26E
100
AcDbEntity
  8
0
 62
         7
100
AcDbPoint
 10
117.5531718315
 20
141.6602472211
 30
0.0
  0
ENDBLK
  5
26F
100
AcDbEntity
  8
0
 62
       255
100
AcDbBlockEnd
  0
BLOCK
  5
272
100
AcDbEntity
  8
0
 62
       255
100
AcDbBlockBegin
  2
*D4
 70
         1
 10
0.0
 20
0.0
 30
0.0
  3
*D4
  1

  0
MTEXT
  5
273
100
AcDbEntity
  8
0
 62
         7
100
AcDbMText
 10
106.9676311608
 20
160.548457214
 30
0.0
 40
3.5
 41
0.0
 71
         7
 72
         1
  1
5
  7
SLDTEXTSTYLE0
 11
0.0
 21
1.0
 31
0.0
 73
         1
 44
1.0
  0
LINE
  5
274
100
AcDbEntity
  8
0
100
AcDbLine
 10
161.5531718315
 20
161.6602472211
 30
0.0
 11
107.4676311608
 21
161.6602472211
 31
0.0
  0
LINE
  5
275
100
AcDbEntity
  8
0
100
AcDbLine
 10
161.5531718315
 20
166.6602472211
 30
0.0
 11
107.4676311608
 21
166.6602472211
 31
0.0
  0
LINE
  5
276
100
AcDbEntity
  8
0
100
AcDbLine
 10
108.4676311608
 20
161.6602472211
 30
0.0
 11
108.4676311608
 21
156.6602472211
 31
0.0
  0
LINE
  5
277
100
AcDbEntity
  8
0
100
AcDbLine
 10
108.4676311608
 20
161.6602472211
 30
0.0
 11
108.4676311608
 21
166.6602472211
 31
0.0
  0
LINE
  5
278
100
AcDbEntity
  8
0
100
AcDbLine
 10
108.4676311608
 20
166.6602472211
 30
0.0
 11
108.4676311608
 21
171.6602472211
 31
0.0
  0
SOLID
  5
279
100
AcDbEntity
  8
0
 62
       255
100
AcDbTrace
 10
108.4676311608
 20
161.6602472211
 30
0.0
 11
108.0176311608
 21
158.6602472211
 31
0.0
 12
108.9176311608
 22
158.6602472211
 32
0.0
 13
108.9176311608
 23
158.6602472211
 33
0.0
  0
SOLID
  5
27A
100
AcDbEntity
  8
0
 62
       255
100
AcDbTrace
 10
108.4676311608
 20
166.6602472211
 30
0.0
 11
108.9176311608
 21
169.6602472211
 31
0.0
 12
108.0176311608
 22
169.6602472211
 32
0.0
 13
108.0176311608
 23
169.6602472211
 33
0.0
  0
POINT
  5
27B
100
AcDbEntity
  8
0
 62
         7
100
AcDbPoint
 10
162.5531718315
 20
161.6602472211
 30
0.0
  0
POINT
  5
27C
100
AcDbEntity
  8
0
 62
         7
100
AcDbPoint
 10
162.5531718315
 20
166.6602472211
 30
0.0
  0
ENDBLK
  5
27D
100
AcDbEntity
  8
0
 62
       255
100
AcDbBlockEnd
  0
BLOCK
  5
280
100
AcDbEntity
  8
0
 62
       255
100
AcDbBlockBegin
  2
*D5
 70
         1
 10
0.0
 20
0.0
 30
0.0
  3
*D5
  1

  0
MTEXT
  5
281
100
AcDbEntity
  8
0
 62
         7
100
AcDbMText
 10
157.8568291668
 20
135.120862048
 30
0.0
 40
3.5
 41
0.0
 71
         7
 72
         1
  1
R
  7
SLDTEXTSTYLE0
 73
         1
 44
1.0
  0
MTEXT
  5
282
100
AcDbEntity
  8
0
 62
         7
100
AcDbMText
 10
160.6857819758
 20
135.120862048
 30
0.0
 40
3.5
 41
0.0
 71
         7
 72
         1
  1
5
  7
SLDTEXTSTYLE0
 73
         1
 44
1.0
  0
LINE
  5
283
100
AcDbEntity
  8
0
100
AcDbLine
 10
144.9449442312
 20
151.4959103502
 30
0.0
 11
154.6818291668
 21
133.620862048
 31
0.0
  0
LINE
  5
284
100
AcDbEntity
  8
0
100
AcDbLine
 10
142.5531718315
 20
155.8867445292
 30
0.0
 11
144.9449442312
 21
151.4959103502
 31
0.0
  0
LINE
  5
285
100
AcDbEntity
  8
0
100
AcDbLine
 10
154.6818291668
 20
133.620862048
 30
0.0
 11
164.8564033241
 21
133.620862048
 31
0.0
  0
SOLID
  5
286
100
AcDbEntity
  8
0
 62
       255
100
AcDbTrace
 10
144.9449442312
 20
151.4959103502
 30
0.0
 11
145.9848325949
 21
148.6461503268
 31
0.0
 12
146.7751827471
 22
149.0766693587
 32
0.0
 13
146.7751827471
 23
149.0766693587
 33
0.0
  0
POINT
  5
288
100
AcDbEntity
  8
0
 62
         7
100
AcDbPoint
 10
144.9449442312
 20
151.4959103502
 30
0.0
  0
POINT
  5
289
100
AcDbEntity
  8
0
 62
         7
100
AcDbPoint
 10
142.5531718315
 20
155.8867445292
 30
0.0
  0
ENDBLK
  5
28A
100
AcDbEntity
  8
0
100
AcDbBlockEnd
  0
BLOCK
  5
28D
100
AcDbEntity
  8
0
 62
       255
100
AcDbBlockBegin
  2
*D6
 70
         1
 10
0.0
 20
0.0
 30
0.0
  3
*D6
  1

  0
MTEXT
  5
28E
100
AcDbEntity
  8
0
 62
         7
100
AcDbMText
 10
153.6625700801
 20
185.6710743357
 30
0.0
 40
3.5
 41
0.0
 71
         7
 72
         1
  1
30%%d
  7
SLDTEXTSTYLE0
 11
0.9318705413
 21
-0.3627909787
 31
0.0
 73
         1
 44
1.0
  0
LINE
  5
28F
100
AcDbEntity
  8
0
100
AcDbLine
 10
144.8929177936
 20
150.8867445292
 30
0.0
 11
178.3517517544
 21
150.8867445292
 31
0.0
  0
LINE
  5
290
100
AcDbEntity
  8
0
100
AcDbLine
 10
163.4191972352
 20
162.1602472211
 30
0.0
 11
174.6011687922
 21
168.6161615096
 31
0.0
  0
ARC
  5
291
100
AcDbEntity
  8
0
100
AcDbCircle
 10
143.8929177936
 20
150.8867445292
 30
0.0
 40
34.4588339608
100
AcDbArc
 50
0.0
 51
30.0
  0
ARC
  5
292
100
AcDbEntity
  8
0
100
AcDbCircle
 10
143.8929177936
 20
150.8867445292
 30
0.0
 40
34.4588339608
100
AcDbArc
 50
30.0
 51
77.1518167209
  0
SOLID
  5
293
100
AcDbEntity
  8
0
 62
       255
100
AcDbTrace
 10
178.3517517544
 20
150.8867445292
 30
0.0
 11
178.6711063829
 21
153.90345012
 31
0.0
 12
177.7719546611
 22
153.8643837503
 32
0.0
 13
177.7719546611
 23
153.8643837503
 33
0.0
  0
SOLID
  5
294
100
AcDbEntity
  8
0
 62
       255
100
AcDbTrace
 10
173.7351433884
 20
168.1161615096
 30
0.0
 11
174.7218439871
 21
165.2475517543
 31
0.0
 12
175.5200654049
 22
165.6632951465
 32
0.0
 13
175.5200654049
 23
165.6632951465
 33
0.0
  0
POINT
  5
296
100
AcDbEntity
  8
0
 62
         7
100
AcDbPoint
 10
142.5531718315
 20
150.8867445292
 30
0.0
  0
POINT
  5
297
100
AcDbEntity
  8
0
 62
         7
100
AcDbPoint
 10
191.7354185717
 20
150.8867445292
 30
0.0
  0
POINT
  5
298
100
AcDbEntity
  8
0
 62
         7
100
AcDbPoint
 10
162.5531718315
 20
161.6602472211
 30
0.0
  0
POINT
  5
299
100
AcDbEntity
  8
0
 62
         7
100
AcDbPoint
 10
145.0531718315
 20
151.5566175103
 30
0.0
  0
ENDBLK
  5
29A
100
AcDbEntity
  8
0
100
AcDbBlockEnd
  0
BLOCK
  5
29D
100
AcDbEntity
  8
0
 62
       255
100
AcDbBlockBegin
  2
*D7
 70
         1
 10
0.0
 20
0.0
 30
0.0
  3
*D7
  1

  0
MTEXT
  5
29E
100
AcDbEntity
  8
0
 62
         7
100
AcDbMText
 10
140.1080064708
 20
185.5966250948
 30
0.0
 40
3.5
 41
0.0
 71
         7
 72
         1
  1
50
  7
SLDTEXTSTYLE0
 11
1.0
 21
0.0
 31
0.0
 73
         1
 44
1.0
  0
LINE
  5
29F
100
AcDbEntity
  8
0
100
AcDbLine
 10
167.5531718315
 20
167.6602472211
 30
0.0
 11
167.5531718315
 21
185.0966250948
 31
0.0
  0
LINE
  5
2A0
100
AcDbEntity
  8
0
100
AcDbLine
 10
117.5531718315
 20
167.6602472211
 30
0.0
 11
117.5531718315
 21
185.0966250948
 31
0.0
  0
LINE
  5
2A1
100
AcDbEntity
  8
0
100
AcDbLine
 10
167.5531718315
 20
184.0966250948
 30
0.0
 11
117.5531718315
 21
184.0966250948
 31
0.0
  0
SOLID
  5
2A2
100
AcDbEntity
  8
0
 62
       255
100
AcDbTrace
 10
167.5531718315
 20
184.0966250948
 30
0.0
 11
164.5531718315
 21
184.5466250948
 31
0.0
 12
164.5531718315
 22
183.6466250948
 32
0.0
 13
164.5531718315
 23
183.6466250948
 33
0.0
  0
SOLID
  5
2A3
100
AcDbEntity
  8
0
 62
       255
100
AcDbTrace
 10
117.5531718315
 20
184.0966250948
 30
0.0
 11
120.5531718315
 21
183.6466250948
 31
0.0
 12
120.5531718315
 22
184.5466250948
 32
0.0
 13
120.5531718315
 23
184.5466250948
 33
0.0
  0
POINT
  5
2A4
100
AcDbEntity
  8
0
 62
         7
100
AcDbPoint
 10
167.5531718315
 20
166.6602472211
 30
0.0
  0
POINT
  5
2A5
100
AcDbEntity
  8
0
 62
         7
100
AcDbPoint
 10
117.5531718315
 20
166.6602472211
 30
0.0
  0
ENDBLK
  5
2A6
100
AcDbEntity
  8
0
 62
       255
100
AcDbBlockEnd
  0
BLOCK
  5
2A9
100
AcDbEntity
  8
0
 62
       255
100
AcDbBlockBegin
  2
*D8
 70
         1
 10
0.0
 20
0.0
 30
0.0
  3
*D8
  1

  0
MTEXT
  5
2AA
100
AcDbEntity
  8
0
 62
         7
100
AcDbMText
 10
137.4095209858
 20
176.724897973
 30
0.0
 40
3.5
 41
0.0
 71
         7
 72
         1
  1
%%c
  7
SLDTEXTSTYLE0
 11
1.0
 21
0.0
 31
0.0
 73
         1
 44
1.0
  0
MTEXT
  5
2AB
100
AcDbEntity
  8
0
 62
         7
100
AcDbMText
 10
142.4093546936
 20
176.724897973
 30
0.0
 40
3.5
 41
0.0
 71
         7
 72
         1
  1
40
  7
SLDTEXTSTYLE0
 11
1.0
 21
0.0
 31
0.0
 73
         1
 44
1.0
  0
LINE
  5
2AC
100
AcDbEntity
  8
0
100
AcDbLine
 10
162.5531718315
 20
167.6602472211
 30
0.0
 11
162.5531718315
 21
176.224897973
 31
0.0
  0
LINE
  5
2AD
100
AcDbEntity
  8
0
100
AcDbLine
 10
122.5531718315
 20
167.6602472211
 30
0.0
 11
122.5531718315
 21
176.224897973
 31
0.0
  0
LINE
  5
2AE
100
AcDbEntity
  8
0
100
AcDbLine
 10
162.5531718315
 20
175.224897973
 30
0.0
 11
122.5531718315
 21
175.224897973
 31
0.0
  0
SOLID
  5
2AF
100
AcDbEntity
  8
0
 62
       255
100
AcDbTrace
 10
162.5531718315
 20
175.224897973
 30
0.0
 11
159.5531718315
 21
175.674897973
 31
0.0
 12
159.5531718315
 22
174.774897973
 32
0.0
 13
159.5531718315
 23
174.774897973
 33
0.0
  0
SOLID
  5
2B0
100
AcDbEntity
  8
0
 62
       255
100
AcDbTrace
 10
122.5531718315
 20
175.224897973
 30
0.0
 11
125.5531718315
 21
174.774897973
 31
0.0
 12
125.5531718315
 22
175.674897973
 32
0.0
 13
125.5531718315
 23
175.674897973
 33
0.0
  0
POINT
  5
2B1
100
AcDbEntity
  8
0
 62
         7
100
AcDbPoint
 10
162.5531718315
 20
166.6602472211
 30
0.0
  0
POINT
  5
2B2
100
AcDbEntity
  8
0
 62
         7
100
AcDbPoint
 10
122.5531718315
 20
166.6602472211
 30
0.0
  0
ENDBLK
  5
2B3
100
AcDbEntity
  8
0
 62
       255
100
AcDbBlockEnd
  0
BLOCK
  5
2B6
100
AcDbEntity
  8
0
 62
       255
100
AcDbBlockBegin
  2
*D9
 70
         1
 10
0.0
 20
0.0
 30
0.0
  3
*D9
  1

  0
MTEXT
  5
2B7
100
AcDbEntity
  8
0
 62
         7
100
AcDbMText
 10
85.4048890132
 20
155.0588624192
 30
0.0
 40
3.5
 41
0.0
 71
         7
 72
         1
  1
25
  7
SLDTEXTSTYLE0
 11
0.0
 21
1.0
 31
0.0
 73
         1
 44
1.0
  0
LINE
  5
2B8
100
AcDbEntity
  8
0
100
AcDbLine
 10
121.5531718315
 20
166.6602472211
 30
0.0
 11
85.9048890132
 21
166.6602472211
 31
0.0
  0
LINE
  5
2B9
100
AcDbEntity
  8
0
100
AcDbLine
 10
116.5531718315
 20
141.6602472211
 30
0.0
 11
85.9048890132
 21
141.6602472211
 31
0.0
  0
LINE
  5
2BA
100
AcDbEntity
  8
0
100
AcDbLine
 10
86.9048890132
 20
166.6602472211
 30
0.0
 11
86.9048890132
 21
141.6602472211
 31
0.0
  0
SOLID
  5
2BB
100
AcDbEntity
  8
0
 62
       255
100
AcDbTrace
 10
86.9048890132
 20
166.6602472211
 30
0.0
 11
86.4548890132
 21
163.6602472211
 31
0.0
 12
87.3548890132
 22
163.6602472211
 32
0.0
 13
87.3548890132
 23
163.6602472211
 33
0.0
  0
SOLID
  5
2BC
100
AcDbEntity
  8
0
 62
       255
100
AcDbTrace
 10
86.9048890132
 20
141.6602472211
 30
0.0
 11
87.3548890132
 21
144.6602472211
 31
0.0
 12
86.4548890132
 22
144.6602472211
 32
0.0
 13
86.4548890132
 23
144.6602472211
 33
0.0
  0
POINT
  5
2BD
100
AcDbEntity
  8
0
 62
         7
100
AcDbPoint
 10
122.5531718315
 20
166.6602472211
 30
0.0
  0
POINT
  5
2BE
100
AcDbEntity
  8
0
 62
         7
100
AcDbPoint
 10
117.5531718315
 20
141.6602472211
 30
0.0
  0
ENDBLK
  5
2BF
100
AcDbEntity
  8
0
 62
       255
100
AcDbBlockEnd
  0
BLOCK
  5
2C2
100
AcDbEntity
  8
0
 62
       255
100
AcDbBlockBegin
  2
*D10
 70
         1
 10
0.0
 20
0.0
 30
0.0
  3
*D10
  1

  0
MTEXT
  5
2C3
100
AcDbEntity
  8
0
 62
         7
100
AcDbMText
 10
106.9676311608
 20
144.6602142955
 30
0.0
 40
3.5
 41
0.0
 71
         7
 72
         1
  1
6
  7
SLDTEXTSTYLE0
 11
0.0
 21
1.0
 31
0.0
 73
         1
 44
1.0
  0
LINE
  5
2C4
100
AcDbEntity
  8
0
100
AcDbLine
 10
137.3031718315
 20
147.6602472211
 30
0.0
 11
107.4676311608
 21
147.6602472211
 31
0.0
  0
LINE
  5
2C5
100
AcDbEntity
  8
0
100
AcDbLine
 10
137.3031718315
 20
141.6602472211
 30
0.0
 11
107.4676311608
 21
141.6602472211
 31
0.0
  0
LINE
  5
2C6
100
AcDbEntity
  8
0
100
AcDbLine
 10
108.4676311608
 20
147.6602472211
 30
0.0
 11
108.4676311608
 21
152.6602472211
 31
0.0
  0
LINE
  5
2C7
100
AcDbEntity
  8
0
100
AcDbLine
 10
108.4676311608
 20
147.6602472211
 30
0.0
 11
108.4676311608
 21
141.6602472211
 31
0.0
  0
LINE
  5
2C8
100
AcDbEntity
  8
0
100
AcDbLine
 10
108.4676311608
 20
141.6602472211
 30
0.0
 11
108.4676311608
 21
136.6602472211
 31
0.0
  0
SOLID
  5
2C9
100
AcDbEntity
  8
0
 62
       255
100
AcDbTrace
 10
108.4676311608
 20
147.6602472211
 30
0.0
 11
108.9176311608
 21
150.6602472211
 31
0.0
 12
108.0176311608
 22
150.6602472211
 32
0.0
 13
108.0176311608
 23
150.6602472211
 33
0.0
  0
SOLID
  5
2CA
100
AcDbEntity
  8
0
 62
       255
100
AcDbTrace
 10
108.4676311608
 20
141.6602472211
 30
0.0
 11
108.0176311608
 21
138.6602472211
 31
0.0
 12
108.9176311608
 22
138.6602472211
 32
0.0
 13
108.9176311608
 23
138.6602472211
 33
0.0
  0
POINT
  5
2CB
100
AcDbEntity
  8
0
 62
         7
100
AcDbPoint
 10
138.3031718315
 20
147.6602472211
 30
0.0
  0
POINT
  5
2CC
100
AcDbEntity
  8
0
 62
         7
100
AcDbPoint
 10
138.3031718315
 20
141.6602472211
 30
0.0
  0
ENDBLK
  5
2CD
100
AcDbEntity
  8
0
 62
       255
100
AcDbBlockEnd
  0
BLOCK
  5
2DC
100
AcDbEntity
  8
0
 62
       255
100
AcDbBlockBegin
  2
*D11
 70
         1
 10
0.0
 20
0.0
 30
0.0
  3
*D11
  1

  0
MTEXT
  5
2DD
100
AcDbEntity
  8
0
 62
         7
100
AcDbMText
 10
118.8310673371
 20
197.6564471068
 30
0.0
 40
3.5
 41
0.0
 71
         7
 72
         1
  1
0
  7
SLDTEXTSTYLE0
 11
0.0
 21
1.0
 31
0.0
 73
         1
 44
1.0
  0
LINE
  5
2DE
100
AcDbEntity
  8
0
100
AcDbLine
 10
117.5531718315
 20
207.7187392938
 30
0.0
 11
117.5531718315
 21
201.8270684551
 31
0.0
  0
POINT
  5
2E3
100
AcDbEntity
  8
0
 62
         7
100
AcDbPoint
 10
117.5531718315
 20
208.7187392938
 30
0.0
  0
POINT
  5
2E4
100
AcDbEntity
  8
0
 62
         7
100
AcDbPoint
 10
117.5531718315
 20
201.8270684551
 30
0.0
  0
ENDBLK
  5
2E5
100
AcDbEntity
  8
0
100
AcDbBlockEnd
  0
BLOCK
  5
2E1
100
AcDbEntity
  8
0
100
AcDbBlockBegin
  2
_NONE
 70
         0
 10
0.0
 20
0.0
 30
0.0
  3
_NONE
  1

  0
ENDBLK
  5
2E2
100
AcDbEntity
  8
0
100
AcDbBlockEnd
  0
BLOCK
  5
2E8
100
AcDbEntity
  8
0
 62
       255
100
AcDbBlockBegin
  2
*D13
 70
         1
 10
0.0
 20
0.0
 30
0.0
  3
*D13
  1

  0
MTEXT
  5
2E9
100
AcDbEntity
  8
0
 62
         7
100
AcDbMText
 10
143.8310673371
 20
195.0733257584
 30
0.0
 40
3.5
 41
0.0
 71
         7
 72
         1
  1
25
  7
SLDTEXTSTYLE0
 11
0.0
 21
1.0
 31
0.0
 73
         1
 44
1.0
  0
LINE
  5
2EA
100
AcDbEntity
  8
0
100
AcDbLine
 10
142.5531718315
 20
225.9687392938
 30
0.0
 11
142.5531718315
 21
201.8270684551
 31
0.0
  0
POINT
  5
2EC
100
AcDbEntity
  8
0
 62
         7
100
AcDbPoint
 10
142.5531718315
 20
226.9687392938
 30
0.0
  0
POINT
  5
2ED
100
AcDbEntity
  8
0
 62
         7
100
AcDbPoint
 10
142.5531718315
 20
201.8270684551
 30
0.0
  0
ENDBLK
  5
2EE
100
AcDbEntity
  8
0
100
AcDbBlockEnd
  0
BLOCK
  5
2F1
100
AcDbEntity
  8
0
 62
       255
100
AcDbBlockBegin
  2
*D14
 70
         1
 10
0.0
 20
0.0
 30
0.0
  3
*D14
  1

  0
MTEXT
  5
2F2
100
AcDbEntity
  8
0
 62
         7
100
AcDbMText
 10
162.3310673371
 20
188.6174133989
 30
0.0
 40
3.5
 41
0.0
 71
         7
 72
         1
  1
43,50
  7
SLDTEXTSTYLE0
 11
0.0
 21
1.0
 31
0.0
 73
         1
 44
1.0
  0
LINE
  5
2F3
100
AcDbEntity
  8
0
100
AcDbLine
 10
161.0531718315
 20
246.2187392938
 30
0.0
 11
161.0531718315
 21
201.8270684551
 31
0.0
  0
POINT
  5
2F4
100
AcDbEntity
  8
0
 62
         7
100
AcDbPoint
 10
161.0531718315
 20
247.2187392938
 30
0.0
  0
POINT
  5
2F5
100
AcDbEntity
  8
0
 62
         7
100
AcDbPoint
 10
161.0531718315
 20
201.8270684551
 30
0.0
  0
ENDBLK
  5
2F6
100
AcDbEntity
  8
0
100
AcDbBlockEnd
  0
BLOCK
  5
2F9
100
AcDbEntity
  8
0
 62
       255
100
AcDbBlockBegin
  2
*D15
 70
         1
 10
0.0
 20
0.0
 30
0.0
  3
*D15
  1

  0
MTEXT
  5
2FA
100
AcDbEntity
  8
0
 62
         7
100
AcDbMText
 10
168.8310673371
 20
195.0733257584
 30
0.0
 40
3.5
 41
0.0
 71
         7
 72
         1
  1
50
  7
SLDTEXTSTYLE0
 11
0.0
 21
1.0
 31
0.0
 73
         1
 44
1.0
  0
LINE
  5
2FB
100
AcDbEntity
  8
0
100
AcDbLine
 10
167.5531718315
 20
207.7187392938
 30
0.0
 11
167.5531718315
 21
201.8270684551
 31
0.0
  0
POINT
  5
2FC
100
AcDbEntity
  8
0
 62
         7
100
AcDbPoint
 10
167.5531718315
 20
208.7187392938
 30
0.0
  0
POINT
  5
2FD
100
AcDbEntity
  8
0
 62
         7
100
AcDbPoint
 10
167.5531718315
 20
201.8270684551
 30
0.0
  0
ENDBLK
  5
2FE
100
AcDbEntity
  8
0
100
AcDbBlockEnd
  0
BLOCK
  5
301
100
AcDbEntity
  8
0
 62
       255
100
AcDbBlockBegin
  2
*D16
 70
         1
 10
0.0
 20
0.0
 30
0.0
  3
*D16
  1

  0
MTEXT
  5
302
100
AcDbEntity
  8
0
 62
         7
100
AcDbMText
 10
125.3310673371
 20
191.2005347472
 30
0.0
 40
3.5
 41
0.0
 71
         7
 72
         1
  1
6,50
  7
SLDTEXTSTYLE0
 11
0.0
 21
1.0
 31
0.0
 73
         1
 44
1.0
  0
LINE
  5
303
100
AcDbEntity
  8
0
100
AcDbLine
 10
124.0531718315
 20
251.2187392938
 30
0.0
 11
124.0531718315
 21
201.8270684551
 31
0.0
  0
POINT
  5
304
100
AcDbEntity
  8
0
 62
         7
100
AcDbPoint
 10
124.0531718315
 20
252.2187392938
 30
0.0
  0
POINT
  5
305
100
AcDbEntity
  8
0
 62
         7
100
AcDbPoint
 10
124.0531718315
 20
201.8270684551
 30
0.0
  0
ENDBLK
  5
306
100
AcDbEntity
  8
0
100
AcDbBlockEnd
  0
BLOCK
  5
309
100
AcDbEntity
  8
0
 62
       255
100
AcDbBlockBegin
  2
*D17
 70
         1
 10
0.0
 20
0.0
 30
0.0
  3
*D17
  1

  0
MTEXT
  5
30A
100
AcDbEntity
  8
0
 62
         7
100
AcDbMText
 10
177.2382519137
 20
207.4408437882
 30
0.0
 40
3.5
 41
0.0
 71
         7
 72
         1
  1
0
  7
SLDTEXTSTYLE0
 73
         1
 44
1.0
  0
LINE
  5
30B
100
AcDbEntity
  8
0
100
AcDbLine
 10
168.5531718315
 20
208.7187392938
 30
0.0
 11
175.6507519137
 21
208.7187392938
 31
0.0
  0
POINT
  5
30C
100
AcDbEntity
  8
0
 62
         7
100
AcDbPoint
 10
167.5531718315
 20
208.7187392938
 30
0.0
  0
POINT
  5
30D
100
AcDbEntity
  8
0
 62
         7
100
AcDbPoint
 10
175.6507519137
 20
208.7187392938
 30
0.0
  0
ENDBLK
  5
30E
100
AcDbEntity
  8
0
100
AcDbBlockEnd
  0
BLOCK
  5
311
100
AcDbEntity
  8
0
 62
       255
100
AcDbBlockBegin
  2
*D18
 70
         1
 10
0.0
 20
0.0
 30
0.0
  3
*D18
  1

  0
MTEXT
  5
312
100
AcDbEntity
  8
0
 62
         7
100
AcDbMText
 10
177.2382519137
 20
213.9408437882
 30
0.0
 40
3.5
 41
0.0
 71
         7
 72
         1
  1
6,50
  7
SLDTEXTSTYLE0
 73
         1
 44
1.0
  0
LINE
  5
313
100
AcDbEntity
  8
0
100
AcDbLine
 10
130.0531718315
 20
215.2187392938
 30
0.0
 11
175.6507519137
 21
215.2187392938
 31
0.0
  0
POINT
  5
314
100
AcDbEntity
  8
0
 62
         7
100
AcDbPoint
 10
129.0531718315
 20
215.2187392938
 30
0.0
  0
POINT
  5
315
100
AcDbEntity
  8
0
 62
         7
100
AcDbPoint
 10
175.6507519137
 20
215.2187392938
 30
0.0
  0
ENDBLK
  5
316
100
AcDbEntity
  8
0
100
AcDbBlockEnd
  0
BLOCK
  5
319
100
AcDbEntity
  8
0
 62
       255
100
AcDbBlockBegin
  2
*D19
 70
         1
 10
0.0
 20
0.0
 30
0.0
  3
*D19
  1

  0
MTEXT
  5
31A
100
AcDbEntity
  8
0
 62
         7
100
AcDbMText
 10
177.2382519137
 20
232.4408437882
 30
0.0
 40
3.5
 41
0.0
 71
         7
 72
         1
  1
25
  7
SLDTEXTSTYLE0
 73
         1
 44
1.0
  0
LINE
  5
31B
100
AcDbEntity
  8
0
100
AcDbLine
 10
150.3031718315
 20
233.7187392938
 30
0.0
 11
175.6507519137
 21
233.7187392938
 31
0.0
  0
POINT
  5
31C
100
AcDbEntity
  8
0
 62
         7
100
AcDbPoint
 10
149.3031718315
 20
233.7187392938
 30
0.0
  0
POINT
  5
31D
100
AcDbEntity
  8
0
 62
         7
100
AcDbPoint
 10
175.6507519137
 20
233.7187392938
 30
0.0
  0
ENDBLK
  5
31E
100
AcDbEntity
  8
0
100
AcDbBlockEnd
  0
BLOCK
  5
321
100
AcDbEntity
  8
0
 62
       255
100
AcDbBlockBegin
  2
*D20
 70
         1
 10
0.0
 20
0.0
 30
0.0
  3
*D20
  1

  0
MTEXT
  5
322
100
AcDbEntity
  8
0
 62
         7
100
AcDbMText
 10
177.2382519137
 20
257.4408437882
 30
0.0
 40
3.5
 41
0.0
 71
         7
 72
         1
  1
50
  7
SLDTEXTSTYLE0
 73
         1
 44
1.0
  0
LINE
  5
323
100
AcDbEntity
  8
0
100
AcDbLine
 10
168.5531718315
 20
258.7187392938
 30
0.0
 11
175.6507519137
 21
258.7187392938
 31
0.0
  0
POINT
  5
324
100
AcDbEntity
  8
0
 62
         7
100
AcDbPoint
 10
167.5531718315
 20
258.7187392938
 30
0.0
  0
POINT
  5
325
100
AcDbEntity
  8
0
 62
         7
100
AcDbPoint
 10
175.6507519137
 20
258.7187392938
 30
0.0
  0
ENDBLK
  5
326
100
AcDbEntity
  8
0
100
AcDbBlockEnd
  0
BLOCK
  5
329
100
AcDbEntity
  8
0
 62
       255
100
AcDbBlockBegin
  2
*D21
 70
         1
 10
0.0
 20
0.0
 30
0.0
  3
*D21
  1

  0
MTEXT
  5
32A
100
AcDbEntity
  8
0
 62
         7
100
AcDbMText
 10
177.2382519137
 20
250.9408437882
 30
0.0
 40
3.5
 41
0.0
 71
         7
 72
         1
  1
43,50
  7
SLDTEXTSTYLE0
 73
         1
 44
1.0
  0
LINE
  5
32B
100
AcDbEntity
  8
0
100
AcDbLine
 10
125.0531718315
 20
252.2187392938
 30
0.0
 11
175.6507519137
 21
252.2187392938
 31
0.0
  0
POINT
  5
32C
100
AcDbEntity
  8
0
 62
         7
100
AcDbPoint
 10
124.0531718315
 20
252.2187392938
 30
0.0
  0
POINT
  5
32D
100
AcDbEntity
  8
0
 62
         7
100
AcDbPoint
 10
175.6507519137
 20
252.2187392938
 30
0.0
  0
ENDBLK
  5
32E
100
AcDbEntity
  8
0
100
AcDbBlockEnd
  0
BLOCK
  5
331
100
AcDbEntity
  8
0
 62
       255
100
AcDbBlockBegin
  2
*D22
 70
         1
 10
0.0
 20
0.0
 30
0.0
  3
*D22
  1

  0
MTEXT
  5
332
100
AcDbEntity
  8
0
 62
         7
100
AcDbMText
 10
175.9034264353
 20
225.2376165123
 30
0.0
 40
3.5
 41
0.0
 71
         7
 72
         1
  1
%%c
  7
SLDTEXTSTYLE0
 73
         1
 44
1.0
  0
MTEXT
  5
333
100
AcDbEntity
  8
0
 62
         7
100
AcDbMText
 10
180.9032601431
 20
225.2376165123
 30
0.0
 40
3.5
 41
0.0
 71
         7
 72
         1
  1
8,50
  7
SLDTEXTSTYLE0
 73
         1
 44
1.0
  0
LINE
  5
334
100
AcDbEntity
  8
0
100
AcDbLine
 10
146.5881658688
 20
232.3840771199
 30
0.0
 11
172.7284264353
 21
223.7376165123
 31
0.0
  0
LINE
  5
335
100
AcDbEntity
  8
0
100
AcDbLine
 10
138.5181777941
 20
235.0534014678
 30
0.0
 11
146.5881658688
 21
232.3840771199
 31
0.0
  0
LINE
  5
336
100
AcDbEntity
  8
0
100
AcDbLine
 10
172.7284264353
 20
223.7376165123
 30
0.0
 11
191.529793851
 21
223.7376165123
 31
0.0
  0
SOLID
  5
337
100
AcDbEntity
  8
0
 62
       255
100
AcDbTrace
 10
146.5881658688
 20
232.3840771199
 30
0.0
 11
149.2950797826
 21
231.0147279813
 31
0.0
 12
149.5777141254
 22
231.8691973069
 32
0.0
 13
149.5777141254
 23
231.8691973069
 33
0.0
  0
POINT
  5
338
100
AcDbEntity
  8
0
 62
         7
100
AcDbPoint
 10
146.5881658688
 20
232.3840771199
 30
0.0
  0
POINT
  5
339
100
AcDbEntity
  8
0
 62
         7
100
AcDbPoint
 10
138.5181777941
 20
235.0534014678
 30
0.0
  0
ENDBLK
  5
33A
100
AcDbEntity
  8
0
100
AcDbBlockEnd
  0
ENDSEC
  0
SECTION
  2
ENTITIES
  0
LINE
  5
30
100
AcDbEntity
  8
0
370
         0
  6
CENTERX2
 62
         7
100
AcDbLine
 10
15.73913136
 20
46.1706597895
 30
0.0
 11
26.0619197449
 21
46.1706597895
 31
0.0
  0
LINE
  5
31
100
AcDbEntity
  8
0
370
         0
  6
Continuous
 62
         7
100
AcDbLine
 10
12.0
 20
285.0
 30
0.0
 11
198.0
 21
285.0
 31
0.0
  0
LINE
  5
32
100
AcDbEntity
  8
0
370
         0
  6
Continuous
 62
         7
100
AcDbLine
 10
12.0
 20
285.0
 30
0.0
 11
12.0
 21
12.0
 31
0.0
  0
LINE
  5
33
100
AcDbEntity
  8
0
370
         0
  6
Continuous
 62
         7
100
AcDbLine
 10
12.0
 20
12.0
 30
0.0
 11
198.0
 21
12.0
 31
0.0
  0
LINE
  5
34
100
AcDbEntity
  8
0
370
         0
  6
Continuous
 62
         7
100
AcDbLine
 10
198.0
 20
285.0
 30
0.0
 11
198.0
 21
12.0
 31
0.0
  0
LINE
  5
35
100
AcDbEntity
  8
0
370
         0
  6
CENTERX2
 62
         7
100
AcDbLine
 10
38.3005650963
 20
46.1706597895
 30
0.0
 11
30.2291345052
 21
46.1706597895
 31
0.0
  0
LINE
  5
36
100
AcDbEntity
  8
0
370
         0
  6
CENTERX2
 62
         7
100
AcDbLine
 10
34.2648498008
 20
49.1829176886
 30
0.0
 11
34.2648498008
 21
43.1584018904
 31
0.0
  0
LINE
  5
37
100
AcDbEntity
  8
0
370
         0
  6
Continuous
 62
         7
100
AcDbLine
 10
17.9511574424
 20
45.0227523149
 30
0.0
 11
17.9511574424
 21
47.3185672641
 31
0.0
  0
LINE
  5
38
100
AcDbEntity
  8
0
370
         0
  6
Continuous
 62
         7
100
AcDbLine
 10
17.9511574424
 20
47.3185672641
 30
0.0
 11
23.0203838815
 21
48.8854190726
 31
0.0
  0
LINE
  5
39
100
AcDbEntity
  8
0
370
         0
  6
Continuous
 62
         7
100
AcDbLine
 10
23.0203838815
 20
48.8854190726
 30
0.0
 11
23.0203838815
 21
43.4559005065
 31
0.0
  0
LINE
  5
3A
100
AcDbEntity
  8
0
370
         0
  6
Continuous
 62
         7
100
AcDbLine
 10
23.0203838815
 20
43.4559005065
 30
0.0
 11
17.9511574424
 21
45.0227523149
 31
0.0
  0
LINE
  5
3B
100
AcDbEntity
  8
0
370
         0
  6
Continuous
 62
         7
100
AcDbLine
 10
198.0
 20
53.1939488102
 30
0.0
 11
12.0
 21
53.1939488102
 31
0.0
  0
LINE
  5
3C
100
AcDbEntity
  8
0
370
         0
  6
Continuous
 62
         7
100
AcDbLine
 10
148.3249993699
 20
53.1939488102
 30
0.0
 11
148.3249993699
 21
29.806982774
 31
0.0
  0
LINE
  5
3D
100
AcDbEntity
  8
0
370
         0
  6
Continuous
 62
         7
100
AcDbLine
 10
198.0
 20
12.0
 30
0.0
 11
70.4401626767
 21
12.0
 31
0.0
  0
LINE
  5
3E
100
AcDbEntity
  8
0
370
         0
  6
Continuous
 62
         7
100
AcDbLine
 10
198.0
 20
12.0
 30
0.0
 11
198.0
 21
29.806982774
 31
0.0
  0
LINE
  5
3F
100
AcDbEntity
  8
0
370
         0
  6
Continuous
 62
         7
100
AcDbLine
 10
198.0
 20
29.806982774
 30
0.0
 11
70.4401626767
 21
29.806982774
 31
0.0
  0
LINE
  5
40
100
AcDbEntity
  8
0
370
         0
  6
Continuous
 62
         7
100
AcDbLine
 10
70.4401626767
 20
12.0
 30
0.0
 11
70.4401626767
 21
29.806982774
 31
0.0
  0
LINE
  5
41
100
AcDbEntity
  8
0
370
         0
  6
Continuous
 62
         7
100
AcDbLine
 10
70.4401626767
 20
12.0
 30
0.0
 11
12.0
 21
12.0
 31
0.0
  0
LINE
  5
42
100
AcDbEntity
  8
0
370
         0
  6
Continuous
 62
         7
100
AcDbLine
 10
70.4401626767
 20
12.0
 30
0.0
 11
70.4401626767
 21
53.1939488102
 31
0.0
  0
LINE
  5
43
100
AcDbEntity
  8
0
370
         0
  6
Continuous
 62
         7
100
AcDbLine
 10
70.4401626767
 20
53.1939488102
 30
0.0
 11
12.0
 21
53.1939488102
 31
0.0
  0
LINE
  5
44
100
AcDbEntity
  8
0
370
         0
  6
Continuous
 62
         7
100
AcDbLine
 10
12.0
 20
12.0
 30
0.0
 11
12.0
 21
53.1939488102
 31
0.0
  0
LINE
  5
45
100
AcDbEntity
  8
0
370
         0
  6
Continuous
 62
         7
100
AcDbLine
 10
148.3249993699
 20
41.5004657921
 30
0.0
 11
198.0
 21
41.5004657921
 31
0.0
  0
LINE
  5
46
100
AcDbEntity
  8
0
370
         0
  6
Continuous
 62
         7
100
AcDbLine
 10
148.3249993699
 20
41.5004657921
 30
0.0
 11
70.4401626767
 21
41.5004657921
 31
0.0
  0
LINE
  5
47
100
AcDbEntity
  8
0
370
         0
  6
Continuous
 62
         7
100
AcDbLine
 10
70.4401626767
 20
32.5969744051
 30
0.0
 11
12.0
 21
32.5969744051
 31
0.0
  0
CIRCLE
  5
48
100
AcDbEntity
  8
0
370
         0
  6
Continuous
 62
         5
100
AcDbCircle
 10
34.2648498008
 20
46.1706597895
 30
0.0
 40
3.1391205675
  0
CIRCLE
  5
49
100
AcDbEntity
  8
0
370
         0
  6
Continuous
 62
         5
100
AcDbCircle
 10
34.2648498008
 20
46.1706597895
 30
0.0
 40
1.5
  0
MTEXT
  5
4B
100
AcDbEntity
  8
0
 62
         7
100
AcDbMText
 10
90.5361554048
 20
21.8783954377
 30
0.0
 40
5.2916666667
 41
0.0
 71
         1
 72
         1
  1
ARL-TP01-C-MOULE
  7
SLDTEXTSTYLE0
 73
         1
 44
1.0
  0
MTEXT
  5
4C
100
AcDbEntity
  8
0
 62
         7
100
AcDbMText
 10
159.1208968099
 20
37.4920483588
 30
0.0
 40
3.5
 41
0.0
 71
         1
 72
         1
  1
26/01/2023
  7
SLDTEXTSTYLE0
 73
         1
 44
1.0
  0
MTEXT
  5
4D
100
AcDbEntity
  8
0
 62
         7
100
AcDbMText
 10
55.1629009346
 20
51.3483733122
 30
0.0
 40
3.5
 41
0.0
 71
         2
 72
         1
  1
A4 \PEchelle 1:1
  7
SLDTEXTSTYLE0
 73
         1
 44
1.0
  0
MTEXT
  5
4E
100
AcDbEntity
  8
0
 62
         7
100
AcDbMText
 10
24.8311285925
 20
39.5428577037
 30
0.0
 40
3.5
 41
0.0
 71
         1
 72
         1
  1
Tol Gén: +/-0.2
  7
SLDTEXTSTYLE0
 73
         1
 44
1.0
  0
MTEXT
  5
4F
100
AcDbEntity
  8
0
 62
         7
100
AcDbMText
 10
71.9255642628
 20
28.7484840676
 30
0.0
 40
3.5
 41
0.0
 71
         1
 72
         1
  1
Désignation:
  7
SLDTEXTSTYLE0
 73
         1
 44
1.0
  0
MTEXT
  5
50
100
AcDbEntity
  8
0
 62
         7
100
AcDbMText
 10
71.5883486038
 20
38.4908095824
 30
0.0
 40
3.5
 41
0.0
 71
         1
 72
         1
  1
Observation:
  7
SLDTEXTSTYLE0
 73
         1
 44
1.0
  0
MTEXT
  5
51
100
AcDbEntity
  8
0
 62
         7
100
AcDbMText
 10
72.052519555
 20
50.0312998863
 30
0.0
 40
3.5
 41
0.0
 71
         1
 72
         1
  1
Matière:
  7
SLDTEXTSTYLE0
 73
         1
 44
1.0
  0
MTEXT
  5
52
100
AcDbEntity
  8
0
 62
         7
100
AcDbMText
 10
152.20665097
 20
50.1889458277
 30
0.0
 40
3.5
 41
0.0
 71
         1
 72
         1
  1
Quantité:
  7
SLDTEXTSTYLE0
 73
         1
 44
1.0
  0
MTEXT
  5
53
100
AcDbEntity
  8
0
 62
         7
100
AcDbMText
 10
182.1799712454
 20
50.6741546648
 30
0.0
 40
3.5
 41
0.0
 71
         1
 72
         1
  1
02
  7
SLDTEXTSTYLE0
 73
         1
 44
1.0
  0
MTEXT
  5
54
100
AcDbEntity
  8
0
 62
         7
100
AcDbMText
 10
98.567914951
 20
49.5083506365
 30
0.0
 40
3.5
 41
0.0
 71
         1
 72
         1
  1
Alu 2017A-AU4G
  7
SLDTEXTSTYLE0
 73
         1
 44
1.0
  0
LINE
  5
55
100
AcDbEntity
  8
0
370
        15
  6
Continuous
 62
         7
100
AcDbLine
 10
117.5531718315
 20
75.1959917233
 30
0.0
 11
167.5531718315
 21
75.1959917233
 31
0.0
  0
LINE
  5
56
100
AcDbEntity
  8
0
370
        15
  6
Continuous
 62
         7
100
AcDbLine
 10
117.5531718315
 20
125.1959917233
 30
0.0
 11
117.5531718315
 21
75.1959917233
 31
0.0
  0
LINE
  5
57
100
AcDbEntity
  8
0
370
        15
  6
Continuous
 62
         7
100
AcDbLine
 10
167.5531718315
 20
125.1959917233
 30
0.0
 11
117.5531718315
 21
125.1959917233
 31
0.0
  0
CIRCLE
  5
58
100
AcDbEntity
  8
0
370
        15
  6
Continuous
 62
         7
100
AcDbCircle
 10
142.5531718315
 20
100.1959917233
 30
0.0
 40
20.0
  0
CIRCLE
  5
59
100
AcDbEntity
  8
0
370
        15
  6
Continuous
 62
         7
100
AcDbCircle
 10
161.0531718315
 20
118.6959917233
 30
0.0
 40
2.5
  0
CIRCLE
  5
5A
100
AcDbEntity
  8
0
370
        15
  6
Continuous
 62
         7
100
AcDbCircle
 10
161.0531718315
 20
81.6959917233
 30
0.0
 40
2.5
  0
CIRCLE
  5
5B
100
AcDbEntity
  8
0
370
        15
  6
Continuous
 62
         7
100
AcDbCircle
 10
124.0531718315
 20
81.6959917233
 30
0.0
 40
2.5
  0
CIRCLE
  5
5C
100
AcDbEntity
  8
0
370
        15
  6
Continuous
 62
         7
100
AcDbCircle
 10
124.0531718315
 20
118.6959917233
 30
0.0
 40
2.5
  0
LINE
  5
5D
100
AcDbEntity
  8
0
370
        15
  6
Continuous
 62
         7
100
AcDbLine
 10
167.5531718315
 20
75.1959917233
 30
0.0
 11
167.5531718315
 21
125.1959917233
 31
0.0
  0
CIRCLE
  5
5E
100
AcDbEntity
  8
0
370
         0
  6
DOT2
 62
         7
100
AcDbCircle
 10
142.5531718315
 20
100.1959917233
 30
0.0
 40
2.5
  0
CIRCLE
  5
5F
100
AcDbEntity
  8
0
370
         0
  6
HIDDEN
 62
         9
100
AcDbCircle
 10
142.5531718315
 20
100.1959917233
 30
0.0
 40
4.25
  0
CIRCLE
  5
60
100
AcDbEntity
  8
0
370
         0
  6
HIDDEN
 62
         9
100
AcDbCircle
 10
161.0531718315
 20
81.6959917233
 30
0.0
 40
6.0
  0
CIRCLE
  5
61
100
AcDbEntity
  8
0
370
         0
  6
HIDDEN
 62
         9
100
AcDbCircle
 10
124.0531718315
 20
118.6959917233
 30
0.0
 40
6.0
  0
DIMENSION
  5
6E
100
AcDbEntity
  8
0
 62
       255
100
AcDbDimension
  2
*D0
 10
97.5613949965
 20
75.1959917233
 30
0.0
 11
97.5613949965
 21
100.215650751
 31
0.0
 70
       160
 71
         5
 72
         1
 41
1.0
 42
0.0
  3
SLDDIMSTYLE0
100
AcDbAlignedDimension
 13
117.5531718315
 23
125.1959917233
 33
0.0
 14
117.5531718315
 24
75.1959917233
 34
0.0
 50
90.0
100
AcDbRotatedDimension
  0
DIMENSION
  5
7A
100
AcDbEntity
  8
0
 62
       255
100
AcDbDimension
  2
*D1
 10
167.5531718315
 20
63.8544067305
 30
0.0
 11
141.3523472715
 21
63.8544067305
 31
0.0
 70
       160
 71
         5
 72
         1
 41
1.0
 42
0.0
  3
SLDDIMSTYLE0
100
AcDbAlignedDimension
 13
117.5531718315
 23
75.1959917233
 33
0.0
 14
167.5531718315
 24
75.1959917233
 34
0.0
100
AcDbRotatedDimension
  0
DIMENSION
  5
87
100
AcDbEntity
  8
0
100
AcDbDimension
  2
*D2
 10
125.5817013646
 20
89.6144422058
 30
0.0
 11
181.8344979557
 21
122.3166105352
 31
0.0
 70
       163
 71
         5
 72
         1
 41
1.0
 42
0.0
  1
<>
  3
SLDDIMSTYLE1
100
AcDbDiametricDimension
 15
159.5246422984
 25
110.7775412408
 35
0.0
 40
0.0
  0
LINE
  5
88
100
AcDbEntity
  8
0
  6
Continuous
 62
         7
100
AcDbLine
 10
140.0531718315
 20
100.1959917233
 30
0.0
 11
145.0531718315
 21
100.1959917233
 31
0.0
  0
LINE
  5
89
100
AcDbEntity
  8
0
  6
Continuous
 62
         7
100
AcDbLine
 10
142.5531718315
 20
97.6959917233
 30
0.0
 11
142.5531718315
 21
102.6959917233
 31
0.0
  0
LINE
  5
8A
100
AcDbEntity
  8
0
  6
Continuous
 62
         7
100
AcDbLine
 10
147.5531718315
 20
100.1959917233
 30
0.0
 11
150.0531718315
 21
100.1959917233
 31
0.0
  0
LINE
  5
8B
100
AcDbEntity
  8
0
  6
Continuous
 62
         7
100
AcDbLine
 10
137.5531718315
 20
100.1959917233
 30
0.0
 11
135.0531718315
 21
100.1959917233
 31
0.0
  0
LINE
  5
8C
100
AcDbEntity
  8
0
  6
Continuous
 62
         7
100
AcDbLine
 10
142.5531718315
 20
105.1959917233
 30
0.0
 11
142.5531718315
 21
107.6959917233
 31
0.0
  0
LINE
  5
8D
100
AcDbEntity
  8
0
  6
Continuous
 62
         7
100
AcDbLine
 10
142.5531718315
 20
95.1959917233
 30
0.0
 11
142.5531718315
 21
92.6959917233
 31
0.0
  0
LINE
  5
8E
100
AcDbEntity
  8
0
  6
Continuous
 62
         7
100
AcDbLine
 10
152.5531718315
 20
100.1959917233
 30
0.0
 11
165.0531718315
 21
100.1959917233
 31
0.0
  0
LINE
  5
8F
100
AcDbEntity
  8
0
  6
Continuous
 62
         7
100
AcDbLine
 10
132.5531718315
 20
100.1959917233
 30
0.0
 11
120.0531718315
 21
100.1959917233
 31
0.0
  0
LINE
  5
90
100
AcDbEntity
  8
0
  6
Continuous
 62
         7
100
AcDbLine
 10
142.5531718315
 20
110.1959917233
 30
0.0
 11
142.5531718315
 21
122.6959917233
 31
0.0
  0
LINE
  5
91
100
AcDbEntity
  8
0
  6
Continuous
 62
         7
100
AcDbLine
 10
142.5531718315
 20
90.1959917233
 30
0.0
 11
142.5531718315
 21
77.6959917233
 31
0.0
  0
LINE
  5
92
100
AcDbEntity
  8
0
  6
Continuous
 62
         7
100
AcDbLine
 10
121.5531718315
 20
118.6959917233
 30
0.0
 11
126.5531718315
 21
118.6959917233
 31
0.0
  0
LINE
  5
93
100
AcDbEntity
  8
0
  6
Continuous
 62
         7
100
AcDbLine
 10
124.0531718315
 20
116.1959917233
 30
0.0
 11
124.0531718315
 21
121.1959917233
 31
0.0
  0
LINE
  5
94
100
AcDbEntity
  8
0
  6
Continuous
 62
         7
100
AcDbLine
 10
126.5531718315
 20
118.6959917233
 30
0.0
 11
129.0531718315
 21
118.6959917233
 31
0.0
  0
LINE
  5
95
100
AcDbEntity
  8
0
  6
Continuous
 62
         7
100
AcDbLine
 10
121.5531718315
 20
118.6959917233
 30
0.0
 11
119.0531718315
 21
118.6959917233
 31
0.0
  0
LINE
  5
96
100
AcDbEntity
  8
0
  6
Continuous
 62
         7
100
AcDbLine
 10
124.0531718315
 20
121.1959917233
 30
0.0
 11
124.0531718315
 21
123.6959917233
 31
0.0
  0
LINE
  5
97
100
AcDbEntity
  8
0
  6
Continuous
 62
         7
100
AcDbLine
 10
124.0531718315
 20
116.1959917233
 30
0.0
 11
124.0531718315
 21
113.6959917233
 31
0.0
  0
LINE
  5
98
100
AcDbEntity
  8
0
  6
Continuous
 62
         7
100
AcDbLine
 10
158.5531718315
 20
81.6959917233
 30
0.0
 11
163.5531718315
 21
81.6959917233
 31
0.0
  0
LINE
  5
99
100
AcDbEntity
  8
0
  6
Continuous
 62
         7
100
AcDbLine
 10
161.0531718315
 20
79.1959917233
 30
0.0
 11
161.0531718315
 21
84.1959917233
 31
0.0
  0
LINE
  5
9A
100
AcDbEntity
  8
0
  6
Continuous
 62
         7
100
AcDbLine
 10
121.5531718315
 20
81.6959917233
 30
0.0
 11
126.5531718315
 21
81.6959917233
 31
0.0
  0
LINE
  5
9B
100
AcDbEntity
  8
0
  6
Continuous
 62
         7
100
AcDbLine
 10
124.0531718315
 20
79.1959917233
 30
0.0
 11
124.0531718315
 21
84.1959917233
 31
0.0
  0
LINE
  5
9C
100
AcDbEntity
  8
0
  6
Continuous
 62
         7
100
AcDbLine
 10
158.5531718315
 20
118.6959917233
 30
0.0
 11
163.5531718315
 21
118.6959917233
 31
0.0
  0
LINE
  5
9D
100
AcDbEntity
  8
0
  6
Continuous
 62
         7
100
AcDbLine
 10
161.0531718315
 20
116.1959917233
 30
0.0
 11
161.0531718315
 21
121.1959917233
 31
0.0
  0
LINE
  5
9E
100
AcDbEntity
  8
0
  6
Continuous
 62
         7
100
AcDbLine
 10
163.5531718315
 20
118.6959917233
 30
0.0
 11
166.0531718315
 21
118.6959917233
 31
0.0
  0
LINE
  5
9F
100
AcDbEntity
  8
0
  6
Continuous
 62
         7
100
AcDbLine
 10
158.5531718315
 20
118.6959917233
 30
0.0
 11
156.0531718315
 21
118.6959917233
 31
0.0
  0
LINE
  5
A0
100
AcDbEntity
  8
0
  6
Continuous
 62
         7
100
AcDbLine
 10
161.0531718315
 20
121.1959917233
 30
0.0
 11
161.0531718315
 21
123.6959917233
 31
0.0
  0
LINE
  5
A1
100
AcDbEntity
  8
0
  6
Continuous
 62
         7
100
AcDbLine
 10
161.0531718315
 20
116.1959917233
 30
0.0
 11
161.0531718315
 21
113.6959917233
 31
0.0
  0
LINE
  5
A2
100
AcDbEntity
  8
0
  6
CENTER
 62
         7
100
AcDbLine
 10
101.6003890448
 20
100.1959917233
 30
0.0
 11
176.9604633022
 21
100.1959917233
 31
0.0
  0
SOLID
  5
A3
100
AcDbEntity
  8
0
  6
Continuous
 62
         7
100
AcDbTrace
 10
103.6003890448
 20
100.1959917233
 30
0.0
 11
102.6003890448
 21
96.1959917233
 31
0.0
 12
104.6003890448
 22
96.1959917233
 32
0.0
 13
104.6003890448
 23
96.1959917233
 33
0.0
  0
LINE
  5
A4
100
AcDbEntity
  8
0
  6
Continuous
 62
         7
100
AcDbLine
 10
103.6003890448
 20
88.1959917233
 30
0.0
 11
103.6003890448
 21
100.1959917233
 31
0.0
  0
SOLID
  5
A5
100
AcDbEntity
  8
0
  6
Continuous
 62
         7
100
AcDbTrace
 10
174.9604633022
 20
100.1959917233
 30
0.0
 11
173.9604633022
 21
96.1959917233
 31
0.0
 12
175.9604633022
 22
96.1959917233
 32
0.0
 13
175.9604633022
 23
96.1959917233
 33
0.0
  0
LINE
  5
A6
100
AcDbEntity
  8
0
  6
Continuous
 62
         7
100
AcDbLine
 10
174.9604633022
 20
88.1959917233
 30
0.0
 11
174.9604633022
 21
100.1959917233
 31
0.0
  0
MTEXT
  5
A7
100
AcDbEntity
  8
0
100
AcDbMText
 10
106.1040879212
 20
98.2788636334
 30
0.0
 40
6.35
 41
0.0
 71
         1
 72
         1
  1
A
 73
         1
 44
1.0
  0
MTEXT
  5
A8
100
AcDbEntity
  8
0
100
AcDbMText
 10
177.4641621786
 20
98.2788636334
 30
0.0
 40
6.35
 41
0.0
 71
         1
 72
         1
  1
A
 73
         1
 44
1.0
  0
ARC
  5
A9
100
AcDbEntity
  8
0
  6
Continuous
 62
         7
100
AcDbCircle
 10
161.0531718315
 20
81.6959917233
 30
0.0
 40
3.0
100
AcDbArc
 50
255.0
 51
195.0
  0
ARC
  5
AA
100
AcDbEntity
  8
0
  6
Continuous
 62
         7
100
AcDbCircle
 10
161.0531718315
 20
118.6959917233
 30
0.0
 40
3.0
100
AcDbArc
 50
255.0
 51
195.0
  0
ARC
  5
AB
100
AcDbEntity
  8
0
  6
Continuous
 62
         7
100
AcDbCircle
 10
124.0531718315
 20
118.6959917233
 30
0.0
 40
3.0
100
AcDbArc
 50
255.0
 51
195.0
  0
ARC
  5
AC
100
AcDbEntity
  8
0
  6
Continuous
 62
         7
100
AcDbCircle
 10
124.0531718315
 20
81.6959917233
 30
0.0
 40
3.0
100
AcDbArc
 50
255.0
 51
195.0
  0
LINE
  5
AD
100
AcDbEntity
  8
0
370
        15
  6
Continuous
 62
         7
100
AcDbLine
 10
64.8902142669
 20
189.8397840731
 30
0.0
 11
89.8902142669
 21
220.4584058579
 31
0.0
  0
LINE
  5
AE
100
AcDbEntity
  8
0
370
        15
  6
Continuous
 62
         7
100
AcDbLine
 10
89.8902142669
 20
202.7807363282
 30
0.0
 11
89.8902142669
 21
220.4584058579
 31
0.0
  0
LINE
  5
AF
100
AcDbEntity
  8
0
370
        15
  6
Continuous
 62
         7
100
AcDbLine
 10
64.8902142669
 20
172.1621145434
 30
0.0
 11
89.8902142669
 21
202.7807363282
 31
0.0
  0
LINE
  5
B0
100
AcDbEntity
  8
0
370
        15
  6
Continuous
 62
         7
100
AcDbLine
 10
64.8902142669
 20
172.1621145434
 30
0.0
 11
64.8902142669
 21
189.8397840731
 31
0.0
  0
LINE
  5
B1
100
AcDbEntity
  8
0
370
        15
  6
Continuous
 62
         7
100
AcDbLine
 10
21.5889440777
 20
207.5174536028
 30
0.0
 11
64.8902142669
 21
189.8397840731
 31
0.0
  0
LINE
  5
B2
100
AcDbEntity
  8
0
370
        15
  6
Continuous
 62
         7
100
AcDbLine
 10
46.5889440777
 20
238.1360753876
 30
0.0
 11
21.5889440777
 21
207.5174536028
 31
0.0
  0
LINE
  5
B3
100
AcDbEntity
  8
0
370
        15
  6
Continuous
 62
         7
100
AcDbLine
 10
89.8902142669
 20
220.4584058579
 30
0.0
 11
46.5889440777
 21
238.1360753876
 31
0.0
  0
POLYLINE
  5
B4
100
AcDbEntity
  8
0
370
        15
  6
Continuous
 62
         7
100
AcDb2dPolyline
 66
         1
 10
0.0
 20
0.0
 30
0.0
 70
       128
  0
VERTEX
  5
B5
100
AcDbEntity
  8
0
100
AcDbVertex
100
AcDb2dVertex
 10
65.7395791723
 20
226.2353784442
 30
0.0
  0
VERTEX
  5
B6
100
AcDbEntity
  8
0
100
AcDbVertex
100
AcDb2dVertex
 10
66.7868786315
 20
225.7768477184
 30
0.0
  0
VERTEX
  5
B7
100
AcDbEntity
  8
0
100
AcDbVertex
100
AcDb2dVertex
 10
67.7922718999
 20
225.2735975886
 30
0.0
  0
VERTEX
  5
B8
100
AcDbEntity
  8
0
100
AcDbVertex
100
AcDb2dVertex
 10
68.7519451764
 20
224.727537055
 30
0.0
  0
VERTEX
  5
B9
100
AcDbEntity
  8
0
100
AcDbVertex
100
AcDb2dVertex
 10
69.6622580916
 20
224.1407375122
 30
0.0
  0
VERTEX
  5
BA
100
AcDbEntity
  8
0
100
AcDbVertex
100
AcDb2dVertex
 10
70.5197575167
 20
223.5154248919
 30
0.0
  0
VERTEX
  5
BB
100
AcDbEntity
  8
0
100
AcDbVertex
100
AcDb2dVertex
 10
71.3211906628
 20
222.853971219
 30
0.0
  0
VERTEX
  5
BC
100
AcDbEntity
  8
0
100
AcDbVertex
100
AcDb2dVertex
 10
72.0635174194
 20
222.1588856139
 30
0.0
  0
VERTEX
  5
BD
100
AcDbEntity
  8
0
100
AcDbVertex
100
AcDb2dVertex
 10
72.7439218869
 20
221.4328047744
 30
0.0
  0
VERTEX
  5
BE
100
AcDbEntity
  8
0
100
AcDbVertex
100
AcDb2dVertex
 10
73.359823058
 20
220.6784829738
 30
0.0
  0
VERTEX
  5
BF
100
AcDbEntity
  8
0
100
AcDbVertex
100
AcDb2dVertex
 10
73.9088846087
 20
219.8987816131
 30
0.0
  0
VERTEX
  5
C0
100
AcDbEntity
  8
0
100
AcDbVertex
100
AcDb2dVertex
 10
74.3890237604
 20
219.0966583665
 30
0.0
  0
VERTEX
  5
C1
100
AcDbEntity
  8
0
100
AcDbVertex
100
AcDb2dVertex
 10
74.7984191808
 20
218.2751559623
 30
0.0
  0
VERTEX
  5
C2
100
AcDbEntity
  8
0
100
AcDbVertex
100
AcDb2dVertex
 10
75.135517893
 20
217.4373906406
 30
0.0
  0
VERTEX
  5
C3
100
AcDbEntity
  8
0
100
AcDbVertex
100
AcDb2dVertex
 10
75.399041166
 20
216.5865403321
 30
0.0
  0
VERTEX
  5
C4
100
AcDbEntity
  8
0
100
AcDbVertex
100
AcDb2dVertex
 10
75.5879893657
 20
215.7258326035
 30
0.0
  0
VERTEX
  5
C5
100
AcDbEntity
  8
0
100
AcDbVertex
100
AcDb2dVertex
 10
75.701645747
 20
214.858532414
 30
0.0
  0
VERTEX
  5
C6
100
AcDbEntity
  8
0
100
AcDbVertex
100
AcDb2dVertex
 10
75.7395791723
 20
213.9879297303
 30
0.0
  0
VERTEX
  5
C7
100
AcDbEntity
  8
0
100
AcDbVertex
100
AcDb2dVertex
 10
75.701645747
 20
213.1173270467
 30
0.0
  0
VERTEX
  5
C8
100
AcDbEntity
  8
0
100
AcDbVertex
100
AcDb2dVertex
 10
75.5879893657
 20
212.2500268572
 30
0.0
  0
VERTEX
  5
C9
100
AcDbEntity
  8
0
100
AcDbVertex
100
AcDb2dVertex
 10
75.399041166
 20
211.3893191286
 30
0.0
  0
VERTEX
  5
CA
100
AcDbEntity
  8
0
100
AcDbVertex
100
AcDb2dVertex
 10
75.135517893
 20
210.5384688201
 30
0.0
  0
VERTEX
  5
CB
100
AcDbEntity
  8
0
100
AcDbVertex
100
AcDb2dVertex
 10
74.7984191808
 20
209.7007034983
 30
0.0
  0
VERTEX
  5
CC
100
AcDbEntity
  8
0
100
AcDbVertex
100
AcDb2dVertex
 10
74.3890237604
 20
208.8792010942
 30
0.0
  0
VERTEX
  5
CD
100
AcDbEntity
  8
0
100
AcDbVertex
100
AcDb2dVertex
 10
73.9088846087
 20
208.0770778476
 30
0.0
  0
VERTEX
  5
CE
100
AcDbEntity
  8
0
100
AcDbVertex
100
AcDb2dVertex
 10
73.359823058
 20
207.2973764868
 30
0.0
  0
VERTEX
  5
CF
100
AcDbEntity
  8
0
100
AcDbVertex
100
AcDb2dVertex
 10
72.7439218869
 20
206.5430546862
 30
0.0
  0
VERTEX
  5
D0
100
AcDbEntity
  8
0
100
AcDbVertex
100
AcDb2dVertex
 10
72.0635174194
 20
205.8169738467
 30
0.0
  0
VERTEX
  5
D1
100
AcDbEntity
  8
0
100
AcDbVertex
100
AcDb2dVertex
 10
71.3211906628
 20
205.1218882416
 30
0.0
  0
VERTEX
  5
D2
100
AcDbEntity
  8
0
100
AcDbVertex
100
AcDb2dVertex
 10
70.5197575167
 20
204.4604345688
 30
0.0
  0
VERTEX
  5
D3
100
AcDbEntity
  8
0
100
AcDbVertex
100
AcDb2dVertex
 10
69.6622580916
 20
203.8351219485
 30
0.0
  0
VERTEX
  5
D4
100
AcDbEntity
  8
0
100
AcDbVertex
100
AcDb2dVertex
 10
68.7519451764
 20
203.2483224057
 30
0.0
  0
VERTEX
  5
D5
100
AcDbEntity
  8
0
100
AcDbVertex
100
AcDb2dVertex
 10
67.7922718999
 20
202.7022618721
 30
0.0
  0
VERTEX
  5
D6
100
AcDbEntity
  8
0
100
AcDbVertex
100
AcDb2dVertex
 10
66.7868786315
 20
202.1990117423
 30
0.0
  0
VERTEX
  5
D7
100
AcDbEntity
  8
0
100
AcDbVertex
100
AcDb2dVertex
 10
65.7395791723
 20
201.7404810164
 30
0.0
  0
VERTEX
  5
D8
100
AcDbEntity
  8
0
100
AcDbVertex
100
AcDb2dVertex
 10
64.6543462878
 20
201.3284090586
 30
0.0
  0
VERTEX
  5
D9
100
AcDbEntity
  8
0
100
AcDbVertex
100
AcDb2dVertex
 10
63.5352966381
 20
200.9643589989
 30
0.0
  0
VERTEX
  5
DA
100
AcDbEntity
  8
0
100
AcDbVertex
100
AcDb2dVertex
 10
62.3866751619
 20
200.6497118039
 30
0.0
  0
VERTEX
  5
DB
100
AcDbEntity
  8
0
100
AcDbVertex
100
AcDb2dVertex
 10
61.2128389737
 20
200.3856610382
 30
0.0
  0
VERTEX
  5
DC
100
AcDbEntity
  8
0
100
AcDbVertex
100
AcDb2dVertex
 10
60.0182408364
 20
200.1732083368
 30
0.0
  0
VERTEX
  5
DD
100
AcDbEntity
  8
0
100
AcDbVertex
100
AcDb2dVertex
 10
58.8074122699
 20
200.0131596055
 30
0.0
  0
VERTEX
  5
DE
100
AcDbEntity
  8
0
100
AcDbVertex
100
AcDb2dVertex
 10
57.5849463616
 20
199.906121964
 30
0.0
  0
VERTEX
  5
DF
100
AcDbEntity
  8
0
100
AcDbVertex
100
AcDb2dVertex
 10
56.3554803434
 20
199.8525014427
 30
0.0
  0
VERTEX
  5
E0
100
AcDbEntity
  8
0
100
AcDbVertex
100
AcDb2dVertex
 10
55.1236780012
 20
199.8525014427
 30
0.0
  0
VERTEX
  5
E1
100
AcDbEntity
  8
0
100
AcDbVertex
100
AcDb2dVertex
 10
53.894211983
 20
199.906121964
 30
0.0
  0
VERTEX
  5
E2
100
AcDbEntity
  8
0
100
AcDbVertex
100
AcDb2dVertex
 10
52.6717460747
 20
200.0131596055
 30
0.0
  0
VERTEX
  5
E3
100
AcDbEntity
  8
0
100
AcDbVertex
100
AcDb2dVertex
 10
51.4609175082
 20
200.1732083368
 30
0.0
  0
VERTEX
  5
E4
100
AcDbEntity
  8
0
100
AcDbVertex
100
AcDb2dVertex
 10
50.2663193709
 20
200.3856610382
 30
0.0
  0
VERTEX
  5
E5
100
AcDbEntity
  8
0
100
AcDbVertex
100
AcDb2dVertex
 10
49.0924831827
 20
200.6497118039
 30
0.0
  0
VERTEX
  5
E6
100
AcDbEntity
  8
0
100
AcDbVertex
100
AcDb2dVertex
 10
47.9438617064
 20
200.9643589989
 30
0.0
  0
VERTEX
  5
E7
100
AcDbEntity
  8
0
100
AcDbVertex
100
AcDb2dVertex
 10
46.8248120568
 20
201.3284090586
 30
0.0
  0
VERTEX
  5
E8
100
AcDbEntity
  8
0
100
AcDbVertex
100
AcDb2dVertex
 10
45.7395791723
 20
201.7404810164
 30
0.0
  0
VERTEX
  5
E9
100
AcDbEntity
  8
0
100
AcDbVertex
100
AcDb2dVertex
 10
44.6922797131
 20
202.1990117423
 30
0.0
  0
VERTEX
  5
EA
100
AcDbEntity
  8
0
100
AcDbVertex
100
AcDb2dVertex
 10
43.6868864447
 20
202.7022618721
 30
0.0
  0
VERTEX
  5
EB
100
AcDbEntity
  8
0
100
AcDbVertex
100
AcDb2dVertex
 10
42.7272131682
 20
203.2483224057
 30
0.0
  0
VERTEX
  5
EC
100
AcDbEntity
  8
0
100
AcDbVertex
100
AcDb2dVertex
 10
41.816900253
 20
203.8351219485
 30
0.0
  0
VERTEX
  5
ED
100
AcDbEntity
  8
0
100
AcDbVertex
100
AcDb2dVertex
 10
40.9594008279
 20
204.4604345688
 30
0.0
  0
VERTEX
  5
EE
100
AcDbEntity
  8
0
100
AcDbVertex
100
AcDb2dVertex
 10
40.1579676818
 20
205.1218882416
 30
0.0
  0
VERTEX
  5
EF
100
AcDbEntity
  8
0
100
AcDbVertex
100
AcDb2dVertex
 10
39.4156409252
 20
205.8169738467
 30
0.0
  0
VERTEX
  5
F0
100
AcDbEntity
  8
0
100
AcDbVertex
100
AcDb2dVertex
 10
38.7352364577
 20
206.5430546862
 30
0.0
  0
VERTEX
  5
F1
100
AcDbEntity
  8
0
100
AcDbVertex
100
AcDb2dVertex
 10
38.1193352866
 20
207.2973764868
 30
0.0
  0
VERTEX
  5
F2
100
AcDbEntity
  8
0
100
AcDbVertex
100
AcDb2dVertex
 10
37.5702737359
 20
208.0770778476
 30
0.0
  0
VERTEX
  5
F3
100
AcDbEntity
  8
0
100
AcDbVertex
100
AcDb2dVertex
 10
37.0901345842
 20
208.8792010942
 30
0.0
  0
VERTEX
  5
F4
100
AcDbEntity
  8
0
100
AcDbVertex
100
AcDb2dVertex
 10
36.6807391638
 20
209.7007034983
 30
0.0
  0
VERTEX
  5
F5
100
AcDbEntity
  8
0
100
AcDbVertex
100
AcDb2dVertex
 10
36.3436404516
 20
210.5384688201
 30
0.0
  0
VERTEX
  5
F6
100
AcDbEntity
  8
0
100
AcDbVertex
100
AcDb2dVertex
 10
36.0801171786
 20
211.3893191286
 30
0.0
  0
VERTEX
  5
F7
100
AcDbEntity
  8
0
100
AcDbVertex
100
AcDb2dVertex
 10
35.8911689789
 20
212.2500268572
 30
0.0
  0
VERTEX
  5
F8
100
AcDbEntity
  8
0
100
AcDbVertex
100
AcDb2dVertex
 10
35.7775125976
 20
213.1173270467
 30
0.0
  0
VERTEX
  5
F9
100
AcDbEntity
  8
0
100
AcDbVertex
100
AcDb2dVertex
 10
35.7395791723
 20
213.9879297303
 30
0.0
  0
VERTEX
  5
FA
100
AcDbEntity
  8
0
100
AcDbVertex
100
AcDb2dVertex
 10
35.7775125976
 20
214.858532414
 30
0.0
  0
VERTEX
  5
FB
100
AcDbEntity
  8
0
100
AcDbVertex
100
AcDb2dVertex
 10
35.8911689789
 20
215.7258326035
 30
0.0
  0
VERTEX
  5
FC
100
AcDbEntity
  8
0
100
AcDbVertex
100
AcDb2dVertex
 10
36.0801171786
 20
216.5865403321
 30
0.0
  0
VERTEX
  5
FD
100
AcDbEntity
  8
0
100
AcDbVertex
100
AcDb2dVertex
 10
36.3436404516
 20
217.4373906406
 30
0.0
  0
VERTEX
  5
FE
100
AcDbEntity
  8
0
100
AcDbVertex
100
AcDb2dVertex
 10
36.6807391638
 20
218.2751559623
 30
0.0
  0
VERTEX
  5
FF
100
AcDbEntity
  8
0
100
AcDbVertex
100
AcDb2dVertex
 10
37.0901345842
 20
219.0966583665
 30
0.0
  0
VERTEX
  5
100
100
AcDbEntity
  8
0
100
AcDbVertex
100
AcDb2dVertex
 10
37.5702737359
 20
219.8987816131
 30
0.0
  0
VERTEX
  5
101
100
AcDbEntity
  8
0
100
AcDbVertex
100
AcDb2dVertex
 10
38.1193352866
 20
220.6784829738
 30
0.0
  0
VERTEX
  5
102
100
AcDbEntity
  8
0
100
AcDbVertex
100
AcDb2dVertex
 10
38.7352364577
 20
221.4328047744
 30
0.0
  0
VERTEX
  5
103
100
AcDbEntity
  8
0
100
AcDbVertex
100
AcDb2dVertex
 10
39.4156409252
 20
222.1588856139
 30
0.0
  0
VERTEX
  5
104
100
AcDbEntity
  8
0
100
AcDbVertex
100
AcDb2dVertex
 10
40.1579676818
 20
222.853971219
 30
0.0
  0
VERTEX
  5
105
100
AcDbEntity
  8
0
100
AcDbVertex
100
AcDb2dVertex
 10
40.9594008279
 20
223.5154248919
 30
0.0
  0
VERTEX
  5
106
100
AcDbEntity
  8
0
100
AcDbVertex
100
AcDb2dVertex
 10
41.816900253
 20
224.1407375122
 30
0.0
  0
VERTEX
  5
107
100
AcDbEntity
  8
0
100
AcDbVertex
100
AcDb2dVertex
 10
42.7272131682
 20
224.727537055
 30
0.0
  0
VERTEX
  5
108
100
AcDbEntity
  8
0
100
AcDbVertex
100
AcDb2dVertex
 10
43.6868864447
 20
225.2735975886
 30
0.0
  0
VERTEX
  5
109
100
AcDbEntity
  8
0
100
AcDbVertex
100
AcDb2dVertex
 10
44.6922797131
 20
225.7768477184
 30
0.0
  0
VERTEX
  5
10A
100
AcDbEntity
  8
0
100
AcDbVertex
100
AcDb2dVertex
 10
45.7395791723
 20
226.2353784442
 30
0.0
  0
VERTEX
  5
10B
100
AcDbEntity
  8
0
100
AcDbVertex
100
AcDb2dVertex
 10
46.8248120568
 20
226.6474504021
 30
0.0
  0
VERTEX
  5
10C
100
AcDbEntity
  8
0
100
AcDbVertex
100
AcDb2dVertex
 10
47.9438617064
 20
227.0115004617
 30
0.0
  0
VERTEX
  5
10D
100
AcDbEntity
  8
0
100
AcDbVertex
100
AcDb2dVertex
 10
49.0924831827
 20
227.3261476567
 30
0.0
  0
VERTEX
  5
10E
100
AcDbEntity
  8
0
100
AcDbVertex
100
AcDb2dVertex
 10
50.2663193709
 20
227.5901984225
 30
0.0
  0
VERTEX
  5
10F
100
AcDbEntity
  8
0
100
AcDbVertex
100
AcDb2dVertex
 10
51.4609175082
 20
227.8026511239
 30
0.0
  0
VERTEX
  5
110
100
AcDbEntity
  8
0
100
AcDbVertex
100
AcDb2dVertex
 10
52.6717460747
 20
227.9626998552
 30
0.0
  0
VERTEX
  5
111
100
AcDbEntity
  8
0
100
AcDbVertex
100
AcDb2dVertex
 10
53.894211983
 20
228.0697374967
 30
0.0
  0
VERTEX
  5
112
100
AcDbEntity
  8
0
100
AcDbVertex
100
AcDb2dVertex
 10
55.1236780012
 20
228.1233580179
 30
0.0
  0
VERTEX
  5
113
100
AcDbEntity
  8
0
100
AcDbVertex
100
AcDb2dVertex
 10
56.3554803434
 20
228.1233580179
 30
0.0
  0
VERTEX
  5
114
100
AcDbEntity
  8
0
100
AcDbVertex
100
AcDb2dVertex
 10
57.5849463616
 20
228.0697374967
 30
0.0
  0
VERTEX
  5
115
100
AcDbEntity
  8
0
100
AcDbVertex
100
AcDb2dVertex
 10
58.8074122699
 20
227.9626998552
 30
0.0
  0
VERTEX
  5
116
100
AcDbEntity
  8
0
100
AcDbVertex
100
AcDb2dVertex
 10
60.0182408364
 20
227.8026511239
 30
0.0
  0
VERTEX
  5
117
100
AcDbEntity
  8
0
100
AcDbVertex
100
AcDb2dVertex
 10
61.2128389737
 20
227.5901984225
 30
0.0
  0
VERTEX
  5
118
100
AcDbEntity
  8
0
100
AcDbVertex
100
AcDb2dVertex
 10
62.3866751619
 20
227.3261476567
 30
0.0
  0
VERTEX
  5
119
100
AcDbEntity
  8
0
100
AcDbVertex
100
AcDb2dVertex
 10
63.5352966381
 20
227.0115004617
 30
0.0
  0
VERTEX
  5
11A
100
AcDbEntity
  8
0
100
AcDbVertex
100
AcDb2dVertex
 10
64.6543462878
 20
226.6474504021
 30
0.0
  0
VERTEX
  5
11B
100
AcDbEntity
  8
0
100
AcDbVertex
100
AcDb2dVertex
 10
65.7395791723
 20
226.2353784442
 30
0.0
  0
SEQEND
  5
11C
100
AcDbEntity
  8
0
  0
POLYLINE
  5
11D
100
AcDbEntity
  8
0
370
        15
  6
Continuous
 62
         7
100
AcDb2dPolyline
 66
         1
 10
0.0
 20
0.0
 30
0.0
 70
       128
  0
VERTEX
  5
11E
100
AcDbEntity
  8
0
100
AcDbVertex
100
AcDb2dVertex
 10
79.7610491423
 20
217.2451509755
 30
0.0
  0
VERTEX
  5
11F
100
AcDbEntity
  8
0
100
AcDbVertex
100
AcDb2dVertex
 10
80.155998784
 20
217.1149245038
 30
0.0
  0
VERTEX
  5
120
100
AcDbEntity
  8
0
100
AcDbVertex
100
AcDb2dVertex
 10
80.5769286981
 20
217.0351714639
 30
0.0
  0
VERTEX
  5
121
100
AcDbEntity
  8
0
100
AcDbVertex
100
AcDb2dVertex
 10
81.0110491423
 20
217.0083151118
 30
0.0
  0
VERTEX
  5
122
100
AcDbEntity
  8
0
100
AcDbVertex
100
AcDb2dVertex
 10
81.4451695865
 20
217.0351714639
 30
0.0
  0
VERTEX
  5
123
100
AcDbEntity
  8
0
100
AcDbVertex
100
AcDb2dVertex
 10
81.8660995006
 20
217.1149245038
 30
0.0
  0
VERTEX
  5
124
100
AcDbEntity
  8
0
100
AcDbVertex
100
AcDb2dVertex
 10
82.2610491423
 20
217.2451509755
 30
0.0
  0
VERTEX
  5
125
100
AcDbEntity
  8
0
100
AcDbVertex
100
AcDb2dVertex
 10
82.6180181665
 20
217.4218940137
 30
0.0
  0
VERTEX
  5
126
100
AcDbEntity
  8
0
100
AcDbVertex
100
AcDb2dVertex
 10
82.9261602501
 20
217.6397833705
 30
0.0
  0
VERTEX
  5
127
100
AcDbEntity
  8
0
100
AcDbVertex
100
AcDb2dVertex
 10
83.1761126518
 20
217.8921985882
 30
0.0
  0
VERTEX
  5
128
100
AcDbEntity
  8
0
100
AcDbVertex
100
AcDb2dVertex
 10
83.3602806943
 20
218.1714701581
 30
0.0
  0
VERTEX
  5
129
100
AcDbEntity
  8
0
100
AcDbVertex
100
AcDb2dVertex
 10
83.4730685248
 20
218.4691125548
 30
0.0
  0
VERTEX
  5
12A
100
AcDbEntity
  8
0
100
AcDbVertex
100
AcDb2dVertex
 10
83.5110491423
 20
218.7760820647
 30
0.0
  0
VERTEX
  5
12B
100
AcDbEntity
  8
0
100
AcDbVertex
100
AcDb2dVertex
 10
83.4730685248
 20
219.0830515746
 30
0.0
  0
VERTEX
  5
12C
100
AcDbEntity
  8
0
100
AcDbVertex
100
AcDb2dVertex
 10
83.3602806943
 20
219.3806939713
 30
0.0
  0
VERTEX
  5
12D
100
AcDbEntity
  8
0
100
AcDbVertex
100
AcDb2dVertex
 10
83.1761126518
 20
219.6599655412
 30
0.0
  0
VERTEX
  5
12E
100
AcDbEntity
  8
0
100
AcDbVertex
100
AcDb2dVertex
 10
82.9261602501
 20
219.9123807589
 30
0.0
  0
VERTEX
  5
12F
100
AcDbEntity
  8
0
100
AcDbVertex
100
AcDb2dVertex
 10
82.6180181665
 20
220.1302701158
 30
0.0
  0
VERTEX
  5
130
100
AcDbEntity
  8
0
100
AcDbVertex
100
AcDb2dVertex
 10
82.2610491423
 20
220.307013154
 30
0.0
  0
VERTEX
  5
131
100
AcDbEntity
  8
0
100
AcDbVertex
100
AcDb2dVertex
 10
81.8660995006
 20
220.4372396257
 30
0.0
  0
VERTEX
  5
132
100
AcDbEntity
  8
0
100
AcDbVertex
100
AcDb2dVertex
 10
81.4451695865
 20
220.5169926655
 30
0.0
  0
VERTEX
  5
133
100
AcDbEntity
  8
0
100
AcDbVertex
100
AcDb2dVertex
 10
81.0110491423
 20
220.5438490177
 30
0.0
  0
VERTEX
  5
134
100
AcDbEntity
  8
0
100
AcDbVertex
100
AcDb2dVertex
 10
80.5769286981
 20
220.5169926655
 30
0.0
  0
VERTEX
  5
135
100
AcDbEntity
  8
0
100
AcDbVertex
100
AcDb2dVertex
 10
80.155998784
 20
220.4372396257
 30
0.0
  0
VERTEX
  5
136
100
AcDbEntity
  8
0
100
AcDbVertex
100
AcDb2dVertex
 10
79.7610491423
 20
220.307013154
 30
0.0
  0
VERTEX
  5
137
100
AcDbEntity
  8
0
100
AcDbVertex
100
AcDb2dVertex
 10
79.4040801181
 20
220.1302701158
 30
0.0
  0
VERTEX
  5
138
100
AcDbEntity
  8
0
100
AcDbVertex
100
AcDb2dVertex
 10
79.0959380345
 20
219.9123807589
 30
0.0
  0
VERTEX
  5
139
100
AcDbEntity
  8
0
100
AcDbVertex
100
AcDb2dVertex
 10
78.8459856328
 20
219.6599655412
 30
0.0
  0
VERTEX
  5
13A
100
AcDbEntity
  8
0
100
AcDbVertex
100
AcDb2dVertex
 10
78.6618175903
 20
219.3806939713
 30
0.0
  0
VERTEX
  5
13B
100
AcDbEntity
  8
0
100
AcDbVertex
100
AcDb2dVertex
 10
78.5490297598
 20
219.0830515746
 30
0.0
  0
VERTEX
  5
13C
100
AcDbEntity
  8
0
100
AcDbVertex
100
AcDb2dVertex
 10
78.5110491423
 20
218.7760820647
 30
0.0
  0
VERTEX
  5
13D
100
AcDbEntity
  8
0
100
AcDbVertex
100
AcDb2dVertex
 10
78.5490297598
 20
218.4691125548
 30
0.0
  0
VERTEX
  5
13E
100
AcDbEntity
  8
0
100
AcDbVertex
100
AcDb2dVertex
 10
78.6618175903
 20
218.1714701581
 30
0.0
  0
VERTEX
  5
13F
100
AcDbEntity
  8
0
100
AcDbVertex
100
AcDb2dVertex
 10
78.8459856328
 20
217.8921985882
 30
0.0
  0
VERTEX
  5
140
100
AcDbEntity
  8
0
100
AcDbVertex
100
AcDb2dVertex
 10
79.0959380345
 20
217.6397833705
 30
0.0
  0
VERTEX
  5
141
100
AcDbEntity
  8
0
100
AcDbVertex
100
AcDb2dVertex
 10
79.4040801181
 20
217.4218940137
 30
0.0
  0
VERTEX
  5
142
100
AcDbEntity
  8
0
100
AcDbVertex
100
AcDb2dVertex
 10
79.7610491423
 20
217.2451509755
 30
0.0
  0
SEQEND
  5
143
100
AcDbEntity
  8
0
  0
POLYLINE
  5
144
100
AcDbEntity
  8
0
370
        15
  6
Continuous
 62
         7
100
AcDb2dPolyline
 66
         1
 10
0.0
 20
0.0
 30
0.0
 70
       128
  0
VERTEX
  5
145
100
AcDbEntity
  8
0
100
AcDbVertex
100
AcDb2dVertex
 10
61.2610491423
 20
194.5873708547
 30
0.0
  0
VERTEX
  5
146
100
AcDbEntity
  8
0
100
AcDbVertex
100
AcDb2dVertex
 10
61.655998784
 20
194.457144383
 30
0.0
  0
VERTEX
  5
147
100
AcDbEntity
  8
0
100
AcDbVertex
100
AcDb2dVertex
 10
62.0769286981
 20
194.3773913432
 30
0.0
  0
VERTEX
  5
148
100
AcDbEntity
  8
0
100
AcDbVertex
100
AcDb2dVertex
 10
62.5110491423
 20
194.350534991
 30
0.0
  0
VERTEX
  5
149
100
AcDbEntity
  8
0
100
AcDbVertex
100
AcDb2dVertex
 10
62.9451695865
 20
194.3773913432
 30
0.0
  0
VERTEX
  5
14A
100
AcDbEntity
  8
0
100
AcDbVertex
100
AcDb2dVertex
 10
63.3660995006
 20
194.457144383
 30
0.0
  0
VERTEX
  5
14B
100
AcDbEntity
  8
0
100
AcDbVertex
100
AcDb2dVertex
 10
63.7610491423
 20
194.5873708547
 30
0.0
  0
VERTEX
  5
14C
100
AcDbEntity
  8
0
100
AcDbVertex
100
AcDb2dVertex
 10
64.1180181665
 20
194.7641138929
 30
0.0
  0
VERTEX
  5
14D
100
AcDbEntity
  8
0
100
AcDbVertex
100
AcDb2dVertex
 10
64.4261602501
 20
194.9820032498
 30
0.0
  0
VERTEX
  5
14E
100
AcDbEntity
  8
0
100
AcDbVertex
100
AcDb2dVertex
 10
64.6761126518
 20
195.2344184675
 30
0.0
  0
VERTEX
  5
14F
100
AcDbEntity
  8
0
100
AcDbVertex
100
AcDb2dVertex
 10
64.8602806943
 20
195.5136900374
 30
0.0
  0
VERTEX
  5
150
100
AcDbEntity
  8
0
100
AcDbVertex
100
AcDb2dVertex
 10
64.9730685248
 20
195.8113324341
 30
0.0
  0
VERTEX
  5
151
100
AcDbEntity
  8
0
100
AcDbVertex
100
AcDb2dVertex
 10
65.0110491423
 20
196.118301944
 30
0.0
  0
VERTEX
  5
152
100
AcDbEntity
  8
0
100
AcDbVertex
100
AcDb2dVertex
 10
64.9730685248
 20
196.4252714539
 30
0.0
  0
VERTEX
  5
153
100
AcDbEntity
  8
0
100
AcDbVertex
100
AcDb2dVertex
 10
64.8602806943
 20
196.7229138506
 30
0.0
  0
VERTEX
  5
154
100
AcDbEntity
  8
0
100
AcDbVertex
100
AcDb2dVertex
 10
64.6761126518
 20
197.0021854205
 30
0.0
  0
VERTEX
  5
155
100
AcDbEntity
  8
0
100
AcDbVertex
100
AcDb2dVertex
 10
64.4261602501
 20
197.2546006382
 30
0.0
  0
VERTEX
  5
156
100
AcDbEntity
  8
0
100
AcDbVertex
100
AcDb2dVertex
 10
64.1180181665
 20
197.472489995
 30
0.0
  0
VERTEX
  5
157
100
AcDbEntity
  8
0
100
AcDbVertex
100
AcDb2dVertex
 10
63.7610491423
 20
197.6492330332
 30
0.0
  0
VERTEX
  5
158
100
AcDbEntity
  8
0
100
AcDbVertex
100
AcDb2dVertex
 10
63.3660995006
 20
197.779459505
 30
0.0
  0
VERTEX
  5
159
100
AcDbEntity
  8
0
100
AcDbVertex
100
AcDb2dVertex
 10
62.9451695865
 20
197.8592125448
 30
0.0
  0
VERTEX
  5
15A
100
AcDbEntity
  8
0
100
AcDbVertex
100
AcDb2dVertex
 10
62.5110491423
 20
197.8860688969
 30
0.0
  0
VERTEX
  5
15B
100
AcDbEntity
  8
0
100
AcDbVertex
100
AcDb2dVertex
 10
62.0769286981
 20
197.8592125448
 30
0.0
  0
VERTEX
  5
15C
100
AcDbEntity
  8
0
100
AcDbVertex
100
AcDb2dVertex
 10
61.655998784
 20
197.779459505
 30
0.0
  0
VERTEX
  5
15D
100
AcDbEntity
  8
0
100
AcDbVertex
100
AcDb2dVertex
 10
61.2610491423
 20
197.6492330332
 30
0.0
  0
VERTEX
  5
15E
100
AcDbEntity
  8
0
100
AcDbVertex
100
AcDb2dVertex
 10
60.9040801181
 20
197.472489995
 30
0.0
  0
VERTEX
  5
15F
100
AcDbEntity
  8
0
100
AcDbVertex
100
AcDb2dVertex
 10
60.5959380345
 20
197.2546006382
 30
0.0
  0
VERTEX
  5
160
100
AcDbEntity
  8
0
100
AcDbVertex
100
AcDb2dVertex
 10
60.3459856328
 20
197.0021854205
 30
0.0
  0
VERTEX
  5
161
100
AcDbEntity
  8
0
100
AcDbVertex
100
AcDb2dVertex
 10
60.1618175903
 20
196.7229138506
 30
0.0
  0
VERTEX
  5
162
100
AcDbEntity
  8
0
100
AcDbVertex
100
AcDb2dVertex
 10
60.0490297598
 20
196.4252714539
 30
0.0
  0
VERTEX
  5
163
100
AcDbEntity
  8
0
100
AcDbVertex
100
AcDb2dVertex
 10
60.0110491423
 20
196.118301944
 30
0.0
  0
VERTEX
  5
164
100
AcDbEntity
  8
0
100
AcDbVertex
100
AcDb2dVertex
 10
60.0490297598
 20
195.8113324341
 30
0.0
  0
VERTEX
  5
165
100
AcDbEntity
  8
0
100
AcDbVertex
100
AcDb2dVertex
 10
60.1618175903
 20
195.5136900374
 30
0.0
  0
VERTEX
  5
166
100
AcDbEntity
  8
0
100
AcDbVertex
100
AcDb2dVertex
 10
60.3459856328
 20
195.2344184675
 30
0.0
  0
VERTEX
  5
167
100
AcDbEntity
  8
0
100
AcDbVertex
100
AcDb2dVertex
 10
60.5959380345
 20
194.9820032498
 30
0.0
  0
VERTEX
  5
168
100
AcDbEntity
  8
0
100
AcDbVertex
100
AcDb2dVertex
 10
60.9040801181
 20
194.7641138929
 30
0.0
  0
VERTEX
  5
169
100
AcDbEntity
  8
0
100
AcDbVertex
100
AcDb2dVertex
 10
61.2610491423
 20
194.5873708547
 30
0.0
  0
SEQEND
  5
16A
100
AcDbEntity
  8
0
  0
POLYLINE
  5
16B
100
AcDbEntity
  8
0
370
        15
  6
Continuous
 62
         7
100
AcDb2dPolyline
 66
         1
 10
0.0
 20
0.0
 30
0.0
 70
       128
  0
VERTEX
  5
16C
100
AcDbEntity
  8
0
100
AcDbVertex
100
AcDb2dVertex
 10
29.2181092023
 20
207.6688463067
 30
0.0
  0
VERTEX
  5
16D
100
AcDbEntity
  8
0
100
AcDbVertex
100
AcDb2dVertex
 10
29.613058844
 20
207.538619835
 30
0.0
  0
VERTEX
  5
16E
100
AcDbEntity
  8
0
100
AcDbVertex
100
AcDb2dVertex
 10
30.0339887581
 20
207.4588667951
 30
0.0
  0
VERTEX
  5
16F
100
AcDbEntity
  8
0
100
AcDbVertex
100
AcDb2dVertex
 10
30.4681092023
 20
207.432010443
 30
0.0
  0
VERTEX
  5
170
100
AcDbEntity
  8
0
100
AcDbVertex
100
AcDb2dVertex
 10
30.9022296464
 20
207.4588667951
 30
0.0
  0
VERTEX
  5
171
100
AcDbEntity
  8
0
100
AcDbVertex
100
AcDb2dVertex
 10
31.3231595606
 20
207.538619835
 30
0.0
  0
VERTEX
  5
172
100
AcDbEntity
  8
0
100
AcDbVertex
100
AcDb2dVertex
 10
31.7181092023
 20
207.6688463067
 30
0.0
  0
VERTEX
  5
173
100
AcDbEntity
  8
0
100
AcDbVertex
100
AcDb2dVertex
 10
32.0750782265
 20
207.8455893449
 30
0.0
  0
VERTEX
  5
174
100
AcDbEntity
  8
0
100
AcDbVertex
100
AcDb2dVertex
 10
32.3832203101
 20
208.0634787018
 30
0.0
  0
VERTEX
  5
175
100
AcDbEntity
  8
0
100
AcDbVertex
100
AcDb2dVertex
 10
32.6331727117
 20
208.3158939194
 30
0.0
  0
VERTEX
  5
176
100
AcDbEntity
  8
0
100
AcDbVertex
100
AcDb2dVertex
 10
32.8173407542
 20
208.5951654893
 30
0.0
  0
VERTEX
  5
177
100
AcDbEntity
  8
0
100
AcDbVertex
100
AcDb2dVertex
 10
32.9301285848
 20
208.892807886
 30
0.0
  0
VERTEX
  5
178
100
AcDbEntity
  8
0
100
AcDbVertex
100
AcDb2dVertex
 10
32.9681092023
 20
209.1997773959
 30
0.0
  0
VERTEX
  5
179
100
AcDbEntity
  8
0
100
AcDbVertex
100
AcDb2dVertex
 10
32.9301285848
 20
209.5067469059
 30
0.0
  0
VERTEX
  5
17A
100
AcDbEntity
  8
0
100
AcDbVertex
100
AcDb2dVertex
 10
32.8173407542
 20
209.8043893026
 30
0.0
  0
VERTEX
  5
17B
100
AcDbEntity
  8
0
100
AcDbVertex
100
AcDb2dVertex
 10
32.6331727117
 20
210.0836608724
 30
0.0
  0
VERTEX
  5
17C
100
AcDbEntity
  8
0
100
AcDbVertex
100
AcDb2dVertex
 10
32.3832203101
 20
210.3360760901
 30
0.0
  0
VERTEX
  5
17D
100
AcDbEntity
  8
0
100
AcDbVertex
100
AcDb2dVertex
 10
32.0750782265
 20
210.553965447
 30
0.0
  0
VERTEX
  5
17E
100
AcDbEntity
  8
0
100
AcDbVertex
100
AcDb2dVertex
 10
31.7181092023
 20
210.7307084852
 30
0.0
  0
VERTEX
  5
17F
100
AcDbEntity
  8
0
100
AcDbVertex
100
AcDb2dVertex
 10
31.3231595606
 20
210.8609349569
 30
0.0
  0
VERTEX
  5
180
100
AcDbEntity
  8
0
100
AcDbVertex
100
AcDb2dVertex
 10
30.9022296464
 20
210.9406879967
 30
0.0
  0
VERTEX
  5
181
100
AcDbEntity
  8
0
100
AcDbVertex
100
AcDb2dVertex
 10
30.4681092023
 20
210.9675443489
 30
0.0
  0
VERTEX
  5
182
100
AcDbEntity
  8
0
100
AcDbVertex
100
AcDb2dVertex
 10
30.0339887581
 20
210.9406879967
 30
0.0
  0
VERTEX
  5
183
100
AcDbEntity
  8
0
100
AcDbVertex
100
AcDb2dVertex
 10
29.613058844
 20
210.8609349569
 30
0.0
  0
VERTEX
  5
184
100
AcDbEntity
  8
0
100
AcDbVertex
100
AcDb2dVertex
 10
29.2181092023
 20
210.7307084852
 30
0.0
  0
VERTEX
  5
185
100
AcDbEntity
  8
0
100
AcDbVertex
100
AcDb2dVertex
 10
28.8611401781
 20
210.553965447
 30
0.0
  0
VERTEX
  5
186
100
AcDbEntity
  8
0
100
AcDbVertex
100
AcDb2dVertex
 10
28.5529980945
 20
210.3360760901
 30
0.0
  0
VERTEX
  5
187
100
AcDbEntity
  8
0
100
AcDbVertex
100
AcDb2dVertex
 10
28.3030456928
 20
210.0836608724
 30
0.0
  0
VERTEX
  5
188
100
AcDbEntity
  8
0
100
AcDbVertex
100
AcDb2dVertex
 10
28.1188776503
 20
209.8043893026
 30
0.0
  0
VERTEX
  5
189
100
AcDbEntity
  8
0
100
AcDbVertex
100
AcDb2dVertex
 10
28.0060898198
 20
209.5067469059
 30
0.0
  0
VERTEX
  5
18A
100
AcDbEntity
  8
0
100
AcDbVertex
100
AcDb2dVertex
 10
27.9681092023
 20
209.1997773959
 30
0.0
  0
VERTEX
  5
18B
100
AcDbEntity
  8
0
100
AcDbVertex
100
AcDb2dVertex
 10
28.0060898198
 20
208.892807886
 30
0.0
  0
VERTEX
  5
18C
100
AcDbEntity
  8
0
100
AcDbVertex
100
AcDb2dVertex
 10
28.1188776503
 20
208.5951654893
 30
0.0
  0
VERTEX
  5
18D
100
AcDbEntity
  8
0
100
AcDbVertex
100
AcDb2dVertex
 10
28.3030456928
 20
208.3158939194
 30
0.0
  0
VERTEX
  5
18E
100
AcDbEntity
  8
0
100
AcDbVertex
100
AcDb2dVertex
 10
28.5529980945
 20
208.0634787018
 30
0.0
  0
VERTEX
  5
18F
100
AcDbEntity
  8
0
100
AcDbVertex
100
AcDb2dVertex
 10
28.8611401781
 20
207.8455893449
 30
0.0
  0
VERTEX
  5
190
100
AcDbEntity
  8
0
100
AcDbVertex
100
AcDb2dVertex
 10
29.2181092023
 20
207.6688463067
 30
0.0
  0
SEQEND
  5
191
100
AcDbEntity
  8
0
  0
POLYLINE
  5
192
100
AcDbEntity
  8
0
370
        15
  6
Continuous
 62
         7
100
AcDb2dPolyline
 66
         1
 10
0.0
 20
0.0
 30
0.0
 70
       128
  0
VERTEX
  5
193
100
AcDbEntity
  8
0
100
AcDbVertex
100
AcDb2dVertex
 10
47.7181092023
 20
230.3266264274
 30
0.0
  0
VERTEX
  5
194
100
AcDbEntity
  8
0
100
AcDbVertex
100
AcDb2dVertex
 10
48.113058844
 20
230.1963999557
 30
0.0
  0
VERTEX
  5
195
100
AcDbEntity
  8
0
100
AcDbVertex
100
AcDb2dVertex
 10
48.5339887581
 20
230.1166469159
 30
0.0
  0
VERTEX
  5
196
100
AcDbEntity
  8
0
100
AcDbVertex
100
AcDb2dVertex
 10
48.9681092023
 20
230.0897905637
 30
0.0
  0
VERTEX
  5
197
100
AcDbEntity
  8
0
100
AcDbVertex
100
AcDb2dVertex
 10
49.4022296464
 20
230.1166469159
 30
0.0
  0
VERTEX
  5
198
100
AcDbEntity
  8
0
100
AcDbVertex
100
AcDb2dVertex
 10
49.8231595606
 20
230.1963999557
 30
0.0
  0
VERTEX
  5
199
100
AcDbEntity
  8
0
100
AcDbVertex
100
AcDb2dVertex
 10
50.2181092023
 20
230.3266264274
 30
0.0
  0
VERTEX
  5
19A
100
AcDbEntity
  8
0
100
AcDbVertex
100
AcDb2dVertex
 10
50.5750782265
 20
230.5033694656
 30
0.0
  0
VERTEX
  5
19B
100
AcDbEntity
  8
0
100
AcDbVertex
100
AcDb2dVertex
 10
50.8832203101
 20
230.7212588225
 30
0.0
  0
VERTEX
  5
19C
100
AcDbEntity
  8
0
100
AcDbVertex
100
AcDb2dVertex
 10
51.1331727117
 20
230.9736740402
 30
0.0
  0
VERTEX
  5
19D
100
AcDbEntity
  8
0
100
AcDbVertex
100
AcDb2dVertex
 10
51.3173407542
 20
231.2529456101
 30
0.0
  0
VERTEX
  5
19E
100
AcDbEntity
  8
0
100
AcDbVertex
100
AcDb2dVertex
 10
51.4301285848
 20
231.5505880068
 30
0.0
  0
VERTEX
  5
19F
100
AcDbEntity
  8
0
100
AcDbVertex
100
AcDb2dVertex
 10
51.4681092023
 20
231.8575575167
 30
0.0
  0
VERTEX
  5
1A0
100
AcDbEntity
  8
0
100
AcDbVertex
100
AcDb2dVertex
 10
51.4301285848
 20
232.1645270266
 30
0.0
  0
VERTEX
  5
1A1
100
AcDbEntity
  8
0
100
AcDbVertex
100
AcDb2dVertex
 10
51.3173407542
 20
232.4621694233
 30
0.0
  0
VERTEX
  5
1A2
100
AcDbEntity
  8
0
100
AcDbVertex
100
AcDb2dVertex
 10
51.1331727117
 20
232.7414409932
 30
0.0
  0
VERTEX
  5
1A3
100
AcDbEntity
  8
0
100
AcDbVertex
100
AcDb2dVertex
 10
50.8832203101
 20
232.9938562109
 30
0.0
  0
VERTEX
  5
1A4
100
AcDbEntity
  8
0
100
AcDbVertex
100
AcDb2dVertex
 10
50.5750782265
 20
233.2117455677
 30
0.0
  0
VERTEX
  5
1A5
100
AcDbEntity
  8
0
100
AcDbVertex
100
AcDb2dVertex
 10
50.2181092023
 20
233.3884886059
 30
0.0
  0
VERTEX
  5
1A6
100
AcDbEntity
  8
0
100
AcDbVertex
100
AcDb2dVertex
 10
49.8231595606
 20
233.5187150776
 30
0.0
  0
VERTEX
  5
1A7
100
AcDbEntity
  8
0
100
AcDbVertex
100
AcDb2dVertex
 10
49.4022296464
 20
233.5984681175
 30
0.0
  0
VERTEX
  5
1A8
100
AcDbEntity
  8
0
100
AcDbVertex
100
AcDb2dVertex
 10
48.9681092023
 20
233.6253244696
 30
0.0
  0
VERTEX
  5
1A9
100
AcDbEntity
  8
0
100
AcDbVertex
100
AcDb2dVertex
 10
48.5339887581
 20
233.5984681175
 30
0.0
  0
VERTEX
  5
1AA
100
AcDbEntity
  8
0
100
AcDbVertex
100
AcDb2dVertex
 10
48.113058844
 20
233.5187150776
 30
0.0
  0
VERTEX
  5
1AB
100
AcDbEntity
  8
0
100
AcDbVertex
100
AcDb2dVertex
 10
47.7181092023
 20
233.3884886059
 30
0.0
  0
VERTEX
  5
1AC
100
AcDbEntity
  8
0
100
AcDbVertex
100
AcDb2dVertex
 10
47.3611401781
 20
233.2117455677
 30
0.0
  0
VERTEX
  5
1AD
100
AcDbEntity
  8
0
100
AcDbVertex
100
AcDb2dVertex
 10
47.0529980945
 20
232.9938562109
 30
0.0
  0
VERTEX
  5
1AE
100
AcDbEntity
  8
0
100
AcDbVertex
100
AcDb2dVertex
 10
46.8030456928
 20
232.7414409932
 30
0.0
  0
VERTEX
  5
1AF
100
AcDbEntity
  8
0
100
AcDbVertex
100
AcDb2dVertex
 10
46.6188776503
 20
232.4621694233
 30
0.0
  0
VERTEX
  5
1B0
100
AcDbEntity
  8
0
100
AcDbVertex
100
AcDb2dVertex
 10
46.5060898198
 20
232.1645270266
 30
0.0
  0
VERTEX
  5
1B1
100
AcDbEntity
  8
0
100
AcDbVertex
100
AcDb2dVertex
 10
46.4681092023
 20
231.8575575167
 30
0.0
  0
VERTEX
  5
1B2
100
AcDbEntity
  8
0
100
AcDbVertex
100
AcDb2dVertex
 10
46.5060898198
 20
231.5505880068
 30
0.0
  0
VERTEX
  5
1B3
100
AcDbEntity
  8
0
100
AcDbVertex
100
AcDb2dVertex
 10
46.6188776503
 20
231.2529456101
 30
0.0
  0
VERTEX
  5
1B4
100
AcDbEntity
  8
0
100
AcDbVertex
100
AcDb2dVertex
 10
46.8030456928
 20
230.9736740402
 30
0.0
  0
VERTEX
  5
1B5
100
AcDbEntity
  8
0
100
AcDbVertex
100
AcDb2dVertex
 10
47.0529980945
 20
230.7212588225
 30
0.0
  0
VERTEX
  5
1B6
100
AcDbEntity
  8
0
100
AcDbVertex
100
AcDb2dVertex
 10
47.3611401781
 20
230.5033694656
 30
0.0
  0
VERTEX
  5
1B7
100
AcDbEntity
  8
0
100
AcDbVertex
100
AcDb2dVertex
 10
47.7181092023
 20
230.3266264274
 30
0.0
  0
SEQEND
  5
1B8
100
AcDbEntity
  8
0
  0
LINE
  5
1B9
100
AcDbEntity
  8
0
370
        15
  6
Continuous
 62
         7
100
AcDbLine
 10
21.5889440777
 20
189.8397840731
 30
0.0
 11
64.8902142669
 21
172.1621145434
 31
0.0
  0
LINE
  5
1BA
100
AcDbEntity
  8
0
370
        15
  6
Continuous
 62
         7
100
AcDbLine
 10
21.5889440777
 20
189.8397840731
 30
0.0
 11
21.5889440777
 21
207.5174536028
 31
0.0
  0
POLYLINE
  5
1BB
100
AcDbEntity
  8
0
370
        15
  6
Continuous
 62
         7
100
AcDb2dPolyline
 66
         1
 10
0.0
 20
0.0
 30
0.0
 70
       128
  0
VERTEX
  5
1BC
100
AcDbEntity
  8
0
100
AcDbVertex
100
AcDb2dVertex
 10
65.7395791723
 20
222.6998445383
 30
0.0
  0
VERTEX
  5
1BD
100
AcDbEntity
  8
0
100
AcDbVertex
100
AcDb2dVertex
 10
66.7868786315
 20
222.2413138125
 30
0.0
  0
VERTEX
  5
1BE
100
AcDbEntity
  8
0
100
AcDbVertex
100
AcDb2dVertex
 10
67.7922718999
 20
221.7380636827
 30
0.0
  0
VERTEX
  5
1BF
100
AcDbEntity
  8
0
100
AcDbVertex
100
AcDb2dVertex
 10
68.7519451764
 20
221.1920031491
 30
0.0
  0
VERTEX
  5
1C0
100
AcDbEntity
  8
0
100
AcDbVertex
100
AcDb2dVertex
 10
69.6622580916
 20
220.6052036063
 30
0.0
  0
VERTEX
  5
1C1
100
AcDbEntity
  8
0
100
AcDbVertex
100
AcDb2dVertex
 10
70.5197575167
 20
219.979890986
 30
0.0
  0
VERTEX
  5
1C2
100
AcDbEntity
  8
0
100
AcDbVertex
100
AcDb2dVertex
 10
71.3211906628
 20
219.3184373131
 30
0.0
  0
VERTEX
  5
1C3
100
AcDbEntity
  8
0
100
AcDbVertex
100
AcDb2dVertex
 10
72.0635174194
 20
218.623351708
 30
0.0
  0
VERTEX
  5
1C4
100
AcDbEntity
  8
0
100
AcDbVertex
100
AcDb2dVertex
 10
72.7439218869
 20
217.8972708685
 30
0.0
  0
VERTEX
  5
1C5
100
AcDbEntity
  8
0
100
AcDbVertex
100
AcDb2dVertex
 10
73.359823058
 20
217.1429490679
 30
0.0
  0
VERTEX
  5
1C6
100
AcDbEntity
  8
0
100
AcDbVertex
100
AcDb2dVertex
 10
73.9088846087
 20
216.3632477071
 30
0.0
  0
VERTEX
  5
1C7
100
AcDbEntity
  8
0
100
AcDbVertex
100
AcDb2dVertex
 10
74.3890237604
 20
215.5611244606
 30
0.0
  0
VERTEX
  5
1C8
100
AcDbEntity
  8
0
100
AcDbVertex
100
AcDb2dVertex
 10
74.7984191808
 20
214.7396220564
 30
0.0
  0
VERTEX
  5
1C9
100
AcDbEntity
  8
0
100
AcDbVertex
100
AcDb2dVertex
 10
75.135517893
 20
213.9018567347
 30
0.0
  0
VERTEX
  5
1CA
100
AcDbEntity
  8
0
100
AcDbVertex
100
AcDb2dVertex
 10
75.399041166
 20
213.0510064262
 30
0.0
  0
VERTEX
  5
1CB
100
AcDbEntity
  8
0
100
AcDbVertex
100
AcDb2dVertex
 10
75.5827140053
 20
212.2201627774
 30
0.0
  0
SEQEND
  5
1CC
100
AcDbEntity
  8
0
  0
POLYLINE
  5
1CD
100
AcDbEntity
  8
0
370
        15
  6
Continuous
 62
         7
100
AcDb2dPolyline
 66
         1
 10
0.0
 20
0.0
 30
0.0
 70
       128
  0
VERTEX
  5
1CE
100
AcDbEntity
  8
0
100
AcDbVertex
100
AcDb2dVertex
 10
35.8964443393
 20
212.2201627774
 30
0.0
  0
VERTEX
  5
1CF
100
AcDbEntity
  8
0
100
AcDbVertex
100
AcDb2dVertex
 10
36.0801171786
 20
213.0510064262
 30
0.0
  0
VERTEX
  5
1D0
100
AcDbEntity
  8
0
100
AcDbVertex
100
AcDb2dVertex
 10
36.3436404516
 20
213.9018567347
 30
0.0
  0
VERTEX
  5
1D1
100
AcDbEntity
  8
0
100
AcDbVertex
100
AcDb2dVertex
 10
36.6807391638
 20
214.7396220564
 30
0.0
  0
VERTEX
  5
1D2
100
AcDbEntity
  8
0
100
AcDbVertex
100
AcDb2dVertex
 10
37.0901345842
 20
215.5611244606
 30
0.0
  0
VERTEX
  5
1D3
100
AcDbEntity
  8
0
100
AcDbVertex
100
AcDb2dVertex
 10
37.5702737359
 20
216.3632477071
 30
0.0
  0
VERTEX
  5
1D4
100
AcDbEntity
  8
0
100
AcDbVertex
100
AcDb2dVertex
 10
38.1193352866
 20
217.1429490679
 30
0.0
  0
VERTEX
  5
1D5
100
AcDbEntity
  8
0
100
AcDbVertex
100
AcDb2dVertex
 10
38.7352364577
 20
217.8972708685
 30
0.0
  0
VERTEX
  5
1D6
100
AcDbEntity
  8
0
100
AcDbVertex
100
AcDb2dVertex
 10
39.4156409252
 20
218.623351708
 30
0.0
  0
VERTEX
  5
1D7
100
AcDbEntity
  8
0
100
AcDbVertex
100
AcDb2dVertex
 10
40.1579676818
 20
219.3184373131
 30
0.0
  0
VERTEX
  5
1D8
100
AcDbEntity
  8
0
100
AcDbVertex
100
AcDb2dVertex
 10
40.9594008279
 20
219.979890986
 30
0.0
  0
VERTEX
  5
1D9
100
AcDbEntity
  8
0
100
AcDbVertex
100
AcDb2dVertex
 10
41.816900253
 20
220.6052036063
 30
0.0
  0
VERTEX
  5
1DA
100
AcDbEntity
  8
0
100
AcDbVertex
100
AcDb2dVertex
 10
42.7272131682
 20
221.1920031491
 30
0.0
  0
VERTEX
  5
1DB
100
AcDbEntity
  8
0
100
AcDbVertex
100
AcDb2dVertex
 10
43.6868864447
 20
221.7380636827
 30
0.0
  0
VERTEX
  5
1DC
100
AcDbEntity
  8
0
100
AcDbVertex
100
AcDb2dVertex
 10
44.6922797131
 20
222.2413138125
 30
0.0
  0
VERTEX
  5
1DD
100
AcDbEntity
  8
0
100
AcDbVertex
100
AcDb2dVertex
 10
45.7395791723
 20
222.6998445383
 30
0.0
  0
VERTEX
  5
1DE
100
AcDbEntity
  8
0
100
AcDbVertex
100
AcDb2dVertex
 10
46.8248120568
 20
223.1119164961
 30
0.0
  0
VERTEX
  5
1DF
100
AcDbEntity
  8
0
100
AcDbVertex
100
AcDb2dVertex
 10
47.9438617064
 20
223.4759665558
 30
0.0
  0
VERTEX
  5
1E0
100
AcDbEntity
  8
0
100
AcDbVertex
100
AcDb2dVertex
 10
49.0924831827
 20
223.7906137508
 30
0.0
  0
VERTEX
  5
1E1
100
AcDbEntity
  8
0
100
AcDbVertex
100
AcDb2dVertex
 10
50.2663193709
 20
224.0546645165
 30
0.0
  0
VERTEX
  5
1E2
100
AcDbEntity
  8
0
100
AcDbVertex
100
AcDb2dVertex
 10
51.4609175082
 20
224.267117218
 30
0.0
  0
VERTEX
  5
1E3
100
AcDbEntity
  8
0
100
AcDbVertex
100
AcDb2dVertex
 10
52.6717460747
 20
224.4271659493
 30
0.0
  0
VERTEX
  5
1E4
100
AcDbEntity
  8
0
100
AcDbVertex
100
AcDb2dVertex
 10
53.894211983
 20
224.5342035907
 30
0.0
  0
VERTEX
  5
1E5
100
AcDbEntity
  8
0
100
AcDbVertex
100
AcDb2dVertex
 10
55.1236780012
 20
224.587824112
 30
0.0
  0
VERTEX
  5
1E6
100
AcDbEntity
  8
0
100
AcDbVertex
100
AcDb2dVertex
 10
56.3554803434
 20
224.587824112
 30
0.0
  0
VERTEX
  5
1E7
100
AcDbEntity
  8
0
100
AcDbVertex
100
AcDb2dVertex
 10
57.5849463616
 20
224.5342035907
 30
0.0
  0
VERTEX
  5
1E8
100
AcDbEntity
  8
0
100
AcDbVertex
100
AcDb2dVertex
 10
58.8074122699
 20
224.4271659493
 30
0.0
  0
VERTEX
  5
1E9
100
AcDbEntity
  8
0
100
AcDbVertex
100
AcDb2dVertex
 10
60.0182408364
 20
224.267117218
 30
0.0
  0
VERTEX
  5
1EA
100
AcDbEntity
  8
0
100
AcDbVertex
100
AcDb2dVertex
 10
61.2128389737
 20
224.0546645165
 30
0.0
  0
VERTEX
  5
1EB
100
AcDbEntity
  8
0
100
AcDbVertex
100
AcDb2dVertex
 10
62.3866751619
 20
223.7906137508
 30
0.0
  0
VERTEX
  5
1EC
100
AcDbEntity
  8
0
100
AcDbVertex
100
AcDb2dVertex
 10
63.5352966381
 20
223.4759665558
 30
0.0
  0
VERTEX
  5
1ED
100
AcDbEntity
  8
0
100
AcDbVertex
100
AcDb2dVertex
 10
64.6543462878
 20
223.1119164961
 30
0.0
  0
VERTEX
  5
1EE
100
AcDbEntity
  8
0
100
AcDbVertex
100
AcDb2dVertex
 10
65.7395791723
 20
222.6998445383
 30
0.0
  0
SEQEND
  5
1EF
100
AcDbEntity
  8
0
  0
POLYLINE
  5
1F0
100
AcDbEntity
  8
0
  6
Continuous
 62
         7
100
AcDb2dPolyline
 66
         1
 10
0.0
 20
0.0
 30
0.0
 70
       128
  0
VERTEX
  5
1F1
100
AcDbEntity
  8
0
100
AcDbVertex
100
AcDb2dVertex
 10
61.0110491423
 20
194.2811846369
 30
0.0
  0
VERTEX
  5
1F2
100
AcDbEntity
  8
0
100
AcDbVertex
100
AcDb2dVertex
 10
60.1309891214
 20
194.8269239402
 30
0.0
  0
VERTEX
  5
1F3
100
AcDbEntity
  8
0
100
AcDbVertex
100
AcDb2dVertex
 10
59.6132716634
 20
195.5692638383
 30
0.0
  0
VERTEX
  5
1F4
100
AcDbEntity
  8
0
100
AcDbVertex
100
AcDb2dVertex
 10
59.5367145582
 20
196.3951898109
 30
0.0
  0
VERTEX
  5
1F5
100
AcDbEntity
  8
0
100
AcDbVertex
100
AcDb2dVertex
 10
59.912972931
 20
197.1789621158
 30
0.0
  0
VERTEX
  5
1F6
100
AcDbEntity
  8
0
100
AcDbVertex
100
AcDb2dVertex
 10
60.6847648553
 20
197.8012585244
 30
0.0
  0
VERTEX
  5
1F7
100
AcDbEntity
  8
0
100
AcDbVertex
100
AcDb2dVertex
 10
61.734592007
 20
198.1673400497
 30
0.0
  0
VERTEX
  5
1F8
100
AcDbEntity
  8
0
100
AcDbVertex
100
AcDb2dVertex
 10
62.902627719
 20
198.2214740979
 30
0.0
  0
VERTEX
  5
1F9
100
AcDbEntity
  8
0
100
AcDbVertex
100
AcDb2dVertex
 10
64.0110491423
 20
197.9554192511
 30
0.0
  0
VERTEX
  5
1FA
100
AcDbEntity
  8
0
100
AcDbVertex
100
AcDb2dVertex
 10
64.8911091632
 20
197.4096799477
 30
0.0
  0
VERTEX
  5
1FB
100
AcDbEntity
  8
0
100
AcDbVertex
100
AcDb2dVertex
 10
65.4088266212
 20
196.6673400497
 30
0.0
  0
VERTEX
  5
1FC
100
AcDbEntity
  8
0
100
AcDbVertex
100
AcDb2dVertex
 10
65.4853837264
 20
195.8414140771
 30
0.0
  0
VERTEX
  5
1FD
100
AcDbEntity
  8
0
100
AcDbVertex
100
AcDb2dVertex
 10
65.1091253537
 20
195.0576417722
 30
0.0
  0
VERTEX
  5
1FE
100
AcDbEntity
  8
0
100
AcDbVertex
100
AcDb2dVertex
 10
64.3373334293
 20
194.4353453636
 30
0.0
  0
VERTEX
  5
1FF
100
AcDbEntity
  8
0
100
AcDbVertex
100
AcDb2dVertex
 10
63.2875062776
 20
194.0692638383
 30
0.0
  0
VERTEX
  5
200
100
AcDbEntity
  8
0
100
AcDbVertex
100
AcDb2dVertex
 10
62.1194705656
 20
194.01512979
 30
0.0
  0
VERTEX
  5
201
100
AcDbEntity
  8
0
100
AcDbVertex
100
AcDb2dVertex
 10
61.0110491423
 20
194.2811846369
 30
0.0
  0
SEQEND
  5
202
100
AcDbEntity
  8
0
  0
POLYLINE
  5
203
100
AcDbEntity
  8
0
  6
Continuous
 62
         7
100
AcDb2dPolyline
 66
         1
 10
0.0
 20
0.0
 30
0.0
 70
       128
  0
VERTEX
  5
204
100
AcDbEntity
  8
0
100
AcDbVertex
100
AcDb2dVertex
 10
79.5110491423
 20
216.9389647576
 30
0.0
  0
VERTEX
  5
205
100
AcDbEntity
  8
0
100
AcDbVertex
100
AcDb2dVertex
 10
78.6309891214
 20
217.484704061
 30
0.0
  0
VERTEX
  5
206
100
AcDbEntity
  8
0
100
AcDbVertex
100
AcDb2dVertex
 10
78.1132716634
 20
218.227043959
 30
0.0
  0
VERTEX
  5
207
100
AcDbEntity
  8
0
100
AcDbVertex
100
AcDb2dVertex
 10
78.0367145582
 20
219.0529699316
 30
0.0
  0
VERTEX
  5
208
100
AcDbEntity
  8
0
100
AcDbVertex
100
AcDb2dVertex
 10
78.412972931
 20
219.8367422365
 30
0.0
  0
VERTEX
  5
209
100
AcDbEntity
  8
0
100
AcDbVertex
100
AcDb2dVertex
 10
79.1847648553
 20
220.4590386451
 30
0.0
  0
VERTEX
  5
20A
100
AcDbEntity
  8
0
100
AcDbVertex
100
AcDb2dVertex
 10
80.234592007
 20
220.8251201704
 30
0.0
  0
VERTEX
  5
20B
100
AcDbEntity
  8
0
100
AcDbVertex
100
AcDb2dVertex
 10
81.402627719
 20
220.8792542187
 30
0.0
  0
VERTEX
  5
20C
100
AcDbEntity
  8
0
100
AcDbVertex
100
AcDb2dVertex
 10
82.5110491423
 20
220.6131993718
 30
0.0
  0
VERTEX
  5
20D
100
AcDbEntity
  8
0
100
AcDbVertex
100
AcDb2dVertex
 10
83.3911091632
 20
220.0674600685
 30
0.0
  0
VERTEX
  5
20E
100
AcDbEntity
  8
0
100
AcDbVertex
100
AcDb2dVertex
 10
83.9088266212
 20
219.3251201704
 30
0.0
  0
VERTEX
  5
20F
100
AcDbEntity
  8
0
100
AcDbVertex
100
AcDb2dVertex
 10
83.9853837264
 20
218.4991941978
 30
0.0
  0
VERTEX
  5
210
100
AcDbEntity
  8
0
100
AcDbVertex
100
AcDb2dVertex
 10
83.6091253537
 20
217.7154218929
 30
0.0
  0
VERTEX
  5
211
100
AcDbEntity
  8
0
100
AcDbVertex
100
AcDb2dVertex
 10
82.8373334293
 20
217.0931254843
 30
0.0
  0
VERTEX
  5
212
100
AcDbEntity
  8
0
100
AcDbVertex
100
AcDb2dVertex
 10
81.7875062776
 20
216.727043959
 30
0.0
  0
VERTEX
  5
213
100
AcDbEntity
  8
0
100
AcDbVertex
100
AcDb2dVertex
 10
80.6194705656
 20
216.6729099108
 30
0.0
  0
VERTEX
  5
214
100
AcDbEntity
  8
0
100
AcDbVertex
100
AcDb2dVertex
 10
79.5110491423
 20
216.9389647576
 30
0.0
  0
SEQEND
  5
215
100
AcDbEntity
  8
0
  0
POLYLINE
  5
216
100
AcDbEntity
  8
0
  6
Continuous
 62
         7
100
AcDb2dPolyline
 66
         1
 10
0.0
 20
0.0
 30
0.0
 70
       128
  0
VERTEX
  5
217
100
AcDbEntity
  8
0
100
AcDbVertex
100
AcDb2dVertex
 10
47.4681092023
 20
230.0204402096
 30
0.0
  0
VERTEX
  5
218
100
AcDbEntity
  8
0
100
AcDbVertex
100
AcDb2dVertex
 10
46.5880491814
 20
230.5661795129
 30
0.0
  0
VERTEX
  5
219
100
AcDbEntity
  8
0
100
AcDbVertex
100
AcDb2dVertex
 10
46.0703317234
 20
231.308519411
 30
0.0
  0
VERTEX
  5
21A
100
AcDbEntity
  8
0
100
AcDbVertex
100
AcDb2dVertex
 10
45.9937746182
 20
232.1344453836
 30
0.0
  0
VERTEX
  5
21B
100
AcDbEntity
  8
0
100
AcDbVertex
100
AcDb2dVertex
 10
46.3700329909
 20
232.9182176885
 30
0.0
  0
VERTEX
  5
21C
100
AcDbEntity
  8
0
100
AcDbVertex
100
AcDb2dVertex
 10
47.1418249153
 20
233.5405140971
 30
0.0
  0
VERTEX
  5
21D
100
AcDbEntity
  8
0
100
AcDbVertex
100
AcDb2dVertex
 10
48.191652067
 20
233.9065956224
 30
0.0
  0
VERTEX
  5
21E
100
AcDbEntity
  8
0
100
AcDbVertex
100
AcDb2dVertex
 10
49.3596877789
 20
233.9607296706
 30
0.0
  0
VERTEX
  5
21F
100
AcDbEntity
  8
0
100
AcDbVertex
100
AcDb2dVertex
 10
50.4681092023
 20
233.6946748238
 30
0.0
  0
VERTEX
  5
220
100
AcDbEntity
  8
0
100
AcDbVertex
100
AcDb2dVertex
 10
51.3481692232
 20
233.1489355204
 30
0.0
  0
VERTEX
  5
221
100
AcDbEntity
  8
0
100
AcDbVertex
100
AcDb2dVertex
 10
51.8658866811
 20
232.4065956224
 30
0.0
  0
VERTEX
  5
222
100
AcDbEntity
  8
0
100
AcDbVertex
100
AcDb2dVertex
 10
51.9424437864
 20
231.5806696498
 30
0.0
  0
VERTEX
  5
223
100
AcDbEntity
  8
0
100
AcDbVertex
100
AcDb2dVertex
 10
51.5661854136
 20
230.7968973449
 30
0.0
  0
VERTEX
  5
224
100
AcDbEntity
  8
0
100
AcDbVertex
100
AcDb2dVertex
 10
50.7943934893
 20
230.1746009363
 30
0.0
  0
VERTEX
  5
225
100
AcDbEntity
  8
0
100
AcDbVertex
100
AcDb2dVertex
 10
49.7445663376
 20
229.808519411
 30
0.0
  0
VERTEX
  5
226
100
AcDbEntity
  8
0
100
AcDbVertex
100
AcDb2dVertex
 10
48.5765306256
 20
229.7543853627
 30
0.0
  0
VERTEX
  5
227
100
AcDbEntity
  8
0
100
AcDbVertex
100
AcDb2dVertex
 10
47.4681092023
 20
230.0204402096
 30
0.0
  0
SEQEND
  5
228
100
AcDbEntity
  8
0
  0
POLYLINE
  5
229
100
AcDbEntity
  8
0
  6
Continuous
 62
         7
100
AcDb2dPolyline
 66
         1
 10
0.0
 20
0.0
 30
0.0
 70
       128
  0
VERTEX
  5
22A
100
AcDbEntity
  8
0
100
AcDbVertex
100
AcDb2dVertex
 10
28.9681092023
 20
207.3626600888
 30
0.0
  0
VERTEX
  5
22B
100
AcDbEntity
  8
0
100
AcDbVertex
100
AcDb2dVertex
 10
28.0880491814
 20
207.9083993922
 30
0.0
  0
VERTEX
  5
22C
100
AcDbEntity
  8
0
100
AcDbVertex
100
AcDb2dVertex
 10
27.5703317234
 20
208.6507392903
 30
0.0
  0
VERTEX
  5
22D
100
AcDbEntity
  8
0
100
AcDbVertex
100
AcDb2dVertex
 10
27.4937746182
 20
209.4766652629
 30
0.0
  0
VERTEX
  5
22E
100
AcDbEntity
  8
0
100
AcDbVertex
100
AcDb2dVertex
 10
27.8700329909
 20
210.2604375677
 30
0.0
  0
VERTEX
  5
22F
100
AcDbEntity
  8
0
100
AcDbVertex
100
AcDb2dVertex
 10
28.6418249153
 20
210.8827339763
 30
0.0
  0
VERTEX
  5
230
100
AcDbEntity
  8
0
100
AcDbVertex
100
AcDb2dVertex
 10
29.691652067
 20
211.2488155016
 30
0.0
  0
VERTEX
  5
231
100
AcDbEntity
  8
0
100
AcDbVertex
100
AcDb2dVertex
 10
30.8596877789
 20
211.3029495499
 30
0.0
  0
VERTEX
  5
232
100
AcDbEntity
  8
0
100
AcDbVertex
100
AcDb2dVertex
 10
31.9681092023
 20
211.036894703
 30
0.0
  0
VERTEX
  5
233
100
AcDbEntity
  8
0
100
AcDbVertex
100
AcDb2dVertex
 10
32.8481692232
 20
210.4911553997
 30
0.0
  0
VERTEX
  5
234
100
AcDbEntity
  8
0
100
AcDbVertex
100
AcDb2dVertex
 10
33.3658866811
 20
209.7488155016
 30
0.0
  0
VERTEX
  5
235
100
AcDbEntity
  8
0
100
AcDbVertex
100
AcDb2dVertex
 10
33.4424437864
 20
208.922889529
 30
0.0
  0
VERTEX
  5
236
100
AcDbEntity
  8
0
100
AcDbVertex
100
AcDb2dVertex
 10
33.0661854136
 20
208.1391172242
 30
0.0
  0
VERTEX
  5
237
100
AcDbEntity
  8
0
100
AcDbVertex
100
AcDb2dVertex
 10
32.2943934893
 20
207.5168208155
 30
0.0
  0
VERTEX
  5
238
100
AcDbEntity
  8
0
100
AcDbVertex
100
AcDb2dVertex
 10
31.2445663376
 20
207.1507392903
 30
0.0
  0
VERTEX
  5
239
100
AcDbEntity
  8
0
100
AcDbVertex
100
AcDb2dVertex
 10
30.0765306256
 20
207.096605242
 30
0.0
  0
VERTEX
  5
23A
100
AcDbEntity
  8
0
100
AcDbVertex
100
AcDb2dVertex
 10
28.9681092023
 20
207.3626600888
 30
0.0
  0
SEQEND
  5
23B
100
AcDbEntity
  8
0
  0
LINE
  5
23C
100
AcDbEntity
  8
0
370
         0
  6
CENTERX2
 62
         7
100
AcDbLine
 10
140.3240004868
 20
150.8867445292
 30
0.0
 11
143.9021703159
 21
150.8867445292
 31
0.0
  0
LINE
  5
23D
100
AcDbEntity
  8
0
370
         0
  6
Continuous
 62
         7
100
AcDbLine
 10
117.5531718315
 20
166.297897074
 30
0.0
 11
117.9155219785
 21
166.6602472211
 31
0.0
  0
LINE
  5
23E
100
AcDbEntity
  8
0
370
         0
  6
Continuous
 62
         7
100
AcDbLine
 10
117.5531718315
 20
161.8077690135
 30
0.0
 11
122.4056500391
 21
166.6602472211
 31
0.0
  0
LINE
  5
23F
100
AcDbEntity
  8
0
370
         0
  6
Continuous
 62
         7
100
AcDbLine
 10
117.5531718315
 20
157.317640953
 30
0.0
 11
122.5531718315
 21
162.317640953
 31
0.0
  0
LINE
  5
240
100
AcDbEntity
  8
0
370
         0
  6
Continuous
 62
         7
100
AcDbLine
 10
117.5531718315
 20
152.8275128924
 30
0.0
 11
124.9830280299
 21
160.2573690909
 31
0.0
  0
LINE
  5
241
100
AcDbEntity
  8
0
370
         0
  6
Continuous
 62
         7
100
AcDbLine
 10
117.5531718315
 20
148.3373848319
 30
0.0
 11
127.829655154
 21
158.6138681545
 31
0.0
  0
LINE
  5
242
100
AcDbEntity
  8
0
370
         0
  6
Continuous
 62
         7
100
AcDbLine
 10
117.5531718315
 20
143.8472567714
 30
0.0
 11
130.6762822782
 21
156.9703672181
 31
0.0
  0
LINE
  5
243
100
AcDbEntity
  8
0
370
         0
  6
Continuous
 62
         7
100
AcDbLine
 10
119.8562903418
 20
141.6602472211
 30
0.0
 11
133.5229094023
 21
155.3268662817
 31
0.0
  0
LINE
  5
244
100
AcDbEntity
  8
0
370
         0
  6
Continuous
 62
         7
100
AcDbLine
 10
124.3464184023
 20
141.6602472211
 30
0.0
 11
136.3695365264
 21
153.6833653453
 31
0.0
  0
LINE
  5
245
100
AcDbEntity
  8
0
370
         0
  6
Continuous
 62
         7
100
AcDbLine
 10
128.8365464628
 20
141.6602472211
 30
0.0
 11
139.2161636506
 21
152.0398644089
 31
0.0
  0
LINE
  5
246
100
AcDbEntity
  8
0
370
         0
  6
Continuous
 62
         7
100
AcDbLine
 10
139.3266745234
 20
147.6602472211
 30
0.0
 11
142.5531718315
 21
150.8867445292
 31
0.0
  0
LINE
  5
247
100
AcDbEntity
  8
0
370
         0
  6
Continuous
 62
         7
100
AcDbLine
 10
133.3266745234
 20
141.6602472211
 30
0.0
 11
138.3031718315
 21
146.6367445292
 31
0.0
  0
LINE
  5
248
100
AcDbEntity
  8
0
370
         0
  6
Continuous
 62
         7
100
AcDbLine
 10
162.5531718315
 20
166.3966164687
 30
0.0
 11
162.8168025839
 21
166.6602472211
 31
0.0
  0
LINE
  5
249
100
AcDbEntity
  8
0
370
         0
  6
Continuous
 62
         7
100
AcDbLine
 10
143.8168025839
 20
147.6602472211
 30
0.0
 11
151.34680187
 21
155.1902465072
 31
0.0
  0
LINE
  5
24A
100
AcDbEntity
  8
0
370
         0
  6
Continuous
 62
         7
100
AcDbLine
 10
137.8168025839
 20
141.6602472211
 30
0.0
 11
138.3031718315
 21
142.1466164687
 31
0.0
  0
LINE
  5
24B
100
AcDbEntity
  8
0
370
         0
  6
Continuous
 62
         7
100
AcDbLine
 10
162.5531718315
 20
161.9064884082
 30
0.0
 11
167.3069306444
 21
166.6602472211
 31
0.0
  0
LINE
  5
24C
100
AcDbEntity
  8
0
370
         0
  6
Continuous
 62
         7
100
AcDbLine
 10
146.8031718315
 20
146.1564884082
 30
0.0
 11
161.9705589275
 21
161.3238755042
 31
0.0
  0
LINE
  5
24D
100
AcDbEntity
  8
0
370
         0
  6
Continuous
 62
         7
100
AcDbLine
 10
146.8031718315
 20
141.6663603476
 30
0.0
 11
167.5531718315
 21
162.4163603476
 31
0.0
  0
LINE
  5
24E
100
AcDbEntity
  8
0
370
         0
  6
Continuous
 62
         7
100
AcDbLine
 10
151.2871867655
 20
141.6602472211
 30
0.0
 11
167.5531718315
 21
157.9262322871
 31
0.0
  0
LINE
  5
24F
100
AcDbEntity
  8
0
370
         0
  6
Continuous
 62
         7
100
AcDbLine
 10
155.777314826
 20
141.6602472211
 30
0.0
 11
167.5531718315
 21
153.4361042265
 31
0.0
  0
LINE
  5
250
100
AcDbEntity
  8
0
370
         0
  6
Continuous
 62
         7
100
AcDbLine
 10
160.2674428866
 20
141.6602472211
 30
0.0
 11
167.5531718315
 21
148.945976166
 31
0.0
  0
LINE
  5
251
100
AcDbEntity
  8
0
370
         0
  6
Continuous
 62
         7
100
AcDbLine
 10
164.7575709471
 20
141.6602472211
 30
0.0
 11
167.5531718315
 21
144.4558481055
 31
0.0
  0
LINE
  5
252
100
AcDbEntity
  8
0
370
        15
  6
Continuous
 62
         7
100
AcDbLine
 10
162.5531718315
 20
166.6602472211
 30
0.0
 11
162.5531718315
 21
161.6602472211
 31
0.0
  0
LINE
  5
253
100
AcDbEntity
  8
0
370
        15
  6
Continuous
 62
         7
100
AcDbLine
 10
167.5531718315
 20
166.6602472211
 30
0.0
 11
162.5531718315
 21
166.6602472211
 31
0.0
  0
LINE
  5
254
100
AcDbEntity
  8
0
370
        15
  6
Continuous
 62
         7
100
AcDbLine
 10
167.5531718315
 20
141.6602472211
 30
0.0
 11
167.5531718315
 21
166.6602472211
 31
0.0
  0
LINE
  5
255
100
AcDbEntity
  8
0
370
        15
  6
Continuous
 62
         7
100
AcDbLine
 10
146.8031718315
 20
141.6602472211
 30
0.0
 11
167.5531718315
 21
141.6602472211
 31
0.0
  0
LINE
  5
256
100
AcDbEntity
  8
0
370
        15
  6
Continuous
 62
         7
100
AcDbLine
 10
146.8031718315
 20
141.6602472211
 30
0.0
 11
146.8031718315
 21
147.6602472211
 31
0.0
  0
LINE
  5
257
100
AcDbEntity
  8
0
370
        15
  6
Continuous
 62
         7
100
AcDbLine
 10
138.3031718315
 20
147.6602472211
 30
0.0
 11
146.8031718315
 21
147.6602472211
 31
0.0
  0
LINE
  5
258
100
AcDbEntity
  8
0
370
        15
  6
Continuous
 62
         7
100
AcDbLine
 10
138.3031718315
 20
147.6602472211
 30
0.0
 11
138.3031718315
 21
141.6602472211
 31
0.0
  0
LINE
  5
259
100
AcDbEntity
  8
0
370
        15
  6
Continuous
 62
         7
100
AcDbLine
 10
117.5531718315
 20
141.6602472211
 30
0.0
 11
138.3031718315
 21
141.6602472211
 31
0.0
  0
LINE
  5
25A
100
AcDbEntity
  8
0
370
        15
  6
Continuous
 62
         7
100
AcDbLine
 10
117.5531718315
 20
166.6602472211
 30
0.0
 11
117.5531718315
 21
141.6602472211
 31
0.0
  0
LINE
  5
25B
100
AcDbEntity
  8
0
370
        15
  6
Continuous
 62
         7
100
AcDbLine
 10
122.5531718315
 20
166.6602472211
 30
0.0
 11
117.5531718315
 21
166.6602472211
 31
0.0
  0
LINE
  5
25C
100
AcDbEntity
  8
0
370
        15
  6
Continuous
 62
         7
100
AcDbLine
 10
122.5531718315
 20
161.6602472211
 30
0.0
 11
122.5531718315
 21
166.6602472211
 31
0.0
  0
LINE
  5
25D
100
AcDbEntity
  8
0
370
        15
  6
Continuous
 62
         7
100
AcDbLine
 10
140.0531718315
 20
151.5566175103
 30
0.0
 11
122.5531718315
 21
161.6602472211
 31
0.0
  0
ARC
  5
25E
100
AcDbEntity
  8
0
370
        15
  6
Continuous
 62
         7
100
AcDbCircle
 10
142.5531718315
 20
155.8867445292
 30
0.0
 40
5.0
100
AcDbArc
 50
240.0
 51
300.0
  0
LINE
  5
25F
100
AcDbEntity
  8
0
370
        15
  6
Continuous
 62
         7
100
AcDbLine
 10
162.5531718315
 20
161.6602472211
 30
0.0
 11
145.0531718315
 21
151.5566175103
 31
0.0
  0
LINE
  5
260
100
AcDbEntity
  8
0
370
        15
  6
Continuous
 62
         7
100
AcDbLine
 10
138.3031718315
 20
141.6602472211
 30
0.0
 11
146.8031718315
 21
141.6602472211
 31
0.0
  0
LINE
  5
261
100
AcDbEntity
  8
0
370
        15
  6
Continuous
 62
         7
100
AcDbLine
 10
122.5531718315
 20
161.6602472211
 30
0.0
 11
162.5531718315
 21
161.6602472211
 31
0.0
  0
LINE
  5
262
100
AcDbEntity
  8
0
370
        15
  6
Continuous
 62
         7
100
AcDbLine
 10
122.5531718315
 20
166.6602472211
 30
0.0
 11
162.5531718315
 21
166.6602472211
 31
0.0
  0
LINE
  5
263
100
AcDbEntity
  8
0
370
         0
  6
DOT2
 62
         7
100
AcDbLine
 10
140.0531718315
 20
151.5566175103
 30
0.0
 11
145.0531718315
 21
151.5566175103
 31
0.0
  0
DIMENSION
  5
270
100
AcDbEntity
  8
0
 62
       255
100
AcDbDimension
  2
*D3
 10
97.4590919669
 20
141.6602472211
 30
0.0
 11
97.4590919669
 21
151.7487165293
 31
0.0
 70
       160
 71
         5
 72
         1
 41
1.0
 42
0.0
  3
SLDDIMSTYLE0
100
AcDbAlignedDimension
 13
140.3240004868
 23
150.8867445292
 33
0.0
 14
117.5531718315
 24
141.6602472211
 34
0.0
 50
90.0
100
AcDbRotatedDimension
  0
DIMENSION
  5
27E
100
AcDbEntity
  8
0
 62
       255
100
AcDbDimension
  2
*D4
 10
108.4676311608
 20
166.6602472211
 30
0.0
 11
108.4676311608
 21
161.8400178881
 31
0.0
 70
       160
 71
         5
 72
         1
 41
1.0
 42
0.0
  3
SLDDIMSTYLE0
100
AcDbAlignedDimension
 13
162.5531718315
 23
161.6602472211
 33
0.0
 14
162.5531718315
 24
166.6602472211
 34
0.0
 50
90.0
100
AcDbRotatedDimension
  0
DIMENSION
  5
28B
100
AcDbEntity
  8
0
100
AcDbDimension
  2
*D5
 10
142.5531718315
 20
155.8867445292
 30
0.0
 11
160.5628662455
 21
136.3987575536
 31
0.0
 70
       164
 71
         5
 72
         1
 41
1.0
 42
0.0
  1
<>
  3
SLDDIMSTYLE2
100
AcDbRadialDimension
 15
144.9449442312
 25
151.4959103502
 35
0.0
 40
0.0
  0
DIMENSION
  5
29B
100
AcDbEntity
  8
0
100
AcDbDimension
  2
*D6
 10
162.5531718315
 20
161.6602472211
 30
0.0
 11
177.1775954601
 21
159.8053470303
 31
0.0
 70
       162
 71
         5
 72
         1
 41
1.0
 42
0.0
  3
SLDDIMSTYLE3
100
AcDb2LineAngularDimension
 13
142.5531718315
 23
150.8867445292
 33
0.0
 14
191.7354185717
 24
150.8867445292
 34
0.0
 15
145.0531718315
 25
151.5566175103
 35
0.0
 16
178.056951653
 26
155.3845249145
 36
0.0
  0
DIMENSION
  5
2A7
100
AcDbEntity
  8
0
 62
       255
100
AcDbDimension
  2
*D7
 10
117.5531718315
 20
184.0966250948
 30
0.0
 11
142.6911278192
 21
184.0966250948
 31
0.0
 70
       160
 71
         5
 72
         1
 41
1.0
 42
0.0
  3
SLDDIMSTYLE0
100
AcDbAlignedDimension
 13
167.5531718315
 23
166.6602472211
 33
0.0
 14
117.5531718315
 24
166.6602472211
 34
0.0
100
AcDbRotatedDimension
  0
DIMENSION
  5
2B4
100
AcDbEntity
  8
0
 62
       255
100
AcDbDimension
  2
*D8
 10
122.5531718315
 20
175.224897973
 30
0.0
 11
142.492559188
 21
175.224897973
 31
0.0
 70
       160
 71
         5
 72
         1
 41
1.0
 42
0.0
  1
%%c<>
  3
SLDDIMSTYLE0
100
AcDbAlignedDimension
 13
162.5531718315
 23
166.6602472211
 33
0.0
 14
122.5531718315
 24
166.6602472211
 34
0.0
100
AcDbRotatedDimension
  0
DIMENSION
  5
2C0
100
AcDbEntity
  8
0
 62
       255
100
AcDbDimension
  2
*D9
 10
86.9048890132
 20
141.6602472211
 30
0.0
 11
86.9048890132
 21
157.6419837675
 31
0.0
 70
       160
 71
         5
 72
         1
 41
1.0
 42
0.0
  3
SLDDIMSTYLE0
100
AcDbAlignedDimension
 13
122.5531718315
 23
166.6602472211
 33
0.0
 14
117.5531718315
 24
141.6602472211
 34
0.0
 50
90.0
100
AcDbRotatedDimension
  0
DIMENSION
  5
2CE
100
AcDbEntity
  8
0
 62
       255
100
AcDbDimension
  2
*D10
 10
108.4676311608
 20
141.6602472211
 30
0.0
 11
108.4676311608
 21
145.9517749697
 31
0.0
 70
       160
 71
         5
 72
         1
 41
1.0
 42
0.0
  3
SLDDIMSTYLE0
100
AcDbAlignedDimension
 13
138.3031718315
 23
147.6602472211
 33
0.0
 14
138.3031718315
 24
141.6602472211
 34
0.0
 50
90.0
100
AcDbRotatedDimension
  0
MTEXT
  5
2CF
100
AcDbEntity
  8
0
 62
         7
100
AcDbMText
 10
182.5137887138
 20
141.9191655803
 30
0.0
 40
3.5
 41
0.0
 71
         2
 72
         1
  1
A-A
  7
SLDTEXTSTYLE0
 73
         1
 44
1.0
  0
CIRCLE
  5
2D0
100
AcDbEntity
  8
0
370
        15
  6
Continuous
 62
         7
100
AcDbCircle
 10
124.0531718315
 20
215.2187392938
 30
0.0
 40
6.0
  0
CIRCLE
  5
2D1
100
AcDbEntity
  8
0
370
        15
  6
Continuous
 62
         7
100
AcDbCircle
 10
124.0531718315
 20
215.2187392938
 30
0.0
 40
2.5
  0
LINE
  5
2D2
100
AcDbEntity
  8
0
370
        15
  6
Continuous
 62
         7
100
AcDbLine
 10
117.5531718315
 20
208.7187392938
 30
0.0
 11
117.5531718315
 21
258.7187392938
 31
0.0
  0
LINE
  5
2D3
100
AcDbEntity
  8
0
370
        15
  6
Continuous
 62
         7
100
AcDbLine
 10
117.5531718315
 20
258.7187392938
 30
0.0
 11
167.5531718315
 21
258.7187392938
 31
0.0
  0
LINE
  5
2D4
100
AcDbEntity
  8
0
370
        15
  6
Continuous
 62
         7
100
AcDbLine
 10
167.5531718315
 20
258.7187392938
 30
0.0
 11
167.5531718315
 21
208.7187392938
 31
0.0
  0
CIRCLE
  5
2D5
100
AcDbEntity
  8
0
370
        15
  6
Continuous
 62
         7
100
AcDbCircle
 10
161.0531718315
 20
215.2187392938
 30
0.0
 40
2.5
  0
CIRCLE
  5
2D6
100
AcDbEntity
  8
0
370
        15
  6
Continuous
 62
         7
100
AcDbCircle
 10
124.0531718315
 20
252.2187392938
 30
0.0
 40
2.5
  0
CIRCLE
  5
2D7
100
AcDbEntity
  8
0
370
        15
  6
Continuous
 62
         7
100
AcDbCircle
 10
161.0531718315
 20
252.2187392938
 30
0.0
 40
6.0
  0
CIRCLE
  5
2D8
100
AcDbEntity
  8
0
370
        15
  6
Continuous
 62
         7
100
AcDbCircle
 10
142.5531718315
 20
233.7187392938
 30
0.0
 40
4.25
  0
LINE
  5
2D9
100
AcDbEntity
  8
0
370
        15
  6
Continuous
 62
         7
100
AcDbLine
 10
167.5531718315
 20
208.7187392938
 30
0.0
 11
117.5531718315
 21
208.7187392938
 31
0.0
  0
CIRCLE
  5
2DA
100
AcDbEntity
  8
0
370
        15
  6
Continuous
 62
         7
100
AcDbCircle
 10
161.0531718315
 20
252.2187392938
 30
0.0
 40
2.5
  0
DIMENSION
  5
2E6
100
AcDbEntity
  8
0
100
AcDbDimension
  2
*D11
 10
117.5531718315
 20
208.7187392938
 30
0.0
 11
117.5531718315
 21
201.8270684551
 31
0.0
 70
       230
 71
         5
 72
         1
 41
1.0
 42
0.0
  3
SLDDIMSTYLE4
100
AcDbOrdinateDimension
 13
117.5531718315
 23
208.7187392938
 33
0.0
 14
117.5531718315
 24
201.8270684551
 34
0.0
  0
DIMENSION
  5
2EF
100
AcDbEntity
  8
0
100
AcDbDimension
  2
*D13
 10
117.5531718315
 20
208.7187392938
 30
0.0
 11
142.5531718315
 21
201.8270684551
 31
0.0
 70
       230
 71
         5
 72
         1
 41
1.0
 42
0.0
  3
SLDDIMSTYLE5
100
AcDbOrdinateDimension
 13
142.5531718315
 23
226.9687392938
 33
0.0
 14
142.5531718315
 24
201.8270684551
 34
0.0
  0
DIMENSION
  5
2F7
100
AcDbEntity
  8
0
100
AcDbDimension
  2
*D14
 10
117.5531718315
 20
208.7187392938
 30
0.0
 11
161.0531718315
 21
201.8270684551
 31
0.0
 70
       230
 71
         5
 72
         1
 41
1.0
 42
0.0
  3
SLDDIMSTYLE5
100
AcDbOrdinateDimension
 13
161.0531718315
 23
247.2187392938
 33
0.0
 14
161.0531718315
 24
201.8270684551
 34
0.0
  0
DIMENSION
  5
2FF
100
AcDbEntity
  8
0
100
AcDbDimension
  2
*D15
 10
117.5531718315
 20
208.7187392938
 30
0.0
 11
167.5531718315
 21
201.8270684551
 31
0.0
 70
       230
 71
         5
 72
         1
 41
1.0
 42
0.0
  3
SLDDIMSTYLE5
100
AcDbOrdinateDimension
 13
167.5531718315
 23
208.7187392938
 33
0.0
 14
167.5531718315
 24
201.8270684551
 34
0.0
  0
DIMENSION
  5
307
100
AcDbEntity
  8
0
100
AcDbDimension
  2
*D16
 10
117.5531718315
 20
208.7187392938
 30
0.0
 11
124.0531718315
 21
201.8270684551
 31
0.0
 70
       230
 71
         5
 72
         1
 41
1.0
 42
0.0
  3
SLDDIMSTYLE5
100
AcDbOrdinateDimension
 13
124.0531718315
 23
252.2187392938
 33
0.0
 14
124.0531718315
 24
201.8270684551
 34
0.0
  0
DIMENSION
  5
30F
100
AcDbEntity
  8
0
100
AcDbDimension
  2
*D17
 10
167.5531718315
 20
208.7187392938
 30
0.0
 11
175.6507519137
 21
208.7187392938
 31
0.0
 70
       166
 71
         5
 72
         1
 41
1.0
 42
0.0
  3
SLDDIMSTYLE4
100
AcDbOrdinateDimension
 13
167.5531718315
 23
208.7187392938
 33
0.0
 14
175.6507519137
 24
208.7187392938
 34
0.0
  0
DIMENSION
  5
317
100
AcDbEntity
  8
0
100
AcDbDimension
  2
*D18
 10
167.5531718315
 20
208.7187392938
 30
0.0
 11
175.6507519137
 21
215.2187392938
 31
0.0
 70
       166
 71
         5
 72
         1
 41
1.0
 42
0.0
  3
SLDDIMSTYLE5
100
AcDbOrdinateDimension
 13
129.0531718315
 23
215.2187392938
 33
0.0
 14
175.6507519137
 24
215.2187392938
 34
0.0
  0
DIMENSION
  5
31F
100
AcDbEntity
  8
0
100
AcDbDimension
  2
*D19
 10
167.5531718315
 20
208.7187392938
 30
0.0
 11
175.6507519137
 21
233.7187392938
 31
0.0
 70
       166
 71
         5
 72
         1
 41
1.0
 42
0.0
  3
SLDDIMSTYLE5
100
AcDbOrdinateDimension
 13
149.3031718315
 23
233.7187392938
 33
0.0
 14
175.6507519137
 24
233.7187392938
 34
0.0
  0
DIMENSION
  5
327
100
AcDbEntity
  8
0
100
AcDbDimension
  2
*D20
 10
167.5531718315
 20
208.7187392938
 30
0.0
 11
175.6507519137
 21
258.7187392938
 31
0.0
 70
       166
 71
         5
 72
         1
 41
1.0
 42
0.0
  3
SLDDIMSTYLE5
100
AcDbOrdinateDimension
 13
167.5531718315
 23
258.7187392938
 33
0.0
 14
175.6507519137
 24
258.7187392938
 34
0.0
  0
DIMENSION
  5
32F
100
AcDbEntity
  8
0
100
AcDbDimension
  2
*D21
 10
167.5531718315
 20
208.7187392938
 30
0.0
 11
175.6507519137
 21
252.2187392938
 31
0.0
 70
       166
 71
         5
 72
         1
 41
1.0
 42
0.0
  3
SLDDIMSTYLE5
100
AcDbOrdinateDimension
 13
124.0531718315
 23
252.2187392938
 33
0.0
 14
175.6507519137
 24
252.2187392938
 34
0.0
  0
DIMENSION
  5
33B
100
AcDbEntity
  8
0
100
AcDbDimension
  2
*D22
 10
138.5181777941
 20
235.0534014678
 30
0.0
 11
182.9228601431
 21
226.515512018
 31
0.0
 70
       163
 71
         5
 72
         1
 41
1.0
 42
0.0
  1
<>
  3
SLDDIMSTYLE1
100
AcDbDiametricDimension
 15
146.5881658688
 25
232.3840771199
 35
0.0
 40
0.0
  0
LEADER
  5
33C
100
AcDbEntity
  8
0
 62
       255
100
AcDbLeader
  3
SLDDIMSTYLE6
 73
         3
 74
         1
 75
         0
 40
0.0
 76
         3
 10
124.0531718315
 20
255.2187392938
 30
0.0
 10
116.4054460674
 20
262.6679123596
 30
0.0
 10
110.0554460674
 20
262.6679123596
 30
0.0
 77
       256
340
33E
  0
MTEXT
  5
33E
102
{ACAD_REACTORS
330
33C
102
}
100
AcDbEntity
  8
0
 62
         7
100
AcDbMText
 10
103.3037198918
 20
264.9208394638
 30
0.0
 40
3.5
 41
0.0
 71
         2
 72
         1
  1
4x M6
  7
SLDTEXTSTYLE0
 73
         1
 44
1.0
  0
LEADER
  5
33F
100
AcDbEntity
  8
0
 62
       255
100
AcDbLeader
  3
SLDDIMSTYLE6
 73
         3
 74
         1
 75
         0
 40
0.0
 76
         2
 10
119.5097326839
 20
219.1375606361
 30
0.0
 10
90.4078393258
 20
273.1573516854
 30
0.0
 77
       256
340
341
  0
LEADER
  5
340
100
AcDbEntity
  8
0
 62
       255
100
AcDbLeader
  3
SLDDIMSTYLE6
 73
         3
 74
         1
 75
         0
 40
0.0
 76
         2
 10
155.8424478703
 20
255.1933578913
 30
0.0
 10
90.4078393258
 20
273.1573516854
 30
0.0
 77
       256
340
341
  0
MTEXT
  5
341
102
{ACAD_REACTORS
330
33F
102
}
100
AcDbEntity
  8
0
 62
         7
100
AcDbMText
 10
38.2318665444
 20
275.4083810694
 30
0.0
 40
3.5
 41
0.0
 71
         1
 72
         1
  1
2x logement vis FHC M6
  7
SLDTEXTSTYLE0
 73
         1
 44
1.0
  0
LINE
  5
342
100
AcDbEntity
  8
0
  6
Continuous
 62
         7
100
AcDbLine
 10
121.5531718315
 20
215.2187392938
 30
0.0
 11
126.5531718315
 21
215.2187392938
 31
0.0
  0
LINE
  5
343
100
AcDbEntity
  8
0
  6
Continuous
 62
         7
100
AcDbLine
 10
124.0531718315
 20
212.7187392938
 30
0.0
 11
124.0531718315
 21
217.7187392938
 31
0.0
  0
LINE
  5
344
100
AcDbEntity
  8
0
  6
Continuous
 62
         7
100
AcDbLine
 10
126.5531718315
 20
215.2187392938
 30
0.0
 11
129.0531718315
 21
215.2187392938
 31
0.0
  0
LINE
  5
345
100
AcDbEntity
  8
0
  6
Continuous
 62
         7
100
AcDbLine
 10
121.5531718315
 20
215.2187392938
 30
0.0
 11
119.0531718315
 21
215.2187392938
 31
0.0
  0
LINE
  5
346
100
AcDbEntity
  8
0
  6
Continuous
 62
         7
100
AcDbLine
 10
124.0531718315
 20
217.7187392938
 30
0.0
 11
124.0531718315
 21
220.2187392938
 31
0.0
  0
LINE
  5
347
100
AcDbEntity
  8
0
  6
Continuous
 62
         7
100
AcDbLine
 10
124.0531718315
 20
212.7187392938
 30
0.0
 11
124.0531718315
 21
210.2187392938
 31
0.0
  0
LINE
  5
348
100
AcDbEntity
  8
0
  6
Continuous
 62
         7
100
AcDbLine
 10
140.0531718315
 20
233.7187392938
 30
0.0
 11
145.0531718315
 21
233.7187392938
 31
0.0
  0
LINE
  5
349
100
AcDbEntity
  8
0
  6
Continuous
 62
         7
100
AcDbLine
 10
142.5531718315
 20
231.2187392938
 30
0.0
 11
142.5531718315
 21
236.2187392938
 31
0.0
  0
LINE
  5
34A
100
AcDbEntity
  8
0
  6
Continuous
 62
         7
100
AcDbLine
 10
147.5531718315
 20
233.7187392938
 30
0.0
 11
149.3031718315
 21
233.7187392938
 31
0.0
  0
LINE
  5
34B
100
AcDbEntity
  8
0
  6
Continuous
 62
         7
100
AcDbLine
 10
137.5531718315
 20
233.7187392938
 30
0.0
 11
135.8031718315
 21
233.7187392938
 31
0.0
  0
LINE
  5
34C
100
AcDbEntity
  8
0
  6
Continuous
 62
         7
100
AcDbLine
 10
142.5531718315
 20
238.7187392938
 30
0.0
 11
142.5531718315
 21
240.4687392938
 31
0.0
  0
LINE
  5
34D
100
AcDbEntity
  8
0
  6
Continuous
 62
         7
100
AcDbLine
 10
142.5531718315
 20
228.7187392938
 30
0.0
 11
142.5531718315
 21
226.9687392938
 31
0.0
  0
LINE
  5
34E
100
AcDbEntity
  8
0
  6
Continuous
 62
         7
100
AcDbLine
 10
158.5531718315
 20
252.2187392938
 30
0.0
 11
163.5531718315
 21
252.2187392938
 31
0.0
  0
LINE
  5
34F
100
AcDbEntity
  8
0
  6
Continuous
 62
         7
100
AcDbLine
 10
161.0531718315
 20
249.7187392938
 30
0.0
 11
161.0531718315
 21
254.7187392938
 31
0.0
  0
LINE
  5
350
100
AcDbEntity
  8
0
  6
Continuous
 62
         7
100
AcDbLine
 10
163.5531718315
 20
252.2187392938
 30
0.0
 11
166.0531718315
 21
252.2187392938
 31
0.0
  0
LINE
  5
351
100
AcDbEntity
  8
0
  6
Continuous
 62
         7
100
AcDbLine
 10
158.5531718315
 20
252.2187392938
 30
0.0
 11
156.0531718315
 21
252.2187392938
 31
0.0
  0
LINE
  5
352
100
AcDbEntity
  8
0
  6
Continuous
 62
         7
100
AcDbLine
 10
161.0531718315
 20
254.7187392938
 30
0.0
 11
161.0531718315
 21
257.2187392938
 31
0.0
  0
LINE
  5
353
100
AcDbEntity
  8
0
  6
Continuous
 62
         7
100
AcDbLine
 10
161.0531718315
 20
249.7187392938
 30
0.0
 11
161.0531718315
 21
247.2187392938
 31
0.0
  0
LINE
  5
354
100
AcDbEntity
  8
0
  6
Continuous
 62
         7
100
AcDbLine
 10
121.5531718315
 20
252.2187392938
 30
0.0
 11
126.5531718315
 21
252.2187392938
 31
0.0
  0
LINE
  5
355
100
AcDbEntity
  8
0
  6
Continuous
 62
         7
100
AcDbLine
 10
124.0531718315
 20
249.7187392938
 30
0.0
 11
124.0531718315
 21
254.7187392938
 31
0.0
  0
LINE
  5
356
100
AcDbEntity
  8
0
  6
Continuous
 62
         7
100
AcDbLine
 10
126.5531718315
 20
252.2187392938
 30
0.0
 11
129.0531718315
 21
252.2187392938
 31
0.0
  0
LINE
  5
357
100
AcDbEntity
  8
0
  6
Continuous
 62
         7
100
AcDbLine
 10
121.5531718315
 20
252.2187392938
 30
0.0
 11
119.0531718315
 21
252.2187392938
 31
0.0
  0
LINE
  5
358
100
AcDbEntity
  8
0
  6
Continuous
 62
         7
100
AcDbLine
 10
124.0531718315
 20
254.7187392938
 30
0.0
 11
124.0531718315
 21
257.2187392938
 31
0.0
  0
LINE
  5
359
100
AcDbEntity
  8
0
  6
Continuous
 62
         7
100
AcDbLine
 10
124.0531718315
 20
249.7187392938
 30
0.0
 11
124.0531718315
 21
247.2187392938
 31
0.0
  0
LINE
  5
35A
100
AcDbEntity
  8
0
  6
Continuous
 62
         7
100
AcDbLine
 10
158.5531718315
 20
215.2187392938
 30
0.0
 11
163.5531718315
 21
215.2187392938
 31
0.0
  0
LINE
  5
35B
100
AcDbEntity
  8
0
  6
Continuous
 62
         7
100
AcDbLine
 10
161.0531718315
 20
212.7187392938
 30
0.0
 11
161.0531718315
 21
217.7187392938
 31
0.0
  0
ARC
  5
35C
100
AcDbEntity
  8
0
  6
Continuous
 62
         7
100
AcDbCircle
 10
161.0531718315
 20
252.2187392938
 30
0.0
 40
3.0
100
AcDbArc
 50
255.0
 51
195.0
  0
ARC
  5
35D
100
AcDbEntity
  8
0
  6
Continuous
 62
         7
100
AcDbCircle
 10
161.0531718315
 20
215.2187392938
 30
0.0
 40
3.0
100
AcDbArc
 50
255.0
 51
195.0
  0
ARC
  5
35E
100
AcDbEntity
  8
0
  6
Continuous
 62
         7
100
AcDbCircle
 10
124.0531718315
 20
215.2187392938
 30
0.0
 40
3.0
100
AcDbArc
 50
255.0
 51
195.0
  0
ARC
  5
35F
100
AcDbEntity
  8
0
  6
Continuous
 62
         7
100
AcDbCircle
 10
124.0531718315
 20
252.2187392938
 30
0.0
 40
3.0
100
AcDbArc
 50
255.0
 51
195.0
  0
LINE
  5
360
100
AcDbEntity
  8
0
370
        15
  6
Continuous
 62
         7
100
AcDbLine
 10
85.9465034446
 20
102.2647935587
 30
0.0
 11
58.8322805334
 21
71.2671175925
 31
0.0
  0
LINE
  5
361
100
AcDbEntity
  8
0
370
        15
  6
Continuous
 62
         7
100
AcDbLine
 10
58.8322805334
 20
71.2671175925
 30
0.0
 11
17.6452332554
 21
97.5280762842
 31
0.0
  0
LINE
  5
362
100
AcDbEntity
  8
0
370
        15
  6
Continuous
 62
         7
100
AcDbLine
 10
17.6452332554
 20
97.5280762842
 30
0.0
 11
44.7594561666
 21
128.5257522504
 31
0.0
  0
LINE
  5
363
100
AcDbEntity
  8
0
370
        15
  6
Continuous
 62
         7
100
AcDbLine
 10
44.7594561666
 20
128.5257522504
 30
0.0
 11
85.9465034446
 21
102.2647935587
 31
0.0
  0
POLYLINE
  5
364
100
AcDbEntity
  8
0
370
        15
  6
Continuous
 62
         7
100
AcDb2dPolyline
 66
         1
 10
0.0
 20
0.0
 30
0.0
 70
       128
  0
VERTEX
  5
365
100
AcDbEntity
  8
0
100
AcDbVertex
100
AcDb2dVertex
 10
75.0079859561
 20
102.9620682476
 30
0.0
  0
VERTEX
  5
366
100
AcDbEntity
  8
0
100
AcDbVertex
100
AcDb2dVertex
 10
75.2746889157
 20
103.2112545963
 30
0.0
  0
VERTEX
  5
367
100
AcDbEntity
  8
0
100
AcDbVertex
100
AcDb2dVertex
 10
75.5958606204
 20
103.4129732467
 30
0.0
  0
VERTEX
  5
368
100
AcDbEntity
  8
0
100
AcDbVertex
100
AcDb2dVertex
 10
75.9617424303
 20
103.5610950799
 30
0.0
  0
VERTEX
  5
369
100
AcDbEntity
  8
0
100
AcDbVertex
100
AcDb2dVertex
 10
76.3612172119
 20
103.6511194889
 30
0.0
  0
VERTEX
  5
36A
100
AcDbEntity
  8
0
100
AcDbVertex
100
AcDb2dVertex
 10
76.7821471261
 20
103.6803111275
 30
0.0
  0
VERTEX
  5
36B
100
AcDbEntity
  8
0
100
AcDbVertex
100
AcDb2dVertex
 10
77.2117424303
 20
103.6477830226
 30
0.0
  0
VERTEX
  5
36C
100
AcDbEntity
  8
0
100
AcDbVertex
100
AcDb2dVertex
 10
77.6369500888
 20
103.5545235242
 30
0.0
  0
VERTEX
  5
36D
100
AcDbEntity
  8
0
100
AcDbVertex
100
AcDb2dVertex
 10
78.0448503819
 20
103.4033662749
 30
0.0
  0
VERTEX
  5
36E
100
AcDbEntity
  8
0
100
AcDbVertex
100
AcDb2dVertex
 10
78.4230494656
 20
103.1989041113
 30
0.0
  0
VERTEX
  5
36F
100
AcDbEntity
  8
0
100
AcDbVertex
100
AcDb2dVertex
 10
78.7600559522
 20
102.9473495128
 30
0.0
  0
VERTEX
  5
370
100
AcDbEntity
  8
0
100
AcDbVertex
100
AcDb2dVertex
 10
79.0456300701
 20
102.6563458386
 30
0.0
  0
VERTEX
  5
371
100
AcDbEntity
  8
0
100
AcDbVertex
100
AcDb2dVertex
 10
79.2710947942
 20
102.334735088
 30
0.0
  0
VERTEX
  5
372
100
AcDbEntity
  8
0
100
AcDbVertex
100
AcDb2dVertex
 10
79.4295994931
 20
101.9922892409
 30
0.0
  0
VERTEX
  5
373
100
AcDbEntity
  8
0
100
AcDbVertex
100
AcDb2dVertex
 10
79.5163280815
 20
101.6394133412
 30
0.0
  0
VERTEX
  5
374
100
AcDbEntity
  8
0
100
AcDbVertex
100
AcDb2dVertex
 10
79.5286453553
 20
101.2868293444
 30
0.0
  0
VERTEX
  5
375
100
AcDbEntity
  8
0
100
AcDbVertex
100
AcDb2dVertex
 10
79.4661770603
 20
100.945250337
 30
0.0
  0
VERTEX
  5
376
100
AcDbEntity
  8
0
100
AcDbVertex
100
AcDb2dVertex
 10
79.330821264
 20
100.6250550241
 30
0.0
  0
VERTEX
  5
377
100
AcDbEntity
  8
0
100
AcDbVertex
100
AcDb2dVertex
 10
79.1266906839
 20
100.3359723784
 30
0.0
  0
VERTEX
  5
378
100
AcDbEntity
  8
0
100
AcDbVertex
100
AcDb2dVertex
 10
78.8599877243
 20
100.0867860298
 30
0.0
  0
VERTEX
  5
379
100
AcDbEntity
  8
0
100
AcDbVertex
100
AcDb2dVertex
 10
78.5388160197
 20
99.8850673793
 30
0.0
  0
VERTEX
  5
37A
100
AcDbEntity
  8
0
100
AcDbVertex
100
AcDb2dVertex
 10
78.1729342097
 20
99.7369455461
 30
0.0
  0
VERTEX
  5
37B
100
AcDbEntity
  8
0
100
AcDbVertex
100
AcDb2dVertex
 10
77.7734594281
 20
99.6469211372
 30
0.0
  0
VERTEX
  5
37C
100
AcDbEntity
  8
0
100
AcDbVertex
100
AcDb2dVertex
 10
77.352529514
 20
99.6177294986
 30
0.0
  0
VERTEX
  5
37D
100
AcDbEntity
  8
0
100
AcDbVertex
100
AcDb2dVertex
 10
76.9229342097
 20
99.6502576035
 30
0.0
  0
VERTEX
  5
37E
100
AcDbEntity
  8
0
100
AcDbVertex
100
AcDb2dVertex
 10
76.4977265513
 20
99.7435171019
 30
0.0
  0
VERTEX
  5
37F
100
AcDbEntity
  8
0
100
AcDbVertex
100
AcDb2dVertex
 10
76.0898262582
 20
99.8946743511
 30
0.0
  0
VERTEX
  5
380
100
AcDbEntity
  8
0
100
AcDbVertex
100
AcDb2dVertex
 10
75.7116271745
 20
100.0991365147
 30
0.0
  0
VERTEX
  5
381
100
AcDbEntity
  8
0
100
AcDbVertex
100
AcDb2dVertex
 10
75.3746206879
 20
100.3506911132
 30
0.0
  0
VERTEX
  5
382
100
AcDbEntity
  8
0
100
AcDbVertex
100
AcDb2dVertex
 10
75.08904657
 20
100.6416947875
 30
0.0
  0
VERTEX
  5
383
100
AcDbEntity
  8
0
100
AcDbVertex
100
AcDb2dVertex
 10
74.8635818458
 20
100.9633055381
 30
0.0
  0
VERTEX
  5
384
100
AcDbEntity
  8
0
100
AcDbVertex
100
AcDb2dVertex
 10
74.705077147
 20
101.3057513851
 30
0.0
  0
VERTEX
  5
385
100
AcDbEntity
  8
0
100
AcDbVertex
100
AcDb2dVertex
 10
74.6183485586
 20
101.6586272849
 30
0.0
  0
VERTEX
  5
386
100
AcDbEntity
  8
0
100
AcDbVertex
100
AcDb2dVertex
 10
74.6060312848
 20
102.0112112816
 30
0.0
  0
VERTEX
  5
387
100
AcDbEntity
  8
0
100
AcDbVertex
100
AcDb2dVertex
 10
74.6684995798
 20
102.3527902891
 30
0.0
  0
VERTEX
  5
388
100
AcDbEntity
  8
0
100
AcDbVertex
100
AcDb2dVertex
 10
74.803855376
 20
102.6729856019
 30
0.0
  0
VERTEX
  5
389
100
AcDbEntity
  8
0
100
AcDbVertex
100
AcDb2dVertex
 10
75.0079859561
 20
102.9620682476
 30
0.0
  0
SEQEND
  5
38A
100
AcDbEntity
  8
0
  0
POLYLINE
  5
38B
100
AcDbEntity
  8
0
370
        15
  6
Continuous
 62
         7
100
AcDb2dPolyline
 66
         1
 10
0.0
 20
0.0
 30
0.0
 70
       128
  0
VERTEX
  5
38C
100
AcDbEntity
  8
0
100
AcDbVertex
100
AcDb2dVertex
 10
24.4650460161
 20
99.4568974645
 30
0.0
  0
VERTEX
  5
38D
100
AcDbEntity
  8
0
100
AcDbVertex
100
AcDb2dVertex
 10
24.7317489757
 20
99.7060838131
 30
0.0
  0
VERTEX
  5
38E
100
AcDbEntity
  8
0
100
AcDbVertex
100
AcDb2dVertex
 10
25.0529206804
 20
99.9078024636
 30
0.0
  0
VERTEX
  5
38F
100
AcDbEntity
  8
0
100
AcDbVertex
100
AcDb2dVertex
 10
25.4188024903
 20
100.0559242968
 30
0.0
  0
VERTEX
  5
390
100
AcDbEntity
  8
0
100
AcDbVertex
100
AcDb2dVertex
 10
25.8182772719
 20
100.1459487057
 30
0.0
  0
VERTEX
  5
391
100
AcDbEntity
  8
0
100
AcDbVertex
100
AcDb2dVertex
 10
26.239207186
 20
100.1751403443
 30
0.0
  0
VERTEX
  5
392
100
AcDbEntity
  8
0
100
AcDbVertex
100
AcDb2dVertex
 10
26.6688024903
 20
100.1426122394
 30
0.0
  0
VERTEX
  5
393
100
AcDbEntity
  8
0
100
AcDbVertex
100
AcDb2dVertex
 10
27.0940101487
 20
100.049352741
 30
0.0
  0
VERTEX
  5
394
100
AcDbEntity
  8
0
100
AcDbVertex
100
AcDb2dVertex
 10
27.5019104418
 20
99.8981954917
 30
0.0
  0
VERTEX
  5
395
100
AcDbEntity
  8
0
100
AcDbVertex
100
AcDb2dVertex
 10
27.8801095256
 20
99.6937333282
 30
0.0
  0
VERTEX
  5
396
100
AcDbEntity
  8
0
100
AcDbVertex
100
AcDb2dVertex
 10
28.2171160122
 20
99.4421787297
 30
0.0
  0
VERTEX
  5
397
100
AcDbEntity
  8
0
100
AcDbVertex
100
AcDb2dVertex
 10
28.5026901301
 20
99.1511750554
 30
0.0
  0
VERTEX
  5
398
100
AcDbEntity
  8
0
100
AcDbVertex
100
AcDb2dVertex
 10
28.7281548542
 20
98.8295643048
 30
0.0
  0
VERTEX
  5
399
100
AcDbEntity
  8
0
100
AcDbVertex
100
AcDb2dVertex
 10
28.886659553
 20
98.4871184578
 30
0.0
  0
VERTEX
  5
39A
100
AcDbEntity
  8
0
100
AcDbVertex
100
AcDb2dVertex
 10
28.9733881415
 20
98.134242558
 30
0.0
  0
VERTEX
  5
39B
100
AcDbEntity
  8
0
100
AcDbVertex
100
AcDb2dVertex
 10
28.9857054153
 20
97.7816585613
 30
0.0
  0
VERTEX
  5
39C
100
AcDbEntity
  8
0
100
AcDbVertex
100
AcDb2dVertex
 10
28.9232371203
 20
97.4400795538
 30
0.0
  0
VERTEX
  5
39D
100
AcDbEntity
  8
0
100
AcDbVertex
100
AcDb2dVertex
 10
28.787881324
 20
97.119884241
 30
0.0
  0
VERTEX
  5
39E
100
AcDbEntity
  8
0
100
AcDbVertex
100
AcDb2dVertex
 10
28.5837507439
 20
96.8308015953
 30
0.0
  0
VERTEX
  5
39F
100
AcDbEntity
  8
0
100
AcDbVertex
100
AcDb2dVertex
 10
28.3170477843
 20
96.5816152466
 30
0.0
  0
VERTEX
  5
3A0
100
AcDbEntity
  8
0
100
AcDbVertex
100
AcDb2dVertex
 10
27.9958760796
 20
96.3798965962
 30
0.0
  0
VERTEX
  5
3A1
100
AcDbEntity
  8
0
100
AcDbVertex
100
AcDb2dVertex
 10
27.6299942697
 20
96.231774763
 30
0.0
  0
VERTEX
  5
3A2
100
AcDbEntity
  8
0
100
AcDbVertex
100
AcDb2dVertex
 10
27.2305194881
 20
96.141750354
 30
0.0
  0
VERTEX
  5
3A3
100
AcDbEntity
  8
0
100
AcDbVertex
100
AcDb2dVertex
 10
26.809589574
 20
96.1125587154
 30
0.0
  0
VERTEX
  5
3A4
100
AcDbEntity
  8
0
100
AcDbVertex
100
AcDb2dVertex
 10
26.3799942697
 20
96.1450868203
 30
0.0
  0
VERTEX
  5
3A5
100
AcDbEntity
  8
0
100
AcDbVertex
100
AcDb2dVertex
 10
25.9547866113
 20
96.2383463187
 30
0.0
  0
VERTEX
  5
3A6
100
AcDbEntity
  8
0
100
AcDbVertex
100
AcDb2dVertex
 10
25.5468863182
 20
96.389503568
 30
0.0
  0
VERTEX
  5
3A7
100
AcDbEntity
  8
0
100
AcDbVertex
100
AcDb2dVertex
 10
25.1686872344
 20
96.5939657316
 30
0.0
  0
VERTEX
  5
3A8
100
AcDbEntity
  8
0
100
AcDbVertex
100
AcDb2dVertex
 10
24.8316807478
 20
96.8455203301
 30
0.0
  0
VERTEX
  5
3A9
100
AcDbEntity
  8
0
100
AcDbVertex
100
AcDb2dVertex
 10
24.5461066299
 20
97.1365240043
 30
0.0
  0
VERTEX
  5
3AA
100
AcDbEntity
  8
0
100
AcDbVertex
100
AcDb2dVertex
 10
24.3206419058
 20
97.4581347549
 30
0.0
  0
VERTEX
  5
3AB
100
AcDbEntity
  8
0
100
AcDbVertex
100
AcDb2dVertex
 10
24.162137207
 20
97.800580602
 30
0.0
  0
VERTEX
  5
3AC
100
AcDbEntity
  8
0
100
AcDbVertex
100
AcDb2dVertex
 10
24.0754086185
 20
98.1534565017
 30
0.0
  0
VERTEX
  5
3AD
100
AcDbEntity
  8
0
100
AcDbVertex
100
AcDb2dVertex
 10
24.0630913447
 20
98.5060404984
 30
0.0
  0
VERTEX
  5
3AE
100
AcDbEntity
  8
0
100
AcDbVertex
100
AcDb2dVertex
 10
24.1255596397
 20
98.8476195059
 30
0.0
  0
VERTEX
  5
3AF
100
AcDbEntity
  8
0
100
AcDbVertex
100
AcDb2dVertex
 10
24.260915436
 20
99.1678148187
 30
0.0
  0
VERTEX
  5
3B0
100
AcDbEntity
  8
0
100
AcDbVertex
100
AcDb2dVertex
 10
24.4650460161
 20
99.4568974645
 30
0.0
  0
SEQEND
  5
3B1
100
AcDbEntity
  8
0
  0
POLYLINE
  5
3B2
100
AcDbEntity
  8
0
370
        15
  6
Continuous
 62
         7
100
AcDb2dPolyline
 66
         1
 10
0.0
 20
0.0
 30
0.0
 70
       128
  0
VERTEX
  5
3B3
100
AcDbEntity
  8
0
100
AcDbVertex
100
AcDb2dVertex
 10
61.9452590391
 20
75.559425055
 30
0.0
  0
VERTEX
  5
3B4
100
AcDbEntity
  8
0
100
AcDbVertex
100
AcDb2dVertex
 10
61.5498824065
 20
75.1627632366
 30
0.0
  0
VERTEX
  5
3B5
100
AcDbEntity
  8
0
100
AcDbVertex
100
AcDb2dVertex
 10
61.0973237425
 20
74.8107192857
 30
0.0
  0
VERTEX
  5
3B6
100
AcDbEntity
  8
0
100
AcDbVertex
100
AcDb2dVertex
 10
60.5932742347
 20
74.5077203595
 30
0.0
  0
VERTEX
  5
3B7
100
AcDbEntity
  8
0
100
AcDbVertex
100
AcDb2dVertex
 10
60.0440725983
 20
74.2575768451
 30
0.0
  0
VERTEX
  5
3B8
100
AcDbEntity
  8
0
100
AcDbVertex
100
AcDb2dVertex
 10
59.4566253625
 20
74.0634344423
 30
0.0
  0
VERTEX
  5
3B9
100
AcDbEntity
  8
0
100
AcDbVertex
100
AcDb2dVertex
 10
58.8383200171
 20
73.9277346047
 30
0.0
  0
VERTEX
  5
3BA
100
AcDbEntity
  8
0
100
AcDbVertex
100
AcDb2dVertex
 10
58.1969321106
 20
73.8521838362
 30
0.0
  0
VERTEX
  5
3BB
100
AcDbEntity
  8
0
100
AcDbVertex
100
AcDb2dVertex
 10
57.540527468
 20
73.8377322318
 30
0.0
  0
VERTEX
  5
3BC
100
AcDbEntity
  8
0
100
AcDbVertex
100
AcDb2dVertex
 10
56.8773607585
 20
73.8845615287
 30
0.0
  0
VERTEX
  5
3BD
100
AcDbEntity
  8
0
100
AcDbVertex
100
AcDb2dVertex
 10
56.2157716884
 20
73.9920828213
 30
0.0
  0
VERTEX
  5
3BE
100
AcDbEntity
  8
0
100
AcDbVertex
100
AcDb2dVertex
 10
55.5640801241
 20
74.1589439669
 30
0.0
  0
VERTEX
  5
3BF
100
AcDbEntity
  8
0
100
AcDbVertex
100
AcDb2dVertex
 10
54.930481465
 20
74.38304659
 30
0.0
  0
VERTEX
  5
3C0
100
AcDbEntity
  8
0
100
AcDbVertex
100
AcDb2dVertex
 10
54.322943582
 20
74.6615724699
 30
0.0
  0
VERTEX
  5
3C1
100
AcDbEntity
  8
0
100
AcDbVertex
100
AcDb2dVertex
 10
53.7491066164
 20
74.9910189821
 30
0.0
  0
VERTEX
  5
3C2
100
AcDbEntity
  8
0
100
AcDbVertex
100
AcDb2dVertex
 10
53.216186901
 20
75.3672431455
 30
0.0
  0
VERTEX
  5
3C3
100
AcDbEntity
  8
0
100
AcDbVertex
100
AcDb2dVertex
 10
52.7308862105
 20
75.7855137231
 30
0.0
  0
VERTEX
  5
3C4
100
AcDbEntity
  8
0
100
AcDbVertex
100
AcDb2dVertex
 10
52.2993074826
 20
76.2405707196
 30
0.0
  0
VERTEX
  5
3C5
100
AcDbEntity
  8
0
100
AcDbVertex
100
AcDb2dVertex
 10
51.9268780701
 20
76.7266915293
 30
0.0
  0
VERTEX
  5
3C6
100
AcDbEntity
  8
0
100
AcDbVertex
100
AcDb2dVertex
 10
51.6182814892
 20
77.2377629008
 30
0.0
  0
VERTEX
  5
3C7
100
AcDbEntity
  8
0
100
AcDbVertex
100
AcDb2dVertex
 10
51.3773985208
 20
77.7673578153
 30
0.0
  0
VERTEX
  5
3C8
100
AcDbEntity
  8
0
100
AcDbVertex
100
AcDb2dVertex
 10
51.207258408
 20
78.3088163094
 30
0.0
  0
VERTEX
  5
3C9
100
AcDbEntity
  8
0
100
AcDbVertex
100
AcDb2dVertex
 10
51.1100007615
 20
78.8553292283
 30
0.0
  0
VERTEX
  5
3CA
100
AcDbEntity
  8
0
100
AcDbVertex
100
AcDb2dVertex
 10
51.0868486525
 20
79.4000238549
 30
0.0
  0
VERTEX
  5
3CB
100
AcDbEntity
  8
0
100
AcDbVertex
100
AcDb2dVertex
 10
51.1380932323
 20
79.9360503385
 30
0.0
  0
VERTEX
  5
3CC
100
AcDbEntity
  8
0
100
AcDbVertex
100
AcDb2dVertex
 10
51.2630900706
 20
80.4566678347
 30
0.0
  0
VERTEX
  5
3CD
100
AcDbEntity
  8
0
100
AcDbVertex
100
AcDb2dVertex
 10
51.4602672596
 20
80.9553292767
 30
0.0
  0
VERTEX
  5
3CE
100
AcDbEntity
  8
0
100
AcDbVertex
100
AcDb2dVertex
 10
51.7271451818
 20
81.4257637075
 30
0.0
  0
VERTEX
  5
3CF
100
AcDbEntity
  8
0
100
AcDbVertex
100
AcDb2dVertex
 10
52.0603676924
 20
81.862055141
 30
0.0
  0
VERTEX
  5
3D0
100
AcDbEntity
  8
0
100
AcDbVertex
100
AcDb2dVertex
 10
52.455744325
 20
82.2587169595
 30
0.0
  0
VERTEX
  5
3D1
100
AcDbEntity
  8
0
100
AcDbVertex
100
AcDb2dVertex
 10
52.908302989
 20
82.6107609103
 30
0.0
  0
VERTEX
  5
3D2
100
AcDbEntity
  8
0
100
AcDbVertex
100
AcDb2dVertex
 10
53.4123524967
 20
82.9137598366
 30
0.0
  0
VERTEX
  5
3D3
100
AcDbEntity
  8
0
100
AcDbVertex
100
AcDb2dVertex
 10
53.9615541331
 20
83.163903351
 30
0.0
  0
VERTEX
  5
3D4
100
AcDbEntity
  8
0
100
AcDbVertex
100
AcDb2dVertex
 10
54.549001369
 20
83.3580457537
 30
0.0
  0
VERTEX
  5
3D5
100
AcDbEntity
  8
0
100
AcDbVertex
100
AcDb2dVertex
 10
55.1673067144
 20
83.4937455914
 30
0.0
  0
VERTEX
  5
3D6
100
AcDbEntity
  8
0
100
AcDbVertex
100
AcDb2dVertex
 10
55.8086946209
 20
83.5692963598
 30
0.0
  0
VERTEX
  5
3D7
100
AcDbEntity
  8
0
100
AcDbVertex
100
AcDb2dVertex
 10
56.4650992635
 20
83.5837479642
 30
0.0
  0
VERTEX
  5
3D8
100
AcDbEntity
  8
0
100
AcDbVertex
100
AcDb2dVertex
 10
57.1282659729
 20
83.5369186674
 30
0.0
  0
VERTEX
  5
3D9
100
AcDbEntity
  8
0
100
AcDbVertex
100
AcDb2dVertex
 10
57.789855043
 20
83.4293973748
 30
0.0
  0
VERTEX
  5
3DA
100
AcDbEntity
  8
0
100
AcDbVertex
100
AcDb2dVertex
 10
58.4415466074
 20
83.2625362291
 30
0.0
  0
VERTEX
  5
3DB
100
AcDbEntity
  8
0
100
AcDbVertex
100
AcDb2dVertex
 10
59.0751452665
 20
83.038433606
 30
0.0
  0
VERTEX
  5
3DC
100
AcDbEntity
  8
0
100
AcDbVertex
100
AcDb2dVertex
 10
59.6826831495
 20
82.7599077262
 30
0.0
  0
VERTEX
  5
3DD
100
AcDbEntity
  8
0
100
AcDbVertex
100
AcDb2dVertex
 10
60.2565201151
 20
82.430461214
 30
0.0
  0
VERTEX
  5
3DE
100
AcDbEntity
  8
0
100
AcDbVertex
100
AcDb2dVertex
 10
60.7894398305
 20
82.0542370505
 30
0.0
  0
VERTEX
  5
3DF
100
AcDbEntity
  8
0
100
AcDbVertex
100
AcDb2dVertex
 10
61.274740521
 20
81.6359664729
 30
0.0
  0
VERTEX
  5
3E0
100
AcDbEntity
  8
0
100
AcDbVertex
100
AcDb2dVertex
 10
61.7063192489
 20
81.1809094764
 30
0.0
  0
VERTEX
  5
3E1
100
AcDbEntity
  8
0
100
AcDbVertex
100
AcDb2dVertex
 10
62.0787486613
 20
80.6947886668
 30
0.0
  0
VERTEX
  5
3E2
100
AcDbEntity
  8
0
100
AcDbVertex
100
AcDb2dVertex
 10
62.3873452423
 20
80.1837172952
 30
0.0
  0
VERTEX
  5
3E3
100
AcDbEntity
  8
0
100
AcDbVertex
100
AcDb2dVertex
 10
62.6282282107
 20
79.6541223807
 30
0.0
  0
VERTEX
  5
3E4
100
AcDbEntity
  8
0
100
AcDbVertex
100
AcDb2dVertex
 10
62.7983683235
 20
79.1126638867
 30
0.0
  0
VERTEX
  5
3E5
100
AcDbEntity
  8
0
100
AcDbVertex
100
AcDb2dVertex
 10
62.89562597
 20
78.5661509678
 30
0.0
  0
VERTEX
  5
3E6
100
AcDbEntity
  8
0
100
AcDbVertex
100
AcDb2dVertex
 10
62.918778079
 20
78.0214563411
 30
0.0
  0
VERTEX
  5
3E7
100
AcDbEntity
  8
0
100
AcDbVertex
100
AcDb2dVertex
 10
62.8675334991
 20
77.4854298576
 30
0.0
  0
VERTEX
  5
3E8
100
AcDbEntity
  8
0
100
AcDbVertex
100
AcDb2dVertex
 10
62.7425366608
 20
76.9648123613
 30
0.0
  0
VERTEX
  5
3E9
100
AcDbEntity
  8
0
100
AcDbVertex
100
AcDb2dVertex
 10
62.5453594718
 20
76.4661509193
 30
0.0
  0
VERTEX
  5
3EA
100
AcDbEntity
  8
0
100
AcDbVertex
100
AcDb2dVertex
 10
62.2784815497
 20
75.9957164886
 30
0.0
  0
VERTEX
  5
3EB
100
AcDbEntity
  8
0
100
AcDbVertex
100
AcDb2dVertex
 10
61.9452590391
 20
75.559425055
 30
0.0
  0
SEQEND
  5
3EC
100
AcDbEntity
  8
0
  0
POLYLINE
  5
3ED
100
AcDbEntity
  8
0
370
        15
  6
Continuous
 62
         7
100
AcDb2dPolyline
 66
         1
 10
0.0
 20
0.0
 30
0.0
 70
       128
  0
VERTEX
  5
3EE
100
AcDbEntity
  8
0
100
AcDbVertex
100
AcDb2dVertex
 10
51.5313690077
 20
117.9308147019
 30
0.0
  0
VERTEX
  5
3EF
100
AcDbEntity
  8
0
100
AcDbVertex
100
AcDb2dVertex
 10
51.1359923751
 20
117.5341528834
 30
0.0
  0
VERTEX
  5
3F0
100
AcDbEntity
  8
0
100
AcDbVertex
100
AcDb2dVertex
 10
50.683433711
 20
117.1821089326
 30
0.0
  0
VERTEX
  5
3F1
100
AcDbEntity
  8
0
100
AcDbVertex
100
AcDb2dVertex
 10
50.1793842033
 20
116.8791100063
 30
0.0
  0
VERTEX
  5
3F2
100
AcDbEntity
  8
0
100
AcDbVertex
100
AcDb2dVertex
 10
49.6301825669
 20
116.6289664919
 30
0.0
  0
VERTEX
  5
3F3
100
AcDbEntity
  8
0
100
AcDbVertex
100
AcDb2dVertex
 10
49.0427353311
 20
116.4348240892
 30
0.0
  0
VERTEX
  5
3F4
100
AcDbEntity
  8
0
100
AcDbVertex
100
AcDb2dVertex
 10
48.4244299857
 20
116.2991242515
 30
0.0
  0
VERTEX
  5
3F5
100
AcDbEntity
  8
0
100
AcDbVertex
100
AcDb2dVertex
 10
47.7830420791
 20
116.2235734831
 30
0.0
  0
VERTEX
  5
3F6
100
AcDbEntity
  8
0
100
AcDbVertex
100
AcDb2dVertex
 10
47.1266374365
 20
116.2091218787
 30
0.0
  0
VERTEX
  5
3F7
100
AcDbEntity
  8
0
100
AcDbVertex
100
AcDb2dVertex
 10
46.4634707271
 20
116.2559511755
 30
0.0
  0
VERTEX
  5
3F8
100
AcDbEntity
  8
0
100
AcDbVertex
100
AcDb2dVertex
 10
45.801881657
 20
116.3634724681
 30
0.0
  0
VERTEX
  5
3F9
100
AcDbEntity
  8
0
100
AcDbVertex
100
AcDb2dVertex
 10
45.1501900926
 20
116.5303336138
 30
0.0
  0
VERTEX
  5
3FA
100
AcDbEntity
  8
0
100
AcDbVertex
100
AcDb2dVertex
 10
44.5165914336
 20
116.7544362368
 30
0.0
  0
VERTEX
  5
3FB
100
AcDbEntity
  8
0
100
AcDbVertex
100
AcDb2dVertex
 10
43.9090535505
 20
117.0329621167
 30
0.0
  0
VERTEX
  5
3FC
100
AcDbEntity
  8
0
100
AcDbVertex
100
AcDb2dVertex
 10
43.335216585
 20
117.3624086289
 30
0.0
  0
VERTEX
  5
3FD
100
AcDbEntity
  8
0
100
AcDbVertex
100
AcDb2dVertex
 10
42.8022968696
 20
117.7386327924
 30
0.0
  0
VERTEX
  5
3FE
100
AcDbEntity
  8
0
100
AcDbVertex
100
AcDb2dVertex
 10
42.316996179
 20
118.15690337
 30
0.0
  0
VERTEX
  5
3FF
100
AcDbEntity
  8
0
100
AcDbVertex
100
AcDb2dVertex
 10
41.8854174511
 20
118.6119603665
 30
0.0
  0
VERTEX
  5
400
100
AcDbEntity
  8
0
100
AcDbVertex
100
AcDb2dVertex
 10
41.5129880387
 20
119.0980811761
 30
0.0
  0
VERTEX
  5
401
100
AcDbEntity
  8
0
100
AcDbVertex
100
AcDb2dVertex
 10
41.2043914578
 20
119.6091525477
 30
0.0
  0
VERTEX
  5
402
100
AcDbEntity
  8
0
100
AcDbVertex
100
AcDb2dVertex
 10
40.9635084894
 20
120.1387474622
 30
0.0
  0
VERTEX
  5
403
100
AcDbEntity
  8
0
100
AcDbVertex
100
AcDb2dVertex
 10
40.7933683766
 20
120.6802059562
 30
0.0
  0
VERTEX
  5
404
100
AcDbEntity
  8
0
100
AcDbVertex
100
AcDb2dVertex
 10
40.69611073
 20
121.2267188751
 30
0.0
  0
VERTEX
  5
405
100
AcDbEntity
  8
0
100
AcDbVertex
100
AcDb2dVertex
 10
40.6729586211
 20
121.7714135018
 30
0.0
  0
VERTEX
  5
406
100
AcDbEntity
  8
0
100
AcDbVertex
100
AcDb2dVertex
 10
40.7242032009
 20
122.3074399853
 30
0.0
  0
VERTEX
  5
407
100
AcDbEntity
  8
0
100
AcDbVertex
100
AcDb2dVertex
 10
40.8492000392
 20
122.8280574816
 30
0.0
  0
VERTEX
  5
408
100
AcDbEntity
  8
0
100
AcDbVertex
100
AcDb2dVertex
 10
41.0463772282
 20
123.3267189236
 30
0.0
  0
VERTEX
  5
409
100
AcDbEntity
  8
0
100
AcDbVertex
100
AcDb2dVertex
 10
41.3132551504
 20
123.7971533543
 30
0.0
  0
VERTEX
  5
40A
100
AcDbEntity
  8
0
100
AcDbVertex
100
AcDb2dVertex
 10
41.6464776609
 20
124.2334447879
 30
0.0
  0
VERTEX
  5
40B
100
AcDbEntity
  8
0
100
AcDbVertex
100
AcDb2dVertex
 10
42.0418542935
 20
124.6301066063
 30
0.0
  0
VERTEX
  5
40C
100
AcDbEntity
  8
0
100
AcDbVertex
100
AcDb2dVertex
 10
42.4944129576
 20
124.9821505572
 30
0.0
  0
VERTEX
  5
40D
100
AcDbEntity
  8
0
100
AcDbVertex
100
AcDb2dVertex
 10
42.9984624653
 20
125.2851494834
 30
0.0
  0
VERTEX
  5
40E
100
AcDbEntity
  8
0
100
AcDbVertex
100
AcDb2dVertex
 10
43.5476641017
 20
125.5352929978
 30
0.0
  0
VERTEX
  5
40F
100
AcDbEntity
  8
0
100
AcDbVertex
100
AcDb2dVertex
 10
44.1351113375
 20
125.7294354006
 30
0.0
  0
VERTEX
  5
410
100
AcDbEntity
  8
0
100
AcDbVertex
100
AcDb2dVertex
 10
44.7534166829
 20
125.8651352382
 30
0.0
  0
VERTEX
  5
411
100
AcDbEntity
  8
0
100
AcDbVertex
100
AcDb2dVertex
 10
45.3948045895
 20
125.9406860066
 30
0.0
  0
VERTEX
  5
412
100
AcDbEntity
  8
0
100
AcDbVertex
100
AcDb2dVertex
 10
46.0512092321
 20
125.9551376111
 30
0.0
  0
VERTEX
  5
413
100
AcDbEntity
  8
0
100
AcDbVertex
100
AcDb2dVertex
 10
46.7143759415
 20
125.9083083142
 30
0.0
  0
VERTEX
  5
414
100
AcDbEntity
  8
0
100
AcDbVertex
100
AcDb2dVertex
 10
47.3759650116
 20
125.8007870216
 30
0.0
  0
VERTEX
  5
415
100
AcDbEntity
  8
0
100
AcDbVertex
100
AcDb2dVertex
 10
48.027656576
 20
125.6339258759
 30
0.0
  0
VERTEX
  5
416
100
AcDbEntity
  8
0
100
AcDbVertex
100
AcDb2dVertex
 10
48.661255235
 20
125.4098232529
 30
0.0
  0
VERTEX
  5
417
100
AcDbEntity
  8
0
100
AcDbVertex
100
AcDb2dVertex
 10
49.268793118
 20
125.131297373
 30
0.0
  0
VERTEX
  5
418
100
AcDbEntity
  8
0
100
AcDbVertex
100
AcDb2dVertex
 10
49.8426300836
 20
124.8018508608
 30
0.0
  0
VERTEX
  5
419
100
AcDbEntity
  8
0
100
AcDbVertex
100
AcDb2dVertex
 10
50.375549799
 20
124.4256266974
 30
0.0
  0
VERTEX
  5
41A
100
AcDbEntity
  8
0
100
AcDbVertex
100
AcDb2dVertex
 10
50.8608504896
 20
124.0073561198
 30
0.0
  0
VERTEX
  5
41B
100
AcDbEntity
  8
0
100
AcDbVertex
100
AcDb2dVertex
 10
51.2924292175
 20
123.5522991233
 30
0.0
  0
VERTEX
  5
41C
100
AcDbEntity
  8
0
100
AcDbVertex
100
AcDb2dVertex
 10
51.6648586299
 20
123.0661783136
 30
0.0
  0
VERTEX
  5
41D
100
AcDbEntity
  8
0
100
AcDbVertex
100
AcDb2dVertex
 10
51.9734552108
 20
122.555106942
 30
0.0
  0
VERTEX
  5
41E
100
AcDbEntity
  8
0
100
AcDbVertex
100
AcDb2dVertex
 10
52.2143381792
 20
122.0255120276
 30
0.0
  0
VERTEX
  5
41F
100
AcDbEntity
  8
0
100
AcDbVertex
100
AcDb2dVertex
 10
52.384478292
 20
121.4840535335
 30
0.0
  0
VERTEX
  5
420
100
AcDbEntity
  8
0
100
AcDbVertex
100
AcDb2dVertex
 10
52.4817359386
 20
120.9375406146
 30
0.0
  0
VERTEX
  5
421
100
AcDbEntity
  8
0
100
AcDbVertex
100
AcDb2dVertex
 10
52.5048880475
 20
120.3928459879
 30
0.0
  0
VERTEX
  5
422
100
AcDbEntity
  8
0
100
AcDbVertex
100
AcDb2dVertex
 10
52.4536434677
 20
119.8568195044
 30
0.0
  0
VERTEX
  5
423
100
AcDbEntity
  8
0
100
AcDbVertex
100
AcDb2dVertex
 10
52.3286466294
 20
119.3362020081
 30
0.0
  0
VERTEX
  5
424
100
AcDbEntity
  8
0
100
AcDbVertex
100
AcDb2dVertex
 10
52.1314694404
 20
118.8375405662
 30
0.0
  0
VERTEX
  5
425
100
AcDbEntity
  8
0
100
AcDbVertex
100
AcDb2dVertex
 10
51.8645915182
 20
118.3671061354
 30
0.0
  0
VERTEX
  5
426
100
AcDbEntity
  8
0
100
AcDbVertex
100
AcDb2dVertex
 10
51.5313690077
 20
117.9308147019
 30
0.0
  0
SEQEND
  5
427
100
AcDbEntity
  8
0
  0
POLYLINE
  5
428
100
AcDbEntity
  8
0
370
        15
  6
Continuous
 62
         7
100
AcDb2dPolyline
 66
         1
 10
0.0
 20
0.0
 30
0.0
 70
       128
  0
VERTEX
  5
429
100
AcDbEntity
  8
0
100
AcDbVertex
100
AcDb2dVertex
 10
55.2967673686
 20
97.6642534327
 30
0.0
  0
VERTEX
  5
42A
100
AcDbEntity
  8
0
100
AcDbVertex
100
AcDb2dVertex
 10
55.5727181943
 20
98.0353548959
 30
0.0
  0
VERTEX
  5
42B
100
AcDbEntity
  8
0
100
AcDbVertex
100
AcDb2dVertex
 10
55.781271045
 20
98.4396673764
 30
0.0
  0
VERTEX
  5
42C
100
AcDbEntity
  8
0
100
AcDbVertex
100
AcDb2dVertex
 10
55.9187042902
 20
98.8699759082
 30
0.0
  0
VERTEX
  5
42D
100
AcDbEntity
  8
0
100
AcDbVertex
100
AcDb2dVertex
 10
55.9825654304
 20
99.3186016254
 30
0.0
  0
VERTEX
  5
42E
100
AcDbEntity
  8
0
100
AcDbVertex
100
AcDb2dVertex
 10
55.971714862
 20
99.7775387914
 30
0.0
  0
VERTEX
  5
42F
100
AcDbEntity
  8
0
100
AcDbVertex
100
AcDb2dVertex
 10
55.8863462137
 20
100.2385976618
 30
0.0
  0
VERTEX
  5
430
100
AcDbEntity
  8
0
100
AcDbVertex
100
AcDb2dVertex
 10
55.727982891
 20
100.6935506299
 30
0.0
  0
VERTEX
  5
431
100
AcDbEntity
  8
0
100
AcDbVertex
100
AcDb2dVertex
 10
55.4994508911
 20
101.1342790493
 30
0.0
  0
VERTEX
  5
432
100
AcDbEntity
  8
0
100
AcDbVertex
100
AcDb2dVertex
 10
55.2048283731
 20
101.5529181109
 30
0.0
  0
VERTEX
  5
433
100
AcDbEntity
  8
0
100
AcDbVertex
100
AcDb2dVertex
 10
54.8493728827
 20
101.9419971908
 30
0.0
  0
VERTEX
  5
434
100
AcDbEntity
  8
0
100
AcDbVertex
100
AcDb2dVertex
 10
54.4394275315
 20
102.2945731635
 30
0.0
  0
VERTEX
  5
435
100
AcDbEntity
  8
0
100
AcDbVertex
100
AcDb2dVertex
 10
53.9823078042
 20
102.6043543024
 30
0.0
  0
VERTEX
  5
436
100
AcDbEntity
  8
0
100
AcDbVertex
100
AcDb2dVertex
 10
53.486171013
 20
102.8658125559
 30
0.0
  0
VERTEX
  5
437
100
AcDbEntity
  8
0
100
AcDbVertex
100
AcDb2dVertex
 10
52.9598707307
 20
103.0742821951
 30
0.0
  0
VERTEX
  5
438
100
AcDbEntity
  8
0
100
AcDbVertex
100
AcDb2dVertex
 10
52.4127987984
 20
103.2260430745
 30
0.0
  0
VERTEX
  5
439
100
AcDbEntity
  8
0
100
AcDbVertex
100
AcDb2dVertex
 10
51.8547177276
 20
103.3183870174
 30
0.0
  0
VERTEX
  5
43A
100
AcDbEntity
  8
0
100
AcDbVertex
100
AcDb2dVertex
 10
51.2955864882
 20
103.3496661442
 30
0.0
  0
VERTEX
  5
43B
100
AcDbEntity
  8
0
100
AcDbVertex
100
AcDb2dVertex
 10
50.7453827906
 20
103.319322278
 30
0.0
  0
VERTEX
  5
43C
100
AcDbEntity
  8
0
100
AcDbVertex
100
AcDb2dVertex
 10
50.2139250326
 20
103.2278969058
 30
0.0
  0
VERTEX
  5
43D
100
AcDbEntity
  8
0
100
AcDbVertex
100
AcDb2dVertex
 10
49.7106970906
 20
103.0770215156
 30
0.0
  0
VERTEX
  5
43E
100
AcDbEntity
  8
0
100
AcDbVertex
100
AcDb2dVertex
 10
49.2446790791
 20
102.8693884822
 30
0.0
  0
VERTEX
  5
43F
100
AcDbEntity
  8
0
100
AcDbVertex
100
AcDb2dVertex
 10
48.8241871006
 20
102.6087030221
 30
0.0
  0
VERTEX
  5
440
100
AcDbEntity
  8
0
100
AcDbVertex
100
AcDb2dVertex
 10
48.4567248444
 20
102.2996170735
 30
0.0
  0
VERTEX
  5
441
100
AcDbEntity
  8
0
100
AcDbVertex
100
AcDb2dVertex
 10
48.1488496832
 20
101.9476462825
 30
0.0
  0
VERTEX
  5
442
100
AcDbEntity
  8
0
100
AcDbVertex
100
AcDb2dVertex
 10
47.9060556565
 20
101.5590715762
 30
0.0
  0
VERTEX
  5
443
100
AcDbEntity
  8
0
100
AcDbVertex
100
AcDb2dVertex
 10
47.7326754294
 20
101.1408270793
 30
0.0
  0
VERTEX
  5
444
100
AcDbEntity
  8
0
100
AcDbVertex
100
AcDb2dVertex
 10
47.6318029763
 20
100.700376375
 30
0.0
  0
VERTEX
  5
445
100
AcDbEntity
  8
0
100
AcDbVertex
100
AcDb2dVertex
 10
47.6052383684
 20
100.2455793163
 30
0.0
  0
VERTEX
  5
446
100
AcDbEntity
  8
0
100
AcDbVertex
100
AcDb2dVertex
 10
47.6534556518
 20
99.7845517676
 30
0.0
  0
VERTEX
  5
447
100
AcDbEntity
  8
0
100
AcDbVertex
100
AcDb2dVertex
 10
47.775594388
 20
99.3255207765
 30
0.0
  0
VERTEX
  5
448
100
AcDbEntity
  8
0
100
AcDbVertex
100
AcDb2dVertex
 10
47.9694750082
 20
98.8766777618
 30
0.0
  0
VERTEX
  5
449
100
AcDbEntity
  8
0
100
AcDbVertex
100
AcDb2dVertex
 10
48.2316377083
 20
98.4460323378
 30
0.0
  0
VERTEX
  5
44A
100
AcDbEntity
  8
0
100
AcDbVertex
100
AcDb2dVertex
 10
48.5574041886
 20
98.0412693822
 30
0.0
  0
VERTEX
  5
44B
100
AcDbEntity
  8
0
100
AcDbVertex
100
AcDb2dVertex
 10
48.9409611386
 20
97.6696118997
 30
0.0
  0
VERTEX
  5
44C
100
AcDbEntity
  8
0
100
AcDbVertex
100
AcDb2dVertex
 10
49.3754639754
 20
97.3376921267
 30
0.0
  0
VERTEX
  5
44D
100
AcDbEntity
  8
0
100
AcDbVertex
100
AcDb2dVertex
 10
49.8531589856
 20
97.0514331795
 30
0.0
  0
VERTEX
  5
44E
100
AcDbEntity
  8
0
100
AcDbVertex
100
AcDb2dVertex
 10
50.3655216905
 20
96.8159433558
 30
0.0
  0
VERTEX
  5
44F
100
AcDbEntity
  8
0
100
AcDbVertex
100
AcDb2dVertex
 10
50.9034089654
 20
96.6354249771
 30
0.0
  0
VERTEX
  5
450
100
AcDbEntity
  8
0
100
AcDbVertex
100
AcDb2dVertex
 10
51.4572221991
 20
96.513099398
 30
0.0
  0
VERTEX
  5
451
100
AcDbEntity
  8
0
100
AcDbVertex
100
AcDb2dVertex
 10
52.0170785814
 20
96.4511495216
 30
0.0
  0
VERTEX
  5
452
100
AcDbEntity
  8
0
100
AcDbVertex
100
AcDb2dVertex
 10
52.5729874619
 20
96.4506808447
 30
0.0
  0
VERTEX
  5
453
100
AcDbEntity
  8
0
100
AcDbVertex
100
AcDb2dVertex
 10
53.1150286335
 20
96.511701731
 30
0.0
  0
VERTEX
  5
454
100
AcDbEntity
  8
0
100
AcDbVertex
100
AcDb2dVertex
 10
53.6335293585
 20
96.6331232612
 30
0.0
  0
VERTEX
  5
455
100
AcDbEntity
  8
0
100
AcDbVertex
100
AcDb2dVertex
 10
54.1192369793
 20
96.8127786653
 30
0.0
  0
VERTEX
  5
456
100
AcDbEntity
  8
0
100
AcDbVertex
100
AcDb2dVertex
 10
54.5634840319
 20
97.0474619884
 30
0.0
  0
VERTEX
  5
457
100
AcDbEntity
  8
0
100
AcDbVertex
100
AcDb2dVertex
 10
54.9583429171
 20
97.3329853009
 30
0.0
  0
VERTEX
  5
458
100
AcDbEntity
  8
0
100
AcDbVertex
100
AcDb2dVertex
 10
55.2967673686
 20
97.6642534327
 30
0.0
  0
SEQEND
  5
459
100
AcDbEntity
  8
0
  0
LINE
  5
45A
100
AcDbEntity
  8
0
370
        15
  6
Continuous
 62
         7
100
AcDbLine
 10
21.7818397281
 20
112.1012205338
 30
0.0
 11
48.8960626393
 21
143.0988965001
 31
0.0
  0
LINE
  5
45B
100
AcDbEntity
  8
0
370
        15
  6
Continuous
 62
         7
100
AcDbLine
 10
44.7594561666
 20
128.5257522504
 30
0.0
 11
48.8960626393
 21
143.0988965001
 31
0.0
  0
LINE
  5
45C
100
AcDbEntity
  8
0
370
        15
  6
Continuous
 62
         7
100
AcDbLine
 10
17.6452332554
 20
97.5280762842
 30
0.0
 11
21.7818397281
 21
112.1012205338
 31
0.0
  0
LINE
  5
45D
100
AcDbEntity
  8
0
370
        15
  6
Continuous
 62
         7
100
AcDbLine
 10
48.8960626393
 20
143.0988965001
 30
0.0
 11
90.0831099173
 21
116.8379378084
 31
0.0
  0
LINE
  5
45E
100
AcDbEntity
  8
0
370
        15
  6
Continuous
 62
         7
100
AcDbLine
 10
85.9465034446
 20
102.2647935587
 30
0.0
 11
90.0831099173
 21
116.8379378084
 31
0.0
  0
POLYLINE
  5
45F
100
AcDbEntity
  8
0
370
        15
  6
Continuous
 62
         7
100
AcDb2dPolyline
 66
         1
 10
0.0
 20
0.0
 30
0.0
 70
       128
  0
VERTEX
  5
460
100
AcDbEntity
  8
0
100
AcDbVertex
100
AcDb2dVertex
 10
49.2274006044
 20
121.8093220052
 30
0.0
  0
VERTEX
  5
461
100
AcDbEntity
  8
0
100
AcDbVertex
100
AcDb2dVertex
 10
49.4315311845
 20
122.0984046509
 30
0.0
  0
VERTEX
  5
462
100
AcDbEntity
  8
0
100
AcDbVertex
100
AcDb2dVertex
 10
49.5668869807
 20
122.4185999638
 30
0.0
  0
VERTEX
  5
463
100
AcDbEntity
  8
0
100
AcDbVertex
100
AcDb2dVertex
 10
49.6293552757
 20
122.7601789712
 30
0.0
  0
VERTEX
  5
464
100
AcDbEntity
  8
0
100
AcDbVertex
100
AcDb2dVertex
 10
49.6170380019
 20
123.112762968
 30
0.0
  0
VERTEX
  5
465
100
AcDbEntity
  8
0
100
AcDbVertex
100
AcDb2dVertex
 10
49.5303094135
 20
123.4656388677
 30
0.0
  0
VERTEX
  5
466
100
AcDbEntity
  8
0
100
AcDbVertex
100
AcDb2dVertex
 10
49.3718047147
 20
123.8080847148
 30
0.0
  0
VERTEX
  5
467
100
AcDbEntity
  8
0
100
AcDbVertex
100
AcDb2dVertex
 10
49.1463399905
 20
124.1296954654
 30
0.0
  0
VERTEX
  5
468
100
AcDbEntity
  8
0
100
AcDbVertex
100
AcDb2dVertex
 10
48.8607658726
 20
124.4206991396
 30
0.0
  0
VERTEX
  5
469
100
AcDbEntity
  8
0
100
AcDbVertex
100
AcDb2dVertex
 10
48.523759386
 20
124.6722537381
 30
0.0
  0
VERTEX
  5
46A
100
AcDbEntity
  8
0
100
AcDbVertex
100
AcDb2dVertex
 10
48.1455603023
 20
124.8767159017
 30
0.0
  0
VERTEX
  5
46B
100
AcDbEntity
  8
0
100
AcDbVertex
100
AcDb2dVertex
 10
47.7376600092
 20
125.027873151
 30
0.0
  0
VERTEX
  5
46C
100
AcDbEntity
  8
0
100
AcDbVertex
100
AcDb2dVertex
 10
47.3124523508
 20
125.1211326494
 30
0.0
  0
VERTEX
  5
46D
100
AcDbEntity
  8
0
100
AcDbVertex
100
AcDb2dVertex
 10
46.8828570465
 20
125.1536607543
 30
0.0
  0
VERTEX
  5
46E
100
AcDbEntity
  8
0
100
AcDbVertex
100
AcDb2dVertex
 10
46.4619271324
 20
125.1244691157
 30
0.0
  0
VERTEX
  5
46F
100
AcDbEntity
  8
0
100
AcDbVertex
100
AcDb2dVertex
 10
46.0624523508
 20
125.0344447067
 30
0.0
  0
VERTEX
  5
470
100
AcDbEntity
  8
0
100
AcDbVertex
100
AcDb2dVertex
 10
45.6965705408
 20
124.8863228735
 30
0.0
  0
VERTEX
  5
471
100
AcDbEntity
  8
0
100
AcDbVertex
100
AcDb2dVertex
 10
45.3753988362
 20
124.6846042231
 30
0.0
  0
VERTEX
  5
472
100
AcDbEntity
  8
0
100
AcDbVertex
100
AcDb2dVertex
 10
45.1086958766
 20
124.4354178744
 30
0.0
  0
VERTEX
  5
473
100
AcDbEntity
  8
0
100
AcDbVertex
100
AcDb2dVertex
 10
44.9045652965
 20
124.1463352287
 30
0.0
  0
VERTEX
  5
474
100
AcDbEntity
  8
0
100
AcDbVertex
100
AcDb2dVertex
 10
44.7692095002
 20
123.8261399159
 30
0.0
  0
VERTEX
  5
475
100
AcDbEntity
  8
0
100
AcDbVertex
100
AcDb2dVertex
 10
44.7067412052
 20
123.4845609084
 30
0.0
  0
VERTEX
  5
476
100
AcDbEntity
  8
0
100
AcDbVertex
100
AcDb2dVertex
 10
44.719058479
 20
123.1319769117
 30
0.0
  0
VERTEX
  5
477
100
AcDbEntity
  8
0
100
AcDbVertex
100
AcDb2dVertex
 10
44.8057870674
 20
122.7791010119
 30
0.0
  0
VERTEX
  5
478
100
AcDbEntity
  8
0
100
AcDbVertex
100
AcDb2dVertex
 10
44.9642917663
 20
122.4366551649
 30
0.0
  0
VERTEX
  5
479
100
AcDbEntity
  8
0
100
AcDbVertex
100
AcDb2dVertex
 10
45.1897564904
 20
122.1150444143
 30
0.0
  0
VERTEX
  5
47A
100
AcDbEntity
  8
0
100
AcDbVertex
100
AcDb2dVertex
 10
45.4753306083
 20
121.82404074
 30
0.0
  0
VERTEX
  5
47B
100
AcDbEntity
  8
0
100
AcDbVertex
100
AcDb2dVertex
 10
45.8123370949
 20
121.5724861415
 30
0.0
  0
VERTEX
  5
47C
100
AcDbEntity
  8
0
100
AcDbVertex
100
AcDb2dVertex
 10
46.1905361786
 20
121.368023978
 30
0.0
  0
VERTEX
  5
47D
100
AcDbEntity
  8
0
100
AcDbVertex
100
AcDb2dVertex
 10
46.5984364717
 20
121.2168667287
 30
0.0
  0
VERTEX
  5
47E
100
AcDbEntity
  8
0
100
AcDbVertex
100
AcDb2dVertex
 10
47.0236441302
 20
121.1236072303
 30
0.0
  0
VERTEX
  5
47F
100
AcDbEntity
  8
0
100
AcDbVertex
100
AcDb2dVertex
 10
47.4532394344
 20
121.0910791254
 30
0.0
  0
VERTEX
  5
480
100
AcDbEntity
  8
0
100
AcDbVertex
100
AcDb2dVertex
 10
47.8741693486
 20
121.120270764
 30
0.0
  0
VERTEX
  5
481
100
AcDbEntity
  8
0
100
AcDbVertex
100
AcDb2dVertex
 10
48.2736441302
 20
121.2102951729
 30
0.0
  0
VERTEX
  5
482
100
AcDbEntity
  8
0
100
AcDbVertex
100
AcDb2dVertex
 10
48.6395259401
 20
121.3584170061
 30
0.0
  0
VERTEX
  5
483
100
AcDbEntity
  8
0
100
AcDbVertex
100
AcDb2dVertex
 10
48.9606976448
 20
121.5601356566
 30
0.0
  0
VERTEX
  5
484
100
AcDbEntity
  8
0
100
AcDbVertex
100
AcDb2dVertex
 10
49.2274006044
 20
121.8093220052
 30
0.0
  0
SEQEND
  5
485
100
AcDbEntity
  8
0
  0
POLYLINE
  5
486
100
AcDbEntity
  8
0
370
        15
  6
Continuous
 62
         7
100
AcDb2dPolyline
 66
         1
 10
0.0
 20
0.0
 30
0.0
 70
       128
  0
VERTEX
  5
487
100
AcDbEntity
  8
0
100
AcDbVertex
100
AcDb2dVertex
 10
48.8450890988
 20
102.6236966188
 30
0.0
  0
VERTEX
  5
488
100
AcDbEntity
  8
0
100
AcDbVertex
100
AcDb2dVertex
 10
48.9622605617
 20
102.3742323817
 30
0.0
  0
VERTEX
  5
489
100
AcDbEntity
  8
0
100
AcDbVertex
100
AcDb2dVertex
 10
49.2244232617
 20
101.9435869577
 30
0.0
  0
VERTEX
  5
48A
100
AcDbEntity
  8
0
100
AcDbVertex
100
AcDb2dVertex
 10
49.550189742
 20
101.5388240021
 30
0.0
  0
VERTEX
  5
48B
100
AcDbEntity
  8
0
100
AcDbVertex
100
AcDb2dVertex
 10
49.933746692
 20
101.1671665196
 30
0.0
  0
VERTEX
  5
48C
100
AcDbEntity
  8
0
100
AcDbVertex
100
AcDb2dVertex
 10
50.3682495289
 20
100.8352467466
 30
0.0
  0
VERTEX
  5
48D
100
AcDbEntity
  8
0
100
AcDbVertex
100
AcDb2dVertex
 10
50.8459445391
 20
100.5489877994
 30
0.0
  0
VERTEX
  5
48E
100
AcDbEntity
  8
0
100
AcDbVertex
100
AcDb2dVertex
 10
51.3583072439
 20
100.3134979757
 30
0.0
  0
VERTEX
  5
48F
100
AcDbEntity
  8
0
100
AcDbVertex
100
AcDb2dVertex
 10
51.8961945188
 20
100.132979597
 30
0.0
  0
VERTEX
  5
490
100
AcDbEntity
  8
0
100
AcDbVertex
100
AcDb2dVertex
 10
52.4500077526
 20
100.010654018
 30
0.0
  0
VERTEX
  5
491
100
AcDbEntity
  8
0
100
AcDbVertex
100
AcDb2dVertex
 10
53.0098641349
 20
99.9487041415
 30
0.0
  0
VERTEX
  5
492
100
AcDbEntity
  8
0
100
AcDbVertex
100
AcDb2dVertex
 10
53.5657730154
 20
99.9482354646
 30
0.0
  0
VERTEX
  5
493
100
AcDbEntity
  8
0
100
AcDbVertex
100
AcDb2dVertex
 10
54.1078141869
 20
100.0092563509
 30
0.0
  0
VERTEX
  5
494
100
AcDbEntity
  8
0
100
AcDbVertex
100
AcDb2dVertex
 10
54.626314912
 20
100.1306778811
 30
0.0
  0
VERTEX
  5
495
100
AcDbEntity
  8
0
100
AcDbVertex
100
AcDb2dVertex
 10
55.1120225328
 20
100.3103332852
 30
0.0
  0
VERTEX
  5
496
100
AcDbEntity
  8
0
100
AcDbVertex
100
AcDb2dVertex
 10
55.5562695853
 20
100.5450166083
 30
0.0
  0
VERTEX
  5
497
100
AcDbEntity
  8
0
100
AcDbVertex
100
AcDb2dVertex
 10
55.7394331547
 20
100.666727844
 30
0.0
  0
SEQEND
  5
498
100
AcDbEntity
  8
0
  0
POLYLINE
  5
499
100
AcDbEntity
  8
0
370
        15
  6
Continuous
 62
         7
100
AcDb2dPolyline
 66
         1
 10
0.0
 20
0.0
 30
0.0
 70
       128
  0
VERTEX
  5
49A
100
AcDbEntity
  8
0
100
AcDbVertex
100
AcDb2dVertex
 10
59.6412906358
 20
79.4379323584
 30
0.0
  0
VERTEX
  5
49B
100
AcDbEntity
  8
0
100
AcDbVertex
100
AcDb2dVertex
 10
59.8454212159
 20
79.7270150041
 30
0.0
  0
VERTEX
  5
49C
100
AcDbEntity
  8
0
100
AcDbVertex
100
AcDb2dVertex
 10
59.9807770122
 20
80.0472103169
 30
0.0
  0
VERTEX
  5
49D
100
AcDbEntity
  8
0
100
AcDbVertex
100
AcDb2dVertex
 10
60.0432453072
 20
80.3887893244
 30
0.0
  0
VERTEX
  5
49E
100
AcDbEntity
  8
0
100
AcDbVertex
100
AcDb2dVertex
 10
60.0309280334
 20
80.7413733211
 30
0.0
  0
VERTEX
  5
49F
100
AcDbEntity
  8
0
100
AcDbVertex
100
AcDb2dVertex
 10
59.9441994449
 20
81.0942492209
 30
0.0
  0
VERTEX
  5
4A0
100
AcDbEntity
  8
0
100
AcDbVertex
100
AcDb2dVertex
 10
59.7856947461
 20
81.4366950679
 30
0.0
  0
VERTEX
  5
4A1
100
AcDbEntity
  8
0
100
AcDbVertex
100
AcDb2dVertex
 10
59.560230022
 20
81.7583058185
 30
0.0
  0
VERTEX
  5
4A2
100
AcDbEntity
  8
0
100
AcDbVertex
100
AcDb2dVertex
 10
59.2746559041
 20
82.0493094928
 30
0.0
  0
VERTEX
  5
4A3
100
AcDbEntity
  8
0
100
AcDbVertex
100
AcDb2dVertex
 10
58.9376494175
 20
82.3008640913
 30
0.0
  0
VERTEX
  5
4A4
100
AcDbEntity
  8
0
100
AcDbVertex
100
AcDb2dVertex
 10
58.5594503337
 20
82.5053262548
 30
0.0
  0
VERTEX
  5
4A5
100
AcDbEntity
  8
0
100
AcDbVertex
100
AcDb2dVertex
 10
58.1515500407
 20
82.6564835041
 30
0.0
  0
VERTEX
  5
4A6
100
AcDbEntity
  8
0
100
AcDbVertex
100
AcDb2dVertex
 10
57.7263423822
 20
82.7497430025
 30
0.0
  0
VERTEX
  5
4A7
100
AcDbEntity
  8
0
100
AcDbVertex
100
AcDb2dVertex
 10
57.2967470779
 20
82.7822711074
 30
0.0
  0
VERTEX
  5
4A8
100
AcDbEntity
  8
0
100
AcDbVertex
100
AcDb2dVertex
 10
56.8758171638
 20
82.7530794688
 30
0.0
  0
VERTEX
  5
4A9
100
AcDbEntity
  8
0
100
AcDbVertex
100
AcDb2dVertex
 10
56.4763423822
 20
82.6630550599
 30
0.0
  0
VERTEX
  5
4AA
100
AcDbEntity
  8
0
100
AcDbVertex
100
AcDb2dVertex
 10
56.1104605723
 20
82.5149332267
 30
0.0
  0
VERTEX
  5
4AB
100
AcDbEntity
  8
0
100
AcDbVertex
100
AcDb2dVertex
 10
55.7892888676
 20
82.3132145762
 30
0.0
  0
VERTEX
  5
4AC
100
AcDbEntity
  8
0
100
AcDbVertex
100
AcDb2dVertex
 10
55.522585908
 20
82.0640282276
 30
0.0
  0
VERTEX
  5
4AD
100
AcDbEntity
  8
0
100
AcDbVertex
100
AcDb2dVertex
 10
55.3184553279
 20
81.7749455819
 30
0.0
  0
VERTEX
  5
4AE
100
AcDbEntity
  8
0
100
AcDbVertex
100
AcDb2dVertex
 10
55.1830995316
 20
81.454750269
 30
0.0
  0
VERTEX
  5
4AF
100
AcDbEntity
  8
0
100
AcDbVertex
100
AcDb2dVertex
 10
55.1206312366
 20
81.1131712615
 30
0.0
  0
VERTEX
  5
4B0
100
AcDbEntity
  8
0
100
AcDbVertex
100
AcDb2dVertex
 10
55.1329485104
 20
80.7605872648
 30
0.0
  0
VERTEX
  5
4B1
100
AcDbEntity
  8
0
100
AcDbVertex
100
AcDb2dVertex
 10
55.2196770989
 20
80.4077113651
 30
0.0
  0
VERTEX
  5
4B2
100
AcDbEntity
  8
0
100
AcDbVertex
100
AcDb2dVertex
 10
55.3781817977
 20
80.065265518
 30
0.0
  0
VERTEX
  5
4B3
100
AcDbEntity
  8
0
100
AcDbVertex
100
AcDb2dVertex
 10
55.6036465219
 20
79.7436547674
 30
0.0
  0
VERTEX
  5
4B4
100
AcDbEntity
  8
0
100
AcDbVertex
100
AcDb2dVertex
 10
55.8892206398
 20
79.4526510932
 30
0.0
  0
VERTEX
  5
4B5
100
AcDbEntity
  8
0
100
AcDbVertex
100
AcDb2dVertex
 10
56.2262271264
 20
79.2010964947
 30
0.0
  0
VERTEX
  5
4B6
100
AcDbEntity
  8
0
100
AcDbVertex
100
AcDb2dVertex
 10
56.6044262101
 20
78.9966343311
 30
0.0
  0
VERTEX
  5
4B7
100
AcDbEntity
  8
0
100
AcDbVertex
100
AcDb2dVertex
 10
57.0123265032
 20
78.8454770818
 30
0.0
  0
VERTEX
  5
4B8
100
AcDbEntity
  8
0
100
AcDbVertex
100
AcDb2dVertex
 10
57.4375341616
 20
78.7522175834
 30
0.0
  0
VERTEX
  5
4B9
100
AcDbEntity
  8
0
100
AcDbVertex
100
AcDb2dVertex
 10
57.8671294659
 20
78.7196894785
 30
0.0
  0
VERTEX
  5
4BA
100
AcDbEntity
  8
0
100
AcDbVertex
100
AcDb2dVertex
 10
58.28805938
 20
78.7488811171
 30
0.0
  0
VERTEX
  5
4BB
100
AcDbEntity
  8
0
100
AcDbVertex
100
AcDb2dVertex
 10
58.6875341616
 20
78.8389055261
 30
0.0
  0
VERTEX
  5
4BC
100
AcDbEntity
  8
0
100
AcDbVertex
100
AcDb2dVertex
 10
59.0534159716
 20
78.9870273593
 30
0.0
  0
VERTEX
  5
4BD
100
AcDbEntity
  8
0
100
AcDbVertex
100
AcDb2dVertex
 10
59.3745876762
 20
79.1887460097
 30
0.0
  0
VERTEX
  5
4BE
100
AcDbEntity
  8
0
100
AcDbVertex
100
AcDb2dVertex
 10
59.6412906358
 20
79.4379323584
 30
0.0
  0
SEQEND
  5
4BF
100
AcDbEntity
  8
0
  0
POLYLINE
  5
4C0
100
AcDbEntity
  8
0
  6
Continuous
 62
         7
100
AcDb2dPolyline
 66
         1
 10
0.0
 20
0.0
 30
0.0
 70
       128
  0
VERTEX
  5
4C1
100
AcDbEntity
  8
0
100
AcDbVertex
100
AcDb2dVertex
 10
48.2543069703
 20
137.230931516
 30
0.0
  0
VERTEX
  5
4C2
100
AcDbEntity
  8
0
100
AcDbVertex
100
AcDb2dVertex
 10
47.8198477745
 20
136.3992539069
 30
0.0
  0
VERTEX
  5
4C3
100
AcDbEntity
  8
0
100
AcDbVertex
100
AcDb2dVertex
 10
47.8277523281
 20
135.4543121002
 30
0.0
  0
VERTEX
  5
4C4
100
AcDbEntity
  8
0
100
AcDbVertex
100
AcDb2dVertex
 10
48.2768172345
 20
134.5399649203
 30
0.0
  0
VERTEX
  5
4C5
100
AcDbEntity
  8
0
100
AcDbVertex
100
AcDb2dVertex
 10
49.0986764323
 20
133.7954134366
 30
0.0
  0
VERTEX
  5
4C6
100
AcDbEntity
  8
0
100
AcDbVertex
100
AcDb2dVertex
 10
50.168209309
 20
133.3340088631
 30
0.0
  0
VERTEX
  5
4C7
100
AcDbEntity
  8
0
100
AcDbVertex
100
AcDb2dVertex
 10
51.3225891794
 20
133.2259958637
 30
0.0
  0
VERTEX
  5
4C8
100
AcDbEntity
  8
0
100
AcDbVertex
100
AcDb2dVertex
 10
52.3860721727
 20
133.4878184381
 30
0.0
  0
VERTEX
  5
4C9
100
AcDbEntity
  8
0
100
AcDbVertex
100
AcDb2dVertex
 10
53.1967526437
 20
134.079616473
 30
0.0
  0
VERTEX
  5
4CA
100
AcDbEntity
  8
0
100
AcDbVertex
100
AcDb2dVertex
 10
53.6312118395
 20
134.9112940822
 30
0.0
  0
VERTEX
  5
4CB
100
AcDbEntity
  8
0
100
AcDbVertex
100
AcDb2dVertex
 10
53.6233072859
 20
135.8562358889
 30
0.0
  0
VERTEX
  5
4CC
100
AcDbEntity
  8
0
100
AcDbVertex
100
AcDb2dVertex
 10
53.1742423795
 20
136.7705830688
 30
0.0
  0
VERTEX
  5
4CD
100
AcDbEntity
  8
0
100
AcDbVertex
100
AcDb2dVertex
 10
52.3523831817
 20
137.5151345525
 30
0.0
  0
VERTEX
  5
4CE
100
AcDbEntity
  8
0
100
AcDbVertex
100
AcDb2dVertex
 10
51.282850305
 20
137.9765391259
 30
0.0
  0
VERTEX
  5
4CF
100
AcDbEntity
  8
0
100
AcDbVertex
100
AcDb2dVertex
 10
50.1284704346
 20
138.0845521254
 30
0.0
  0
VERTEX
  5
4D0
100
AcDbEntity
  8
0
100
AcDbVertex
100
AcDb2dVertex
 10
49.0649874413
 20
137.8227295509
 30
0.0
  0
VERTEX
  5
4D1
100
AcDbEntity
  8
0
100
AcDbVertex
100
AcDb2dVertex
 10
48.2543069703
 20
137.230931516
 30
0.0
  0
SEQEND
  5
4D2
100
AcDbEntity
  8
0
  0
POLYLINE
  5
4D3
100
AcDbEntity
  8
0
  6
Continuous
 62
         7
100
AcDb2dPolyline
 66
         1
 10
0.0
 20
0.0
 30
0.0
 70
       128
  0
VERTEX
  5
4D4
100
AcDbEntity
  8
0
100
AcDbVertex
100
AcDb2dVertex
 10
78.732721956
 20
117.7978220842
 30
0.0
  0
VERTEX
  5
4D5
100
AcDbEntity
  8
0
100
AcDbVertex
100
AcDb2dVertex
 10
78.2982627603
 20
116.966144475
 30
0.0
  0
VERTEX
  5
4D6
100
AcDbEntity
  8
0
100
AcDbVertex
100
AcDb2dVertex
 10
78.3061673139
 20
116.0212026684
 30
0.0
  0
VERTEX
  5
4D7
100
AcDbEntity
  8
0
100
AcDbVertex
100
AcDb2dVertex
 10
78.7552322202
 20
115.1068554884
 30
0.0
  0
VERTEX
  5
4D8
100
AcDbEntity
  8
0
100
AcDbVertex
100
AcDb2dVertex
 10
79.5770914181
 20
114.3623040047
 30
0.0
  0
VERTEX
  5
4D9
100
AcDbEntity
  8
0
100
AcDbVertex
100
AcDb2dVertex
 10
80.6466242947
 20
113.9008994313
 30
0.0
  0
VERTEX
  5
4DA
100
AcDbEntity
  8
0
100
AcDbVertex
100
AcDb2dVertex
 10
81.8010041651
 20
113.7928864318
 30
0.0
  0
VERTEX
  5
4DB
100
AcDbEntity
  8
0
100
AcDbVertex
100
AcDb2dVertex
 10
82.8644871584
 20
114.0547090063
 30
0.0
  0
VERTEX
  5
4DC
100
AcDbEntity
  8
0
100
AcDbVertex
100
AcDb2dVertex
 10
83.6751676294
 20
114.6465070412
 30
0.0
  0
VERTEX
  5
4DD
100
AcDbEntity
  8
0
100
AcDbVertex
100
AcDb2dVertex
 10
84.1096268252
 20
115.4781846504
 30
0.0
  0
VERTEX
  5
4DE
100
AcDbEntity
  8
0
100
AcDbVertex
100
AcDb2dVertex
 10
84.1017222716
 20
116.423126457
 30
0.0
  0
VERTEX
  5
4DF
100
AcDbEntity
  8
0
100
AcDbVertex
100
AcDb2dVertex
 10
83.6526573653
 20
117.337473637
 30
0.0
  0
VERTEX
  5
4E0
100
AcDbEntity
  8
0
100
AcDbVertex
100
AcDb2dVertex
 10
82.8307981674
 20
118.0820251207
 30
0.0
  0
VERTEX
  5
4E1
100
AcDbEntity
  8
0
100
AcDbVertex
100
AcDb2dVertex
 10
81.7612652907
 20
118.5434296941
 30
0.0
  0
VERTEX
  5
4E2
100
AcDbEntity
  8
0
100
AcDbVertex
100
AcDb2dVertex
 10
80.6068854203
 20
118.6514426936
 30
0.0
  0
VERTEX
  5
4E3
100
AcDbEntity
  8
0
100
AcDbVertex
100
AcDb2dVertex
 10
79.543402427
 20
118.3896201191
 30
0.0
  0
VERTEX
  5
4E4
100
AcDbEntity
  8
0
100
AcDbVertex
100
AcDb2dVertex
 10
78.732721956
 20
117.7978220842
 30
0.0
  0
SEQEND
  5
4E5
100
AcDbEntity
  8
0
  0
POLYLINE
  5
4E6
100
AcDbEntity
  8
0
  6
Continuous
 62
         7
100
AcDb2dPolyline
 66
         1
 10
0.0
 20
0.0
 30
0.0
 70
       128
  0
VERTEX
  5
4E7
100
AcDbEntity
  8
0
100
AcDbVertex
100
AcDb2dVertex
 10
58.6681970018
 20
94.8595418692
 30
0.0
  0
VERTEX
  5
4E8
100
AcDbEntity
  8
0
100
AcDbVertex
100
AcDb2dVertex
 10
58.233737806
 20
94.02786426
 30
0.0
  0
VERTEX
  5
4E9
100
AcDbEntity
  8
0
100
AcDbVertex
100
AcDb2dVertex
 10
58.2416423596
 20
93.0829224534
 30
0.0
  0
VERTEX
  5
4EA
100
AcDbEntity
  8
0
100
AcDbVertex
100
AcDb2dVertex
 10
58.6907072659
 20
92.1685752734
 30
0.0
  0
VERTEX
  5
4EB
100
AcDbEntity
  8
0
100
AcDbVertex
100
AcDb2dVertex
 10
59.5125664638
 20
91.4240237897
 30
0.0
  0
VERTEX
  5
4EC
100
AcDbEntity
  8
0
100
AcDbVertex
100
AcDb2dVertex
 10
60.5820993405
 20
90.9626192163
 30
0.0
  0
VERTEX
  5
4ED
100
AcDbEntity
  8
0
100
AcDbVertex
100
AcDb2dVertex
 10
61.7364792108
 20
90.8546062168
 30
0.0
  0
VERTEX
  5
4EE
100
AcDbEntity
  8
0
100
AcDbVertex
100
AcDb2dVertex
 10
62.7999622041
 20
91.1164287913
 30
0.0
  0
VERTEX
  5
4EF
100
AcDbEntity
  8
0
100
AcDbVertex
100
AcDb2dVertex
 10
63.6106426751
 20
91.7082268262
 30
0.0
  0
VERTEX
  5
4F0
100
AcDbEntity
  8
0
100
AcDbVertex
100
AcDb2dVertex
 10
64.0451018709
 20
92.5399044354
 30
0.0
  0
VERTEX
  5
4F1
100
AcDbEntity
  8
0
100
AcDbVertex
100
AcDb2dVertex
 10
64.0371973173
 20
93.484846242
 30
0.0
  0
VERTEX
  5
4F2
100
AcDbEntity
  8
0
100
AcDbVertex
100
AcDb2dVertex
 10
63.588132411
 20
94.399193422
 30
0.0
  0
VERTEX
  5
4F3
100
AcDbEntity
  8
0
100
AcDbVertex
100
AcDb2dVertex
 10
62.7662732131
 20
95.1437449057
 30
0.0
  0
VERTEX
  5
4F4
100
AcDbEntity
  8
0
100
AcDbVertex
100
AcDb2dVertex
 10
61.6967403364
 20
95.6051494791
 30
0.0
  0
VERTEX
  5
4F5
100
AcDbEntity
  8
0
100
AcDbVertex
100
AcDb2dVertex
 10
60.542360466
 20
95.7131624786
 30
0.0
  0
VERTEX
  5
4F6
100
AcDbEntity
  8
0
100
AcDbVertex
100
AcDb2dVertex
 10
59.4788774727
 20
95.4513399041
 30
0.0
  0
VERTEX
  5
4F7
100
AcDbEntity
  8
0
100
AcDbVertex
100
AcDb2dVertex
 10
58.6681970018
 20
94.8595418692
 30
0.0
  0
SEQEND
  5
4F8
100
AcDbEntity
  8
0
  0
POLYLINE
  5
4F9
100
AcDbEntity
  8
0
  6
Continuous
 62
         7
100
AcDb2dPolyline
 66
         1
 10
0.0
 20
0.0
 30
0.0
 70
       128
  0
VERTEX
  5
4FA
100
AcDbEntity
  8
0
100
AcDbVertex
100
AcDb2dVertex
 10
28.189782016
 20
114.292651301
 30
0.0
  0
VERTEX
  5
4FB
100
AcDbEntity
  8
0
100
AcDbVertex
100
AcDb2dVertex
 10
27.7553228202
 20
113.4609736918
 30
0.0
  0
VERTEX
  5
4FC
100
AcDbEntity
  8
0
100
AcDbVertex
100
AcDb2dVertex
 10
27.7632273738
 20
112.5160318852
 30
0.0
  0
VERTEX
  5
4FD
100
AcDbEntity
  8
0
100
AcDbVertex
100
AcDb2dVertex
 10
28.2122922802
 20
111.6016847053
 30
0.0
  0
VERTEX
  5
4FE
100
AcDbEntity
  8
0
100
AcDbVertex
100
AcDb2dVertex
 10
29.034151478
 20
110.8571332216
 30
0.0
  0
VERTEX
  5
4FF
100
AcDbEntity
  8
0
100
AcDbVertex
100
AcDb2dVertex
 10
30.1036843547
 20
110.3957286481
 30
0.0
  0
VERTEX
  5
500
100
AcDbEntity
  8
0
100
AcDbVertex
100
AcDb2dVertex
 10
31.2580642251
 20
110.2877156486
 30
0.0
  0
VERTEX
  5
501
100
AcDbEntity
  8
0
100
AcDbVertex
100
AcDb2dVertex
 10
32.3215472184
 20
110.5495382231
 30
0.0
  0
VERTEX
  5
502
100
AcDbEntity
  8
0
100
AcDbVertex
100
AcDb2dVertex
 10
33.1322276894
 20
111.141336258
 30
0.0
  0
VERTEX
  5
503
100
AcDbEntity
  8
0
100
AcDbVertex
100
AcDb2dVertex
 10
33.5666868852
 20
111.9730138672
 30
0.0
  0
VERTEX
  5
504
100
AcDbEntity
  8
0
100
AcDbVertex
100
AcDb2dVertex
 10
33.5587823316
 20
112.9179556739
 30
0.0
  0
VERTEX
  5
505
100
AcDbEntity
  8
0
100
AcDbVertex
100
AcDb2dVertex
 10
33.1097174252
 20
113.8323028538
 30
0.0
  0
VERTEX
  5
506
100
AcDbEntity
  8
0
100
AcDbVertex
100
AcDb2dVertex
 10
32.2878582274
 20
114.5768543375
 30
0.0
  0
VERTEX
  5
507
100
AcDbEntity
  8
0
100
AcDbVertex
100
AcDb2dVertex
 10
31.2183253507
 20
115.0382589109
 30
0.0
  0
VERTEX
  5
508
100
AcDbEntity
  8
0
100
AcDbVertex
100
AcDb2dVertex
 10
30.0639454803
 20
115.1462719104
 30
0.0
  0
VERTEX
  5
509
100
AcDbEntity
  8
0
100
AcDbVertex
100
AcDb2dVertex
 10
29.000462487
 20
114.8844493359
 30
0.0
  0
VERTEX
  5
50A
100
AcDbEntity
  8
0
100
AcDbVertex
100
AcDb2dVertex
 10
28.189782016
 20
114.292651301
 30
0.0
  0
SEQEND
  5
50B
100
AcDbEntity
  8
0
  0
ENDSEC
  0
SECTION
  2
OBJECTS
  0
DICTIONARY
  5
19
100
AcDbDictionary
280
         0
281
         1
  3
ACAD_GROUP
350
1A
  3
ACAD_MLINESTYLE
350
1B
  3
ACAD_LAYOUT
350
1E
  3
ACAD_PLOTSETTINGS
350
22
  3
ACAD_PLOTSTYLENAME
350
1F
  3
ACAD_WIPEOUT_VARS
350
23
  0
DICTIONARY
  5
1A
102
{ACAD_REACTORS
330
19
102
}
100
AcDbDictionary
280
         0
281
         1
  0
DICTIONARY
  5
1B
102
{ACAD_REACTORS
330
19
102
}
100
AcDbDictionary
280
         0
281
         1
  3
Standard
350
1C
  0
MLINESTYLE
  5
1C
102
{ACAD_REACTORS
330
1B
102
}
100
AcDbMlineStyle
  2
Standard
 70
         0
  3

 62
         0
 51
90.0
 52
90.0
 71
         2
 49
0.5
 62
       256
  6
BYLAYER
 49
-0.5
 62
       256
  6
BYLAYER
  0
ACDBDICTIONARYWDFLT
  5
1F
102
{ACAD_REACTORS
330
19
102
}
100
AcDbDictionary
281
         1
  3
Normal
350
1D
100
AcDbDictionaryWithDefault
340
1D
  0
ACDBPLACEHOLDER
  5
1D
102
{ACAD_REACTORS
330
1F
102
}
  0
LAYOUT
  5
20
102
{ACAD_REACTORS
330
1E
102
}
100
AcDbPlotSettings
  1

  2

  4

  6

 40
0.0
 41
0.0
 42
0.0
 43
0.0
 44
0.0
 45
0.0
 46
0.0
 47
0.0
 48
0.0
 49
0.0
140
0.0
141
0.0
142
1.0
143
1.0
 70
      1024
 72
         0
 73
         0
 74
         0
  7

 75
         0
147
1.0
148
0.0
149
0.0
100
AcDbLayout
  1
Model
 70
         0
 71
         0
 10
0.0
 20
0.0
 11
0.0
 21
0.0
 12
0.0
 22
0.0
 32
0.0
 14
0.0
 24
0.0
 34
0.0
 15
0.0
 25
0.0
 35
0.0
146
0.0
 13
0.0
 23
0.0
 33
0.0
 16
0.0
 26
0.0
 36
0.0
 17
0.0
 27
0.0
 37
0.0
 76
         0
330
A
331
0
345
0
346
0
  0
LAYOUT
  5
21
102
{ACAD_REACTORS
330
1E
102
}
100
AcDbPlotSettings
  1

  2

  4

  6

 40
0.0
 41
0.0
 42
0.0
 43
0.0
 44
0.0
 45
0.0
 46
0.0
 47
0.0
 48
0.0
 49
0.0
140
0.0
141
0.0
142
1.0
143
1.0
 70
         0
 72
         0
 73
         0
 74
         0
  7

 75
         0
147
1.0
148
0.0
149
0.0
100
AcDbLayout
  1
Layout1
 70
         0
 71
         0
 10
0.0
 20
0.0
 11
0.0
 21
0.0
 12
0.0
 22
0.0
 32
0.0
 14
0.0
 24
0.0
 34
0.0
 15
0.0
 25
0.0
 35
0.0
146
0.0
 13
0.0
 23
0.0
 33
0.0
 16
0.0
 26
0.0
 36
0.0
 17
0.0
 27
0.0
 37
0.0
 76
         0
330
B
331
0
345
0
346
0
  0
DICTIONARY
  5
1E
102
{ACAD_REACTORS
330
19
102
}
100
AcDbDictionary
280
         0
281
         1
  3
Layout1
350
21
  3
Model
350
20
  0
DICTIONARY
  5
22
102
{ACAD_REACTORS
330
19
102
}
100
AcDbDictionary
280
         0
281
         1
  0
WIPEOUTVARIABLES
  5
23
100
AcDbWipeoutVariables
 70
         1
  0
ENDSEC
  0
EOF
