999
DXF file: 100026_axe-balancier.dxf
999
Pro/ENGINEER 2004090 by Parametric Technology Corporation
0
SECTION
2
HEADER
9
$ACADVER
1
AC1014
9
$HANDSEED
5
       3EC
9
$EXTMAX
10
297.0000000000
20
210.0000000000
9
$EXTMIN
10
0.0000000000
20
0.0000000000
9
$LIMMIN
10
0.0000000000
20
0.0000000000
9
$LIMMAX
10
297.0000000000
20
210.0000000000
9
$VIEWCTR
10
148.5000000000
20
105.0000000000
9
$VIEWSIZE
40
210.0000000000
9
$CLAYER
8
0
9
$LTSCALE
40
16.3350000000
9
$CELTYPE
6
BYLAYER
9
$DIMSCALE
40
1
9
$DIMASZ
40
4.5000000000
9
$DIMEXO
40
1.8562500000
9
$DIMDLI
40
11.2860000000
9
$DIMEXE
40
5.3460000000
9
$DIMCEN
40
2.6730000000
9
$DIMLFAC
40
1.0000000000
9
$DIMTXT
40
3.5000000000
9
$DIMTOL
70
1
9
$DIMLIM
70
0
9
$DIMTFAC
40
1.0000000000
9
$DIMTP
40
0.0500000000
9
$DIMTM
40
0.0500000000
9
$MEASUREMENT
70
1
0
ENDSEC
0
SECTION
2
CLASSES
0
ENDSEC
0
SECTION
2
TABLES
0
TABLE
2
VPORT
5
8
100
AcDbSymbolTable
70
2
0
VPORT
5
1F4
100
AcDbSymbolTableRecord
100
AcDbViewportTableRecord
2
*ACTIVE
70
0
10
0.0
20
0.0
11
1.0
21
1.0
12
148.5000000000
22
105.0000000000
13
0.0
23
0.0
14
1.0
24
1.0
15
0.0
25
0.0
16
0.0
26
0.0
36
1.0
17
0.0
27
0.0
37
0.0
40
210.0000000000
41
1.4142857143
42
50.0
43
0.0
44
0.0
50
0.0
51
0.0
71
0
72
100
73
1
74
1
75
0
76
0
77
0
78
0
0
ENDTAB
0
TABLE
2
LTYPE
5
5
100
AcDbSymbolTable
70
6
0
LTYPE
5
14
100
AcDbSymbolTableRecord
100
AcDbLinetypeTableRecord
2
BYBLOCK
70
0
3

72
65
73
0
40
0.0
0
LTYPE
5
15
100
AcDbSymbolTableRecord
100
AcDbLinetypeTableRecord
2
BYLAYER
70
0
3

72
65
73
0
40
0.0
0
LTYPE
5
16
100
AcDbSymbolTableRecord
100
AcDbLinetypeTableRecord
2
CONTINUOUS
70
64
3
Solid line
72
65
73
0
40
0
0
LTYPE
5
1F5
100
AcDbSymbolTableRecord
100
AcDbLinetypeTableRecord
2
CENTER
70
64
3
____ _ ____ _ ____ _ ____ _ ____ _ ____ _ ____
72
65
73
4
40
0.6
49
0.375
74
0
49
-0.075
74
0
49
0.075
74
0
49
-0.075
74
0
0
LTYPE
5
1F6
100
AcDbSymbolTableRecord
100
AcDbLinetypeTableRecord
2
HIDDEN
70
64
3
- - - - - - - - - - - - - - - - - - - -
72
65
73
2
40
0.2
49
0.1
74
0
49
-0.1
74
0
0
LTYPE
5
1F7
100
AcDbSymbolTableRecord
100
AcDbLinetypeTableRecord
2
PHANTOM
70
64
3
_____ _ _ _____ _ _ _____ _ _ _____
72
65
73
6
40
0.8
49
0.45
74
0
49
-0.05
74
0
49
0.1
74
0
49
-0.05
74
0
49
0.1
74
0
49
-0.05
74
0
0
LTYPE
5
1F8
100
AcDbSymbolTableRecord
100
AcDbLinetypeTableRecord
2
DOT
70
64
3
. . . . . . . . . . . . . . . . . . . .
72
65
73
2
40
0.2
49
0.1
74
0
49
-0.1
74
0
0
LTYPE
5
1F9
100
AcDbSymbolTableRecord
100
AcDbLinetypeTableRecord
2
DASHED
70
64
3
- - - - - - - - - - - - - - - - - - - -
72
65
73
2
40
0.2
49
0.1
74
0
49
-0.1
74
0
0
ENDTAB
0
TABLE
2
LAYER
5
2
100
AcDbSymbolTable
70
36
0
LAYER
5
10
100
AcDbSymbolTableRecord
100
AcDbLayerTableRecord
2
0
70
0
62
7
6
CONTINUOUS
0
LAYER
5
1FA
100
AcDbSymbolTableRecord
100
AcDbLayerTableRecord
2
DEFAULT_1
70
0
62
7
6
CENTER
0
LAYER
5
1FB
100
AcDbSymbolTableRecord
100
AcDbLayerTableRecord
2
DEFAULT_2
70
0
62
8
6
HIDDEN
0
LAYER
5
1FC
100
AcDbSymbolTableRecord
100
AcDbLayerTableRecord
2
DEFAULT_3
70
0
62
7
6
PHANTOM
0
LAYER
5
1FD
100
AcDbSymbolTableRecord
100
AcDbLayerTableRecord
2
POUB
70
0
62
7
6
CONTINUOUS
0
ENDTAB
0
TABLE
2
STYLE
5
3
100
AcDbSymbolTable
70
1
0
STYLE
5
11
100
AcDbSymbolTableRecord
100
AcDbTextStyleTableRecord
2
STANDARD
70
0
40
0.0
41
0.8000000000
50
0.0
71
0
42
0.2
3
txt
4

0
STYLE
5
1FE
100
AcDbSymbolTableRecord
100
AcDbTextStyleTableRecord
2
TEXTSTYLE_1
70
0
40
0.0
41
0.8000000000
50
0.0
71
0
42
0.2
3
txt
4

0
ENDTAB
0
TABLE
2
VIEW
5
6
100
AcDbSymbolTable
70
0
0
ENDTAB
0
TABLE
2
UCS
5
7
100
AcDbSymbolTable
70
0
0
ENDTAB
0
TABLE
2
APPID
5
9
100
AcDbSymbolTable
70
1
0
APPID
5
1FF
100
AcDbSymbolTableRecord
100
AcDbRegAppTableRecord
2
ACAD
70
0
0
ENDTAB
0
TABLE
2
DIMSTYLE
5
A
100
AcDbSymbolTable
70
1
0
DIMSTYLE
105
200
100
AcDbSymbolTableRecord
100
AcDbDimStyleTableRecord
2
STANDARD
70
0
3

4

5

6

7

40
1.0
41
4.5000000000
42
0.0625
43
0.38
44
0.18
45
0.0
46
0.0
47
0.0500000000
48
0.0500000000
140
3.5000000000
141
0.09
142
0.0
143
25.4
144
1.0000000000
145
0.0
146
1.0000000000
147
0.09
71
1
72
0
73
0
74
0
75
0
76
0
77
1
78
8
170
0
171
2
172
0
173
0
174
0
175
0
176
0
177
0
178
0
270
2
271
2
272
2
273
2
274
2
340
11
275
0
280
0
281
0
282
0
283
1
284
8
285
0
286
0
287
3
288
0
0
DIMSTYLE
105
201
100
AcDbSymbolTableRecord
100
AcDbDimStyleTableRecord
2
DIMSTYLE_1
70
0
3

4

5

6

7

40
1.0
41
4.5000000000
42
0.0625
43
0.38
44
0.18
45
0.0
46
0.0
47
0.0500000000
48
0.0500000000
140
3.5000000000
141
0.09
142
0.0
143
25.4
144
1.0000000000
145
0.0
146
1.0000000000
147
0.09
71
0
72
0
73
0
74
0
75
0
76
0
77
1
78
8
170
0
171
2
172
0
173
0
174
0
175
0
176
0
177
0
178
0
270
2
271
2
272
2
273
2
274
2
340
1FE
275
0
280
0
281
0
282
0
283
1
284
8
285
0
286
0
287
3
288
0
0
ENDTAB
0
TABLE
2
BLOCK_RECORD
5
1
100
AcDbSymbolTable
70
0
0
BLOCK_RECORD
5
1B
100
AcDbSymbolTableRecord
100
AcDbBlockTableRecord
2
*MODEL_SPACE
0
BLOCK_RECORD
5
1C
100
AcDbSymbolTableRecord
100
AcDbBlockTableRecord
2
*PAPER_SPACE
0
BLOCK_RECORD
5
202
100
AcDbSymbolTableRecord
100
AcDbBlockTableRecord
2
N-DES_BL0
0
BLOCK_RECORD
5
203
100
AcDbSymbolTableRecord
100
AcDbBlockTableRecord
2
N-CART_BL1
0
BLOCK_RECORD
5
204
100
AcDbSymbolTableRecord
100
AcDbBlockTableRecord
2
*D0
0
BLOCK_RECORD
5
205
100
AcDbSymbolTableRecord
100
AcDbBlockTableRecord
2
*D1
0
BLOCK_RECORD
5
206
100
AcDbSymbolTableRecord
100
AcDbBlockTableRecord
2
*D2
0
BLOCK_RECORD
5
207
100
AcDbSymbolTableRecord
100
AcDbBlockTableRecord
2
*D3
0
BLOCK_RECORD
5
208
100
AcDbSymbolTableRecord
100
AcDbBlockTableRecord
2
*D4
0
BLOCK_RECORD
5
209
100
AcDbSymbolTableRecord
100
AcDbBlockTableRecord
2
*D5
0
BLOCK_RECORD
5
20A
100
AcDbSymbolTableRecord
100
AcDbBlockTableRecord
2
*D6
0
BLOCK_RECORD
5
20B
100
AcDbSymbolTableRecord
100
AcDbBlockTableRecord
2
*D7
0
BLOCK_RECORD
5
20C
100
AcDbSymbolTableRecord
100
AcDbBlockTableRecord
2
*D8
0
BLOCK_RECORD
5
20D
100
AcDbSymbolTableRecord
100
AcDbBlockTableRecord
2
*D9
0
BLOCK_RECORD
5
20E
100
AcDbSymbolTableRecord
100
AcDbBlockTableRecord
2
*D10
0
BLOCK_RECORD
5
20F
100
AcDbSymbolTableRecord
100
AcDbBlockTableRecord
2
*D11
0
BLOCK_RECORD
5
210
100
AcDbSymbolTableRecord
100
AcDbBlockTableRecord
2
*D12
0
BLOCK_RECORD
5
211
100
AcDbSymbolTableRecord
100
AcDbBlockTableRecord
2
*D13
0
BLOCK_RECORD
5
212
100
AcDbSymbolTableRecord
100
AcDbBlockTableRecord
2
*D14
0
BLOCK_RECORD
5
213
100
AcDbSymbolTableRecord
100
AcDbBlockTableRecord
2
*D15
0
BLOCK_RECORD
5
214
100
AcDbSymbolTableRecord
100
AcDbBlockTableRecord
2
*D16
0
BLOCK_RECORD
5
215
100
AcDbSymbolTableRecord
100
AcDbBlockTableRecord
2
N-CAR_BL2
0
ENDTAB
0
ENDSEC
0
SECTION
2
BLOCKS
0
BLOCK
5
1E
100
AcDbEntity
8
0
100
AcDbBlockBegin
2
*MODEL_SPACE
70
0
10
0.0
20
0.0
30
0.0
3
*MODEL_SPACE
1

0
ENDBLK
5
1F
100
AcDbEntity
8
0
100
AcDbBlockEnd
0
BLOCK
5
20
100
AcDbEntity
8
0
100
AcDbBlockBegin
2
*PAPER_SPACE
70
0
10
0.0
20
0.0
30
0.0
3
*PAPER_SPACE
1

0
ENDBLK
5
21
100
AcDbEntity
8
0
100
AcDbBlockEnd
0
BLOCK
5
216
100
AcDbEntity
8
0
100
AcDbBlockBegin
62
2
6
CONTINUOUS
2
N-DES_BL0
70
64
10
0.0000000000
20
0.0000000000
3
N-DES_BL0
1

0
LINE
5
217
100
AcDbEntity
8
0
100
AcDbLine
62
7
6
CONTINUOUS
10
271.5047785790
20
46.1229811484
11
271.5047785790
21
44.4337905733
0
LINE
5
218
100
AcDbEntity
8
0
100
AcDbLine
62
7
6
CONTINUOUS
10
276.9101884192
20
43.5891952858
11
271.5047785790
21
44.4337905733
0
LINE
5
219
100
AcDbEntity
8
DEFAULT_1
100
AcDbLine
62
2
6
CENTER
10
270.6939671030
20
45.2783858608
11
277.7209998952
21
45.2783858608
0
LINE
5
21A
100
AcDbEntity
8
0
100
AcDbLine
62
7
6
CONTINUOUS
10
276.9101884192
20
46.9675764359
11
271.5047785790
21
46.1229811484
0
LINE
5
21B
100
AcDbEntity
8
0
100
AcDbLine
62
7
6
CONTINUOUS
10
276.9101884192
20
46.9675764359
11
276.9101884192
21
43.5891952858
0
LINE
5
21C
100
AcDbEntity
8
0
100
AcDbLine
62
2
6
CONTINUOUS
10
281.3069357808
20
45.3787237810
11
281.3069357808
21
45.1780479407
0
LINE
5
21D
100
AcDbEntity
8
DEFAULT_1
100
AcDbLine
62
2
6
CENTER
10
281.3069357808
20
42.6806079119
11
281.3069357808
21
47.7783879119
0
LINE
5
21E
100
AcDbEntity
8
0
100
AcDbLine
62
2
6
CONTINUOUS
10
281.4072737010
20
45.2783858608
11
281.2065978606
21
45.2783858608
0
LINE
5
21F
100
AcDbEntity
8
DEFAULT_1
100
AcDbLine
62
2
6
CENTER
10
280.8052461800
20
45.2783858608
11
278.8069337297
21
45.2783858608
0
LINE
5
220
100
AcDbEntity
8
DEFAULT_1
100
AcDbLine
62
2
6
CENTER
10
281.8086253816
20
45.2783858608
11
283.8069378319
21
45.2783858608
0
CIRCLE
5
221
100
AcDbEntity
8
0
100
AcDbCircle
62
7
6
CONTINUOUS
10
281.3069357808
20
45.2783858608
40
1.6891905751
0
CIRCLE
5
222
100
AcDbEntity
8
0
100
AcDbCircle
62
7
6
CONTINUOUS
10
281.3069357808
20
45.2783858608
40
0.8445952875
0
ENDBLK
5
223
100
AcDbEntity
8
0
100
AcDbBlockEnd
0
BLOCK
5
224
100
AcDbEntity
8
0
100
AcDbBlockBegin
62
2
6
CONTINUOUS
2
N-CART_BL1
70
64
10
0.0000000000
20
0.0000000000
3
N-CART_BL1
1

0
LINE
5
225
100
AcDbEntity
8
0
100
AcDbLine
62
7
6
CONTINUOUS
10
299.0041682662
20
54.4975549711
11
133.0041954662
21
54.4975549711
0
LINE
5
226
100
AcDbEntity
8
0
100
AcDbLine
62
7
6
CONTINUOUS
10
299.0041682662
20
12.9975617711
11
133.0041954662
21
12.9975617711
0
LINE
5
227
100
AcDbEntity
8
0
100
AcDbLine
62
7
6
CONTINUOUS
10
299.0041682662
20
54.4975549711
11
299.0041682662
21
12.9975617711
0
LINE
5
228
100
AcDbEntity
8
0
100
AcDbLine
62
7
6
CONTINUOUS
10
133.0041954662
20
54.4975549711
11
133.0041954662
21
12.9975617711
0
LINE
5
229
100
AcDbEntity
8
0
100
AcDbLine
62
7
6
CONTINUOUS
10
299.0041682662
20
49.9975557085
11
133.0041954662
21
49.9975557085
0
LINE
5
22A
100
AcDbEntity
8
0
100
AcDbLine
62
7
6
CONTINUOUS
10
253.0041758036
20
22.4975602145
11
253.0041758036
21
12.9975617711
0
LINE
5
22B
100
AcDbEntity
8
0
100
AcDbLine
62
7
6
CONTINUOUS
10
299.0041682662
20
22.4975602145
11
253.0041758036
21
22.4975602145
0
ENDBLK
5
22C
100
AcDbEntity
8
0
100
AcDbBlockEnd
0
BLOCK
5
22D
100
AcDbEntity
8
0
100
AcDbBlockBegin
62
2
6
CONTINUOUS
2
*D0
70
65
10
0.0000000000
20
0.0000000000
3
*D0
1

0
TEXT
5
22E
100
AcDbEntity
8
0
100
AcDbText
62
2
6
CONTINUOUS
10
125.8383904714
20
177.7115615064
7
TEXTSTYLE_1
40
3.5000000000
1
118
41
0.4666666667
72
0
100
AcDbText
0
LINE
5
22F
100
AcDbEntity
8
0
100
AcDbLine
62
2
6
CONTINUOUS
10
70.0700956012
20
142.3923373621
11
70.0700956012
21
180.0365615064
0
LINE
5
230
100
AcDbEntity
8
0
100
AcDbLine
62
2
6
CONTINUOUS
10
188.0700956012
20
142.3923373621
11
188.0700956012
21
180.0365615065
0
LINE
5
231
100
AcDbEntity
8
0
100
AcDbLine
62
2
6
CONTINUOUS
10
70.0700956012
20
176.8365615064
11
129.0700956012
21
176.8365615064
0
LINE
5
232
100
AcDbEntity
8
0
100
AcDbLine
62
2
6
CONTINUOUS
10
188.0700956012
20
176.8365615065
11
129.0700956012
21
176.8365615064
0
SOLID
5
233
100
AcDbEntity
8
0
100
AcDbTrace
62
2
6
CONTINUOUS
10
74.5700956012
20
177.6365615064
11
70.0700956012
21
176.8365615064
12
74.5700956012
22
176.0365615064
13
74.5700956012
23
176.0365615064
0
SOLID
5
234
100
AcDbEntity
8
0
100
AcDbTrace
62
2
6
CONTINUOUS
10
183.5700956012
20
176.0365615065
11
188.0700956012
21
176.8365615065
12
183.5700956012
22
177.6365615065
13
183.5700956012
23
177.6365615065
0
ENDBLK
5
235
100
AcDbEntity
8
0
100
AcDbBlockEnd
0
BLOCK
5
236
100
AcDbEntity
8
0
100
AcDbBlockBegin
62
2
6
CONTINUOUS
2
*D1
70
65
10
0.0000000000
20
0.0000000000
3
*D1
1

0
TEXT
5
237
100
AcDbEntity
8
0
100
AcDbText
62
2
6
CONTINUOUS
10
165.8500373784
20
169.4463567937
7
TEXTSTYLE_1
40
3.5000000000
1
35,5
41
0.6291666667
72
0
100
AcDbText
0
LINE
5
238
100
AcDbEntity
8
0
100
AcDbLine
62
2
6
CONTINUOUS
10
188.0700956012
20
141.0923373621
11
188.0700956012
21
171.7713567937
0
LINE
5
239
100
AcDbEntity
8
0
100
AcDbLine
62
2
6
CONTINUOUS
10
152.5700956012
20
142.5923373621
11
152.5700956012
21
171.7713567937
0
LINE
5
23A
100
AcDbEntity
8
0
100
AcDbLine
62
2
6
CONTINUOUS
10
188.0700956012
20
168.5713567937
11
170.3200956012
21
168.5713567937
0
LINE
5
23B
100
AcDbEntity
8
0
100
AcDbLine
62
2
6
CONTINUOUS
10
152.5700956012
20
168.5713567937
11
170.3200956012
21
168.5713567937
0
SOLID
5
23C
100
AcDbEntity
8
0
100
AcDbTrace
62
2
6
CONTINUOUS
10
183.5700956012
20
167.7713567937
11
188.0700956012
21
168.5713567937
12
183.5700956012
22
169.3713567937
13
183.5700956012
23
169.3713567937
0
SOLID
5
23D
100
AcDbEntity
8
0
100
AcDbTrace
62
2
6
CONTINUOUS
10
157.0700956012
20
169.3713567937
11
152.5700956012
21
168.5713567937
12
157.0700956012
22
167.7713567937
13
157.0700956012
23
167.7713567937
0
ENDBLK
5
23E
100
AcDbEntity
8
0
100
AcDbBlockEnd
0
BLOCK
5
23F
100
AcDbEntity
8
0
100
AcDbBlockBegin
62
2
6
CONTINUOUS
2
*D2
70
65
10
0.0000000000
20
0.0000000000
3
*D2
1

0
TEXT
5
240
100
AcDbEntity
8
0
100
AcDbText
62
2
6
CONTINUOUS
10
138.4012788296
20
169.4463567937
7
TEXTSTYLE_1
40
3.5000000000
1
5
41
0.7333333333
72
0
100
AcDbText
0
LINE
5
241
100
AcDbEntity
8
0
100
AcDbLine
62
2
6
CONTINUOUS
10
152.5700956012
20
142.5923373621
11
152.5700956012
21
171.7713567937
0
LINE
5
242
100
AcDbEntity
8
0
100
AcDbLine
62
2
6
CONTINUOUS
10
147.5700956012
20
142.5923373621
11
147.5700956012
21
171.7713567937
0
LINE
5
243
100
AcDbEntity
8
0
100
AcDbLine
62
2
6
CONTINUOUS
10
152.5700956012
20
168.5713567937
11
154.5700956012
21
168.5713567937
0
LINE
5
244
100
AcDbEntity
8
0
100
AcDbLine
62
2
6
CONTINUOUS
10
154.5700956012
20
168.5713567937
11
150.0700956012
21
168.5713567937
0
LINE
5
245
100
AcDbEntity
8
0
100
AcDbLine
62
2
6
CONTINUOUS
10
147.5700956012
20
168.5713567937
11
138.4012788296
21
168.5713567937
0
LINE
5
246
100
AcDbEntity
8
0
100
AcDbLine
62
2
6
CONTINUOUS
10
138.4012788296
20
168.5713567937
11
150.0700956012
21
168.5713567937
0
SOLID
5
247
100
AcDbEntity
8
0
100
AcDbTrace
62
2
6
CONTINUOUS
10
157.0700956012
20
169.3713567937
11
152.5700956012
21
168.5713567937
12
157.0700956012
22
167.7713567937
13
157.0700956012
23
167.7713567937
0
SOLID
5
248
100
AcDbEntity
8
0
100
AcDbTrace
62
2
6
CONTINUOUS
10
143.0700956012
20
167.7713567937
11
147.5700956012
21
168.5713567937
12
143.0700956012
22
169.3713567937
13
143.0700956012
23
169.3713567937
0
ENDBLK
5
249
100
AcDbEntity
8
0
100
AcDbBlockEnd
0
BLOCK
5
24A
100
AcDbEntity
8
0
100
AcDbBlockBegin
62
2
6
CONTINUOUS
2
*D3
70
65
10
0.0000000000
20
0.0000000000
3
*D3
1

0
TEXT
5
24B
100
AcDbEntity
8
0
100
AcDbText
62
2
6
CONTINUOUS
10
116.7391532832
20
169.4463567937
7
TEXTSTYLE_1
40
3.5000000000
1
5
41
0.7333333333
72
0
100
AcDbText
0
LINE
5
24C
100
AcDbEntity
8
0
100
AcDbLine
62
2
6
CONTINUOUS
10
110.5700956012
20
142.5923373621
11
110.5700956012
21
171.7713567937
0
LINE
5
24D
100
AcDbEntity
8
0
100
AcDbLine
62
2
6
CONTINUOUS
10
105.5700956012
20
142.5923373621
11
105.5700956012
21
171.7713567937
0
LINE
5
24E
100
AcDbEntity
8
0
100
AcDbLine
62
2
6
CONTINUOUS
10
110.5700956012
20
168.5713567937
11
119.3058199499
21
168.5713567937
0
LINE
5
24F
100
AcDbEntity
8
0
100
AcDbLine
62
2
6
CONTINUOUS
10
119.3058199499
20
168.5713567937
11
108.0700956012
21
168.5713567937
0
LINE
5
250
100
AcDbEntity
8
0
100
AcDbLine
62
2
6
CONTINUOUS
10
105.5700956012
20
168.5713567937
11
103.5700956012
21
168.5713567937
0
LINE
5
251
100
AcDbEntity
8
0
100
AcDbLine
62
2
6
CONTINUOUS
10
103.5700956012
20
168.5713567937
11
108.0700956012
21
168.5713567937
0
SOLID
5
252
100
AcDbEntity
8
0
100
AcDbTrace
62
2
6
CONTINUOUS
10
115.0700956012
20
169.3713567937
11
110.5700956012
21
168.5713567937
12
115.0700956012
22
167.7713567937
13
115.0700956012
23
167.7713567937
0
SOLID
5
253
100
AcDbEntity
8
0
100
AcDbTrace
62
2
6
CONTINUOUS
10
101.0700956012
20
167.7713567937
11
105.5700956012
21
168.5713567937
12
101.0700956012
22
169.3713567937
13
101.0700956012
23
169.3713567937
0
ENDBLK
5
254
100
AcDbEntity
8
0
100
AcDbBlockEnd
0
BLOCK
5
255
100
AcDbEntity
8
0
100
AcDbBlockBegin
62
2
6
CONTINUOUS
2
*D4
70
65
10
0.0000000000
20
0.0000000000
3
*D4
1

0
TEXT
5
256
100
AcDbEntity
8
0
100
AcDbText
62
2
6
CONTINUOUS
10
84.4179226454
20
169.4463567937
7
TEXTSTYLE_1
40
3.5000000000
1
35,5
41
0.6291666667
72
0
100
AcDbText
0
LINE
5
257
100
AcDbEntity
8
0
100
AcDbLine
62
2
6
CONTINUOUS
10
105.5700956012
20
142.5923373621
11
105.5700956012
21
171.7713567937
0
LINE
5
258
100
AcDbEntity
8
0
100
AcDbLine
62
2
6
CONTINUOUS
10
70.0700956012
20
142.3923373621
11
70.0700956012
21
171.7713567937
0
LINE
5
259
100
AcDbEntity
8
0
100
AcDbLine
62
2
6
CONTINUOUS
10
105.5700956012
20
168.5713567937
11
87.8200956012
21
168.5713567937
0
LINE
5
25A
100
AcDbEntity
8
0
100
AcDbLine
62
2
6
CONTINUOUS
10
70.0700956012
20
168.5713567937
11
87.8200956012
21
168.5713567937
0
SOLID
5
25B
100
AcDbEntity
8
0
100
AcDbTrace
62
2
6
CONTINUOUS
10
101.0700956012
20
167.7713567937
11
105.5700956012
21
168.5713567937
12
101.0700956012
22
169.3713567937
13
101.0700956012
23
169.3713567937
0
SOLID
5
25C
100
AcDbEntity
8
0
100
AcDbTrace
62
2
6
CONTINUOUS
10
74.5700956012
20
169.3713567937
11
70.0700956012
21
168.5713567937
12
74.5700956012
22
167.7713567937
13
74.5700956012
23
167.7713567937
0
ENDBLK
5
25D
100
AcDbEntity
8
0
100
AcDbBlockEnd
0
BLOCK
5
25E
100
AcDbEntity
8
0
100
AcDbBlockBegin
62
2
6
CONTINUOUS
2
*D5
70
65
10
0.0000000000
20
0.0000000000
3
*D5
1

0
TEXT
5
25F
100
AcDbEntity
8
0
100
AcDbText
62
2
6
CONTINUOUS
10
202.9208398951
20
145.9530831366
7
TEXTSTYLE_1
40
3.5000000000
1
M
50
90.0000000000
41
0.9333333333
72
0
100
AcDbText
0
TEXT
5
260
100
AcDbEntity
8
0
100
AcDbText
62
2
6
CONTINUOUS
10
202.9208398951
20
151.7864164699
7
TEXTSTYLE_1
40
3.5000000000
1
X1
50
90.0000000000
41
0.5666666667
72
0
100
AcDbText
0
TEXT
5
261
100
AcDbEntity
8
0
100
AcDbText
62
2
6
CONTINUOUS
10
202.9208398951
20
149.2197498033
7
TEXTSTYLE_1
40
3.5000000000
1
7
50
90.0000000000
41
0.7333333333
72
0
100
AcDbText
0
LINE
5
262
100
AcDbEntity
8
0
100
AcDbLine
62
2
6
CONTINUOUS
10
189.5700956012
20
139.5923373621
11
206.9958398951
21
139.5923373621
0
LINE
5
263
100
AcDbEntity
8
0
100
AcDbLine
62
2
6
CONTINUOUS
10
189.5700956012
20
132.5923373621
11
206.9958398951
21
132.5923373621
0
LINE
5
264
100
AcDbEntity
8
0
100
AcDbLine
62
2
6
CONTINUOUS
10
203.7958398951
20
139.5923373621
11
203.7958398951
21
155.7530831366
0
LINE
5
265
100
AcDbEntity
8
0
100
AcDbLine
62
2
6
CONTINUOUS
10
203.7958398951
20
155.7530831366
11
203.7958398951
21
136.0923373621
0
LINE
5
266
100
AcDbEntity
8
0
100
AcDbLine
62
2
6
CONTINUOUS
10
203.7958398951
20
132.5923373621
11
203.7958398951
21
130.5923373621
0
LINE
5
267
100
AcDbEntity
8
0
100
AcDbLine
62
2
6
CONTINUOUS
10
203.7958398951
20
130.5923373621
11
203.7958398951
21
136.0923373621
0
SOLID
5
268
100
AcDbEntity
8
0
100
AcDbTrace
62
2
6
CONTINUOUS
10
202.9958398951
20
144.0923373621
11
203.7958398951
21
139.5923373621
12
204.5958398951
22
144.0923373621
13
204.5958398951
23
144.0923373621
0
SOLID
5
269
100
AcDbEntity
8
0
100
AcDbTrace
62
2
6
CONTINUOUS
10
204.5958398951
20
128.0923373621
11
203.7958398951
21
132.5923373621
12
202.9958398951
22
128.0923373621
13
202.9958398951
23
128.0923373621
0
ENDBLK
5
26A
100
AcDbEntity
8
0
100
AcDbBlockEnd
0
BLOCK
5
26B
100
AcDbEntity
8
0
100
AcDbBlockBegin
62
2
6
CONTINUOUS
2
*D6
70
65
10
0.0000000000
20
0.0000000000
3
*D6
1

0
TEXT
5
26C
100
AcDbEntity
8
0
100
AcDbText
62
2
6
CONTINUOUS
10
56.2639347465
20
145.9530831366
7
TEXTSTYLE_1
40
3.5000000000
1
M
50
90.0000000000
41
0.9333333333
72
0
100
AcDbText
0
TEXT
5
26D
100
AcDbEntity
8
0
100
AcDbText
62
2
6
CONTINUOUS
10
56.2639347465
20
151.7864164699
7
TEXTSTYLE_1
40
3.5000000000
1
x1
50
90.0000000000
41
0.5166666667
72
0
100
AcDbText
0
TEXT
5
26E
100
AcDbEntity
8
0
100
AcDbText
62
2
6
CONTINUOUS
10
56.2639347465
20
149.2197498033
7
TEXTSTYLE_1
40
3.5000000000
1
7
50
90.0000000000
41
0.7333333333
72
0
100
AcDbText
0
LINE
5
26F
100
AcDbEntity
8
0
100
AcDbLine
62
2
6
CONTINUOUS
10
68.5700956012
20
139.5923373621
11
53.9389347465
21
139.5923373621
0
LINE
5
270
100
AcDbEntity
8
0
100
AcDbLine
62
2
6
CONTINUOUS
10
68.5700956012
20
132.5923373621
11
53.9389347465
21
132.5923373621
0
LINE
5
271
100
AcDbEntity
8
0
100
AcDbLine
62
2
6
CONTINUOUS
10
57.1389347465
20
139.5923373621
11
57.1389347465
21
155.4030831366
0
LINE
5
272
100
AcDbEntity
8
0
100
AcDbLine
62
2
6
CONTINUOUS
10
57.1389347465
20
155.4030831366
11
57.1389347465
21
136.0923373621
0
LINE
5
273
100
AcDbEntity
8
0
100
AcDbLine
62
2
6
CONTINUOUS
10
57.1389347465
20
132.5923373621
11
57.1389347465
21
130.5923373621
0
LINE
5
274
100
AcDbEntity
8
0
100
AcDbLine
62
2
6
CONTINUOUS
10
57.1389347465
20
130.5923373621
11
57.1389347465
21
136.0923373621
0
SOLID
5
275
100
AcDbEntity
8
0
100
AcDbTrace
62
2
6
CONTINUOUS
10
56.3389347465
20
144.0923373621
11
57.1389347465
21
139.5923373621
12
57.9389347465
22
144.0923373621
13
57.9389347465
23
144.0923373621
0
SOLID
5
276
100
AcDbEntity
8
0
100
AcDbTrace
62
2
6
CONTINUOUS
10
57.9389347465
20
128.0923373621
11
57.1389347465
21
132.5923373621
12
56.3389347465
22
128.0923373621
13
56.3389347465
23
128.0923373621
0
ENDBLK
5
277
100
AcDbEntity
8
0
100
AcDbBlockEnd
0
BLOCK
5
278
100
AcDbEntity
8
0
100
AcDbBlockBegin
62
2
6
CONTINUOUS
2
*D7
70
65
10
0.0000000000
20
0.0000000000
3
*D7
1

0
TEXT
5
279
100
AcDbEntity
8
0
100
AcDbText
62
2
6
CONTINUOUS
10
79.3110692513
20
113.1410673592
7
TEXTSTYLE_1
40
3.5000000000
1
22
41
0.7333333333
72
0
100
AcDbText
0
LINE
5
27A
100
AcDbEntity
8
0
100
AcDbLine
62
2
6
CONTINUOUS
10
92.0700956012
20
131.0923373621
11
92.0700956012
21
109.0660673592
0
LINE
5
27B
100
AcDbEntity
8
0
100
AcDbLine
62
2
6
CONTINUOUS
10
70.0700956012
20
131.0923373621
11
70.0700956012
21
109.0660673592
0
LINE
5
27C
100
AcDbEntity
8
0
100
AcDbLine
62
2
6
CONTINUOUS
10
92.0700956012
20
112.2660673592
11
81.0700956012
21
112.2660673592
0
LINE
5
27D
100
AcDbEntity
8
0
100
AcDbLine
62
2
6
CONTINUOUS
10
70.0700956012
20
112.2660673592
11
81.0700956012
21
112.2660673592
0
SOLID
5
27E
100
AcDbEntity
8
0
100
AcDbTrace
62
2
6
CONTINUOUS
10
87.5700956012
20
111.4660673592
11
92.0700956012
21
112.2660673592
12
87.5700956012
22
113.0660673592
13
87.5700956012
23
113.0660673592
0
SOLID
5
27F
100
AcDbEntity
8
0
100
AcDbTrace
62
2
6
CONTINUOUS
10
74.5700956012
20
113.0660673592
11
70.0700956012
21
112.2660673592
12
74.5700956012
22
111.4660673592
13
74.5700956012
23
111.4660673592
0
ENDBLK
5
280
100
AcDbEntity
8
0
100
AcDbBlockEnd
0
BLOCK
5
281
100
AcDbEntity
8
0
100
AcDbBlockBegin
62
2
6
CONTINUOUS
2
*D8
70
65
10
0.0000000000
20
0.0000000000
3
*D8
1

0
TEXT
5
282
100
AcDbEntity
8
0
100
AcDbText
62
2
6
CONTINUOUS
10
79.4103593135
20
105.7216680026
7
TEXTSTYLE_1
40
3.5000000000
1
24
41
0.7666666667
72
0
100
AcDbText
0
LINE
5
283
100
AcDbEntity
8
0
100
AcDbLine
62
2
6
CONTINUOUS
10
94.0700956012
20
134.5923373621
11
94.0700956012
21
101.6466680026
0
LINE
5
284
100
AcDbEntity
8
0
100
AcDbLine
62
2
6
CONTINUOUS
10
70.0700956012
20
131.0923373621
11
70.0700956012
21
101.6466680026
0
LINE
5
285
100
AcDbEntity
8
0
100
AcDbLine
62
2
6
CONTINUOUS
10
94.0700956012
20
104.8466680026
11
82.0700956012
21
104.8466680026
0
LINE
5
286
100
AcDbEntity
8
0
100
AcDbLine
62
2
6
CONTINUOUS
10
70.0700956012
20
104.8466680026
11
82.0700956012
21
104.8466680026
0
SOLID
5
287
100
AcDbEntity
8
0
100
AcDbTrace
62
2
6
CONTINUOUS
10
89.5700956012
20
104.0466680026
11
94.0700956012
21
104.8466680026
12
89.5700956012
22
105.6466680026
13
89.5700956012
23
105.6466680026
0
SOLID
5
288
100
AcDbEntity
8
0
100
AcDbTrace
62
2
6
CONTINUOUS
10
74.5700956012
20
105.6466680026
11
70.0700956012
21
104.8466680026
12
74.5700956012
22
104.0466680026
13
74.5700956012
23
104.0466680026
0
ENDBLK
5
289
100
AcDbEntity
8
0
100
AcDbBlockEnd
0
BLOCK
5
28A
100
AcDbEntity
8
0
100
AcDbBlockBegin
62
2
6
CONTINUOUS
2
*D9
70
65
10
0.0000000000
20
0.0000000000
3
*D9
1

0
TEXT
5
28B
100
AcDbEntity
8
0
100
AcDbText
62
2
6
CONTINUOUS
10
174.7064313813
20
113.1410673592
7
TEXTSTYLE_1
40
3.5000000000
1
22
41
0.7333333333
72
0
100
AcDbText
0
LINE
5
28C
100
AcDbEntity
8
0
100
AcDbLine
62
2
6
CONTINUOUS
10
166.0700956012
20
131.0923373621
11
166.0700956012
21
109.0660673592
0
LINE
5
28D
100
AcDbEntity
8
0
100
AcDbLine
62
2
6
CONTINUOUS
10
188.0700956012
20
131.0923373621
11
188.0700956012
21
109.0660673592
0
LINE
5
28E
100
AcDbEntity
8
0
100
AcDbLine
62
2
6
CONTINUOUS
10
166.0700956012
20
112.2660673592
11
177.0700956012
21
112.2660673592
0
LINE
5
28F
100
AcDbEntity
8
0
100
AcDbLine
62
2
6
CONTINUOUS
10
188.0700956012
20
112.2660673592
11
177.0700956012
21
112.2660673592
0
SOLID
5
290
100
AcDbEntity
8
0
100
AcDbTrace
62
2
6
CONTINUOUS
10
170.5700956012
20
113.0660673592
11
166.0700956012
21
112.2660673592
12
170.5700956012
22
111.4660673592
13
170.5700956012
23
111.4660673592
0
SOLID
5
291
100
AcDbEntity
8
0
100
AcDbTrace
62
2
6
CONTINUOUS
10
183.5700956012
20
111.4660673592
11
188.0700956012
21
112.2660673592
12
183.5700956012
22
113.0660673592
13
183.5700956012
23
113.0660673592
0
ENDBLK
5
292
100
AcDbEntity
8
0
100
AcDbBlockEnd
0
BLOCK
5
293
100
AcDbEntity
8
0
100
AcDbBlockBegin
62
2
6
CONTINUOUS
2
*D10
70
65
10
0.0000000000
20
0.0000000000
3
*D10
1

0
TEXT
5
294
100
AcDbEntity
8
0
100
AcDbText
62
2
6
CONTINUOUS
10
173.6845700337
20
105.7216680026
7
TEXTSTYLE_1
40
3.5000000000
1
24
41
0.7666666667
72
0
100
AcDbText
0
LINE
5
295
100
AcDbEntity
8
0
100
AcDbLine
62
2
6
CONTINUOUS
10
164.0700956012
20
134.5923373621
11
164.0700956012
21
101.6466680026
0
LINE
5
296
100
AcDbEntity
8
0
100
AcDbLine
62
2
6
CONTINUOUS
10
188.0700956012
20
131.0915080762
11
188.0700956012
21
101.6466680026
0
LINE
5
297
100
AcDbEntity
8
0
100
AcDbLine
62
2
6
CONTINUOUS
10
164.0700956012
20
104.8466680026
11
176.0700956012
21
104.8466680026
0
LINE
5
298
100
AcDbEntity
8
0
100
AcDbLine
62
2
6
CONTINUOUS
10
188.0700956012
20
104.8466680026
11
176.0700956012
21
104.8466680026
0
SOLID
5
299
100
AcDbEntity
8
0
100
AcDbTrace
62
2
6
CONTINUOUS
10
168.5700956012
20
105.6466680026
11
164.0700956012
21
104.8466680026
12
168.5700956012
22
104.0466680026
13
168.5700956012
23
104.0466680026
0
SOLID
5
29A
100
AcDbEntity
8
0
100
AcDbTrace
62
2
6
CONTINUOUS
10
183.5700956012
20
104.0466680026
11
188.0700956012
21
104.8466680026
12
183.5700956012
22
105.6466680026
13
183.5700956012
23
105.6466680026
0
ENDBLK
5
29B
100
AcDbEntity
8
0
100
AcDbBlockEnd
0
BLOCK
5
29C
100
AcDbEntity
8
0
100
AcDbBlockBegin
62
2
6
CONTINUOUS
2
*D11
70
65
10
0.0000000000
20
0.0000000000
3
*D11
1

0
TEXT
5
29D
100
AcDbEntity
8
0
100
AcDbText
62
2
6
CONTINUOUS
10
117.0647546476
20
114.0309199945
7
TEXTSTYLE_1
40
3.5000000000
1
%%c
50
90.0000000000
41
1.3333333333
72
0
100
AcDbText
0
TEXT
5
29E
100
AcDbEntity
8
0
100
AcDbText
62
2
6
CONTINUOUS
10
117.0647546476
20
118.6975866612
7
TEXTSTYLE_1
40
3.5000000000
1
9,5
50
90.0000000000
41
0.5944444444
72
0
100
AcDbText
0
LINE
5
29F
100
AcDbEntity
8
0
100
AcDbLine
62
2
6
CONTINUOUS
10
112.0700956012
20
140.8423373621
11
121.1397546476
21
140.8423373621
0
LINE
5
2A0
100
AcDbEntity
8
0
100
AcDbLine
62
2
6
CONTINUOUS
10
112.0700956012
20
131.3423373621
11
121.1397546476
21
131.3423373621
0
LINE
5
2A1
100
AcDbEntity
8
0
100
AcDbLine
62
2
6
CONTINUOUS
10
117.9397546476
20
140.8423373621
11
117.9397546476
21
142.8423373621
0
LINE
5
2A2
100
AcDbEntity
8
0
100
AcDbLine
62
2
6
CONTINUOUS
10
117.9397546476
20
142.8423373621
11
117.9397546476
21
136.0923373621
0
LINE
5
2A3
100
AcDbEntity
8
0
100
AcDbLine
62
2
6
CONTINUOUS
10
117.9397546476
20
131.3423373621
11
117.9397546476
21
114.0309199945
0
LINE
5
2A4
100
AcDbEntity
8
0
100
AcDbLine
62
2
6
CONTINUOUS
10
117.9397546476
20
114.0309199945
11
117.9397546476
21
136.0923373621
0
SOLID
5
2A5
100
AcDbEntity
8
0
100
AcDbTrace
62
2
6
CONTINUOUS
10
117.1397546476
20
145.3423373621
11
117.9397546476
21
140.8423373621
12
118.7397546476
22
145.3423373621
13
118.7397546476
23
145.3423373621
0
SOLID
5
2A6
100
AcDbEntity
8
0
100
AcDbTrace
62
2
6
CONTINUOUS
10
118.7397546476
20
126.8423373621
11
117.9397546476
21
131.3423373621
12
117.1397546476
22
126.8423373621
13
117.1397546476
23
126.8423373621
0
ENDBLK
5
2A7
100
AcDbEntity
8
0
100
AcDbBlockEnd
0
BLOCK
5
2A8
100
AcDbEntity
8
0
100
AcDbBlockBegin
62
2
6
CONTINUOUS
2
*D12
70
65
10
0.0000000000
20
0.0000000000
3
*D12
1

0
TEXT
5
2A9
100
AcDbEntity
8
0
100
AcDbText
62
2
6
CONTINUOUS
10
140.3741250695
20
114.7566246936
7
TEXTSTYLE_1
40
3.5000000000
1
%%c
50
90.0000000000
41
1.3333333333
72
0
100
AcDbText
0
TEXT
5
2AA
100
AcDbEntity
8
0
100
AcDbText
62
2
6
CONTINUOUS
10
140.3741250695
20
119.4232913603
7
TEXTSTYLE_1
40
3.5000000000
1
9,5
50
90.0000000000
41
0.5944444444
72
0
100
AcDbText
0
LINE
5
2AB
100
AcDbEntity
8
0
100
AcDbLine
62
2
6
CONTINUOUS
10
146.0700956012
20
140.8423373621
11
138.0491250695
21
140.8423373621
0
LINE
5
2AC
100
AcDbEntity
8
0
100
AcDbLine
62
2
6
CONTINUOUS
10
146.0700956012
20
131.3423373621
11
138.0491250695
21
131.3423373621
0
LINE
5
2AD
100
AcDbEntity
8
0
100
AcDbLine
62
2
6
CONTINUOUS
10
141.2491250695
20
140.8423373621
11
141.2491250695
21
142.8423373621
0
LINE
5
2AE
100
AcDbEntity
8
0
100
AcDbLine
62
2
6
CONTINUOUS
10
141.2491250695
20
142.8423373621
11
141.2491250695
21
136.0923373621
0
LINE
5
2AF
100
AcDbEntity
8
0
100
AcDbLine
62
2
6
CONTINUOUS
10
141.2491250695
20
131.3423373621
11
141.2491250695
21
114.7566246936
0
LINE
5
2B0
100
AcDbEntity
8
0
100
AcDbLine
62
2
6
CONTINUOUS
10
141.2491250695
20
114.7566246936
11
141.2491250695
21
136.0923373621
0
SOLID
5
2B1
100
AcDbEntity
8
0
100
AcDbTrace
62
2
6
CONTINUOUS
10
140.4491250695
20
145.3423373621
11
141.2491250695
21
140.8423373621
12
142.0491250695
22
145.3423373621
13
142.0491250695
23
145.3423373621
0
SOLID
5
2B2
100
AcDbEntity
8
0
100
AcDbTrace
62
2
6
CONTINUOUS
10
142.0491250695
20
126.8423373621
11
141.2491250695
21
131.3423373621
12
140.4491250695
22
126.8423373621
13
140.4491250695
23
126.8423373621
0
ENDBLK
5
2B3
100
AcDbEntity
8
0
100
AcDbBlockEnd
0
BLOCK
5
2B4
100
AcDbEntity
8
0
100
AcDbBlockBegin
62
2
6
CONTINUOUS
2
*D13
70
65
10
0.0000000000
20
0.0000000000
3
*D13
1

0
TEXT
5
2B5
100
AcDbEntity
8
0
100
AcDbText
62
2
6
CONTINUOUS
10
43.7170186546
20
160.3747309411
7
TEXTSTYLE_1
40
3.5000000000
1
CH0,2x
41
0.6805555556
72
0
100
AcDbText
0
TEXT
5
2B6
100
AcDbEntity
8
0
100
AcDbText
62
2
6
CONTINUOUS
10
58.0086853212
20
160.3747309411
7
TEXTSTYLE_1
40
3.5000000000
1
0,2
41
0.5944444444
72
0
100
AcDbText
0
LINE
5
2B7
100
AcDbEntity
8
0
100
AcDbLine
62
2
6
CONTINUOUS
10
70.0700956012
20
142.3923373621
11
70.0700956012
21
162.6997309411
0
LINE
5
2B8
100
AcDbEntity
8
0
100
AcDbLine
62
2
6
CONTINUOUS
10
70.2700956012
20
142.5923373621
11
70.2700956012
21
162.6997309411
0
LINE
5
2B9
100
AcDbEntity
8
0
100
AcDbLine
62
2
6
CONTINUOUS
10
70.0700956012
20
159.4997309411
11
43.7170186546
21
159.4997309411
0
LINE
5
2BA
100
AcDbEntity
8
0
100
AcDbLine
62
2
6
CONTINUOUS
10
43.7170186546
20
159.4997309411
11
70.1700956012
21
159.4997309411
0
LINE
5
2BB
100
AcDbEntity
8
0
100
AcDbLine
62
2
6
CONTINUOUS
10
70.2700956012
20
159.4997309411
11
72.2700956012
21
159.4997309411
0
LINE
5
2BC
100
AcDbEntity
8
0
100
AcDbLine
62
2
6
CONTINUOUS
10
72.2700956012
20
159.4997309411
11
70.1700956012
21
159.4997309411
0
SOLID
5
2BD
100
AcDbEntity
8
0
100
AcDbTrace
62
2
6
CONTINUOUS
10
65.5700956012
20
158.6997309411
11
70.0700956012
21
159.4997309411
12
65.5700956012
22
160.2997309411
13
65.5700956012
23
160.2997309411
0
SOLID
5
2BE
100
AcDbEntity
8
0
100
AcDbTrace
62
2
6
CONTINUOUS
10
74.7700956012
20
160.2997309411
11
70.2700956012
21
159.4997309411
12
74.7700956012
22
158.6997309411
13
74.7700956012
23
158.6997309411
0
ENDBLK
5
2BF
100
AcDbEntity
8
0
100
AcDbBlockEnd
0
BLOCK
5
2C0
100
AcDbEntity
8
0
100
AcDbBlockBegin
62
2
6
CONTINUOUS
2
*D14
70
65
10
0.0000000000
20
0.0000000000
3
*D14
1

0
TEXT
5
2C1
100
AcDbEntity
8
0
100
AcDbText
62
2
6
CONTINUOUS
10
194.3267303680
20
160.3747309411
7
TEXTSTYLE_1
40
3.5000000000
1
CH0,2x
41
0.6805555556
72
0
100
AcDbText
0
TEXT
5
2C2
100
AcDbEntity
8
0
100
AcDbText
62
2
6
CONTINUOUS
10
208.6183970347
20
160.3747309411
7
TEXTSTYLE_1
40
3.5000000000
1
0,2
41
0.5944444444
72
0
100
AcDbText
0
LINE
5
2C3
100
AcDbEntity
8
0
100
AcDbLine
62
2
6
CONTINUOUS
10
188.0700956012
20
142.3923373621
11
188.0700956012
21
162.6997309411
0
LINE
5
2C4
100
AcDbEntity
8
0
100
AcDbLine
62
2
6
CONTINUOUS
10
187.8700956012
20
142.5923373621
11
187.8700956012
21
162.6997309411
0
LINE
5
2C5
100
AcDbEntity
8
0
100
AcDbLine
62
2
6
CONTINUOUS
10
188.0700956012
20
159.4997309411
11
214.8600637013
21
159.4997309411
0
LINE
5
2C6
100
AcDbEntity
8
0
100
AcDbLine
62
2
6
CONTINUOUS
10
214.8600637013
20
159.4997309411
11
187.9700956012
21
159.4997309411
0
LINE
5
2C7
100
AcDbEntity
8
0
100
AcDbLine
62
2
6
CONTINUOUS
10
187.8700956012
20
159.4997309411
11
185.8700956012
21
159.4997309411
0
LINE
5
2C8
100
AcDbEntity
8
0
100
AcDbLine
62
2
6
CONTINUOUS
10
185.8700956012
20
159.4997309411
11
187.9700956012
21
159.4997309411
0
SOLID
5
2C9
100
AcDbEntity
8
0
100
AcDbTrace
62
2
6
CONTINUOUS
10
192.5700956012
20
160.2997309411
11
188.0700956012
21
159.4997309411
12
192.5700956012
22
158.6997309411
13
192.5700956012
23
158.6997309411
0
SOLID
5
2CA
100
AcDbEntity
8
0
100
AcDbTrace
62
2
6
CONTINUOUS
10
183.3700956012
20
158.6997309411
11
187.8700956012
21
159.4997309411
12
183.3700956012
22
160.2997309411
13
183.3700956012
23
160.2997309411
0
ENDBLK
5
2CB
100
AcDbEntity
8
0
100
AcDbBlockEnd
0
BLOCK
5
2CC
100
AcDbEntity
8
0
100
AcDbBlockBegin
62
2
6
CONTINUOUS
2
*D15
70
65
10
0.0000000000
20
0.0000000000
3
*D15
1

0
TEXT
5
2CD
100
AcDbEntity
8
0
100
AcDbText
62
2
6
CONTINUOUS
10
43.7796614315
20
120.6696174313
7
TEXTSTYLE_1
40
3.5000000000
1
CH0,5x
41
0.6805555556
72
0
100
AcDbText
0
TEXT
5
2CE
100
AcDbEntity
8
0
100
AcDbText
62
2
6
CONTINUOUS
10
58.0713280982
20
120.6696174313
7
TEXTSTYLE_1
40
3.5000000000
1
0,5
41
0.5944444444
72
0
100
AcDbText
0
LINE
5
2CF
100
AcDbEntity
8
0
100
AcDbLine
62
2
6
CONTINUOUS
10
70.0700956012
20
134.5923373621
11
70.0700956012
21
116.5946174313
0
LINE
5
2D0
100
AcDbEntity
8
0
100
AcDbLine
62
2
6
CONTINUOUS
10
70.5700956012
20
134.5923373621
11
70.5700956012
21
116.5946174313
0
LINE
5
2D1
100
AcDbEntity
8
0
100
AcDbLine
62
2
6
CONTINUOUS
10
70.0700956012
20
119.7946174313
11
43.7796614315
21
119.7946174313
0
LINE
5
2D2
100
AcDbEntity
8
0
100
AcDbLine
62
2
6
CONTINUOUS
10
43.7796614315
20
119.7946174313
11
70.3200956012
21
119.7946174313
0
LINE
5
2D3
100
AcDbEntity
8
0
100
AcDbLine
62
2
6
CONTINUOUS
10
70.5700956012
20
119.7946174313
11
72.5700956012
21
119.7946174313
0
LINE
5
2D4
100
AcDbEntity
8
0
100
AcDbLine
62
2
6
CONTINUOUS
10
72.5700956012
20
119.7946174313
11
70.3200956012
21
119.7946174313
0
SOLID
5
2D5
100
AcDbEntity
8
0
100
AcDbTrace
62
2
6
CONTINUOUS
10
65.5700956012
20
118.9946174313
11
70.0700956012
21
119.7946174313
12
65.5700956012
22
120.5946174313
13
65.5700956012
23
120.5946174313
0
SOLID
5
2D6
100
AcDbEntity
8
0
100
AcDbTrace
62
2
6
CONTINUOUS
10
75.0700956012
20
120.5946174313
11
70.5700956012
21
119.7946174313
12
75.0700956012
22
118.9946174313
13
75.0700956012
23
118.9946174313
0
ENDBLK
5
2D7
100
AcDbEntity
8
0
100
AcDbBlockEnd
0
BLOCK
5
2D8
100
AcDbEntity
8
0
100
AcDbBlockBegin
62
2
6
CONTINUOUS
2
*D16
70
65
10
0.0000000000
20
0.0000000000
3
*D16
1

0
TEXT
5
2D9
100
AcDbEntity
8
0
100
AcDbText
62
2
6
CONTINUOUS
10
194.0340475126
20
120.6696174313
7
TEXTSTYLE_1
40
3.5000000000
1
CH0,5x
41
0.6805555556
72
0
100
AcDbText
0
TEXT
5
2DA
100
AcDbEntity
8
0
100
AcDbText
62
2
6
CONTINUOUS
10
208.3257141793
20
120.6696174313
7
TEXTSTYLE_1
40
3.5000000000
1
0,5
41
0.5944444444
72
0
100
AcDbText
0
LINE
5
2DB
100
AcDbEntity
8
0
100
AcDbLine
62
2
6
CONTINUOUS
10
187.5700956012
20
131.5923373621
11
187.5700956012
21
116.5946174313
0
LINE
5
2DC
100
AcDbEntity
8
0
100
AcDbLine
62
2
6
CONTINUOUS
10
188.0700956012
20
131.0923373621
11
188.0700956012
21
116.5946174313
0
LINE
5
2DD
100
AcDbEntity
8
0
100
AcDbLine
62
2
6
CONTINUOUS
10
187.5700956012
20
119.7946174313
11
185.5700956012
21
119.7946174313
0
LINE
5
2DE
100
AcDbEntity
8
0
100
AcDbLine
62
2
6
CONTINUOUS
10
185.5700956012
20
119.7946174313
11
187.8200956012
21
119.7946174313
0
LINE
5
2DF
100
AcDbEntity
8
0
100
AcDbLine
62
2
6
CONTINUOUS
10
188.0700956012
20
119.7946174313
11
214.5673808459
21
119.7946174313
0
LINE
5
2E0
100
AcDbEntity
8
0
100
AcDbLine
62
2
6
CONTINUOUS
10
214.5673808459
20
119.7946174313
11
187.8200956012
21
119.7946174313
0
SOLID
5
2E1
100
AcDbEntity
8
0
100
AcDbTrace
62
2
6
CONTINUOUS
10
183.0700956012
20
118.9946174313
11
187.5700956012
21
119.7946174313
12
183.0700956012
22
120.5946174313
13
183.0700956012
23
120.5946174313
0
SOLID
5
2E2
100
AcDbEntity
8
0
100
AcDbTrace
62
2
6
CONTINUOUS
10
192.5700956012
20
120.5946174313
11
188.0700956012
21
119.7946174313
12
192.5700956012
22
118.9946174313
13
192.5700956012
23
118.9946174313
0
ENDBLK
5
2E3
100
AcDbEntity
8
0
100
AcDbBlockEnd
0
BLOCK
5
2E4
100
AcDbEntity
8
0
100
AcDbBlockBegin
62
2
6
CONTINUOUS
2
N-CAR_BL2
70
64
10
0.0000000000
20
0.0000000000
3
N-CAR_BL2
1

0
TEXT
5
2E5
100
AcDbEntity
8
0
100
AcDbText
62
2
6
CONTINUOUS
10
149.2023453534
20
39.9051003588
7
STANDARD
40
2.9999987760
1
3,2
41
0.5000000000
72
0
100
AcDbText
0
TEXT
5
2E6
100
AcDbEntity
8
0
100
AcDbText
62
2
6
CONTINUOUS
10
164.2269432889
20
39.8830543078
7
STANDARD
40
2.9999987760
1
.
41
0.5000000000
72
0
100
AcDbText
0
TEXT
5
2E7
100
AcDbEntity
8
0
100
AcDbText
62
2
6
CONTINUOUS
10
174.2250027223
20
39.8657558038
7
STANDARD
40
2.9999987760
1
.
41
0.5000000000
72
0
100
AcDbText
0
TEXT
5
2E8
100
AcDbEntity
8
0
100
AcDbText
62
2
6
CONTINUOUS
10
184.2734138058
20
39.8915987568
7
STANDARD
40
2.9999987760
1
.
41
0.5000000000
72
0
100
AcDbText
0
LINE
5
2E9
100
AcDbEntity
8
0
100
AcDbLine
62
7
6
CONTINUOUS
10
194.3485535093
20
42.7482954548
11
196.3562382868
21
42.7482954548
0
LINE
5
2EA
100
AcDbEntity
8
0
100
AcDbLine
62
7
6
CONTINUOUS
10
196.3562382868
20
42.7482954548
11
196.3562382868
21
32.7482995348
0
LINE
5
2EB
100
AcDbEntity
8
0
100
AcDbLine
62
7
6
CONTINUOUS
10
194.3485535093
20
32.7482995348
11
196.3562382868
21
32.7482995348
0
LINE
5
2EC
100
AcDbEntity
8
0
100
AcDbLine
62
7
6
CONTINUOUS
10
193.9408240038
20
40.9136143964
11
190.9068432665
21
40.9136143964
0
LINE
5
2ED
100
AcDbEntity
8
0
100
AcDbLine
62
7
6
CONTINUOUS
10
190.9068432665
20
40.9136143964
11
188.5409623407
21
33.8159716191
0
LINE
5
2EE
100
AcDbEntity
8
0
100
AcDbLine
62
7
6
CONTINUOUS
10
188.5409623407
20
33.8159716191
11
186.1989421225
21
38.9258339134
0
LINE
5
2EF
100
AcDbEntity
8
0
100
AcDbLine
62
7
6
CONTINUOUS
10
173.9408321638
20
40.9136143964
11
170.9068514265
21
40.9136143964
0
LINE
5
2F0
100
AcDbEntity
8
0
100
AcDbLine
62
7
6
CONTINUOUS
10
170.9068514265
20
40.9136143964
11
168.5409705007
21
33.8159716191
0
LINE
5
2F1
100
AcDbEntity
8
0
100
AcDbLine
62
7
6
CONTINUOUS
10
168.5409705007
20
33.8159716191
11
166.1989502825
21
38.9258339134
0
LINE
5
2F2
100
AcDbEntity
8
0
100
AcDbLine
62
7
6
CONTINUOUS
10
183.9408280838
20
40.9136143964
11
180.9068473465
21
40.9136143964
0
LINE
5
2F3
100
AcDbEntity
8
0
100
AcDbLine
62
7
6
CONTINUOUS
10
180.9068473465
20
40.9136143964
11
178.5409664207
21
33.8159716191
0
LINE
5
2F4
100
AcDbEntity
8
0
100
AcDbLine
62
7
6
CONTINUOUS
10
178.5409664207
20
33.8159716191
11
176.1989462025
21
38.9258339134
0
LINE
5
2F5
100
AcDbEntity
8
0
100
AcDbLine
62
7
6
CONTINUOUS
10
161.3562525668
20
42.7482954548
11
163.7519201010
21
42.7482954548
0
LINE
5
2F6
100
AcDbEntity
8
0
100
AcDbLine
62
7
6
CONTINUOUS
10
161.3562525668
20
42.7482954548
11
161.3562525668
21
32.7482995348
0
LINE
5
2F7
100
AcDbEntity
8
0
100
AcDbLine
62
7
6
CONTINUOUS
10
161.3562525668
20
32.7482995348
11
163.7519201010
21
32.7482995348
0
LINE
5
2F8
100
AcDbEntity
8
0
100
AcDbLine
62
7
6
CONTINUOUS
10
158.9408382838
20
40.9136143964
11
155.9068575465
21
40.9136143964
0
LINE
5
2F9
100
AcDbEntity
8
0
100
AcDbLine
62
7
6
CONTINUOUS
10
155.9068575465
20
40.9136143964
11
153.5409766207
21
33.8159716191
0
LINE
5
2FA
100
AcDbEntity
8
0
100
AcDbLine
62
7
6
CONTINUOUS
10
153.5409766207
20
33.8159716191
11
151.1989564024
21
38.9258339134
0
ARC
5
2FB
100
AcDbEntity
8
0
100
AcDbCircle
62
7
6
CONTINUOUS
10
146.0087948950
20
38.6249328487
40
2.4999989800
100
AcDbArc
50
177.5591686478
51
2.4408313522
0
ARC
5
2FC
100
AcDbEntity
8
0
100
AcDbCircle
62
7
6
CONTINUOUS
10
141.0087969350
20
38.6249328487
40
2.4999989800
100
AcDbArc
50
0.0000000000
51
177.5591686478
0
ENDBLK
5
2FD
100
AcDbEntity
8
0
100
AcDbBlockEnd
0
ENDSEC
0
SECTION
2
ENTITIES
0
TEXT
5
2FE
100
AcDbEntity
8
0
100
AcDbText
62
2
6
CONTINUOUS
10
289.9260027481
20
9.9313254789
7
STANDARD
40
2.0000000000
1
22/96a
41
0.8000000000
72
0
100
AcDbText
0
INSERT
5
2FF
100
AcDbEntity
8
0
100
AcDbBlockReference
62
2
6
CONTINUOUS
2
N-DES_BL0
10
0.0000000000
20
0.0000000000
0
INSERT
5
300
100
AcDbEntity
8
0
100
AcDbBlockReference
62
2
6
CONTINUOUS
2
N-CART_BL1
10
0.0000000000
20
0.0000000000
0
SOLID
5
301
100
AcDbEntity
8
0
100
AcDbTrace
62
7
6
CONTINUOUS
10
255.4545943482
20
115.6481151814
11
260.4545943482
21
116.8981151814
12
260.4545943482
22
114.3981151814
13
260.4545943482
23
114.3981151814
0
TEXT
5
302
100
AcDbEntity
8
0
100
AcDbText
62
7
6
CONTINUOUS
10
266.1045943482
20
110.3981151814
7
TEXTSTYLE_1
40
3.5000000000
1
A
41
0.8000000000
72
0
100
AcDbText
0
SOLID
5
303
100
AcDbEntity
8
0
100
AcDbTrace
62
7
6
CONTINUOUS
10
255.4545943482
20
156.5365595428
11
260.4545943482
21
157.7865595428
12
260.4545943482
22
155.2865595428
13
260.4545943482
23
155.2865595428
0
TEXT
5
304
100
AcDbEntity
8
0
100
AcDbText
62
7
6
CONTINUOUS
10
266.1045943482
20
158.2865595428
7
TEXTSTYLE_1
40
3.5000000000
1
A
41
0.8000000000
72
0
100
AcDbText
0
DIMENSION
5
305
100
AcDbEntity
8
0
100
AcDbDimension
62
2
6
CONTINUOUS
2
*D0
10
188.0700956012
20
176.8365615065
11
128.2883904714
21
179.4615615064
70
160
3
DIMSTYLE_1
100
AcDbAlignedDimension
13
70.0700956012
23
142.3923373621
14
188.0700956012
24
142.3923373621
100
AcDbRotatedDimension
0
DIMENSION
5
306
100
AcDbEntity
8
0
100
AcDbDimension
62
2
6
CONTINUOUS
2
*D1
10
152.5700956012
20
168.5713567937
11
170.2542040451
21
171.1963567937
70
160
3
DIMSTYLE_1
100
AcDbAlignedDimension
13
188.0700956012
23
141.0923373621
14
152.5700956012
24
142.5923373621
50
180.000000
100
AcDbRotatedDimension
0
DIMENSION
5
307
100
AcDbEntity
8
0
100
AcDbDimension
62
2
6
CONTINUOUS
2
*D2
10
147.5700956012
20
168.5713567937
11
139.6846121630
21
171.1963567937
70
160
3
DIMSTYLE_1
100
AcDbAlignedDimension
13
152.5700956012
23
142.5923373621
14
147.5700956012
24
142.5923373621
50
180.000000
100
AcDbRotatedDimension
0
DIMENSION
5
308
100
AcDbEntity
8
0
100
AcDbDimension
62
2
6
CONTINUOUS
2
*D3
10
105.5700956012
20
168.5713567937
11
118.0224866166
21
171.1963567937
70
160
3
DIMSTYLE_1
100
AcDbAlignedDimension
13
110.5700956012
23
142.5923373621
14
105.5700956012
24
142.5923373621
50
180.000000
100
AcDbRotatedDimension
0
DIMENSION
5
309
100
AcDbEntity
8
0
100
AcDbDimension
62
2
6
CONTINUOUS
2
*D4
10
70.0700956012
20
168.5713567937
11
88.8220893120
21
171.1963567937
70
160
3
DIMSTYLE_1
100
AcDbAlignedDimension
13
105.5700956012
23
142.5923373621
14
70.0700956012
24
142.3923373621
50
180.000000
100
AcDbRotatedDimension
0
DIMENSION
5
30A
100
AcDbEntity
8
0
100
AcDbDimension
62
2
6
CONTINUOUS
2
*D5
10
203.7958398951
20
132.5923373621
11
201.1708398951
21
150.8530831366
70
160
1
M<>X1
3
DIMSTYLE_1
100
AcDbAlignedDimension
13
189.5700956012
23
139.5923373621
14
189.5700956012
24
132.5923373621
50
270.000000
100
AcDbRotatedDimension
0
DIMENSION
5
30B
100
AcDbEntity
8
0
100
AcDbDimension
62
2
6
CONTINUOUS
2
*D6
10
57.1389347465
20
132.5923373621
11
54.5139347465
21
150.6780831366
70
160
1
M<>x1
3
DIMSTYLE_1
100
AcDbAlignedDimension
13
68.5700956012
23
139.5923373621
14
68.5700956012
24
132.5923373621
50
270.000000
100
AcDbRotatedDimension
0
DIMENSION
5
30C
100
AcDbEntity
8
0
100
AcDbDimension
62
2
6
CONTINUOUS
2
*D7
10
70.0700956012
20
112.2660673592
11
81.8777359179
21
114.8910673592
70
160
3
DIMSTYLE_1
100
AcDbAlignedDimension
13
92.0700956012
23
131.0923373621
14
70.0700956012
24
131.0923373621
50
180.000000
100
AcDbRotatedDimension
0
DIMENSION
5
30D
100
AcDbEntity
8
0
100
AcDbDimension
62
2
6
CONTINUOUS
2
*D8
10
70.0700956012
20
104.8466680026
11
82.0936926468
21
107.4716680026
70
160
3
DIMSTYLE_1
100
AcDbAlignedDimension
13
94.0700956012
23
134.5923373621
14
70.0700956012
24
131.0923373621
50
180.000000
100
AcDbRotatedDimension
0
DIMENSION
5
30E
100
AcDbEntity
8
0
100
AcDbDimension
62
2
6
CONTINUOUS
2
*D9
10
188.0700956012
20
112.2660673592
11
177.2730980479
21
114.8910673592
70
160
3
DIMSTYLE_1
100
AcDbAlignedDimension
13
166.0700956012
23
131.0923373621
14
188.0700956012
24
131.0923373621
100
AcDbRotatedDimension
0
DIMENSION
5
30F
100
AcDbEntity
8
0
100
AcDbDimension
62
2
6
CONTINUOUS
2
*D10
10
188.0700956012
20
104.8466680026
11
176.3679033670
21
107.4716680026
70
160
3
DIMSTYLE_1
100
AcDbAlignedDimension
13
164.0700956012
23
134.5923373621
14
188.0700956012
24
131.0915080762
100
AcDbRotatedDimension
0
DIMENSION
5
310
100
AcDbEntity
8
0
100
AcDbDimension
62
2
6
CONTINUOUS
2
*D11
10
117.9397546476
20
131.3423373621
11
115.3147546476
21
119.4850866612
70
160
1
%%c<>
3
DIMSTYLE_1
100
AcDbAlignedDimension
13
112.0700956012
23
140.8423373621
14
112.0700956012
24
131.3423373621
50
270.000000
100
AcDbRotatedDimension
0
DIMENSION
5
311
100
AcDbEntity
8
0
100
AcDbDimension
62
2
6
CONTINUOUS
2
*D12
10
141.2491250695
20
131.3423373621
11
138.6241250695
21
120.2107913603
70
160
1
%%c<>
3
DIMSTYLE_1
100
AcDbAlignedDimension
13
146.0700956012
23
140.8423373621
14
146.0700956012
24
131.3423373621
50
270.000000
100
AcDbRotatedDimension
0
DIMENSION
5
312
100
AcDbEntity
8
0
100
AcDbDimension
62
2
6
CONTINUOUS
2
*D13
10
70.2700956012
20
159.4997309411
11
53.9836853212
21
162.1247309411
70
160
1
CH0,2x<>
3
DIMSTYLE_1
100
AcDbAlignedDimension
13
70.0700956012
23
142.3923373621
14
70.2700956012
24
142.5923373621
100
AcDbRotatedDimension
0
DIMENSION
5
313
100
AcDbEntity
8
0
100
AcDbDimension
62
2
6
CONTINUOUS
2
*D14
10
187.8700956012
20
159.4997309411
11
204.5933970347
21
162.1247309411
70
160
1
CH0,2x<>
3
DIMSTYLE_1
100
AcDbAlignedDimension
13
188.0700956012
23
142.3923373621
14
187.8700956012
24
142.5923373621
50
180.000000
100
AcDbRotatedDimension
0
DIMENSION
5
314
100
AcDbEntity
8
0
100
AcDbDimension
62
2
6
CONTINUOUS
2
*D15
10
70.5700956012
20
119.7946174313
11
54.0463280982
21
122.4196174313
70
160
1
CH0,5x<>
3
DIMSTYLE_1
100
AcDbAlignedDimension
13
70.0700956012
23
134.5923373621
14
70.5700956012
24
134.5923373621
100
AcDbRotatedDimension
0
DIMENSION
5
315
100
AcDbEntity
8
0
100
AcDbDimension
62
2
6
CONTINUOUS
2
*D16
10
188.0700956012
20
119.7946174313
11
204.3007141793
21
122.4196174313
70
160
1
CH0,5x<>
3
DIMSTYLE_1
100
AcDbAlignedDimension
13
187.5700956012
23
131.5923373621
14
188.0700956012
24
131.0923373621
100
AcDbRotatedDimension
0
LINE
5
316
100
AcDbEntity
8
0
100
AcDbLine
62
2
6
CONTINUOUS
10
133.0031754241
20
76.9983765268
11
299.0031754241
21
76.9983765268
0
LINE
5
317
100
AcDbEntity
8
0
100
AcDbLine
62
2
6
CONTINUOUS
10
133.0031754241
20
76.9983765268
11
133.0031754241
21
12.9983765268
0
LINE
5
318
100
AcDbEntity
8
0
100
AcDbLine
62
2
6
CONTINUOUS
10
133.0031754241
20
72.4983765268
11
299.0031754241
21
72.4983765268
0
LINE
5
319
100
AcDbEntity
8
0
100
AcDbLine
62
2
6
CONTINUOUS
10
133.0031754241
20
67.9983765268
11
299.0031754241
21
67.9983765268
0
LINE
5
31A
100
AcDbEntity
8
0
100
AcDbLine
62
2
6
CONTINUOUS
10
133.0031754241
20
63.4983765268
11
299.0031754241
21
63.4983765268
0
LINE
5
31B
100
AcDbEntity
8
0
100
AcDbLine
62
2
6
CONTINUOUS
10
133.0031754241
20
58.9983765268
11
299.0031754241
21
58.9983765268
0
LINE
5
31C
100
AcDbEntity
8
0
100
AcDbLine
62
2
6
CONTINUOUS
10
133.0031754241
20
54.4983765268
11
299.0031754241
21
54.4983765268
0
LINE
5
31D
100
AcDbEntity
8
0
100
AcDbLine
62
2
6
CONTINUOUS
10
133.0031754241
20
49.9983765268
11
299.0031754241
21
49.9983765268
0
LINE
5
31E
100
AcDbEntity
8
0
100
AcDbLine
62
2
6
CONTINUOUS
10
253.0031754241
20
40.9983765268
11
299.0031754241
21
40.9983765268
0
LINE
5
31F
100
AcDbEntity
8
0
100
AcDbLine
62
2
6
CONTINUOUS
10
133.0031754241
20
30.4983765268
11
299.0031754241
21
30.4983765268
0
LINE
5
320
100
AcDbEntity
8
0
100
AcDbLine
62
2
6
CONTINUOUS
10
133.0031754241
20
22.4983765268
11
299.0031754241
21
22.4983765268
0
LINE
5
321
100
AcDbEntity
8
0
100
AcDbLine
62
2
6
CONTINUOUS
10
133.0031754241
20
12.9983765268
11
299.0031754241
21
12.9983765268
0
LINE
5
322
100
AcDbEntity
8
0
100
AcDbLine
62
2
6
CONTINUOUS
10
148.0031754241
20
76.9983765268
11
148.0031754241
21
49.9983765268
0
LINE
5
323
100
AcDbEntity
8
0
100
AcDbLine
62
2
6
CONTINUOUS
10
163.0031754241
20
76.9983765268
11
163.0031754241
21
49.9983765268
0
LINE
5
324
100
AcDbEntity
8
0
100
AcDbLine
62
2
6
CONTINUOUS
10
173.0031754241
20
30.4983765268
11
173.0031754241
21
22.4983765268
0
LINE
5
325
100
AcDbEntity
8
0
100
AcDbLine
62
2
6
CONTINUOUS
10
178.0031754241
20
76.9983765268
11
178.0031754241
21
49.9983765268
0
LINE
5
326
100
AcDbEntity
8
0
100
AcDbLine
62
2
6
CONTINUOUS
10
193.0031754241
20
76.9983765268
11
193.0031754241
21
49.9983765268
0
LINE
5
327
100
AcDbEntity
8
0
100
AcDbLine
62
2
6
CONTINUOUS
10
213.0031754241
20
30.4983765268
11
213.0031754241
21
22.4983765268
0
LINE
5
328
100
AcDbEntity
8
0
100
AcDbLine
62
2
6
CONTINUOUS
10
253.0031754241
20
49.9983765268
11
253.0031754241
21
12.9983765268
0
LINE
5
329
100
AcDbEntity
8
0
100
AcDbLine
62
2
6
CONTINUOUS
10
279.0031754241
20
40.9983765268
11
279.0031754241
21
30.4983765268
0
LINE
5
32A
100
AcDbEntity
8
0
100
AcDbLine
62
2
6
CONTINUOUS
10
299.0031754241
20
76.9983765268
11
299.0031754241
21
12.9983765268
0
TEXT
5
32B
100
AcDbEntity
8
0
100
AcDbText
62
2
6
CONTINUOUS
10
139.7031754241
20
73.7483765268
7
STANDARD
40
2.0000000000
1
D
41
0.8000000000
72
1
11
140.5031754241
21
73.7483765268
100
AcDbText
0
TEXT
5
32C
100
AcDbEntity
8
0
100
AcDbText
62
2
6
CONTINUOUS
10
139.7031754241
20
69.2483765268
7
STANDARD
40
2.0000000000
1
C
41
0.8000000000
72
1
11
140.5031754241
21
69.2483765268
100
AcDbText
0
TEXT
5
32D
100
AcDbEntity
8
0
100
AcDbText
62
2
6
CONTINUOUS
10
139.7031754241
20
64.7483765268
7
STANDARD
40
2.0000000000
1
B
41
0.8000000000
72
1
11
140.5031754241
21
64.7483765268
100
AcDbText
0
TEXT
5
32E
100
AcDbEntity
8
0
100
AcDbText
62
2
6
CONTINUOUS
10
139.7031754241
20
60.2483765268
7
STANDARD
40
2.0000000000
1
A
41
0.8000000000
72
1
11
140.5031754241
21
60.2483765268
100
AcDbText
0
TEXT
5
32F
100
AcDbEntity
8
0
100
AcDbText
62
2
6
CONTINUOUS
10
169.7031754241
20
60.2483765268
7
STANDARD
40
2.0000000000
1
 
41
0.8000000000
72
1
11
170.5031754241
21
60.2483765268
100
AcDbText
0
TEXT
5
330
100
AcDbEntity
8
0
100
AcDbText
62
2
6
CONTINUOUS
10
184.7031754241
20
60.2483765268
7
STANDARD
40
2.0000000000
1
 
41
0.8000000000
72
1
11
185.5031754241
21
60.2483765268
100
AcDbText
0
TEXT
5
331
100
AcDbEntity
8
0
100
AcDbText
62
2
6
CONTINUOUS
10
137.3031754241
20
55.7483765268
7
STANDARD
40
2.0000000000
1
IND.
41
0.8000000000
72
1
11
140.5031754241
21
55.7483765268
100
AcDbText
0
TEXT
5
332
100
AcDbEntity
8
0
100
AcDbText
62
2
6
CONTINUOUS
10
152.3031754241
20
55.7483765268
7
STANDARD
40
2.0000000000
1
DATE
41
0.8000000000
72
1
11
155.5031754241
21
55.7483765268
100
AcDbText
0
TEXT
5
333
100
AcDbEntity
8
0
100
AcDbText
62
2
6
CONTINUOUS
10
166.5031754241
20
55.7483765268
7
STANDARD
40
2.0000000000
1
DESS.
41
0.8000000000
72
1
11
170.5031754241
21
55.7483765268
100
AcDbText
0
TEXT
5
334
100
AcDbEntity
8
0
100
AcDbText
62
2
6
CONTINUOUS
10
180.7031754241
20
55.7483765268
7
STANDARD
40
2.0000000000
1
VERIF.
41
0.8000000000
72
1
11
185.5031754241
21
55.7483765268
100
AcDbText
0
TEXT
5
335
100
AcDbEntity
8
0
100
AcDbText
62
2
6
CONTINUOUS
10
235.6031754241
20
55.7483765268
7
STANDARD
40
2.0000000000
1
MODIFICATIONS
41
0.8000000000
72
1
11
246.0031754241
21
55.7483765268
100
AcDbText
0
TEXT
5
336
100
AcDbEntity
8
0
100
AcDbText
62
2
6
CONTINUOUS
10
134.1031754241
20
51.2483765268
7
STANDARD
40
2.0000000000
1
Création
41
0.8000000000
72
1
11
140.5031754241
21
51.2483765268
100
AcDbText
0
TEXT
5
337
100
AcDbEntity
8
0
100
AcDbText
62
2
6
CONTINUOUS
10
148.3031754241
20
51.2483765268
7
STANDARD
40
2.0000000000
1
21-Sep-22
41
0.8000000000
72
1
11
155.5031754241
21
51.2483765268
100
AcDbText
0
TEXT
5
338
100
AcDbEntity
8
0
100
AcDbText
62
2
6
CONTINUOUS
10
165.7031754241
20
51.2483765268
7
STANDARD
40
2.0000000000
1
BALLON
41
0.8000000000
72
1
11
170.5031754241
21
51.2483765268
100
AcDbText
0
TEXT
5
339
100
AcDbEntity
8
0
100
AcDbText
62
2
6
CONTINUOUS
10
183.1031754241
20
51.2483765268
7
STANDARD
40
2.0000000000
1
B.L
41
0.8000000000
72
1
11
185.5031754241
21
51.2483765268
100
AcDbText
0
TEXT
5
33A
100
AcDbEntity
8
0
100
AcDbText
62
2
6
CONTINUOUS
10
193.0656754241
20
51.2483765268
7
STANDARD
40
2.0000000000
1
Annule et remplace plan N%%d:                       ind:
41
0.7975308642
72
0
100
AcDbText
0
TEXT
5
33B
100
AcDbEntity
8
0
100
AcDbText
62
2
6
CONTINUOUS
10
134.4031754241
20
46.7483765268
7
STANDARD
40
2.0000000000
1
ETAT DE SURFACES:
41
0.8000000000
72
1
11
148.0031754241
21
46.7483765268
100
AcDbText
0
TEXT
5
33C
100
AcDbEntity
8
0
100
AcDbText
62
2
6
CONTINUOUS
10
196.6031754241
20
46.7483765268
7
STANDARD
40
2.0000000000
1
CASSER LES ANGLES VIFS: 0,5 x 0,5
41
0.8000000000
72
1
11
223.0031754241
21
46.7483765268
100
AcDbText
0
TEXT
5
33D
100
AcDbEntity
8
0
100
AcDbText
62
2
6
CONTINUOUS
10
257.7031754241
20
33.7483765268
7
TEXTSTYLE_1
40
4.0000000000
1
ECH: 
41
0.6700000000
72
1
11
264.4031754241
21
33.7483765268
100
AcDbText
0
TEXT
5
33E
100
AcDbEntity
8
0
100
AcDbText
62
2
6
CONTINUOUS
10
271.1031754241
20
33.7483765268
7
TEXTSTYLE_1
40
4.0000000000
1
 
41
0.8000000000
72
1
11
272.7031754241
21
33.7483765268
100
AcDbText
0
TEXT
5
33F
100
AcDbEntity
8
0
100
AcDbText
62
2
6
CONTINUOUS
10
285.8031754241
20
34.3460327768
7
TEXTSTYLE_1
40
4.0000000000
1
A4
41
0.8000000000
72
1
11
289.0031754241
21
34.3460327768
100
AcDbText
0
TEXT
5
340
100
AcDbEntity
8
0
100
AcDbText
62
2
6
CONTINUOUS
10
288.9406754241
20
33.1507202768
7
STANDARD
40
0.1562500000
1
 
41
0.8000000000
72
1
11
289.0031754241
21
33.1507202768
100
AcDbText
0
TEXT
5
341
100
AcDbEntity
8
0
100
AcDbText
62
2
6
CONTINUOUS
10
202.2031754241
20
33.2483765268
7
STANDARD
40
2.0000000000
1
TOL. GENERALE: JS13 - js13
41
0.8000000000
72
1
11
223.0031754241
21
33.2483765268
100
AcDbText
0
TEXT
5
342
100
AcDbEntity
8
0
100
AcDbText
62
2
6
CONTINUOUS
10
133.0656754241
20
30.2640015268
7
STANDARD
40
0.1562500000
1
 
41
0.8000000000
72
0
100
AcDbText
0
TEXT
5
343
100
AcDbEntity
8
0
100
AcDbText
62
2
6
CONTINUOUS
10
133.0656754241
20
27.7249390268
7
STANDARD
40
2.0000000000
1
MATIERE
41
0.8000000000
72
0
100
AcDbText
0
TEXT
5
344
100
AcDbEntity
8
0
100
AcDbText
62
2
6
CONTINUOUS
10
133.0656754241
20
23.4749390268
7
STANDARD
40
3.0000000000
1
 
41
0.8000000000
72
0
100
AcDbText
0
TEXT
5
345
100
AcDbEntity
8
0
100
AcDbText
62
2
6
CONTINUOUS
10
173.0656754241
20
30.2640015268
7
STANDARD
40
0.1562500000
1
 
41
0.8000000000
72
0
100
AcDbText
0
TEXT
5
346
100
AcDbEntity
8
0
100
AcDbText
62
2
6
CONTINUOUS
10
173.0656754241
20
27.7249390268
7
STANDARD
40
2.0000000000
1
TRAITEMENT
41
0.8000000000
72
0
100
AcDbText
0
TEXT
5
347
100
AcDbEntity
8
0
100
AcDbText
62
2
6
CONTINUOUS
10
213.0656754241
20
30.2640015268
7
STANDARD
40
0.1562500000
1
 
41
0.8000000000
72
0
100
AcDbText
0
TEXT
5
348
100
AcDbEntity
8
0
100
AcDbText
62
2
6
CONTINUOUS
10
213.0656754241
20
27.7249390268
7
STANDARD
40
2.0000000000
1
PROTECTION
41
0.8000000000
72
0
100
AcDbText
0
TEXT
5
349
100
AcDbEntity
8
0
100
AcDbText
62
2
6
CONTINUOUS
10
258.5865087574
20
23.9598099971
7
TEXTSTYLE_1
40
5.0000000000
1
FSM France
41
0.6966666667
51
10.0000000000
72
1
11
276.0031754241
21
23.9598099971
100
AcDbText
0
TEXT
5
34A
100
AcDbEntity
8
0
100
AcDbText
62
2
6
CONTINUOUS
10
152.9406754241
20
27.2640015268
7
STANDARD
40
0.1562500000
1
 
41
0.8000000000
72
1
11
153.0031754241
21
27.2640015268
100
AcDbText
0
TEXT
5
34B
100
AcDbEntity
8
0
100
AcDbText
62
2
6
CONTINUOUS
10
139.2031754241
20
23.4749390268
7
TEXTSTYLE_1
40
3.0000000000
1
TUBE CARBONE
41
0.7666666667
72
1
11
153.0031754241
21
23.4749390268
100
AcDbText
0
TEXT
5
34C
100
AcDbEntity
8
0
100
AcDbText
62
2
6
CONTINUOUS
10
151.8031754241
20
18.9749390268
7
STANDARD
40
3.0000000000
1
 
41
0.8000000000
72
1
11
153.0031754241
21
18.9749390268
100
AcDbText
0
TEXT
5
34D
100
AcDbEntity
8
0
100
AcDbText
62
2
6
CONTINUOUS
10
192.9406754241
20
27.2640015268
7
STANDARD
40
0.1562500000
1
 
41
0.8000000000
72
1
11
193.0031754241
21
27.2640015268
100
AcDbText
0
TEXT
5
34E
100
AcDbEntity
8
0
100
AcDbText
62
2
6
CONTINUOUS
10
193.0031754241
20
27.2249390268
7
TEXTSTYLE_1
40
3.0000000000
1

41
1.0000000000
72
1
11
193.0031754241
21
27.2249390268
100
AcDbText
0
TEXT
5
34F
100
AcDbEntity
8
0
100
AcDbText
62
2
6
CONTINUOUS
10
191.8031754241
20
23.4749390268
7
STANDARD
40
3.0000000000
1
 
41
0.8000000000
72
1
11
193.0031754241
21
23.4749390268
100
AcDbText
0
TEXT
5
350
100
AcDbEntity
8
0
100
AcDbText
62
2
6
CONTINUOUS
10
232.9406754241
20
27.2640015268
7
STANDARD
40
0.1562500000
1
 
41
0.8000000000
72
1
11
233.0031754241
21
27.2640015268
100
AcDbText
0
TEXT
5
351
100
AcDbEntity
8
0
100
AcDbText
62
2
6
CONTINUOUS
10
233.0031754241
20
27.2249390268
7
TEXTSTYLE_1
40
3.0000000000
1

41
1.0000000000
72
1
11
233.0031754241
21
27.2249390268
100
AcDbText
0
TEXT
5
352
100
AcDbEntity
8
0
100
AcDbText
62
2
6
CONTINUOUS
10
231.8031754241
20
23.4749390268
7
STANDARD
40
3.0000000000
1
 
41
0.8000000000
72
1
11
233.0031754241
21
23.4749390268
100
AcDbText
0
TEXT
5
353
100
AcDbEntity
8
0
100
AcDbText
62
2
6
CONTINUOUS
10
136.9094254241
20
15.4554077768
7
TEXTSTYLE_1
40
5.0000000000
1
DESIGNATION :
41
0.4951923077
72
1
11
153.0031754241
21
15.4554077768
100
AcDbText
0
TEXT
5
354
100
AcDbEntity
8
0
100
AcDbText
62
2
6
CONTINUOUS
10
152.9406754241
20
15.0413452768
7
STANDARD
40
0.1562500000
1
 
41
0.8000000000
72
1
11
153.0031754241
21
15.0413452768
100
AcDbText
0
TEXT
5
355
100
AcDbEntity
8
0
100
AcDbText
62
2
6
CONTINUOUS
10
195.0656754241
20
15.4554077768
7
TEXTSTYLE_1
40
5.0000000000
1
AXE BALANCIER
41
0.5519230769
72
1
11
213.0031754241
21
15.4554077768
100
AcDbText
0
TEXT
5
356
100
AcDbEntity
8
0
100
AcDbText
62
2
6
CONTINUOUS
10
212.9406754241
20
15.0413452768
7
STANDARD
40
0.1562500000
1
 
41
0.8000000000
72
1
11
213.0031754241
21
15.0413452768
100
AcDbText
0
TEXT
5
357
100
AcDbEntity
8
0
100
AcDbText
62
2
6
CONTINUOUS
10
259.9094254241
20
15.2483765268
7
TEXTSTYLE_1
40
5.0000000000
1
 N : 100026-A
41
0.4951923077
72
1
11
276.0031754241
21
15.2483765268
100
AcDbText
0
TEXT
5
358
100
AcDbEntity
8
0
100
AcDbText
62
2
6
CONTINUOUS
10
118.8887458962
20
194.0479134944
7
TEXTSTYLE_1
40
3.5000000000
1
COUPE 
41
0.7666666667
72
0
100
AcDbText
0
TEXT
5
359
100
AcDbEntity
8
0
100
AcDbText
62
2
6
CONTINUOUS
10
134.9887458962
20
194.0479134944
7
TEXTSTYLE_1
40
3.5000000000
1
A-A
41
0.6555555556
72
0
100
AcDbText
0
INSERT
5
35A
100
AcDbEntity
8
0
100
AcDbBlockReference
62
2
6
CONTINUOUS
2
N-CAR_BL2
10
0.0000000000
20
0.0000000000
0
LINE
5
35B
100
AcDbEntity
8
0
100
AcDbLine
62
7
6
CONTINUOUS
10
7.0000000000
20
8.0000000000
11
7.0000000000
21
218.0000000000
0
LINE
5
35C
100
AcDbEntity
8
0
100
AcDbLine
62
7
6
CONTINUOUS
10
12.0000000000
20
13.0000000000
11
12.0000000000
21
213.0000000000
0
LINE
5
35D
100
AcDbEntity
8
0
100
AcDbLine
62
7
6
CONTINUOUS
10
7.0000000000
20
8.0000000000
11
304.0000000000
21
8.0000000000
0
LINE
5
35E
100
AcDbEntity
8
0
100
AcDbLine
62
7
6
CONTINUOUS
10
12.0000000000
20
13.0000000000
11
299.0000000000
21
13.0000000000
0
LINE
5
35F
100
AcDbEntity
8
0
100
AcDbLine
62
7
6
CONTINUOUS
10
7.0000000000
20
113.0000000000
11
12.0000000000
21
115.8867513459
0
LINE
5
360
100
AcDbEntity
8
0
100
AcDbLine
62
7
6
CONTINUOUS
10
7.0000000000
20
113.0000000000
11
12.0000000000
21
110.1132486541
0
LINE
5
361
100
AcDbEntity
8
0
100
AcDbLine
62
7
6
CONTINUOUS
10
152.6132486541
20
213.0000000000
11
155.5000000000
21
218.0000000000
0
LINE
5
362
100
AcDbEntity
8
0
100
AcDbLine
62
7
6
CONTINUOUS
10
155.5000000000
20
8.0000000000
11
152.6132486541
21
13.0000000000
0
LINE
5
363
100
AcDbEntity
8
0
100
AcDbLine
62
7
6
CONTINUOUS
10
155.5000000000
20
8.0000000000
11
158.3867513459
21
13.0000000000
0
LINE
5
364
100
AcDbEntity
8
0
100
AcDbLine
62
7
6
CONTINUOUS
10
158.3867513459
20
213.0000000000
11
155.5000000000
21
218.0000000000
0
LINE
5
365
100
AcDbEntity
8
0
100
AcDbLine
62
7
6
CONTINUOUS
10
299.0000000000
20
110.1132486541
11
304.0000000000
21
113.0000000000
0
LINE
5
366
100
AcDbEntity
8
0
100
AcDbLine
62
7
6
CONTINUOUS
10
299.0000000000
20
115.8867513459
11
304.0000000000
21
113.0000000000
0
LINE
5
367
100
AcDbEntity
8
0
100
AcDbLine
62
7
6
CONTINUOUS
10
12.0000000000
20
213.0000000000
11
299.0000000000
21
213.0000000000
0
LINE
5
368
100
AcDbEntity
8
0
100
AcDbLine
62
7
6
CONTINUOUS
10
7.0000000000
20
218.0000000000
11
304.0000000000
21
218.0000000000
0
LINE
5
369
100
AcDbEntity
8
0
100
AcDbLine
62
7
6
CONTINUOUS
10
299.0000000000
20
13.0000000000
11
299.0000000000
21
213.0000000000
0
LINE
5
36A
100
AcDbEntity
8
0
100
AcDbLine
62
7
6
CONTINUOUS
10
304.0000000000
20
8.0000000000
11
304.0000000000
21
218.0000000000
0
LINE
5
36B
100
AcDbEntity
8
0
100
AcDbLine
62
7
6
CONTINUOUS
10
70.0700956012
20
131.2923373621
11
70.0700956012
21
140.8923373621
0
LINE
5
36C
100
AcDbEntity
8
0
100
AcDbLine
62
7
6
CONTINUOUS
10
70.5700956012
20
133.0923373621
11
70.5700956012
21
139.0923373621
0
LINE
5
36D
100
AcDbEntity
8
0
100
AcDbLine
62
7
6
CONTINUOUS
10
70.2700956012
20
141.0923373621
11
70.0700956012
21
140.8923373621
0
LINE
5
36E
100
AcDbEntity
8
0
100
AcDbLine
62
2
6
CONTINUOUS
10
70.0700956012
20
140.7647373621
11
70.3976956012
21
141.0923373621
0
LINE
5
36F
100
AcDbEntity
8
0
100
AcDbLine
62
2
6
CONTINUOUS
10
70.8515417550
20
139.0923373621
11
72.8515417550
21
141.0923373621
0
LINE
5
370
100
AcDbEntity
8
0
100
AcDbLine
62
7
6
CONTINUOUS
10
70.2700956012
20
131.0923373621
11
70.0700956012
21
131.2923373621
0
LINE
5
371
100
AcDbEntity
8
0
100
AcDbLine
62
2
6
CONTINUOUS
10
73.3053879089
20
139.0923373621
11
75.3053879089
21
141.0923373621
0
LINE
5
372
100
AcDbEntity
8
0
100
AcDbLine
62
2
6
CONTINUOUS
10
75.7592340627
20
139.0923373621
11
77.7592340627
21
141.0923373621
0
LINE
5
373
100
AcDbEntity
8
0
100
AcDbLine
62
7
6
CONTINUOUS
10
70.5700956012
20
133.0923373621
11
70.0700956012
21
132.5923373621
0
LINE
5
374
100
AcDbEntity
8
0
100
AcDbLine
62
7
6
CONTINUOUS
10
70.5700956012
20
139.0923373621
11
70.0700956012
21
139.5923373621
0
LINE
5
375
100
AcDbEntity
8
0
100
AcDbLine
62
7
6
CONTINUOUS
10
92.0700956012
20
132.5923373621
11
92.0700956012
21
139.5923373621
0
LINE
5
376
100
AcDbEntity
8
0
100
AcDbLine
62
7
6
CONTINUOUS
10
94.0700956012
20
133.0923373621
11
94.0700956012
21
139.0923373621
0
LINE
5
377
100
AcDbEntity
8
0
100
AcDbLine
62
2
6
CONTINUOUS
10
70.2415879089
20
131.1208450544
11
72.2130802166
21
133.0923373621
0
LINE
5
378
100
AcDbEntity
8
0
100
AcDbLine
62
2
6
CONTINUOUS
10
78.2130802166
20
139.0923373621
11
80.2130802166
21
141.0923373621
0
LINE
5
379
100
AcDbEntity
8
0
100
AcDbLine
62
2
6
CONTINUOUS
10
72.6669263704
20
131.0923373621
11
74.6669263704
21
133.0923373621
0
LINE
5
37A
100
AcDbEntity
8
0
100
AcDbLine
62
2
6
CONTINUOUS
10
80.6669263704
20
139.0923373621
11
82.6669263704
21
141.0923373621
0
LINE
5
37B
100
AcDbEntity
8
0
100
AcDbLine
62
7
6
CONTINUOUS
10
98.1727730638
20
132.4572208988
11
97.9389034936
21
134.9230131671
0
LINE
5
37C
100
AcDbEntity
8
0
100
AcDbLine
62
7
6
CONTINUOUS
10
97.9389034936
20
134.9230131671
11
97.7157320034
21
137.4003667011
0
LINE
5
37D
100
AcDbEntity
8
0
100
AcDbLine
62
7
6
CONTINUOUS
10
94.3587707358
20
133.5923373621
11
94.3587707358
21
138.5923373621
0
LINE
5
37E
100
AcDbEntity
8
0
100
AcDbLine
62
2
6
CONTINUOUS
10
75.1207725243
20
131.0923373621
11
77.1207725243
21
133.0923373621
0
LINE
5
37F
100
AcDbEntity
8
0
100
AcDbLine
62
2
6
CONTINUOUS
10
83.1207725243
20
139.0923373621
11
85.1207725243
21
141.0923373621
0
LINE
5
380
100
AcDbEntity
8
0
100
AcDbLine
62
2
6
CONTINUOUS
10
77.5746186781
20
131.0923373621
11
79.5746186781
21
133.0923373621
0
LINE
5
381
100
AcDbEntity
8
0
100
AcDbLine
62
2
6
CONTINUOUS
10
85.5746186781
20
139.0923373621
11
87.5746186781
21
141.0923373621
0
LINE
5
382
100
AcDbEntity
8
0
100
AcDbLine
62
2
6
CONTINUOUS
10
80.0284648319
20
131.0923373621
11
82.0284648319
21
133.0923373621
0
LINE
5
383
100
AcDbEntity
8
0
100
AcDbLine
62
2
6
CONTINUOUS
10
88.0284648319
20
139.0923373621
11
90.0284648319
21
141.0923373621
0
LINE
5
384
100
AcDbEntity
8
0
100
AcDbLine
62
7
6
CONTINUOUS
10
98.4160644852
20
131.0923373621
11
98.1727730638
21
132.4572208988
0
LINE
5
385
100
AcDbEntity
8
0
100
AcDbLine
62
7
6
CONTINUOUS
10
94.0700956012
20
133.0923373621
11
94.3587707358
21
133.5923373621
0
LINE
5
386
100
AcDbEntity
8
0
100
AcDbLine
62
2
6
CONTINUOUS
10
82.4823109858
20
131.0923373621
11
84.4823109858
21
133.0923373621
0
LINE
5
387
100
AcDbEntity
8
0
100
AcDbLine
62
2
6
CONTINUOUS
10
90.4823109858
20
139.0923373621
11
92.4823109858
21
141.0923373621
0
LINE
5
388
100
AcDbEntity
8
0
100
AcDbLine
62
2
6
CONTINUOUS
10
84.9361571396
20
131.0923373621
11
86.9361571396
21
133.0923373621
0
LINE
5
389
100
AcDbEntity
8
0
100
AcDbLine
62
2
6
CONTINUOUS
10
92.9361571396
20
139.0923373621
11
94.9361571396
21
141.0923373621
0
LINE
5
38A
100
AcDbEntity
8
0
100
AcDbLine
62
7
6
CONTINUOUS
10
94.0700956012
20
139.0923373621
11
94.3587707358
21
138.5923373621
0
LINE
5
38B
100
AcDbEntity
8
0
100
AcDbLine
62
7
6
CONTINUOUS
10
97.2632024747
20
139.8637242667
11
96.8349848861
21
141.0923373621
0
LINE
5
38C
100
AcDbEntity
8
0
100
AcDbLine
62
7
6
CONTINUOUS
10
97.7157320034
20
137.4003667011
11
97.2632024747
21
139.8637242667
0
LINE
5
38D
100
AcDbEntity
8
0
100
AcDbLine
62
7
6
CONTINUOUS
10
105.5700956012
20
141.0923373621
11
105.5700956012
21
131.0923373621
0
LINE
5
38E
100
AcDbEntity
8
0
100
AcDbLine
62
2
6
CONTINUOUS
10
87.3900032935
20
131.0923373621
11
89.3900032935
21
133.0923373621
0
LINE
5
38F
100
AcDbEntity
8
0
100
AcDbLine
62
2
6
CONTINUOUS
10
94.8900032935
20
138.5923373621
11
96.9784326423
21
140.6807667109
0
LINE
5
390
100
AcDbEntity
8
0
100
AcDbLine
62
2
6
CONTINUOUS
10
89.8438494473
20
131.0923373621
11
91.8438494473
21
133.0923373621
0
LINE
5
391
100
AcDbEntity
8
0
100
AcDbLine
62
2
6
CONTINUOUS
10
97.3438494473
20
138.5923373621
11
97.4730306448
21
138.7215185596
0
LINE
5
392
100
AcDbEntity
8
0
100
AcDbLine
62
2
6
CONTINUOUS
10
92.2976956012
20
131.0923373621
11
94.7976956012
21
133.5923373621
0
LINE
5
393
100
AcDbEntity
8
0
100
AcDbLine
62
2
6
CONTINUOUS
10
94.7515417550
20
131.0923373621
11
97.2515417550
21
133.5923373621
0
LINE
5
394
100
AcDbEntity
8
0
100
AcDbLine
62
7
6
CONTINUOUS
10
110.5700956012
20
131.0923373621
11
110.5700956012
21
141.0923373621
0
LINE
5
395
100
AcDbEntity
8
0
100
AcDbLine
62
2
6
CONTINUOUS
10
97.2053879089
20
131.0923373621
11
98.2329082784
21
132.1198577317
0
LINE
5
396
100
AcDbEntity
8
0
100
AcDbLine
62
7
6
CONTINUOUS
10
187.8700956012
20
131.0923373621
11
152.5700956012
21
131.0923373621
0
LINE
5
397
100
AcDbEntity
8
0
100
AcDbLine
62
7
6
CONTINUOUS
10
147.5700956012
20
131.0923373621
11
110.5700956012
21
131.0923373621
0
LINE
5
398
100
AcDbEntity
8
0
100
AcDbLine
62
7
6
CONTINUOUS
10
105.5700956012
20
131.0923373621
11
70.2700956012
21
131.0923373621
0
LINE
5
399
100
AcDbEntity
8
0
100
AcDbLine
62
7
6
CONTINUOUS
10
152.5700956012
20
131.3423373621
11
147.5700956012
21
131.3423373621
0
LINE
5
39A
100
AcDbEntity
8
0
100
AcDbLine
62
7
6
CONTINUOUS
10
110.5700956012
20
131.3423373621
11
105.5700956012
21
131.3423373621
0
LINE
5
39B
100
AcDbEntity
8
0
100
AcDbLine
62
2
6
CONTINUOUS
10
92.0700956012
20
132.5923373621
11
70.0700956012
21
132.5923373621
0
LINE
5
39C
100
AcDbEntity
8
0
100
AcDbLine
62
2
6
CONTINUOUS
10
166.0700956012
20
132.5923373621
11
188.0700956012
21
132.5923373621
0
LINE
5
39D
100
AcDbEntity
8
0
100
AcDbLine
62
7
6
CONTINUOUS
10
70.5700956012
20
133.0923373621
11
94.0700956012
21
133.0923373621
0
LINE
5
39E
100
AcDbEntity
8
0
100
AcDbLine
62
7
6
CONTINUOUS
10
164.0700956012
20
133.0923373621
11
187.5700956012
21
133.0923373621
0
LINE
5
39F
100
AcDbEntity
8
0
100
AcDbLine
62
7
6
CONTINUOUS
10
94.3587707358
20
133.5923373621
11
98.0651122511
21
133.5923373621
0
LINE
5
3A0
100
AcDbEntity
8
0
100
AcDbLine
62
7
6
CONTINUOUS
10
162.3630117746
20
133.5923373621
11
163.7814204666
21
133.5923373621
0
LINE
5
3A1
100
AcDbEntity
8
DEFAULT_1
100
AcDbLine
62
2
6
CENTER
10
55.1669444700
20
136.0923373621
11
205.0868311273
21
136.0923373621
0
LINE
5
3A2
100
AcDbEntity
8
0
100
AcDbLine
62
7
6
CONTINUOUS
10
94.3587707358
20
138.5923373621
11
97.4967617942
21
138.5923373621
0
LINE
5
3A3
100
AcDbEntity
8
0
100
AcDbLine
62
7
6
CONTINUOUS
10
161.9187390473
20
138.5923373621
11
163.7814204666
21
138.5923373621
0
LINE
5
3A4
100
AcDbEntity
8
0
100
AcDbLine
62
7
6
CONTINUOUS
10
70.5700956012
20
139.0923373621
11
94.0700956012
21
139.0923373621
0
LINE
5
3A5
100
AcDbEntity
8
0
100
AcDbLine
62
7
6
CONTINUOUS
10
164.0700956012
20
139.0923373621
11
187.5700956012
21
139.0923373621
0
LINE
5
3A6
100
AcDbEntity
8
0
100
AcDbLine
62
2
6
CONTINUOUS
10
92.0700956012
20
139.5923373621
11
70.0700956012
21
139.5923373621
0
LINE
5
3A7
100
AcDbEntity
8
0
100
AcDbLine
62
2
6
CONTINUOUS
10
166.0700956012
20
139.5923373621
11
188.0700956012
21
139.5923373621
0
LINE
5
3A8
100
AcDbEntity
8
0
100
AcDbLine
62
7
6
CONTINUOUS
10
152.5700956012
20
140.8423373621
11
147.5700956012
21
140.8423373621
0
LINE
5
3A9
100
AcDbEntity
8
0
100
AcDbLine
62
7
6
CONTINUOUS
10
110.5700956012
20
140.8423373621
11
105.5700956012
21
140.8423373621
0
LINE
5
3AA
100
AcDbEntity
8
0
100
AcDbLine
62
7
6
CONTINUOUS
10
187.8700956012
20
141.0923373621
11
152.5700956012
21
141.0923373621
0
LINE
5
3AB
100
AcDbEntity
8
0
100
AcDbLine
62
7
6
CONTINUOUS
10
147.5700956012
20
141.0923373621
11
110.5700956012
21
141.0923373621
0
LINE
5
3AC
100
AcDbEntity
8
0
100
AcDbLine
62
7
6
CONTINUOUS
10
105.5700956012
20
141.0923373621
11
70.2700956012
21
141.0923373621
0
LINE
5
3AD
100
AcDbEntity
8
0
100
AcDbLine
62
7
6
CONTINUOUS
10
147.5700956012
20
141.0923373621
11
147.5700956012
21
131.0923373621
0
LINE
5
3AE
100
AcDbEntity
8
0
100
AcDbLine
62
7
6
CONTINUOUS
10
152.5700956012
20
131.0923373621
11
152.5700956012
21
141.0923373621
0
LINE
5
3AF
100
AcDbEntity
8
0
100
AcDbLine
62
2
6
CONTINUOUS
10
161.9556875141
20
139.4041754289
11
163.6438494473
21
141.0923373621
0
LINE
5
3B0
100
AcDbEntity
8
0
100
AcDbLine
62
2
6
CONTINUOUS
10
163.5976956012
20
138.5923373621
11
164.0323933000
21
139.0270350610
0
LINE
5
3B1
100
AcDbEntity
8
0
100
AcDbLine
62
2
6
CONTINUOUS
10
164.0976956012
20
139.0923373621
11
166.0976956012
21
141.0923373621
0
LINE
5
3B2
100
AcDbEntity
8
0
100
AcDbLine
62
2
6
CONTINUOUS
10
166.5515417550
20
139.0923373621
11
168.5515417550
21
141.0923373621
0
LINE
5
3B3
100
AcDbEntity
8
0
100
AcDbLine
62
2
6
CONTINUOUS
10
162.4623090294
20
132.5492584826
11
163.5053879089
21
133.5923373621
0
LINE
5
3B4
100
AcDbEntity
8
0
100
AcDbLine
62
2
6
CONTINUOUS
10
169.0053879089
20
139.0923373621
11
171.0053879089
21
141.0923373621
0
LINE
5
3B5
100
AcDbEntity
8
0
100
AcDbLine
62
2
6
CONTINUOUS
10
163.4592340627
20
131.0923373621
11
165.4592340627
21
133.0923373621
0
LINE
5
3B6
100
AcDbEntity
8
0
100
AcDbLine
62
2
6
CONTINUOUS
10
171.4592340627
20
139.0923373621
11
173.4592340627
21
141.0923373621
0
LINE
5
3B7
100
AcDbEntity
8
0
100
AcDbLine
62
7
6
CONTINUOUS
10
162.2188821674
20
141.0923373621
11
162.0179929614
21
140.2661419345
0
LINE
5
3B8
100
AcDbEntity
8
0
100
AcDbLine
62
7
6
CONTINUOUS
10
163.7814204666
20
138.5923373621
11
164.0700956012
21
139.0923373621
0
LINE
5
3B9
100
AcDbEntity
8
0
100
AcDbLine
62
2
6
CONTINUOUS
10
165.9130802166
20
131.0923373621
11
167.9130802166
21
133.0923373621
0
LINE
5
3BA
100
AcDbEntity
8
0
100
AcDbLine
62
2
6
CONTINUOUS
10
173.9130802166
20
139.0923373621
11
175.9130802166
21
141.0923373621
0
LINE
5
3BB
100
AcDbEntity
8
0
100
AcDbLine
62
2
6
CONTINUOUS
10
168.3669263704
20
131.0923373621
11
170.3669263704
21
133.0923373621
0
LINE
5
3BC
100
AcDbEntity
8
0
100
AcDbLine
62
2
6
CONTINUOUS
10
176.3669263704
20
139.0923373621
11
178.3669263704
21
141.0923373621
0
LINE
5
3BD
100
AcDbEntity
8
0
100
AcDbLine
62
7
6
CONTINUOUS
10
163.7814204666
20
133.5923373621
11
164.0700956012
21
133.0923373621
0
LINE
5
3BE
100
AcDbEntity
8
0
100
AcDbLine
62
7
6
CONTINUOUS
10
162.2383038065
20
134.8838311994
11
162.4627682632
21
132.5592446723
0
LINE
5
3BF
100
AcDbEntity
8
0
100
AcDbLine
62
7
6
CONTINUOUS
10
161.9109202104
20
138.7848408766
11
161.9726529522
21
137.2649511551
0
LINE
5
3C0
100
AcDbEntity
8
0
100
AcDbLine
62
7
6
CONTINUOUS
10
163.7814204666
20
133.5923373621
11
163.7814204666
21
138.5923373621
0
LINE
5
3C1
100
AcDbEntity
8
0
100
AcDbLine
62
7
6
CONTINUOUS
10
164.0700956012
20
133.0923373621
11
164.0700956012
21
139.0923373621
0
LINE
5
3C2
100
AcDbEntity
8
0
100
AcDbLine
62
7
6
CONTINUOUS
10
162.4627682632
20
132.5592446723
11
162.3953097623
21
131.0923373621
0
LINE
5
3C3
100
AcDbEntity
8
0
100
AcDbLine
62
7
6
CONTINUOUS
10
162.0179929614
20
140.2661419345
11
161.9109202104
21
138.7848408766
0
LINE
5
3C4
100
AcDbEntity
8
0
100
AcDbLine
62
2
6
CONTINUOUS
10
170.8207725243
20
131.0923373621
11
172.8207725243
21
133.0923373621
0
LINE
5
3C5
100
AcDbEntity
8
0
100
AcDbLine
62
2
6
CONTINUOUS
10
178.8207725243
20
139.0923373621
11
180.8207725243
21
141.0923373621
0
LINE
5
3C6
100
AcDbEntity
8
0
100
AcDbLine
62
2
6
CONTINUOUS
10
173.2746186781
20
131.0923373621
11
175.2746186781
21
133.0923373621
0
LINE
5
3C7
100
AcDbEntity
8
0
100
AcDbLine
62
2
6
CONTINUOUS
10
181.2746186781
20
139.0923373621
11
183.2746186781
21
141.0923373621
0
LINE
5
3C8
100
AcDbEntity
8
0
100
AcDbLine
62
7
6
CONTINUOUS
10
161.9726529522
20
137.2649511551
11
162.2383038065
21
134.8838311994
0
LINE
5
3C9
100
AcDbEntity
8
0
100
AcDbLine
62
7
6
CONTINUOUS
10
166.0700956012
20
132.5923373621
11
166.0700956012
21
139.5923373621
0
LINE
5
3CA
100
AcDbEntity
8
0
100
AcDbLine
62
2
6
CONTINUOUS
10
175.7284648319
20
131.0923373621
11
177.7284648319
21
133.0923373621
0
LINE
5
3CB
100
AcDbEntity
8
0
100
AcDbLine
62
2
6
CONTINUOUS
10
183.7284648319
20
139.0923373621
11
185.7284648319
21
141.0923373621
0
LINE
5
3CC
100
AcDbEntity
8
0
100
AcDbLine
62
2
6
CONTINUOUS
10
178.1823109858
20
131.0923373621
11
180.1823109858
21
133.0923373621
0
LINE
5
3CD
100
AcDbEntity
8
0
100
AcDbLine
62
2
6
CONTINUOUS
10
186.1823109858
20
139.0923373621
11
188.0262032935
21
140.9362296698
0
LINE
5
3CE
100
AcDbEntity
8
0
100
AcDbLine
62
7
6
CONTINUOUS
10
187.5700956012
20
139.0923373621
11
188.0700956012
21
139.5923373621
0
LINE
5
3CF
100
AcDbEntity
8
0
100
AcDbLine
62
2
6
CONTINUOUS
10
180.6361571396
20
131.0923373621
11
182.6361571396
21
133.0923373621
0
LINE
5
3D0
100
AcDbEntity
8
0
100
AcDbLine
62
7
6
CONTINUOUS
10
187.5700956012
20
133.0923373621
11
188.0700956012
21
132.5923373621
0
LINE
5
3D1
100
AcDbEntity
8
0
100
AcDbLine
62
2
6
CONTINUOUS
10
183.0900032935
20
131.0923373621
11
185.0900032935
21
133.0923373621
0
LINE
5
3D2
100
AcDbEntity
8
0
100
AcDbLine
62
2
6
CONTINUOUS
10
185.5438494473
20
131.0923373621
11
187.5438494473
21
133.0923373621
0
LINE
5
3D3
100
AcDbEntity
8
0
100
AcDbLine
62
7
6
CONTINUOUS
10
188.0700956012
20
131.2923373621
11
187.8700956012
21
131.0923373621
0
LINE
5
3D4
100
AcDbEntity
8
0
100
AcDbLine
62
7
6
CONTINUOUS
10
188.0700956012
20
140.8923373621
11
187.8700956012
21
141.0923373621
0
LINE
5
3D5
100
AcDbEntity
8
0
100
AcDbLine
62
7
6
CONTINUOUS
10
187.5700956012
20
133.0923373621
11
187.5700956012
21
139.0923373621
0
LINE
5
3D6
100
AcDbEntity
8
0
100
AcDbLine
62
7
6
CONTINUOUS
10
188.0700956012
20
131.2923373621
11
188.0700956012
21
140.8923373621
0
LINE
5
3D7
100
AcDbEntity
8
0
100
AcDbLine
62
7
6
CONTINUOUS
10
255.4545943482
20
115.6481151814
11
260.3045943482
21
115.6481151814
0
LINE
5
3D8
100
AcDbEntity
8
0
100
AcDbLine
62
5
6
CONTINUOUS
10
260.3045943482
20
115.6481151814
11
270.3045943482
21
115.6481151814
0
LINE
5
3D9
100
AcDbEntity
8
DEFAULT_1
100
AcDbLine
62
2
6
CENTER
10
255.4545943482
20
136.0923373621
11
255.4545943482
21
126.0923373621
0
LINE
5
3DA
100
AcDbEntity
8
0
100
AcDbLine
62
5
6
PHANTOM
10
255.4545943482
20
115.6481151814
11
255.4545943482
21
125.6481151814
0
LINE
5
3DB
100
AcDbEntity
8
DEFAULT_1
100
AcDbLine
62
2
6
CENTER
10
255.4545943482
20
136.0923373621
11
255.4545943482
21
146.0923373621
0
LINE
5
3DC
100
AcDbEntity
8
0
100
AcDbLine
62
2
6
PHANTOM
10
255.4545943482
20
125.6481151814
11
255.4545943482
21
126.0923373621
0
LINE
5
3DD
100
AcDbEntity
8
0
100
AcDbLine
62
2
6
PHANTOM
10
255.4545943482
20
146.0923373621
11
255.4545943482
21
146.5365595428
0
LINE
5
3DE
100
AcDbEntity
8
0
100
AcDbLine
62
5
6
PHANTOM
10
255.4545943482
20
146.5365595428
11
255.4545943482
21
156.5365595428
0
LINE
5
3DF
100
AcDbEntity
8
DEFAULT_1
100
AcDbLine
62
2
6
CENTER
10
255.4545943482
20
136.0923373621
11
245.4545943482
21
136.0923373621
0
LINE
5
3E0
100
AcDbEntity
8
DEFAULT_1
100
AcDbLine
62
2
6
CENTER
10
255.4545943482
20
136.0923373621
11
265.4545943482
21
136.0923373621
0
LINE
5
3E1
100
AcDbEntity
8
0
100
AcDbLine
62
7
6
CONTINUOUS
10
255.4545943482
20
156.5365595428
11
260.3045943482
21
156.5365595428
0
LINE
5
3E2
100
AcDbEntity
8
0
100
AcDbLine
62
5
6
CONTINUOUS
10
260.3045943482
20
156.5365595428
11
270.3045943482
21
156.5365595428
0
CIRCLE
5
3E3
100
AcDbEntity
8
0
100
AcDbCircle
62
7
6
CONTINUOUS
10
255.4545943482
20
136.0923373621
40
5.0000000000
0
CIRCLE
5
3E4
100
AcDbEntity
8
0
100
AcDbCircle
62
7
6
CONTINUOUS
10
255.4545943482
20
136.0923373621
40
2.5000000000
0
CIRCLE
5
3E5
100
AcDbEntity
8
0
100
AcDbCircle
62
7
6
CONTINUOUS
10
255.4545943482
20
136.0923373621
40
3.0000000000
0
CIRCLE
5
3E6
100
AcDbEntity
8
0
100
AcDbCircle
62
7
6
CONTINUOUS
10
255.4545943482
20
136.0923373621
40
3.5000000000
0
CIRCLE
5
3E7
100
AcDbEntity
8
0
100
AcDbCircle
62
7
6
CONTINUOUS
10
255.4545943482
20
136.0923373621
40
4.8000000000
0
ENDSEC
0
SECTION
2
OBJECTS
0
DICTIONARY
5
3E8
100
AcDbDictionary
3
ACAD_GROUP
350
3E9
3
ACAD_MLINESTYLE
350
3EA
0
DICTIONARY
5
3E9
102
{ACAD_REACTORS
330
3E8
102
}
100
AcDbDictionary
0
DICTIONARY
5
3EA
102
{ACAD_REACTORS
330
3E8
102
}
100
AcDbDictionary
3
STANDARD
350
3EB
0
MLINESTYLE
5
3EB
102
{ACAD_REACTORS
330
3EA
102
}
100
AcDbMlineStyle
2
STANDARD
70
0
3

62
256
51
90.0
52
90.0
71
2
49
0.5
62
256
6
BYLAYER
49
-0.5
62
256
6
BYLAYER
0
ENDSEC
0
EOF
