999
DXF file: 100157-insert.dxf
999
Pro/ENGINEER 2004090 by Parametric Technology Corporation
0
SECTION
2
HEADER
9
$ACADVER
1
AC1014
9
$HANDSEED
5
       2F5
9
$EXTMAX
10
297.0000000000
20
210.0000000000
9
$EXTMIN
10
0.0000000000
20
0.0000000000
9
$LIMMIN
10
0.0000000000
20
0.0000000000
9
$LIMMAX
10
297.0000000000
20
210.0000000000
9
$VIEWCTR
10
148.5000000000
20
105.0000000000
9
$VIEWSIZE
40
210.0000000000
9
$CLAYER
8
0
9
$LTSCALE
40
16.3350000000
9
$CELTYPE
6
BYLAYER
9
$DIMSCALE
40
1
9
$DIMASZ
40
4.5000000000
9
$DIMEXO
40
1.8562500000
9
$DIMDLI
40
11.2860000000
9
$DIMEXE
40
5.3460000000
9
$DIMCEN
40
2.6730000000
9
$DIMLFAC
40
1.0000000000
9
$DIMTXT
40
3.5000000000
9
$DIMTOL
70
1
9
$DIMLIM
70
0
9
$DIMTFAC
40
1.0000000000
9
$DIMTP
40
0.0500000000
9
$DIMTM
40
0.0500000000
9
$MEASUREMENT
70
1
0
ENDSEC
0
SECTION
2
CLASSES
0
ENDSEC
0
SECTION
2
TABLES
0
TABLE
2
VPORT
5
8
100
AcDbSymbolTable
70
2
0
VPORT
5
1F4
100
AcDbSymbolTableRecord
100
AcDbViewportTableRecord
2
*ACTIVE
70
0
10
0.0
20
0.0
11
1.0
21
1.0
12
148.5000000000
22
105.0000000000
13
0.0
23
0.0
14
1.0
24
1.0
15
0.0
25
0.0
16
0.0
26
0.0
36
1.0
17
0.0
27
0.0
37
0.0
40
210.0000000000
41
1.4142857143
42
50.0
43
0.0
44
0.0
50
0.0
51
0.0
71
0
72
100
73
1
74
1
75
0
76
0
77
0
78
0
0
ENDTAB
0
TABLE
2
LTYPE
5
5
100
AcDbSymbolTable
70
6
0
LTYPE
5
14
100
AcDbSymbolTableRecord
100
AcDbLinetypeTableRecord
2
BYBLOCK
70
0
3

72
65
73
0
40
0.0
0
LTYPE
5
15
100
AcDbSymbolTableRecord
100
AcDbLinetypeTableRecord
2
BYLAYER
70
0
3

72
65
73
0
40
0.0
0
LTYPE
5
16
100
AcDbSymbolTableRecord
100
AcDbLinetypeTableRecord
2
CONTINUOUS
70
64
3
Solid line
72
65
73
0
40
0
0
LTYPE
5
1F5
100
AcDbSymbolTableRecord
100
AcDbLinetypeTableRecord
2
CENTER
70
64
3
____ _ ____ _ ____ _ ____ _ ____ _ ____ _ ____
72
65
73
4
40
0.6
49
0.375
74
0
49
-0.075
74
0
49
0.075
74
0
49
-0.075
74
0
0
LTYPE
5
1F6
100
AcDbSymbolTableRecord
100
AcDbLinetypeTableRecord
2
HIDDEN
70
64
3
- - - - - - - - - - - - - - - - - - - -
72
65
73
2
40
0.2
49
0.1
74
0
49
-0.1
74
0
0
LTYPE
5
1F7
100
AcDbSymbolTableRecord
100
AcDbLinetypeTableRecord
2
PHANTOM
70
64
3
_____ _ _ _____ _ _ _____ _ _ _____
72
65
73
6
40
0.8
49
0.45
74
0
49
-0.05
74
0
49
0.1
74
0
49
-0.05
74
0
49
0.1
74
0
49
-0.05
74
0
0
LTYPE
5
1F8
100
AcDbSymbolTableRecord
100
AcDbLinetypeTableRecord
2
DOT
70
64
3
. . . . . . . . . . . . . . . . . . . .
72
65
73
2
40
0.2
49
0.1
74
0
49
-0.1
74
0
0
LTYPE
5
1F9
100
AcDbSymbolTableRecord
100
AcDbLinetypeTableRecord
2
DASHED
70
64
3
- - - - - - - - - - - - - - - - - - - -
72
65
73
2
40
0.2
49
0.1
74
0
49
-0.1
74
0
0
ENDTAB
0
TABLE
2
LAYER
5
2
100
AcDbSymbolTable
70
36
0
LAYER
5
10
100
AcDbSymbolTableRecord
100
AcDbLayerTableRecord
2
0
70
0
62
7
6
CONTINUOUS
0
LAYER
5
1FA
100
AcDbSymbolTableRecord
100
AcDbLayerTableRecord
2
DEFAULT_1
70
0
62
7
6
CENTER
0
LAYER
5
1FB
100
AcDbSymbolTableRecord
100
AcDbLayerTableRecord
2
DEFAULT_2
70
0
62
8
6
HIDDEN
0
LAYER
5
1FC
100
AcDbSymbolTableRecord
100
AcDbLayerTableRecord
2
DEFAULT_3
70
0
62
7
6
PHANTOM
0
LAYER
5
1FD
100
AcDbSymbolTableRecord
100
AcDbLayerTableRecord
2
POUB
70
0
62
7
6
CONTINUOUS
0
ENDTAB
0
TABLE
2
STYLE
5
3
100
AcDbSymbolTable
70
1
0
STYLE
5
11
100
AcDbSymbolTableRecord
100
AcDbTextStyleTableRecord
2
STANDARD
70
0
40
0.0
41
0.8000000000
50
0.0
71
0
42
0.2
3
txt
4

0
STYLE
5
1FE
100
AcDbSymbolTableRecord
100
AcDbTextStyleTableRecord
2
TEXTSTYLE_1
70
0
40
0.0
41
0.8000000000
50
0.0
71
0
42
0.2
3
txt
4

0
ENDTAB
0
TABLE
2
VIEW
5
6
100
AcDbSymbolTable
70
0
0
ENDTAB
0
TABLE
2
UCS
5
7
100
AcDbSymbolTable
70
0
0
ENDTAB
0
TABLE
2
APPID
5
9
100
AcDbSymbolTable
70
1
0
APPID
5
1FF
100
AcDbSymbolTableRecord
100
AcDbRegAppTableRecord
2
ACAD
70
0
0
ENDTAB
0
TABLE
2
DIMSTYLE
5
A
100
AcDbSymbolTable
70
1
0
DIMSTYLE
105
200
100
AcDbSymbolTableRecord
100
AcDbDimStyleTableRecord
2
STANDARD
70
0
3

4

5

6

7

40
1.0
41
4.5000000000
42
0.0625
43
0.38
44
0.18
45
0.0
46
0.0
47
0.0500000000
48
0.0500000000
140
3.5000000000
141
0.09
142
0.0
143
25.4
144
1.0000000000
145
0.0
146
1.0000000000
147
0.09
71
1
72
0
73
0
74
0
75
0
76
0
77
1
78
8
170
0
171
2
172
0
173
0
174
0
175
0
176
0
177
0
178
0
270
2
271
2
272
2
273
2
274
2
340
11
275
0
280
0
281
0
282
0
283
1
284
8
285
0
286
0
287
3
288
0
0
DIMSTYLE
105
201
100
AcDbSymbolTableRecord
100
AcDbDimStyleTableRecord
2
DIMSTYLE_1
70
0
3

4

5

6

7

40
1.0
41
4.5000000000
42
0.0625
43
0.38
44
0.18
45
0.0
46
0.0
47
0.0500000000
48
0.0500000000
140
3.5000000000
141
0.09
142
0.0
143
25.4
144
1.0000000000
145
0.0
146
1.0000000000
147
0.09
71
0
72
0
73
0
74
0
75
0
76
0
77
1
78
8
170
0
171
2
172
0
173
0
174
0
175
0
176
0
177
0
178
0
270
2
271
2
272
2
273
2
274
2
340
1FE
275
0
280
0
281
0
282
0
283
1
284
8
285
0
286
0
287
3
288
0
0
ENDTAB
0
TABLE
2
BLOCK_RECORD
5
1
100
AcDbSymbolTable
70
0
0
BLOCK_RECORD
5
1B
100
AcDbSymbolTableRecord
100
AcDbBlockTableRecord
2
*MODEL_SPACE
0
BLOCK_RECORD
5
1C
100
AcDbSymbolTableRecord
100
AcDbBlockTableRecord
2
*PAPER_SPACE
0
BLOCK_RECORD
5
202
100
AcDbSymbolTableRecord
100
AcDbBlockTableRecord
2
N-DES_BL0
0
BLOCK_RECORD
5
203
100
AcDbSymbolTableRecord
100
AcDbBlockTableRecord
2
N-CART_BL1
0
BLOCK_RECORD
5
204
100
AcDbSymbolTableRecord
100
AcDbBlockTableRecord
2
*D0
0
BLOCK_RECORD
5
205
100
AcDbSymbolTableRecord
100
AcDbBlockTableRecord
2
*D1
0
BLOCK_RECORD
5
206
100
AcDbSymbolTableRecord
100
AcDbBlockTableRecord
2
*D2
0
BLOCK_RECORD
5
207
100
AcDbSymbolTableRecord
100
AcDbBlockTableRecord
2
*D3
0
BLOCK_RECORD
5
208
100
AcDbSymbolTableRecord
100
AcDbBlockTableRecord
2
N-CAR_BL2
0
ENDTAB
0
ENDSEC
0
SECTION
2
BLOCKS
0
BLOCK
5
1E
100
AcDbEntity
8
0
100
AcDbBlockBegin
2
*MODEL_SPACE
70
0
10
0.0
20
0.0
30
0.0
3
*MODEL_SPACE
1

0
ENDBLK
5
1F
100
AcDbEntity
8
0
100
AcDbBlockEnd
0
BLOCK
5
20
100
AcDbEntity
8
0
100
AcDbBlockBegin
2
*PAPER_SPACE
70
0
10
0.0
20
0.0
30
0.0
3
*PAPER_SPACE
1

0
ENDBLK
5
21
100
AcDbEntity
8
0
100
AcDbBlockEnd
0
BLOCK
5
209
100
AcDbEntity
8
0
100
AcDbBlockBegin
62
2
6
CONTINUOUS
2
N-DES_BL0
70
64
10
0.0000000000
20
0.0000000000
3
N-DES_BL0
1

0
LINE
5
20A
100
AcDbEntity
8
0
100
AcDbLine
62
7
6
CONTINUOUS
10
271.5047785790
20
46.1229811484
11
271.5047785790
21
44.4337905733
0
LINE
5
20B
100
AcDbEntity
8
0
100
AcDbLine
62
7
6
CONTINUOUS
10
276.9101884192
20
43.5891952858
11
271.5047785790
21
44.4337905733
0
LINE
5
20C
100
AcDbEntity
8
DEFAULT_1
100
AcDbLine
62
2
6
CENTER
10
270.6939671030
20
45.2783858608
11
277.7209998952
21
45.2783858608
0
LINE
5
20D
100
AcDbEntity
8
0
100
AcDbLine
62
7
6
CONTINUOUS
10
276.9101884192
20
46.9675764359
11
271.5047785790
21
46.1229811484
0
LINE
5
20E
100
AcDbEntity
8
0
100
AcDbLine
62
7
6
CONTINUOUS
10
276.9101884192
20
46.9675764359
11
276.9101884192
21
43.5891952858
0
LINE
5
20F
100
AcDbEntity
8
0
100
AcDbLine
62
2
6
CONTINUOUS
10
281.3069357808
20
45.3787237810
11
281.3069357808
21
45.1780479407
0
LINE
5
210
100
AcDbEntity
8
DEFAULT_1
100
AcDbLine
62
2
6
CENTER
10
281.3069357808
20
42.6806079119
11
281.3069357808
21
47.7783879119
0
LINE
5
211
100
AcDbEntity
8
0
100
AcDbLine
62
2
6
CONTINUOUS
10
281.4072737010
20
45.2783858608
11
281.2065978606
21
45.2783858608
0
LINE
5
212
100
AcDbEntity
8
DEFAULT_1
100
AcDbLine
62
2
6
CENTER
10
280.8052461800
20
45.2783858608
11
278.8069337297
21
45.2783858608
0
LINE
5
213
100
AcDbEntity
8
DEFAULT_1
100
AcDbLine
62
2
6
CENTER
10
281.8086253816
20
45.2783858608
11
283.8069378319
21
45.2783858608
0
CIRCLE
5
214
100
AcDbEntity
8
0
100
AcDbCircle
62
7
6
CONTINUOUS
10
281.3069357808
20
45.2783858608
40
1.6891905751
0
CIRCLE
5
215
100
AcDbEntity
8
0
100
AcDbCircle
62
7
6
CONTINUOUS
10
281.3069357808
20
45.2783858608
40
0.8445952875
0
ENDBLK
5
216
100
AcDbEntity
8
0
100
AcDbBlockEnd
0
BLOCK
5
217
100
AcDbEntity
8
0
100
AcDbBlockBegin
62
2
6
CONTINUOUS
2
N-CART_BL1
70
64
10
0.0000000000
20
0.0000000000
3
N-CART_BL1
1

0
LINE
5
218
100
AcDbEntity
8
0
100
AcDbLine
62
7
6
CONTINUOUS
10
299.0041682662
20
54.4975549711
11
133.0041954662
21
54.4975549711
0
LINE
5
219
100
AcDbEntity
8
0
100
AcDbLine
62
7
6
CONTINUOUS
10
299.0041682662
20
12.9975617711
11
133.0041954662
21
12.9975617711
0
LINE
5
21A
100
AcDbEntity
8
0
100
AcDbLine
62
7
6
CONTINUOUS
10
299.0041682662
20
54.4975549711
11
299.0041682662
21
12.9975617711
0
LINE
5
21B
100
AcDbEntity
8
0
100
AcDbLine
62
7
6
CONTINUOUS
10
133.0041954662
20
54.4975549711
11
133.0041954662
21
12.9975617711
0
LINE
5
21C
100
AcDbEntity
8
0
100
AcDbLine
62
7
6
CONTINUOUS
10
299.0041682662
20
49.9975557085
11
133.0041954662
21
49.9975557085
0
LINE
5
21D
100
AcDbEntity
8
0
100
AcDbLine
62
7
6
CONTINUOUS
10
253.0041758036
20
22.4975602145
11
253.0041758036
21
12.9975617711
0
LINE
5
21E
100
AcDbEntity
8
0
100
AcDbLine
62
7
6
CONTINUOUS
10
299.0041682662
20
22.4975602145
11
253.0041758036
21
22.4975602145
0
ENDBLK
5
21F
100
AcDbEntity
8
0
100
AcDbBlockEnd
0
BLOCK
5
220
100
AcDbEntity
8
0
100
AcDbBlockBegin
62
2
6
CONTINUOUS
2
*D0
70
65
10
0.0000000000
20
0.0000000000
3
*D0
1

0
TEXT
5
221
100
AcDbEntity
8
0
100
AcDbText
62
2
6
CONTINUOUS
10
80.6272015162
20
122.3383738533
7
TEXTSTYLE_1
40
3.5000000000
1
M
50
90.0000000000
41
0.9333333333
72
0
100
AcDbText
0
TEXT
5
222
100
AcDbEntity
8
0
100
AcDbText
62
2
6
CONTINUOUS
10
80.6272015162
20
128.1717071866
7
TEXTSTYLE_1
40
3.5000000000
1
x1
50
90.0000000000
41
0.5166666667
72
0
100
AcDbText
0
TEXT
5
223
100
AcDbEntity
8
0
100
AcDbText
62
2
6
CONTINUOUS
10
80.6272015162
20
125.6050405199
7
TEXTSTYLE_1
40
3.5000000000
1
7
50
90.0000000000
41
0.7333333333
72
0
100
AcDbText
0
LINE
5
224
100
AcDbEntity
8
0
100
AcDbLine
62
2
6
CONTINUOUS
10
100.9411653567
20
145.3163731862
11
78.3022015162
21
145.3163731862
0
LINE
5
225
100
AcDbEntity
8
0
100
AcDbLine
62
2
6
CONTINUOUS
10
100.9411653567
20
138.3163731862
11
78.3022015162
21
138.3163731862
0
LINE
5
226
100
AcDbEntity
8
0
100
AcDbLine
62
2
6
CONTINUOUS
10
81.5022015162
20
145.3163731862
11
81.5022015162
21
147.3163731862
0
LINE
5
227
100
AcDbEntity
8
0
100
AcDbLine
62
2
6
CONTINUOUS
10
81.5022015162
20
147.3163731862
11
81.5022015162
21
141.8163731862
0
LINE
5
228
100
AcDbEntity
8
0
100
AcDbLine
62
2
6
CONTINUOUS
10
81.5022015162
20
138.3163731862
11
81.5022015162
21
122.3383738533
0
LINE
5
229
100
AcDbEntity
8
0
100
AcDbLine
62
2
6
CONTINUOUS
10
81.5022015162
20
122.3383738533
11
81.5022015162
21
141.8163731862
0
SOLID
5
22A
100
AcDbEntity
8
0
100
AcDbTrace
62
2
6
CONTINUOUS
10
80.7022015162
20
149.8163731862
11
81.5022015162
21
145.3163731862
12
82.3022015162
22
149.8163731862
13
82.3022015162
23
149.8163731862
0
SOLID
5
22B
100
AcDbEntity
8
0
100
AcDbTrace
62
2
6
CONTINUOUS
10
82.3022015162
20
133.8163731862
11
81.5022015162
21
138.3163731862
12
80.7022015162
22
133.8163731862
13
80.7022015162
23
133.8163731862
0
ENDBLK
5
22C
100
AcDbEntity
8
0
100
AcDbBlockEnd
0
BLOCK
5
22D
100
AcDbEntity
8
0
100
AcDbBlockBegin
62
2
6
CONTINUOUS
2
*D1
70
65
10
0.0000000000
20
0.0000000000
3
*D1
1

0
TEXT
5
22E
100
AcDbEntity
8
0
100
AcDbText
62
2
6
CONTINUOUS
10
110.9546193588
20
158.6948872939
7
TEXTSTYLE_1
40
3.5000000000
1
21
41
0.5333333333
72
0
100
AcDbText
0
LINE
5
22F
100
AcDbEntity
8
0
100
AcDbLine
62
2
6
CONTINUOUS
10
101.9411653567
20
144.9663731862
11
101.9411653567
21
161.0198872939
0
LINE
5
230
100
AcDbEntity
8
0
100
AcDbLine
62
2
6
CONTINUOUS
10
122.9411653567
20
144.9663731862
11
122.9411653567
21
161.0198872939
0
LINE
5
231
100
AcDbEntity
8
0
100
AcDbLine
62
2
6
CONTINUOUS
10
101.9411653567
20
157.8198872939
11
112.4411653567
21
157.8198872939
0
LINE
5
232
100
AcDbEntity
8
0
100
AcDbLine
62
2
6
CONTINUOUS
10
122.9411653567
20
157.8198872939
11
112.4411653567
21
157.8198872939
0
SOLID
5
233
100
AcDbEntity
8
0
100
AcDbTrace
62
2
6
CONTINUOUS
10
106.4411653567
20
158.6198872939
11
101.9411653567
21
157.8198872939
12
106.4411653567
22
157.0198872939
13
106.4411653567
23
157.0198872939
0
SOLID
5
234
100
AcDbEntity
8
0
100
AcDbTrace
62
2
6
CONTINUOUS
10
118.4411653567
20
157.0198872939
11
122.9411653567
21
157.8198872939
12
118.4411653567
22
158.6198872939
13
118.4411653567
23
158.6198872939
0
ENDBLK
5
235
100
AcDbEntity
8
0
100
AcDbBlockEnd
0
BLOCK
5
236
100
AcDbEntity
8
0
100
AcDbBlockBegin
62
2
6
CONTINUOUS
2
*D2
70
65
10
0.0000000000
20
0.0000000000
3
*D2
1

0
TEXT
5
237
100
AcDbEntity
8
0
100
AcDbText
62
2
6
CONTINUOUS
10
143.8503331231
20
118.0084468349
7
TEXTSTYLE_1
40
3.5000000000
1
M
50
90.0000000000
41
0.9333333333
72
0
100
AcDbText
0
TEXT
5
238
100
AcDbEntity
8
0
100
AcDbText
62
2
6
CONTINUOUS
10
143.8503331231
20
124.0751135016
7
TEXTSTYLE_1
40
3.5000000000
1
x0,7
50
90.0000000000
41
0.6208333333
72
0
100
AcDbText
0
TEXT
5
239
100
AcDbEntity
8
0
100
AcDbText
62
2
6
CONTINUOUS
10
143.8503331231
20
121.2751135016
7
TEXTSTYLE_1
40
3.5000000000
1
4
50
90.0000000000
41
0.8000000000
72
0
100
AcDbText
0
LINE
5
23A
100
AcDbEntity
8
0
100
AcDbLine
62
2
6
CONTINUOUS
10
124.4411653567
20
143.8163731862
11
147.9253331231
21
143.8163731862
0
LINE
5
23B
100
AcDbEntity
8
0
100
AcDbLine
62
2
6
CONTINUOUS
10
124.4411653567
20
139.8163731862
11
147.9253331231
21
139.8163731862
0
LINE
5
23C
100
AcDbEntity
8
0
100
AcDbLine
62
2
6
CONTINUOUS
10
144.7253331231
20
143.8163731862
11
144.7253331231
21
145.8163731862
0
LINE
5
23D
100
AcDbEntity
8
0
100
AcDbLine
62
2
6
CONTINUOUS
10
144.7253331231
20
145.8163731862
11
144.7253331231
21
141.8163731862
0
LINE
5
23E
100
AcDbEntity
8
0
100
AcDbLine
62
2
6
CONTINUOUS
10
144.7253331231
20
139.8163731862
11
144.7253331231
21
118.0084468349
0
LINE
5
23F
100
AcDbEntity
8
0
100
AcDbLine
62
2
6
CONTINUOUS
10
144.7253331231
20
118.0084468349
11
144.7253331231
21
141.8163731862
0
SOLID
5
240
100
AcDbEntity
8
0
100
AcDbTrace
62
2
6
CONTINUOUS
10
143.9253331231
20
148.3163731862
11
144.7253331231
21
143.8163731862
12
145.5253331231
22
148.3163731862
13
145.5253331231
23
148.3163731862
0
SOLID
5
241
100
AcDbEntity
8
0
100
AcDbTrace
62
2
6
CONTINUOUS
10
145.5253331231
20
135.3163731862
11
144.7253331231
21
139.8163731862
12
143.9253331231
22
135.3163731862
13
143.9253331231
23
135.3163731862
0
ENDBLK
5
242
100
AcDbEntity
8
0
100
AcDbBlockEnd
0
BLOCK
5
243
100
AcDbEntity
8
0
100
AcDbBlockBegin
62
2
6
CONTINUOUS
2
*D3
70
65
10
0.0000000000
20
0.0000000000
3
*D3
1

0
TEXT
5
244
100
AcDbEntity
8
0
100
AcDbText
62
2
6
CONTINUOUS
10
128.8553217245
20
109.7115182532
7
TEXTSTYLE_1
40
3.5000000000
1
2 CH0,5x
41
0.7020833333
72
0
100
AcDbText
0
TEXT
5
245
100
AcDbEntity
8
0
100
AcDbText
62
2
6
CONTINUOUS
10
148.5136550578
20
109.7115182532
7
TEXTSTYLE_1
40
3.5000000000
1
0,5
41
0.5944444444
72
0
100
AcDbText
0
LINE
5
246
100
AcDbEntity
8
0
100
AcDbLine
62
2
6
CONTINUOUS
10
122.9411653567
20
137.3163731862
11
122.9411653567
21
105.6365182532
0
LINE
5
247
100
AcDbEntity
8
0
100
AcDbLine
62
2
6
CONTINUOUS
10
122.4411653567
20
136.8163731862
11
122.4411653567
21
105.6365182532
0
LINE
5
248
100
AcDbEntity
8
0
100
AcDbLine
62
2
6
CONTINUOUS
10
122.9411653567
20
108.8365182532
11
154.7553217245
21
108.8365182532
0
LINE
5
249
100
AcDbEntity
8
0
100
AcDbLine
62
2
6
CONTINUOUS
10
154.7553217245
20
108.8365182532
11
122.6911653567
21
108.8365182532
0
LINE
5
24A
100
AcDbEntity
8
0
100
AcDbLine
62
2
6
CONTINUOUS
10
122.4411653567
20
108.8365182532
11
120.4411653567
21
108.8365182532
0
LINE
5
24B
100
AcDbEntity
8
0
100
AcDbLine
62
2
6
CONTINUOUS
10
120.4411653567
20
108.8365182532
11
122.6911653567
21
108.8365182532
0
SOLID
5
24C
100
AcDbEntity
8
0
100
AcDbTrace
62
2
6
CONTINUOUS
10
127.4411653567
20
109.6365182532
11
122.9411653567
21
108.8365182532
12
127.4411653567
22
108.0365182532
13
127.4411653567
23
108.0365182532
0
SOLID
5
24D
100
AcDbEntity
8
0
100
AcDbTrace
62
2
6
CONTINUOUS
10
117.9411653567
20
108.0365182532
11
122.4411653567
21
108.8365182532
12
117.9411653567
22
109.6365182532
13
117.9411653567
23
109.6365182532
0
ENDBLK
5
24E
100
AcDbEntity
8
0
100
AcDbBlockEnd
0
BLOCK
5
24F
100
AcDbEntity
8
0
100
AcDbBlockBegin
62
2
6
CONTINUOUS
2
N-CAR_BL2
70
64
10
0.0000000000
20
0.0000000000
3
N-CAR_BL2
1

0
TEXT
5
250
100
AcDbEntity
8
0
100
AcDbText
62
2
6
CONTINUOUS
10
149.5684797179
20
40.1999907368
7
STANDARD
40
2.9999987760
1
3,2
41
0.5000000000
72
0
100
AcDbText
0
TEXT
5
251
100
AcDbEntity
8
0
100
AcDbText
62
2
6
CONTINUOUS
10
164.5930776535
20
40.1779446858
7
STANDARD
40
2.9999987760
1
.
41
0.5000000000
72
0
100
AcDbText
0
TEXT
5
252
100
AcDbEntity
8
0
100
AcDbText
62
2
6
CONTINUOUS
10
174.5911370869
20
40.1606461818
7
STANDARD
40
2.9999987760
1
.
41
0.5000000000
72
0
100
AcDbText
0
TEXT
5
253
100
AcDbEntity
8
0
100
AcDbText
62
2
6
CONTINUOUS
10
184.6395481704
20
40.1864891348
7
STANDARD
40
2.9999987760
1
.
41
0.5000000000
72
0
100
AcDbText
0
LINE
5
254
100
AcDbEntity
8
0
100
AcDbLine
62
7
6
CONTINUOUS
10
194.7146878738
20
43.0431858328
11
196.7223726514
21
43.0431858328
0
LINE
5
255
100
AcDbEntity
8
0
100
AcDbLine
62
7
6
CONTINUOUS
10
196.7223726514
20
43.0431858328
11
196.7223726514
21
33.0431899128
0
LINE
5
256
100
AcDbEntity
8
0
100
AcDbLine
62
7
6
CONTINUOUS
10
194.7146878738
20
33.0431899128
11
196.7223726514
21
33.0431899128
0
LINE
5
257
100
AcDbEntity
8
0
100
AcDbLine
62
7
6
CONTINUOUS
10
194.3069583684
20
41.2085047744
11
191.2729776311
21
41.2085047744
0
LINE
5
258
100
AcDbEntity
8
0
100
AcDbLine
62
7
6
CONTINUOUS
10
191.2729776311
20
41.2085047744
11
188.9070967053
21
34.1108619971
0
LINE
5
259
100
AcDbEntity
8
0
100
AcDbLine
62
7
6
CONTINUOUS
10
188.9070967053
20
34.1108619971
11
186.5650764871
21
39.2207242914
0
LINE
5
25A
100
AcDbEntity
8
0
100
AcDbLine
62
7
6
CONTINUOUS
10
174.3069665284
20
41.2085047744
11
171.2729857911
21
41.2085047744
0
LINE
5
25B
100
AcDbEntity
8
0
100
AcDbLine
62
7
6
CONTINUOUS
10
171.2729857911
20
41.2085047744
11
168.9071048653
21
34.1108619971
0
LINE
5
25C
100
AcDbEntity
8
0
100
AcDbLine
62
7
6
CONTINUOUS
10
168.9071048653
20
34.1108619971
11
166.5650846470
21
39.2207242914
0
LINE
5
25D
100
AcDbEntity
8
0
100
AcDbLine
62
7
6
CONTINUOUS
10
184.3069624484
20
41.2085047744
11
181.2729817111
21
41.2085047744
0
LINE
5
25E
100
AcDbEntity
8
0
100
AcDbLine
62
7
6
CONTINUOUS
10
181.2729817111
20
41.2085047744
11
178.9071007853
21
34.1108619971
0
LINE
5
25F
100
AcDbEntity
8
0
100
AcDbLine
62
7
6
CONTINUOUS
10
178.9071007853
20
34.1108619971
11
176.5650805671
21
39.2207242914
0
LINE
5
260
100
AcDbEntity
8
0
100
AcDbLine
62
7
6
CONTINUOUS
10
161.7223869313
20
43.0431858328
11
164.1180544656
21
43.0431858328
0
LINE
5
261
100
AcDbEntity
8
0
100
AcDbLine
62
7
6
CONTINUOUS
10
161.7223869313
20
43.0431858328
11
161.7223869313
21
33.0431899128
0
LINE
5
262
100
AcDbEntity
8
0
100
AcDbLine
62
7
6
CONTINUOUS
10
161.7223869313
20
33.0431899128
11
164.1180544656
21
33.0431899128
0
LINE
5
263
100
AcDbEntity
8
0
100
AcDbLine
62
7
6
CONTINUOUS
10
159.3069726483
20
41.2085047744
11
156.2729919111
21
41.2085047744
0
LINE
5
264
100
AcDbEntity
8
0
100
AcDbLine
62
7
6
CONTINUOUS
10
156.2729919111
20
41.2085047744
11
153.9071109853
21
34.1108619971
0
LINE
5
265
100
AcDbEntity
8
0
100
AcDbLine
62
7
6
CONTINUOUS
10
153.9071109853
20
34.1108619971
11
151.5650907670
21
39.2207242914
0
ARC
5
266
100
AcDbEntity
8
0
100
AcDbCircle
62
7
6
CONTINUOUS
10
146.3749292596
20
38.9198232267
40
2.4999989800
100
AcDbArc
50
177.5591686478
51
2.4408313522
0
ARC
5
267
100
AcDbEntity
8
0
100
AcDbCircle
62
7
6
CONTINUOUS
10
141.3749312996
20
38.9198232267
40
2.4999989800
100
AcDbArc
50
0.0000000000
51
177.5591686478
0
ENDBLK
5
268
100
AcDbEntity
8
0
100
AcDbBlockEnd
0
ENDSEC
0
SECTION
2
ENTITIES
0
TEXT
5
269
100
AcDbEntity
8
0
100
AcDbText
62
2
6
CONTINUOUS
10
289.9260027481
20
9.9313254789
7
STANDARD
40
2.0000000000
1
22/96a
41
0.8000000000
72
0
100
AcDbText
0
INSERT
5
26A
100
AcDbEntity
8
0
100
AcDbBlockReference
62
2
6
CONTINUOUS
2
N-DES_BL0
10
0.0000000000
20
0.0000000000
0
INSERT
5
26B
100
AcDbEntity
8
0
100
AcDbBlockReference
62
2
6
CONTINUOUS
2
N-CART_BL1
10
0.0000000000
20
0.0000000000
0
SOLID
5
26C
100
AcDbEntity
8
0
100
AcDbTrace
62
7
6
CONTINUOUS
10
215.4664071947
20
125.9440738151
11
220.4664071947
21
127.1940738151
12
220.4664071947
22
124.6940738151
13
220.4664071947
23
124.6940738151
0
TEXT
5
26D
100
AcDbEntity
8
0
100
AcDbText
62
7
6
CONTINUOUS
10
222.6474678192
20
120.6940738151
7
TEXTSTYLE_1
40
3.5000000000
1
A
41
0.8000000000
72
0
100
AcDbText
0
SOLID
5
26E
100
AcDbEntity
8
0
100
AcDbTrace
62
7
6
CONTINUOUS
10
215.4664071947
20
158.9079217074
11
220.4664071947
21
160.1579217074
12
220.4664071947
22
157.6579217074
13
220.4664071947
23
157.6579217074
0
TEXT
5
26F
100
AcDbEntity
8
0
100
AcDbText
62
7
6
CONTINUOUS
10
222.6474678192
20
160.6579217074
7
TEXTSTYLE_1
40
3.5000000000
1
A
41
0.8000000000
72
0
100
AcDbText
0
DIMENSION
5
270
100
AcDbEntity
8
0
100
AcDbDimension
62
2
6
CONTINUOUS
2
*D0
10
81.5022015162
20
138.3163731862
11
78.8772015162
21
127.0633738533
70
160
1
M<>x1
3
DIMSTYLE_1
100
AcDbAlignedDimension
13
100.9411653567
23
145.3163731862
14
100.9411653567
24
138.3163731862
50
270.000000
100
AcDbRotatedDimension
0
DIMENSION
5
271
100
AcDbEntity
8
0
100
AcDbDimension
62
2
6
CONTINUOUS
2
*D1
10
122.9411653567
20
157.8198872939
11
112.8212860254
21
160.4448872939
70
160
3
DIMSTYLE_1
100
AcDbAlignedDimension
13
101.9411653567
23
144.9663731862
14
122.9411653567
24
144.9663731862
100
AcDbRotatedDimension
0
DIMENSION
5
272
100
AcDbEntity
8
0
100
AcDbDimension
62
2
6
CONTINUOUS
2
*D2
10
144.7253331231
20
139.8163731862
11
142.1003331231
21
125.3876135016
70
160
1
M<>x0,7
3
DIMSTYLE_1
100
AcDbAlignedDimension
13
124.4411653567
23
143.8163731862
14
124.4411653567
24
139.8163731862
50
270.000000
100
AcDbRotatedDimension
0
DIMENSION
5
273
100
AcDbEntity
8
0
100
AcDbDimension
62
2
6
CONTINUOUS
2
*D3
10
122.4411653567
20
108.8365182532
11
141.8053217245
21
111.4615182532
70
160
1
2 CH0,5x<>
3
DIMSTYLE_1
100
AcDbAlignedDimension
13
122.9411653567
23
137.3163731862
14
122.4411653567
24
136.8163731862
50
180.000000
100
AcDbRotatedDimension
0
LINE
5
274
100
AcDbEntity
8
0
100
AcDbLine
62
2
6
CONTINUOUS
10
133.0031754241
20
76.9983765268
11
299.0031754241
21
76.9983765268
0
LINE
5
275
100
AcDbEntity
8
0
100
AcDbLine
62
2
6
CONTINUOUS
10
133.0031754241
20
76.9983765268
11
133.0031754241
21
12.9983765268
0
LINE
5
276
100
AcDbEntity
8
0
100
AcDbLine
62
2
6
CONTINUOUS
10
133.0031754241
20
72.4983765268
11
299.0031754241
21
72.4983765268
0
LINE
5
277
100
AcDbEntity
8
0
100
AcDbLine
62
2
6
CONTINUOUS
10
133.0031754241
20
67.9983765268
11
299.0031754241
21
67.9983765268
0
LINE
5
278
100
AcDbEntity
8
0
100
AcDbLine
62
2
6
CONTINUOUS
10
133.0031754241
20
63.4983765268
11
299.0031754241
21
63.4983765268
0
LINE
5
279
100
AcDbEntity
8
0
100
AcDbLine
62
2
6
CONTINUOUS
10
133.0031754241
20
58.9983765268
11
299.0031754241
21
58.9983765268
0
LINE
5
27A
100
AcDbEntity
8
0
100
AcDbLine
62
2
6
CONTINUOUS
10
133.0031754241
20
54.4983765268
11
299.0031754241
21
54.4983765268
0
LINE
5
27B
100
AcDbEntity
8
0
100
AcDbLine
62
2
6
CONTINUOUS
10
133.0031754241
20
49.9983765268
11
299.0031754241
21
49.9983765268
0
LINE
5
27C
100
AcDbEntity
8
0
100
AcDbLine
62
2
6
CONTINUOUS
10
253.0031754241
20
40.9983765268
11
299.0031754241
21
40.9983765268
0
LINE
5
27D
100
AcDbEntity
8
0
100
AcDbLine
62
2
6
CONTINUOUS
10
133.0031754241
20
30.4983765268
11
299.0031754241
21
30.4983765268
0
LINE
5
27E
100
AcDbEntity
8
0
100
AcDbLine
62
2
6
CONTINUOUS
10
133.0031754241
20
22.4983765268
11
299.0031754241
21
22.4983765268
0
LINE
5
27F
100
AcDbEntity
8
0
100
AcDbLine
62
2
6
CONTINUOUS
10
133.0031754241
20
12.9983765268
11
299.0031754241
21
12.9983765268
0
LINE
5
280
100
AcDbEntity
8
0
100
AcDbLine
62
2
6
CONTINUOUS
10
148.0031754241
20
76.9983765268
11
148.0031754241
21
49.9983765268
0
LINE
5
281
100
AcDbEntity
8
0
100
AcDbLine
62
2
6
CONTINUOUS
10
163.0031754241
20
76.9983765268
11
163.0031754241
21
49.9983765268
0
LINE
5
282
100
AcDbEntity
8
0
100
AcDbLine
62
2
6
CONTINUOUS
10
173.0031754241
20
30.4983765268
11
173.0031754241
21
22.4983765268
0
LINE
5
283
100
AcDbEntity
8
0
100
AcDbLine
62
2
6
CONTINUOUS
10
178.0031754241
20
76.9983765268
11
178.0031754241
21
49.9983765268
0
LINE
5
284
100
AcDbEntity
8
0
100
AcDbLine
62
2
6
CONTINUOUS
10
193.0031754241
20
76.9983765268
11
193.0031754241
21
49.9983765268
0
LINE
5
285
100
AcDbEntity
8
0
100
AcDbLine
62
2
6
CONTINUOUS
10
213.0031754241
20
30.4983765268
11
213.0031754241
21
22.4983765268
0
LINE
5
286
100
AcDbEntity
8
0
100
AcDbLine
62
2
6
CONTINUOUS
10
253.0031754241
20
49.9983765268
11
253.0031754241
21
12.9983765268
0
LINE
5
287
100
AcDbEntity
8
0
100
AcDbLine
62
2
6
CONTINUOUS
10
279.0031754241
20
40.9983765268
11
279.0031754241
21
30.4983765268
0
LINE
5
288
100
AcDbEntity
8
0
100
AcDbLine
62
2
6
CONTINUOUS
10
299.0031754241
20
76.9983765268
11
299.0031754241
21
12.9983765268
0
TEXT
5
289
100
AcDbEntity
8
0
100
AcDbText
62
2
6
CONTINUOUS
10
139.7031754241
20
73.7483765268
7
STANDARD
40
2.0000000000
1
D
41
0.8000000000
72
1
11
140.5031754241
21
73.7483765268
100
AcDbText
0
TEXT
5
28A
100
AcDbEntity
8
0
100
AcDbText
62
2
6
CONTINUOUS
10
139.7031754241
20
69.2483765268
7
STANDARD
40
2.0000000000
1
C
41
0.8000000000
72
1
11
140.5031754241
21
69.2483765268
100
AcDbText
0
TEXT
5
28B
100
AcDbEntity
8
0
100
AcDbText
62
2
6
CONTINUOUS
10
139.7031754241
20
64.7483765268
7
STANDARD
40
2.0000000000
1
B
41
0.8000000000
72
1
11
140.5031754241
21
64.7483765268
100
AcDbText
0
TEXT
5
28C
100
AcDbEntity
8
0
100
AcDbText
62
2
6
CONTINUOUS
10
139.7031754241
20
60.2483765268
7
STANDARD
40
2.0000000000
1
A
41
0.8000000000
72
1
11
140.5031754241
21
60.2483765268
100
AcDbText
0
TEXT
5
28D
100
AcDbEntity
8
0
100
AcDbText
62
2
6
CONTINUOUS
10
169.7031754241
20
60.2483765268
7
STANDARD
40
2.0000000000
1
 
41
0.8000000000
72
1
11
170.5031754241
21
60.2483765268
100
AcDbText
0
TEXT
5
28E
100
AcDbEntity
8
0
100
AcDbText
62
2
6
CONTINUOUS
10
184.7031754241
20
60.2483765268
7
STANDARD
40
2.0000000000
1
 
41
0.8000000000
72
1
11
185.5031754241
21
60.2483765268
100
AcDbText
0
TEXT
5
28F
100
AcDbEntity
8
0
100
AcDbText
62
2
6
CONTINUOUS
10
137.3031754241
20
55.7483765268
7
STANDARD
40
2.0000000000
1
IND.
41
0.8000000000
72
1
11
140.5031754241
21
55.7483765268
100
AcDbText
0
TEXT
5
290
100
AcDbEntity
8
0
100
AcDbText
62
2
6
CONTINUOUS
10
152.3031754241
20
55.7483765268
7
STANDARD
40
2.0000000000
1
DATE
41
0.8000000000
72
1
11
155.5031754241
21
55.7483765268
100
AcDbText
0
TEXT
5
291
100
AcDbEntity
8
0
100
AcDbText
62
2
6
CONTINUOUS
10
166.5031754241
20
55.7483765268
7
STANDARD
40
2.0000000000
1
DESS.
41
0.8000000000
72
1
11
170.5031754241
21
55.7483765268
100
AcDbText
0
TEXT
5
292
100
AcDbEntity
8
0
100
AcDbText
62
2
6
CONTINUOUS
10
180.7031754241
20
55.7483765268
7
STANDARD
40
2.0000000000
1
VERIF.
41
0.8000000000
72
1
11
185.5031754241
21
55.7483765268
100
AcDbText
0
TEXT
5
293
100
AcDbEntity
8
0
100
AcDbText
62
2
6
CONTINUOUS
10
235.6031754241
20
55.7483765268
7
STANDARD
40
2.0000000000
1
MODIFICATIONS
41
0.8000000000
72
1
11
246.0031754241
21
55.7483765268
100
AcDbText
0
TEXT
5
294
100
AcDbEntity
8
0
100
AcDbText
62
2
6
CONTINUOUS
10
134.1031754241
20
51.2483765268
7
STANDARD
40
2.0000000000
1
Création
41
0.8000000000
72
1
11
140.5031754241
21
51.2483765268
100
AcDbText
0
TEXT
5
295
100
AcDbEntity
8
0
100
AcDbText
62
2
6
CONTINUOUS
10
148.3031754241
20
51.2483765268
7
STANDARD
40
2.0000000000
1
06-Jul-22
41
0.8000000000
72
1
11
155.5031754241
21
51.2483765268
100
AcDbText
0
TEXT
5
296
100
AcDbEntity
8
0
100
AcDbText
62
2
6
CONTINUOUS
10
165.7031754241
20
51.2483765268
7
STANDARD
40
2.0000000000
1
BALLON
41
0.8000000000
72
1
11
170.5031754241
21
51.2483765268
100
AcDbText
0
TEXT
5
297
100
AcDbEntity
8
0
100
AcDbText
62
2
6
CONTINUOUS
10
183.1031754241
20
51.2483765268
7
STANDARD
40
2.0000000000
1
B.L
41
0.8000000000
72
1
11
185.5031754241
21
51.2483765268
100
AcDbText
0
TEXT
5
298
100
AcDbEntity
8
0
100
AcDbText
62
2
6
CONTINUOUS
10
193.0656754241
20
51.2483765268
7
STANDARD
40
2.0000000000
1
Annule et remplace plan N%%d:                       ind:
41
0.7975308642
72
0
100
AcDbText
0
TEXT
5
299
100
AcDbEntity
8
0
100
AcDbText
62
2
6
CONTINUOUS
10
134.4031754241
20
46.7483765268
7
STANDARD
40
2.0000000000
1
ETAT DE SURFACES:
41
0.8000000000
72
1
11
148.0031754241
21
46.7483765268
100
AcDbText
0
TEXT
5
29A
100
AcDbEntity
8
0
100
AcDbText
62
2
6
CONTINUOUS
10
196.6031754241
20
46.7483765268
7
STANDARD
40
2.0000000000
1
CASSER LES ANGLES VIFS: 0,5 x 0,5
41
0.8000000000
72
1
11
223.0031754241
21
46.7483765268
100
AcDbText
0
TEXT
5
29B
100
AcDbEntity
8
0
100
AcDbText
62
2
6
CONTINUOUS
10
258.6365087574
20
33.7483765268
7
TEXTSTYLE_1
40
4.0000000000
1
ECH: 
41
0.6700000000
72
1
11
265.3365087574
21
33.7483765268
100
AcDbText
0
TEXT
5
29C
100
AcDbEntity
8
0
100
AcDbText
62
2
6
CONTINUOUS
10
272.0365087574
20
33.7483765268
7
TEXTSTYLE_1
40
4.0000000000
1
1
41
0.3333333333
72
1
11
272.7031754241
21
33.7483765268
100
AcDbText
0
TEXT
5
29D
100
AcDbEntity
8
0
100
AcDbText
62
2
6
CONTINUOUS
10
285.8031754241
20
34.3460327768
7
TEXTSTYLE_1
40
4.0000000000
1
A4
41
0.8000000000
72
1
11
289.0031754241
21
34.3460327768
100
AcDbText
0
TEXT
5
29E
100
AcDbEntity
8
0
100
AcDbText
62
2
6
CONTINUOUS
10
288.9406754241
20
33.1507202768
7
STANDARD
40
0.1562500000
1
 
41
0.8000000000
72
1
11
289.0031754241
21
33.1507202768
100
AcDbText
0
TEXT
5
29F
100
AcDbEntity
8
0
100
AcDbText
62
2
6
CONTINUOUS
10
202.2031754241
20
33.2483765268
7
STANDARD
40
2.0000000000
1
TOL. GENERALE: JS13 - js13
41
0.8000000000
72
1
11
223.0031754241
21
33.2483765268
100
AcDbText
0
TEXT
5
2A0
100
AcDbEntity
8
0
100
AcDbText
62
2
6
CONTINUOUS
10
133.0656754241
20
30.2640015268
7
STANDARD
40
0.1562500000
1
 
41
0.8000000000
72
0
100
AcDbText
0
TEXT
5
2A1
100
AcDbEntity
8
0
100
AcDbText
62
2
6
CONTINUOUS
10
133.0656754241
20
27.7249390268
7
STANDARD
40
2.0000000000
1
MATIERE
41
0.8000000000
72
0
100
AcDbText
0
TEXT
5
2A2
100
AcDbEntity
8
0
100
AcDbText
62
2
6
CONTINUOUS
10
133.0656754241
20
23.4749390268
7
STANDARD
40
3.0000000000
1
 
41
0.8000000000
72
0
100
AcDbText
0
TEXT
5
2A3
100
AcDbEntity
8
0
100
AcDbText
62
2
6
CONTINUOUS
10
173.0656754241
20
30.2640015268
7
STANDARD
40
0.1562500000
1
 
41
0.8000000000
72
0
100
AcDbText
0
TEXT
5
2A4
100
AcDbEntity
8
0
100
AcDbText
62
2
6
CONTINUOUS
10
173.0656754241
20
27.7249390268
7
STANDARD
40
2.0000000000
1
TRAITEMENT
41
0.8000000000
72
0
100
AcDbText
0
TEXT
5
2A5
100
AcDbEntity
8
0
100
AcDbText
62
2
6
CONTINUOUS
10
213.0656754241
20
30.2640015268
7
STANDARD
40
0.1562500000
1
 
41
0.8000000000
72
0
100
AcDbText
0
TEXT
5
2A6
100
AcDbEntity
8
0
100
AcDbText
62
2
6
CONTINUOUS
10
213.0656754241
20
27.7249390268
7
STANDARD
40
2.0000000000
1
PROTECTION
41
0.8000000000
72
0
100
AcDbText
0
TEXT
5
2A7
100
AcDbEntity
8
0
100
AcDbText
62
2
6
CONTINUOUS
10
258.5865087574
20
23.9598099971
7
TEXTSTYLE_1
40
5.0000000000
1
FSM France
41
0.6966666667
51
10.0000000000
72
1
11
276.0031754241
21
23.9598099971
100
AcDbText
0
TEXT
5
2A8
100
AcDbEntity
8
0
100
AcDbText
62
2
6
CONTINUOUS
10
152.9406754241
20
27.2640015268
7
STANDARD
40
0.1562500000
1
 
41
0.8000000000
72
1
11
153.0031754241
21
27.2640015268
100
AcDbText
0
TEXT
5
2A9
100
AcDbEntity
8
0
100
AcDbText
62
2
6
CONTINUOUS
10
145.5031754241
20
23.4749390268
7
TEXTSTYLE_1
40
3.0000000000
1
INOX A2
41
0.7142857143
72
1
11
153.0031754241
21
23.4749390268
100
AcDbText
0
TEXT
5
2AA
100
AcDbEntity
8
0
100
AcDbText
62
2
6
CONTINUOUS
10
151.8031754241
20
18.9749390268
7
STANDARD
40
3.0000000000
1
 
41
0.8000000000
72
1
11
153.0031754241
21
18.9749390268
100
AcDbText
0
TEXT
5
2AB
100
AcDbEntity
8
0
100
AcDbText
62
2
6
CONTINUOUS
10
192.9406754241
20
27.2640015268
7
STANDARD
40
0.1562500000
1
 
41
0.8000000000
72
1
11
193.0031754241
21
27.2640015268
100
AcDbText
0
TEXT
5
2AC
100
AcDbEntity
8
0
100
AcDbText
62
2
6
CONTINUOUS
10
193.0031754241
20
27.2249390268
7
TEXTSTYLE_1
40
3.0000000000
1

41
1.0000000000
72
1
11
193.0031754241
21
27.2249390268
100
AcDbText
0
TEXT
5
2AD
100
AcDbEntity
8
0
100
AcDbText
62
2
6
CONTINUOUS
10
191.8031754241
20
23.4749390268
7
STANDARD
40
3.0000000000
1
 
41
0.8000000000
72
1
11
193.0031754241
21
23.4749390268
100
AcDbText
0
TEXT
5
2AE
100
AcDbEntity
8
0
100
AcDbText
62
2
6
CONTINUOUS
10
232.9406754241
20
27.2640015268
7
STANDARD
40
0.1562500000
1
 
41
0.8000000000
72
1
11
233.0031754241
21
27.2640015268
100
AcDbText
0
TEXT
5
2AF
100
AcDbEntity
8
0
100
AcDbText
62
2
6
CONTINUOUS
10
233.0031754241
20
27.2249390268
7
TEXTSTYLE_1
40
3.0000000000
1

41
1.0000000000
72
1
11
233.0031754241
21
27.2249390268
100
AcDbText
0
TEXT
5
2B0
100
AcDbEntity
8
0
100
AcDbText
62
2
6
CONTINUOUS
10
231.8031754241
20
23.4749390268
7
STANDARD
40
3.0000000000
1
 
41
0.8000000000
72
1
11
233.0031754241
21
23.4749390268
100
AcDbText
0
TEXT
5
2B1
100
AcDbEntity
8
0
100
AcDbText
62
2
6
CONTINUOUS
10
136.9094254241
20
15.4554077768
7
TEXTSTYLE_1
40
5.0000000000
1
DESIGNATION :
41
0.4951923077
72
1
11
153.0031754241
21
15.4554077768
100
AcDbText
0
TEXT
5
2B2
100
AcDbEntity
8
0
100
AcDbText
62
2
6
CONTINUOUS
10
152.9406754241
20
15.0413452768
7
STANDARD
40
0.1562500000
1
 
41
0.8000000000
72
1
11
153.0031754241
21
15.0413452768
100
AcDbText
0
TEXT
5
2B3
100
AcDbEntity
8
0
100
AcDbText
62
2
6
CONTINUOUS
10
205.3781754241
20
15.4554077768
7
TEXTSTYLE_1
40
5.0000000000
1
INSERT
41
0.5083333333
72
1
11
213.0031754241
21
15.4554077768
100
AcDbText
0
TEXT
5
2B4
100
AcDbEntity
8
0
100
AcDbText
62
2
6
CONTINUOUS
10
212.9406754241
20
15.0413452768
7
STANDARD
40
0.1562500000
1
 
41
0.8000000000
72
1
11
213.0031754241
21
15.0413452768
100
AcDbText
0
TEXT
5
2B5
100
AcDbEntity
8
0
100
AcDbText
62
2
6
CONTINUOUS
10
254.2219254241
20
15.2483765268
7
TEXTSTYLE_1
40
5.0000000000
1
 N : 
41
0.5125000000
72
1
11
260.6281754241
21
15.2483765268
100
AcDbText
0
TEXT
5
2B6
100
AcDbEntity
8
0
100
AcDbText
62
2
6
CONTINUOUS
10
267.0344254241
20
15.2483765268
7
TEXTSTYLE_1
40
5.0000000000
1
100157_INSERT
41
0.4730769231
72
1
11
282.4094254241
21
15.2483765268
100
AcDbText
0
TEXT
5
2B7
100
AcDbEntity
8
0
100
AcDbText
62
2
6
CONTINUOUS
10
106.3749712245
20
186.7330142476
7
TEXTSTYLE_1
40
3.5000000000
1
COUPE 
41
0.7666666667
72
0
100
AcDbText
0
TEXT
5
2B8
100
AcDbEntity
8
0
100
AcDbText
62
2
6
CONTINUOUS
10
122.4749712245
20
186.7330142476
7
TEXTSTYLE_1
40
3.5000000000
1
A-A
41
0.6555555556
72
0
100
AcDbText
0
INSERT
5
2B9
100
AcDbEntity
8
0
100
AcDbBlockReference
62
2
6
CONTINUOUS
2
N-CAR_BL2
10
0.0000000000
20
0.0000000000
0
LINE
5
2BA
100
AcDbEntity
8
0
100
AcDbLine
62
7
6
CONTINUOUS
10
7.0000000000
20
8.0000000000
11
7.0000000000
21
218.0000000000
0
LINE
5
2BB
100
AcDbEntity
8
0
100
AcDbLine
62
7
6
CONTINUOUS
10
12.0000000000
20
13.0000000000
11
12.0000000000
21
213.0000000000
0
LINE
5
2BC
100
AcDbEntity
8
0
100
AcDbLine
62
7
6
CONTINUOUS
10
7.0000000000
20
8.0000000000
11
304.0000000000
21
8.0000000000
0
LINE
5
2BD
100
AcDbEntity
8
0
100
AcDbLine
62
7
6
CONTINUOUS
10
12.0000000000
20
13.0000000000
11
299.0000000000
21
13.0000000000
0
LINE
5
2BE
100
AcDbEntity
8
0
100
AcDbLine
62
7
6
CONTINUOUS
10
7.0000000000
20
113.0000000000
11
12.0000000000
21
115.8867513459
0
LINE
5
2BF
100
AcDbEntity
8
0
100
AcDbLine
62
7
6
CONTINUOUS
10
7.0000000000
20
113.0000000000
11
12.0000000000
21
110.1132486541
0
LINE
5
2C0
100
AcDbEntity
8
0
100
AcDbLine
62
7
6
CONTINUOUS
10
152.6132486541
20
213.0000000000
11
155.5000000000
21
218.0000000000
0
LINE
5
2C1
100
AcDbEntity
8
0
100
AcDbLine
62
7
6
CONTINUOUS
10
155.5000000000
20
8.0000000000
11
152.6132486541
21
13.0000000000
0
LINE
5
2C2
100
AcDbEntity
8
0
100
AcDbLine
62
7
6
CONTINUOUS
10
155.5000000000
20
8.0000000000
11
158.3867513459
21
13.0000000000
0
LINE
5
2C3
100
AcDbEntity
8
0
100
AcDbLine
62
7
6
CONTINUOUS
10
158.3867513459
20
213.0000000000
11
155.5000000000
21
218.0000000000
0
LINE
5
2C4
100
AcDbEntity
8
0
100
AcDbLine
62
7
6
CONTINUOUS
10
299.0000000000
20
110.1132486541
11
304.0000000000
21
113.0000000000
0
LINE
5
2C5
100
AcDbEntity
8
0
100
AcDbLine
62
7
6
CONTINUOUS
10
299.0000000000
20
115.8867513459
11
304.0000000000
21
113.0000000000
0
LINE
5
2C6
100
AcDbEntity
8
0
100
AcDbLine
62
7
6
CONTINUOUS
10
12.0000000000
20
213.0000000000
11
299.0000000000
21
213.0000000000
0
LINE
5
2C7
100
AcDbEntity
8
0
100
AcDbLine
62
7
6
CONTINUOUS
10
7.0000000000
20
218.0000000000
11
304.0000000000
21
218.0000000000
0
LINE
5
2C8
100
AcDbEntity
8
0
100
AcDbLine
62
7
6
CONTINUOUS
10
299.0000000000
20
13.0000000000
11
299.0000000000
21
213.0000000000
0
LINE
5
2C9
100
AcDbEntity
8
0
100
AcDbLine
62
7
6
CONTINUOUS
10
304.0000000000
20
8.0000000000
11
304.0000000000
21
218.0000000000
0
LINE
5
2CA
100
AcDbEntity
8
0
100
AcDbLine
62
7
6
CONTINUOUS
10
101.9411653567
20
144.8163731862
11
101.9411653567
21
138.8163731862
0
LINE
5
2CB
100
AcDbEntity
8
0
100
AcDbLine
62
7
6
CONTINUOUS
10
101.9411653567
20
144.8163731862
11
102.4411653567
21
145.3163731862
0
LINE
5
2CC
100
AcDbEntity
8
0
100
AcDbLine
62
7
6
CONTINUOUS
10
101.9411653567
20
138.8163731862
11
102.4411653567
21
138.3163731862
0
LINE
5
2CD
100
AcDbEntity
8
0
100
AcDbLine
62
2
6
CONTINUOUS
10
102.6950884336
20
143.4663731862
11
104.5450884336
21
145.3163731862
0
LINE
5
2CE
100
AcDbEntity
8
0
100
AcDbLine
62
2
6
CONTINUOUS
10
102.0700499721
20
138.6874885708
11
103.5489345875
21
140.1663731862
0
LINE
5
2CF
100
AcDbEntity
8
0
100
AcDbLine
62
2
6
CONTINUOUS
10
106.8489345875
20
143.4663731862
11
108.6989345875
21
145.3163731862
0
LINE
5
2D0
100
AcDbEntity
8
0
100
AcDbLine
62
7
6
CONTINUOUS
10
102.4411653567
20
138.3163731862
11
122.4411653567
21
138.3163731862
0
LINE
5
2D1
100
AcDbEntity
8
0
100
AcDbLine
62
2
6
CONTINUOUS
10
101.9411653567
20
138.8163731862
11
122.9411653567
21
138.8163731862
0
LINE
5
2D2
100
AcDbEntity
8
0
100
AcDbLine
62
2
6
CONTINUOUS
10
105.8527807413
20
138.3163731862
11
107.7027807413
21
140.1663731862
0
LINE
5
2D3
100
AcDbEntity
8
0
100
AcDbLine
62
2
6
CONTINUOUS
10
111.0027807413
20
143.4663731862
11
112.8527807413
21
145.3163731862
0
LINE
5
2D4
100
AcDbEntity
8
0
100
AcDbLine
62
2
6
CONTINUOUS
10
101.9411653567
20
139.8163731862
11
122.9411653567
21
139.8163731862
0
LINE
5
2D5
100
AcDbEntity
8
0
100
AcDbLine
62
7
6
CONTINUOUS
10
101.9411653567
20
140.1663731862
11
122.9411653567
21
140.1663731862
0
LINE
5
2D6
100
AcDbEntity
8
DEFAULT_1
100
AcDbLine
62
2
6
CENTER
10
147.6265893714
20
141.8163731862
11
78.7281062785
21
141.8163731862
0
LINE
5
2D7
100
AcDbEntity
8
0
100
AcDbLine
62
2
6
CONTINUOUS
10
110.0066268952
20
138.3163731862
11
111.8566268952
21
140.1663731862
0
LINE
5
2D8
100
AcDbEntity
8
0
100
AcDbLine
62
2
6
CONTINUOUS
10
115.1566268952
20
143.4663731862
11
117.0066268952
21
145.3163731862
0
LINE
5
2D9
100
AcDbEntity
8
0
100
AcDbLine
62
7
6
CONTINUOUS
10
101.9411653567
20
143.4663731862
11
122.9411653567
21
143.4663731862
0
LINE
5
2DA
100
AcDbEntity
8
0
100
AcDbLine
62
2
6
CONTINUOUS
10
101.9411653567
20
143.8163731862
11
122.9411653567
21
143.8163731862
0
LINE
5
2DB
100
AcDbEntity
8
0
100
AcDbLine
62
2
6
CONTINUOUS
10
101.9411653567
20
144.8163731862
11
122.9411653567
21
144.8163731862
0
LINE
5
2DC
100
AcDbEntity
8
0
100
AcDbLine
62
2
6
CONTINUOUS
10
114.1604730490
20
138.3163731862
11
116.0104730490
21
140.1663731862
0
LINE
5
2DD
100
AcDbEntity
8
0
100
AcDbLine
62
2
6
CONTINUOUS
10
119.3104730490
20
143.4663731862
11
121.1604730490
21
145.3163731862
0
LINE
5
2DE
100
AcDbEntity
8
0
100
AcDbLine
62
7
6
CONTINUOUS
10
102.4411653567
20
145.3163731862
11
122.4411653567
21
145.3163731862
0
LINE
5
2DF
100
AcDbEntity
8
0
100
AcDbLine
62
2
6
CONTINUOUS
10
118.3143192029
20
138.3163731862
11
120.1643192029
21
140.1663731862
0
LINE
5
2E0
100
AcDbEntity
8
0
100
AcDbLine
62
7
6
CONTINUOUS
10
122.4411653567
20
138.3163731862
11
122.9411653567
21
138.8163731862
0
LINE
5
2E1
100
AcDbEntity
8
0
100
AcDbLine
62
7
6
CONTINUOUS
10
122.4411653567
20
145.3163731862
11
122.9411653567
21
144.8163731862
0
LINE
5
2E2
100
AcDbEntity
8
0
100
AcDbLine
62
7
6
CONTINUOUS
10
122.9411653567
20
144.8163731862
11
122.9411653567
21
138.8163731862
0
LINE
5
2E3
100
AcDbEntity
8
0
100
AcDbLine
62
7
6
CONTINUOUS
10
215.4664071947
20
125.9440738151
11
216.8474678192
21
125.9440738151
0
LINE
5
2E4
100
AcDbEntity
8
0
100
AcDbLine
62
5
6
CONTINUOUS
10
216.8474678192
20
125.9440738151
11
226.8474678192
21
125.9440738151
0
LINE
5
2E5
100
AcDbEntity
8
DEFAULT_1
100
AcDbLine
62
2
6
CENTER
10
215.4664071947
20
141.8163731862
11
215.4664071947
21
133.3163731862
0
LINE
5
2E6
100
AcDbEntity
8
0
100
AcDbLine
62
5
6
PHANTOM
10
215.4664071947
20
125.9440738151
11
215.4664071947
21
133.3163731862
0
LINE
5
2E7
100
AcDbEntity
8
DEFAULT_1
100
AcDbLine
62
2
6
CENTER
10
215.4664071947
20
141.8163731862
11
215.4664071947
21
150.3163731862
0
LINE
5
2E8
100
AcDbEntity
8
0
100
AcDbLine
62
5
6
PHANTOM
10
215.4664071947
20
150.3163731862
11
215.4664071947
21
158.9079217074
0
LINE
5
2E9
100
AcDbEntity
8
DEFAULT_1
100
AcDbLine
62
2
6
CENTER
10
215.4664071947
20
141.8163731862
11
206.9664071947
21
141.8163731862
0
LINE
5
2EA
100
AcDbEntity
8
DEFAULT_1
100
AcDbLine
62
2
6
CENTER
10
215.4664071947
20
141.8163731862
11
223.9664071947
21
141.8163731862
0
LINE
5
2EB
100
AcDbEntity
8
0
100
AcDbLine
62
7
6
CONTINUOUS
10
215.4664071947
20
158.9079217074
11
216.8474678192
21
158.9079217074
0
LINE
5
2EC
100
AcDbEntity
8
0
100
AcDbLine
62
5
6
CONTINUOUS
10
216.8474678192
20
158.9079217074
11
226.8474678192
21
158.9079217074
0
ARC
5
2ED
100
AcDbEntity
8
0
100
AcDbCircle
62
2
6
CONTINUOUS
10
215.4664071947
20
141.8163731862
40
2.0000000000
100
AcDbArc
50
255.0000000000
51
195.0000000000
0
CIRCLE
5
2EE
100
AcDbEntity
8
0
100
AcDbCircle
62
7
6
CONTINUOUS
10
215.4664071947
20
141.8163731862
40
1.6500000000
0
CIRCLE
5
2EF
100
AcDbEntity
8
0
100
AcDbCircle
62
7
6
CONTINUOUS
10
215.4664071947
20
141.8163731862
40
3.5000000000
0
CIRCLE
5
2F0
100
AcDbEntity
8
0
100
AcDbCircle
62
7
6
CONTINUOUS
10
215.4664071947
20
141.8163731862
40
3.0000000000
0
ENDSEC
0
SECTION
2
OBJECTS
0
DICTIONARY
5
2F1
100
AcDbDictionary
3
ACAD_GROUP
350
2F2
3
ACAD_MLINESTYLE
350
2F3
0
DICTIONARY
5
2F2
102
{ACAD_REACTORS
330
2F1
102
}
100
AcDbDictionary
0
DICTIONARY
5
2F3
102
{ACAD_REACTORS
330
2F1
102
}
100
AcDbDictionary
3
STANDARD
350
2F4
0
MLINESTYLE
5
2F4
102
{ACAD_REACTORS
330
2F3
102
}
100
AcDbMlineStyle
2
STANDARD
70
0
3

62
256
51
90.0
52
90.0
71
2
49
0.5
62
256
6
BYLAYER
49
-0.5
62
256
6
BYLAYER
0
ENDSEC
0
EOF
