  0
SECTION
  2
HEADER
  9
$ACADVER
  1
AC1015
  9
$ACADMAINTVER
 70
         6
  9
$DWGCODEPAGE
  3
ANSI_1252
  9
$INSBASE
 10
0.0
 20
0.0
 30
0.0
  9
$EXTMIN
 10
0.0
 20
0.0
 30
0.0
  9
$EXTMAX
 10
420.0
 20
297.0
 30
0.0
  9
$LIMMIN
 10
0.0
 20
0.0
  9
$LIMMAX
 10
0.0
 20
0.0
  9
$ORTHOMODE
 70
         0
  9
$REGENMODE
 70
         1
  9
$FILLMODE
 70
         1
  9
$QTEXTMODE
 70
         0
  9
$MIRRTEXT
 70
         1
  9
$LTSCALE
 40
1.0
  9
$ATTMODE
 70
         1
  9
$TEXTSIZE
 40
3.5
  9
$TRACEWID
 40
0.05
  9
$TEXTSTYLE
  7
Standard
  9
$CLAYER
  8
0
  9
$CELTYPE
  6
Continuous
  9
$CECOLOR
 62
       256
  9
$CELTSCALE
 40
1.0
  9
$DISPSILH
 70
         0
  9
$DIMSCALE
 40
1.0
  9
$DIMASZ
 40
3.0
  9
$DIMEXO
 40
1.0
  9
$DIMDLI
 40
0.38
  9
$DIMRND
 40
0.0
  9
$DIMDLE
 40
1.0
  9
$DIMEXE
 40
0.18
  9
$DIMTP
 40
0.0
  9
$DIMTM
 40
0.0
  9
$DIMTXT
 40
3.5
  9
$DIMCEN
 40
0.09
  9
$DIMTSZ
 40
0.0
  9
$DIMTOL
 70
         0
  9
$DIMLIM
 70
         0
  9
$DIMTIH
 70
         1
  9
$DIMTOH
 70
         1
  9
$DIMSE1
 70
         0
  9
$DIMSE2
 70
         0
  9
$DIMTAD
 70
         1
  9
$DIMZIN
 70
         0
  9
$DIMBLK
  1

  9
$DIMASO
 70
         1
  9
$DIMSHO
 70
         1
  9
$DIMPOST
  1

  9
$DIMAPOST
  1

  9
$DIMALT
 70
         0
  9
$DIMALTD
 70
         2
  9
$DIMALTF
 40
0.0394
  9
$DIMLFAC
 40
1.0
  9
$DIMTOFL
 70
         0
  9
$DIMTVP
 40
0.0
  9
$DIMTIX
 70
         0
  9
$DIMSOXD
 70
         0
  9
$DIMSAH
 70
         0
  9
$DIMBLK1
  1

  9
$DIMBLK2
  1

  9
$DIMSTYLE
  2
Standard
  9
$DIMCLRD
 70
         0
  9
$DIMCLRE
 70
         0
  9
$DIMCLRT
 70
         0
  9
$DIMTFAC
 40
1.0
  9
$DIMGAP
 40
1.0
  9
$DIMJUST
 70
         0
  9
$DIMSD1
 70
         0
  9
$DIMSD2
 70
         0
  9
$DIMTOLJ
 70
         1
  9
$DIMTZIN
 70
         0
  9
$DIMALTZ
 70
         0
  9
$DIMALTTZ
 70
         0
  9
$DIMUPT
 70
         0
  9
$DIMDEC
 70
         4
  9
$DIMTDEC
 70
         4
  9
$DIMALTU
 70
         2
  9
$DIMALTTD
 70
         2
  9
$DIMTXSTY
  7
Standard
  9
$DIMAUNIT
 70
         0
  9
$DIMADEC
 70
         0
  9
$DIMALTRND
 40
0.0
  9
$DIMAZIN
 70
         0
  9
$DIMDSEP
 70
         0
  9
$DIMATFIT
 70
         3
  9
$DIMFRAC
 70
         0
  9
$DIMLDRBLK
  1

  9
$DIMLUNIT
 70
         2
  9
$DIMLWD
 70
         0
  9
$DIMLWE
 70
         0
  9
$DIMTMOVE
 70
         0
  9
$LUNITS
 70
         2
  9
$LUPREC
 70
         2
  9
$SKETCHINC
 40
0.1
  9
$FILLETRAD
 40
0.0
  9
$AUNITS
 70
         0
  9
$AUPREC
 70
         2
  9
$MENU
  1
acad
  9
$ELEVATION
 40
0.0
  9
$PELEVATION
 40
0.0
  9
$THICKNESS
 40
0.0
  9
$LIMCHECK
 70
         0
  9
$CHAMFERA
 40
0.0
  9
$CHAMFERB
 40
0.0
  9
$CHAMFERC
 40
0.0
  9
$CHAMFERD
 40
0.0
  9
$SKPOLY
 70
         0
  9
$TDCREATE
 40
0.000000000
  9
$TDUCREATE
 40
0.000000000
  9
$TDUPDATE
 40
0.000000000
  9
$TDUUPDATE
 40
0.000000000
  9
$TDINDWG
 40
0.0000000000
  9
$TDUSRTIMER
 40
0.0000000000
  9
$USRTIMER
 70
         1
  9
$ANGBASE
 50
0.0
  9
$ANGDIR
 70
         0
  9
$PDMODE
 70
         0
  9
$PDSIZE
 40
-1.0
  9
$PLINEWID
 40
0.0
  9
$SPLFRAME
 70
         0
  9
$SPLINETYPE
 70
         6
  9
$SPLINESEGS
 70
         8
  9
$HANDSEED
  5
739
  9
$SURFTAB1
 70
         6
  9
$SURFTAB2
 70
         6
  9
$SURFTYPE
 70
         6
  9
$SURFU
 70
         6
  9
$SURFV
 70
         6
  9
$UCSBASE
  2

  9
$UCSNAME
  2

  9
$UCSORG
 10
0.0
 20
0.0
 30
0.0
  9
$UCSXDIR
 10
1.0
 20
0.0
 30
0.0
  9
$UCSYDIR
 10
0.0
 20
1.0
 30
0.0
  9
$UCSORTHOREF
  2

  9
$UCSORTHOVIEW
 70
         0
  9
$UCSORGTOP
 10
0.0
 20
0.0
 30
0.0
  9
$UCSORGBOTTOM
 10
0.0
 20
0.0
 30
0.0
  9
$UCSORGLEFT
 10
0.0
 20
0.0
 30
0.0
  9
$UCSORGRIGHT
 10
0.0
 20
0.0
 30
0.0
  9
$UCSORGFRONT
 10
0.0
 20
0.0
 30
0.0
  9
$UCSORGBACK
 10
0.0
 20
0.0
 30
0.0
  9
$PUCSBASE
  2

  9
$PUCSNAME
  2

  9
$PUCSORG
 10
0.0
 20
0.0
 30
0.0
  9
$PUCSXDIR
 10
1.0
 20
0.0
 30
0.0
  9
$PUCSYDIR
 10
0.0
 20
1.0
 30
0.0
  9
$PUCSORTHOREF
  2

  9
$PUCSORTHOVIEW
 70
         0
  9
$PUCSORGTOP
 10
0.0
 20
0.0
 30
0.0
  9
$PUCSORGBOTTOM
 10
0.0
 20
0.0
 30
0.0
  9
$PUCSORGLEFT
 10
0.0
 20
0.0
 30
0.0
  9
$PUCSORGRIGHT
 10
0.0
 20
0.0
 30
0.0
  9
$PUCSORGFRONT
 10
0.0
 20
0.0
 30
0.0
  9
$PUCSORGBACK
 10
0.0
 20
0.0
 30
0.0
  9
$USERI1
 70
         0
  9
$USERI2
 70
         0
  9
$USERI3
 70
         0
  9
$USERI4
 70
         0
  9
$USERI5
 70
         0
  9
$USERR1
 40
0.0
  9
$USERR2
 40
0.0
  9
$USERR3
 40
0.0
  9
$USERR4
 40
0.0
  9
$USERR5
 40
0.0
  9
$WORLDVIEW
 70
         1
  9
$SHADEDGE
 70
         3
  9
$SHADEDIF
 70
        70
  9
$TILEMODE
 70
         1
  9
$MAXACTVP
 70
        16
  9
$PINSBASE
 10
0.0
 20
0.0
 30
0.0
  9
$PLIMCHECK
 70
         0
  9
$PEXTMIN
 10
1.0000000000E+20
 20
1.0000000000E+20
 30
1.0000000000E+20
  9
$PEXTMAX
 10
-1.0000000000E+20
 20
-1.0000000000E+20
 30
-1.0000000000E+20
  9
$PLIMMIN
 10
0.0
 20
0.0
  9
$PLIMMAX
 10
12.0
 20
9.0
  9
$UNITMODE
 70
         0
  9
$VISRETAIN
 70
         0
  9
$PLINEGEN
 70
         1
  9
$PSLTSCALE
 70
         1
  9
$TREEDEPTH
 70
      3020
  9
$CMLSTYLE
  2
Standard
  9
$CMLJUST
 70
         0
  9
$CMLSCALE
 40
1.0
  9
$PROXYGRAPHICS
 70
         0
  9
$MEASUREMENT
 70
         0
  9
$CELWEIGHT
370
         0
  9
$ENDCAPS
280
         0
  9
$JOINSTYLE
280
         0
  9
$LWDISPLAY
290
         0
  9
$INSUNITS
 70
         0
  9
$HYPERLINKBASE
  1

  9
$XEDIT
290
         1
  9
$CEPSNTYPE
380
         0
  9
$PSTYLEMODE
290
         1
  9
$FINGERPRINTGUID
  2

  9
$VERSIONGUID
  2

  9
$EXTNAMES
290
         1
  9
$PSVPSCALE
 40
0.0
  0
ENDSEC
  0
SECTION
  2
CLASSES
  0
CLASS
  1
LWPOLYLINE
  2
AcDbPolyline
  3
AutoCAD 2000
 90
    32768
280
         0
281
         1
  0
CLASS
  1
IMAGE
  2
AcDbRasterImage
  3
ISM
 90
    32895
280
         0
281
         1
  0
CLASS
  1
OLE2FRAME
  2
AcDbOle2Frame
  3
AutoCAD 2000
 90
    32768
280
         0
281
         1
  0
CLASS
  1
HATCH
  2
AcDbHatch
  3
AutoCAD 2000
 90
    32768
280
         0
281
         1
  0
CLASS
  1
DICTIONARYVAR
  2
AcDbDictionaryVar
  3
AutoCAD 2000
 90
    32768
280
         0
281
         0
  0
CLASS
  1
RASTERVARIABLES
  2
AcDbRasterVariables
  3
ISM
 90
    32768
280
         0
281
         0
  0
CLASS
  1
IMAGEDEF
  2
AcDbRasterImageDef
  3
ISM
 90
    32768
280
         0
281
         0
  0
CLASS
  1
IMAGEDEF_REACTOR
  2
AcDbRasterImageDefReactor
  3
ISM
 90
    32769
280
         0
281
         0
  0
CLASS
  1
IDBUFFER
  2
AcDbIdBuffer
  3
AutoCAD 2000
 90
    32768
280
         0
281
         0
  0
CLASS
  1
SPATIAL_FILTER
  2
AcDbSpatialFilter
  3
AutoCAD 2000
 90
    32768
280
         0
281
         0
  0
CLASS
  1
XRECORD
  2
AcDbXrecord
  3
AutoCAD 2000
 90
    32768
280
         0
281
         0
  0
CLASS
  1
SORTENTSTABLE
  2
AcDbSortentsTable
  3
AutoCAD 2000
 90
    32768
280
         0
281
         0
  0
CLASS
  1
LAYER_INDEX
  2
AcDbLayerIndex
  3
AutoCAD 2000
 90
    32768
280
         0
281
         0
  0
CLASS
  1
SPATIAL_INDEX
  2
AcDbSpatialIndex
  3
AutoCAD 2000
 90
    32768
280
         0
281
         0
  0
CLASS
  1
OBJECT_PTR
  2
CAseDLPNTableRecord
  3
"ASE-LPNTableRecord"
 90
    32769
280
         0
281
         0
  0
CLASS
  1
LAYOUT
  2
AcDbLayout
  3
AutoCAD 2000
 90
        0
280
         0
281
         0
  0
CLASS
  1
PLOTSETTINGS
  2
AcDbPlotSettings
  3
AutoCAD 2000
 90
    32768
280
         0
281
         0
  0
CLASS
  1
ACDBDICTIONARYWDFLT
  2
AcDbDictionaryWithDefault
  3
AutoCAD 2000
 90
        0
280
         0
281
         0
  0
CLASS
  1
ACDBPLACEHOLDER
  2
AcDbPlaceHolder
  3
AutoCAD 2000
 90
        0
280
         0
281
         0
  0
CLASS
  1
VBA_PROJECT
  2
AcDbVbaProject
  3
acadvba
 90
    32768
280
         0
281
         0
  0
CLASS
  1
WIPEOUT
  2
AcDbWipeout
  3
WipeOut|AutoCAD Express Tool|expresstools@autodesk.com
 90
    32895
280
         0
281
         1
  0
CLASS
  1
WIPEOUTVARIABLES
  2
AcDbWipeoutVariables
  3
WipeOut|AutoCAD Express Tool|expresstools@autodesk.com
 90
        0
280
         0
281
         0
  0
CLASS
  1
RTEXT
  2
RText
  3
RText|AutoCAD Express Tool|expresstools@autodesk.com
 90
    32768
280
         0
281
         1
  0
CLASS
  1
ARCALIGNEDTEXT
  2
AcDbArcAlignedText
  3
ATEXT|AutoCAD Express Tool|expresstools@autodesk.com
 90
    32768
280
         0
281
         1
  0
ENDSEC
  0
SECTION
  2
TABLES
  0
TABLE
  2
VPORT
  5
7
100
AcDbSymbolTable
 70
         1
  0
VPORT
  5
15
100
AcDbSymbolTableRecord
100
AcDbViewportTableRecord
  2
*ACTIVE
 70
         0
 10
0.0
 20
0.0
 11
1.0
 21
1.0
 12
210.0
 22
148.5
 13
0.0
 23
0.0
 14
1.0
 24
1.0
 15
0.0
 25
0.0
 16
0.0
 26
0.0
 36
1.0
 17
0.0
 27
0.0
 37
0.0
 40
297.0
 41
0.7071428571
 42
50.0
 43
0.0
 44
0.0
 50
0.0
 51
0.0
 71
         0
 72
      2000
 73
         1
 74
         1
 75
         0
 76
         0
 77
         0
 78
         0
281
         0
 65
         0
110
0.0
120
0.0
130
0.0
111
1.0
121
0.0
131
0.0
112
0.0
122
1.0
132
0.0
345
0
346
0
 79
         0
146
0.0
  0
ENDTAB
  0
TABLE
  2
LTYPE
  5
4
100
AcDbSymbolTable
 70
         9
  0
LTYPE
  5
11
100
AcDbSymbolTableRecord
100
AcDbLinetypeTableRecord
  2
ByBlock
 70
        64
  3

 72
        65
 73
         0
 40
0.0
  0
LTYPE
  5
12
100
AcDbSymbolTableRecord
100
AcDbLinetypeTableRecord
  2
ByLayer
 70
        64
  3

 72
        65
 73
         0
 40
0.0
  0
LTYPE
  5
13
100
AcDbSymbolTableRecord
100
AcDbLinetypeTableRecord
  2
Continuous
 70
        64
  3
Solid line
 72
        65
 73
         0
 40
0.0
  0
LTYPE
  5
24
100
AcDbSymbolTableRecord
100
AcDbLinetypeTableRecord
  2
CONTINUOUS
 70
        64
  3
Solid line
 72
        65
 73
         1
 40
60.96
 49
60.96
 74
         0
  0
LTYPE
  5
25
100
AcDbSymbolTableRecord
100
AcDbLinetypeTableRecord
  2
HIDDEN
 70
        64
  3
Hidden __ __ __ __ __ __ __ __ __ __ __ __ __ __
 72
        65
 73
         2
 40
1.905
 49
1.27
 74
         0
 49
-0.635
 74
         0
  0
LTYPE
  5
26
100
AcDbSymbolTableRecord
100
AcDbLinetypeTableRecord
  2
PHANTOM
 70
        64
  3
Phantom ______  __  __  ______  __  __  ______
 72
        65
 73
         6
 40
12.7
 49
6.35
 74
         0
 49
-1.27
 74
         0
 49
1.27
 74
         0
 49
-1.27
 74
         0
 49
1.27
 74
         0
 49
-1.27
 74
         0
  0
LTYPE
  5
27
100
AcDbSymbolTableRecord
100
AcDbLinetypeTableRecord
  2
CENTER
 70
        64
  3
Center ____ _ ____ _ ____ _ ____ _ ____ _ ____
 72
        65
 73
         4
 40
10.16
 49
6.35
 74
         0
 49
-1.27
 74
         0
 49
1.27
 74
         0
 49
-1.27
 74
         0
  0
LTYPE
  5
28
100
AcDbSymbolTableRecord
100
AcDbLinetypeTableRecord
  2
CENTERX2
 70
        64
  3
Center (2x) ________  __  ________  __  _____
 72
        65
 73
         4
 40
20.32
 49
12.7
 74
         0
 49
-2.54
 74
         0
 49
2.54
 74
         0
 49
-2.54
 74
         0
  0
LTYPE
  5
29
100
AcDbSymbolTableRecord
100
AcDbLinetypeTableRecord
  2
DOT2
 70
        64
  3
Dot (.5x) ........................................
 72
        65
 73
         2
 40
0.635
 49
0.0
 74
         0
 49
-0.635
 74
         0
  0
ENDTAB
  0
TABLE
  2
LAYER
  5
2
100
AcDbSymbolTable
 70
         1
  0
LAYER
  5
14
100
AcDbSymbolTableRecord
100
AcDbLayerTableRecord
  2
0
 70
         0
 62
         7
  6
Continuous
290
         1
370
        -3
390
1D
  0
ENDTAB
  0
TABLE
  2
STYLE
  5
3
100
AcDbSymbolTable
 70
         2
  0
STYLE
  5
17
100
AcDbSymbolTableRecord
100
AcDbTextStyleTableRecord
  2
Standard
 70
         0
 40
0.0
 41
1.0
 50
0.0
 71
         0
 42
0.0
  3
txt
  4

  0
STYLE
  5
4B
100
AcDbSymbolTableRecord
100
AcDbTextStyleTableRecord
  2
SLDTEXTSTYLE0
 70
         0
 40
0.0
 41
0.75
 50
0.0
 71
         0
 42
0.0
  3
txt
  4

  0
ENDTAB
  0
TABLE
  2
VIEW
  5
5
100
AcDbSymbolTable
 70
         0
  0
ENDTAB
  0
TABLE
  2
UCS
  5
6
100
AcDbSymbolTable
 70
         0
  0
ENDTAB
  0
TABLE
  2
APPID
  5
8
100
AcDbSymbolTable
 70
         1
  0
APPID
  5
16
100
AcDbSymbolTableRecord
100
AcDbRegAppTableRecord
  2
ACAD
 70
         0
  0
ENDTAB
  0
TABLE
  2
DIMSTYLE
  5
9
100
AcDbSymbolTable
 70
         7
100
AcDbDimStyleTable
 71
         0
  0
DIMSTYLE
105
18
100
AcDbSymbolTableRecord
100
AcDbDimStyleTableRecord
  2
Standard
 70
         0
  3

  4

 40
1.0
 41
0.18
 42
0.0625
 43
0.38
 44
0.18
 45
0.0
 46
0.0
 47
0.0
 48
0.0
 71
         0
 72
         0
 73
         1
 74
         1
 75
         0
 76
         0
 77
         0
 78
         0
 79
         0
140
0.18
141
0.09
142
0.0
143
25.4
144
1.0
145
0.0
146
1.0
147
0.09
148
0.0
170
         0
171
         2
172
         0
173
         0
174
         0
175
         0
176
         0
177
         0
178
         0
179
         0
271
         4
272
         4
273
         2
274
         2
275
         0
276
         0
277
         2
278
        46
279
         0
280
         0
281
         0
282
         0
283
         1
284
         0
285
         0
286
         0
288
         0
340
17
341
0
342
0
343
0
344
0
371
        -2
372
        -2
  0
DIMSTYLE
105
98
100
AcDbSymbolTableRecord
100
AcDbDimStyleTableRecord
  2
SLDDIMSTYLE0
 70
         0
  3

  4

 40
1.0
 41
3.0
 42
0.0625
 43
0.38
 44
1.0
 45
0.0
 46
0.0
 47
0.0
 48
0.0
 71
         0
 72
         0
 73
         1
 74
         1
 75
         0
 76
         0
 77
         0
 78
         8
 79
         0
140
3.5
141
0.09
142
0.0
143
25.4
144
1.0
145
0.0
146
1.0
147
0.875
148
0.0
170
         0
171
         2
172
         0
173
         1
174
         0
175
         0
176
       255
177
       255
178
       255
179
         0
271
         0
272
         4
273
         2
274
         2
275
         0
276
         0
277
         2
278
        46
279
         0
280
         0
281
         0
282
         0
283
         1
284
        12
285
         0
286
         0
288
         0
340
17
341
0
342
0
343
99
344
99
371
        -2
372
        -2
  0
DIMSTYLE
105
A4
100
AcDbSymbolTableRecord
100
AcDbDimStyleTableRecord
  2
SLDDIMSTYLE1
 70
         0
  3

  4

 40
1.0
 41
3.0
 42
0.0625
 43
0.38
 44
1.0
 45
0.0
 46
0.0
 47
0.0
 48
0.0
 71
         0
 72
         0
 73
         1
 74
         1
 75
         0
 76
         0
 77
         0
 78
        12
 79
         0
140
3.5
141
0.09
142
0.0
143
25.4
144
1.0
145
0.0
146
1.0
147
0.875
148
0.0
170
         0
171
         2
172
         0
173
         1
174
         0
175
         0
176
       255
177
       255
178
       255
179
         0
271
         2
272
         4
273
         2
274
         2
275
         0
276
         0
277
         2
278
        46
279
         0
280
         0
281
         0
282
         0
283
         1
284
        12
285
         0
286
         0
288
         0
340
17
341
0
342
0
343
99
344
99
371
        -2
372
        -2
  0
DIMSTYLE
105
10D
100
AcDbSymbolTableRecord
100
AcDbDimStyleTableRecord
  2
SLDDIMSTYLE2
 70
         0
  3

  4

 40
1.0
 41
3.0
 42
0.0625
 43
0.38
 44
1.0
 45
0.0
 46
0.0
 47
0.1
 48
0.0
 71
         1
 72
         0
 73
         1
 74
         1
 75
         0
 76
         0
 77
         0
 78
        12
 79
         0
140
3.5
141
0.09
142
0.0
143
25.4
144
1.0
145
0.0
146
1.0
147
0.875
148
0.0
170
         0
171
         2
172
         1
173
         1
174
         0
175
         0
176
       255
177
       255
178
       255
179
         0
271
         2
272
         2
273
         2
274
         2
275
         0
276
         0
277
         2
278
        46
279
         0
280
         0
281
         0
282
         0
283
         1
284
         8
285
         0
286
         0
288
         0
340
17
341
0
342
0
343
0
344
0
371
        -2
372
        -2
  0
DIMSTYLE
105
12A
100
AcDbSymbolTableRecord
100
AcDbDimStyleTableRecord
  2
SLDDIMSTYLE3
 70
         0
  3

  4

 40
1.0
 41
3.0
 42
0.0625
 43
0.38
 44
1.0
 45
0.0
 46
0.0
 47
0.0
 48
0.0
 71
         0
 72
         0
 73
         1
 74
         1
 75
         0
 76
         0
 77
         0
 78
        12
 79
         0
140
3.5
141
0.09
142
0.0
143
25.4
144
1.0
145
0.0
146
1.0
147
0.875
148
0.0
170
         0
171
         2
172
         1
173
         1
174
         0
175
         0
176
       255
177
       255
178
       255
179
         0
271
         2
272
         4
273
         2
274
         2
275
         0
276
         0
277
         2
278
        46
279
         0
280
         0
281
         0
282
         0
283
         1
284
        12
285
         0
286
         0
288
         0
340
17
341
0
342
0
343
0
344
0
371
        -2
372
        -2
  0
DIMSTYLE
105
148
100
AcDbSymbolTableRecord
100
AcDbDimStyleTableRecord
  2
SLDDIMSTYLE4
 70
         0
  3

  4

 40
1.0
 41
3.0
 42
0.0625
 43
0.38
 44
0.0
 45
0.0
 46
0.0
 47
0.0
 48
0.0
 71
         0
 72
         0
 73
         1
 74
         1
 75
         0
 76
         0
 77
         0
 78
         0
 79
         0
140
6.0
141
0.09
142
0.0
143
25.4
144
1.0
145
0.0
146
1.0
147
1.5
148
0.0
170
         0
171
         2
172
         0
173
         1
174
         0
175
         0
176
         0
177
         0
178
         0
179
         0
271
         0
272
         0
273
         2
274
         2
275
         0
276
         0
277
         2
278
        46
279
         0
280
         0
281
         0
282
         0
283
         1
284
         0
285
         0
286
         0
288
         0
340
17
341
0
342
0
343
0
344
0
371
        -2
372
        -2
  0
DIMSTYLE
105
17C
100
AcDbSymbolTableRecord
100
AcDbDimStyleTableRecord
  2
SLDDIMSTYLE5
 70
         0
  3

  4

 40
1.0
 41
3.0
 42
0.0625
 43
0.38
 44
1.0
 45
0.0
 46
0.0
 47
0.0
 48
0.0
 71
         0
 72
         0
 73
         1
 74
         1
 75
         0
 76
         0
 77
         0
 78
        12
 79
         0
140
3.5
141
0.09
142
0.0
143
25.4
144
1.0
145
0.0
146
1.0
147
0.875
148
0.0
170
         0
171
         2
172
         0
173
         1
174
         0
175
         0
176
       255
177
       255
178
       255
179
         0
271
         2
272
         4
273
         2
274
         2
275
         0
276
         0
277
         2
278
        46
279
         0
280
         0
281
         0
282
         0
283
         1
284
        12
285
         0
286
         0
288
         0
340
17
341
0
342
0
343
0
344
0
371
        -2
372
        -2
  0
ENDTAB
  0
TABLE
  2
BLOCK_RECORD
  5
1
100
AcDbSymbolTable
 70
        23
  0
BLOCK_RECORD
  5
A
100
AcDbSymbolTableRecord
100
AcDbBlockTableRecord
  2
*MODEL_SPACE
340
20
  0
BLOCK_RECORD
  5
B
100
AcDbSymbolTableRecord
100
AcDbBlockTableRecord
  2
*PAPER_SPACE
340
21
  0
BLOCK_RECORD
  5
94
100
AcDbSymbolTableRecord
100
AcDbBlockTableRecord
  2
*D0
340
0
  0
BLOCK_RECORD
  5
99
100
AcDbSymbolTableRecord
100
AcDbBlockTableRecord
  2
_NONE
340
0
  0
BLOCK_RECORD
  5
A0
100
AcDbSymbolTableRecord
100
AcDbBlockTableRecord
  2
*D2
340
0
  0
BLOCK_RECORD
  5
A9
100
AcDbSymbolTableRecord
100
AcDbBlockTableRecord
  2
*D3
340
0
  0
BLOCK_RECORD
  5
B1
100
AcDbSymbolTableRecord
100
AcDbBlockTableRecord
  2
*D4
340
0
  0
BLOCK_RECORD
  5
B9
100
AcDbSymbolTableRecord
100
AcDbBlockTableRecord
  2
*D5
340
0
  0
BLOCK_RECORD
  5
C1
100
AcDbSymbolTableRecord
100
AcDbBlockTableRecord
  2
*D6
340
0
  0
BLOCK_RECORD
  5
C9
100
AcDbSymbolTableRecord
100
AcDbBlockTableRecord
  2
*D7
340
0
  0
BLOCK_RECORD
  5
D1
100
AcDbSymbolTableRecord
100
AcDbBlockTableRecord
  2
*D8
340
0
  0
BLOCK_RECORD
  5
D9
100
AcDbSymbolTableRecord
100
AcDbBlockTableRecord
  2
*D9
340
0
  0
BLOCK_RECORD
  5
E1
100
AcDbSymbolTableRecord
100
AcDbBlockTableRecord
  2
*D10
340
0
  0
BLOCK_RECORD
  5
E9
100
AcDbSymbolTableRecord
100
AcDbBlockTableRecord
  2
*D11
340
0
  0
BLOCK_RECORD
  5
F1
100
AcDbSymbolTableRecord
100
AcDbBlockTableRecord
  2
*D12
340
0
  0
BLOCK_RECORD
  5
F9
100
AcDbSymbolTableRecord
100
AcDbBlockTableRecord
  2
*D13
340
0
  0
BLOCK_RECORD
  5
101
100
AcDbSymbolTableRecord
100
AcDbBlockTableRecord
  2
*D14
340
0
  0
BLOCK_RECORD
  5
112
100
AcDbSymbolTableRecord
100
AcDbBlockTableRecord
  2
*D15
340
0
  0
BLOCK_RECORD
  5
122
100
AcDbSymbolTableRecord
100
AcDbBlockTableRecord
  2
*D16
340
0
  0
BLOCK_RECORD
  5
12F
100
AcDbSymbolTableRecord
100
AcDbBlockTableRecord
  2
*D17
340
0
  0
BLOCK_RECORD
  5
13B
100
AcDbSymbolTableRecord
100
AcDbBlockTableRecord
  2
*D18
340
0
  0
BLOCK_RECORD
  5
172
100
AcDbSymbolTableRecord
100
AcDbBlockTableRecord
  2
*D19
340
0
  0
BLOCK_RECORD
  5
181
100
AcDbSymbolTableRecord
100
AcDbBlockTableRecord
  2
*D20
340
0
  0
BLOCK_RECORD
  5
18D
100
AcDbSymbolTableRecord
100
AcDbBlockTableRecord
  2
*D21
340
0
  0
BLOCK_RECORD
  5
72C
100
AcDbSymbolTableRecord
100
AcDbBlockTableRecord
  2
*D22
340
0
  0
ENDTAB
  0
ENDSEC
  0
SECTION
  2
BLOCKS
  0
BLOCK
  5
D
100
AcDbEntity
  8
0
100
AcDbBlockBegin
  2
*MODEL_SPACE
 70
         0
 10
0.0
 20
0.0
 30
0.0
  3
*MODEL_SPACE
  1

  0
ENDBLK
  5
E
100
AcDbEntity
  8
0
100
AcDbBlockEnd
  0
BLOCK
  5
F
100
AcDbEntity
 67
         1
  8
0
100
AcDbBlockBegin
  2
*PAPER_SPACE
 70
         0
 10
0.0
 20
0.0
 30
0.0
  3
*PAPER_SPACE
  1

  0
ENDBLK
  5
10
100
AcDbEntity
 67
         1
  8
0
100
AcDbBlockEnd
  0
BLOCK
  5
95
100
AcDbEntity
  8
0
 62
       255
100
AcDbBlockBegin
  2
*D0
 70
         1
 10
0.0
 20
0.0
 30
0.0
  3
*D0
  1

  0
MTEXT
  5
96
100
AcDbEntity
  8
0
 62
         7
100
AcDbMText
 10
48.9752049612
 20
162.3100275084
 30
0.0
 40
3.5
 41
0.0
 71
         7
 72
         1
  1
0
  7
SLDTEXTSTYLE0
 11
0.0
 21
1.0
 31
0.0
 73
         1
 44
1.0
  0
LINE
  5
97
100
AcDbEntity
  8
0
100
AcDbLine
 10
47.6977153346
 20
178.8529726674
 30
0.0
 11
47.6977153346
 21
166.4794818653
 31
0.0
  0
POINT
  5
9C
100
AcDbEntity
  8
0
 62
         7
100
AcDbPoint
 10
47.6977153346
 20
179.8529726674
 30
0.0
  0
POINT
  5
9D
100
AcDbEntity
  8
0
 62
         7
100
AcDbPoint
 10
47.6977153346
 20
166.4794818653
 30
0.0
  0
ENDBLK
  5
9E
100
AcDbEntity
  8
0
100
AcDbBlockEnd
  0
BLOCK
  5
9A
100
AcDbEntity
  8
0
100
AcDbBlockBegin
  2
_NONE
 70
         0
 10
0.0
 20
0.0
 30
0.0
  3
_NONE
  1

  0
ENDBLK
  5
9B
100
AcDbEntity
  8
0
100
AcDbBlockEnd
  0
BLOCK
  5
A1
100
AcDbEntity
  8
0
 62
       255
100
AcDbBlockBegin
  2
*D2
 70
         1
 10
0.0
 20
0.0
 30
0.0
  3
*D2
  1

  0
MTEXT
  5
A2
100
AcDbEntity
  8
0
 62
         7
100
AcDbMText
 10
58.9752049612
 20
159.7280731516
 30
0.0
 40
3.5
 41
0.0
 71
         7
 72
         1
  1
10
  7
SLDTEXTSTYLE0
 11
0.0
 21
1.0
 31
0.0
 73
         1
 44
1.0
  0
LINE
  5
A3
100
AcDbEntity
  8
0
100
AcDbLine
 10
57.6977153346
 20
188.8529726674
 30
0.0
 11
57.6977153346
 21
166.4794818653
 31
0.0
  0
POINT
  5
A5
100
AcDbEntity
  8
0
 62
         7
100
AcDbPoint
 10
57.6977153346
 20
189.8529726674
 30
0.0
  0
POINT
  5
A6
100
AcDbEntity
  8
0
 62
         7
100
AcDbPoint
 10
57.6977153346
 20
166.4794818653
 30
0.0
  0
ENDBLK
  5
A7
100
AcDbEntity
  8
0
100
AcDbBlockEnd
  0
BLOCK
  5
AA
100
AcDbEntity
  8
0
 62
       255
100
AcDbBlockBegin
  2
*D3
 70
         1
 10
0.0
 20
0.0
 30
0.0
  3
*D3
  1

  0
MTEXT
  5
AB
100
AcDbEntity
  8
0
 62
         7
100
AcDbMText
 10
70.9752049612
 20
159.7280731516
 30
0.0
 40
3.5
 41
0.0
 71
         7
 72
         1
  1
22
  7
SLDTEXTSTYLE0
 11
0.0
 21
1.0
 31
0.0
 73
         1
 44
1.0
  0
LINE
  5
AC
100
AcDbEntity
  8
0
100
AcDbLine
 10
69.6977153346
 20
226.8529726674
 30
0.0
 11
69.6977153346
 21
166.4794818653
 31
0.0
  0
POINT
  5
AD
100
AcDbEntity
  8
0
 62
         7
100
AcDbPoint
 10
69.6977153346
 20
227.8529726674
 30
0.0
  0
POINT
  5
AE
100
AcDbEntity
  8
0
 62
         7
100
AcDbPoint
 10
69.6977153346
 20
166.4794818653
 30
0.0
  0
ENDBLK
  5
AF
100
AcDbEntity
  8
0
100
AcDbBlockEnd
  0
BLOCK
  5
B2
100
AcDbEntity
  8
0
 62
       255
100
AcDbBlockBegin
  2
*D4
 70
         1
 10
0.0
 20
0.0
 30
0.0
  3
*D4
  1

  0
MTEXT
  5
B3
100
AcDbEntity
  8
0
 62
         7
100
AcDbMText
 10
93.9752049612
 20
159.7280731516
 30
0.0
 40
3.5
 41
0.0
 71
         7
 72
         1
  1
45
  7
SLDTEXTSTYLE0
 11
0.0
 21
1.0
 31
0.0
 73
         1
 44
1.0
  0
LINE
  5
B4
100
AcDbEntity
  8
0
100
AcDbLine
 10
92.6977153346
 20
208.8529726674
 30
0.0
 11
92.6977153346
 21
166.4794818653
 31
0.0
  0
POINT
  5
B5
100
AcDbEntity
  8
0
 62
         7
100
AcDbPoint
 10
92.6977153346
 20
209.8529726674
 30
0.0
  0
POINT
  5
B6
100
AcDbEntity
  8
0
 62
         7
100
AcDbPoint
 10
92.6977153346
 20
166.4794818653
 30
0.0
  0
ENDBLK
  5
B7
100
AcDbEntity
  8
0
100
AcDbBlockEnd
  0
BLOCK
  5
BA
100
AcDbEntity
  8
0
 62
       255
100
AcDbBlockBegin
  2
*D5
 70
         1
 10
0.0
 20
0.0
 30
0.0
  3
*D5
  1

  0
MTEXT
  5
BB
100
AcDbEntity
  8
0
 62
         7
100
AcDbMText
 10
173.9752049612
 20
157.1461187947
 30
0.0
 40
3.5
 41
0.0
 71
         7
 72
         1
  1
125
  7
SLDTEXTSTYLE0
 11
0.0
 21
1.0
 31
0.0
 73
         1
 44
1.0
  0
LINE
  5
BC
100
AcDbEntity
  8
0
100
AcDbLine
 10
172.6977153346
 20
208.8529726674
 30
0.0
 11
172.6977153346
 21
166.4794818653
 31
0.0
  0
POINT
  5
BD
100
AcDbEntity
  8
0
 62
         7
100
AcDbPoint
 10
172.6977153346
 20
209.8529726674
 30
0.0
  0
POINT
  5
BE
100
AcDbEntity
  8
0
 62
         7
100
AcDbPoint
 10
172.6977153346
 20
166.4794818653
 30
0.0
  0
ENDBLK
  5
BF
100
AcDbEntity
  8
0
100
AcDbBlockEnd
  0
BLOCK
  5
C2
100
AcDbEntity
  8
0
 62
       255
100
AcDbBlockBegin
  2
*D6
 70
         1
 10
0.0
 20
0.0
 30
0.0
  3
*D6
  1

  0
MTEXT
  5
C3
100
AcDbEntity
  8
0
 62
         7
100
AcDbMText
 10
188.9752049612
 20
157.1461187947
 30
0.0
 40
3.5
 41
0.0
 71
         7
 72
         1
  1
140
  7
SLDTEXTSTYLE0
 11
0.0
 21
1.0
 31
0.0
 73
         1
 44
1.0
  0
LINE
  5
C4
100
AcDbEntity
  8
0
100
AcDbLine
 10
187.6977153346
 20
238.8529726674
 30
0.0
 11
187.6977153346
 21
166.4794818653
 31
0.0
  0
POINT
  5
C5
100
AcDbEntity
  8
0
 62
         7
100
AcDbPoint
 10
187.6977153346
 20
239.8529726674
 30
0.0
  0
POINT
  5
C6
100
AcDbEntity
  8
0
 62
         7
100
AcDbPoint
 10
187.6977153346
 20
166.4794818653
 30
0.0
  0
ENDBLK
  5
C7
100
AcDbEntity
  8
0
100
AcDbBlockEnd
  0
BLOCK
  5
CA
100
AcDbEntity
  8
0
 62
       255
100
AcDbBlockBegin
  2
*D7
 70
         1
 10
0.0
 20
0.0
 30
0.0
  3
*D7
  1

  0
MTEXT
  5
CB
100
AcDbEntity
  8
0
 62
         7
100
AcDbMText
 10
198.9752049612
 20
157.1461187947
 30
0.0
 40
3.5
 41
0.0
 71
         7
 72
         1
  1
150
  7
SLDTEXTSTYLE0
 11
0.0
 21
1.0
 31
0.0
 73
         1
 44
1.0
  0
LINE
  5
CC
100
AcDbEntity
  8
0
100
AcDbLine
 10
197.6977153346
 20
178.8529726674
 30
0.0
 11
197.6977153346
 21
166.4794818653
 31
0.0
  0
POINT
  5
CD
100
AcDbEntity
  8
0
 62
         7
100
AcDbPoint
 10
197.6977153346
 20
179.8529726674
 30
0.0
  0
POINT
  5
CE
100
AcDbEntity
  8
0
 62
         7
100
AcDbPoint
 10
197.6977153346
 20
166.4794818653
 30
0.0
  0
ENDBLK
  5
CF
100
AcDbEntity
  8
0
100
AcDbBlockEnd
  0
BLOCK
  5
D2
100
AcDbEntity
  8
0
 62
       255
100
AcDbBlockBegin
  2
*D8
 70
         1
 10
0.0
 20
0.0
 30
0.0
  3
*D8
  1

  0
MTEXT
  5
D3
100
AcDbEntity
  8
0
 62
         7
100
AcDbMText
 10
217.1367227979
 20
178.5754830408
 30
0.0
 40
3.5
 41
0.0
 71
         7
 72
         1
  1
0
  7
SLDTEXTSTYLE0
 73
         1
 44
1.0
  0
LINE
  5
D4
100
AcDbEntity
  8
0
100
AcDbLine
 10
198.6977153346
 20
179.8529726674
 30
0.0
 11
215.5492227979
 21
179.8529726674
 31
0.0
  0
POINT
  5
D5
100
AcDbEntity
  8
0
 62
         7
100
AcDbPoint
 10
197.6977153346
 20
179.8529726674
 30
0.0
  0
POINT
  5
D6
100
AcDbEntity
  8
0
 62
         7
100
AcDbPoint
 10
215.5492227979
 20
179.8529726674
 30
0.0
  0
ENDBLK
  5
D7
100
AcDbEntity
  8
0
100
AcDbBlockEnd
  0
BLOCK
  5
DA
100
AcDbEntity
  8
0
 62
       255
100
AcDbBlockBegin
  2
*D9
 70
         1
 10
0.0
 20
0.0
 30
0.0
  3
*D9
  1

  0
MTEXT
  5
DB
100
AcDbEntity
  8
0
 62
         7
100
AcDbMText
 10
217.1367227979
 20
188.5754830408
 30
0.0
 40
3.5
 41
0.0
 71
         7
 72
         1
  1
10
  7
SLDTEXTSTYLE0
 73
         1
 44
1.0
  0
LINE
  5
DC
100
AcDbEntity
  8
0
100
AcDbLine
 10
58.6977153346
 20
189.8529726674
 30
0.0
 11
215.5492227979
 21
189.8529726674
 31
0.0
  0
POINT
  5
DD
100
AcDbEntity
  8
0
 62
         7
100
AcDbPoint
 10
57.6977153346
 20
189.8529726674
 30
0.0
  0
POINT
  5
DE
100
AcDbEntity
  8
0
 62
         7
100
AcDbPoint
 10
215.5492227979
 20
189.8529726674
 30
0.0
  0
ENDBLK
  5
DF
100
AcDbEntity
  8
0
100
AcDbBlockEnd
  0
BLOCK
  5
E2
100
AcDbEntity
  8
0
 62
       255
100
AcDbBlockBegin
  2
*D10
 70
         1
 10
0.0
 20
0.0
 30
0.0
  3
*D10
  1

  0
MTEXT
  5
E3
100
AcDbEntity
  8
0
 62
         7
100
AcDbMText
 10
217.1367227979
 20
226.5754830408
 30
0.0
 40
3.5
 41
0.0
 71
         7
 72
         1
  1
48
  7
SLDTEXTSTYLE0
 73
         1
 44
1.0
  0
LINE
  5
E4
100
AcDbEntity
  8
0
100
AcDbLine
 10
70.6977153346
 20
227.8529726674
 30
0.0
 11
215.5492227979
 21
227.8529726674
 31
0.0
  0
POINT
  5
E5
100
AcDbEntity
  8
0
 62
         7
100
AcDbPoint
 10
69.6977153346
 20
227.8529726674
 30
0.0
  0
POINT
  5
E6
100
AcDbEntity
  8
0
 62
         7
100
AcDbPoint
 10
215.5492227979
 20
227.8529726674
 30
0.0
  0
ENDBLK
  5
E7
100
AcDbEntity
  8
0
100
AcDbBlockEnd
  0
BLOCK
  5
EA
100
AcDbEntity
  8
0
 62
       255
100
AcDbBlockBegin
  2
*D11
 70
         1
 10
0.0
 20
0.0
 30
0.0
  3
*D11
  1

  0
MTEXT
  5
EB
100
AcDbEntity
  8
0
 62
         7
100
AcDbMText
 10
217.1367227979
 20
208.5754830408
 30
0.0
 40
3.5
 41
0.0
 71
         7
 72
         1
  1
30
  7
SLDTEXTSTYLE0
 73
         1
 44
1.0
  0
LINE
  5
EC
100
AcDbEntity
  8
0
100
AcDbLine
 10
93.6977153346
 20
209.8529726674
 30
0.0
 11
215.5492227979
 21
209.8529726674
 31
0.0
  0
POINT
  5
ED
100
AcDbEntity
  8
0
 62
         7
100
AcDbPoint
 10
92.6977153346
 20
209.8529726674
 30
0.0
  0
POINT
  5
EE
100
AcDbEntity
  8
0
 62
         7
100
AcDbPoint
 10
215.5492227979
 20
209.8529726674
 30
0.0
  0
ENDBLK
  5
EF
100
AcDbEntity
  8
0
100
AcDbBlockEnd
  0
BLOCK
  5
F2
100
AcDbEntity
  8
0
 62
       255
100
AcDbBlockBegin
  2
*D12
 70
         1
 10
0.0
 20
0.0
 30
0.0
  3
*D12
  1

  0
MTEXT
  5
F3
100
AcDbEntity
  8
0
 62
         7
100
AcDbMText
 10
217.1367227979
 20
238.5754830408
 30
0.0
 40
3.5
 41
0.0
 71
         7
 72
         1
  1
60
  7
SLDTEXTSTYLE0
 73
         1
 44
1.0
  0
LINE
  5
F4
100
AcDbEntity
  8
0
100
AcDbLine
 10
188.6977153346
 20
239.8529726674
 30
0.0
 11
215.5492227979
 21
239.8529726674
 31
0.0
  0
POINT
  5
F5
100
AcDbEntity
  8
0
 62
         7
100
AcDbPoint
 10
187.6977153346
 20
239.8529726674
 30
0.0
  0
POINT
  5
F6
100
AcDbEntity
  8
0
 62
         7
100
AcDbPoint
 10
215.5492227979
 20
239.8529726674
 30
0.0
  0
ENDBLK
  5
F7
100
AcDbEntity
  8
0
100
AcDbBlockEnd
  0
BLOCK
  5
FA
100
AcDbEntity
  8
0
 62
       255
100
AcDbBlockBegin
  2
*D13
 70
         1
 10
0.0
 20
0.0
 30
0.0
  3
*D13
  1

  0
MTEXT
  5
FB
100
AcDbEntity
  8
0
 62
         7
100
AcDbMText
 10
217.1367227979
 20
248.5754830408
 30
0.0
 40
3.5
 41
0.0
 71
         7
 72
         1
  1
70
  7
SLDTEXTSTYLE0
 73
         1
 44
1.0
  0
LINE
  5
FC
100
AcDbEntity
  8
0
100
AcDbLine
 10
198.6977153346
 20
249.8529726674
 30
0.0
 11
215.5492227979
 21
249.8529726674
 31
0.0
  0
POINT
  5
FD
100
AcDbEntity
  8
0
 62
         7
100
AcDbPoint
 10
197.6977153346
 20
249.8529726674
 30
0.0
  0
POINT
  5
FE
100
AcDbEntity
  8
0
 62
         7
100
AcDbPoint
 10
215.5492227979
 20
249.8529726674
 30
0.0
  0
ENDBLK
  5
FF
100
AcDbEntity
  8
0
100
AcDbBlockEnd
  0
BLOCK
  5
102
100
AcDbEntity
  8
0
 62
       255
100
AcDbBlockBegin
  2
*D14
 70
         1
 10
0.0
 20
0.0
 30
0.0
  3
*D14
  1

  0
MTEXT
  5
103
100
AcDbEntity
  8
0
 62
         7
100
AcDbMText
 10
66.8574374266
 20
147.2453906165
 30
0.0
 40
3.5
 41
0.0
 71
         7
 72
         1
  1
%%c
  7
SLDTEXTSTYLE0
 73
         1
 44
1.0
  0
MTEXT
  5
104
100
AcDbEntity
  8
0
 62
         7
100
AcDbMText
 10
71.8569187544
 20
147.2453906165
 30
0.0
 40
3.5
 41
0.0
 71
         7
 72
         1
  1
10
  7
SLDTEXTSTYLE0
 73
         1
 44
1.0
  0
MTEXT
  5
105
100
AcDbEntity
  8
0
 62
         7
100
AcDbMText
 10
81.1359560988
 20
147.2453906165
 30
0.0
 40
3.5
 41
0.0
 71
         7
 72
         1
  1
0
  7
SLDTEXTSTYLE0
 73
         1
 44
1.0
  0
MTEXT
  5
106
100
AcDbEntity
  8
0
 62
         7
100
AcDbMText
 10
78.3095826548
 20
152.8003698696
 30
0.0
 40
3.5
 41
0.0
 71
         7
 72
         1
  1
+
  7
SLDTEXTSTYLE0
 73
         1
 44
1.0
  0
MTEXT
  5
107
100
AcDbEntity
  8
0
 62
         7
100
AcDbMText
 10
81.1359560988
 20
152.8003698696
 30
0.0
 40
3.5
 41
0.0
 71
         7
 72
         1
  1
0,10
  7
SLDTEXTSTYLE0
 73
         1
 44
1.0
  0
MTEXT
  5
108
100
AcDbEntity
  8
0
 62
         7
100
AcDbMText
 10
90.1705743561
 20
147.2453906165
 30
0.0
 40
3.5
 41
0.0
 71
         7
 72
         1
  1
 non débouchant
  7
SLDTEXTSTYLE0
 73
         1
 44
1.0
  0
LINE
  5
109
100
AcDbEntity
  8
0
100
AcDbLine
 10
58.3699785445
 20
184.8983725648
 30
0.0
 11
63.6824374266
 21
145.7453906165
 31
0.0
  0
LINE
  5
10A
100
AcDbEntity
  8
0
100
AcDbLine
 10
57.0254521247
 20
194.8075727699
 30
0.0
 11
58.3699785445
 21
184.8983725648
 31
0.0
  0
LINE
  5
10B
100
AcDbEntity
  8
0
100
AcDbLine
 10
63.6824374266
 20
145.7453906165
 30
0.0
 11
133.4303046465
 21
145.7453906165
 31
0.0
  0
SOLID
  5
10C
100
AcDbEntity
  8
0
 62
       255
100
AcDbTrace
 10
58.3699785445
 20
184.8983725648
 30
0.0
 11
58.3274224612
 21
181.8651088143
 31
0.0
 12
59.2192504797
 22
181.9861161921
 32
0.0
 13
59.2192504797
 23
181.9861161921
 33
0.0
  0
POINT
  5
10E
100
AcDbEntity
  8
0
 62
         7
100
AcDbPoint
 10
58.3699785445
 20
184.8983725648
 30
0.0
  0
POINT
  5
10F
100
AcDbEntity
  8
0
 62
         7
100
AcDbPoint
 10
57.0254521247
 20
194.8075727699
 30
0.0
  0
ENDBLK
  5
110
100
AcDbEntity
  8
0
100
AcDbBlockEnd
  0
BLOCK
  5
113
100
AcDbEntity
  8
0
 62
       255
100
AcDbBlockBegin
  2
*D15
 70
         1
 10
0.0
 20
0.0
 30
0.0
  3
*D15
  1

  0
MTEXT
  5
114
100
AcDbEntity
  8
0
 62
         7
100
AcDbMText
 10
205.6456836992
 20
260.5347616795
 30
0.0
 40
3.5
 41
0.0
 71
         7
 72
         1
  1
%%c
  7
SLDTEXTSTYLE0
 73
         1
 44
1.0
  0
MTEXT
  5
115
100
AcDbEntity
  8
0
 62
         7
100
AcDbMText
 10
210.645165027
 20
260.5347616795
 30
0.0
 40
3.5
 41
0.0
 71
         7
 72
         1
  1
10
  7
SLDTEXTSTYLE0
 73
         1
 44
1.0
  0
MTEXT
  5
116
100
AcDbEntity
  8
0
 62
         7
100
AcDbMText
 10
219.9242023714
 20
260.5347616795
 30
0.0
 40
3.5
 41
0.0
 71
         7
 72
         1
  1
0
  7
SLDTEXTSTYLE0
 73
         1
 44
1.0
  0
MTEXT
  5
117
100
AcDbEntity
  8
0
 62
         7
100
AcDbMText
 10
217.0978289274
 20
266.0897409326
 30
0.0
 40
3.5
 41
0.0
 71
         7
 72
         1
  1
+
  7
SLDTEXTSTYLE0
 73
         1
 44
1.0
  0
MTEXT
  5
118
100
AcDbEntity
  8
0
 62
         7
100
AcDbMText
 10
219.9242023714
 20
266.0897409326
 30
0.0
 40
3.5
 41
0.0
 71
         7
 72
         1
  1
0,10
  7
SLDTEXTSTYLE0
 73
         1
 44
1.0
  0
MTEXT
  5
119
100
AcDbEntity
  8
0
 62
         7
100
AcDbMText
 10
228.9588206287
 20
260.5347616795
 30
0.0
 40
3.5
 41
0.0
 71
         7
 72
         1
  1
 non débouchant
  7
SLDTEXTSTYLE0
 73
         1
 44
1.0
  0
LINE
  5
11A
100
AcDbEntity
  8
0
100
AcDbLine
 10
190.7485710731
 20
243.8143208296
 30
0.0
 11
202.4706836992
 21
259.0347616795
 31
0.0
  0
LINE
  5
11B
100
AcDbEntity
  8
0
100
AcDbLine
 10
184.6468595961
 20
235.8916245051
 30
0.0
 11
190.7485710731
 21
243.8143208296
 31
0.0
  0
LINE
  5
11C
100
AcDbEntity
  8
0
100
AcDbLine
 10
202.4706836992
 20
259.0347616795
 30
0.0
 11
272.2185509191
 21
259.0347616795
 31
0.0
  0
SOLID
  5
11D
100
AcDbEntity
  8
0
 62
       255
100
AcDbTrace
 10
190.7485710731
 20
243.8143208296
 30
0.0
 11
192.9356058508
 21
245.9165527105
 31
0.0
 12
192.2225631816
 22
246.4657067435
 32
0.0
 13
192.2225631816
 23
246.4657067435
 33
0.0
  0
POINT
  5
11E
100
AcDbEntity
  8
0
 62
         7
100
AcDbPoint
 10
190.7485710731
 20
243.8143208296
 30
0.0
  0
POINT
  5
11F
100
AcDbEntity
  8
0
 62
         7
100
AcDbPoint
 10
184.6468595961
 20
235.8916245051
 30
0.0
  0
ENDBLK
  5
120
100
AcDbEntity
  8
0
100
AcDbBlockEnd
  0
BLOCK
  5
123
100
AcDbEntity
  8
0
 62
       255
100
AcDbBlockBegin
  2
*D16
 70
         1
 10
0.0
 20
0.0
 30
0.0
  3
*D16
  1

  0
MTEXT
  5
124
100
AcDbEntity
  8
0
 62
         7
100
AcDbMText
 10
82.128660396
 20
263.3122513061
 30
0.0
 40
3.5
 41
0.0
 71
         7
 72
         1
  1
%%c
  7
SLDTEXTSTYLE0
 73
         1
 44
1.0
  0
MTEXT
  5
125
100
AcDbEntity
  8
0
 62
         7
100
AcDbMText
 10
87.1281417238
 20
263.3122513061
 30
0.0
 40
3.5
 41
0.0
 71
         7
 72
         1
  1
8
  7
SLDTEXTSTYLE0
 73
         1
 44
1.0
  0
LINE
  5
126
100
AcDbEntity
  8
0
100
AcDbLine
 10
70.7495845254
 20
231.7121916564
 30
0.0
 11
78.953660396
 21
261.8122513061
 31
0.0
  0
LINE
  5
127
100
AcDbEntity
  8
0
100
AcDbLine
 10
68.6458461438
 20
223.9937536783
 30
0.0
 11
70.7495845254
 21
231.7121916564
 31
0.0
  0
LINE
  5
128
100
AcDbEntity
  8
0
100
AcDbLine
 10
78.953660396
 20
261.8122513061
 30
0.0
 11
91.2975960807
 21
261.8122513061
 31
0.0
  0
SOLID
  5
129
100
AcDbEntity
  8
0
 62
       255
100
AcDbTrace
 10
70.7495845254
 20
231.7121916564
 30
0.0
 11
71.9726485548
 21
234.4882706142
 31
0.0
 12
71.1043242823
 22
234.7249411822
 32
0.0
 13
71.1043242823
 23
234.7249411822
 33
0.0
  0
POINT
  5
12B
100
AcDbEntity
  8
0
 62
         7
100
AcDbPoint
 10
70.7495845254
 20
231.7121916564
 30
0.0
  0
POINT
  5
12C
100
AcDbEntity
  8
0
 62
         7
100
AcDbPoint
 10
68.6458461438
 20
223.9937536783
 30
0.0
  0
ENDBLK
  5
12D
100
AcDbEntity
  8
0
100
AcDbBlockEnd
  0
BLOCK
  5
130
100
AcDbEntity
  8
0
 62
       255
100
AcDbBlockBegin
  2
*D17
 70
         1
 10
0.0
 20
0.0
 30
0.0
  3
*D17
  1

  0
MTEXT
  5
131
100
AcDbEntity
  8
0
 62
         7
100
AcDbMText
 10
105.9825356997
 20
261.9804378346
 30
0.0
 40
3.5
 41
0.0
 71
         7
 72
         1
  1
%%c
  7
SLDTEXTSTYLE0
 73
         1
 44
1.0
  0
MTEXT
  5
132
100
AcDbEntity
  8
0
 62
         7
100
AcDbMText
 10
110.9820170275
 20
261.9804378346
 30
0.0
 40
3.5
 41
0.0
 71
         7
 72
         1
  1
8,50
  7
SLDTEXTSTYLE0
 73
         1
 44
1.0
  0
LINE
  5
133
100
AcDbEntity
  8
0
100
AcDbLine
 10
93.5299683013
 20
214.0206884685
 30
0.0
 11
102.8075356997
 21
260.4804378346
 31
0.0
  0
LINE
  5
134
100
AcDbEntity
  8
0
100
AcDbLine
 10
91.8654623679
 20
205.6852568662
 30
0.0
 11
93.5299683013
 21
214.0206884685
 31
0.0
  0
LINE
  5
135
100
AcDbEntity
  8
0
100
AcDbLine
 10
102.8075356997
 20
260.4804378346
 30
0.0
 11
121.6041352848
 21
260.4804378346
 31
0.0
  0
SOLID
  5
136
100
AcDbEntity
  8
0
 62
       255
100
AcDbTrace
 10
93.5299683013
 20
214.0206884685
 30
0.0
 11
94.5587285391
 21
216.8744846023
 31
0.0
 12
93.6761534283
 22
217.050726407
 32
0.0
 13
93.6761534283
 23
217.050726407
 33
0.0
  0
POINT
  5
137
100
AcDbEntity
  8
0
 62
         7
100
AcDbPoint
 10
93.5299683013
 20
214.0206884685
 30
0.0
  0
POINT
  5
138
100
AcDbEntity
  8
0
 62
         7
100
AcDbPoint
 10
91.8654623679
 20
205.6852568662
 30
0.0
  0
ENDBLK
  5
139
100
AcDbEntity
  8
0
100
AcDbBlockEnd
  0
BLOCK
  5
13C
100
AcDbEntity
  8
0
 62
       255
100
AcDbBlockBegin
  2
*D18
 70
         1
 10
0.0
 20
0.0
 30
0.0
  3
*D18
  1

  0
MTEXT
  5
13D
100
AcDbEntity
  8
0
 62
         7
100
AcDbMText
 10
141.0536237826
 20
166.9777435341
 30
0.0
 40
3.5
 41
0.0
 71
         7
 72
         1
  1
%%c
  7
SLDTEXTSTYLE0
 73
         1
 44
1.0
  0
MTEXT
  5
13E
100
AcDbEntity
  8
0
 62
         7
100
AcDbMText
 10
146.0531051104
 20
166.9777435341
 30
0.0
 40
3.5
 41
0.0
 71
         7
 72
         1
  1
8,50
  7
SLDTEXTSTYLE0
 73
         1
 44
1.0
  0
LINE
  5
13F
100
AcDbEntity
  8
0
100
AcDbLine
 10
171.3830251889
 20
205.8114271931
 30
0.0
 11
158.2627233677
 21
165.4777435341
 31
0.0
  0
LINE
  5
140
100
AcDbEntity
  8
0
100
AcDbLine
 10
174.0124054803
 20
213.8945181416
 30
0.0
 11
171.3830251889
 21
205.8114271931
 31
0.0
  0
LINE
  5
141
100
AcDbEntity
  8
0
100
AcDbLine
 10
158.2627233677
 20
165.4777435341
 30
0.0
 11
139.4661237826
 21
165.4777435341
 31
0.0
  0
SOLID
  5
142
100
AcDbEntity
  8
0
 62
       255
100
AcDbTrace
 10
171.3830251889
 20
205.8114271931
 30
0.0
 11
170.0270802711
 21
203.0977740502
 31
0.0
 12
170.8829369598
 22
202.8193690781
 32
0.0
 13
170.8829369598
 23
202.8193690781
 33
0.0
  0
POINT
  5
143
100
AcDbEntity
  8
0
 62
         7
100
AcDbPoint
 10
171.3830251889
 20
205.8114271931
 30
0.0
  0
POINT
  5
144
100
AcDbEntity
  8
0
 62
         7
100
AcDbPoint
 10
174.0124054803
 20
213.8945181416
 30
0.0
  0
ENDBLK
  5
145
100
AcDbEntity
  8
0
100
AcDbBlockEnd
  0
BLOCK
  5
173
100
AcDbEntity
  8
0
 62
       255
100
AcDbBlockBegin
  2
*D19
 70
         1
 10
0.0
 20
0.0
 30
0.0
  3
*D19
  1

  0
MTEXT
  5
174
100
AcDbEntity
  8
0
 62
         7
100
AcDbMText
 10
31.5907772021
 20
124.1498613806
 30
0.0
 40
3.5
 41
0.0
 71
         7
 72
         1
  1
10
  7
SLDTEXTSTYLE0
 11
0.0
 21
1.0
 31
0.0
 73
         1
 44
1.0
  0
LINE
  5
175
100
AcDbEntity
  8
0
100
AcDbLine
 10
46.6977153346
 20
132.0795869345
 30
0.0
 11
32.0907772021
 21
132.0795869345
 31
0.0
  0
LINE
  5
176
100
AcDbEntity
  8
0
100
AcDbLine
 10
46.6977153346
 20
122.0795869345
 30
0.0
 11
32.0907772021
 21
122.0795869345
 31
0.0
  0
LINE
  5
177
100
AcDbEntity
  8
0
100
AcDbLine
 10
33.0907772021
 20
132.0795869345
 30
0.0
 11
33.0907772021
 21
137.0795869345
 31
0.0
  0
LINE
  5
178
100
AcDbEntity
  8
0
100
AcDbLine
 10
33.0907772021
 20
132.0795869345
 30
0.0
 11
33.0907772021
 21
122.0795869345
 31
0.0
  0
LINE
  5
179
100
AcDbEntity
  8
0
100
AcDbLine
 10
33.0907772021
 20
122.0795869345
 30
0.0
 11
33.0907772021
 21
117.0795869345
 31
0.0
  0
SOLID
  5
17A
100
AcDbEntity
  8
0
 62
       255
100
AcDbTrace
 10
33.0907772021
 20
132.0795869345
 30
0.0
 11
33.5407772021
 21
135.0795869345
 31
0.0
 12
32.6407772021
 22
135.0795869345
 32
0.0
 13
32.6407772021
 23
135.0795869345
 33
0.0
  0
SOLID
  5
17B
100
AcDbEntity
  8
0
 62
       255
100
AcDbTrace
 10
33.0907772021
 20
122.0795869345
 30
0.0
 11
32.6407772021
 21
119.0795869345
 31
0.0
 12
33.5407772021
 22
119.0795869345
 32
0.0
 13
33.5407772021
 23
119.0795869345
 33
0.0
  0
POINT
  5
17D
100
AcDbEntity
  8
0
 62
         7
100
AcDbPoint
 10
47.6977153346
 20
132.0795869345
 30
0.0
  0
POINT
  5
17E
100
AcDbEntity
  8
0
 62
         7
100
AcDbPoint
 10
47.6977153346
 20
122.0795869345
 30
0.0
  0
ENDBLK
  5
17F
100
AcDbEntity
  8
0
 62
       255
100
AcDbBlockEnd
  0
BLOCK
  5
182
100
AcDbEntity
  8
0
 62
       255
100
AcDbBlockBegin
  2
*D20
 70
         1
 10
0.0
 20
0.0
 30
0.0
  3
*D20
  1

  0
MTEXT
  5
183
100
AcDbEntity
  8
0
 62
         7
100
AcDbMText
 10
48.4604145078
 20
113.0105794916
 30
0.0
 40
3.5
 41
0.0
 71
         7
 72
         1
  1
8
  7
SLDTEXTSTYLE0
 11
0.0
 21
1.0
 31
0.0
 73
         1
 44
1.0
  0
LINE
  5
184
100
AcDbEntity
  8
0
100
AcDbLine
 10
51.6977153346
 20
130.0795869345
 30
0.0
 11
48.9604145078
 21
130.0795869345
 31
0.0
  0
LINE
  5
185
100
AcDbEntity
  8
0
100
AcDbLine
 10
49.9604145078
 20
130.0795869345
 30
0.0
 11
49.9604145078
 21
122.0795869345
 31
0.0
  0
LINE
  5
186
100
AcDbEntity
  8
0
100
AcDbLine
 10
49.9604145078
 20
122.0795869345
 30
0.0
 11
49.9604145078
 21
111.4230794916
 31
0.0
  0
SOLID
  5
187
100
AcDbEntity
  8
0
 62
       255
100
AcDbTrace
 10
49.9604145078
 20
130.0795869345
 30
0.0
 11
49.5104145078
 21
127.0795869345
 31
0.0
 12
50.4104145078
 22
127.0795869345
 32
0.0
 13
50.4104145078
 23
127.0795869345
 33
0.0
  0
SOLID
  5
188
100
AcDbEntity
  8
0
 62
       255
100
AcDbTrace
 10
49.9604145078
 20
122.0795869345
 30
0.0
 11
50.4104145078
 21
125.0795869345
 31
0.0
 12
49.5104145078
 22
125.0795869345
 32
0.0
 13
49.5104145078
 23
125.0795869345
 33
0.0
  0
POINT
  5
189
100
AcDbEntity
  8
0
 62
         7
100
AcDbPoint
 10
52.6977153346
 20
130.0795869345
 30
0.0
  0
POINT
  5
18A
100
AcDbEntity
  8
0
 62
         7
100
AcDbPoint
 10
47.6977153346
 20
122.0795869345
 30
0.0
  0
ENDBLK
  5
18B
100
AcDbEntity
  8
0
 62
       255
100
AcDbBlockEnd
  0
BLOCK
  5
18E
100
AcDbEntity
  8
0
 62
       255
100
AcDbBlockBegin
  2
*D21
 70
         1
 10
0.0
 20
0.0
 30
0.0
  3
*D21
  1

  0
MTEXT
  5
18F
100
AcDbEntity
  8
0
 62
         7
100
AcDbMText
 10
192.6536399891
 20
114.5058513897
 30
0.0
 40
3.5
 41
0.0
 71
         7
 72
         1
  1
8
  7
SLDTEXTSTYLE0
 11
0.0
 21
1.0
 31
0.0
 73
         1
 44
1.0
  0
LINE
  5
190
100
AcDbEntity
  8
0
100
AcDbLine
 10
193.6977153346
 20
130.0795869345
 30
0.0
 11
195.1536399891
 21
130.0795869345
 31
0.0
  0
LINE
  5
191
100
AcDbEntity
  8
0
100
AcDbLine
 10
194.1536399891
 20
130.0795869345
 30
0.0
 11
194.1536399891
 21
122.0795869345
 31
0.0
  0
LINE
  5
192
100
AcDbEntity
  8
0
100
AcDbLine
 10
194.1536399891
 20
122.0795869345
 30
0.0
 11
194.1536399891
 21
112.9183513897
 31
0.0
  0
SOLID
  5
193
100
AcDbEntity
  8
0
 62
       255
100
AcDbTrace
 10
194.1536399891
 20
130.0795869345
 30
0.0
 11
193.7036399891
 21
127.0795869345
 31
0.0
 12
194.6036399891
 22
127.0795869345
 32
0.0
 13
194.6036399891
 23
127.0795869345
 33
0.0
  0
SOLID
  5
194
100
AcDbEntity
  8
0
 62
       255
100
AcDbTrace
 10
194.1536399891
 20
122.0795869345
 30
0.0
 11
194.6036399891
 21
125.0795869345
 31
0.0
 12
193.7036399891
 22
125.0795869345
 32
0.0
 13
193.7036399891
 23
125.0795869345
 33
0.0
  0
POINT
  5
195
100
AcDbEntity
  8
0
 62
         7
100
AcDbPoint
 10
192.6977153346
 20
130.0795869345
 30
0.0
  0
POINT
  5
196
100
AcDbEntity
  8
0
 62
         7
100
AcDbPoint
 10
197.6977153346
 20
122.0795869345
 30
0.0
  0
ENDBLK
  5
197
100
AcDbEntity
  8
0
 62
       255
100
AcDbBlockEnd
  0
BLOCK
  5
72D
100
AcDbEntity
  8
0
 62
       255
100
AcDbBlockBegin
  2
*D22
 70
         1
 10
0.0
 20
0.0
 30
0.0
  3
*D22
  1

  0
MTEXT
  5
72E
100
AcDbEntity
  8
0
 62
         7
100
AcDbMText
 10
311.4125569617
 20
70.2995088375
 30
0.0
 40
3.5
 41
0.0
 71
         7
 72
         1
  1
6
  7
SLDTEXTSTYLE0
 11
0.2240480987
 21
0.9745780879
 31
0.0
 73
         1
 44
1.0
  0
LINE
  5
72F
100
AcDbEntity
  8
0
100
AcDbLine
 10
316.4365635677
 20
85.4582482867
 30
0.0
 11
317.5568040611
 21
90.3311387264
 31
0.0
  0
LINE
  5
730
100
AcDbEntity
  8
0
100
AcDbLine
 10
316.4365635677
 20
85.4582482867
 30
0.0
 11
315.0922749757
 21
79.6107797591
 31
0.0
  0
LINE
  5
731
100
AcDbEntity
  8
0
100
AcDbLine
 10
315.0922749757
 20
79.6107797591
 30
0.0
 11
312.518747737
 21
68.4162939749
 31
0.0
  0
SOLID
  5
732
100
AcDbEntity
  8
0
 62
       255
100
AcDbTrace
 10
316.4365635677
 20
85.4582482867
 30
0.0
 11
317.5472680033
 21
88.2811609061
 31
0.0
 12
316.6701477242
 22
88.4828041949
 32
0.0
 13
316.6701477242
 23
88.4828041949
 33
0.0
  0
SOLID
  5
733
100
AcDbEntity
  8
0
 62
       255
100
AcDbTrace
 10
315.0922749757
 20
79.6107797591
 30
0.0
 11
313.9815705401
 21
76.7878671397
 31
0.0
 12
314.8586908193
 22
76.5862238509
 32
0.0
 13
314.8586908193
 23
76.5862238509
 33
0.0
  0
POINT
  5
734
100
AcDbEntity
  8
0
 62
         7
100
AcDbPoint
 10
307.828813073
 20
87.4371047335
 30
0.0
  0
POINT
  5
735
100
AcDbEntity
  8
0
 62
         7
100
AcDbPoint
 10
313.3399871841
 20
80.0136174105
 30
0.0
  0
ENDBLK
  5
736
100
AcDbEntity
  8
0
 62
       255
100
AcDbBlockEnd
  0
ENDSEC
  0
SECTION
  2
ENTITIES
  0
LINE
  5
30
100
AcDbEntity
  8
0
370
         0
  6
Continuous
 62
         7
100
AcDbLine
 10
12.0
 20
279.0
 30
0.0
 11
408.0
 21
279.0
 31
0.0
  0
LINE
  5
31
100
AcDbEntity
  8
0
370
         0
  6
Continuous
 62
         7
100
AcDbLine
 10
12.0
 20
279.0
 30
0.0
 11
12.0
 21
18.0
 31
0.0
  0
LINE
  5
32
100
AcDbEntity
  8
0
370
         0
  6
Continuous
 62
         7
100
AcDbLine
 10
12.0
 20
18.0
 30
0.0
 11
408.0
 21
18.0
 31
0.0
  0
LINE
  5
33
100
AcDbEntity
  8
0
370
         0
  6
Continuous
 62
         7
100
AcDbLine
 10
408.0
 20
279.0
 30
0.0
 11
408.0
 21
18.0
 31
0.0
  0
LINE
  5
34
100
AcDbEntity
  8
0
370
         0
  6
Continuous
 62
         7
100
AcDbLine
 10
230.084092326
 20
18.2522667599
 30
0.0
 11
407.7493469813
 21
18.2522667599
 31
0.0
  0
LINE
  5
35
100
AcDbEntity
  8
0
370
         0
  6
Continuous
 62
         7
100
AcDbLine
 10
408.0
 20
58.3068354107
 30
0.0
 11
230.084092326
 21
58.3068354107
 31
0.0
  0
LINE
  5
36
100
AcDbEntity
  8
0
370
         0
  6
Continuous
 62
         7
100
AcDbLine
 10
366.4090916959
 20
58.3068354107
 30
0.0
 11
366.4090916959
 21
38.2795510853
 31
0.0
  0
LINE
  5
37
100
AcDbEntity
  8
0
370
         0
  6
Continuous
 62
         7
100
AcDbLine
 10
407.7493469813
 20
18.2522667599
 30
0.0
 11
288.5242550027
 21
18.2522667599
 31
0.0
  0
LINE
  5
38
100
AcDbEntity
  8
0
370
         0
  6
Continuous
 62
         7
100
AcDbLine
 10
407.7493469813
 20
18.2522667599
 30
0.0
 11
407.7493469813
 21
38.2795510853
 31
0.0
  0
LINE
  5
39
100
AcDbEntity
  8
0
370
         0
  6
Continuous
 62
         7
100
AcDbLine
 10
407.7493469813
 20
38.2795510853
 30
0.0
 11
288.5242550027
 21
38.2795510853
 31
0.0
  0
LINE
  5
3A
100
AcDbEntity
  8
0
370
         0
  6
Continuous
 62
         7
100
AcDbLine
 10
288.5242550027
 20
18.2522667599
 30
0.0
 11
288.5242550027
 21
38.2795510853
 31
0.0
  0
LINE
  5
3B
100
AcDbEntity
  8
0
370
         0
  6
Continuous
 62
         7
100
AcDbLine
 10
288.5242550027
 20
18.2522667599
 30
0.0
 11
230.084092326
 21
18.2522667599
 31
0.0
  0
LINE
  5
3C
100
AcDbEntity
  8
0
370
         0
  6
Continuous
 62
         7
100
AcDbLine
 10
288.5242550027
 20
18.2522667599
 30
0.0
 11
288.5242550027
 21
58.3068354107
 31
0.0
  0
LINE
  5
3D
100
AcDbEntity
  8
0
370
         0
  6
Continuous
 62
         7
100
AcDbLine
 10
288.5242550027
 20
58.3068354107
 30
0.0
 11
230.084092326
 21
58.3068354107
 31
0.0
  0
LINE
  5
3E
100
AcDbEntity
  8
0
370
         0
  6
Continuous
 62
         7
100
AcDbLine
 10
230.084092326
 20
18.2522667599
 30
0.0
 11
230.084092326
 21
58.3068354107
 31
0.0
  0
LINE
  5
3F
100
AcDbEntity
  8
0
370
         0
  6
Continuous
 62
         7
100
AcDbLine
 10
366.4090916959
 20
48.293193248
 30
0.0
 11
408.0
 21
48.293193248
 31
0.0
  0
LINE
  5
40
100
AcDbEntity
  8
0
370
         0
  6
Continuous
 62
         7
100
AcDbLine
 10
366.4090916959
 20
48.293193248
 30
0.0
 11
288.5242550027
 21
48.293193248
 31
0.0
  0
LINE
  5
41
100
AcDbEntity
  8
0
370
         0
  6
Continuous
 62
         7
100
AcDbLine
 10
288.5242550027
 20
38.2795510853
 30
0.0
 11
230.084092326
 21
38.2795510853
 31
0.0
  0
LINE
  5
42
100
AcDbEntity
  8
0
370
         0
  6
CENTERX2
 62
         7
100
AcDbLine
 10
231.5034756363
 20
52.6447098121
 30
0.0
 11
241.8262640213
 21
52.6447098121
 31
0.0
  0
LINE
  5
43
100
AcDbEntity
  8
0
370
         0
  6
CENTERX2
 62
         7
100
AcDbLine
 10
254.0649093727
 20
52.6447098121
 30
0.0
 11
245.9934787816
 21
52.6447098121
 31
0.0
  0
LINE
  5
44
100
AcDbEntity
  8
0
370
         0
  6
CENTERX2
 62
         7
100
AcDbLine
 10
250.0291940771
 20
55.6569677112
 30
0.0
 11
250.0291940771
 21
49.632451913
 31
0.0
  0
LINE
  5
45
100
AcDbEntity
  8
0
370
         0
  6
Continuous
 62
         7
100
AcDbLine
 10
233.7155017188
 20
51.4968023375
 30
0.0
 11
233.7155017188
 21
53.7926172867
 31
0.0
  0
LINE
  5
46
100
AcDbEntity
  8
0
370
         0
  6
Continuous
 62
         7
100
AcDbLine
 10
233.7155017188
 20
53.7926172867
 30
0.0
 11
238.7847281578
 21
55.3594690952
 31
0.0
  0
LINE
  5
47
100
AcDbEntity
  8
0
370
         0
  6
Continuous
 62
         7
100
AcDbLine
 10
238.7847281578
 20
55.3594690952
 30
0.0
 11
238.7847281578
 21
49.9299505291
 31
0.0
  0
LINE
  5
48
100
AcDbEntity
  8
0
370
         0
  6
Continuous
 62
         7
100
AcDbLine
 10
238.7847281578
 20
49.9299505291
 30
0.0
 11
233.7155017188
 21
51.4968023375
 31
0.0
  0
CIRCLE
  5
49
100
AcDbEntity
  8
0
370
         0
  6
Continuous
 62
         5
100
AcDbCircle
 10
250.0291940771
 20
52.6447098121
 30
0.0
 40
3.1391205675
  0
CIRCLE
  5
4A
100
AcDbEntity
  8
0
370
         0
  6
Continuous
 62
         5
100
AcDbCircle
 10
250.0291940771
 20
52.6447098121
 30
0.0
 40
1.5
  0
MTEXT
  5
4C
100
AcDbEntity
  8
0
 62
         7
100
AcDbMText
 10
321.3289280526
 20
44.4688155428
 30
0.0
 40
3.5
 41
0.0
 71
         1
 72
         1
  1
   
  7
SLDTEXTSTYLE0
 73
         1
 44
1.0
  0
MTEXT
  5
4D
100
AcDbEntity
  8
0
 62
         7
100
AcDbMText
 10
312.5436188746
 20
55.2185907877
 30
0.0
 40
3.5
 41
0.0
 71
         1
 72
         1
  1
AU4G
  7
SLDTEXTSTYLE0
 73
         1
 44
1.0
  0
MTEXT
  5
4E
100
AcDbEntity
  8
0
 62
         7
100
AcDbMText
 10
397.3299847037
 20
55.629067595
 30
0.0
 40
3.5
 41
0.0
 71
         1
 72
         1
  1
1
  7
SLDTEXTSTYLE0
 73
         1
 44
1.0
  0
MTEXT
  5
4F
100
AcDbEntity
  8
0
 62
         7
100
AcDbMText
 10
367.499804219
 20
55.6184159535
 30
0.0
 40
3.5
 41
0.0
 71
         1
 72
         1
  1
Quantité:
  7
SLDTEXTSTYLE0
 73
         1
 44
1.0
  0
MTEXT
  5
50
100
AcDbEntity
  8
0
 62
         7
100
AcDbMText
 10
289.4619428465
 20
55.2778536138
 30
0.0
 40
3.5
 41
0.0
 71
         1
 72
         1
  1
Matière:
  7
SLDTEXTSTYLE0
 73
         1
 44
1.0
  0
MTEXT
  5
51
100
AcDbEntity
  8
0
 62
         7
100
AcDbMText
 10
289.4390372629
 20
44.699460691
 30
0.0
 40
3.5
 41
0.0
 71
         1
 72
         1
  1
Observation:
  7
SLDTEXTSTYLE0
 73
         1
 44
1.0
  0
MTEXT
  5
52
100
AcDbEntity
  8
0
 62
         7
100
AcDbMText
 10
289.7346356121
 20
35.1462952525
 30
0.0
 40
3.5
 41
0.0
 71
         1
 72
         1
  1
Désignation:
  7
SLDTEXTSTYLE0
 73
         1
 44
1.0
  0
MTEXT
  5
53
100
AcDbEntity
  8
0
 62
         7
100
AcDbMText
 10
240.0342250463
 20
45.4874721265
 30
0.0
 40
3.5
 41
0.0
 71
         1
 72
         1
  1
Tol Gén: +/-0.2
  7
SLDTEXTSTYLE0
 73
         1
 44
1.0
  0
MTEXT
  5
54
100
AcDbEntity
  8
0
 62
         7
100
AcDbMText
 10
270.3659973884
 20
57.292987735
 30
0.0
 40
3.5
 41
0.0
 71
         2
 72
         1
  1
A3 \PEchelle 1:1
  7
SLDTEXTSTYLE0
 73
         1
 44
1.0
  0
MTEXT
  5
55
100
AcDbEntity
  8
0
 62
         7
100
AcDbMText
 10
374.545001106
 20
45.7319305088
 30
0.0
 40
3.5
 41
0.0
 71
         1
 72
         1
  1
05/04/2022
  7
SLDTEXTSTYLE0
 73
         1
 44
1.0
  0
MTEXT
  5
56
100
AcDbEntity
  8
0
 62
         7
100
AcDbMText
 10
305.7392518586
 20
27.8230098604
 30
0.0
 40
5.2916666667
 41
0.0
 71
         1
 72
         1
  1
ARL-CLIP1-02-MOULE HAUT
  7
SLDTEXTSTYLE0
 73
         1
 44
1.0
  0
MTEXT
  5
57
100
AcDbEntity
  8
0
 62
         7
100
AcDbMText
 10
323.7867495045
 20
47.8558472993
 30
0.0
 40
3.5
 41
0.0
 71
         1
 72
         1
  1
-
  7
SLDTEXTSTYLE0
 73
         1
 44
1.0
  0
POINT
  5
58
100
AcDbEntity
  8
0
 62
       255
100
AcDbPoint
 10
92.6977153346
 20
209.8529726674
 30
0.0
  0
ARC
  5
59
100
AcDbEntity
  8
0
370
        15
  6
Continuous
 62
         7
100
AcDbCircle
 10
115.6197343197
 20
322.5453905385
 30
0.0
 40
100.0
100
AcDbArc
 50
258.5026913532
 51
280.0
  0
ARC
  5
5A
100
AcDbEntity
  8
0
370
        15
  6
Continuous
 62
         7
100
AcDbCircle
 10
92.6977153346
 20
209.8529726674
 30
0.0
 40
15.0
100
AcDbArc
 50
78.5026913532
 51
281.4973086468
  0
ARC
  5
5B
100
AcDbEntity
  8
0
370
        15
  6
Continuous
 62
         7
100
AcDbCircle
 10
115.6197343197
 20
97.1605547962
 30
0.0
 40
100.0
100
AcDbArc
 50
80.0
 51
101.4973086468
  0
LINE
  5
5C
100
AcDbEntity
  8
0
370
        15
  6
Continuous
 62
         7
100
AcDbLine
 10
177.7030980811
 20
187.7562448044
 30
0.0
 11
132.9845522195
 21
195.6413302232
 31
0.0
  0
ARC
  5
5D
100
AcDbEntity
  8
0
370
        15
  6
Continuous
 62
         7
100
AcDbCircle
 10
177.998299361
 20
189.4304171903
 30
0.0
 40
1.7
100
AcDbArc
 50
260.0
 51
5.0
  0
LINE
  5
5E
100
AcDbEntity
  8
0
370
        15
  6
Continuous
 62
         7
100
AcDbLine
 10
179.2734793052
 20
194.3603388627
 30
0.0
 11
179.6918294057
 21
189.5785823126
 31
0.0
  0
ARC
  5
5F
100
AcDbEntity
  8
0
370
        15
  6
Continuous
 62
         7
100
AcDbCircle
 10
176.2848968122
 20
194.0988707196
 30
0.0
 40
3.0
100
AcDbArc
 50
5.0
 51
80.0
  0
ARC
  5
60
100
AcDbEntity
  8
0
370
        15
  6
Continuous
 62
         7
100
AcDbCircle
 10
176.4941017144
 20
194.0581492956
 30
0.0
 40
3.0113241722
100
AcDbArc
 50
84.0579552251
 51
150.5287793654
  0
ARC
  5
61
100
AcDbEntity
  8
0
370
        15
  6
Continuous
 62
         7
100
AcDbCircle
 10
171.2606252898
 20
197.0156385712
 30
0.0
 40
3.0
100
AcDbArc
 50
189.4712206345
 51
330.5287793654
  0
ARC
  5
62
100
AcDbEntity
  8
0
370
        15
  6
Continuous
 62
         7
100
AcDbCircle
 10
165.3424150119
 20
196.0283254969
 30
0.0
 40
3.0
100
AcDbArc
 50
9.4712206345
 51
150.5287793655
  0
ARC
  5
63
100
AcDbEntity
  8
0
370
        15
  6
Continuous
 62
         7
100
AcDbCircle
 10
160.1187974446
 20
198.9802434347
 30
0.0
 40
3.0
100
AcDbArc
 50
189.4712206345
 51
330.5287793655
  0
ARC
  5
64
100
AcDbEntity
  8
0
370
        15
  6
Continuous
 62
         7
100
AcDbCircle
 10
154.2005871667
 20
197.9929303604
 30
0.0
 40
3.0
100
AcDbArc
 50
9.4712206345
 51
150.5287793655
  0
ARC
  5
65
100
AcDbEntity
  8
0
370
        15
  6
Continuous
 62
         7
100
AcDbCircle
 10
148.9769695995
 20
200.9448482982
 30
0.0
 40
3.0
100
AcDbArc
 50
189.4712206345
 51
330.5287793655
  0
ARC
  5
66
100
AcDbEntity
  8
0
370
        15
  6
Continuous
 62
         7
100
AcDbCircle
 10
143.0587593216
 20
199.9575352239
 30
0.0
 40
3.0
100
AcDbArc
 50
9.4712206345
 51
150.5287793655
  0
ARC
  5
67
100
AcDbEntity
  8
0
370
        15
  6
Continuous
 62
         7
100
AcDbCircle
 10
137.8351417544
 20
202.9094531617
 30
0.0
 40
3.0
100
AcDbArc
 50
189.4712206345
 51
330.5287793655
  0
ARC
  5
68
100
AcDbEntity
  8
0
370
        15
  6
Continuous
 62
         7
100
AcDbCircle
 10
131.9169314765
 20
201.9221400874
 30
0.0
 40
3.0
100
AcDbArc
 50
9.4712206345
 51
150.5287793655
  0
ARC
  5
69
100
AcDbEntity
  8
0
370
        15
  6
Continuous
 62
         7
100
AcDbCircle
 10
126.6933139093
 20
204.8740580252
 30
0.0
 40
3.0
100
AcDbArc
 50
189.4712206345
 51
330.5287793655
  0
ARC
  5
6A
100
AcDbEntity
  8
0
370
        15
  6
Continuous
 62
         7
100
AcDbCircle
 10
120.7751036314
 20
203.8867449509
 30
0.0
 40
3.0
100
AcDbArc
 50
9.4712206345
 51
150.5287793655
  0
ARC
  5
6B
100
AcDbEntity
  8
0
370
        15
  6
Continuous
 62
         7
100
AcDbCircle
 10
115.5514860642
 20
206.8386628887
 30
0.0
 40
3.0
100
AcDbArc
 50
189.4712206345
 51
330.5287793655
  0
ARC
  5
6C
100
AcDbEntity
  8
0
370
        15
  6
Continuous
 62
         7
100
AcDbCircle
 10
109.6332757863
 20
205.8513498144
 30
0.0
 40
3.0
100
AcDbArc
 50
9.4712206345
 51
25.8173825445
  0
ARC
  5
6D
100
AcDbEntity
  8
0
370
        15
  6
Continuous
 62
         7
100
AcDbCircle
 10
110.5334624747
 20
206.2868540348
 30
0.0
 40
2.0
100
AcDbArc
 50
25.8173825445
 51
174.0305083048
  0
ARC
  5
6E
100
AcDbEntity
  8
0
370
        15
  6
Continuous
 62
         7
100
AcDbCircle
 10
104.1893181581
 20
206.9502352764
 30
0.0
 40
4.3787335562
100
AcDbArc
 50
268.2647326479
 51
354.0305083048
  0
ARC
  5
6F
100
AcDbEntity
  8
0
370
        15
  6
Continuous
 62
         7
100
AcDbCircle
 10
103.8296123007
 20
195.0769491855
 30
0.0
 40
7.5
100
AcDbArc
 50
88.2647326479
 51
126.9934815908
  0
ARC
  5
70
100
AcDbEntity
  8
0
370
        15
  6
Continuous
 62
         7
100
AcDbCircle
 10
92.6977153346
 20
209.8529726674
 30
0.0
 40
11.0
100
AcDbArc
 50
354.9392819715
 51
306.9934815908
  0
ARC
  5
71
100
AcDbEntity
  8
0
370
        15
  6
Continuous
 62
         7
100
AcDbCircle
 10
105.3482079053
 20
208.7326880076
 30
0.0
 40
1.7
100
AcDbArc
 50
174.9392819715
 51
354.9392819715
  0
ARC
  5
72
100
AcDbEntity
  8
0
370
        15
  6
Continuous
 62
         7
100
AcDbCircle
 10
92.6977153346
 20
209.8529726674
 30
0.0
 40
14.4
100
AcDbArc
 50
354.9392819715
 51
6.7053237185
  0
ARC
  5
73
100
AcDbEntity
  8
0
370
        15
  6
Continuous
 62
         7
100
AcDbCircle
 10
109.9786959351
 20
211.8846491884
 30
0.0
 40
3.0
100
AcDbArc
 50
29.4712206345
 51
186.7053237185
  0
ARC
  5
74
100
AcDbEntity
  8
0
370
        15
  6
Continuous
 62
         7
100
AcDbCircle
 10
115.2023135023
 20
214.8365671262
 30
0.0
 40
3.0
100
AcDbArc
 50
209.4712206345
 51
350.5287793655
  0
ARC
  5
75
100
AcDbEntity
  8
0
370
        15
  6
Continuous
 62
         7
100
AcDbCircle
 10
121.1205237802
 20
213.8492540519
 30
0.0
 40
3.0
100
AcDbArc
 50
29.4712206345
 51
170.5287793655
  0
ARC
  5
76
100
AcDbEntity
  8
0
370
        15
  6
Continuous
 62
         7
100
AcDbCircle
 10
126.3441413474
 20
216.8011719897
 30
0.0
 40
3.0
100
AcDbArc
 50
209.4712206345
 51
350.5287793655
  0
ARC
  5
77
100
AcDbEntity
  8
0
370
        15
  6
Continuous
 62
         7
100
AcDbCircle
 10
132.2623516253
 20
215.8138589154
 30
0.0
 40
3.0
100
AcDbArc
 50
29.4712206345
 51
170.5287793655
  0
ARC
  5
78
100
AcDbEntity
  8
0
370
        15
  6
Continuous
 62
         7
100
AcDbCircle
 10
137.4859691925
 20
218.7657768532
 30
0.0
 40
3.0
100
AcDbArc
 50
209.4712206345
 51
350.5287793655
  0
ARC
  5
79
100
AcDbEntity
  8
0
370
        15
  6
Continuous
 62
         7
100
AcDbCircle
 10
143.4041794704
 20
217.7784637789
 30
0.0
 40
3.0
100
AcDbArc
 50
29.4712206345
 51
170.5287793655
  0
ARC
  5
7A
100
AcDbEntity
  8
0
370
        15
  6
Continuous
 62
         7
100
AcDbCircle
 10
148.6277970377
 20
220.7303817167
 30
0.0
 40
3.0
100
AcDbArc
 50
209.4712206345
 51
350.5287793655
  0
ARC
  5
7B
100
AcDbEntity
  8
0
370
        15
  6
Continuous
 62
         7
100
AcDbCircle
 10
154.5460073156
 20
219.7430686424
 30
0.0
 40
3.0
100
AcDbArc
 50
29.4712206345
 51
170.5287793655
  0
ARC
  5
7C
100
AcDbEntity
  8
0
370
        15
  6
Continuous
 62
         7
100
AcDbCircle
 10
159.7696248828
 20
222.6949865802
 30
0.0
 40
3.0
100
AcDbArc
 50
209.4712206345
 51
350.5287793655
  0
ARC
  5
7D
100
AcDbEntity
  8
0
370
        15
  6
Continuous
 62
         7
100
AcDbCircle
 10
165.6878351607
 20
221.707673506
 30
0.0
 40
3.0
100
AcDbArc
 50
29.4712206345
 51
170.5287793655
  0
ARC
  5
7E
100
AcDbEntity
  8
0
370
        15
  6
Continuous
 62
         7
100
AcDbCircle
 10
170.9114527279
 20
224.6595914437
 30
0.0
 40
3.0
100
AcDbArc
 50
209.4712206345
 51
350.5287793655
  0
ARC
  5
7F
100
AcDbEntity
  8
0
370
        15
  6
Continuous
 62
         7
100
AcDbCircle
 10
176.8296630058
 20
223.6722783695
 30
0.0
 40
3.0
100
AcDbArc
 50
100.0
 51
170.5287793655
  0
LINE
  5
80
100
AcDbEntity
  8
0
370
        15
  6
Continuous
 62
         7
100
AcDbLine
 10
178.9150206968
 20
227.0862625573
 30
0.0
 11
176.3087181971
 21
226.6267014329
 31
0.0
  0
ARC
  5
81
100
AcDbEntity
  8
0
370
        15
  6
Continuous
 62
         7
100
AcDbCircle
 10
179.2623168244
 20
225.1166474843
 30
0.0
 40
2.0
100
AcDbArc
 50
10.0000000001
 51
100.0
  0
LINE
  5
82
100
AcDbEntity
  8
0
370
        15
  6
Continuous
 62
         7
100
AcDbLine
 10
182.360646002
 20
219.0626936626
 30
0.0
 11
181.2319314704
 21
225.4639442672
 31
0.0
  0
ARC
  5
83
100
AcDbEntity
  8
0
370
        15
  6
Continuous
 62
         7
100
AcDbCircle
 10
181.3758377322
 20
218.8890452674
 30
0.0
 40
1.0
100
AcDbArc
 50
280.0
 51
10.0
  0
LINE
  5
84
100
AcDbEntity
  8
0
370
        15
  6
Continuous
 62
         7
100
AcDbLine
 10
180.5902651176
 20
217.7351010159
 30
0.0
 11
181.5494863913
 21
217.9042375774
 31
0.0
  0
ARC
  5
85
100
AcDbEntity
  8
0
370
        15
  6
Continuous
 62
         7
100
AcDbCircle
 10
180.8854664549
 20
216.0609277285
 30
0.0
 40
1.7
100
AcDbArc
 50
100.0
 51
200.0
  0
LINE
  5
86
100
AcDbEntity
  8
0
370
        15
  6
Continuous
 62
         7
100
AcDbLine
 10
181.8444176242
 20
208.4557653998
 30
0.0
 11
179.2879893109
 21
215.4794935032
 31
0.0
  0
ARC
  5
87
100
AcDbEntity
  8
0
370
        15
  6
Continuous
 62
         7
100
AcDbCircle
 10
184.8509005592
 20
209.5500361601
 30
0.0
 40
3.1994330985
100
AcDbArc
 50
200.0
 51
10.0
  0
LINE
  5
88
100
AcDbEntity
  8
0
370
        15
  6
Continuous
 62
         7
100
AcDbLine
 10
184.823867552
 20
228.128151748
 30
0.0
 11
188.0017264411
 21
210.1056117226
 31
0.0
  0
ARC
  5
89
100
AcDbEntity
  8
0
370
        15
  6
Continuous
 62
         7
100
AcDbCircle
 10
179.8998282221
 20
227.259911168
 30
0.0
 40
5.0
100
AcDbArc
 50
10.0
 51
100.0
  0
LINE
  5
8A
100
AcDbEntity
  8
0
370
        15
  6
Continuous
 62
         7
100
AcDbLine
 10
132.9845522195
 20
224.064615335
 30
0.0
 11
179.0315887556
 21
232.1839507331
 31
0.0
  0
LINE
  5
8B
100
AcDbEntity
  8
0
370
        15
  6
Continuous
 62
         7
100
AcDbLine
 10
197.6977183148
 20
249.8529728164
 30
0.0
 11
47.6977123544
 21
249.8529728164
 31
0.0
  0
LINE
  5
8C
100
AcDbEntity
  8
0
370
        15
  6
Continuous
 62
         7
100
AcDbLine
 10
197.6977183148
 20
179.8529725183
 30
0.0
 11
197.6977183148
 21
249.8529728164
 31
0.0
  0
LINE
  5
8D
100
AcDbEntity
  8
0
370
        15
  6
Continuous
 62
         7
100
AcDbLine
 10
47.6977123544
 20
179.8529725183
 30
0.0
 11
197.6977183148
 21
179.8529725183
 31
0.0
  0
LINE
  5
8E
100
AcDbEntity
  8
0
370
        15
  6
Continuous
 62
         7
100
AcDbLine
 10
47.6977123544
 20
249.8529728164
 30
0.0
 11
47.6977123544
 21
179.8529725183
 31
0.0
  0
CIRCLE
  5
8F
100
AcDbEntity
  8
0
370
        15
  6
Continuous
 62
         7
100
AcDbCircle
 10
187.6977153346
 20
239.8529726674
 30
0.0
 40
5.0
  0
CIRCLE
  5
90
100
AcDbEntity
  8
0
370
        15
  6
Continuous
 62
         7
100
AcDbCircle
 10
57.6977153346
 20
189.8529726674
 30
0.0
 40
5.0
  0
CIRCLE
  5
91
100
AcDbEntity
  8
0
370
        15
  6
Continuous
 62
         7
100
AcDbCircle
 10
69.6977153346
 20
227.8529726674
 30
0.0
 40
4.0
  0
CIRCLE
  5
92
100
AcDbEntity
  8
0
370
        15
  6
Continuous
 62
         7
100
AcDbCircle
 10
172.6977153346
 20
209.8529726674
 30
0.0
 40
4.25
  0
CIRCLE
  5
93
100
AcDbEntity
  8
0
370
        15
  6
Continuous
 62
         7
100
AcDbCircle
 10
92.6977153346
 20
209.8529726674
 30
0.0
 40
4.25
  0
DIMENSION
  5
9F
100
AcDbEntity
  8
0
100
AcDbDimension
  2
*D0
 10
47.6977153346
 20
179.8529726674
 30
0.0
 11
47.6977153346
 21
166.4794818653
 31
0.0
 70
       230
 71
         5
 72
         1
 41
1.0
 42
0.0
  3
SLDDIMSTYLE0
100
AcDbOrdinateDimension
 13
47.6977153346
 23
179.8529726674
 33
0.0
 14
47.6977153346
 24
166.4794818653
 34
0.0
  0
DIMENSION
  5
A8
100
AcDbEntity
  8
0
100
AcDbDimension
  2
*D2
 10
47.6977153346
 20
179.8529726674
 30
0.0
 11
57.6977153346
 21
166.4794818653
 31
0.0
 70
       230
 71
         5
 72
         1
 41
1.0
 42
0.0
  3
SLDDIMSTYLE1
100
AcDbOrdinateDimension
 13
57.6977153346
 23
189.8529726674
 33
0.0
 14
57.6977153346
 24
166.4794818653
 34
0.0
  0
DIMENSION
  5
B0
100
AcDbEntity
  8
0
100
AcDbDimension
  2
*D3
 10
47.6977153346
 20
179.8529726674
 30
0.0
 11
69.6977153346
 21
166.4794818653
 31
0.0
 70
       230
 71
         5
 72
         1
 41
1.0
 42
0.0
  3
SLDDIMSTYLE1
100
AcDbOrdinateDimension
 13
69.6977153346
 23
227.8529726674
 33
0.0
 14
69.6977153346
 24
166.4794818653
 34
0.0
  0
DIMENSION
  5
B8
100
AcDbEntity
  8
0
100
AcDbDimension
  2
*D4
 10
47.6977153346
 20
179.8529726674
 30
0.0
 11
92.6977153346
 21
166.4794818653
 31
0.0
 70
       230
 71
         5
 72
         1
 41
1.0
 42
0.0
  3
SLDDIMSTYLE1
100
AcDbOrdinateDimension
 13
92.6977153346
 23
209.8529726674
 33
0.0
 14
92.6977153346
 24
166.4794818653
 34
0.0
  0
DIMENSION
  5
C0
100
AcDbEntity
  8
0
100
AcDbDimension
  2
*D5
 10
47.6977153346
 20
179.8529726674
 30
0.0
 11
172.6977153346
 21
166.4794818653
 31
0.0
 70
       230
 71
         5
 72
         1
 41
1.0
 42
0.0
  3
SLDDIMSTYLE1
100
AcDbOrdinateDimension
 13
172.6977153346
 23
209.8529726674
 33
0.0
 14
172.6977153346
 24
166.4794818653
 34
0.0
  0
DIMENSION
  5
C8
100
AcDbEntity
  8
0
100
AcDbDimension
  2
*D6
 10
47.6977153346
 20
179.8529726674
 30
0.0
 11
187.6977153346
 21
166.4794818653
 31
0.0
 70
       230
 71
         5
 72
         1
 41
1.0
 42
0.0
  3
SLDDIMSTYLE1
100
AcDbOrdinateDimension
 13
187.6977153346
 23
239.8529726674
 33
0.0
 14
187.6977153346
 24
166.4794818653
 34
0.0
  0
DIMENSION
  5
D0
100
AcDbEntity
  8
0
100
AcDbDimension
  2
*D7
 10
47.6977153346
 20
179.8529726674
 30
0.0
 11
197.6977153346
 21
166.4794818653
 31
0.0
 70
       230
 71
         5
 72
         1
 41
1.0
 42
0.0
  3
SLDDIMSTYLE1
100
AcDbOrdinateDimension
 13
197.6977153346
 23
179.8529726674
 33
0.0
 14
197.6977153346
 24
166.4794818653
 34
0.0
  0
DIMENSION
  5
D8
100
AcDbEntity
  8
0
100
AcDbDimension
  2
*D8
 10
197.6977153346
 20
179.8529726674
 30
0.0
 11
215.5492227979
 21
179.8529726674
 31
0.0
 70
       166
 71
         5
 72
         1
 41
1.0
 42
0.0
  3
SLDDIMSTYLE0
100
AcDbOrdinateDimension
 13
197.6977153346
 23
179.8529726674
 33
0.0
 14
215.5492227979
 24
179.8529726674
 34
0.0
  0
DIMENSION
  5
E0
100
AcDbEntity
  8
0
100
AcDbDimension
  2
*D9
 10
197.6977153346
 20
179.8529726674
 30
0.0
 11
215.5492227979
 21
189.8529726674
 31
0.0
 70
       166
 71
         5
 72
         1
 41
1.0
 42
0.0
  3
SLDDIMSTYLE1
100
AcDbOrdinateDimension
 13
57.6977153346
 23
189.8529726674
 33
0.0
 14
215.5492227979
 24
189.8529726674
 34
0.0
  0
DIMENSION
  5
E8
100
AcDbEntity
  8
0
100
AcDbDimension
  2
*D10
 10
197.6977153346
 20
179.8529726674
 30
0.0
 11
215.5492227979
 21
227.8529726674
 31
0.0
 70
       166
 71
         5
 72
         1
 41
1.0
 42
0.0
  3
SLDDIMSTYLE1
100
AcDbOrdinateDimension
 13
69.6977153346
 23
227.8529726674
 33
0.0
 14
215.5492227979
 24
227.8529726674
 34
0.0
  0
DIMENSION
  5
F0
100
AcDbEntity
  8
0
100
AcDbDimension
  2
*D11
 10
197.6977153346
 20
179.8529726674
 30
0.0
 11
215.5492227979
 21
209.8529726674
 31
0.0
 70
       166
 71
         5
 72
         1
 41
1.0
 42
0.0
  3
SLDDIMSTYLE1
100
AcDbOrdinateDimension
 13
92.6977153346
 23
209.8529726674
 33
0.0
 14
215.5492227979
 24
209.8529726674
 34
0.0
  0
DIMENSION
  5
F8
100
AcDbEntity
  8
0
100
AcDbDimension
  2
*D12
 10
197.6977153346
 20
179.8529726674
 30
0.0
 11
215.5492227979
 21
239.8529726674
 31
0.0
 70
       166
 71
         5
 72
         1
 41
1.0
 42
0.0
  3
SLDDIMSTYLE1
100
AcDbOrdinateDimension
 13
187.6977153346
 23
239.8529726674
 33
0.0
 14
215.5492227979
 24
239.8529726674
 34
0.0
  0
DIMENSION
  5
100
100
AcDbEntity
  8
0
100
AcDbDimension
  2
*D13
 10
197.6977153346
 20
179.8529726674
 30
0.0
 11
215.5492227979
 21
249.8529726674
 31
0.0
 70
       166
 71
         5
 72
         1
 41
1.0
 42
0.0
  3
SLDDIMSTYLE1
100
AcDbOrdinateDimension
 13
197.6977153346
 23
249.8529726674
 33
0.0
 14
215.5492227979
 24
249.8529726674
 34
0.0
  0
DIMENSION
  5
111
100
AcDbEntity
  8
0
100
AcDbDimension
  2
*D14
 10
57.0254521247
 20
194.8075727699
 30
0.0
 11
99.3501210366
 21
151.3003698696
 31
0.0
 70
       163
 71
         5
 72
         1
 41
1.0
 42
0.0
  1
<> non débouchant
  3
SLDDIMSTYLE2
100
AcDbDiametricDimension
 15
58.3699785445
 25
184.8983725648
 35
0.0
 40
0.0
  0
DIMENSION
  5
121
100
AcDbEntity
  8
0
100
AcDbDimension
  2
*D15
 10
184.6468595961
 20
235.8916245051
 30
0.0
 11
238.1383673092
 21
264.5897409326
 31
0.0
 70
       163
 71
         5
 72
         1
 41
1.0
 42
0.0
  1
<> non débouchant
  3
SLDDIMSTYLE2
100
AcDbDiametricDimension
 15
190.7485710731
 25
243.8143208296
 35
0.0
 40
0.0
  0
DIMENSION
  5
12E
100
AcDbEntity
  8
0
100
AcDbDimension
  2
*D16
 10
68.6458461438
 20
223.9937536783
 30
0.0
 11
85.9193782383
 21
264.5897409326
 31
0.0
 70
       163
 71
         5
 72
         1
 41
1.0
 42
0.0
  1
<>
  3
SLDDIMSTYLE3
100
AcDbDiametricDimension
 15
70.7495845254
 25
231.7121916564
 35
0.0
 40
0.0
  0
DIMENSION
  5
13A
100
AcDbEntity
  8
0
100
AcDbDimension
  2
*D17
 10
91.8654623679
 20
205.6852568662
 30
0.0
 11
112.9995854922
 21
263.2579274611
 31
0.0
 70
       163
 71
         5
 72
         1
 41
1.0
 42
0.0
  1
<>
  3
SLDDIMSTYLE3
100
AcDbDiametricDimension
 15
93.5299683013
 25
214.0206884685
 35
0.0
 40
0.0
  0
DIMENSION
  5
146
100
AcDbEntity
  8
0
100
AcDbDimension
  2
*D18
 10
174.0124054803
 20
213.8945181416
 30
0.0
 11
148.0706735751
 21
168.2552331606
 31
0.0
 70
       163
 71
         5
 72
         1
 41
1.0
 42
0.0
  1
<>
  3
SLDDIMSTYLE3
100
AcDbDiametricDimension
 15
171.3830251889
 25
205.8114271931
 35
0.0
 40
0.0
  0
LEADER
  5
147
100
AcDbEntity
  8
0
 62
       255
100
AcDbLeader
  3
SLDDIMSTYLE4
 73
         3
 74
         0
 75
         0
 40
0.0
 76
         2
 10
132.9845520864
 20
224.0646152373
 30
0.0
 10
137.3697053942
 20
262.0129219917
 30
0.0
 77
       256
340
149
  0
MTEXT
  5
149
102
{ACAD_REACTORS
330
147
102
}
100
AcDbEntity
  8
0
 62
         7
100
AcDbMText
 10
137.8729607989
 20
264.2647777129
 30
0.0
 40
3.5
 41
0.0
 71
         1
 72
         1
  1
forme suivant fichier DXF
  7
SLDTEXTSTYLE0
 73
         1
 44
1.0
  0
LINE
  5
14A
100
AcDbEntity
  8
0
  6
CENTER
 62
         7
100
AcDbLine
 10
38.9899999811
 20
222.1999684166
 30
0.0
 11
212.0548110455
 21
182.4136831039
 31
0.0
  0
SOLID
  5
14B
100
AcDbEntity
  8
0
  6
Continuous
 62
         7
100
AcDbTrace
 10
40.9391561569
 20
221.7518722192
 30
0.0
 11
42.8099266396
 21
225.4261364723
 31
0.0
 12
40.8607704637
 22
225.8742326696
 32
0.0
 13
40.8607704637
 23
225.8742326696
 33
0.0
  0
LINE
  5
14C
100
AcDbEntity
  8
0
  6
Continuous
 62
         7
100
AcDbLine
 10
43.627733341
 20
233.4468092744
 30
0.0
 11
40.9391561569
 21
221.7518722192
 31
0.0
  0
SOLID
  5
14D
100
AcDbEntity
  8
0
  6
Continuous
 62
         7
100
AcDbTrace
 10
210.1056548696
 20
182.8617793012
 30
0.0
 11
211.9764253522
 21
186.5360435543
 31
0.0
 12
210.0272691764
 22
186.9841397516
 32
0.0
 13
210.0272691764
 23
186.9841397516
 33
0.0
  0
LINE
  5
14E
100
AcDbEntity
  8
0
  6
Continuous
 62
         7
100
AcDbLine
 10
212.7942320537
 20
194.5567163564
 30
0.0
 11
210.1056548696
 21
182.8617793012
 31
0.0
  0
MTEXT
  5
14F
100
AcDbEntity
  8
0
100
AcDbMText
 10
35.1698411635
 20
233.9527480949
 30
0.0
 40
6.35
 41
0.0
 71
         1
 72
         1
  1
A
 73
         1
 44
1.0
  0
MTEXT
  5
150
100
AcDbEntity
  8
0
100
AcDbMText
 10
204.3363398761
 20
195.0626551769
 30
0.0
 40
6.35
 41
0.0
 71
         1
 72
         1
  1
A
 73
         1
 44
1.0
  0
LINE
  5
151
100
AcDbEntity
  8
0
370
        15
  6
Continuous
 62
         7
100
AcDbLine
 10
197.6977183148
 20
122.079587158
 30
0.0
 11
197.6977183148
 21
132.0795869345
 31
0.0
  0
LINE
  5
152
100
AcDbEntity
  8
0
370
        15
  6
Continuous
 62
         7
100
AcDbLine
 10
197.6977183148
 20
122.079587158
 30
0.0
 11
47.6977123544
 21
122.079587158
 31
0.0
  0
LINE
  5
153
100
AcDbEntity
  8
0
370
        15
  6
Continuous
 62
         7
100
AcDbLine
 10
47.6977123544
 20
122.079587158
 30
0.0
 11
47.6977123544
 21
132.0795869345
 31
0.0
  0
LINE
  5
154
100
AcDbEntity
  8
0
370
        15
  6
Continuous
 62
         7
100
AcDbLine
 10
197.6977183148
 20
132.0795869345
 30
0.0
 11
47.6977123544
 21
132.0795869345
 31
0.0
  0
LINE
  5
155
100
AcDbEntity
  8
0
370
         0
  6
HIDDEN
 62
         9
100
AcDbLine
 10
192.6977156326
 20
130.0795868395
 30
0.0
 11
182.6977139935
 21
130.0795868395
 31
0.0
  0
LINE
  5
156
100
AcDbEntity
  8
0
370
         0
  6
HIDDEN
 62
         9
100
AcDbLine
 10
179.0315887556
 20
128.0795867445
 30
0.0
 11
184.823867552
 21
128.0795867445
 31
0.0
  0
LINE
  5
157
100
AcDbEntity
  8
0
370
         0
  6
HIDDEN
 62
         9
100
AcDbLine
 10
132.9845522195
 20
128.0795867445
 30
0.0
 11
179.0315887556
 21
128.0795867445
 31
0.0
  0
LINE
  5
158
100
AcDbEntity
  8
0
370
         0
  6
HIDDEN
 62
         9
100
AcDbLine
 10
184.823867552
 20
128.0795867445
 30
0.0
 11
188.0017264411
 21
128.0795867445
 31
0.0
  0
LINE
  5
159
100
AcDbEntity
  8
0
370
         0
  6
HIDDEN
 62
         9
100
AcDbLine
 10
77.6977135465
 20
128.0795867445
 30
0.0
 11
95.6875445917
 21
128.0795867445
 31
0.0
  0
LINE
  5
15A
100
AcDbEntity
  8
0
370
         0
  6
HIDDEN
 62
         9
100
AcDbLine
 10
95.6875445917
 20
128.0795867445
 30
0.0
 11
132.9845522195
 21
128.0795867445
 31
0.0
  0
LINE
  5
15B
100
AcDbEntity
  8
0
370
         0
  6
HIDDEN
 62
         9
100
AcDbLine
 10
188.0017264411
 20
128.0795867445
 30
0.0
 11
188.0503340289
 21
128.0795867445
 31
0.0
  0
LINE
  5
15C
100
AcDbEntity
  8
0
370
         0
  6
HIDDEN
 62
         9
100
AcDbLine
 10
176.8058395609
 20
128.0795867445
 30
0.0
 11
176.8058395609
 21
122.079587158
 31
0.0
  0
LINE
  5
15D
100
AcDbEntity
  8
0
370
         0
  6
HIDDEN
 62
         9
100
AcDbLine
 10
62.6977166757
 20
130.0795868395
 30
0.0
 11
52.6977150366
 21
130.0795868395
 31
0.0
  0
LINE
  5
15E
100
AcDbEntity
  8
0
370
         0
  6
HIDDEN
 62
         9
100
AcDbLine
 10
192.6977156326
 20
122.079587158
 30
0.0
 11
192.6977156326
 21
130.0795868395
 31
0.0
  0
LINE
  5
15F
100
AcDbEntity
  8
0
370
         0
  6
HIDDEN
 62
         9
100
AcDbLine
 10
182.6977139935
 20
130.0795868395
 30
0.0
 11
182.6977139935
 21
122.079587158
 31
0.0
  0
LINE
  5
160
100
AcDbEntity
  8
0
370
         0
  6
HIDDEN
 62
         9
100
AcDbLine
 10
73.6977166161
 20
122.079587158
 30
0.0
 11
73.6977166161
 21
132.0795869345
 31
0.0
  0
LINE
  5
161
100
AcDbEntity
  8
0
370
         0
  6
HIDDEN
 62
         9
100
AcDbLine
 10
65.6977153048
 20
132.0795869345
 30
0.0
 11
65.6977153048
 21
122.079587158
 31
0.0
  0
LINE
  5
162
100
AcDbEntity
  8
0
370
         0
  6
HIDDEN
 62
         9
100
AcDbLine
 10
77.6977135465
 20
128.0795867445
 30
0.0
 11
77.6977135465
 21
122.079587158
 31
0.0
  0
LINE
  5
163
100
AcDbEntity
  8
0
370
         0
  6
HIDDEN
 62
         9
100
AcDbLine
 10
103.6977159456
 20
122.079587158
 30
0.0
 11
103.6977159456
 21
128.0795867445
 31
0.0
  0
LINE
  5
164
100
AcDbEntity
  8
0
370
         0
  6
HIDDEN
 62
         9
100
AcDbLine
 10
81.6977142021
 20
128.0795867445
 30
0.0
 11
81.6977142021
 21
122.079587158
 31
0.0
  0
LINE
  5
165
100
AcDbEntity
  8
0
370
         0
  6
HIDDEN
 62
         9
100
AcDbLine
 10
182.3758377359
 20
122.079587158
 30
0.0
 11
182.3758377359
 21
128.0795867445
 31
0.0
  0
LINE
  5
166
100
AcDbEntity
  8
0
370
         0
  6
HIDDEN
 62
         9
100
AcDbLine
 10
179.1854655966
 20
128.0795867445
 30
0.0
 11
179.1854655966
 21
122.079587158
 31
0.0
  0
LINE
  5
167
100
AcDbEntity
  8
0
370
         0
  6
HIDDEN
 62
         9
100
AcDbLine
 10
106.9786964581
 20
128.0795867445
 30
0.0
 11
106.9786964581
 21
122.079587158
 31
0.0
  0
LINE
  5
168
100
AcDbEntity
  8
0
370
         0
  6
HIDDEN
 62
         9
100
AcDbLine
 10
96.9477153048
 20
122.079587158
 30
0.0
 11
96.9477153048
 21
132.0795869345
 31
0.0
  0
LINE
  5
169
100
AcDbEntity
  8
0
370
         0
  6
HIDDEN
 62
         9
100
AcDbLine
 10
88.4477167055
 20
132.0795869345
 30
0.0
 11
88.4477167055
 21
122.079587158
 31
0.0
  0
LINE
  5
16A
100
AcDbEntity
  8
0
370
         0
  6
HIDDEN
 62
         9
100
AcDbLine
 10
176.9477135167
 20
122.079587158
 30
0.0
 11
176.9477135167
 21
132.0795869345
 31
0.0
  0
LINE
  5
16B
100
AcDbEntity
  8
0
370
         0
  6
HIDDEN
 62
         9
100
AcDbLine
 10
168.4477149174
 20
132.0795869345
 30
0.0
 11
168.4477149174
 21
122.079587158
 31
0.0
  0
LINE
  5
16C
100
AcDbEntity
  8
0
370
         0
  6
HIDDEN
 62
         9
100
AcDbLine
 10
107.0977157578
 20
122.079587158
 30
0.0
 11
107.0977157578
 21
128.0795867445
 31
0.0
  0
LINE
  5
16D
100
AcDbEntity
  8
0
370
         0
  6
HIDDEN
 62
         9
100
AcDbLine
 10
188.0503340289
 20
122.079587158
 30
0.0
 11
188.0503340289
 21
128.0795867445
 31
0.0
  0
LINE
  5
16E
100
AcDbEntity
  8
0
370
         0
  6
HIDDEN
 62
         9
100
AcDbLine
 10
103.6482087001
 20
128.0795867445
 30
0.0
 11
103.6482087001
 21
122.079587158
 31
0.0
  0
LINE
  5
16F
100
AcDbEntity
  8
0
370
         0
  6
HIDDEN
 62
         9
100
AcDbLine
 10
62.6977166757
 20
122.079587158
 30
0.0
 11
62.6977166757
 21
130.0795868395
 31
0.0
  0
LINE
  5
170
100
AcDbEntity
  8
0
370
         0
  6
HIDDEN
 62
         9
100
AcDbLine
 10
52.6977150366
 20
130.0795868395
 30
0.0
 11
52.6977150366
 21
122.079587158
 31
0.0
  0
LINE
  5
171
100
AcDbEntity
  8
0
370
         0
  6
HIDDEN
 62
         9
100
AcDbLine
 10
179.698300235
 20
122.079587158
 30
0.0
 11
179.698300235
 21
128.0795867445
 31
0.0
  0
DIMENSION
  5
180
100
AcDbEntity
  8
0
 62
       255
100
AcDbDimension
  2
*D19
 10
33.0907772021
 20
122.0795869345
 30
0.0
 11
33.0907772021
 21
126.7318157374
 31
0.0
 70
       160
 71
         5
 72
         1
 41
1.0
 42
0.0
  3
SLDDIMSTYLE5
100
AcDbAlignedDimension
 13
47.6977153346
 23
132.0795869345
 33
0.0
 14
47.6977153346
 24
122.0795869345
 34
0.0
 50
90.0
100
AcDbRotatedDimension
  0
DIMENSION
  5
18C
100
AcDbEntity
  8
0
 62
       255
100
AcDbDimension
  2
*D20
 10
49.9604145078
 20
122.0795869345
 30
0.0
 11
49.9604145078
 21
114.30155667
 31
0.0
 70
       160
 71
         5
 72
         1
 41
1.0
 42
0.0
  3
SLDDIMSTYLE5
100
AcDbAlignedDimension
 13
52.6977153346
 23
130.0795869345
 33
0.0
 14
47.6977153346
 24
122.0795869345
 34
0.0
 50
90.0
100
AcDbRotatedDimension
  0
DIMENSION
  5
198
100
AcDbEntity
  8
0
 62
       255
100
AcDbDimension
  2
*D21
 10
194.1536399891
 20
122.0795869345
 30
0.0
 11
194.1536399891
 21
115.7968285681
 31
0.0
 70
       160
 71
         5
 72
         1
 41
1.0
 42
0.0
  3
SLDDIMSTYLE5
100
AcDbAlignedDimension
 13
192.6977153346
 23
130.0795869345
 33
0.0
 14
197.6977153346
 24
122.0795869345
 34
0.0
 50
90.0
100
AcDbRotatedDimension
  0
LINE
  5
199
100
AcDbEntity
  8
0
370
        15
  6
Continuous
 62
         7
100
AcDbLine
 10
197.6977183148
 20
32.6334569423
 30
0.0
 11
47.6977123544
 21
32.6334569423
 31
0.0
  0
CIRCLE
  5
19A
100
AcDbEntity
  8
0
370
        15
  6
Continuous
 62
         7
100
AcDbCircle
 10
69.6977153346
 20
54.6334570913
 30
0.0
 40
4.0
  0
CIRCLE
  5
19B
100
AcDbEntity
  8
0
370
        15
  6
Continuous
 62
         7
100
AcDbCircle
 10
172.6977153346
 20
72.6334570913
 30
0.0
 40
4.25
  0
CIRCLE
  5
19C
100
AcDbEntity
  8
0
370
        15
  6
Continuous
 62
         7
100
AcDbCircle
 10
92.6977153346
 20
72.6334570913
 30
0.0
 40
4.25
  0
LINE
  5
19D
100
AcDbEntity
  8
0
370
        15
  6
Continuous
 62
         7
100
AcDbLine
 10
197.6977183148
 20
102.6334572403
 30
0.0
 11
197.6977183148
 21
32.6334569423
 31
0.0
  0
LINE
  5
19E
100
AcDbEntity
  8
0
370
        15
  6
Continuous
 62
         7
100
AcDbLine
 10
47.6977123544
 20
32.6334569423
 30
0.0
 11
47.6977123544
 21
102.6334572403
 31
0.0
  0
LINE
  5
19F
100
AcDbEntity
  8
0
370
        15
  6
Continuous
 62
         7
100
AcDbLine
 10
47.6977123544
 20
102.6334572403
 30
0.0
 11
197.6977183148
 21
102.6334572403
 31
0.0
  0
CIRCLE
  5
1A0
100
AcDbEntity
  8
0
370
         0
  6
HIDDEN
 62
         9
100
AcDbCircle
 10
57.6977153346
 20
92.6334570913
 30
0.0
 40
5.0
  0
CIRCLE
  5
1A1
100
AcDbEntity
  8
0
370
         0
  6
HIDDEN
 62
         9
100
AcDbCircle
 10
187.6977153346
 20
42.6334570913
 30
0.0
 40
5.0
  0
LINE
  5
1A2
100
AcDbEntity
  8
0
370
         0
  6
HIDDEN
 62
         9
100
AcDbLine
 10
177.7030980811
 20
94.7301849542
 30
0.0
 11
132.9845522195
 21
86.8450995354
 31
0.0
  0
ARC
  5
1A3
100
AcDbEntity
  8
0
370
         0
  6
HIDDEN
 62
         9
100
AcDbCircle
 10
177.998299361
 20
93.0560125683
 30
0.0
 40
1.7
100
AcDbArc
 50
355.0
 51
100.0
  0
LINE
  5
1A4
100
AcDbEntity
  8
0
370
         0
  6
HIDDEN
 62
         9
100
AcDbLine
 10
179.2734793052
 20
88.1260908959
 30
0.0
 11
179.6918294057
 21
92.907847446
 31
0.0
  0
ARC
  5
1A5
100
AcDbEntity
  8
0
370
         0
  6
HIDDEN
 62
         9
100
AcDbCircle
 10
92.6977153346
 20
72.6334570913
 30
0.0
 40
15.0
100
AcDbArc
 50
78.5026913532
 51
281.4973086468
  0
ARC
  5
1A6
100
AcDbEntity
  8
0
370
         0
  6
HIDDEN
 62
         9
100
AcDbCircle
 10
115.6197343197
 20
185.3258749624
 30
0.0
 40
100.0
100
AcDbArc
 50
258.5026913532
 51
280.0
  0
ARC
  5
1A7
100
AcDbEntity
  8
0
370
         0
  6
HIDDEN
 62
         9
100
AcDbCircle
 10
171.2606252898
 20
85.4707911874
 30
0.0
 40
3.0
100
AcDbArc
 50
29.4712206346
 51
170.5287793655
  0
ARC
  5
1A8
100
AcDbEntity
  8
0
370
         0
  6
HIDDEN
 62
         9
100
AcDbCircle
 10
176.2848968122
 20
88.387559039
 30
0.0
 40
3.0
100
AcDbArc
 50
280.0
 51
355.0
  0
ARC
  5
1A9
100
AcDbEntity
  8
0
370
         0
  6
HIDDEN
 62
         9
100
AcDbCircle
 10
176.4941017144
 20
88.428280463
 30
0.0
 40
3.0113241722
100
AcDbArc
 50
209.4712206346
 51
275.9420447749
  0
ARC
  5
1AA
100
AcDbEntity
  8
0
370
         0
  6
HIDDEN
 62
         9
100
AcDbCircle
 10
160.1187974446
 20
83.5061863239
 30
0.0
 40
3.0
100
AcDbArc
 50
29.4712206345
 51
170.5287793655
  0
ARC
  5
1AB
100
AcDbEntity
  8
0
370
         0
  6
HIDDEN
 62
         9
100
AcDbCircle
 10
165.3424150119
 20
86.4581042617
 30
0.0
 40
3.0
100
AcDbArc
 50
209.4712206345
 51
350.5287793655
  0
ARC
  5
1AC
100
AcDbEntity
  8
0
370
         0
  6
HIDDEN
 62
         9
100
AcDbCircle
 10
92.6977153346
 20
72.6334570913
 30
0.0
 40
11.0
100
AcDbArc
 50
53.0065184092
 51
5.0607180285
  0
ARC
  5
1AD
100
AcDbEntity
  8
0
370
         0
  6
HIDDEN
 62
         9
100
AcDbCircle
 10
148.9769695995
 20
81.5415814604
 30
0.0
 40
3.0
100
AcDbArc
 50
29.4712206345
 51
170.5287793655
  0
ARC
  5
1AE
100
AcDbEntity
  8
0
370
         0
  6
HIDDEN
 62
         9
100
AcDbCircle
 10
154.2005871667
 20
84.4934993982
 30
0.0
 40
3.0
100
AcDbArc
 50
209.4712206345
 51
350.5287793655
  0
ARC
  5
1AF
100
AcDbEntity
  8
0
370
         0
  6
HIDDEN
 62
         9
100
AcDbCircle
 10
137.8351417544
 20
79.5769765969
 30
0.0
 40
3.0
100
AcDbArc
 50
29.4712206345
 51
170.5287793655
  0
ARC
  5
1B0
100
AcDbEntity
  8
0
370
         0
  6
HIDDEN
 62
         9
100
AcDbCircle
 10
103.8296123007
 20
87.4094805731
 30
0.0
 40
7.5
100
AcDbArc
 50
233.0065184092
 51
271.7352673521
  0
ARC
  5
1B1
100
AcDbEntity
  8
0
370
         0
  6
HIDDEN
 62
         9
100
AcDbCircle
 10
143.0587593216
 20
82.5288945347
 30
0.0
 40
3.0
100
AcDbArc
 50
209.4712206345
 51
350.5287793655
  0
ARC
  5
1B2
100
AcDbEntity
  8
0
370
         0
  6
HIDDEN
 62
         9
100
AcDbCircle
 10
126.6933139093
 20
77.6123717334
 30
0.0
 40
3.0
100
AcDbArc
 50
29.4712206345
 51
170.5287793655
  0
ARC
  5
1B3
100
AcDbEntity
  8
0
370
         0
  6
HIDDEN
 62
         9
100
AcDbCircle
 10
104.1893181581
 20
75.5361944822
 30
0.0
 40
4.3787335562
100
AcDbArc
 50
5.9694916952
 51
91.7352673521
  0
ARC
  5
1B4
100
AcDbEntity
  8
0
370
         0
  6
HIDDEN
 62
         9
100
AcDbCircle
 10
131.9169314765
 20
80.5642896712
 30
0.0
 40
3.0
100
AcDbArc
 50
209.4712206345
 51
350.5287793655
  0
ARC
  5
1B5
100
AcDbEntity
  8
0
370
         0
  6
HIDDEN
 62
         9
100
AcDbCircle
 10
115.5514860642
 20
75.6477668699
 30
0.0
 40
3.0
100
AcDbArc
 50
29.4712206345
 51
170.5287793655
  0
ARC
  5
1B6
100
AcDbEntity
  8
0
370
         0
  6
HIDDEN
 62
         9
100
AcDbCircle
 10
120.7751036314
 20
78.5996848077
 30
0.0
 40
3.0
100
AcDbArc
 50
209.4712206345
 51
350.5287793655
  0
ARC
  5
1B7
100
AcDbEntity
  8
0
370
         0
  6
HIDDEN
 62
         9
100
AcDbCircle
 10
109.6332757863
 20
76.6350799442
 30
0.0
 40
3.0
100
AcDbArc
 50
334.1826174555
 51
350.5287793655
  0
ARC
  5
1B8
100
AcDbEntity
  8
0
370
         0
  6
HIDDEN
 62
         9
100
AcDbCircle
 10
110.5334624747
 20
76.1995757238
 30
0.0
 40
2.0
100
AcDbArc
 50
185.9694916952
 51
334.1826174555
  0
ARC
  5
1B9
100
AcDbEntity
  8
0
370
         0
  6
HIDDEN
 62
         9
100
AcDbCircle
 10
105.3482079053
 20
73.753741751
 30
0.0
 40
1.7
100
AcDbArc
 50
5.0607180285
 51
185.0607180285
  0
ARC
  5
1BA
100
AcDbEntity
  8
0
370
         0
  6
HIDDEN
 62
         9
100
AcDbCircle
 10
184.8509005592
 20
72.9363935985
 30
0.0
 40
3.1994330985
100
AcDbArc
 50
350.0
 51
160.0
  0
ARC
  5
1BB
100
AcDbEntity
  8
0
370
         0
  6
HIDDEN
 62
         9
100
AcDbCircle
 10
92.6977153346
 20
72.6334570913
 30
0.0
 40
14.4
100
AcDbArc
 50
353.2946762815
 51
5.0607180285
  0
LINE
  5
1BC
100
AcDbEntity
  8
0
370
         0
  6
HIDDEN
 62
         9
100
AcDbLine
 10
181.8444176242
 20
74.0306643588
 30
0.0
 11
179.2879893109
 21
67.0069362555
 31
0.0
  0
ARC
  5
1BD
100
AcDbEntity
  8
0
370
         0
  6
HIDDEN
 62
         9
100
AcDbCircle
 10
109.9786959351
 20
70.6017805702
 30
0.0
 40
3.0
100
AcDbArc
 50
173.2946762815
 51
330.5287793655
  0
LINE
  5
1BE
100
AcDbEntity
  8
0
370
         0
  6
HIDDEN
 62
         9
100
AcDbLine
 10
184.823867552
 20
54.3582780106
 30
0.0
 11
188.0017264411
 21
72.380818036
 31
0.0
  0
ARC
  5
1BF
100
AcDbEntity
  8
0
370
         0
  6
HIDDEN
 62
         9
100
AcDbCircle
 10
115.2023135023
 20
67.6498626324
 30
0.0
 40
3.0
100
AcDbArc
 50
9.4712206345
 51
150.5287793655
  0
ARC
  5
1C0
100
AcDbEntity
  8
0
370
         0
  6
HIDDEN
 62
         9
100
AcDbCircle
 10
126.3441413474
 20
65.6852577689
 30
0.0
 40
3.0
100
AcDbArc
 50
9.4712206345
 51
150.5287793655
  0
ARC
  5
1C1
100
AcDbEntity
  8
0
370
         0
  6
HIDDEN
 62
         9
100
AcDbCircle
 10
121.1205237802
 20
68.6371757067
 30
0.0
 40
3.0
100
AcDbArc
 50
189.4712206345
 51
330.5287793655
  0
ARC
  5
1C2
100
AcDbEntity
  8
0
370
         0
  6
HIDDEN
 62
         9
100
AcDbCircle
 10
137.4859691925
 20
63.7206529054
 30
0.0
 40
3.0
100
AcDbArc
 50
9.4712206345
 51
150.5287793655
  0
ARC
  5
1C3
100
AcDbEntity
  8
0
370
         0
  6
HIDDEN
 62
         9
100
AcDbCircle
 10
132.2623516253
 20
66.6725708432
 30
0.0
 40
3.0
100
AcDbArc
 50
189.4712206345
 51
330.5287793655
  0
ARC
  5
1C4
100
AcDbEntity
  8
0
370
         0
  6
HIDDEN
 62
         9
100
AcDbCircle
 10
180.8854664549
 20
66.4255020301
 30
0.0
 40
1.7
100
AcDbArc
 50
160.0
 51
260.0
  0
ARC
  5
1C5
100
AcDbEntity
  8
0
370
         0
  6
HIDDEN
 62
         9
100
AcDbCircle
 10
148.6277970377
 20
61.7560480419
 30
0.0
 40
3.0
100
AcDbArc
 50
9.4712206345
 51
150.5287793655
  0
ARC
  5
1C6
100
AcDbEntity
  8
0
370
         0
  6
HIDDEN
 62
         9
100
AcDbCircle
 10
143.4041794704
 20
64.7079659797
 30
0.0
 40
3.0
100
AcDbArc
 50
189.4712206345
 51
330.5287793655
  0
LINE
  5
1C7
100
AcDbEntity
  8
0
370
         0
  6
HIDDEN
 62
         9
100
AcDbLine
 10
180.5902651176
 20
64.7513287427
 30
0.0
 11
181.5494863913
 21
64.5821921812
 31
0.0
  0
ARC
  5
1C8
100
AcDbEntity
  8
0
370
         0
  6
HIDDEN
 62
         9
100
AcDbCircle
 10
181.3758377322
 20
63.5973844913
 30
0.0
 40
1.0
100
AcDbArc
 50
350.0
 51
80.0
  0
LINE
  5
1C9
100
AcDbEntity
  8
0
370
         0
  6
HIDDEN
 62
         9
100
AcDbLine
 10
182.360646002
 20
63.423736096
 30
0.0
 11
181.2319314704
 21
57.0224854914
 31
0.0
  0
ARC
  5
1CA
100
AcDbEntity
  8
0
370
         0
  6
HIDDEN
 62
         9
100
AcDbCircle
 10
159.7696248828
 20
59.7914431784
 30
0.0
 40
3.0
100
AcDbArc
 50
9.4712206345
 51
150.5287793655
  0
ARC
  5
1CB
100
AcDbEntity
  8
0
370
         0
  6
HIDDEN
 62
         9
100
AcDbCircle
 10
154.5460073156
 20
62.7433611162
 30
0.0
 40
3.0
100
AcDbArc
 50
189.4712206345
 51
330.5287793655
  0
ARC
  5
1CC
100
AcDbEntity
  8
0
370
         0
  6
HIDDEN
 62
         9
100
AcDbCircle
 10
115.6197343197
 20
-40.0589607799
 30
0.0
 40
100.0
100
AcDbArc
 50
80.0
 51
101.4973086468
  0
ARC
  5
1CD
100
AcDbEntity
  8
0
370
         0
  6
HIDDEN
 62
         9
100
AcDbCircle
 10
170.9114527279
 20
57.8268383149
 30
0.0
 40
3.0
100
AcDbArc
 50
9.4712206345
 51
150.5287793655
  0
ARC
  5
1CE
100
AcDbEntity
  8
0
370
         0
  6
HIDDEN
 62
         9
100
AcDbCircle
 10
165.6878351607
 20
60.7787562527
 30
0.0
 40
3.0
100
AcDbArc
 50
189.4712206345
 51
330.5287793655
  0
LINE
  5
1CF
100
AcDbEntity
  8
0
370
         0
  6
HIDDEN
 62
         9
100
AcDbLine
 10
132.9845522195
 20
58.4218144236
 30
0.0
 11
179.0315887556
 21
50.3024790255
 31
0.0
  0
ARC
  5
1D0
100
AcDbEntity
  8
0
370
         0
  6
HIDDEN
 62
         9
100
AcDbCircle
 10
176.8296630058
 20
58.8141513892
 30
0.0
 40
3.0
100
AcDbArc
 50
189.4712206345
 51
260.0
  0
ARC
  5
1D1
100
AcDbEntity
  8
0
370
         0
  6
HIDDEN
 62
         9
100
AcDbCircle
 10
179.2623168244
 20
57.3697822743
 30
0.0
 40
2.0
100
AcDbArc
 50
260.0
 51
349.9999999999
  0
LINE
  5
1D2
100
AcDbEntity
  8
0
370
         0
  6
HIDDEN
 62
         9
100
AcDbLine
 10
178.9150206968
 20
55.4001672013
 30
0.0
 11
176.3087181971
 21
55.8597283257
 31
0.0
  0
ARC
  5
1D3
100
AcDbEntity
  8
0
370
         0
  6
HIDDEN
 62
         9
100
AcDbCircle
 10
179.8998282221
 20
55.2265185906
 30
0.0
 40
5.0
100
AcDbArc
 50
260.0
 51
350.0
  0
LINE
  5
1D4
100
AcDbEntity
  8
0
370
        15
  6
Continuous
 62
         7
100
AcDbLine
 10
358.9298725457
 20
211.8045854366
 30
0.0
 11
358.9298725457
 21
209.8045854366
 31
0.0
  0
LINE
  5
1D5
100
AcDbEntity
  8
0
370
        15
  6
Continuous
 62
         7
100
AcDbLine
 10
352.0940711371
 20
214.5651163626
 30
0.0
 11
352.0940711371
 21
212.5651163626
 31
0.0
  0
LINE
  5
1D6
100
AcDbEntity
  8
0
370
        15
  6
Continuous
 62
         7
100
AcDbLine
 10
345.2582697285
 20
217.3256472886
 30
0.0
 11
345.2582697285
 21
215.3256472886
 31
0.0
  0
LINE
  5
1D7
100
AcDbEntity
  8
0
370
        15
  6
Continuous
 62
         7
100
AcDbLine
 10
338.4224683199
 20
220.0861782146
 30
0.0
 11
338.4224683199
 21
218.0861782146
 31
0.0
  0
LINE
  5
1D8
100
AcDbEntity
  8
0
370
        15
  6
Continuous
 62
         7
100
AcDbLine
 10
331.5866669113
 20
222.8467091406
 30
0.0
 11
331.5866669113
 21
220.8467091406
 31
0.0
  0
LINE
  5
1D9
100
AcDbEntity
  8
0
370
        15
  6
Continuous
 62
         7
100
AcDbLine
 10
305.2209411046
 20
230.7032746299
 30
0.0
 11
305.2209411046
 21
228.7032746299
 31
0.0
  0
LINE
  5
1DA
100
AcDbEntity
  8
0
370
        15
  6
Continuous
 62
         7
100
AcDbLine
 10
319.8876077713
 20
228.7032746299
 30
0.0
 11
319.8876077713
 21
230.7032746299
 31
0.0
  0
LINE
  5
1DB
100
AcDbEntity
  8
0
370
        15
  6
Continuous
 62
         7
100
AcDbLine
 10
324.7508655027
 20
225.6072400666
 30
0.0
 11
324.7508655027
 21
223.6072400666
 31
0.0
  0
LINE
  5
1DC
100
AcDbEntity
  8
0
370
        15
  6
Continuous
 62
         7
100
AcDbLine
 10
372.2646170795
 20
224.2802001138
 30
0.0
 11
372.2646170795
 21
226.2802001138
 31
0.0
  0
POLYLINE
  5
1DD
100
AcDbEntity
  8
0
370
        15
  6
Continuous
 62
         7
100
AcDb2dPolyline
 66
         1
 10
0.0
 20
0.0
 30
0.0
 70
       128
  0
VERTEX
  5
1DE
100
AcDbEntity
  8
0
100
AcDbVertex
100
AcDb2dVertex
 10
317.0158321868
 20
238.4538150524
 30
0.0
  0
VERTEX
  5
1DF
100
AcDbEntity
  8
0
100
AcDbVertex
100
AcDb2dVertex
 10
319.5282596329
 20
237.4251667941
 30
0.0
  0
VERTEX
  5
1E0
100
AcDbEntity
  8
0
100
AcDbVertex
100
AcDb2dVertex
 10
322.0880069148
 20
236.4880934873
 30
0.0
  0
VERTEX
  5
1E1
100
AcDbEntity
  8
0
100
AcDbVertex
100
AcDb2dVertex
 10
324.6906259578
 20
235.6442234849
 30
0.0
  0
VERTEX
  5
1E2
100
AcDbEntity
  8
0
100
AcDbVertex
100
AcDb2dVertex
 10
327.3315941886
 20
234.8950231806
 30
0.0
  0
VERTEX
  5
1E3
100
AcDbEntity
  8
0
100
AcDbVertex
100
AcDb2dVertex
 10
330.0063223945
 20
234.2417944602
 30
0.0
  0
VERTEX
  5
1E4
100
AcDbEntity
  8
0
100
AcDbVertex
100
AcDb2dVertex
 10
332.7101626984
 20
233.6856724399
 30
0.0
  0
VERTEX
  5
1E5
100
AcDbEntity
  8
0
100
AcDbVertex
100
AcDb2dVertex
 10
335.4384166346
 20
233.2276234933
 30
0.0
  0
VERTEX
  5
1E6
100
AcDbEntity
  8
0
100
AcDbVertex
100
AcDb2dVertex
 10
338.1863433142
 20
232.8684435724
 30
0.0
  0
VERTEX
  5
1E7
100
AcDbEntity
  8
0
100
AcDbVertex
100
AcDb2dVertex
 10
340.9491676628
 20
232.6087568245
 30
0.0
  0
SEQEND
  5
1E8
100
AcDbEntity
  8
0
  0
POLYLINE
  5
1E9
100
AcDbEntity
  8
0
370
        15
  6
Continuous
 62
         7
100
AcDb2dPolyline
 66
         1
 10
0.0
 20
0.0
 30
0.0
 70
       128
  0
VERTEX
  5
1EA
100
AcDbEntity
  8
0
100
AcDbVertex
100
AcDb2dVertex
 10
311.9433201897
 20
222.0591985555
 30
0.0
  0
VERTEX
  5
1EB
100
AcDbEntity
  8
0
100
AcDbVertex
100
AcDb2dVertex
 10
310.877287453
 20
222.1656645434
 30
0.0
  0
VERTEX
  5
1EC
100
AcDbEntity
  8
0
100
AcDbVertex
100
AcDb2dVertex
 10
309.8305658777
 20
222.3704444529
 30
0.0
  0
VERTEX
  5
1ED
100
AcDbEntity
  8
0
100
AcDbVertex
100
AcDb2dVertex
 10
308.8152088726
 20
222.6711801631
 30
0.0
  0
VERTEX
  5
1EE
100
AcDbEntity
  8
0
100
AcDbVertex
100
AcDb2dVertex
 10
307.8429086708
 20
223.0644085848
 30
0.0
  0
VERTEX
  5
1EF
100
AcDbEntity
  8
0
100
AcDbVertex
100
AcDb2dVertex
 10
306.9248616897
 20
223.5456015386
 30
0.0
  0
VERTEX
  5
1F0
100
AcDbEntity
  8
0
100
AcDbVertex
100
AcDb2dVertex
 10
306.0716395997
 20
224.1092178994
 30
0.0
  0
VERTEX
  5
1F1
100
AcDbEntity
  8
0
100
AcDbVertex
100
AcDb2dVertex
 10
305.293067587
 20
224.7487674042
 30
0.0
  0
VERTEX
  5
1F2
100
AcDbEntity
  8
0
100
AcDbVertex
100
AcDb2dVertex
 10
304.5981112131
 20
225.4568853902
 30
0.0
  0
VERTEX
  5
1F3
100
AcDbEntity
  8
0
100
AcDbVertex
100
AcDb2dVertex
 10
303.9947731725
 20
226.2254176017
 30
0.0
  0
VERTEX
  5
1F4
100
AcDbEntity
  8
0
100
AcDbVertex
100
AcDb2dVertex
 10
303.4900011391
 20
227.0455140893
 30
0.0
  0
VERTEX
  5
1F5
100
AcDbEntity
  8
0
100
AcDbVertex
100
AcDb2dVertex
 10
303.0896077602
 20
227.9077311211
 30
0.0
  0
VERTEX
  5
1F6
100
AcDbEntity
  8
0
100
AcDbVertex
100
AcDb2dVertex
 10
302.7982037224
 20
228.8021399306
 30
0.0
  0
VERTEX
  5
1F7
100
AcDbEntity
  8
0
100
AcDbVertex
100
AcDb2dVertex
 10
302.6191446572
 20
229.7184410502
 30
0.0
  0
VERTEX
  5
1F8
100
AcDbEntity
  8
0
100
AcDbVertex
100
AcDb2dVertex
 10
302.5544924998
 20
230.6460829139
 30
0.0
  0
VERTEX
  5
1F9
100
AcDbEntity
  8
0
100
AcDbVertex
100
AcDb2dVertex
 10
302.6049917451
 20
231.5743833626
 30
0.0
  0
VERTEX
  5
1FA
100
AcDbEntity
  8
0
100
AcDbVertex
100
AcDb2dVertex
 10
302.7700608746
 20
232.4926526533
 30
0.0
  0
VERTEX
  5
1FB
100
AcDbEntity
  8
0
100
AcDbVertex
100
AcDb2dVertex
 10
303.0477990526
 20
233.3903165557
 30
0.0
  0
VERTEX
  5
1FC
100
AcDbEntity
  8
0
100
AcDbVertex
100
AcDb2dVertex
 10
303.4350080153
 20
234.2570381187
 30
0.0
  0
VERTEX
  5
1FD
100
AcDbEntity
  8
0
100
AcDbVertex
100
AcDb2dVertex
 10
303.9272288999
 20
235.0828367043
 30
0.0
  0
VERTEX
  5
1FE
100
AcDbEntity
  8
0
100
AcDbVertex
100
AcDb2dVertex
 10
304.5187935903
 20
235.8582029185
 30
0.0
  0
VERTEX
  5
1FF
100
AcDbEntity
  8
0
100
AcDbVertex
100
AcDb2dVertex
 10
305.2028899876
 20
236.5742081159
 30
0.0
  0
VERTEX
  5
200
100
AcDbEntity
  8
0
100
AcDbVertex
100
AcDb2dVertex
 10
305.971640454
 20
237.2226072165
 30
0.0
  0
VERTEX
  5
201
100
AcDbEntity
  8
0
100
AcDbVertex
100
AcDb2dVertex
 10
306.816192527
 20
237.7959336509
 30
0.0
  0
VERTEX
  5
202
100
AcDbEntity
  8
0
100
AcDbVertex
100
AcDb2dVertex
 10
307.726820859
 20
238.2875853407
 30
0.0
  0
VERTEX
  5
203
100
AcDbEntity
  8
0
100
AcDbVertex
100
AcDb2dVertex
 10
308.6930392083
 20
238.6919007243
 30
0.0
  0
VERTEX
  5
204
100
AcDbEntity
  8
0
100
AcDbVertex
100
AcDb2dVertex
 10
309.7037211925
 20
239.0042239519
 30
0.0
  0
VERTEX
  5
205
100
AcDbEntity
  8
0
100
AcDbVertex
100
AcDb2dVertex
 10
310.747228413
 20
239.2209584992
 30
0.0
  0
VERTEX
  5
206
100
AcDbEntity
  8
0
100
AcDbVertex
100
AcDb2dVertex
 10
311.8115444757
 20
239.3396085832
 30
0.0
  0
VERTEX
  5
207
100
AcDbEntity
  8
0
100
AcDbVertex
100
AcDb2dVertex
 10
312.8844133645
 20
239.3588079016
 30
0.0
  0
VERTEX
  5
208
100
AcDbEntity
  8
0
100
AcDbVertex
100
AcDb2dVertex
 10
313.9534805745
 20
239.2783353668
 30
0.0
  0
VERTEX
  5
209
100
AcDbEntity
  8
0
100
AcDbVertex
100
AcDb2dVertex
 10
315.0064353781
 20
239.0991176515
 30
0.0
  0
VERTEX
  5
20A
100
AcDbEntity
  8
0
100
AcDbVertex
100
AcDb2dVertex
 10
316.0311525888
 20
238.8232185178
 30
0.0
  0
VERTEX
  5
20B
100
AcDbEntity
  8
0
100
AcDbVertex
100
AcDb2dVertex
 10
317.0158321868
 20
238.4538150524
 30
0.0
  0
SEQEND
  5
20C
100
AcDbEntity
  8
0
  0
POLYLINE
  5
20D
100
AcDbEntity
  8
0
370
        15
  6
Continuous
 62
         7
100
AcDb2dPolyline
 66
         1
 10
0.0
 20
0.0
 30
0.0
 70
       128
  0
VERTEX
  5
20E
100
AcDbEntity
  8
0
100
AcDbVertex
100
AcDb2dVertex
 10
336.0448426504
 20
216.7577292077
 30
0.0
  0
VERTEX
  5
20F
100
AcDbEntity
  8
0
100
AcDbVertex
100
AcDb2dVertex
 10
333.5022363646
 20
217.729171923
 30
0.0
  0
VERTEX
  5
210
100
AcDbEntity
  8
0
100
AcDbVertex
100
AcDb2dVertex
 10
330.9150894283
 20
218.6080001432
 30
0.0
  0
VERTEX
  5
211
100
AcDbEntity
  8
0
100
AcDbVertex
100
AcDb2dVertex
 10
328.2878975289
 20
219.3926867276
 30
0.0
  0
VERTEX
  5
212
100
AcDbEntity
  8
0
100
AcDbVertex
100
AcDb2dVertex
 10
325.6252259399
 20
220.0818681259
 30
0.0
  0
VERTEX
  5
213
100
AcDbEntity
  8
0
100
AcDbVertex
100
AcDb2dVertex
 10
322.9317015877
 20
220.6743467468
 30
0.0
  0
VERTEX
  5
214
100
AcDbEntity
  8
0
100
AcDbVertex
100
AcDb2dVertex
 10
320.2120050119
 20
221.1690930399
 30
0.0
  0
VERTEX
  5
215
100
AcDbEntity
  8
0
100
AcDbVertex
100
AcDb2dVertex
 10
317.4708622313
 20
221.5652472842
 30
0.0
  0
VERTEX
  5
216
100
AcDbEntity
  8
0
100
AcDbVertex
100
AcDb2dVertex
 10
314.7130365319
 20
221.862121082
 30
0.0
  0
VERTEX
  5
217
100
AcDbEntity
  8
0
100
AcDbVertex
100
AcDb2dVertex
 10
311.9433201897
 20
222.0591985555
 30
0.0
  0
SEQEND
  5
218
100
AcDbEntity
  8
0
  0
LINE
  5
219
100
AcDbEntity
  8
0
370
        15
  6
Continuous
 62
         7
100
AcDbLine
 10
363.4808342757
 20
205.6781353401
 30
0.0
 11
336.0448426504
 21
216.7577292077
 31
0.0
  0
POLYLINE
  5
21A
100
AcDbEntity
  8
0
370
        15
  6
Continuous
 62
         7
100
AcDb2dPolyline
 66
         1
 10
0.0
 20
0.0
 30
0.0
 70
       128
  0
VERTEX
  5
21B
100
AcDbEntity
  8
0
100
AcDbVertex
100
AcDb2dVertex
 10
365.0759170924
 20
206.3972374187
 30
0.0
  0
VERTEX
  5
21C
100
AcDbEntity
  8
0
100
AcDbVertex
100
AcDb2dVertex
 10
365.0020718888
 20
206.1822013341
 30
0.0
  0
VERTEX
  5
21D
100
AcDbEntity
  8
0
100
AcDbVertex
100
AcDb2dVertex
 10
364.8737721905
 20
205.9873045824
 30
0.0
  0
VERTEX
  5
21E
100
AcDbEntity
  8
0
100
AcDbVertex
100
AcDb2dVertex
 10
364.6977211489
 20
205.8227297473
 30
0.0
  0
VERTEX
  5
21F
100
AcDbEntity
  8
0
100
AcDbVertex
100
AcDb2dVertex
 10
364.483116734
 20
205.6970752126
 30
0.0
  0
VERTEX
  5
220
100
AcDbEntity
  8
0
100
AcDbVertex
100
AcDb2dVertex
 10
364.2411711769
 20
205.6169059303
 30
0.0
  0
VERTEX
  5
221
100
AcDbEntity
  8
0
100
AcDbVertex
100
AcDb2dVertex
 10
363.9845251754
 20
205.586410428
 30
0.0
  0
VERTEX
  5
222
100
AcDbEntity
  8
0
100
AcDbVertex
100
AcDb2dVertex
 10
363.7265874669
 20
205.607181975
 30
0.0
  0
VERTEX
  5
223
100
AcDbEntity
  8
0
100
AcDbVertex
100
AcDb2dVertex
 10
363.4808342757
 20
205.6781353401
 30
0.0
  0
SEQEND
  5
224
100
AcDbEntity
  8
0
  0
LINE
  5
225
100
AcDbEntity
  8
0
370
        15
  6
Continuous
 62
         7
100
AcDbLine
 10
365.6315937529
 20
209.1264289601
 30
0.0
 11
365.0759170924
 21
206.3972374187
 31
0.0
  0
POLYLINE
  5
226
100
AcDbEntity
  8
0
370
        15
  6
Continuous
 62
         7
100
AcDb2dPolyline
 66
         1
 10
0.0
 20
0.0
 30
0.0
 70
       128
  0
VERTEX
  5
227
100
AcDbEntity
  8
0
100
AcDbVertex
100
AcDb2dVertex
 10
364.5072147703
 20
210.9969675609
 30
0.0
  0
VERTEX
  5
228
100
AcDbEntity
  8
0
100
AcDbVertex
100
AcDb2dVertex
 10
364.7911920988
 20
210.8567617651
 30
0.0
  0
VERTEX
  5
229
100
AcDbEntity
  8
0
100
AcDbVertex
100
AcDb2dVertex
 10
365.0450043584
 20
210.6783675103
 30
0.0
  0
VERTEX
  5
22A
100
AcDbEntity
  8
0
100
AcDbVertex
100
AcDb2dVertex
 10
365.2618713771
 20
210.4665503022
 30
0.0
  0
VERTEX
  5
22B
100
AcDbEntity
  8
0
100
AcDbVertex
100
AcDb2dVertex
 10
365.4359999132
 20
210.2269684849
 30
0.0
  0
VERTEX
  5
22C
100
AcDbEntity
  8
0
100
AcDbVertex
100
AcDb2dVertex
 10
365.5627384128
 20
209.9660220881
 30
0.0
  0
VERTEX
  5
22D
100
AcDbEntity
  8
0
100
AcDbVertex
100
AcDb2dVertex
 10
365.6387012678
 20
209.6906818604
 30
0.0
  0
VERTEX
  5
22E
100
AcDbEntity
  8
0
100
AcDbVertex
100
AcDb2dVertex
 10
365.6618592569
 20
209.4083030578
 30
0.0
  0
VERTEX
  5
22F
100
AcDbEntity
  8
0
100
AcDbVertex
100
AcDb2dVertex
 10
365.6315937529
 20
209.1264289601
 30
0.0
  0
SEQEND
  5
230
100
AcDbEntity
  8
0
  0
POLYLINE
  5
231
100
AcDbEntity
  8
0
370
        15
  6
Continuous
 62
         7
100
AcDb2dPolyline
 66
         1
 10
0.0
 20
0.0
 30
0.0
 70
       128
  0
VERTEX
  5
232
100
AcDbEntity
  8
0
100
AcDbVertex
100
AcDb2dVertex
 10
364.5072147703
 20
210.9969675609
 30
0.0
  0
VERTEX
  5
233
100
AcDbEntity
  8
0
100
AcDbVertex
100
AcDb2dVertex
 10
364.228737785
 20
211.0697236525
 30
0.0
  0
VERTEX
  5
234
100
AcDbEntity
  8
0
100
AcDbVertex
100
AcDb2dVertex
 10
363.9410434156
 20
211.1068650674
 30
0.0
  0
VERTEX
  5
235
100
AcDbEntity
  8
0
100
AcDbVertex
100
AcDb2dVertex
 10
363.6501712459
 20
211.1076120941
 30
0.0
  0
VERTEX
  5
236
100
AcDbEntity
  8
0
100
AcDbVertex
100
AcDb2dVertex
 10
363.3622275717
 20
211.07194905
 30
0.0
  0
VERTEX
  5
237
100
AcDbEntity
  8
0
100
AcDbVertex
100
AcDb2dVertex
 10
363.0832572105
 20
211.0006246114
 30
0.0
  0
VERTEX
  5
238
100
AcDbEntity
  8
0
100
AcDbVertex
100
AcDb2dVertex
 10
362.8191166026
 20
210.8951360963
 30
0.0
  0
VERTEX
  5
239
100
AcDbEntity
  8
0
100
AcDbVertex
100
AcDb2dVertex
 10
362.5753508666
 20
210.757698031
 30
0.0
  0
VERTEX
  5
23A
100
AcDbEntity
  8
0
100
AcDbVertex
100
AcDb2dVertex
 10
362.35707739
 20
210.5911956603
 30
0.0
  0
SEQEND
  5
23B
100
AcDbEntity
  8
0
  0
POLYLINE
  5
23C
100
AcDbEntity
  8
0
370
        15
  6
Continuous
 62
         7
100
AcDb2dPolyline
 66
         1
 10
0.0
 20
0.0
 30
0.0
 70
       128
  0
VERTEX
  5
23D
100
AcDbEntity
  8
0
100
AcDbVertex
100
AcDb2dVertex
 10
362.35707739
 20
210.5911956603
 30
0.0
  0
VERTEX
  5
23E
100
AcDbEntity
  8
0
100
AcDbVertex
100
AcDb2dVertex
 10
361.9725776997
 20
210.3265548309
 30
0.0
  0
VERTEX
  5
23F
100
AcDbEntity
  8
0
100
AcDbVertex
100
AcDb2dVertex
 10
361.5251977524
 20
210.1510465276
 30
0.0
  0
VERTEX
  5
240
100
AcDbEntity
  8
0
100
AcDbVertex
100
AcDb2dVertex
 10
361.0419167626
 20
210.0752547655
 30
0.0
  0
VERTEX
  5
241
100
AcDbEntity
  8
0
100
AcDbVertex
100
AcDb2dVertex
 10
360.5518789547
 20
210.1037501613
 30
0.0
  0
VERTEX
  5
242
100
AcDbEntity
  8
0
100
AcDbVertex
100
AcDb2dVertex
 10
360.0846360222
 20
210.2348143022
 30
0.0
  0
VERTEX
  5
243
100
AcDbEntity
  8
0
100
AcDbVertex
100
AcDb2dVertex
 10
359.6683650156
 20
210.4605433749
 30
0.0
  0
VERTEX
  5
244
100
AcDbEntity
  8
0
100
AcDbVertex
100
AcDb2dVertex
 10
359.3281691271
 20
210.7673248045
 30
0.0
  0
VERTEX
  5
245
100
AcDbEntity
  8
0
100
AcDbVertex
100
AcDb2dVertex
 10
359.0845638443
 20
211.1366581595
 30
0.0
  0
VERTEX
  5
246
100
AcDbEntity
  8
0
100
AcDbVertex
100
AcDb2dVertex
 10
358.952239766
 20
211.5462708195
 30
0.0
  0
VERTEX
  5
247
100
AcDbEntity
  8
0
100
AcDbVertex
100
AcDb2dVertex
 10
358.9391766857
 20
211.9714611233
 30
0.0
  0
SEQEND
  5
248
100
AcDbEntity
  8
0
  0
POLYLINE
  5
249
100
AcDbEntity
  8
0
370
        15
  6
Continuous
 62
         7
100
AcDb2dPolyline
 66
         1
 10
0.0
 20
0.0
 30
0.0
 70
       128
  0
VERTEX
  5
24A
100
AcDbEntity
  8
0
100
AcDbVertex
100
AcDb2dVertex
 10
358.9391766857
 20
211.9714611233
 30
0.0
  0
VERTEX
  5
24B
100
AcDbEntity
  8
0
100
AcDbVertex
100
AcDb2dVertex
 10
358.9261136055
 20
212.3966514271
 30
0.0
  0
VERTEX
  5
24C
100
AcDbEntity
  8
0
100
AcDbVertex
100
AcDb2dVertex
 10
358.7937895271
 20
212.806264087
 30
0.0
  0
VERTEX
  5
24D
100
AcDbEntity
  8
0
100
AcDbVertex
100
AcDb2dVertex
 10
358.5501842444
 20
213.1755974421
 30
0.0
  0
VERTEX
  5
24E
100
AcDbEntity
  8
0
100
AcDbVertex
100
AcDb2dVertex
 10
358.2099883559
 20
213.4823788717
 30
0.0
  0
VERTEX
  5
24F
100
AcDbEntity
  8
0
100
AcDbVertex
100
AcDb2dVertex
 10
357.7937173492
 20
213.7081079444
 30
0.0
  0
VERTEX
  5
250
100
AcDbEntity
  8
0
100
AcDbVertex
100
AcDb2dVertex
 10
357.3264744168
 20
213.8391720853
 30
0.0
  0
VERTEX
  5
251
100
AcDbEntity
  8
0
100
AcDbVertex
100
AcDb2dVertex
 10
356.8364366088
 20
213.8676674811
 30
0.0
  0
VERTEX
  5
252
100
AcDbEntity
  8
0
100
AcDbVertex
100
AcDb2dVertex
 10
356.3531556191
 20
213.791875719
 30
0.0
  0
VERTEX
  5
253
100
AcDbEntity
  8
0
100
AcDbVertex
100
AcDb2dVertex
 10
355.9057756718
 20
213.6163674157
 30
0.0
  0
VERTEX
  5
254
100
AcDbEntity
  8
0
100
AcDbVertex
100
AcDb2dVertex
 10
355.5212759814
 20
213.3517265863
 30
0.0
  0
SEQEND
  5
255
100
AcDbEntity
  8
0
  0
POLYLINE
  5
256
100
AcDbEntity
  8
0
370
        15
  6
Continuous
 62
         7
100
AcDb2dPolyline
 66
         1
 10
0.0
 20
0.0
 30
0.0
 70
       128
  0
VERTEX
  5
257
100
AcDbEntity
  8
0
100
AcDbVertex
100
AcDb2dVertex
 10
355.5212759814
 20
213.3517265863
 30
0.0
  0
VERTEX
  5
258
100
AcDbEntity
  8
0
100
AcDbVertex
100
AcDb2dVertex
 10
355.1367762911
 20
213.0870857569
 30
0.0
  0
VERTEX
  5
259
100
AcDbEntity
  8
0
100
AcDbVertex
100
AcDb2dVertex
 10
354.6893963438
 20
212.9115774536
 30
0.0
  0
VERTEX
  5
25A
100
AcDbEntity
  8
0
100
AcDbVertex
100
AcDb2dVertex
 10
354.206115354
 20
212.8357856915
 30
0.0
  0
VERTEX
  5
25B
100
AcDbEntity
  8
0
100
AcDbVertex
100
AcDb2dVertex
 10
353.7160775461
 20
212.8642810873
 30
0.0
  0
VERTEX
  5
25C
100
AcDbEntity
  8
0
100
AcDbVertex
100
AcDb2dVertex
 10
353.2488346136
 20
212.9953452282
 30
0.0
  0
VERTEX
  5
25D
100
AcDbEntity
  8
0
100
AcDbVertex
100
AcDb2dVertex
 10
352.832563607
 20
213.2210743009
 30
0.0
  0
VERTEX
  5
25E
100
AcDbEntity
  8
0
100
AcDbVertex
100
AcDb2dVertex
 10
352.4923677185
 20
213.5278557305
 30
0.0
  0
VERTEX
  5
25F
100
AcDbEntity
  8
0
100
AcDbVertex
100
AcDb2dVertex
 10
352.2487624357
 20
213.8971890855
 30
0.0
  0
VERTEX
  5
260
100
AcDbEntity
  8
0
100
AcDbVertex
100
AcDb2dVertex
 10
352.1164383574
 20
214.3068017455
 30
0.0
  0
VERTEX
  5
261
100
AcDbEntity
  8
0
100
AcDbVertex
100
AcDb2dVertex
 10
352.1033752771
 20
214.7319920493
 30
0.0
  0
SEQEND
  5
262
100
AcDbEntity
  8
0
  0
POLYLINE
  5
263
100
AcDbEntity
  8
0
370
        15
  6
Continuous
 62
         7
100
AcDb2dPolyline
 66
         1
 10
0.0
 20
0.0
 30
0.0
 70
       128
  0
VERTEX
  5
264
100
AcDbEntity
  8
0
100
AcDbVertex
100
AcDb2dVertex
 10
352.1033752771
 20
214.7319920493
 30
0.0
  0
VERTEX
  5
265
100
AcDbEntity
  8
0
100
AcDbVertex
100
AcDb2dVertex
 10
352.0903121969
 20
215.1571823531
 30
0.0
  0
VERTEX
  5
266
100
AcDbEntity
  8
0
100
AcDbVertex
100
AcDb2dVertex
 10
351.9579881186
 20
215.566795013
 30
0.0
  0
VERTEX
  5
267
100
AcDbEntity
  8
0
100
AcDbVertex
100
AcDb2dVertex
 10
351.7143828358
 20
215.9361283681
 30
0.0
  0
VERTEX
  5
268
100
AcDbEntity
  8
0
100
AcDbVertex
100
AcDb2dVertex
 10
351.3741869473
 20
216.2429097977
 30
0.0
  0
VERTEX
  5
269
100
AcDbEntity
  8
0
100
AcDbVertex
100
AcDb2dVertex
 10
350.9579159407
 20
216.4686388704
 30
0.0
  0
VERTEX
  5
26A
100
AcDbEntity
  8
0
100
AcDbVertex
100
AcDb2dVertex
 10
350.4906730082
 20
216.5997030113
 30
0.0
  0
VERTEX
  5
26B
100
AcDbEntity
  8
0
100
AcDbVertex
100
AcDb2dVertex
 10
350.0006352003
 20
216.6281984071
 30
0.0
  0
VERTEX
  5
26C
100
AcDbEntity
  8
0
100
AcDbVertex
100
AcDb2dVertex
 10
349.5173542105
 20
216.552406645
 30
0.0
  0
VERTEX
  5
26D
100
AcDbEntity
  8
0
100
AcDbVertex
100
AcDb2dVertex
 10
349.0699742632
 20
216.3768983417
 30
0.0
  0
VERTEX
  5
26E
100
AcDbEntity
  8
0
100
AcDbVertex
100
AcDb2dVertex
 10
348.6854745729
 20
216.1122575123
 30
0.0
  0
SEQEND
  5
26F
100
AcDbEntity
  8
0
  0
POLYLINE
  5
270
100
AcDbEntity
  8
0
370
        15
  6
Continuous
 62
         7
100
AcDb2dPolyline
 66
         1
 10
0.0
 20
0.0
 30
0.0
 70
       128
  0
VERTEX
  5
271
100
AcDbEntity
  8
0
100
AcDbVertex
100
AcDb2dVertex
 10
348.6854745729
 20
216.1122575123
 30
0.0
  0
VERTEX
  5
272
100
AcDbEntity
  8
0
100
AcDbVertex
100
AcDb2dVertex
 10
348.3009748825
 20
215.8476166829
 30
0.0
  0
VERTEX
  5
273
100
AcDbEntity
  8
0
100
AcDbVertex
100
AcDb2dVertex
 10
347.8535949352
 20
215.6721083795
 30
0.0
  0
VERTEX
  5
274
100
AcDbEntity
  8
0
100
AcDbVertex
100
AcDb2dVertex
 10
347.3703139455
 20
215.5963166175
 30
0.0
  0
VERTEX
  5
275
100
AcDbEntity
  8
0
100
AcDbVertex
100
AcDb2dVertex
 10
346.8802761375
 20
215.6248120132
 30
0.0
  0
VERTEX
  5
276
100
AcDbEntity
  8
0
100
AcDbVertex
100
AcDb2dVertex
 10
346.413033205
 20
215.7558761542
 30
0.0
  0
VERTEX
  5
277
100
AcDbEntity
  8
0
100
AcDbVertex
100
AcDb2dVertex
 10
345.9967621984
 20
215.9816052269
 30
0.0
  0
VERTEX
  5
278
100
AcDbEntity
  8
0
100
AcDbVertex
100
AcDb2dVertex
 10
345.6565663099
 20
216.2883866565
 30
0.0
  0
VERTEX
  5
279
100
AcDbEntity
  8
0
100
AcDbVertex
100
AcDb2dVertex
 10
345.4129610271
 20
216.6577200115
 30
0.0
  0
VERTEX
  5
27A
100
AcDbEntity
  8
0
100
AcDbVertex
100
AcDb2dVertex
 10
345.2806369488
 20
217.0673326715
 30
0.0
  0
VERTEX
  5
27B
100
AcDbEntity
  8
0
100
AcDbVertex
100
AcDb2dVertex
 10
345.2675738686
 20
217.4925229753
 30
0.0
  0
SEQEND
  5
27C
100
AcDbEntity
  8
0
  0
POLYLINE
  5
27D
100
AcDbEntity
  8
0
370
        15
  6
Continuous
 62
         7
100
AcDb2dPolyline
 66
         1
 10
0.0
 20
0.0
 30
0.0
 70
       128
  0
VERTEX
  5
27E
100
AcDbEntity
  8
0
100
AcDbVertex
100
AcDb2dVertex
 10
345.2675738686
 20
217.4925229753
 30
0.0
  0
VERTEX
  5
27F
100
AcDbEntity
  8
0
100
AcDbVertex
100
AcDb2dVertex
 10
345.2545107883
 20
217.9177132791
 30
0.0
  0
VERTEX
  5
280
100
AcDbEntity
  8
0
100
AcDbVertex
100
AcDb2dVertex
 10
345.12218671
 20
218.327325939
 30
0.0
  0
VERTEX
  5
281
100
AcDbEntity
  8
0
100
AcDbVertex
100
AcDb2dVertex
 10
344.8785814272
 20
218.6966592941
 30
0.0
  0
VERTEX
  5
282
100
AcDbEntity
  8
0
100
AcDbVertex
100
AcDb2dVertex
 10
344.5383855387
 20
219.0034407237
 30
0.0
  0
VERTEX
  5
283
100
AcDbEntity
  8
0
100
AcDbVertex
100
AcDb2dVertex
 10
344.1221145321
 20
219.2291697964
 30
0.0
  0
VERTEX
  5
284
100
AcDbEntity
  8
0
100
AcDbVertex
100
AcDb2dVertex
 10
343.6548715996
 20
219.3602339373
 30
0.0
  0
VERTEX
  5
285
100
AcDbEntity
  8
0
100
AcDbVertex
100
AcDb2dVertex
 10
343.1648337917
 20
219.3887293331
 30
0.0
  0
VERTEX
  5
286
100
AcDbEntity
  8
0
100
AcDbVertex
100
AcDb2dVertex
 10
342.6815528019
 20
219.312937571
 30
0.0
  0
VERTEX
  5
287
100
AcDbEntity
  8
0
100
AcDbVertex
100
AcDb2dVertex
 10
342.2341728546
 20
219.1374292677
 30
0.0
  0
VERTEX
  5
288
100
AcDbEntity
  8
0
100
AcDbVertex
100
AcDb2dVertex
 10
341.8496731643
 20
218.8727884383
 30
0.0
  0
SEQEND
  5
289
100
AcDbEntity
  8
0
  0
POLYLINE
  5
28A
100
AcDbEntity
  8
0
370
        15
  6
Continuous
 62
         7
100
AcDb2dPolyline
 66
         1
 10
0.0
 20
0.0
 30
0.0
 70
       128
  0
VERTEX
  5
28B
100
AcDbEntity
  8
0
100
AcDbVertex
100
AcDb2dVertex
 10
341.8496731643
 20
218.8727884383
 30
0.0
  0
VERTEX
  5
28C
100
AcDbEntity
  8
0
100
AcDbVertex
100
AcDb2dVertex
 10
341.4651734739
 20
218.6081476089
 30
0.0
  0
VERTEX
  5
28D
100
AcDbEntity
  8
0
100
AcDbVertex
100
AcDb2dVertex
 10
341.0177935266
 20
218.4326393055
 30
0.0
  0
VERTEX
  5
28E
100
AcDbEntity
  8
0
100
AcDbVertex
100
AcDb2dVertex
 10
340.5345125369
 20
218.3568475435
 30
0.0
  0
VERTEX
  5
28F
100
AcDbEntity
  8
0
100
AcDbVertex
100
AcDb2dVertex
 10
340.0444747289
 20
218.3853429392
 30
0.0
  0
VERTEX
  5
290
100
AcDbEntity
  8
0
100
AcDbVertex
100
AcDb2dVertex
 10
339.5772317965
 20
218.5164070801
 30
0.0
  0
VERTEX
  5
291
100
AcDbEntity
  8
0
100
AcDbVertex
100
AcDb2dVertex
 10
339.1609607898
 20
218.7421361529
 30
0.0
  0
VERTEX
  5
292
100
AcDbEntity
  8
0
100
AcDbVertex
100
AcDb2dVertex
 10
338.8207649013
 20
219.0489175825
 30
0.0
  0
VERTEX
  5
293
100
AcDbEntity
  8
0
100
AcDbVertex
100
AcDb2dVertex
 10
338.5771596186
 20
219.4182509375
 30
0.0
  0
VERTEX
  5
294
100
AcDbEntity
  8
0
100
AcDbVertex
100
AcDb2dVertex
 10
338.4448355402
 20
219.8278635975
 30
0.0
  0
VERTEX
  5
295
100
AcDbEntity
  8
0
100
AcDbVertex
100
AcDb2dVertex
 10
338.43177246
 20
220.2530539013
 30
0.0
  0
SEQEND
  5
296
100
AcDbEntity
  8
0
  0
POLYLINE
  5
297
100
AcDbEntity
  8
0
370
        15
  6
Continuous
 62
         7
100
AcDb2dPolyline
 66
         1
 10
0.0
 20
0.0
 30
0.0
 70
       128
  0
VERTEX
  5
298
100
AcDbEntity
  8
0
100
AcDbVertex
100
AcDb2dVertex
 10
338.43177246
 20
220.2530539013
 30
0.0
  0
VERTEX
  5
299
100
AcDbEntity
  8
0
100
AcDbVertex
100
AcDb2dVertex
 10
338.4187093797
 20
220.6782442051
 30
0.0
  0
VERTEX
  5
29A
100
AcDbEntity
  8
0
100
AcDbVertex
100
AcDb2dVertex
 10
338.2863853014
 20
221.087856865
 30
0.0
  0
VERTEX
  5
29B
100
AcDbEntity
  8
0
100
AcDbVertex
100
AcDb2dVertex
 10
338.0427800187
 20
221.4571902201
 30
0.0
  0
VERTEX
  5
29C
100
AcDbEntity
  8
0
100
AcDbVertex
100
AcDb2dVertex
 10
337.7025841301
 20
221.7639716497
 30
0.0
  0
VERTEX
  5
29D
100
AcDbEntity
  8
0
100
AcDbVertex
100
AcDb2dVertex
 10
337.2863131235
 20
221.9897007224
 30
0.0
  0
VERTEX
  5
29E
100
AcDbEntity
  8
0
100
AcDbVertex
100
AcDb2dVertex
 10
336.819070191
 20
222.1207648633
 30
0.0
  0
VERTEX
  5
29F
100
AcDbEntity
  8
0
100
AcDbVertex
100
AcDb2dVertex
 10
336.3290323831
 20
222.1492602591
 30
0.0
  0
VERTEX
  5
2A0
100
AcDbEntity
  8
0
100
AcDbVertex
100
AcDb2dVertex
 10
335.8457513933
 20
222.073468497
 30
0.0
  0
VERTEX
  5
2A1
100
AcDbEntity
  8
0
100
AcDbVertex
100
AcDb2dVertex
 10
335.398371446
 20
221.8979601937
 30
0.0
  0
VERTEX
  5
2A2
100
AcDbEntity
  8
0
100
AcDbVertex
100
AcDb2dVertex
 10
335.0138717557
 20
221.6333193643
 30
0.0
  0
SEQEND
  5
2A3
100
AcDbEntity
  8
0
  0
POLYLINE
  5
2A4
100
AcDbEntity
  8
0
370
        15
  6
Continuous
 62
         7
100
AcDb2dPolyline
 66
         1
 10
0.0
 20
0.0
 30
0.0
 70
       128
  0
VERTEX
  5
2A5
100
AcDbEntity
  8
0
100
AcDbVertex
100
AcDb2dVertex
 10
335.0138717557
 20
221.6333193643
 30
0.0
  0
VERTEX
  5
2A6
100
AcDbEntity
  8
0
100
AcDbVertex
100
AcDb2dVertex
 10
334.6293720653
 20
221.3686785349
 30
0.0
  0
VERTEX
  5
2A7
100
AcDbEntity
  8
0
100
AcDbVertex
100
AcDb2dVertex
 10
334.181992118
 20
221.1931702315
 30
0.0
  0
VERTEX
  5
2A8
100
AcDbEntity
  8
0
100
AcDbVertex
100
AcDb2dVertex
 10
333.6987111283
 20
221.1173784695
 30
0.0
  0
VERTEX
  5
2A9
100
AcDbEntity
  8
0
100
AcDbVertex
100
AcDb2dVertex
 10
333.2086733203
 20
221.1458738652
 30
0.0
  0
VERTEX
  5
2AA
100
AcDbEntity
  8
0
100
AcDbVertex
100
AcDb2dVertex
 10
332.7414303879
 20
221.2769380061
 30
0.0
  0
VERTEX
  5
2AB
100
AcDbEntity
  8
0
100
AcDbVertex
100
AcDb2dVertex
 10
332.3251593812
 20
221.5026670789
 30
0.0
  0
VERTEX
  5
2AC
100
AcDbEntity
  8
0
100
AcDbVertex
100
AcDb2dVertex
 10
331.9849634927
 20
221.8094485084
 30
0.0
  0
VERTEX
  5
2AD
100
AcDbEntity
  8
0
100
AcDbVertex
100
AcDb2dVertex
 10
331.74135821
 20
222.1787818635
 30
0.0
  0
VERTEX
  5
2AE
100
AcDbEntity
  8
0
100
AcDbVertex
100
AcDb2dVertex
 10
331.6090341316
 20
222.5883945235
 30
0.0
  0
VERTEX
  5
2AF
100
AcDbEntity
  8
0
100
AcDbVertex
100
AcDb2dVertex
 10
331.5959710514
 20
223.0135848273
 30
0.0
  0
SEQEND
  5
2B0
100
AcDbEntity
  8
0
  0
POLYLINE
  5
2B1
100
AcDbEntity
  8
0
370
        15
  6
Continuous
 62
         7
100
AcDb2dPolyline
 66
         1
 10
0.0
 20
0.0
 30
0.0
 70
       128
  0
VERTEX
  5
2B2
100
AcDbEntity
  8
0
100
AcDbVertex
100
AcDb2dVertex
 10
331.5959710514
 20
223.0135848273
 30
0.0
  0
VERTEX
  5
2B3
100
AcDbEntity
  8
0
100
AcDbVertex
100
AcDb2dVertex
 10
331.5829079711
 20
223.438775131
 30
0.0
  0
VERTEX
  5
2B4
100
AcDbEntity
  8
0
100
AcDbVertex
100
AcDb2dVertex
 10
331.4505838928
 20
223.848387791
 30
0.0
  0
VERTEX
  5
2B5
100
AcDbEntity
  8
0
100
AcDbVertex
100
AcDb2dVertex
 10
331.2069786101
 20
224.2177211461
 30
0.0
  0
VERTEX
  5
2B6
100
AcDbEntity
  8
0
100
AcDbVertex
100
AcDb2dVertex
 10
330.8667827215
 20
224.5245025757
 30
0.0
  0
VERTEX
  5
2B7
100
AcDbEntity
  8
0
100
AcDbVertex
100
AcDb2dVertex
 10
330.4505117149
 20
224.7502316484
 30
0.0
  0
VERTEX
  5
2B8
100
AcDbEntity
  8
0
100
AcDbVertex
100
AcDb2dVertex
 10
329.9832687824
 20
224.8812957893
 30
0.0
  0
VERTEX
  5
2B9
100
AcDbEntity
  8
0
100
AcDbVertex
100
AcDb2dVertex
 10
329.4932309745
 20
224.9097911851
 30
0.0
  0
VERTEX
  5
2BA
100
AcDbEntity
  8
0
100
AcDbVertex
100
AcDb2dVertex
 10
329.0099499847
 20
224.833999423
 30
0.0
  0
VERTEX
  5
2BB
100
AcDbEntity
  8
0
100
AcDbVertex
100
AcDb2dVertex
 10
328.5625700374
 20
224.6584911196
 30
0.0
  0
VERTEX
  5
2BC
100
AcDbEntity
  8
0
100
AcDbVertex
100
AcDb2dVertex
 10
328.1780703471
 20
224.3938502903
 30
0.0
  0
SEQEND
  5
2BD
100
AcDbEntity
  8
0
  0
POLYLINE
  5
2BE
100
AcDbEntity
  8
0
370
        15
  6
Continuous
 62
         7
100
AcDb2dPolyline
 66
         1
 10
0.0
 20
0.0
 30
0.0
 70
       128
  0
VERTEX
  5
2BF
100
AcDbEntity
  8
0
100
AcDbVertex
100
AcDb2dVertex
 10
328.1780703471
 20
224.3938502903
 30
0.0
  0
VERTEX
  5
2C0
100
AcDbEntity
  8
0
100
AcDbVertex
100
AcDb2dVertex
 10
327.7935706567
 20
224.1292094609
 30
0.0
  0
VERTEX
  5
2C1
100
AcDbEntity
  8
0
100
AcDbVertex
100
AcDb2dVertex
 10
327.3461907094
 20
223.9537011575
 30
0.0
  0
VERTEX
  5
2C2
100
AcDbEntity
  8
0
100
AcDbVertex
100
AcDb2dVertex
 10
326.8629097197
 20
223.8779093954
 30
0.0
  0
VERTEX
  5
2C3
100
AcDbEntity
  8
0
100
AcDbVertex
100
AcDb2dVertex
 10
326.3728719117
 20
223.9064047912
 30
0.0
  0
VERTEX
  5
2C4
100
AcDbEntity
  8
0
100
AcDbVertex
100
AcDb2dVertex
 10
325.9056289793
 20
224.0374689321
 30
0.0
  0
VERTEX
  5
2C5
100
AcDbEntity
  8
0
100
AcDbVertex
100
AcDb2dVertex
 10
325.4893579727
 20
224.2631980049
 30
0.0
  0
VERTEX
  5
2C6
100
AcDbEntity
  8
0
100
AcDbVertex
100
AcDb2dVertex
 10
325.1491620841
 20
224.5699794344
 30
0.0
  0
VERTEX
  5
2C7
100
AcDbEntity
  8
0
100
AcDbVertex
100
AcDb2dVertex
 10
324.9055568014
 20
224.9393127895
 30
0.0
  0
VERTEX
  5
2C8
100
AcDbEntity
  8
0
100
AcDbVertex
100
AcDb2dVertex
 10
324.773232723
 20
225.3489254495
 30
0.0
  0
VERTEX
  5
2C9
100
AcDbEntity
  8
0
100
AcDbVertex
100
AcDb2dVertex
 10
324.7601696428
 20
225.7741157533
 30
0.0
  0
SEQEND
  5
2CA
100
AcDbEntity
  8
0
  0
POLYLINE
  5
2CB
100
AcDbEntity
  8
0
370
        15
  6
Continuous
 62
         7
100
AcDb2dPolyline
 66
         1
 10
0.0
 20
0.0
 30
0.0
 70
       128
  0
VERTEX
  5
2CC
100
AcDbEntity
  8
0
100
AcDbVertex
100
AcDb2dVertex
 10
324.7601696428
 20
225.7741157533
 30
0.0
  0
VERTEX
  5
2CD
100
AcDbEntity
  8
0
100
AcDbVertex
100
AcDb2dVertex
 10
324.7657741958
 20
225.835689513
 30
0.0
  0
VERTEX
  5
2CE
100
AcDbEntity
  8
0
100
AcDbVertex
100
AcDb2dVertex
 10
324.7688401959
 20
225.8973971777
 30
0.0
  0
VERTEX
  5
2CF
100
AcDbEntity
  8
0
100
AcDbVertex
100
AcDb2dVertex
 10
324.7693637442
 20
225.9591602781
 30
0.0
  0
VERTEX
  5
2D0
100
AcDbEntity
  8
0
100
AcDbVertex
100
AcDb2dVertex
 10
324.767344175
 20
226.0209002745
 30
0.0
  0
VERTEX
  5
2D1
100
AcDbEntity
  8
0
100
AcDbVertex
100
AcDb2dVertex
 10
324.7627840565
 20
226.0825386565
 30
0.0
  0
VERTEX
  5
2D2
100
AcDbEntity
  8
0
100
AcDbVertex
100
AcDb2dVertex
 10
324.7556891874
 20
226.143997043
 30
0.0
  0
VERTEX
  5
2D3
100
AcDbEntity
  8
0
100
AcDbVertex
100
AcDb2dVertex
 10
324.7460685897
 20
226.2051972818
 30
0.0
  0
VERTEX
  5
2D4
100
AcDbEntity
  8
0
100
AcDbVertex
100
AcDb2dVertex
 10
324.7339344974
 20
226.2660615488
 30
0.0
  0
SEQEND
  5
2D5
100
AcDbEntity
  8
0
  0
POLYLINE
  5
2D6
100
AcDbEntity
  8
0
370
        15
  6
Continuous
 62
         7
100
AcDb2dPolyline
 66
         1
 10
0.0
 20
0.0
 30
0.0
 70
       128
  0
VERTEX
  5
2D7
100
AcDbEntity
  8
0
100
AcDbVertex
100
AcDb2dVertex
 10
322.1792658684
 20
226.4625817424
 30
0.0
  0
VERTEX
  5
2D8
100
AcDbEntity
  8
0
100
AcDbVertex
100
AcDb2dVertex
 10
322.3954039967
 20
226.7837678606
 30
0.0
  0
VERTEX
  5
2D9
100
AcDbEntity
  8
0
100
AcDbVertex
100
AcDb2dVertex
 10
322.7181844851
 20
227.0288328675
 30
0.0
  0
VERTEX
  5
2DA
100
AcDbEntity
  8
0
100
AcDbVertex
100
AcDb2dVertex
 10
323.1141517919
 20
227.1723762733
 30
0.0
  0
VERTEX
  5
2DB
100
AcDbEntity
  8
0
100
AcDbVertex
100
AcDb2dVertex
 10
323.5422647105
 20
227.1995200955
 30
0.0
  0
VERTEX
  5
2DC
100
AcDbEntity
  8
0
100
AcDbVertex
100
AcDb2dVertex
 10
323.9581502069
 20
227.1074509323
 30
0.0
  0
VERTEX
  5
2DD
100
AcDbEntity
  8
0
100
AcDbVertex
100
AcDb2dVertex
 10
324.3187025945
 20
226.9057115652
 30
0.0
  0
VERTEX
  5
2DE
100
AcDbEntity
  8
0
100
AcDbVertex
100
AcDb2dVertex
 10
324.5865513511
 20
226.6152118696
 30
0.0
  0
VERTEX
  5
2DF
100
AcDbEntity
  8
0
100
AcDbVertex
100
AcDb2dVertex
 10
324.7339344974
 20
226.2660615488
 30
0.0
  0
SEQEND
  5
2E0
100
AcDbEntity
  8
0
  0
POLYLINE
  5
2E1
100
AcDbEntity
  8
0
370
        15
  6
Continuous
 62
         7
100
AcDb2dPolyline
 66
         1
 10
0.0
 20
0.0
 30
0.0
 70
       128
  0
VERTEX
  5
2E2
100
AcDbEntity
  8
0
100
AcDbVertex
100
AcDb2dVertex
 10
318.6128716054
 20
224.9463136704
 30
0.0
  0
VERTEX
  5
2E3
100
AcDbEntity
  8
0
100
AcDbVertex
100
AcDb2dVertex
 10
319.1475707314
 20
224.8531548189
 30
0.0
  0
VERTEX
  5
2E4
100
AcDbEntity
  8
0
100
AcDbVertex
100
AcDb2dVertex
 10
319.6929474874
 20
224.8477619025
 30
0.0
  0
VERTEX
  5
2E5
100
AcDbEntity
  8
0
100
AcDbVertex
100
AcDb2dVertex
 10
320.2299634068
 20
224.9303231815
 30
0.0
  0
VERTEX
  5
2E6
100
AcDbEntity
  8
0
100
AcDbVertex
100
AcDb2dVertex
 10
320.7398718899
 20
225.0979565381
 30
0.0
  0
VERTEX
  5
2E7
100
AcDbEntity
  8
0
100
AcDbVertex
100
AcDb2dVertex
 10
321.204872626
 20
225.3448100871
 30
0.0
  0
VERTEX
  5
2E8
100
AcDbEntity
  8
0
100
AcDbVertex
100
AcDb2dVertex
 10
321.6087329815
 20
225.662266459
 30
0.0
  0
VERTEX
  5
2E9
100
AcDbEntity
  8
0
100
AcDbVertex
100
AcDb2dVertex
 10
321.9373546622
 20
226.0392436218
 30
0.0
  0
VERTEX
  5
2EA
100
AcDbEntity
  8
0
100
AcDbVertex
100
AcDb2dVertex
 10
322.1792658684
 20
226.4625817424
 30
0.0
  0
SEQEND
  5
2EB
100
AcDbEntity
  8
0
  0
POLYLINE
  5
2EC
100
AcDbEntity
  8
0
370
        15
  6
Continuous
 62
         7
100
AcDb2dPolyline
 66
         1
 10
0.0
 20
0.0
 30
0.0
 70
       128
  0
VERTEX
  5
2ED
100
AcDbEntity
  8
0
100
AcDbVertex
100
AcDb2dVertex
 10
318.6128716054
 20
224.9463136704
 30
0.0
  0
VERTEX
  5
2EE
100
AcDbEntity
  8
0
100
AcDbVertex
100
AcDb2dVertex
 10
318.2036448403
 20
225.0367462707
 30
0.0
  0
VERTEX
  5
2EF
100
AcDbEntity
  8
0
100
AcDbVertex
100
AcDb2dVertex
 10
317.7870654712
 20
225.0969474843
 30
0.0
  0
VERTEX
  5
2F0
100
AcDbEntity
  8
0
100
AcDbVertex
100
AcDb2dVertex
 10
317.3661057189
 20
225.1264877861
 30
0.0
  0
VERTEX
  5
2F1
100
AcDbEntity
  8
0
100
AcDbVertex
100
AcDb2dVertex
 10
316.9437690576
 20
225.1251564112
 30
0.0
  0
VERTEX
  5
2F2
100
AcDbEntity
  8
0
100
AcDbVertex
100
AcDb2dVertex
 10
316.5230687853
 20
225.0929628588
 30
0.0
  0
VERTEX
  5
2F3
100
AcDbEntity
  8
0
100
AcDbVertex
100
AcDb2dVertex
 10
316.1070065246
 20
225.0301368241
 30
0.0
  0
VERTEX
  5
2F4
100
AcDbEntity
  8
0
100
AcDbVertex
100
AcDb2dVertex
 10
315.698550807
 20
224.93712656
 30
0.0
  0
VERTEX
  5
2F5
100
AcDbEntity
  8
0
100
AcDbVertex
100
AcDb2dVertex
 10
315.3006158923
 20
224.8145956783
 30
0.0
  0
SEQEND
  5
2F6
100
AcDbEntity
  8
0
  0
POLYLINE
  5
2F7
100
AcDbEntity
  8
0
370
        15
  6
Continuous
 62
         7
100
AcDb2dPolyline
 66
         1
 10
0.0
 20
0.0
 30
0.0
 70
       128
  0
VERTEX
  5
2F8
100
AcDbEntity
  8
0
100
AcDbVertex
100
AcDb2dVertex
 10
319.44269183
 20
228.5248319044
 30
0.0
  0
VERTEX
  5
2F9
100
AcDbEntity
  8
0
100
AcDbVertex
100
AcDb2dVertex
 10
319.7005585553
 20
229.2780375202
 30
0.0
  0
VERTEX
  5
2FA
100
AcDbEntity
  8
0
100
AcDbVertex
100
AcDb2dVertex
 10
319.8490711633
 20
230.0530524489
 30
0.0
  0
VERTEX
  5
2FB
100
AcDbEntity
  8
0
100
AcDbVertex
100
AcDb2dVertex
 10
319.8859570793
 20
230.8380172301
 30
0.0
  0
VERTEX
  5
2FC
100
AcDbEntity
  8
0
100
AcDbVertex
100
AcDb2dVertex
 10
319.8106518662
 20
231.6209201484
 30
0.0
  0
VERTEX
  5
2FD
100
AcDbEntity
  8
0
100
AcDbVertex
100
AcDb2dVertex
 10
319.6243078621
 20
232.3897810395
 30
0.0
  0
VERTEX
  5
2FE
100
AcDbEntity
  8
0
100
AcDbVertex
100
AcDb2dVertex
 10
319.3297765467
 20
233.1328346136
 30
0.0
  0
VERTEX
  5
2FF
100
AcDbEntity
  8
0
100
AcDbVertex
100
AcDb2dVertex
 10
318.9315649073
 20
233.8387104905
 30
0.0
  0
VERTEX
  5
300
100
AcDbEntity
  8
0
100
AcDbVertex
100
AcDb2dVertex
 10
318.4357664719
 20
234.4966071916
 30
0.0
  0
VERTEX
  5
301
100
AcDbEntity
  8
0
100
AcDbVertex
100
AcDb2dVertex
 10
317.8499680647
 20
235.0964574274
 30
0.0
  0
VERTEX
  5
302
100
AcDbEntity
  8
0
100
AcDbVertex
100
AcDb2dVertex
 10
317.1831337103
 20
235.6290821486
 30
0.0
  0
VERTEX
  5
303
100
AcDbEntity
  8
0
100
AcDbVertex
100
AcDb2dVertex
 10
316.4454674646
 20
236.0863310067
 30
0.0
  0
VERTEX
  5
304
100
AcDbEntity
  8
0
100
AcDbVertex
100
AcDb2dVertex
 10
315.6482572696
 20
236.4612070723
 30
0.0
  0
VERTEX
  5
305
100
AcDbEntity
  8
0
100
AcDbVertex
100
AcDb2dVertex
 10
314.803702223
 20
236.7479739039
 30
0.0
  0
VERTEX
  5
306
100
AcDbEntity
  8
0
100
AcDbVertex
100
AcDb2dVertex
 10
313.9247259043
 20
236.9422433281
 30
0.0
  0
VERTEX
  5
307
100
AcDbEntity
  8
0
100
AcDbVertex
100
AcDb2dVertex
 10
313.0247786155
 20
237.0410425886
 30
0.0
  0
VERTEX
  5
308
100
AcDbEntity
  8
0
100
AcDbVertex
100
AcDb2dVertex
 10
312.1176315614
 20
237.0428598358
 30
0.0
  0
VERTEX
  5
309
100
AcDbEntity
  8
0
100
AcDbVertex
100
AcDb2dVertex
 10
311.217166119
 20
236.9476672618
 30
0.0
  0
VERTEX
  5
30A
100
AcDbEntity
  8
0
100
AcDbVertex
100
AcDb2dVertex
 10
310.3371614221
 20
236.7569215258
 30
0.0
  0
VERTEX
  5
30B
100
AcDbEntity
  8
0
100
AcDbVertex
100
AcDb2dVertex
 10
309.491083509
 20
236.4735414637
 30
0.0
  0
VERTEX
  5
30C
100
AcDbEntity
  8
0
100
AcDbVertex
100
AcDb2dVertex
 10
308.6918792627
 20
236.1018634238
 30
0.0
  0
VERTEX
  5
30D
100
AcDbEntity
  8
0
100
AcDbVertex
100
AcDb2dVertex
 10
307.9517782941
 20
235.6475749108
 30
0.0
  0
VERTEX
  5
30E
100
AcDbEntity
  8
0
100
AcDbVertex
100
AcDb2dVertex
 10
307.2821058021
 20
235.1176275542
 30
0.0
  0
VERTEX
  5
30F
100
AcDbEntity
  8
0
100
AcDbVertex
100
AcDb2dVertex
 10
306.6931092723
 20
234.5201307327
 30
0.0
  0
VERTEX
  5
310
100
AcDbEntity
  8
0
100
AcDbVertex
100
AcDb2dVertex
 10
306.1938016679
 20
233.864227483
 30
0.0
  0
VERTEX
  5
311
100
AcDbEntity
  8
0
100
AcDbVertex
100
AcDb2dVertex
 10
305.7918235111
 20
233.1599545907
 30
0.0
  0
VERTEX
  5
312
100
AcDbEntity
  8
0
100
AcDbVertex
100
AcDb2dVertex
 10
305.493325966
 20
232.4180890048
 30
0.0
  0
VERTEX
  5
313
100
AcDbEntity
  8
0
100
AcDbVertex
100
AcDb2dVertex
 10
305.3028767121
 20
231.6499829268
 30
0.0
  0
VERTEX
  5
314
100
AcDbEntity
  8
0
100
AcDbVertex
100
AcDb2dVertex
 10
305.2233900486
 20
230.8673900962
 30
0.0
  0
VERTEX
  5
315
100
AcDbEntity
  8
0
100
AcDbVertex
100
AcDb2dVertex
 10
305.2560822992
 20
230.0822859322
 30
0.0
  0
VERTEX
  5
316
100
AcDbEntity
  8
0
100
AcDbVertex
100
AcDb2dVertex
 10
305.4004531993
 20
229.306684283
 30
0.0
  0
VERTEX
  5
317
100
AcDbEntity
  8
0
100
AcDbVertex
100
AcDb2dVertex
 10
305.6542935515
 20
228.5524535872
 30
0.0
  0
VERTEX
  5
318
100
AcDbEntity
  8
0
100
AcDbVertex
100
AcDb2dVertex
 10
306.0137190311
 20
227.8311352599
 30
0.0
  0
VERTEX
  5
319
100
AcDbEntity
  8
0
100
AcDbVertex
100
AcDb2dVertex
 10
306.4732296251
 20
227.1537670836
 30
0.0
  0
VERTEX
  5
31A
100
AcDbEntity
  8
0
100
AcDbVertex
100
AcDb2dVertex
 10
307.0257937945
 20
226.5307143051
 30
0.0
  0
VERTEX
  5
31B
100
AcDbEntity
  8
0
100
AcDbVertex
100
AcDb2dVertex
 10
307.6629560726
 20
225.9715110243
 30
0.0
  0
VERTEX
  5
31C
100
AcDbEntity
  8
0
100
AcDbVertex
100
AcDb2dVertex
 10
308.3749664527
 20
225.484714301
 30
0.0
  0
VERTEX
  5
31D
100
AcDbEntity
  8
0
100
AcDbVertex
100
AcDb2dVertex
 10
309.1509295848
 20
225.0777732131
 30
0.0
  0
VERTEX
  5
31E
100
AcDbEntity
  8
0
100
AcDbVertex
100
AcDb2dVertex
 10
309.9789714988
 20
224.7569148685
 30
0.0
  0
VERTEX
  5
31F
100
AcDbEntity
  8
0
100
AcDbVertex
100
AcDb2dVertex
 10
310.846421303
 20
224.5270491171
 30
0.0
  0
VERTEX
  5
320
100
AcDbEntity
  8
0
100
AcDbVertex
100
AcDb2dVertex
 10
311.7400050768
 20
224.3916934184
 30
0.0
  0
VERTEX
  5
321
100
AcDbEntity
  8
0
100
AcDbVertex
100
AcDb2dVertex
 10
312.6460489916
 20
224.3529190173
 30
0.0
  0
VERTEX
  5
322
100
AcDbEntity
  8
0
100
AcDbVertex
100
AcDb2dVertex
 10
313.5506885506
 20
224.4113192486
 30
0.0
  0
VERTEX
  5
323
100
AcDbEntity
  8
0
100
AcDbVertex
100
AcDb2dVertex
 10
314.4400807469
 20
224.5660004583
 30
0.0
  0
VERTEX
  5
324
100
AcDbEntity
  8
0
100
AcDbVertex
100
AcDb2dVertex
 10
315.3006158923
 20
224.8145956783
 30
0.0
  0
SEQEND
  5
325
100
AcDbEntity
  8
0
  0
POLYLINE
  5
326
100
AcDbEntity
  8
0
370
        15
  6
Continuous
 62
         7
100
AcDb2dPolyline
 66
         1
 10
0.0
 20
0.0
 30
0.0
 70
       128
  0
VERTEX
  5
327
100
AcDbEntity
  8
0
100
AcDbVertex
100
AcDb2dVertex
 10
319.44269183
 20
228.5248319044
 30
0.0
  0
VERTEX
  5
328
100
AcDbEntity
  8
0
100
AcDbVertex
100
AcDb2dVertex
 10
319.3746650408
 20
228.2234566473
 30
0.0
  0
VERTEX
  5
329
100
AcDbEntity
  8
0
100
AcDbVertex
100
AcDb2dVertex
 10
319.4175050688
 20
227.9186266494
 30
0.0
  0
VERTEX
  5
32A
100
AcDbEntity
  8
0
100
AcDbVertex
100
AcDb2dVertex
 10
319.5670184334
 20
227.6401807948
 30
0.0
  0
VERTEX
  5
32B
100
AcDbEntity
  8
0
100
AcDbVertex
100
AcDb2dVertex
 10
319.8085697248
 20
227.4153753037
 30
0.0
  0
VERTEX
  5
32C
100
AcDbEntity
  8
0
100
AcDbVertex
100
AcDb2dVertex
 10
320.1185142197
 20
227.266215704
 30
0.0
  0
VERTEX
  5
32D
100
AcDbEntity
  8
0
100
AcDbVertex
100
AcDb2dVertex
 10
320.4665123913
 20
227.2073027765
 30
0.0
  0
VERTEX
  5
32E
100
AcDbEntity
  8
0
100
AcDbVertex
100
AcDb2dVertex
 10
320.8184997539
 20
227.244403329
 30
0.0
  0
VERTEX
  5
32F
100
AcDbEntity
  8
0
100
AcDbVertex
100
AcDb2dVertex
 10
321.1400213322
 20
227.3738857009
 30
0.0
  0
VERTEX
  5
330
100
AcDbEntity
  8
0
100
AcDbVertex
100
AcDb2dVertex
 10
321.3996043537
 20
227.5830752556
 30
0.0
  0
VERTEX
  5
331
100
AcDbEntity
  8
0
100
AcDbVertex
100
AcDb2dVertex
 10
321.5718390238
 20
227.8514950619
 30
0.0
  0
SEQEND
  5
332
100
AcDbEntity
  8
0
  0
POLYLINE
  5
333
100
AcDbEntity
  8
0
370
        15
  6
Continuous
 62
         7
100
AcDb2dPolyline
 66
         1
 10
0.0
 20
0.0
 30
0.0
 70
       128
  0
VERTEX
  5
334
100
AcDbEntity
  8
0
100
AcDbVertex
100
AcDb2dVertex
 10
321.5718390238
 20
227.8514950619
 30
0.0
  0
VERTEX
  5
335
100
AcDbEntity
  8
0
100
AcDbVertex
100
AcDb2dVertex
 10
321.6533874434
 20
228.0528771341
 30
0.0
  0
VERTEX
  5
336
100
AcDbEntity
  8
0
100
AcDbVertex
100
AcDb2dVertex
 10
321.7289405654
 20
228.2560055218
 30
0.0
  0
VERTEX
  5
337
100
AcDbEntity
  8
0
100
AcDbVertex
100
AcDb2dVertex
 10
321.7984486088
 20
228.460746386
 30
0.0
  0
VERTEX
  5
338
100
AcDbEntity
  8
0
100
AcDbVertex
100
AcDb2dVertex
 10
321.8618657755
 20
228.6669648254
 30
0.0
  0
VERTEX
  5
339
100
AcDbEntity
  8
0
100
AcDbVertex
100
AcDb2dVertex
 10
321.9191502808
 20
228.8745249652
 30
0.0
  0
VERTEX
  5
33A
100
AcDbEntity
  8
0
100
AcDbVertex
100
AcDb2dVertex
 10
321.9702643806
 20
229.0832900465
 30
0.0
  0
VERTEX
  5
33B
100
AcDbEntity
  8
0
100
AcDbVertex
100
AcDb2dVertex
 10
322.0151743963
 20
229.2931225164
 30
0.0
  0
VERTEX
  5
33C
100
AcDbEntity
  8
0
100
AcDbVertex
100
AcDb2dVertex
 10
322.0538507374
 20
229.5038841187
 30
0.0
  0
SEQEND
  5
33D
100
AcDbEntity
  8
0
  0
POLYLINE
  5
33E
100
AcDbEntity
  8
0
370
        15
  6
Continuous
 62
         7
100
AcDb2dPolyline
 66
         1
 10
0.0
 20
0.0
 30
0.0
 70
       128
  0
VERTEX
  5
33F
100
AcDbEntity
  8
0
100
AcDbVertex
100
AcDb2dVertex
 10
322.0538507374
 20
229.5038841187
 30
0.0
  0
VERTEX
  5
340
100
AcDbEntity
  8
0
100
AcDbVertex
100
AcDb2dVertex
 10
322.1863569593
 20
229.9193143385
 30
0.0
  0
VERTEX
  5
341
100
AcDbEntity
  8
0
100
AcDbVertex
100
AcDb2dVertex
 10
322.4331972007
 20
230.2935510459
 30
0.0
  0
VERTEX
  5
342
100
AcDbEntity
  8
0
100
AcDbVertex
100
AcDb2dVertex
 10
322.7790878797
 20
230.6034226649
 30
0.0
  0
VERTEX
  5
343
100
AcDbEntity
  8
0
100
AcDbVertex
100
AcDb2dVertex
 10
323.2026125188
 20
230.8297429065
 30
0.0
  0
VERTEX
  5
344
100
AcDbEntity
  8
0
100
AcDbVertex
100
AcDb2dVertex
 10
323.6775477863
 20
230.9584987235
 30
0.0
  0
VERTEX
  5
345
100
AcDbEntity
  8
0
100
AcDbVertex
100
AcDb2dVertex
 10
324.1744871642
 20
230.9817179552
 30
0.0
  0
VERTEX
  5
346
100
AcDbEntity
  8
0
100
AcDbVertex
100
AcDb2dVertex
 10
324.662661708
 20
230.8979629389
 30
0.0
  0
VERTEX
  5
347
100
AcDbEntity
  8
0
100
AcDbVertex
100
AcDb2dVertex
 10
325.1118451647
 20
230.7124195252
 30
0.0
  0
VERTEX
  5
348
100
AcDbEntity
  8
0
100
AcDbVertex
100
AcDb2dVertex
 10
325.4942254883
 20
230.4365759867
 30
0.0
  0
VERTEX
  5
349
100
AcDbEntity
  8
0
100
AcDbVertex
100
AcDb2dVertex
 10
325.7861268757
 20
230.0875116993
 30
0.0
  0
VERTEX
  5
34A
100
AcDbEntity
  8
0
100
AcDbVertex
100
AcDb2dVertex
 10
325.9694756987
 20
229.6868396407
 30
0.0
  0
SEQEND
  5
34B
100
AcDbEntity
  8
0
  0
POLYLINE
  5
34C
100
AcDbEntity
  8
0
370
        15
  6
Continuous
 62
         7
100
AcDb2dPolyline
 66
         1
 10
0.0
 20
0.0
 30
0.0
 70
       128
  0
VERTEX
  5
34D
100
AcDbEntity
  8
0
100
AcDbVertex
100
AcDb2dVertex
 10
325.9694756987
 20
229.6868396407
 30
0.0
  0
VERTEX
  5
34E
100
AcDbEntity
  8
0
100
AcDbVertex
100
AcDb2dVertex
 10
326.1496717442
 20
229.2911607098
 30
0.0
  0
VERTEX
  5
34F
100
AcDbEntity
  8
0
100
AcDbVertex
100
AcDb2dVertex
 10
326.4357843775
 20
228.9454448608
 30
0.0
  0
VERTEX
  5
350
100
AcDbEntity
  8
0
100
AcDbVertex
100
AcDb2dVertex
 10
326.8105595976
 20
228.6705404623
 30
0.0
  0
VERTEX
  5
351
100
AcDbEntity
  8
0
100
AcDbVertex
100
AcDb2dVertex
 10
327.2513966125
 20
228.4830256037
 30
0.0
  0
VERTEX
  5
352
100
AcDbEntity
  8
0
100
AcDbVertex
100
AcDb2dVertex
 10
327.7317107788
 20
228.3942083546
 30
0.0
  0
VERTEX
  5
353
100
AcDbEntity
  8
0
100
AcDbVertex
100
AcDb2dVertex
 10
328.2225367862
 20
228.4094448327
 30
0.0
  0
VERTEX
  5
354
100
AcDbEntity
  8
0
100
AcDbVertex
100
AcDb2dVertex
 10
328.694275409
 20
228.5278162032
 30
0.0
  0
VERTEX
  5
355
100
AcDbEntity
  8
0
100
AcDbVertex
100
AcDb2dVertex
 10
329.1184784843
 20
228.7421840895
 30
0.0
  0
VERTEX
  5
356
100
AcDbEntity
  8
0
100
AcDbVertex
100
AcDb2dVertex
 10
329.4695644771
 20
229.039621052
 30
0.0
  0
VERTEX
  5
357
100
AcDbEntity
  8
0
100
AcDbVertex
100
AcDb2dVertex
 10
329.7263611728
 20
229.4021901769
 30
0.0
  0
SEQEND
  5
358
100
AcDbEntity
  8
0
  0
POLYLINE
  5
359
100
AcDbEntity
  8
0
370
        15
  6
Continuous
 62
         7
100
AcDb2dPolyline
 66
         1
 10
0.0
 20
0.0
 30
0.0
 70
       128
  0
VERTEX
  5
35A
100
AcDbEntity
  8
0
100
AcDbVertex
100
AcDb2dVertex
 10
329.7263611728
 20
229.4021901769
 30
0.0
  0
VERTEX
  5
35B
100
AcDbEntity
  8
0
100
AcDbVertex
100
AcDb2dVertex
 10
329.9831578685
 20
229.7647593017
 30
0.0
  0
VERTEX
  5
35C
100
AcDbEntity
  8
0
100
AcDbVertex
100
AcDb2dVertex
 10
330.3342438614
 20
230.0621962643
 30
0.0
  0
VERTEX
  5
35D
100
AcDbEntity
  8
0
100
AcDbVertex
100
AcDb2dVertex
 10
330.7584469367
 20
230.2765641506
 30
0.0
  0
VERTEX
  5
35E
100
AcDbEntity
  8
0
100
AcDbVertex
100
AcDb2dVertex
 10
331.2301855594
 20
230.3949355211
 30
0.0
  0
VERTEX
  5
35F
100
AcDbEntity
  8
0
100
AcDbVertex
100
AcDb2dVertex
 10
331.7210115669
 20
230.4101719992
 30
0.0
  0
VERTEX
  5
360
100
AcDbEntity
  8
0
100
AcDbVertex
100
AcDb2dVertex
 10
332.2013257332
 20
230.3213547501
 30
0.0
  0
VERTEX
  5
361
100
AcDbEntity
  8
0
100
AcDbVertex
100
AcDb2dVertex
 10
332.6421627481
 20
230.1338398915
 30
0.0
  0
VERTEX
  5
362
100
AcDbEntity
  8
0
100
AcDbVertex
100
AcDb2dVertex
 10
333.0169379681
 20
229.858935493
 30
0.0
  0
VERTEX
  5
363
100
AcDbEntity
  8
0
100
AcDbVertex
100
AcDb2dVertex
 10
333.3030506015
 20
229.513219644
 30
0.0
  0
VERTEX
  5
364
100
AcDbEntity
  8
0
100
AcDbVertex
100
AcDb2dVertex
 10
333.483246647
 20
229.117540713
 30
0.0
  0
SEQEND
  5
365
100
AcDbEntity
  8
0
  0
POLYLINE
  5
366
100
AcDbEntity
  8
0
370
        15
  6
Continuous
 62
         7
100
AcDb2dPolyline
 66
         1
 10
0.0
 20
0.0
 30
0.0
 70
       128
  0
VERTEX
  5
367
100
AcDbEntity
  8
0
100
AcDbVertex
100
AcDb2dVertex
 10
333.483246647
 20
229.117540713
 30
0.0
  0
VERTEX
  5
368
100
AcDbEntity
  8
0
100
AcDbVertex
100
AcDb2dVertex
 10
333.6634426925
 20
228.7218617821
 30
0.0
  0
VERTEX
  5
369
100
AcDbEntity
  8
0
100
AcDbVertex
100
AcDb2dVertex
 10
333.9495553258
 20
228.3761459331
 30
0.0
  0
VERTEX
  5
36A
100
AcDbEntity
  8
0
100
AcDbVertex
100
AcDb2dVertex
 10
334.3243305459
 20
228.1012415346
 30
0.0
  0
VERTEX
  5
36B
100
AcDbEntity
  8
0
100
AcDbVertex
100
AcDb2dVertex
 10
334.7651675608
 20
227.913726676
 30
0.0
  0
VERTEX
  5
36C
100
AcDbEntity
  8
0
100
AcDbVertex
100
AcDb2dVertex
 10
335.245481727
 20
227.8249094269
 30
0.0
  0
VERTEX
  5
36D
100
AcDbEntity
  8
0
100
AcDbVertex
100
AcDb2dVertex
 10
335.7363077345
 20
227.840145905
 30
0.0
  0
VERTEX
  5
36E
100
AcDbEntity
  8
0
100
AcDbVertex
100
AcDb2dVertex
 10
336.2080463573
 20
227.9585172755
 30
0.0
  0
VERTEX
  5
36F
100
AcDbEntity
  8
0
100
AcDbVertex
100
AcDb2dVertex
 10
336.6322494325
 20
228.1728851618
 30
0.0
  0
VERTEX
  5
370
100
AcDbEntity
  8
0
100
AcDbVertex
100
AcDb2dVertex
 10
336.9833354254
 20
228.4703221243
 30
0.0
  0
VERTEX
  5
371
100
AcDbEntity
  8
0
100
AcDbVertex
100
AcDb2dVertex
 10
337.2401321211
 20
228.8328912492
 30
0.0
  0
SEQEND
  5
372
100
AcDbEntity
  8
0
  0
POLYLINE
  5
373
100
AcDbEntity
  8
0
370
        15
  6
Continuous
 62
         7
100
AcDb2dPolyline
 66
         1
 10
0.0
 20
0.0
 30
0.0
 70
       128
  0
VERTEX
  5
374
100
AcDbEntity
  8
0
100
AcDbVertex
100
AcDb2dVertex
 10
337.2401321211
 20
228.8328912492
 30
0.0
  0
VERTEX
  5
375
100
AcDbEntity
  8
0
100
AcDbVertex
100
AcDb2dVertex
 10
337.4969288168
 20
229.195460374
 30
0.0
  0
VERTEX
  5
376
100
AcDbEntity
  8
0
100
AcDbVertex
100
AcDb2dVertex
 10
337.8480148097
 20
229.4928973366
 30
0.0
  0
VERTEX
  5
377
100
AcDbEntity
  8
0
100
AcDbVertex
100
AcDb2dVertex
 10
338.272217885
 20
229.7072652229
 30
0.0
  0
VERTEX
  5
378
100
AcDbEntity
  8
0
100
AcDbVertex
100
AcDb2dVertex
 10
338.7439565077
 20
229.8256365934
 30
0.0
  0
VERTEX
  5
379
100
AcDbEntity
  8
0
100
AcDbVertex
100
AcDb2dVertex
 10
339.2347825152
 20
229.8408730715
 30
0.0
  0
VERTEX
  5
37A
100
AcDbEntity
  8
0
100
AcDbVertex
100
AcDb2dVertex
 10
339.7150966815
 20
229.7520558224
 30
0.0
  0
VERTEX
  5
37B
100
AcDbEntity
  8
0
100
AcDbVertex
100
AcDb2dVertex
 10
340.1559336964
 20
229.5645409638
 30
0.0
  0
VERTEX
  5
37C
100
AcDbEntity
  8
0
100
AcDbVertex
100
AcDb2dVertex
 10
340.5307089164
 20
229.2896365653
 30
0.0
  0
VERTEX
  5
37D
100
AcDbEntity
  8
0
100
AcDbVertex
100
AcDb2dVertex
 10
340.8168215498
 20
228.9439207163
 30
0.0
  0
VERTEX
  5
37E
100
AcDbEntity
  8
0
100
AcDbVertex
100
AcDb2dVertex
 10
340.9970175953
 20
228.5482417854
 30
0.0
  0
SEQEND
  5
37F
100
AcDbEntity
  8
0
  0
POLYLINE
  5
380
100
AcDbEntity
  8
0
370
        15
  6
Continuous
 62
         7
100
AcDb2dPolyline
 66
         1
 10
0.0
 20
0.0
 30
0.0
 70
       128
  0
VERTEX
  5
381
100
AcDbEntity
  8
0
100
AcDbVertex
100
AcDb2dVertex
 10
340.9970175953
 20
228.5482417854
 30
0.0
  0
VERTEX
  5
382
100
AcDbEntity
  8
0
100
AcDbVertex
100
AcDb2dVertex
 10
341.1772136408
 20
228.1525628544
 30
0.0
  0
VERTEX
  5
383
100
AcDbEntity
  8
0
100
AcDbVertex
100
AcDb2dVertex
 10
341.4633262741
 20
227.8068470054
 30
0.0
  0
VERTEX
  5
384
100
AcDbEntity
  8
0
100
AcDbVertex
100
AcDb2dVertex
 10
341.8381014941
 20
227.5319426069
 30
0.0
  0
VERTEX
  5
385
100
AcDbEntity
  8
0
100
AcDbVertex
100
AcDb2dVertex
 10
342.2789385091
 20
227.3444277483
 30
0.0
  0
VERTEX
  5
386
100
AcDbEntity
  8
0
100
AcDbVertex
100
AcDb2dVertex
 10
342.7592526753
 20
227.2556104992
 30
0.0
  0
VERTEX
  5
387
100
AcDbEntity
  8
0
100
AcDbVertex
100
AcDb2dVertex
 10
343.2500786828
 20
227.2708469773
 30
0.0
  0
VERTEX
  5
388
100
AcDbEntity
  8
0
100
AcDbVertex
100
AcDb2dVertex
 10
343.7218173056
 20
227.3892183478
 30
0.0
  0
VERTEX
  5
389
100
AcDbEntity
  8
0
100
AcDbVertex
100
AcDb2dVertex
 10
344.1460203808
 20
227.6035862341
 30
0.0
  0
VERTEX
  5
38A
100
AcDbEntity
  8
0
100
AcDbVertex
100
AcDb2dVertex
 10
344.4971063737
 20
227.9010231967
 30
0.0
  0
VERTEX
  5
38B
100
AcDbEntity
  8
0
100
AcDbVertex
100
AcDb2dVertex
 10
344.7539030694
 20
228.2635923215
 30
0.0
  0
SEQEND
  5
38C
100
AcDbEntity
  8
0
  0
POLYLINE
  5
38D
100
AcDbEntity
  8
0
370
        15
  6
Continuous
 62
         7
100
AcDb2dPolyline
 66
         1
 10
0.0
 20
0.0
 30
0.0
 70
       128
  0
VERTEX
  5
38E
100
AcDbEntity
  8
0
100
AcDbVertex
100
AcDb2dVertex
 10
344.7539030694
 20
228.2635923215
 30
0.0
  0
VERTEX
  5
38F
100
AcDbEntity
  8
0
100
AcDbVertex
100
AcDb2dVertex
 10
345.0106997651
 20
228.6261614464
 30
0.0
  0
VERTEX
  5
390
100
AcDbEntity
  8
0
100
AcDbVertex
100
AcDb2dVertex
 10
345.361785758
 20
228.9235984089
 30
0.0
  0
VERTEX
  5
391
100
AcDbEntity
  8
0
100
AcDbVertex
100
AcDb2dVertex
 10
345.7859888333
 20
229.1379662952
 30
0.0
  0
VERTEX
  5
392
100
AcDbEntity
  8
0
100
AcDbVertex
100
AcDb2dVertex
 10
346.257727456
 20
229.2563376657
 30
0.0
  0
VERTEX
  5
393
100
AcDbEntity
  8
0
100
AcDbVertex
100
AcDb2dVertex
 10
346.7485534635
 20
229.2715741438
 30
0.0
  0
VERTEX
  5
394
100
AcDbEntity
  8
0
100
AcDbVertex
100
AcDb2dVertex
 10
347.2288676298
 20
229.1827568947
 30
0.0
  0
VERTEX
  5
395
100
AcDbEntity
  8
0
100
AcDbVertex
100
AcDb2dVertex
 10
347.6697046447
 20
228.9952420361
 30
0.0
  0
VERTEX
  5
396
100
AcDbEntity
  8
0
100
AcDbVertex
100
AcDb2dVertex
 10
348.0444798647
 20
228.7203376376
 30
0.0
  0
VERTEX
  5
397
100
AcDbEntity
  8
0
100
AcDbVertex
100
AcDb2dVertex
 10
348.3305924981
 20
228.3746217886
 30
0.0
  0
VERTEX
  5
398
100
AcDbEntity
  8
0
100
AcDbVertex
100
AcDb2dVertex
 10
348.5107885436
 20
227.9789428577
 30
0.0
  0
SEQEND
  5
399
100
AcDbEntity
  8
0
  0
POLYLINE
  5
39A
100
AcDbEntity
  8
0
370
        15
  6
Continuous
 62
         7
100
AcDb2dPolyline
 66
         1
 10
0.0
 20
0.0
 30
0.0
 70
       128
  0
VERTEX
  5
39B
100
AcDbEntity
  8
0
100
AcDbVertex
100
AcDb2dVertex
 10
348.5107885436
 20
227.9789428577
 30
0.0
  0
VERTEX
  5
39C
100
AcDbEntity
  8
0
100
AcDbVertex
100
AcDb2dVertex
 10
348.6909845891
 20
227.5832639267
 30
0.0
  0
VERTEX
  5
39D
100
AcDbEntity
  8
0
100
AcDbVertex
100
AcDb2dVertex
 10
348.9770972224
 20
227.2375480777
 30
0.0
  0
VERTEX
  5
39E
100
AcDbEntity
  8
0
100
AcDbVertex
100
AcDb2dVertex
 10
349.3518724424
 20
226.9626436792
 30
0.0
  0
VERTEX
  5
39F
100
AcDbEntity
  8
0
100
AcDbVertex
100
AcDb2dVertex
 10
349.7927094574
 20
226.7751288206
 30
0.0
  0
VERTEX
  5
3A0
100
AcDbEntity
  8
0
100
AcDbVertex
100
AcDb2dVertex
 10
350.2730236236
 20
226.6863115715
 30
0.0
  0
VERTEX
  5
3A1
100
AcDbEntity
  8
0
100
AcDbVertex
100
AcDb2dVertex
 10
350.7638496311
 20
226.7015480496
 30
0.0
  0
VERTEX
  5
3A2
100
AcDbEntity
  8
0
100
AcDbVertex
100
AcDb2dVertex
 10
351.2355882538
 20
226.8199194201
 30
0.0
  0
VERTEX
  5
3A3
100
AcDbEntity
  8
0
100
AcDbVertex
100
AcDb2dVertex
 10
351.6597913291
 20
227.0342873064
 30
0.0
  0
VERTEX
  5
3A4
100
AcDbEntity
  8
0
100
AcDbVertex
100
AcDb2dVertex
 10
352.010877322
 20
227.331724269
 30
0.0
  0
VERTEX
  5
3A5
100
AcDbEntity
  8
0
100
AcDbVertex
100
AcDb2dVertex
 10
352.2676740177
 20
227.6942933938
 30
0.0
  0
SEQEND
  5
3A6
100
AcDbEntity
  8
0
  0
POLYLINE
  5
3A7
100
AcDbEntity
  8
0
370
        15
  6
Continuous
 62
         7
100
AcDb2dPolyline
 66
         1
 10
0.0
 20
0.0
 30
0.0
 70
       128
  0
VERTEX
  5
3A8
100
AcDbEntity
  8
0
100
AcDbVertex
100
AcDb2dVertex
 10
352.2676740177
 20
227.6942933938
 30
0.0
  0
VERTEX
  5
3A9
100
AcDbEntity
  8
0
100
AcDbVertex
100
AcDb2dVertex
 10
352.5244707134
 20
228.0568625187
 30
0.0
  0
VERTEX
  5
3AA
100
AcDbEntity
  8
0
100
AcDbVertex
100
AcDb2dVertex
 10
352.8755567063
 20
228.3542994812
 30
0.0
  0
VERTEX
  5
3AB
100
AcDbEntity
  8
0
100
AcDbVertex
100
AcDb2dVertex
 10
353.2997597816
 20
228.5686673675
 30
0.0
  0
VERTEX
  5
3AC
100
AcDbEntity
  8
0
100
AcDbVertex
100
AcDb2dVertex
 10
353.7714984043
 20
228.687038738
 30
0.0
  0
VERTEX
  5
3AD
100
AcDbEntity
  8
0
100
AcDbVertex
100
AcDb2dVertex
 10
354.2623244118
 20
228.7022752161
 30
0.0
  0
VERTEX
  5
3AE
100
AcDbEntity
  8
0
100
AcDbVertex
100
AcDb2dVertex
 10
354.7426385781
 20
228.613457967
 30
0.0
  0
VERTEX
  5
3AF
100
AcDbEntity
  8
0
100
AcDbVertex
100
AcDb2dVertex
 10
355.183475593
 20
228.4259431084
 30
0.0
  0
VERTEX
  5
3B0
100
AcDbEntity
  8
0
100
AcDbVertex
100
AcDb2dVertex
 10
355.558250813
 20
228.1510387099
 30
0.0
  0
VERTEX
  5
3B1
100
AcDbEntity
  8
0
100
AcDbVertex
100
AcDb2dVertex
 10
355.8443634464
 20
227.8053228609
 30
0.0
  0
VERTEX
  5
3B2
100
AcDbEntity
  8
0
100
AcDbVertex
100
AcDb2dVertex
 10
356.0245594919
 20
227.40964393
 30
0.0
  0
SEQEND
  5
3B3
100
AcDbEntity
  8
0
  0
POLYLINE
  5
3B4
100
AcDbEntity
  8
0
370
        15
  6
Continuous
 62
         7
100
AcDb2dPolyline
 66
         1
 10
0.0
 20
0.0
 30
0.0
 70
       128
  0
VERTEX
  5
3B5
100
AcDbEntity
  8
0
100
AcDbVertex
100
AcDb2dVertex
 10
356.0245594919
 20
227.40964393
 30
0.0
  0
VERTEX
  5
3B6
100
AcDbEntity
  8
0
100
AcDbVertex
100
AcDb2dVertex
 10
356.2047555374
 20
227.013964999
 30
0.0
  0
VERTEX
  5
3B7
100
AcDbEntity
  8
0
100
AcDbVertex
100
AcDb2dVertex
 10
356.4908681707
 20
226.66824915
 30
0.0
  0
VERTEX
  5
3B8
100
AcDbEntity
  8
0
100
AcDbVertex
100
AcDb2dVertex
 10
356.8656433907
 20
226.3933447515
 30
0.0
  0
VERTEX
  5
3B9
100
AcDbEntity
  8
0
100
AcDbVertex
100
AcDb2dVertex
 10
357.3064804056
 20
226.2058298929
 30
0.0
  0
VERTEX
  5
3BA
100
AcDbEntity
  8
0
100
AcDbVertex
100
AcDb2dVertex
 10
357.7867945719
 20
226.1170126438
 30
0.0
  0
VERTEX
  5
3BB
100
AcDbEntity
  8
0
100
AcDbVertex
100
AcDb2dVertex
 10
358.2776205794
 20
226.1322491219
 30
0.0
  0
VERTEX
  5
3BC
100
AcDbEntity
  8
0
100
AcDbVertex
100
AcDb2dVertex
 10
358.7493592021
 20
226.2506204924
 30
0.0
  0
VERTEX
  5
3BD
100
AcDbEntity
  8
0
100
AcDbVertex
100
AcDb2dVertex
 10
359.1735622774
 20
226.4649883787
 30
0.0
  0
VERTEX
  5
3BE
100
AcDbEntity
  8
0
100
AcDbVertex
100
AcDb2dVertex
 10
359.5246482703
 20
226.7624253413
 30
0.0
  0
VERTEX
  5
3BF
100
AcDbEntity
  8
0
100
AcDbVertex
100
AcDb2dVertex
 10
359.781444966
 20
227.1249944661
 30
0.0
  0
SEQEND
  5
3C0
100
AcDbEntity
  8
0
  0
POLYLINE
  5
3C1
100
AcDbEntity
  8
0
370
        15
  6
Continuous
 62
         7
100
AcDb2dPolyline
 66
         1
 10
0.0
 20
0.0
 30
0.0
 70
       128
  0
VERTEX
  5
3C2
100
AcDbEntity
  8
0
100
AcDbVertex
100
AcDb2dVertex
 10
359.781444966
 20
227.1249944661
 30
0.0
  0
VERTEX
  5
3C3
100
AcDbEntity
  8
0
100
AcDbVertex
100
AcDb2dVertex
 10
360.0382416617
 20
227.487563591
 30
0.0
  0
VERTEX
  5
3C4
100
AcDbEntity
  8
0
100
AcDbVertex
100
AcDb2dVertex
 10
360.3893276546
 20
227.7850005535
 30
0.0
  0
VERTEX
  5
3C5
100
AcDbEntity
  8
0
100
AcDbVertex
100
AcDb2dVertex
 10
360.8135307299
 20
227.9993684398
 30
0.0
  0
VERTEX
  5
3C6
100
AcDbEntity
  8
0
100
AcDbVertex
100
AcDb2dVertex
 10
361.2852693526
 20
228.1177398103
 30
0.0
  0
VERTEX
  5
3C7
100
AcDbEntity
  8
0
100
AcDbVertex
100
AcDb2dVertex
 10
361.7760953601
 20
228.1329762884
 30
0.0
  0
VERTEX
  5
3C8
100
AcDbEntity
  8
0
100
AcDbVertex
100
AcDb2dVertex
 10
362.2564095264
 20
228.0441590393
 30
0.0
  0
VERTEX
  5
3C9
100
AcDbEntity
  8
0
100
AcDbVertex
100
AcDb2dVertex
 10
362.6972465413
 20
227.8566441807
 30
0.0
  0
VERTEX
  5
3CA
100
AcDbEntity
  8
0
100
AcDbVertex
100
AcDb2dVertex
 10
363.0720217613
 20
227.5817397822
 30
0.0
  0
VERTEX
  5
3CB
100
AcDbEntity
  8
0
100
AcDbVertex
100
AcDb2dVertex
 10
363.3581343947
 20
227.2360239332
 30
0.0
  0
VERTEX
  5
3CC
100
AcDbEntity
  8
0
100
AcDbVertex
100
AcDb2dVertex
 10
363.5383304402
 20
226.8403450023
 30
0.0
  0
SEQEND
  5
3CD
100
AcDbEntity
  8
0
  0
POLYLINE
  5
3CE
100
AcDbEntity
  8
0
370
        15
  6
Continuous
 62
         7
100
AcDb2dPolyline
 66
         1
 10
0.0
 20
0.0
 30
0.0
 70
       128
  0
VERTEX
  5
3CF
100
AcDbEntity
  8
0
100
AcDbVertex
100
AcDb2dVertex
 10
363.5383304402
 20
226.8403450023
 30
0.0
  0
VERTEX
  5
3D0
100
AcDbEntity
  8
0
100
AcDbVertex
100
AcDb2dVertex
 10
363.7185264857
 20
226.4446660713
 30
0.0
  0
VERTEX
  5
3D1
100
AcDbEntity
  8
0
100
AcDbVertex
100
AcDb2dVertex
 10
364.004639119
 20
226.0989502223
 30
0.0
  0
VERTEX
  5
3D2
100
AcDbEntity
  8
0
100
AcDbVertex
100
AcDb2dVertex
 10
364.379414339
 20
225.8240458238
 30
0.0
  0
VERTEX
  5
3D3
100
AcDbEntity
  8
0
100
AcDbVertex
100
AcDb2dVertex
 10
364.8202513539
 20
225.6365309652
 30
0.0
  0
VERTEX
  5
3D4
100
AcDbEntity
  8
0
100
AcDbVertex
100
AcDb2dVertex
 10
365.3005655202
 20
225.5477137161
 30
0.0
  0
VERTEX
  5
3D5
100
AcDbEntity
  8
0
100
AcDbVertex
100
AcDb2dVertex
 10
365.7913915277
 20
225.5629501942
 30
0.0
  0
VERTEX
  5
3D6
100
AcDbEntity
  8
0
100
AcDbVertex
100
AcDb2dVertex
 10
366.2631301504
 20
225.6813215647
 30
0.0
  0
VERTEX
  5
3D7
100
AcDbEntity
  8
0
100
AcDbVertex
100
AcDb2dVertex
 10
366.6873332257
 20
225.895689451
 30
0.0
  0
VERTEX
  5
3D8
100
AcDbEntity
  8
0
100
AcDbVertex
100
AcDb2dVertex
 10
367.0384192186
 20
226.1931264136
 30
0.0
  0
VERTEX
  5
3D9
100
AcDbEntity
  8
0
100
AcDbVertex
100
AcDb2dVertex
 10
367.2952159143
 20
226.5556955384
 30
0.0
  0
SEQEND
  5
3DA
100
AcDbEntity
  8
0
  0
POLYLINE
  5
3DB
100
AcDbEntity
  8
0
370
        15
  6
Continuous
 62
         7
100
AcDb2dPolyline
 66
         1
 10
0.0
 20
0.0
 30
0.0
 70
       128
  0
VERTEX
  5
3DC
100
AcDbEntity
  8
0
100
AcDbVertex
100
AcDb2dVertex
 10
367.2952159143
 20
226.5556955384
 30
0.0
  0
VERTEX
  5
3DD
100
AcDbEntity
  8
0
100
AcDbVertex
100
AcDb2dVertex
 10
367.4436970978
 20
226.7888324937
 30
0.0
  0
VERTEX
  5
3DE
100
AcDbEntity
  8
0
100
AcDbVertex
100
AcDb2dVertex
 10
367.6316830736
 20
226.999507103
 30
0.0
  0
VERTEX
  5
3DF
100
AcDbEntity
  8
0
100
AcDbVertex
100
AcDb2dVertex
 10
367.8547318685
 20
227.1827412772
 30
0.0
  0
VERTEX
  5
3E0
100
AcDbEntity
  8
0
100
AcDbVertex
100
AcDb2dVertex
 10
368.1075730006
 20
227.3342053249
 30
0.0
  0
VERTEX
  5
3E1
100
AcDbEntity
  8
0
100
AcDbVertex
100
AcDb2dVertex
 10
368.3842320161
 20
227.4503202601
 30
0.0
  0
VERTEX
  5
3E2
100
AcDbEntity
  8
0
100
AcDbVertex
100
AcDb2dVertex
 10
368.6781716621
 20
227.5283423703
 30
0.0
  0
VERTEX
  5
3E3
100
AcDbEntity
  8
0
100
AcDbVertex
100
AcDb2dVertex
 10
368.9824463567
 20
227.5664280496
 30
0.0
  0
VERTEX
  5
3E4
100
AcDbEntity
  8
0
100
AcDbVertex
100
AcDb2dVertex
 10
369.2898663084
 20
227.5636773607
 30
0.0
  0
SEQEND
  5
3E5
100
AcDbEntity
  8
0
  0
LINE
  5
3E6
100
AcDbEntity
  8
0
370
        15
  6
Continuous
 62
         7
100
AcDbLine
 10
371.0474914031
 20
227.4305066681
 30
0.0
 11
369.2898663084
 21
227.5636773607
 31
0.0
  0
POLYLINE
  5
3E7
100
AcDbEntity
  8
0
370
        15
  6
Continuous
 62
         7
100
AcDb2dPolyline
 66
         1
 10
0.0
 20
0.0
 30
0.0
 70
       128
  0
VERTEX
  5
3E8
100
AcDbEntity
  8
0
100
AcDbVertex
100
AcDb2dVertex
 10
372.2595433436
 20
226.1795613308
 30
0.0
  0
VERTEX
  5
3E9
100
AcDbEntity
  8
0
100
AcDbVertex
100
AcDb2dVertex
 10
372.2566921971
 20
226.4059087528
 30
0.0
  0
VERTEX
  5
3EA
100
AcDbEntity
  8
0
100
AcDbVertex
100
AcDb2dVertex
 10
372.2029063471
 20
226.6274252624
 30
0.0
  0
VERTEX
  5
3EB
100
AcDbEntity
  8
0
100
AcDbVertex
100
AcDb2dVertex
 10
372.1002527537
 20
226.8355981043
 30
0.0
  0
VERTEX
  5
3EC
100
AcDbEntity
  8
0
100
AcDbVertex
100
AcDb2dVertex
 10
371.9526763369
 20
227.0224273128
 30
0.0
  0
VERTEX
  5
3ED
100
AcDbEntity
  8
0
100
AcDbVertex
100
AcDb2dVertex
 10
371.7658483757
 20
227.1807331463
 30
0.0
  0
VERTEX
  5
3EE
100
AcDbEntity
  8
0
100
AcDbVertex
100
AcDb2dVertex
 10
371.5469485638
 20
227.3044320005
 30
0.0
  0
VERTEX
  5
3EF
100
AcDbEntity
  8
0
100
AcDbVertex
100
AcDb2dVertex
 10
371.3043890982
 20
227.3887701976
 30
0.0
  0
VERTEX
  5
3F0
100
AcDbEntity
  8
0
100
AcDbVertex
100
AcDb2dVertex
 10
371.0474914031
 20
227.4305066681
 30
0.0
  0
SEQEND
  5
3F1
100
AcDbEntity
  8
0
  0
LINE
  5
3F2
100
AcDbEntity
  8
0
370
        15
  6
Continuous
 62
         7
100
AcDbLine
 10
371.8818684583
 20
222.4410650296
 30
0.0
 11
372.2595433436
 21
226.1795613308
 31
0.0
  0
POLYLINE
  5
3F3
100
AcDbEntity
  8
0
370
        15
  6
Continuous
 62
         7
100
AcDb2dPolyline
 66
         1
 10
0.0
 20
0.0
 30
0.0
 70
       128
  0
VERTEX
  5
3F4
100
AcDbEntity
  8
0
100
AcDbVertex
100
AcDb2dVertex
 10
371.1596348311
 20
221.916231144
 30
0.0
  0
VERTEX
  5
3F5
100
AcDbEntity
  8
0
100
AcDbVertex
100
AcDb2dVertex
 10
371.2903165762
 20
221.9174657266
 30
0.0
  0
VERTEX
  5
3F6
100
AcDbEntity
  8
0
100
AcDbVertex
100
AcDb2dVertex
 10
371.4182091926
 20
221.9407556828
 30
0.0
  0
VERTEX
  5
3F7
100
AcDbEntity
  8
0
100
AcDbVertex
100
AcDb2dVertex
 10
371.5383978389
 20
221.9852059927
 30
0.0
  0
VERTEX
  5
3F8
100
AcDbEntity
  8
0
100
AcDbVertex
100
AcDb2dVertex
 10
371.6462637327
 20
222.0491084556
 30
0.0
  0
VERTEX
  5
3F9
100
AcDbEntity
  8
0
100
AcDbVertex
100
AcDb2dVertex
 10
371.7376616483
 20
222.1300073359
 30
0.0
  0
VERTEX
  5
3FA
100
AcDbEntity
  8
0
100
AcDbVertex
100
AcDb2dVertex
 10
371.8090792151
 20
222.2247937349
 30
0.0
  0
VERTEX
  5
3FB
100
AcDbEntity
  8
0
100
AcDbVertex
100
AcDb2dVertex
 10
371.8577718959
 20
222.3298250645
 30
0.0
  0
VERTEX
  5
3FC
100
AcDbEntity
  8
0
100
AcDbVertex
100
AcDb2dVertex
 10
371.8818684583
 20
222.4410650296
 30
0.0
  0
SEQEND
  5
3FD
100
AcDbEntity
  8
0
  0
LINE
  5
3FE
100
AcDbEntity
  8
0
370
        15
  6
Continuous
 62
         7
100
AcDbLine
 10
370.51275986
 20
221.965243182
 30
0.0
 11
371.1596348311
 21
221.916231144
 31
0.0
  0
POLYLINE
  5
3FF
100
AcDbEntity
  8
0
370
        15
  6
Continuous
 62
         7
100
AcDb2dPolyline
 66
         1
 10
0.0
 20
0.0
 30
0.0
 70
       128
  0
VERTEX
  5
400
100
AcDbEntity
  8
0
100
AcDbVertex
100
AcDb2dVertex
 10
369.2849626937
 20
220.9019396453
 30
0.0
  0
VERTEX
  5
401
100
AcDbEntity
  8
0
100
AcDbVertex
100
AcDb2dVertex
 10
369.290345842
 20
221.1155934757
 30
0.0
  0
VERTEX
  5
402
100
AcDbEntity
  8
0
100
AcDbVertex
100
AcDb2dVertex
 10
369.3489983813
 20
221.323173828
 30
0.0
  0
VERTEX
  5
403
100
AcDbEntity
  8
0
100
AcDbVertex
100
AcDb2dVertex
 10
369.458139713
 20
221.5148397359
 30
0.0
  0
VERTEX
  5
404
100
AcDbEntity
  8
0
100
AcDbVertex
100
AcDb2dVertex
 10
369.6125956662
 20
221.6815047047
 30
0.0
  0
VERTEX
  5
405
100
AcDbEntity
  8
0
100
AcDbVertex
100
AcDb2dVertex
 10
369.8050437954
 20
221.815267484
 30
0.0
  0
VERTEX
  5
406
100
AcDbEntity
  8
0
100
AcDbVertex
100
AcDb2dVertex
 10
370.0263605225
 20
221.9097866498
 30
0.0
  0
VERTEX
  5
407
100
AcDbEntity
  8
0
100
AcDbVertex
100
AcDb2dVertex
 10
370.2660536671
 20
221.9605812388
 30
0.0
  0
VERTEX
  5
408
100
AcDbEntity
  8
0
100
AcDbVertex
100
AcDb2dVertex
 10
370.51275986
 20
221.965243182
 30
0.0
  0
SEQEND
  5
409
100
AcDbEntity
  8
0
  0
LINE
  5
40A
100
AcDbEntity
  8
0
370
        15
  6
Continuous
 62
         7
100
AcDbLine
 10
369.7192594753
 20
216.6029592925
 30
0.0
 11
369.2849626937
 21
220.9019396453
 31
0.0
  0
POLYLINE
  5
40B
100
AcDbEntity
  8
0
370
        15
  6
Continuous
 62
         7
100
AcDb2dPolyline
 66
         1
 10
0.0
 20
0.0
 30
0.0
 70
       128
  0
VERTEX
  5
40C
100
AcDbEntity
  8
0
100
AcDbVertex
100
AcDb2dVertex
 10
373.9689371948
 20
216.6029592925
 30
0.0
  0
VERTEX
  5
40D
100
AcDbEntity
  8
0
100
AcDbVertex
100
AcDb2dVertex
 10
373.8717727302
 20
216.1907805407
 30
0.0
  0
VERTEX
  5
40E
100
AcDbEntity
  8
0
100
AcDbVertex
100
AcDb2dVertex
 10
373.6694416202
 20
215.8083297402
 30
0.0
  0
VERTEX
  5
40F
100
AcDbEntity
  8
0
100
AcDbVertex
100
AcDb2dVertex
 10
373.3724378987
 20
215.4754429496
 30
0.0
  0
VERTEX
  5
410
100
AcDbEntity
  8
0
100
AcDbVertex
100
AcDb2dVertex
 10
372.9961658561
 20
215.2093855577
 30
0.0
  0
VERTEX
  5
411
100
AcDbEntity
  8
0
100
AcDbVertex
100
AcDb2dVertex
 10
372.5601410855
 20
215.0239568034
 30
0.0
  0
VERTEX
  5
412
100
AcDbEntity
  8
0
100
AcDbVertex
100
AcDb2dVertex
 10
372.086978294
 20
214.9287740692
 30
0.0
  0
VERTEX
  5
413
100
AcDbEntity
  8
0
100
AcDbVertex
100
AcDb2dVertex
 10
371.6012183761
 20
214.9287740692
 30
0.0
  0
VERTEX
  5
414
100
AcDbEntity
  8
0
100
AcDbVertex
100
AcDb2dVertex
 10
371.1280555846
 20
215.0239568034
 30
0.0
  0
VERTEX
  5
415
100
AcDbEntity
  8
0
100
AcDbVertex
100
AcDb2dVertex
 10
370.692030814
 20
215.2093855577
 30
0.0
  0
VERTEX
  5
416
100
AcDbEntity
  8
0
100
AcDbVertex
100
AcDb2dVertex
 10
370.3157587714
 20
215.4754429496
 30
0.0
  0
VERTEX
  5
417
100
AcDbEntity
  8
0
100
AcDbVertex
100
AcDb2dVertex
 10
370.0187550499
 20
215.8083297402
 30
0.0
  0
VERTEX
  5
418
100
AcDbEntity
  8
0
100
AcDbVertex
100
AcDb2dVertex
 10
369.8164239398
 20
216.1907805407
 30
0.0
  0
VERTEX
  5
419
100
AcDbEntity
  8
0
100
AcDbVertex
100
AcDb2dVertex
 10
369.7192594753
 20
216.6029592925
 30
0.0
  0
SEQEND
  5
41A
100
AcDbEntity
  8
0
  0
LINE
  5
41B
100
AcDbEntity
  8
0
370
        15
  6
Continuous
 62
         7
100
AcDbLine
 10
375.0322701955
 20
227.1285903188
 30
0.0
 11
373.9689371948
 21
216.6029592925
 31
0.0
  0
POLYLINE
  5
41C
100
AcDbEntity
  8
0
370
        15
  6
Continuous
 62
         7
100
AcDb2dPolyline
 66
         1
 10
0.0
 20
0.0
 30
0.0
 70
       128
  0
VERTEX
  5
41D
100
AcDbEntity
  8
0
100
AcDbVertex
100
AcDb2dVertex
 10
372.0021403443
 20
230.2559536621
 30
0.0
  0
VERTEX
  5
41E
100
AcDbEntity
  8
0
100
AcDbVertex
100
AcDb2dVertex
 10
372.644384582
 20
230.1516124858
 30
0.0
  0
VERTEX
  5
41F
100
AcDbEntity
  8
0
100
AcDbVertex
100
AcDb2dVertex
 10
373.250783246
 20
229.9407669931
 30
0.0
  0
VERTEX
  5
420
100
AcDbEntity
  8
0
100
AcDbVertex
100
AcDb2dVertex
 10
373.7980327758
 20
229.6315198578
 30
0.0
  0
VERTEX
  5
421
100
AcDbEntity
  8
0
100
AcDbVertex
100
AcDb2dVertex
 10
374.2651026789
 20
229.2357552739
 30
0.0
  0
VERTEX
  5
422
100
AcDbEntity
  8
0
100
AcDbVertex
100
AcDb2dVertex
 10
374.6340437209
 20
228.7686822526
 30
0.0
  0
VERTEX
  5
423
100
AcDbEntity
  8
0
100
AcDbVertex
100
AcDb2dVertex
 10
374.8906777043
 20
228.248250148
 30
0.0
  0
VERTEX
  5
424
100
AcDbEntity
  8
0
100
AcDbVertex
100
AcDb2dVertex
 10
375.0251423293
 20
227.694458874
 30
0.0
  0
VERTEX
  5
425
100
AcDbEntity
  8
0
100
AcDbVertex
100
AcDb2dVertex
 10
375.0322701955
 20
227.1285903188
 30
0.0
  0
SEQEND
  5
426
100
AcDbEntity
  8
0
  0
LINE
  5
427
100
AcDbEntity
  8
0
370
        15
  6
Continuous
 62
         7
100
AcDbLine
 10
340.9491676628
 20
232.6087568245
 30
0.0
 11
372.0021403443
 21
230.2559536621
 31
0.0
  0
LINE
  5
428
100
AcDbEntity
  8
0
370
        15
  6
Continuous
 62
         7
100
AcDbLine
 10
387.0709234809
 20
237.3203053
 30
0.0
 11
290.478340852
 21
259.7346921042
 31
0.0
  0
LINE
  5
429
100
AcDbEntity
  8
0
370
        15
  6
Continuous
 62
         7
100
AcDbLine
 10
374.9927013761
 20
198.2828777922
 30
0.0
 11
387.0709234809
 21
237.3203053
 31
0.0
  0
LINE
  5
42A
100
AcDbEntity
  8
0
370
        15
  6
Continuous
 62
         7
100
AcDbLine
 10
278.4001187472
 20
220.6972645964
 30
0.0
 11
374.9927013761
 21
198.2828777922
 31
0.0
  0
LINE
  5
42B
100
AcDbEntity
  8
0
370
        15
  6
Continuous
 62
         7
100
AcDbLine
 10
290.478340852
 20
259.7346921042
 30
0.0
 11
278.4001187472
 21
220.6972645964
 31
0.0
  0
POLYLINE
  5
42C
100
AcDbEntity
  8
0
370
        15
  6
Continuous
 62
         7
100
AcDb2dPolyline
 66
         1
 10
0.0
 20
0.0
 30
0.0
 70
       128
  0
VERTEX
  5
42D
100
AcDbEntity
  8
0
100
AcDbVertex
100
AcDb2dVertex
 10
378.0432275213
 20
230.4494347162
 30
0.0
  0
VERTEX
  5
42E
100
AcDbEntity
  8
0
100
AcDbVertex
100
AcDb2dVertex
 10
378.6495451577
 20
230.3596245564
 30
0.0
  0
VERTEX
  5
42F
100
AcDbEntity
  8
0
100
AcDbVertex
100
AcDb2dVertex
 10
379.2645946146
 20
230.3678279719
 30
0.0
  0
VERTEX
  5
430
100
AcDbEntity
  8
0
100
AcDbVertex
100
AcDb2dVertex
 10
379.8674311207
 20
230.4737656053
 30
0.0
  0
VERTEX
  5
431
100
AcDbEntity
  8
0
100
AcDbVertex
100
AcDb2dVertex
 10
380.4375258016
 20
230.6738298776
 30
0.0
  0
VERTEX
  5
432
100
AcDbEntity
  8
0
100
AcDbVertex
100
AcDb2dVertex
 10
380.9554647667
 20
230.96120784
 30
0.0
  0
VERTEX
  5
433
100
AcDbEntity
  8
0
100
AcDbVertex
100
AcDb2dVertex
 10
381.4036102258
 20
231.3261131805
 30
0.0
  0
VERTEX
  5
434
100
AcDbEntity
  8
0
100
AcDbVertex
100
AcDb2dVertex
 10
381.7667011228
 20
231.7561194855
 30
0.0
  0
VERTEX
  5
435
100
AcDbEntity
  8
0
100
AcDbVertex
100
AcDb2dVertex
 10
382.0323728327
 20
232.2365834059
 30
0.0
  0
VERTEX
  5
436
100
AcDbEntity
  8
0
100
AcDbVertex
100
AcDb2dVertex
 10
382.1915782239
 20
232.7511433193
 30
0.0
  0
VERTEX
  5
437
100
AcDbEntity
  8
0
100
AcDbVertex
100
AcDb2dVertex
 10
382.238895748
 20
233.282276505
 30
0.0
  0
VERTEX
  5
438
100
AcDbEntity
  8
0
100
AcDbVertex
100
AcDb2dVertex
 10
382.1727140632
 20
233.8118958592
 30
0.0
  0
VERTEX
  5
439
100
AcDbEntity
  8
0
100
AcDbVertex
100
AcDb2dVertex
 10
381.9952869076
 20
234.3219658302
 30
0.0
  0
VERTEX
  5
43A
100
AcDbEntity
  8
0
100
AcDbVertex
100
AcDb2dVertex
 10
381.7126563501
 20
234.7951165967
 30
0.0
  0
VERTEX
  5
43B
100
AcDbEntity
  8
0
100
AcDbVertex
100
AcDb2dVertex
 10
381.3344470353
 20
235.215235577
 30
0.0
  0
VERTEX
  5
43C
100
AcDbEntity
  8
0
100
AcDbVertex
100
AcDb2dVertex
 10
380.873538428
 20
235.5680161231
 30
0.0
  0
VERTEX
  5
43D
100
AcDbEntity
  8
0
100
AcDbVertex
100
AcDb2dVertex
 10
380.3456262178
 20
235.8414447165
 30
0.0
  0
VERTEX
  5
43E
100
AcDbEntity
  8
0
100
AcDbVertex
100
AcDb2dVertex
 10
379.768687822
 20
236.0262100745
 30
0.0
  0
VERTEX
  5
43F
100
AcDbEntity
  8
0
100
AcDbVertex
100
AcDb2dVertex
 10
379.1623701856
 20
236.1160202343
 30
0.0
  0
VERTEX
  5
440
100
AcDbEntity
  8
0
100
AcDbVertex
100
AcDb2dVertex
 10
378.5473207286
 20
236.1078168188
 30
0.0
  0
VERTEX
  5
441
100
AcDbEntity
  8
0
100
AcDbVertex
100
AcDb2dVertex
 10
377.9444842226
 20
236.0018791854
 30
0.0
  0
VERTEX
  5
442
100
AcDbEntity
  8
0
100
AcDbVertex
100
AcDb2dVertex
 10
377.3743895417
 20
235.8018149131
 30
0.0
  0
VERTEX
  5
443
100
AcDbEntity
  8
0
100
AcDbVertex
100
AcDb2dVertex
 10
376.8564505766
 20
235.5144369507
 30
0.0
  0
VERTEX
  5
444
100
AcDbEntity
  8
0
100
AcDbVertex
100
AcDb2dVertex
 10
376.4083051174
 20
235.1495316102
 30
0.0
  0
VERTEX
  5
445
100
AcDbEntity
  8
0
100
AcDbVertex
100
AcDb2dVertex
 10
376.0452142204
 20
234.7195253052
 30
0.0
  0
VERTEX
  5
446
100
AcDbEntity
  8
0
100
AcDbVertex
100
AcDb2dVertex
 10
375.7795425106
 20
234.2390613848
 30
0.0
  0
VERTEX
  5
447
100
AcDbEntity
  8
0
100
AcDbVertex
100
AcDb2dVertex
 10
375.6203371193
 20
233.7245014714
 30
0.0
  0
VERTEX
  5
448
100
AcDbEntity
  8
0
100
AcDbVertex
100
AcDb2dVertex
 10
375.5730195953
 20
233.1933682857
 30
0.0
  0
VERTEX
  5
449
100
AcDbEntity
  8
0
100
AcDbVertex
100
AcDb2dVertex
 10
375.6392012801
 20
232.6637489315
 30
0.0
  0
VERTEX
  5
44A
100
AcDbEntity
  8
0
100
AcDbVertex
100
AcDb2dVertex
 10
375.8166284357
 20
232.1536789605
 30
0.0
  0
VERTEX
  5
44B
100
AcDbEntity
  8
0
100
AcDbVertex
100
AcDb2dVertex
 10
376.0992589932
 20
231.680528194
 30
0.0
  0
VERTEX
  5
44C
100
AcDbEntity
  8
0
100
AcDbVertex
100
AcDb2dVertex
 10
376.4774683079
 20
231.2604092137
 30
0.0
  0
VERTEX
  5
44D
100
AcDbEntity
  8
0
100
AcDbVertex
100
AcDb2dVertex
 10
376.9383769153
 20
230.9076286676
 30
0.0
  0
VERTEX
  5
44E
100
AcDbEntity
  8
0
100
AcDbVertex
100
AcDb2dVertex
 10
377.4662891255
 20
230.6342000742
 30
0.0
  0
VERTEX
  5
44F
100
AcDbEntity
  8
0
100
AcDbVertex
100
AcDb2dVertex
 10
378.0432275213
 20
230.4494347162
 30
0.0
  0
SEQEND
  5
450
100
AcDbEntity
  8
0
  0
POLYLINE
  5
451
100
AcDbEntity
  8
0
370
        15
  6
Continuous
 62
         7
100
AcDb2dPolyline
 66
         1
 10
0.0
 20
0.0
 30
0.0
 70
       128
  0
VERTEX
  5
452
100
AcDbEntity
  8
0
100
AcDbVertex
100
AcDb2dVertex
 10
285.7023544062
 20
221.9913598219
 30
0.0
  0
VERTEX
  5
453
100
AcDbEntity
  8
0
100
AcDbVertex
100
AcDb2dVertex
 10
286.3086720425
 20
221.9015496621
 30
0.0
  0
VERTEX
  5
454
100
AcDbEntity
  8
0
100
AcDbVertex
100
AcDb2dVertex
 10
286.9237214995
 20
221.9097530776
 30
0.0
  0
VERTEX
  5
455
100
AcDbEntity
  8
0
100
AcDbVertex
100
AcDb2dVertex
 10
287.5265580055
 20
222.015690711
 30
0.0
  0
VERTEX
  5
456
100
AcDbEntity
  8
0
100
AcDbVertex
100
AcDb2dVertex
 10
288.0966526864
 20
222.2157549834
 30
0.0
  0
VERTEX
  5
457
100
AcDbEntity
  8
0
100
AcDbVertex
100
AcDb2dVertex
 10
288.6145916516
 20
222.5031329457
 30
0.0
  0
VERTEX
  5
458
100
AcDbEntity
  8
0
100
AcDbVertex
100
AcDb2dVertex
 10
289.0627371107
 20
222.8680382862
 30
0.0
  0
VERTEX
  5
459
100
AcDbEntity
  8
0
100
AcDbVertex
100
AcDb2dVertex
 10
289.4258280077
 20
223.2980445912
 30
0.0
  0
VERTEX
  5
45A
100
AcDbEntity
  8
0
100
AcDbVertex
100
AcDb2dVertex
 10
289.6914997175
 20
223.7785085116
 30
0.0
  0
VERTEX
  5
45B
100
AcDbEntity
  8
0
100
AcDbVertex
100
AcDb2dVertex
 10
289.8507051088
 20
224.293068425
 30
0.0
  0
VERTEX
  5
45C
100
AcDbEntity
  8
0
100
AcDbVertex
100
AcDb2dVertex
 10
289.8980226328
 20
224.8242016107
 30
0.0
  0
VERTEX
  5
45D
100
AcDbEntity
  8
0
100
AcDbVertex
100
AcDb2dVertex
 10
289.8318409481
 20
225.3538209649
 30
0.0
  0
VERTEX
  5
45E
100
AcDbEntity
  8
0
100
AcDbVertex
100
AcDb2dVertex
 10
289.6544137925
 20
225.8638909359
 30
0.0
  0
VERTEX
  5
45F
100
AcDbEntity
  8
0
100
AcDbVertex
100
AcDb2dVertex
 10
289.3717832349
 20
226.3370417024
 30
0.0
  0
VERTEX
  5
460
100
AcDbEntity
  8
0
100
AcDbVertex
100
AcDb2dVertex
 10
288.9935739202
 20
226.7571606827
 30
0.0
  0
VERTEX
  5
461
100
AcDbEntity
  8
0
100
AcDbVertex
100
AcDb2dVertex
 10
288.5326653128
 20
227.1099412288
 30
0.0
  0
VERTEX
  5
462
100
AcDbEntity
  8
0
100
AcDbVertex
100
AcDb2dVertex
 10
288.0047531027
 20
227.3833698222
 30
0.0
  0
VERTEX
  5
463
100
AcDbEntity
  8
0
100
AcDbVertex
100
AcDb2dVertex
 10
287.4278147068
 20
227.5681351802
 30
0.0
  0
VERTEX
  5
464
100
AcDbEntity
  8
0
100
AcDbVertex
100
AcDb2dVertex
 10
286.8214970705
 20
227.65794534
 30
0.0
  0
VERTEX
  5
465
100
AcDbEntity
  8
0
100
AcDbVertex
100
AcDb2dVertex
 10
286.2064476135
 20
227.6497419245
 30
0.0
  0
VERTEX
  5
466
100
AcDbEntity
  8
0
100
AcDbVertex
100
AcDb2dVertex
 10
285.6036111075
 20
227.5438042911
 30
0.0
  0
VERTEX
  5
467
100
AcDbEntity
  8
0
100
AcDbVertex
100
AcDb2dVertex
 10
285.0335164266
 20
227.3437400188
 30
0.0
  0
VERTEX
  5
468
100
AcDbEntity
  8
0
100
AcDbVertex
100
AcDb2dVertex
 10
284.5155774614
 20
227.0563620564
 30
0.0
  0
VERTEX
  5
469
100
AcDbEntity
  8
0
100
AcDbVertex
100
AcDb2dVertex
 10
284.0674320023
 20
226.6914567159
 30
0.0
  0
VERTEX
  5
46A
100
AcDbEntity
  8
0
100
AcDbVertex
100
AcDb2dVertex
 10
283.7043411053
 20
226.261450411
 30
0.0
  0
VERTEX
  5
46B
100
AcDbEntity
  8
0
100
AcDbVertex
100
AcDb2dVertex
 10
283.4386693955
 20
225.7809864905
 30
0.0
  0
VERTEX
  5
46C
100
AcDbEntity
  8
0
100
AcDbVertex
100
AcDb2dVertex
 10
283.2794640042
 20
225.2664265771
 30
0.0
  0
VERTEX
  5
46D
100
AcDbEntity
  8
0
100
AcDbVertex
100
AcDb2dVertex
 10
283.2321464802
 20
224.7352933915
 30
0.0
  0
VERTEX
  5
46E
100
AcDbEntity
  8
0
100
AcDbVertex
100
AcDb2dVertex
 10
283.2983281649
 20
224.2056740372
 30
0.0
  0
VERTEX
  5
46F
100
AcDbEntity
  8
0
100
AcDbVertex
100
AcDb2dVertex
 10
283.4757553205
 20
223.6956040663
 30
0.0
  0
VERTEX
  5
470
100
AcDbEntity
  8
0
100
AcDbVertex
100
AcDb2dVertex
 10
283.7583858781
 20
223.2224532997
 30
0.0
  0
VERTEX
  5
471
100
AcDbEntity
  8
0
100
AcDbVertex
100
AcDb2dVertex
 10
284.1365951928
 20
222.8023343194
 30
0.0
  0
VERTEX
  5
472
100
AcDbEntity
  8
0
100
AcDbVertex
100
AcDb2dVertex
 10
284.5975038002
 20
222.4495537733
 30
0.0
  0
VERTEX
  5
473
100
AcDbEntity
  8
0
100
AcDbVertex
100
AcDb2dVertex
 10
285.1254160103
 20
222.1761251799
 30
0.0
  0
VERTEX
  5
474
100
AcDbEntity
  8
0
100
AcDbVertex
100
AcDb2dVertex
 10
285.7023544062
 20
221.9913598219
 30
0.0
  0
SEQEND
  5
475
100
AcDbEntity
  8
0
  0
POLYLINE
  5
476
100
AcDbEntity
  8
0
370
        15
  6
Continuous
 62
         7
100
AcDb2dPolyline
 66
         1
 10
0.0
 20
0.0
 30
0.0
 70
       128
  0
VERTEX
  5
477
100
AcDbEntity
  8
0
100
AcDbVertex
100
AcDb2dVertex
 10
300.1590561891
 20
241.9476327748
 30
0.0
  0
VERTEX
  5
478
100
AcDbEntity
  8
0
100
AcDbVertex
100
AcDb2dVertex
 10
300.7096777594
 20
241.8721067952
 30
0.0
  0
VERTEX
  5
479
100
AcDbEntity
  8
0
100
AcDbVertex
100
AcDb2dVertex
 10
301.2663988829
 20
241.8973744008
 30
0.0
  0
VERTEX
  5
47A
100
AcDbEntity
  8
0
100
AcDbVertex
100
AcDb2dVertex
 10
301.8048881749
 20
242.0223312759
 30
0.0
  0
VERTEX
  5
47B
100
AcDbEntity
  8
0
100
AcDbVertex
100
AcDb2dVertex
 10
302.3016110695
 20
242.2415162054
 30
0.0
  0
VERTEX
  5
47C
100
AcDbEntity
  8
0
100
AcDbVertex
100
AcDb2dVertex
 10
302.7348583926
 20
242.5453497562
 30
0.0
  0
VERTEX
  5
47D
100
AcDbEntity
  8
0
100
AcDbVertex
100
AcDb2dVertex
 10
303.0856951573
 20
242.9205529442
 30
0.0
  0
VERTEX
  5
47E
100
AcDbEntity
  8
0
100
AcDbVertex
100
AcDb2dVertex
 10
303.3387881134
 20
243.3507275895
 30
0.0
  0
VERTEX
  5
47F
100
AcDbEntity
  8
0
100
AcDbVertex
100
AcDb2dVertex
 10
303.4830758843
 20
243.8170729961
 30
0.0
  0
VERTEX
  5
480
100
AcDbEntity
  8
0
100
AcDbVertex
100
AcDb2dVertex
 10
303.5122524021
 20
244.2992076318
 30
0.0
  0
VERTEX
  5
481
100
AcDbEntity
  8
0
100
AcDbVertex
100
AcDb2dVertex
 10
303.4250425128
 20
244.7760598995
 30
0.0
  0
VERTEX
  5
482
100
AcDbEntity
  8
0
100
AcDbVertex
100
AcDb2dVertex
 10
303.2252577072
 20
245.226789067
 30
0.0
  0
VERTEX
  5
483
100
AcDbEntity
  8
0
100
AcDbVertex
100
AcDb2dVertex
 10
302.92162954
 20
245.6316961068
 30
0.0
  0
VERTEX
  5
484
100
AcDbEntity
  8
0
100
AcDbVertex
100
AcDb2dVertex
 10
302.5274280189
 20
245.9730846383
 30
0.0
  0
VERTEX
  5
485
100
AcDbEntity
  8
0
100
AcDbVertex
100
AcDb2dVertex
 10
302.0598816421
 20
246.2360343444
 30
0.0
  0
VERTEX
  5
486
100
AcDbEntity
  8
0
100
AcDbVertex
100
AcDb2dVertex
 10
301.5394244297
 20
246.4090530614
 30
0.0
  0
VERTEX
  5
487
100
AcDbEntity
  8
0
100
AcDbVertex
100
AcDb2dVertex
 10
300.9888028594
 20
246.4845790409
 30
0.0
  0
VERTEX
  5
488
100
AcDbEntity
  8
0
100
AcDbVertex
100
AcDb2dVertex
 10
300.432081736
 20
246.4593114354
 30
0.0
  0
VERTEX
  5
489
100
AcDbEntity
  8
0
100
AcDbVertex
100
AcDb2dVertex
 10
299.893592444
 20
246.3343545603
 30
0.0
  0
VERTEX
  5
48A
100
AcDbEntity
  8
0
100
AcDbVertex
100
AcDb2dVertex
 10
299.3968695494
 20
246.1151696307
 30
0.0
  0
VERTEX
  5
48B
100
AcDbEntity
  8
0
100
AcDbVertex
100
AcDb2dVertex
 10
298.9636222262
 20
245.8113360799
 30
0.0
  0
VERTEX
  5
48C
100
AcDbEntity
  8
0
100
AcDbVertex
100
AcDb2dVertex
 10
298.6127854616
 20
245.436132892
 30
0.0
  0
VERTEX
  5
48D
100
AcDbEntity
  8
0
100
AcDbVertex
100
AcDb2dVertex
 10
298.3596925054
 20
245.0059582466
 30
0.0
  0
VERTEX
  5
48E
100
AcDbEntity
  8
0
100
AcDbVertex
100
AcDb2dVertex
 10
298.2154047345
 20
244.5396128401
 30
0.0
  0
VERTEX
  5
48F
100
AcDbEntity
  8
0
100
AcDbVertex
100
AcDb2dVertex
 10
298.1862282167
 20
244.0574782044
 30
0.0
  0
VERTEX
  5
490
100
AcDbEntity
  8
0
100
AcDbVertex
100
AcDb2dVertex
 10
298.273438106
 20
243.5806259366
 30
0.0
  0
VERTEX
  5
491
100
AcDbEntity
  8
0
100
AcDbVertex
100
AcDb2dVertex
 10
298.4732229116
 20
243.1298967691
 30
0.0
  0
VERTEX
  5
492
100
AcDbEntity
  8
0
100
AcDbVertex
100
AcDb2dVertex
 10
298.7768510789
 20
242.7249897294
 30
0.0
  0
VERTEX
  5
493
100
AcDbEntity
  8
0
100
AcDbVertex
100
AcDb2dVertex
 10
299.1710525999
 20
242.3836011979
 30
0.0
  0
VERTEX
  5
494
100
AcDbEntity
  8
0
100
AcDbVertex
100
AcDb2dVertex
 10
299.6385989768
 20
242.1206514917
 30
0.0
  0
VERTEX
  5
495
100
AcDbEntity
  8
0
100
AcDbVertex
100
AcDb2dVertex
 10
300.1590561891
 20
241.9476327748
 30
0.0
  0
SEQEND
  5
496
100
AcDbEntity
  8
0
  0
POLYLINE
  5
497
100
AcDbEntity
  8
0
370
        15
  6
Continuous
 62
         7
100
AcDb2dPolyline
 66
         1
 10
0.0
 20
0.0
 30
0.0
 70
       128
  0
VERTEX
  5
498
100
AcDbEntity
  8
0
100
AcDbVertex
100
AcDb2dVertex
 10
363.3369978789
 20
216.3788054738
 30
0.0
  0
VERTEX
  5
499
100
AcDbEntity
  8
0
100
AcDbVertex
100
AcDb2dVertex
 10
363.9029207401
 20
216.2994826491
 30
0.0
  0
VERTEX
  5
49A
100
AcDbEntity
  8
0
100
AcDbVertex
100
AcDb2dVertex
 10
364.4756968854
 20
216.3204406916
 30
0.0
  0
VERTEX
  5
49B
100
AcDbEntity
  8
0
100
AcDbVertex
100
AcDb2dVertex
 10
365.0318767924
 20
216.4408215764
 30
0.0
  0
VERTEX
  5
49C
100
AcDbEntity
  8
0
100
AcDbVertex
100
AcDb2dVertex
 10
365.5486903901
 20
216.655696896
 30
0.0
  0
VERTEX
  5
49D
100
AcDbEntity
  8
0
100
AcDbVertex
100
AcDb2dVertex
 10
366.0049792692
 20
216.9562696296
 30
0.0
  0
VERTEX
  5
49E
100
AcDbEntity
  8
0
100
AcDbVertex
100
AcDb2dVertex
 10
366.3820629094
 20
217.3302342941
 30
0.0
  0
VERTEX
  5
49F
100
AcDbEntity
  8
0
100
AcDbVertex
100
AcDb2dVertex
 10
366.6645034622
 20
217.7622807323
 30
0.0
  0
VERTEX
  5
4A0
100
AcDbEntity
  8
0
100
AcDbVertex
100
AcDb2dVertex
 10
366.840737778
 20
218.2347209121
 30
0.0
  0
VERTEX
  5
4A1
100
AcDbEntity
  8
0
100
AcDbVertex
100
AcDb2dVertex
 10
366.9035508034
 20
218.7282130772
 30
0.0
  0
VERTEX
  5
4A2
100
AcDbEntity
  8
0
100
AcDbVertex
100
AcDb2dVertex
 10
366.8503709656
 20
219.2225536002
 30
0.0
  0
VERTEX
  5
4A3
100
AcDbEntity
  8
0
100
AcDbVertex
100
AcDb2dVertex
 10
366.6833754536
 20
219.6975041222
 30
0.0
  0
VERTEX
  5
4A4
100
AcDbEntity
  8
0
100
AcDbVertex
100
AcDb2dVertex
 10
366.4094010831
 20
220.1336201128
 30
0.0
  0
VERTEX
  5
4A5
100
AcDbEntity
  8
0
100
AcDbVertex
100
AcDb2dVertex
 10
366.0396643971
 20
220.5130469323
 30
0.0
  0
VERTEX
  5
4A6
100
AcDbEntity
  8
0
100
AcDbVertex
100
AcDb2dVertex
 10
365.589302459
 20
220.8202508021
 30
0.0
  0
VERTEX
  5
4A7
100
AcDbEntity
  8
0
100
AcDbVertex
100
AcDb2dVertex
 10
365.0767531394
 20
221.0426547596
 30
0.0
  0
VERTEX
  5
4A8
100
AcDbEntity
  8
0
100
AcDbVertex
100
AcDb2dVertex
 10
364.5230002676
 20
221.1711535607
 30
0.0
  0
VERTEX
  5
4A9
100
AcDbEntity
  8
0
100
AcDbVertex
100
AcDb2dVertex
 10
363.9507145514
 20
221.2004864493
 30
0.0
  0
VERTEX
  5
4AA
100
AcDbEntity
  8
0
100
AcDbVertex
100
AcDb2dVertex
 10
363.3833254352
 20
221.1294525336
 30
0.0
  0
VERTEX
  5
4AB
100
AcDbEntity
  8
0
100
AcDbVertex
100
AcDb2dVertex
 10
362.8440618961
 20
220.9609599505
 30
0.0
  0
VERTEX
  5
4AC
100
AcDbEntity
  8
0
100
AcDbVertex
100
AcDb2dVertex
 10
362.3550014466
 20
220.7019068059
 30
0.0
  0
VERTEX
  5
4AD
100
AcDbEntity
  8
0
100
AcDbVertex
100
AcDb2dVertex
 10
361.9361662792
 20
220.3628987663
 30
0.0
  0
VERTEX
  5
4AE
100
AcDbEntity
  8
0
100
AcDbVertex
100
AcDb2dVertex
 10
361.6047035546
 20
219.9578148604
 30
0.0
  0
VERTEX
  5
4AF
100
AcDbEntity
  8
0
100
AcDbVertex
100
AcDb2dVertex
 10
361.374183396
 20
219.5032392711
 30
0.0
  0
VERTEX
  5
4B0
100
AcDbEntity
  8
0
100
AcDbVertex
100
AcDb2dVertex
 10
361.2540433255
 20
219.0177823763
 30
0.0
  0
VERTEX
  5
4B1
100
AcDbEntity
  8
0
100
AcDbVertex
100
AcDb2dVertex
 10
361.2492018919
 20
218.5213188384
 30
0.0
  0
VERTEX
  5
4B2
100
AcDbEntity
  8
0
100
AcDbVertex
100
AcDb2dVertex
 10
361.3598573039
 20
218.0341739329
 30
0.0
  0
VERTEX
  5
4B3
100
AcDbEntity
  8
0
100
AcDbVertex
100
AcDb2dVertex
 10
361.581479316
 20
217.5762914296
 30
0.0
  0
VERTEX
  5
4B4
100
AcDbEntity
  8
0
100
AcDbVertex
100
AcDb2dVertex
 10
361.9049946971
 20
217.1664170918
 30
0.0
  0
VERTEX
  5
4B5
100
AcDbEntity
  8
0
100
AcDbVertex
100
AcDb2dVertex
 10
362.3171586893
 20
216.8213312232
 30
0.0
  0
VERTEX
  5
4B6
100
AcDbEntity
  8
0
100
AcDbVertex
100
AcDb2dVertex
 10
362.8010972504
 20
216.5551616797
 30
0.0
  0
VERTEX
  5
4B7
100
AcDbEntity
  8
0
100
AcDbVertex
100
AcDb2dVertex
 10
363.3369978789
 20
216.3788054738
 30
0.0
  0
SEQEND
  5
4B8
100
AcDbEntity
  8
0
  0
POLYLINE
  5
4B9
100
AcDbEntity
  8
0
370
        15
  6
Continuous
 62
         7
100
AcDb2dPolyline
 66
         1
 10
0.0
 20
0.0
 30
0.0
 70
       128
  0
VERTEX
  5
4BA
100
AcDbEntity
  8
0
100
AcDbVertex
100
AcDb2dVertex
 10
311.8209538102
 20
228.3331451027
 30
0.0
  0
VERTEX
  5
4BB
100
AcDbEntity
  8
0
100
AcDbVertex
100
AcDb2dVertex
 10
312.3868766713
 20
228.253822278
 30
0.0
  0
VERTEX
  5
4BC
100
AcDbEntity
  8
0
100
AcDbVertex
100
AcDb2dVertex
 10
312.9596528167
 20
228.2747803205
 30
0.0
  0
VERTEX
  5
4BD
100
AcDbEntity
  8
0
100
AcDbVertex
100
AcDb2dVertex
 10
313.5158327236
 20
228.3951612053
 30
0.0
  0
VERTEX
  5
4BE
100
AcDbEntity
  8
0
100
AcDbVertex
100
AcDb2dVertex
 10
314.0326463214
 20
228.6100365249
 30
0.0
  0
VERTEX
  5
4BF
100
AcDbEntity
  8
0
100
AcDbVertex
100
AcDb2dVertex
 10
314.4889352005
 20
228.9106092585
 30
0.0
  0
VERTEX
  5
4C0
100
AcDbEntity
  8
0
100
AcDbVertex
100
AcDb2dVertex
 10
314.8660188407
 20
229.284573923
 30
0.0
  0
VERTEX
  5
4C1
100
AcDbEntity
  8
0
100
AcDbVertex
100
AcDb2dVertex
 10
315.1484593934
 20
229.7166203612
 30
0.0
  0
VERTEX
  5
4C2
100
AcDbEntity
  8
0
100
AcDbVertex
100
AcDb2dVertex
 10
315.3246937093
 20
230.189060541
 30
0.0
  0
VERTEX
  5
4C3
100
AcDbEntity
  8
0
100
AcDbVertex
100
AcDb2dVertex
 10
315.3875067346
 20
230.6825527061
 30
0.0
  0
VERTEX
  5
4C4
100
AcDbEntity
  8
0
100
AcDbVertex
100
AcDb2dVertex
 10
315.3343268969
 20
231.1768932291
 30
0.0
  0
VERTEX
  5
4C5
100
AcDbEntity
  8
0
100
AcDbVertex
100
AcDb2dVertex
 10
315.1673313848
 20
231.6518437511
 30
0.0
  0
VERTEX
  5
4C6
100
AcDbEntity
  8
0
100
AcDbVertex
100
AcDb2dVertex
 10
314.8933570143
 20
232.0879597418
 30
0.0
  0
VERTEX
  5
4C7
100
AcDbEntity
  8
0
100
AcDbVertex
100
AcDb2dVertex
 10
314.5236203284
 20
232.4673865613
 30
0.0
  0
VERTEX
  5
4C8
100
AcDbEntity
  8
0
100
AcDbVertex
100
AcDb2dVertex
 10
314.0732583902
 20
232.774590431
 30
0.0
  0
VERTEX
  5
4C9
100
AcDbEntity
  8
0
100
AcDbVertex
100
AcDb2dVertex
 10
313.5607090706
 20
232.9969943885
 30
0.0
  0
VERTEX
  5
4CA
100
AcDbEntity
  8
0
100
AcDbVertex
100
AcDb2dVertex
 10
313.0069561989
 20
233.1254931896
 30
0.0
  0
VERTEX
  5
4CB
100
AcDbEntity
  8
0
100
AcDbVertex
100
AcDb2dVertex
 10
312.4346704827
 20
233.1548260782
 30
0.0
  0
VERTEX
  5
4CC
100
AcDbEntity
  8
0
100
AcDbVertex
100
AcDb2dVertex
 10
311.8672813665
 20
233.0837921625
 30
0.0
  0
VERTEX
  5
4CD
100
AcDbEntity
  8
0
100
AcDbVertex
100
AcDb2dVertex
 10
311.3280178273
 20
232.9152995794
 30
0.0
  0
VERTEX
  5
4CE
100
AcDbEntity
  8
0
100
AcDbVertex
100
AcDb2dVertex
 10
310.8389573779
 20
232.6562464349
 30
0.0
  0
VERTEX
  5
4CF
100
AcDbEntity
  8
0
100
AcDbVertex
100
AcDb2dVertex
 10
310.4201222104
 20
232.3172383952
 30
0.0
  0
VERTEX
  5
4D0
100
AcDbEntity
  8
0
100
AcDbVertex
100
AcDb2dVertex
 10
310.0886594859
 20
231.9121544893
 30
0.0
  0
VERTEX
  5
4D1
100
AcDbEntity
  8
0
100
AcDbVertex
100
AcDb2dVertex
 10
309.8581393272
 20
231.4575789
 30
0.0
  0
VERTEX
  5
4D2
100
AcDbEntity
  8
0
100
AcDbVertex
100
AcDb2dVertex
 10
309.7379992568
 20
230.9721220052
 30
0.0
  0
VERTEX
  5
4D3
100
AcDbEntity
  8
0
100
AcDbVertex
100
AcDb2dVertex
 10
309.7331578231
 20
230.4756584673
 30
0.0
  0
VERTEX
  5
4D4
100
AcDbEntity
  8
0
100
AcDbVertex
100
AcDb2dVertex
 10
309.8438132352
 20
229.9885135618
 30
0.0
  0
VERTEX
  5
4D5
100
AcDbEntity
  8
0
100
AcDbVertex
100
AcDb2dVertex
 10
310.0654352473
 20
229.5306310585
 30
0.0
  0
VERTEX
  5
4D6
100
AcDbEntity
  8
0
100
AcDbVertex
100
AcDb2dVertex
 10
310.3889506283
 20
229.1207567207
 30
0.0
  0
VERTEX
  5
4D7
100
AcDbEntity
  8
0
100
AcDbVertex
100
AcDb2dVertex
 10
310.8011146205
 20
228.7756708521
 30
0.0
  0
VERTEX
  5
4D8
100
AcDbEntity
  8
0
100
AcDbVertex
100
AcDb2dVertex
 10
311.2850531817
 20
228.5095013086
 30
0.0
  0
VERTEX
  5
4D9
100
AcDbEntity
  8
0
100
AcDbVertex
100
AcDb2dVertex
 10
311.8209538102
 20
228.3331451027
 30
0.0
  0
SEQEND
  5
4DA
100
AcDbEntity
  8
0
  0
LINE
  5
4DB
100
AcDbEntity
  8
0
370
        15
  6
Continuous
 62
         7
100
AcDbLine
 10
374.9927013761
 20
198.2828777922
 30
0.0
 11
374.9927013761
 21
194.9495444589
 31
0.0
  0
LINE
  5
4DC
100
AcDbEntity
  8
0
370
        15
  6
Continuous
 62
         7
100
AcDbLine
 10
387.0709234809
 20
237.3203053
 30
0.0
 11
387.0709234809
 21
233.9869719667
 31
0.0
  0
LINE
  5
4DD
100
AcDbEntity
  8
0
370
        15
  6
Continuous
 62
         7
100
AcDbLine
 10
374.9927013761
 20
194.9495444589
 30
0.0
 11
387.0709234809
 21
233.9869719667
 31
0.0
  0
LINE
  5
4DE
100
AcDbEntity
  8
0
370
        15
  6
Continuous
 62
         7
100
AcDbLine
 10
278.4001187472
 20
220.6972645964
 30
0.0
 11
278.4001187472
 21
217.3639312631
 31
0.0
  0
LINE
  5
4DF
100
AcDbEntity
  8
0
370
        15
  6
Continuous
 62
         7
100
AcDbLine
 10
278.4001187472
 20
217.3639312631
 30
0.0
 11
374.9927013761
 21
194.9495444589
 31
0.0
  0
POLYLINE
  5
4E0
100
AcDbEntity
  8
0
370
        15
  6
Continuous
 62
         7
100
AcDb2dPolyline
 66
         1
 10
0.0
 20
0.0
 30
0.0
 70
       128
  0
VERTEX
  5
4E1
100
AcDbEntity
  8
0
100
AcDbVertex
100
AcDb2dVertex
 10
364.5072147703
 20
208.9969675609
 30
0.0
  0
VERTEX
  5
4E2
100
AcDbEntity
  8
0
100
AcDbVertex
100
AcDb2dVertex
 10
364.7911920988
 20
208.8567617651
 30
0.0
  0
VERTEX
  5
4E3
100
AcDbEntity
  8
0
100
AcDbVertex
100
AcDb2dVertex
 10
365.0450043584
 20
208.6783675103
 30
0.0
  0
VERTEX
  5
4E4
100
AcDbEntity
  8
0
100
AcDbVertex
100
AcDb2dVertex
 10
365.2618713771
 20
208.4665503022
 30
0.0
  0
VERTEX
  5
4E5
100
AcDbEntity
  8
0
100
AcDbVertex
100
AcDb2dVertex
 10
365.4359999132
 20
208.2269684849
 30
0.0
  0
VERTEX
  5
4E6
100
AcDbEntity
  8
0
100
AcDbVertex
100
AcDb2dVertex
 10
365.4452774351
 20
208.2113411859
 30
0.0
  0
SEQEND
  5
4E7
100
AcDbEntity
  8
0
  0
LINE
  5
4E8
100
AcDbEntity
  8
0
370
        15
  6
Continuous
 62
         7
100
AcDbLine
 10
364.5072147703
 20
208.9969675609
 30
0.0
 11
364.5072147703
 21
210.9969675609
 31
0.0
  0
POLYLINE
  5
4E9
100
AcDbEntity
  8
0
370
        15
  6
Continuous
 62
         7
100
AcDb2dPolyline
 66
         1
 10
0.0
 20
0.0
 30
0.0
 70
       128
  0
VERTEX
  5
4EA
100
AcDbEntity
  8
0
100
AcDbVertex
100
AcDb2dVertex
 10
358.9298725457
 20
209.8045854366
 30
0.0
  0
VERTEX
  5
4EB
100
AcDbEntity
  8
0
100
AcDbVertex
100
AcDb2dVertex
 10
358.952239766
 20
209.5462708195
 30
0.0
  0
VERTEX
  5
4EC
100
AcDbEntity
  8
0
100
AcDbVertex
100
AcDb2dVertex
 10
359.0845638443
 20
209.1366581595
 30
0.0
  0
VERTEX
  5
4ED
100
AcDbEntity
  8
0
100
AcDbVertex
100
AcDb2dVertex
 10
359.3281691271
 20
208.7673248045
 30
0.0
  0
VERTEX
  5
4EE
100
AcDbEntity
  8
0
100
AcDbVertex
100
AcDb2dVertex
 10
359.6683650156
 20
208.4605433749
 30
0.0
  0
VERTEX
  5
4EF
100
AcDbEntity
  8
0
100
AcDbVertex
100
AcDb2dVertex
 10
360.0846360222
 20
208.2348143022
 30
0.0
  0
VERTEX
  5
4F0
100
AcDbEntity
  8
0
100
AcDbVertex
100
AcDb2dVertex
 10
360.5518789547
 20
208.1037501613
 30
0.0
  0
VERTEX
  5
4F1
100
AcDbEntity
  8
0
100
AcDbVertex
100
AcDb2dVertex
 10
361.0419167626
 20
208.0752547655
 30
0.0
  0
VERTEX
  5
4F2
100
AcDbEntity
  8
0
100
AcDbVertex
100
AcDb2dVertex
 10
361.5251977524
 20
208.1510465276
 30
0.0
  0
VERTEX
  5
4F3
100
AcDbEntity
  8
0
100
AcDbVertex
100
AcDb2dVertex
 10
361.9725776997
 20
208.3265548309
 30
0.0
  0
VERTEX
  5
4F4
100
AcDbEntity
  8
0
100
AcDbVertex
100
AcDb2dVertex
 10
362.35707739
 20
208.5911956603
 30
0.0
  0
SEQEND
  5
4F5
100
AcDbEntity
  8
0
  0
POLYLINE
  5
4F6
100
AcDbEntity
  8
0
370
        15
  6
Continuous
 62
         7
100
AcDb2dPolyline
 66
         1
 10
0.0
 20
0.0
 30
0.0
 70
       128
  0
VERTEX
  5
4F7
100
AcDbEntity
  8
0
100
AcDbVertex
100
AcDb2dVertex
 10
324.7339344974
 20
224.2660615488
 30
0.0
  0
VERTEX
  5
4F8
100
AcDbEntity
  8
0
100
AcDbVertex
100
AcDb2dVertex
 10
324.7460685897
 20
224.2051972818
 30
0.0
  0
VERTEX
  5
4F9
100
AcDbEntity
  8
0
100
AcDbVertex
100
AcDb2dVertex
 10
324.7508655027
 20
224.1767140292
 30
0.0
  0
SEQEND
  5
4FA
100
AcDbEntity
  8
0
  0
POLYLINE
  5
4FB
100
AcDbEntity
  8
0
370
        15
  6
Continuous
 62
         7
100
AcDb2dPolyline
 66
         1
 10
0.0
 20
0.0
 30
0.0
 70
       128
  0
VERTEX
  5
4FC
100
AcDbEntity
  8
0
100
AcDbVertex
100
AcDb2dVertex
 10
324.7508655027
 20
223.6072400666
 30
0.0
  0
VERTEX
  5
4FD
100
AcDbEntity
  8
0
100
AcDbVertex
100
AcDb2dVertex
 10
324.773232723
 20
223.3489254495
 30
0.0
  0
VERTEX
  5
4FE
100
AcDbEntity
  8
0
100
AcDbVertex
100
AcDb2dVertex
 10
324.9055568014
 20
222.9393127895
 30
0.0
  0
VERTEX
  5
4FF
100
AcDbEntity
  8
0
100
AcDbVertex
100
AcDb2dVertex
 10
325.1491620841
 20
222.5699794344
 30
0.0
  0
VERTEX
  5
500
100
AcDbEntity
  8
0
100
AcDbVertex
100
AcDb2dVertex
 10
325.4893579727
 20
222.2631980049
 30
0.0
  0
VERTEX
  5
501
100
AcDbEntity
  8
0
100
AcDbVertex
100
AcDb2dVertex
 10
325.9056289793
 20
222.0374689321
 30
0.0
  0
VERTEX
  5
502
100
AcDbEntity
  8
0
100
AcDbVertex
100
AcDb2dVertex
 10
326.3728719117
 20
221.9064047912
 30
0.0
  0
VERTEX
  5
503
100
AcDbEntity
  8
0
100
AcDbVertex
100
AcDb2dVertex
 10
326.8629097197
 20
221.8779093954
 30
0.0
  0
VERTEX
  5
504
100
AcDbEntity
  8
0
100
AcDbVertex
100
AcDb2dVertex
 10
327.3461907094
 20
221.9537011575
 30
0.0
  0
VERTEX
  5
505
100
AcDbEntity
  8
0
100
AcDbVertex
100
AcDb2dVertex
 10
327.7935706567
 20
222.1292094609
 30
0.0
  0
VERTEX
  5
506
100
AcDbEntity
  8
0
100
AcDbVertex
100
AcDb2dVertex
 10
328.1780703471
 20
222.3938502903
 30
0.0
  0
SEQEND
  5
507
100
AcDbEntity
  8
0
  0
POLYLINE
  5
508
100
AcDbEntity
  8
0
370
        15
  6
Continuous
 62
         7
100
AcDb2dPolyline
 66
         1
 10
0.0
 20
0.0
 30
0.0
 70
       128
  0
VERTEX
  5
509
100
AcDbEntity
  8
0
100
AcDbVertex
100
AcDb2dVertex
 10
328.1780703471
 20
222.3938502903
 30
0.0
  0
VERTEX
  5
50A
100
AcDbEntity
  8
0
100
AcDbVertex
100
AcDb2dVertex
 10
328.5625700374
 20
222.6584911196
 30
0.0
  0
VERTEX
  5
50B
100
AcDbEntity
  8
0
100
AcDbVertex
100
AcDb2dVertex
 10
329.0099499847
 20
222.833999423
 30
0.0
  0
VERTEX
  5
50C
100
AcDbEntity
  8
0
100
AcDbVertex
100
AcDb2dVertex
 10
329.4932309745
 20
222.9097911851
 30
0.0
  0
VERTEX
  5
50D
100
AcDbEntity
  8
0
100
AcDbVertex
100
AcDb2dVertex
 10
329.9832687824
 20
222.8812957893
 30
0.0
  0
VERTEX
  5
50E
100
AcDbEntity
  8
0
100
AcDbVertex
100
AcDb2dVertex
 10
330.4505117149
 20
222.7502316484
 30
0.0
  0
VERTEX
  5
50F
100
AcDbEntity
  8
0
100
AcDbVertex
100
AcDb2dVertex
 10
330.8667827215
 20
222.5245025757
 30
0.0
  0
VERTEX
  5
510
100
AcDbEntity
  8
0
100
AcDbVertex
100
AcDb2dVertex
 10
331.2069786101
 20
222.2177211461
 30
0.0
  0
VERTEX
  5
511
100
AcDbEntity
  8
0
100
AcDbVertex
100
AcDb2dVertex
 10
331.4505838928
 20
221.848387791
 30
0.0
  0
VERTEX
  5
512
100
AcDbEntity
  8
0
100
AcDbVertex
100
AcDb2dVertex
 10
331.5829079711
 20
221.438775131
 30
0.0
  0
VERTEX
  5
513
100
AcDbEntity
  8
0
100
AcDbVertex
100
AcDb2dVertex
 10
331.5866669113
 20
221.4161831032
 30
0.0
  0
SEQEND
  5
514
100
AcDbEntity
  8
0
  0
POLYLINE
  5
515
100
AcDbEntity
  8
0
370
        15
  6
Continuous
 62
         7
100
AcDb2dPolyline
 66
         1
 10
0.0
 20
0.0
 30
0.0
 70
       128
  0
VERTEX
  5
516
100
AcDbEntity
  8
0
100
AcDbVertex
100
AcDb2dVertex
 10
331.5866669113
 20
220.8467091406
 30
0.0
  0
VERTEX
  5
517
100
AcDbEntity
  8
0
100
AcDbVertex
100
AcDb2dVertex
 10
331.6090341316
 20
220.5883945235
 30
0.0
  0
VERTEX
  5
518
100
AcDbEntity
  8
0
100
AcDbVertex
100
AcDb2dVertex
 10
331.74135821
 20
220.1787818635
 30
0.0
  0
VERTEX
  5
519
100
AcDbEntity
  8
0
100
AcDbVertex
100
AcDb2dVertex
 10
331.9849634927
 20
219.8094485084
 30
0.0
  0
VERTEX
  5
51A
100
AcDbEntity
  8
0
100
AcDbVertex
100
AcDb2dVertex
 10
332.3251593812
 20
219.5026670789
 30
0.0
  0
VERTEX
  5
51B
100
AcDbEntity
  8
0
100
AcDbVertex
100
AcDb2dVertex
 10
332.7414303879
 20
219.2769380061
 30
0.0
  0
VERTEX
  5
51C
100
AcDbEntity
  8
0
100
AcDbVertex
100
AcDb2dVertex
 10
333.2086733203
 20
219.1458738652
 30
0.0
  0
VERTEX
  5
51D
100
AcDbEntity
  8
0
100
AcDbVertex
100
AcDb2dVertex
 10
333.6987111283
 20
219.1173784695
 30
0.0
  0
VERTEX
  5
51E
100
AcDbEntity
  8
0
100
AcDbVertex
100
AcDb2dVertex
 10
334.181992118
 20
219.1931702315
 30
0.0
  0
VERTEX
  5
51F
100
AcDbEntity
  8
0
100
AcDbVertex
100
AcDb2dVertex
 10
334.6293720653
 20
219.3686785349
 30
0.0
  0
VERTEX
  5
520
100
AcDbEntity
  8
0
100
AcDbVertex
100
AcDb2dVertex
 10
335.0138717557
 20
219.6333193643
 30
0.0
  0
SEQEND
  5
521
100
AcDbEntity
  8
0
  0
POLYLINE
  5
522
100
AcDbEntity
  8
0
370
        15
  6
Continuous
 62
         7
100
AcDb2dPolyline
 66
         1
 10
0.0
 20
0.0
 30
0.0
 70
       128
  0
VERTEX
  5
523
100
AcDbEntity
  8
0
100
AcDbVertex
100
AcDb2dVertex
 10
335.0138717557
 20
219.6333193643
 30
0.0
  0
VERTEX
  5
524
100
AcDbEntity
  8
0
100
AcDbVertex
100
AcDb2dVertex
 10
335.398371446
 20
219.8979601937
 30
0.0
  0
VERTEX
  5
525
100
AcDbEntity
  8
0
100
AcDbVertex
100
AcDb2dVertex
 10
335.8457513933
 20
220.073468497
 30
0.0
  0
VERTEX
  5
526
100
AcDbEntity
  8
0
100
AcDbVertex
100
AcDb2dVertex
 10
336.3290323831
 20
220.1492602591
 30
0.0
  0
VERTEX
  5
527
100
AcDbEntity
  8
0
100
AcDbVertex
100
AcDb2dVertex
 10
336.819070191
 20
220.1207648633
 30
0.0
  0
VERTEX
  5
528
100
AcDbEntity
  8
0
100
AcDbVertex
100
AcDb2dVertex
 10
337.2863131235
 20
219.9897007224
 30
0.0
  0
VERTEX
  5
529
100
AcDbEntity
  8
0
100
AcDbVertex
100
AcDb2dVertex
 10
337.7025841301
 20
219.7639716497
 30
0.0
  0
VERTEX
  5
52A
100
AcDbEntity
  8
0
100
AcDbVertex
100
AcDb2dVertex
 10
338.0427800187
 20
219.4571902201
 30
0.0
  0
VERTEX
  5
52B
100
AcDbEntity
  8
0
100
AcDbVertex
100
AcDb2dVertex
 10
338.2863853014
 20
219.087856865
 30
0.0
  0
VERTEX
  5
52C
100
AcDbEntity
  8
0
100
AcDbVertex
100
AcDb2dVertex
 10
338.4187093797
 20
218.6782442051
 30
0.0
  0
VERTEX
  5
52D
100
AcDbEntity
  8
0
100
AcDbVertex
100
AcDb2dVertex
 10
338.4224683199
 20
218.6556521772
 30
0.0
  0
SEQEND
  5
52E
100
AcDbEntity
  8
0
  0
POLYLINE
  5
52F
100
AcDbEntity
  8
0
370
        15
  6
Continuous
 62
         7
100
AcDb2dPolyline
 66
         1
 10
0.0
 20
0.0
 30
0.0
 70
       128
  0
VERTEX
  5
530
100
AcDbEntity
  8
0
100
AcDbVertex
100
AcDb2dVertex
 10
338.4224683199
 20
218.0861782146
 30
0.0
  0
VERTEX
  5
531
100
AcDbEntity
  8
0
100
AcDbVertex
100
AcDb2dVertex
 10
338.4448355402
 20
217.8278635975
 30
0.0
  0
VERTEX
  5
532
100
AcDbEntity
  8
0
100
AcDbVertex
100
AcDb2dVertex
 10
338.5771596186
 20
217.4182509375
 30
0.0
  0
VERTEX
  5
533
100
AcDbEntity
  8
0
100
AcDbVertex
100
AcDb2dVertex
 10
338.8207649013
 20
217.0489175825
 30
0.0
  0
VERTEX
  5
534
100
AcDbEntity
  8
0
100
AcDbVertex
100
AcDb2dVertex
 10
339.1609607898
 20
216.7421361529
 30
0.0
  0
VERTEX
  5
535
100
AcDbEntity
  8
0
100
AcDbVertex
100
AcDb2dVertex
 10
339.5772317965
 20
216.5164070801
 30
0.0
  0
VERTEX
  5
536
100
AcDbEntity
  8
0
100
AcDbVertex
100
AcDb2dVertex
 10
340.0444747289
 20
216.3853429392
 30
0.0
  0
VERTEX
  5
537
100
AcDbEntity
  8
0
100
AcDbVertex
100
AcDb2dVertex
 10
340.5345125369
 20
216.3568475435
 30
0.0
  0
VERTEX
  5
538
100
AcDbEntity
  8
0
100
AcDbVertex
100
AcDb2dVertex
 10
341.0177935266
 20
216.4326393055
 30
0.0
  0
VERTEX
  5
539
100
AcDbEntity
  8
0
100
AcDbVertex
100
AcDb2dVertex
 10
341.4651734739
 20
216.6081476089
 30
0.0
  0
VERTEX
  5
53A
100
AcDbEntity
  8
0
100
AcDbVertex
100
AcDb2dVertex
 10
341.8496731643
 20
216.8727884383
 30
0.0
  0
SEQEND
  5
53B
100
AcDbEntity
  8
0
  0
POLYLINE
  5
53C
100
AcDbEntity
  8
0
370
        15
  6
Continuous
 62
         7
100
AcDb2dPolyline
 66
         1
 10
0.0
 20
0.0
 30
0.0
 70
       128
  0
VERTEX
  5
53D
100
AcDbEntity
  8
0
100
AcDbVertex
100
AcDb2dVertex
 10
341.8496731643
 20
216.8727884383
 30
0.0
  0
VERTEX
  5
53E
100
AcDbEntity
  8
0
100
AcDbVertex
100
AcDb2dVertex
 10
342.2341728546
 20
217.1374292677
 30
0.0
  0
VERTEX
  5
53F
100
AcDbEntity
  8
0
100
AcDbVertex
100
AcDb2dVertex
 10
342.6815528019
 20
217.312937571
 30
0.0
  0
VERTEX
  5
540
100
AcDbEntity
  8
0
100
AcDbVertex
100
AcDb2dVertex
 10
343.1648337917
 20
217.3887293331
 30
0.0
  0
VERTEX
  5
541
100
AcDbEntity
  8
0
100
AcDbVertex
100
AcDb2dVertex
 10
343.6548715996
 20
217.3602339373
 30
0.0
  0
VERTEX
  5
542
100
AcDbEntity
  8
0
100
AcDbVertex
100
AcDb2dVertex
 10
344.1221145321
 20
217.2291697964
 30
0.0
  0
VERTEX
  5
543
100
AcDbEntity
  8
0
100
AcDbVertex
100
AcDb2dVertex
 10
344.5383855387
 20
217.0034407237
 30
0.0
  0
VERTEX
  5
544
100
AcDbEntity
  8
0
100
AcDbVertex
100
AcDb2dVertex
 10
344.8785814272
 20
216.6966592941
 30
0.0
  0
VERTEX
  5
545
100
AcDbEntity
  8
0
100
AcDbVertex
100
AcDb2dVertex
 10
345.12218671
 20
216.327325939
 30
0.0
  0
VERTEX
  5
546
100
AcDbEntity
  8
0
100
AcDbVertex
100
AcDb2dVertex
 10
345.2545107883
 20
215.9177132791
 30
0.0
  0
VERTEX
  5
547
100
AcDbEntity
  8
0
100
AcDbVertex
100
AcDb2dVertex
 10
345.2582697285
 20
215.8951212512
 30
0.0
  0
SEQEND
  5
548
100
AcDbEntity
  8
0
  0
POLYLINE
  5
549
100
AcDbEntity
  8
0
370
        15
  6
Continuous
 62
         7
100
AcDb2dPolyline
 66
         1
 10
0.0
 20
0.0
 30
0.0
 70
       128
  0
VERTEX
  5
54A
100
AcDbEntity
  8
0
100
AcDbVertex
100
AcDb2dVertex
 10
345.2582697285
 20
215.3256472886
 30
0.0
  0
VERTEX
  5
54B
100
AcDbEntity
  8
0
100
AcDbVertex
100
AcDb2dVertex
 10
345.2806369488
 20
215.0673326715
 30
0.0
  0
VERTEX
  5
54C
100
AcDbEntity
  8
0
100
AcDbVertex
100
AcDb2dVertex
 10
345.4129610271
 20
214.6577200115
 30
0.0
  0
VERTEX
  5
54D
100
AcDbEntity
  8
0
100
AcDbVertex
100
AcDb2dVertex
 10
345.6565663099
 20
214.2883866565
 30
0.0
  0
VERTEX
  5
54E
100
AcDbEntity
  8
0
100
AcDbVertex
100
AcDb2dVertex
 10
345.9967621984
 20
213.9816052269
 30
0.0
  0
VERTEX
  5
54F
100
AcDbEntity
  8
0
100
AcDbVertex
100
AcDb2dVertex
 10
346.413033205
 20
213.7558761542
 30
0.0
  0
VERTEX
  5
550
100
AcDbEntity
  8
0
100
AcDbVertex
100
AcDb2dVertex
 10
346.8802761375
 20
213.6248120132
 30
0.0
  0
VERTEX
  5
551
100
AcDbEntity
  8
0
100
AcDbVertex
100
AcDb2dVertex
 10
347.3703139455
 20
213.5963166175
 30
0.0
  0
VERTEX
  5
552
100
AcDbEntity
  8
0
100
AcDbVertex
100
AcDb2dVertex
 10
347.8535949352
 20
213.6721083795
 30
0.0
  0
VERTEX
  5
553
100
AcDbEntity
  8
0
100
AcDbVertex
100
AcDb2dVertex
 10
348.3009748825
 20
213.8476166829
 30
0.0
  0
VERTEX
  5
554
100
AcDbEntity
  8
0
100
AcDbVertex
100
AcDb2dVertex
 10
348.6854745729
 20
214.1122575123
 30
0.0
  0
SEQEND
  5
555
100
AcDbEntity
  8
0
  0
POLYLINE
  5
556
100
AcDbEntity
  8
0
370
        15
  6
Continuous
 62
         7
100
AcDb2dPolyline
 66
         1
 10
0.0
 20
0.0
 30
0.0
 70
       128
  0
VERTEX
  5
557
100
AcDbEntity
  8
0
100
AcDbVertex
100
AcDb2dVertex
 10
348.6854745729
 20
214.1122575123
 30
0.0
  0
VERTEX
  5
558
100
AcDbEntity
  8
0
100
AcDbVertex
100
AcDb2dVertex
 10
349.0699742632
 20
214.3768983417
 30
0.0
  0
VERTEX
  5
559
100
AcDbEntity
  8
0
100
AcDbVertex
100
AcDb2dVertex
 10
349.5173542105
 20
214.552406645
 30
0.0
  0
VERTEX
  5
55A
100
AcDbEntity
  8
0
100
AcDbVertex
100
AcDb2dVertex
 10
350.0006352003
 20
214.6281984071
 30
0.0
  0
VERTEX
  5
55B
100
AcDbEntity
  8
0
100
AcDbVertex
100
AcDb2dVertex
 10
350.4906730082
 20
214.5997030113
 30
0.0
  0
VERTEX
  5
55C
100
AcDbEntity
  8
0
100
AcDbVertex
100
AcDb2dVertex
 10
350.9579159407
 20
214.4686388704
 30
0.0
  0
VERTEX
  5
55D
100
AcDbEntity
  8
0
100
AcDbVertex
100
AcDb2dVertex
 10
351.3741869473
 20
214.2429097977
 30
0.0
  0
VERTEX
  5
55E
100
AcDbEntity
  8
0
100
AcDbVertex
100
AcDb2dVertex
 10
351.7143828358
 20
213.9361283681
 30
0.0
  0
VERTEX
  5
55F
100
AcDbEntity
  8
0
100
AcDbVertex
100
AcDb2dVertex
 10
351.9579881186
 20
213.566795013
 30
0.0
  0
VERTEX
  5
560
100
AcDbEntity
  8
0
100
AcDbVertex
100
AcDb2dVertex
 10
352.0903121969
 20
213.1571823531
 30
0.0
  0
VERTEX
  5
561
100
AcDbEntity
  8
0
100
AcDbVertex
100
AcDb2dVertex
 10
352.0940711371
 20
213.1345903252
 30
0.0
  0
SEQEND
  5
562
100
AcDbEntity
  8
0
  0
POLYLINE
  5
563
100
AcDbEntity
  8
0
370
        15
  6
Continuous
 62
         7
100
AcDb2dPolyline
 66
         1
 10
0.0
 20
0.0
 30
0.0
 70
       128
  0
VERTEX
  5
564
100
AcDbEntity
  8
0
100
AcDbVertex
100
AcDb2dVertex
 10
352.0940711371
 20
212.5651163626
 30
0.0
  0
VERTEX
  5
565
100
AcDbEntity
  8
0
100
AcDbVertex
100
AcDb2dVertex
 10
352.1164383574
 20
212.3068017455
 30
0.0
  0
VERTEX
  5
566
100
AcDbEntity
  8
0
100
AcDbVertex
100
AcDb2dVertex
 10
352.2487624357
 20
211.8971890855
 30
0.0
  0
VERTEX
  5
567
100
AcDbEntity
  8
0
100
AcDbVertex
100
AcDb2dVertex
 10
352.4923677185
 20
211.5278557305
 30
0.0
  0
VERTEX
  5
568
100
AcDbEntity
  8
0
100
AcDbVertex
100
AcDb2dVertex
 10
352.832563607
 20
211.2210743009
 30
0.0
  0
VERTEX
  5
569
100
AcDbEntity
  8
0
100
AcDbVertex
100
AcDb2dVertex
 10
353.2488346136
 20
210.9953452282
 30
0.0
  0
VERTEX
  5
56A
100
AcDbEntity
  8
0
100
AcDbVertex
100
AcDb2dVertex
 10
353.7160775461
 20
210.8642810873
 30
0.0
  0
VERTEX
  5
56B
100
AcDbEntity
  8
0
100
AcDbVertex
100
AcDb2dVertex
 10
354.206115354
 20
210.8357856915
 30
0.0
  0
VERTEX
  5
56C
100
AcDbEntity
  8
0
100
AcDbVertex
100
AcDb2dVertex
 10
354.6893963438
 20
210.9115774536
 30
0.0
  0
VERTEX
  5
56D
100
AcDbEntity
  8
0
100
AcDbVertex
100
AcDb2dVertex
 10
355.1367762911
 20
211.0870857569
 30
0.0
  0
VERTEX
  5
56E
100
AcDbEntity
  8
0
100
AcDbVertex
100
AcDb2dVertex
 10
355.5212759814
 20
211.3517265863
 30
0.0
  0
SEQEND
  5
56F
100
AcDbEntity
  8
0
  0
POLYLINE
  5
570
100
AcDbEntity
  8
0
370
        15
  6
Continuous
 62
         7
100
AcDb2dPolyline
 66
         1
 10
0.0
 20
0.0
 30
0.0
 70
       128
  0
VERTEX
  5
571
100
AcDbEntity
  8
0
100
AcDbVertex
100
AcDb2dVertex
 10
355.5212759814
 20
211.3517265863
 30
0.0
  0
VERTEX
  5
572
100
AcDbEntity
  8
0
100
AcDbVertex
100
AcDb2dVertex
 10
355.9057756718
 20
211.6163674157
 30
0.0
  0
VERTEX
  5
573
100
AcDbEntity
  8
0
100
AcDbVertex
100
AcDb2dVertex
 10
356.3531556191
 20
211.791875719
 30
0.0
  0
VERTEX
  5
574
100
AcDbEntity
  8
0
100
AcDbVertex
100
AcDb2dVertex
 10
356.8364366088
 20
211.8676674811
 30
0.0
  0
VERTEX
  5
575
100
AcDbEntity
  8
0
100
AcDbVertex
100
AcDb2dVertex
 10
357.3264744168
 20
211.8391720853
 30
0.0
  0
VERTEX
  5
576
100
AcDbEntity
  8
0
100
AcDbVertex
100
AcDb2dVertex
 10
357.7937173492
 20
211.7081079444
 30
0.0
  0
VERTEX
  5
577
100
AcDbEntity
  8
0
100
AcDbVertex
100
AcDb2dVertex
 10
358.2099883559
 20
211.4823788717
 30
0.0
  0
VERTEX
  5
578
100
AcDbEntity
  8
0
100
AcDbVertex
100
AcDb2dVertex
 10
358.5501842444
 20
211.1755974421
 30
0.0
  0
VERTEX
  5
579
100
AcDbEntity
  8
0
100
AcDbVertex
100
AcDb2dVertex
 10
358.7937895271
 20
210.806264087
 30
0.0
  0
VERTEX
  5
57A
100
AcDbEntity
  8
0
100
AcDbVertex
100
AcDb2dVertex
 10
358.9261136055
 20
210.3966514271
 30
0.0
  0
VERTEX
  5
57B
100
AcDbEntity
  8
0
100
AcDbVertex
100
AcDb2dVertex
 10
358.9298725457
 20
210.3740593992
 30
0.0
  0
SEQEND
  5
57C
100
AcDbEntity
  8
0
  0
POLYLINE
  5
57D
100
AcDbEntity
  8
0
370
        15
  6
Continuous
 62
         7
100
AcDb2dPolyline
 66
         1
 10
0.0
 20
0.0
 30
0.0
 70
       128
  0
VERTEX
  5
57E
100
AcDbEntity
  8
0
100
AcDbVertex
100
AcDb2dVertex
 10
362.35707739
 20
208.5911956603
 30
0.0
  0
VERTEX
  5
57F
100
AcDbEntity
  8
0
100
AcDbVertex
100
AcDb2dVertex
 10
362.5753508666
 20
208.757698031
 30
0.0
  0
VERTEX
  5
580
100
AcDbEntity
  8
0
100
AcDbVertex
100
AcDb2dVertex
 10
362.8191166026
 20
208.8951360963
 30
0.0
  0
VERTEX
  5
581
100
AcDbEntity
  8
0
100
AcDbVertex
100
AcDb2dVertex
 10
363.0832572105
 20
209.0006246114
 30
0.0
  0
VERTEX
  5
582
100
AcDbEntity
  8
0
100
AcDbVertex
100
AcDb2dVertex
 10
363.3622275717
 20
209.07194905
 30
0.0
  0
VERTEX
  5
583
100
AcDbEntity
  8
0
100
AcDbVertex
100
AcDb2dVertex
 10
363.6501712459
 20
209.1076120941
 30
0.0
  0
VERTEX
  5
584
100
AcDbEntity
  8
0
100
AcDbVertex
100
AcDb2dVertex
 10
363.9410434156
 20
209.1068650674
 30
0.0
  0
VERTEX
  5
585
100
AcDbEntity
  8
0
100
AcDbVertex
100
AcDb2dVertex
 10
364.228737785
 20
209.0697236525
 30
0.0
  0
VERTEX
  5
586
100
AcDbEntity
  8
0
100
AcDbVertex
100
AcDb2dVertex
 10
364.5072147703
 20
208.9969675609
 30
0.0
  0
SEQEND
  5
587
100
AcDbEntity
  8
0
  0
POLYLINE
  5
588
100
AcDbEntity
  8
0
370
        15
  6
Continuous
 62
         7
100
AcDb2dPolyline
 66
         1
 10
0.0
 20
0.0
 30
0.0
 70
       128
  0
VERTEX
  5
589
100
AcDbEntity
  8
0
100
AcDbVertex
100
AcDb2dVertex
 10
302.6211648208
 20
229.7032746299
 30
0.0
  0
VERTEX
  5
58A
100
AcDbEntity
  8
0
100
AcDbVertex
100
AcDb2dVertex
 10
302.7700608746
 20
230.4926526533
 30
0.0
  0
VERTEX
  5
58B
100
AcDbEntity
  8
0
100
AcDbVertex
100
AcDb2dVertex
 10
303.0477990526
 20
231.3903165557
 30
0.0
  0
VERTEX
  5
58C
100
AcDbEntity
  8
0
100
AcDbVertex
100
AcDb2dVertex
 10
303.4350080153
 20
232.2570381187
 30
0.0
  0
VERTEX
  5
58D
100
AcDbEntity
  8
0
100
AcDbVertex
100
AcDb2dVertex
 10
303.9272288999
 20
233.0828367043
 30
0.0
  0
VERTEX
  5
58E
100
AcDbEntity
  8
0
100
AcDbVertex
100
AcDb2dVertex
 10
304.5187935903
 20
233.8582029185
 30
0.0
  0
VERTEX
  5
58F
100
AcDbEntity
  8
0
100
AcDbVertex
100
AcDb2dVertex
 10
305.2028899876
 20
234.5742081159
 30
0.0
  0
VERTEX
  5
590
100
AcDbEntity
  8
0
100
AcDbVertex
100
AcDb2dVertex
 10
305.971640454
 20
235.2226072165
 30
0.0
  0
VERTEX
  5
591
100
AcDbEntity
  8
0
100
AcDbVertex
100
AcDb2dVertex
 10
306.816192527
 20
235.7959336509
 30
0.0
  0
VERTEX
  5
592
100
AcDbEntity
  8
0
100
AcDbVertex
100
AcDb2dVertex
 10
307.726820859
 20
236.2875853407
 30
0.0
  0
VERTEX
  5
593
100
AcDbEntity
  8
0
100
AcDbVertex
100
AcDb2dVertex
 10
308.6930392083
 20
236.6919007243
 30
0.0
  0
VERTEX
  5
594
100
AcDbEntity
  8
0
100
AcDbVertex
100
AcDb2dVertex
 10
309.7037211925
 20
237.0042239519
 30
0.0
  0
VERTEX
  5
595
100
AcDbEntity
  8
0
100
AcDbVertex
100
AcDb2dVertex
 10
310.747228413
 20
237.2209584992
 30
0.0
  0
VERTEX
  5
596
100
AcDbEntity
  8
0
100
AcDbVertex
100
AcDb2dVertex
 10
311.8115444757
 20
237.3396085832
 30
0.0
  0
VERTEX
  5
597
100
AcDbEntity
  8
0
100
AcDbVertex
100
AcDb2dVertex
 10
312.8844133645
 20
237.3588079016
 30
0.0
  0
VERTEX
  5
598
100
AcDbEntity
  8
0
100
AcDbVertex
100
AcDb2dVertex
 10
313.9534805745
 20
237.2783353668
 30
0.0
  0
VERTEX
  5
599
100
AcDbEntity
  8
0
100
AcDbVertex
100
AcDb2dVertex
 10
315.0064353781
 20
237.0991176515
 30
0.0
  0
VERTEX
  5
59A
100
AcDbEntity
  8
0
100
AcDbVertex
100
AcDb2dVertex
 10
316.0311525888
 20
236.8232185178
 30
0.0
  0
VERTEX
  5
59B
100
AcDbEntity
  8
0
100
AcDbVertex
100
AcDb2dVertex
 10
317.0158321868
 20
236.4538150524
 30
0.0
  0
SEQEND
  5
59C
100
AcDbEntity
  8
0
  0
POLYLINE
  5
59D
100
AcDbEntity
  8
0
370
        15
  6
Continuous
 62
         7
100
AcDb2dPolyline
 66
         1
 10
0.0
 20
0.0
 30
0.0
 70
       128
  0
VERTEX
  5
59E
100
AcDbEntity
  8
0
100
AcDbVertex
100
AcDb2dVertex
 10
317.0158321868
 20
236.4538150524
 30
0.0
  0
VERTEX
  5
59F
100
AcDbEntity
  8
0
100
AcDbVertex
100
AcDb2dVertex
 10
319.5282596329
 20
235.4251667941
 30
0.0
  0
VERTEX
  5
5A0
100
AcDbEntity
  8
0
100
AcDbVertex
100
AcDb2dVertex
 10
322.0880069148
 20
234.4880934873
 30
0.0
  0
VERTEX
  5
5A1
100
AcDbEntity
  8
0
100
AcDbVertex
100
AcDb2dVertex
 10
324.6906259578
 20
233.6442234849
 30
0.0
  0
VERTEX
  5
5A2
100
AcDbEntity
  8
0
100
AcDbVertex
100
AcDb2dVertex
 10
327.3315941886
 20
232.8950231806
 30
0.0
  0
VERTEX
  5
5A3
100
AcDbEntity
  8
0
100
AcDbVertex
100
AcDb2dVertex
 10
330.0063223945
 20
232.2417944602
 30
0.0
  0
VERTEX
  5
5A4
100
AcDbEntity
  8
0
100
AcDbVertex
100
AcDb2dVertex
 10
332.7101626984
 20
231.6856724399
 30
0.0
  0
VERTEX
  5
5A5
100
AcDbEntity
  8
0
100
AcDbVertex
100
AcDb2dVertex
 10
335.4384166346
 20
231.2276234933
 30
0.0
  0
VERTEX
  5
5A6
100
AcDbEntity
  8
0
100
AcDbVertex
100
AcDb2dVertex
 10
338.1863433142
 20
230.8684435724
 30
0.0
  0
VERTEX
  5
5A7
100
AcDbEntity
  8
0
100
AcDbVertex
100
AcDb2dVertex
 10
340.9491676628
 20
230.6087568245
 30
0.0
  0
SEQEND
  5
5A8
100
AcDbEntity
  8
0
  0
LINE
  5
5A9
100
AcDbEntity
  8
0
370
        15
  6
Continuous
 62
         7
100
AcDbLine
 10
340.9491676628
 20
230.6087568245
 30
0.0
 11
372.0021403443
 21
228.2559536621
 31
0.0
  0
POLYLINE
  5
5AA
100
AcDbEntity
  8
0
370
        15
  6
Continuous
 62
         7
100
AcDb2dPolyline
 66
         1
 10
0.0
 20
0.0
 30
0.0
 70
       128
  0
VERTEX
  5
5AB
100
AcDbEntity
  8
0
100
AcDbVertex
100
AcDb2dVertex
 10
372.0021403443
 20
228.2559536621
 30
0.0
  0
VERTEX
  5
5AC
100
AcDbEntity
  8
0
100
AcDbVertex
100
AcDb2dVertex
 10
372.644384582
 20
228.1516124858
 30
0.0
  0
VERTEX
  5
5AD
100
AcDbEntity
  8
0
100
AcDbVertex
100
AcDb2dVertex
 10
373.250783246
 20
227.9407669931
 30
0.0
  0
VERTEX
  5
5AE
100
AcDbEntity
  8
0
100
AcDbVertex
100
AcDb2dVertex
 10
373.7980327758
 20
227.6315198578
 30
0.0
  0
VERTEX
  5
5AF
100
AcDbEntity
  8
0
100
AcDbVertex
100
AcDb2dVertex
 10
374.2651026789
 20
227.2357552739
 30
0.0
  0
VERTEX
  5
5B0
100
AcDbEntity
  8
0
100
AcDbVertex
100
AcDb2dVertex
 10
374.6340437209
 20
226.7686822526
 30
0.0
  0
VERTEX
  5
5B1
100
AcDbEntity
  8
0
100
AcDbVertex
100
AcDb2dVertex
 10
374.8906777043
 20
226.248250148
 30
0.0
  0
VERTEX
  5
5B2
100
AcDbEntity
  8
0
100
AcDbVertex
100
AcDb2dVertex
 10
374.9311825046
 20
226.12795201
 30
0.0
  0
SEQEND
  5
5B3
100
AcDbEntity
  8
0
  0
POLYLINE
  5
5B4
100
AcDbEntity
  8
0
370
        15
  6
Continuous
 62
         7
100
AcDb2dPolyline
 66
         1
 10
0.0
 20
0.0
 30
0.0
 70
       128
  0
VERTEX
  5
5B5
100
AcDbEntity
  8
0
100
AcDbVertex
100
AcDb2dVertex
 10
369.4292797314
 20
219.4733863243
 30
0.0
  0
VERTEX
  5
5B6
100
AcDbEntity
  8
0
100
AcDbVertex
100
AcDb2dVertex
 10
369.458139713
 20
219.5148397359
 30
0.0
  0
VERTEX
  5
5B7
100
AcDbEntity
  8
0
100
AcDbVertex
100
AcDb2dVertex
 10
369.6125956662
 20
219.6815047047
 30
0.0
  0
VERTEX
  5
5B8
100
AcDbEntity
  8
0
100
AcDbVertex
100
AcDb2dVertex
 10
369.8050437954
 20
219.815267484
 30
0.0
  0
VERTEX
  5
5B9
100
AcDbEntity
  8
0
100
AcDbVertex
100
AcDb2dVertex
 10
370.0263605225
 20
219.9097866498
 30
0.0
  0
VERTEX
  5
5BA
100
AcDbEntity
  8
0
100
AcDbVertex
100
AcDb2dVertex
 10
370.2660536671
 20
219.9605812388
 30
0.0
  0
VERTEX
  5
5BB
100
AcDbEntity
  8
0
100
AcDbVertex
100
AcDb2dVertex
 10
370.51275986
 20
219.965243182
 30
0.0
  0
SEQEND
  5
5BC
100
AcDbEntity
  8
0
  0
LINE
  5
5BD
100
AcDbEntity
  8
0
370
        15
  6
Continuous
 62
         7
100
AcDbLine
 10
370.51275986
 20
219.965243182
 30
0.0
 11
371.1596348311
 21
219.916231144
 31
0.0
  0
POLYLINE
  5
5BE
100
AcDbEntity
  8
0
370
        15
  6
Continuous
 62
         7
100
AcDb2dPolyline
 66
         1
 10
0.0
 20
0.0
 30
0.0
 70
       128
  0
VERTEX
  5
5BF
100
AcDbEntity
  8
0
100
AcDbVertex
100
AcDb2dVertex
 10
371.1596348311
 20
219.916231144
 30
0.0
  0
VERTEX
  5
5C0
100
AcDbEntity
  8
0
100
AcDbVertex
100
AcDb2dVertex
 10
371.2903165762
 20
219.9174657266
 30
0.0
  0
VERTEX
  5
5C1
100
AcDbEntity
  8
0
100
AcDbVertex
100
AcDb2dVertex
 10
371.4182091926
 20
219.9407556828
 30
0.0
  0
VERTEX
  5
5C2
100
AcDbEntity
  8
0
100
AcDbVertex
100
AcDb2dVertex
 10
371.5383978389
 20
219.9852059927
 30
0.0
  0
VERTEX
  5
5C3
100
AcDbEntity
  8
0
100
AcDbVertex
100
AcDb2dVertex
 10
371.6462637327
 20
220.0491084556
 30
0.0
  0
VERTEX
  5
5C4
100
AcDbEntity
  8
0
100
AcDbVertex
100
AcDb2dVertex
 10
371.7376616483
 20
220.1300073359
 30
0.0
  0
VERTEX
  5
5C5
100
AcDbEntity
  8
0
100
AcDbVertex
100
AcDb2dVertex
 10
371.8090792151
 20
220.2247937349
 30
0.0
  0
VERTEX
  5
5C6
100
AcDbEntity
  8
0
100
AcDbVertex
100
AcDb2dVertex
 10
371.8577718959
 20
220.3298250645
 30
0.0
  0
VERTEX
  5
5C7
100
AcDbEntity
  8
0
100
AcDbVertex
100
AcDb2dVertex
 10
371.8818684583
 20
220.4410650296
 30
0.0
  0
SEQEND
  5
5C8
100
AcDbEntity
  8
0
  0
LINE
  5
5C9
100
AcDbEntity
  8
0
370
        15
  6
Continuous
 62
         7
100
AcDbLine
 10
371.8818684583
 20
220.4410650296
 30
0.0
 11
372.2595433436
 21
224.1795613308
 31
0.0
  0
LINE
  5
5CA
100
AcDbEntity
  8
0
370
        15
  6
Continuous
 62
         7
100
AcDbLine
 10
372.2595433436
 20
224.1795613308
 30
0.0
 11
372.2646170795
 21
224.2802001138
 31
0.0
  0
POLYLINE
  5
5CB
100
AcDbEntity
  8
0
370
        15
  6
Continuous
 62
         7
100
AcDb2dPolyline
 66
         1
 10
0.0
 20
0.0
 30
0.0
 70
       128
  0
VERTEX
  5
5CC
100
AcDbEntity
  8
0
100
AcDbVertex
100
AcDb2dVertex
 10
319.7459632234
 20
227.4610819543
 30
0.0
  0
VERTEX
  5
5CD
100
AcDbEntity
  8
0
100
AcDbVertex
100
AcDb2dVertex
 10
319.8490711633
 20
228.0530524489
 30
0.0
  0
VERTEX
  5
5CE
100
AcDbEntity
  8
0
100
AcDbVertex
100
AcDb2dVertex
 10
319.8876077713
 20
228.7032746299
 30
0.0
  0
SEQEND
  5
5CF
100
AcDbEntity
  8
0
  0
POLYLINE
  5
5D0
100
AcDbEntity
  8
0
370
        15
  6
Continuous
 62
         7
100
AcDb2dPolyline
 66
         1
 10
0.0
 20
0.0
 30
0.0
 70
       128
  0
VERTEX
  5
5D1
100
AcDbEntity
  8
0
100
AcDbVertex
100
AcDb2dVertex
 10
305.2209411046
 20
228.7032746299
 30
0.0
  0
VERTEX
  5
5D2
100
AcDbEntity
  8
0
100
AcDbVertex
100
AcDb2dVertex
 10
305.2560822992
 20
228.0822859322
 30
0.0
  0
VERTEX
  5
5D3
100
AcDbEntity
  8
0
100
AcDbVertex
100
AcDb2dVertex
 10
305.4004531993
 20
227.306684283
 30
0.0
  0
VERTEX
  5
5D4
100
AcDbEntity
  8
0
100
AcDbVertex
100
AcDb2dVertex
 10
305.6542935515
 20
226.5524535872
 30
0.0
  0
VERTEX
  5
5D5
100
AcDbEntity
  8
0
100
AcDbVertex
100
AcDb2dVertex
 10
306.0137190311
 20
225.8311352599
 30
0.0
  0
VERTEX
  5
5D6
100
AcDbEntity
  8
0
100
AcDbVertex
100
AcDb2dVertex
 10
306.4732296251
 20
225.1537670836
 30
0.0
  0
VERTEX
  5
5D7
100
AcDbEntity
  8
0
100
AcDbVertex
100
AcDb2dVertex
 10
307.0257937945
 20
224.5307143051
 30
0.0
  0
VERTEX
  5
5D8
100
AcDbEntity
  8
0
100
AcDbVertex
100
AcDb2dVertex
 10
307.6629560726
 20
223.9715110243
 30
0.0
  0
VERTEX
  5
5D9
100
AcDbEntity
  8
0
100
AcDbVertex
100
AcDb2dVertex
 10
308.3749664527
 20
223.484714301
 30
0.0
  0
VERTEX
  5
5DA
100
AcDbEntity
  8
0
100
AcDbVertex
100
AcDb2dVertex
 10
309.1509295848
 20
223.0777732131
 30
0.0
  0
VERTEX
  5
5DB
100
AcDbEntity
  8
0
100
AcDbVertex
100
AcDb2dVertex
 10
309.9789714988
 20
222.7569148685
 30
0.0
  0
VERTEX
  5
5DC
100
AcDbEntity
  8
0
100
AcDbVertex
100
AcDb2dVertex
 10
310.846421303
 20
222.5270491171
 30
0.0
  0
VERTEX
  5
5DD
100
AcDbEntity
  8
0
100
AcDbVertex
100
AcDb2dVertex
 10
311.7400050768
 20
222.3916934184
 30
0.0
  0
VERTEX
  5
5DE
100
AcDbEntity
  8
0
100
AcDbVertex
100
AcDb2dVertex
 10
312.6460489916
 20
222.3529190173
 30
0.0
  0
VERTEX
  5
5DF
100
AcDbEntity
  8
0
100
AcDbVertex
100
AcDb2dVertex
 10
313.5506885506
 20
222.4113192486
 30
0.0
  0
VERTEX
  5
5E0
100
AcDbEntity
  8
0
100
AcDbVertex
100
AcDb2dVertex
 10
314.4400807469
 20
222.5660004583
 30
0.0
  0
VERTEX
  5
5E1
100
AcDbEntity
  8
0
100
AcDbVertex
100
AcDb2dVertex
 10
315.3006158923
 20
222.8145956783
 30
0.0
  0
SEQEND
  5
5E2
100
AcDbEntity
  8
0
  0
POLYLINE
  5
5E3
100
AcDbEntity
  8
0
370
        15
  6
Continuous
 62
         7
100
AcDb2dPolyline
 66
         1
 10
0.0
 20
0.0
 30
0.0
 70
       128
  0
VERTEX
  5
5E4
100
AcDbEntity
  8
0
100
AcDbVertex
100
AcDb2dVertex
 10
315.3006158923
 20
222.8145956783
 30
0.0
  0
VERTEX
  5
5E5
100
AcDbEntity
  8
0
100
AcDbVertex
100
AcDb2dVertex
 10
315.698550807
 20
222.93712656
 30
0.0
  0
VERTEX
  5
5E6
100
AcDbEntity
  8
0
100
AcDbVertex
100
AcDb2dVertex
 10
316.1070065246
 20
223.0301368241
 30
0.0
  0
VERTEX
  5
5E7
100
AcDbEntity
  8
0
100
AcDbVertex
100
AcDb2dVertex
 10
316.5230687853
 20
223.0929628588
 30
0.0
  0
VERTEX
  5
5E8
100
AcDbEntity
  8
0
100
AcDbVertex
100
AcDb2dVertex
 10
316.9437690576
 20
223.1251564112
 30
0.0
  0
VERTEX
  5
5E9
100
AcDbEntity
  8
0
100
AcDbVertex
100
AcDb2dVertex
 10
317.3661057189
 20
223.1264877861
 30
0.0
  0
VERTEX
  5
5EA
100
AcDbEntity
  8
0
100
AcDbVertex
100
AcDb2dVertex
 10
317.7870654712
 20
223.0969474843
 30
0.0
  0
VERTEX
  5
5EB
100
AcDbEntity
  8
0
100
AcDbVertex
100
AcDb2dVertex
 10
318.2036448403
 20
223.0367462707
 30
0.0
  0
VERTEX
  5
5EC
100
AcDbEntity
  8
0
100
AcDbVertex
100
AcDb2dVertex
 10
318.6128716054
 20
222.9463136704
 30
0.0
  0
SEQEND
  5
5ED
100
AcDbEntity
  8
0
  0
POLYLINE
  5
5EE
100
AcDbEntity
  8
0
370
        15
  6
Continuous
 62
         7
100
AcDb2dPolyline
 66
         1
 10
0.0
 20
0.0
 30
0.0
 70
       128
  0
VERTEX
  5
5EF
100
AcDbEntity
  8
0
100
AcDbVertex
100
AcDb2dVertex
 10
322.1792658684
 20
224.4625817424
 30
0.0
  0
VERTEX
  5
5F0
100
AcDbEntity
  8
0
100
AcDbVertex
100
AcDb2dVertex
 10
321.9373546622
 20
224.0392436218
 30
0.0
  0
VERTEX
  5
5F1
100
AcDbEntity
  8
0
100
AcDbVertex
100
AcDb2dVertex
 10
321.6087329815
 20
223.662266459
 30
0.0
  0
VERTEX
  5
5F2
100
AcDbEntity
  8
0
100
AcDbVertex
100
AcDb2dVertex
 10
321.204872626
 20
223.3448100871
 30
0.0
  0
VERTEX
  5
5F3
100
AcDbEntity
  8
0
100
AcDbVertex
100
AcDb2dVertex
 10
320.7398718899
 20
223.0979565381
 30
0.0
  0
VERTEX
  5
5F4
100
AcDbEntity
  8
0
100
AcDbVertex
100
AcDb2dVertex
 10
320.2299634068
 20
222.9303231815
 30
0.0
  0
VERTEX
  5
5F5
100
AcDbEntity
  8
0
100
AcDbVertex
100
AcDb2dVertex
 10
319.6929474874
 20
222.8477619025
 30
0.0
  0
VERTEX
  5
5F6
100
AcDbEntity
  8
0
100
AcDbVertex
100
AcDb2dVertex
 10
319.1475707314
 20
222.8531548189
 30
0.0
  0
VERTEX
  5
5F7
100
AcDbEntity
  8
0
100
AcDbVertex
100
AcDb2dVertex
 10
318.6128716054
 20
222.9463136704
 30
0.0
  0
SEQEND
  5
5F8
100
AcDbEntity
  8
0
  0
POLYLINE
  5
5F9
100
AcDbEntity
  8
0
370
        15
  6
Continuous
 62
         7
100
AcDb2dPolyline
 66
         1
 10
0.0
 20
0.0
 30
0.0
 70
       128
  0
VERTEX
  5
5FA
100
AcDbEntity
  8
0
100
AcDbVertex
100
AcDb2dVertex
 10
324.7339344974
 20
224.2660615488
 30
0.0
  0
VERTEX
  5
5FB
100
AcDbEntity
  8
0
100
AcDbVertex
100
AcDb2dVertex
 10
324.5865513511
 20
224.6152118696
 30
0.0
  0
VERTEX
  5
5FC
100
AcDbEntity
  8
0
100
AcDbVertex
100
AcDb2dVertex
 10
324.3187025945
 20
224.9057115652
 30
0.0
  0
VERTEX
  5
5FD
100
AcDbEntity
  8
0
100
AcDbVertex
100
AcDb2dVertex
 10
323.9581502069
 20
225.1074509323
 30
0.0
  0
VERTEX
  5
5FE
100
AcDbEntity
  8
0
100
AcDbVertex
100
AcDb2dVertex
 10
323.5422647105
 20
225.1995200955
 30
0.0
  0
VERTEX
  5
5FF
100
AcDbEntity
  8
0
100
AcDbVertex
100
AcDb2dVertex
 10
323.1141517919
 20
225.1723762733
 30
0.0
  0
VERTEX
  5
600
100
AcDbEntity
  8
0
100
AcDbVertex
100
AcDb2dVertex
 10
322.7181844851
 20
225.0288328675
 30
0.0
  0
VERTEX
  5
601
100
AcDbEntity
  8
0
100
AcDbVertex
100
AcDb2dVertex
 10
322.3954039967
 20
224.7837678606
 30
0.0
  0
VERTEX
  5
602
100
AcDbEntity
  8
0
100
AcDbVertex
100
AcDb2dVertex
 10
322.1792658684
 20
224.4625817424
 30
0.0
  0
SEQEND
  5
603
100
AcDbEntity
  8
0
  0
POLYLINE
  5
604
100
AcDbEntity
  8
0
370
        15
  6
Continuous
 62
         7
100
AcDb2dPolyline
 66
         1
 10
0.0
 20
0.0
 30
0.0
 70
       128
  0
VERTEX
  5
605
100
AcDbEntity
  8
0
100
AcDbVertex
100
AcDb2dVertex
 10
366.1497593147
 20
217.0822683343
 30
0.0
  0
VERTEX
  5
606
100
AcDbEntity
  8
0
100
AcDbVertex
100
AcDb2dVertex
 10
366.0396643971
 20
217.179713599
 30
0.0
  0
VERTEX
  5
607
100
AcDbEntity
  8
0
100
AcDbVertex
100
AcDb2dVertex
 10
365.589302459
 20
217.4869174688
 30
0.0
  0
VERTEX
  5
608
100
AcDbEntity
  8
0
100
AcDbVertex
100
AcDb2dVertex
 10
365.0767531394
 20
217.7093214263
 30
0.0
  0
VERTEX
  5
609
100
AcDbEntity
  8
0
100
AcDbVertex
100
AcDb2dVertex
 10
364.5230002676
 20
217.8378202273
 30
0.0
  0
VERTEX
  5
60A
100
AcDbEntity
  8
0
100
AcDbVertex
100
AcDb2dVertex
 10
363.9507145514
 20
217.867153116
 30
0.0
  0
VERTEX
  5
60B
100
AcDbEntity
  8
0
100
AcDbVertex
100
AcDb2dVertex
 10
363.3833254352
 20
217.7961192003
 30
0.0
  0
VERTEX
  5
60C
100
AcDbEntity
  8
0
100
AcDbVertex
100
AcDb2dVertex
 10
362.8440618961
 20
217.6276266171
 30
0.0
  0
VERTEX
  5
60D
100
AcDbEntity
  8
0
100
AcDbVertex
100
AcDb2dVertex
 10
362.3550014466
 20
217.3685734726
 30
0.0
  0
VERTEX
  5
60E
100
AcDbEntity
  8
0
100
AcDbVertex
100
AcDb2dVertex
 10
361.9908776987
 20
217.0822683343
 30
0.0
  0
SEQEND
  5
60F
100
AcDbEntity
  8
0
  0
POLYLINE
  5
610
100
AcDbEntity
  8
0
370
        15
  6
Continuous
 62
         7
100
AcDb2dPolyline
 66
         1
 10
0.0
 20
0.0
 30
0.0
 70
       128
  0
VERTEX
  5
611
100
AcDbEntity
  8
0
100
AcDbVertex
100
AcDb2dVertex
 10
289.5215589333
 20
223.4464141677
 30
0.0
  0
VERTEX
  5
612
100
AcDbEntity
  8
0
100
AcDbVertex
100
AcDb2dVertex
 10
289.3717832349
 20
223.6703750358
 30
0.0
  0
VERTEX
  5
613
100
AcDbEntity
  8
0
100
AcDbVertex
100
AcDb2dVertex
 10
288.9935739202
 20
224.0904940161
 30
0.0
  0
VERTEX
  5
614
100
AcDbEntity
  8
0
100
AcDbVertex
100
AcDb2dVertex
 10
288.5326653128
 20
224.4432745621
 30
0.0
  0
VERTEX
  5
615
100
AcDbEntity
  8
0
100
AcDbVertex
100
AcDb2dVertex
 10
288.0047531027
 20
224.7167031556
 30
0.0
  0
VERTEX
  5
616
100
AcDbEntity
  8
0
100
AcDbVertex
100
AcDb2dVertex
 10
287.4278147068
 20
224.9014685135
 30
0.0
  0
VERTEX
  5
617
100
AcDbEntity
  8
0
100
AcDbVertex
100
AcDb2dVertex
 10
286.8214970705
 20
224.9912786734
 30
0.0
  0
VERTEX
  5
618
100
AcDbEntity
  8
0
100
AcDbVertex
100
AcDb2dVertex
 10
286.2064476135
 20
224.9830752578
 30
0.0
  0
VERTEX
  5
619
100
AcDbEntity
  8
0
100
AcDbVertex
100
AcDb2dVertex
 10
285.6036111075
 20
224.8771376244
 30
0.0
  0
VERTEX
  5
61A
100
AcDbEntity
  8
0
100
AcDbVertex
100
AcDb2dVertex
 10
285.0335164266
 20
224.6770733521
 30
0.0
  0
VERTEX
  5
61B
100
AcDbEntity
  8
0
100
AcDbVertex
100
AcDb2dVertex
 10
284.5155774614
 20
224.3896953898
 30
0.0
  0
VERTEX
  5
61C
100
AcDbEntity
  8
0
100
AcDbVertex
100
AcDb2dVertex
 10
284.0674320023
 20
224.0247900493
 30
0.0
  0
VERTEX
  5
61D
100
AcDbEntity
  8
0
100
AcDbVertex
100
AcDb2dVertex
 10
283.7043411053
 20
223.5947837443
 30
0.0
  0
VERTEX
  5
61E
100
AcDbEntity
  8
0
100
AcDbVertex
100
AcDb2dVertex
 10
283.6086101797
 20
223.4464141677
 30
0.0
  0
SEQEND
  5
61F
100
AcDbEntity
  8
0
  0
POLYLINE
  5
620
100
AcDbEntity
  8
0
370
        15
  6
Continuous
 62
         7
100
AcDb2dPolyline
 66
         1
 10
0.0
 20
0.0
 30
0.0
 70
       128
  0
VERTEX
  5
621
100
AcDbEntity
  8
0
100
AcDbVertex
100
AcDb2dVertex
 10
314.633715246
 20
229.0366079633
 30
0.0
  0
VERTEX
  5
622
100
AcDbEntity
  8
0
100
AcDbVertex
100
AcDb2dVertex
 10
314.5236203284
 20
229.1340532279
 30
0.0
  0
VERTEX
  5
623
100
AcDbEntity
  8
0
100
AcDbVertex
100
AcDb2dVertex
 10
314.0732583902
 20
229.4412570977
 30
0.0
  0
VERTEX
  5
624
100
AcDbEntity
  8
0
100
AcDbVertex
100
AcDb2dVertex
 10
313.5607090706
 20
229.6636610552
 30
0.0
  0
VERTEX
  5
625
100
AcDbEntity
  8
0
100
AcDbVertex
100
AcDb2dVertex
 10
313.0069561989
 20
229.7921598563
 30
0.0
  0
VERTEX
  5
626
100
AcDbEntity
  8
0
100
AcDbVertex
100
AcDb2dVertex
 10
312.4346704827
 20
229.8214927449
 30
0.0
  0
VERTEX
  5
627
100
AcDbEntity
  8
0
100
AcDbVertex
100
AcDb2dVertex
 10
311.8672813665
 20
229.7504588292
 30
0.0
  0
VERTEX
  5
628
100
AcDbEntity
  8
0
100
AcDbVertex
100
AcDb2dVertex
 10
311.3280178273
 20
229.581966246
 30
0.0
  0
VERTEX
  5
629
100
AcDbEntity
  8
0
100
AcDbVertex
100
AcDb2dVertex
 10
310.8389573779
 20
229.3229131015
 30
0.0
  0
VERTEX
  5
62A
100
AcDbEntity
  8
0
100
AcDbVertex
100
AcDb2dVertex
 10
310.4748336299
 20
229.0366079633
 30
0.0
  0
SEQEND
  5
62B
100
AcDbEntity
  8
0
  0
POLYLINE
  5
62C
100
AcDbEntity
  8
0
370
        15
  6
Continuous
 62
         7
100
AcDb2dPolyline
 66
         1
 10
0.0
 20
0.0
 30
0.0
 70
       128
  0
VERTEX
  5
62D
100
AcDbEntity
  8
0
100
AcDbVertex
100
AcDb2dVertex
 10
381.8624320484
 20
231.904489062
 30
0.0
  0
VERTEX
  5
62E
100
AcDbEntity
  8
0
100
AcDbVertex
100
AcDb2dVertex
 10
381.7126563501
 20
232.1284499301
 30
0.0
  0
VERTEX
  5
62F
100
AcDbEntity
  8
0
100
AcDbVertex
100
AcDb2dVertex
 10
381.3344470353
 20
232.5485689104
 30
0.0
  0
VERTEX
  5
630
100
AcDbEntity
  8
0
100
AcDbVertex
100
AcDb2dVertex
 10
380.873538428
 20
232.9013494564
 30
0.0
  0
VERTEX
  5
631
100
AcDbEntity
  8
0
100
AcDbVertex
100
AcDb2dVertex
 10
380.3456262178
 20
233.1747780498
 30
0.0
  0
VERTEX
  5
632
100
AcDbEntity
  8
0
100
AcDbVertex
100
AcDb2dVertex
 10
379.768687822
 20
233.3595434078
 30
0.0
  0
VERTEX
  5
633
100
AcDbEntity
  8
0
100
AcDbVertex
100
AcDb2dVertex
 10
379.1623701856
 20
233.4493535677
 30
0.0
  0
VERTEX
  5
634
100
AcDbEntity
  8
0
100
AcDbVertex
100
AcDb2dVertex
 10
378.5473207286
 20
233.4411501521
 30
0.0
  0
VERTEX
  5
635
100
AcDbEntity
  8
0
100
AcDbVertex
100
AcDb2dVertex
 10
377.9444842226
 20
233.3352125187
 30
0.0
  0
VERTEX
  5
636
100
AcDbEntity
  8
0
100
AcDbVertex
100
AcDb2dVertex
 10
377.3743895417
 20
233.1351482464
 30
0.0
  0
VERTEX
  5
637
100
AcDbEntity
  8
0
100
AcDbVertex
100
AcDb2dVertex
 10
376.8564505766
 20
232.8477702841
 30
0.0
  0
VERTEX
  5
638
100
AcDbEntity
  8
0
100
AcDbVertex
100
AcDb2dVertex
 10
376.4083051174
 20
232.4828649436
 30
0.0
  0
VERTEX
  5
639
100
AcDbEntity
  8
0
100
AcDbVertex
100
AcDb2dVertex
 10
376.0452142204
 20
232.0528586386
 30
0.0
  0
VERTEX
  5
63A
100
AcDbEntity
  8
0
100
AcDbVertex
100
AcDb2dVertex
 10
375.9494832948
 20
231.904489062
 30
0.0
  0
SEQEND
  5
63B
100
AcDbEntity
  8
0
  0
POLYLINE
  5
63C
100
AcDbEntity
  8
0
370
        15
  6
Continuous
 62
         7
100
AcDb2dPolyline
 66
         1
 10
0.0
 20
0.0
 30
0.0
 70
       128
  0
VERTEX
  5
63D
100
AcDbEntity
  8
0
100
AcDbVertex
100
AcDb2dVertex
 10
302.6951567234
 20
242.5116762514
 30
0.0
  0
VERTEX
  5
63E
100
AcDbEntity
  8
0
100
AcDbVertex
100
AcDb2dVertex
 10
302.5274280189
 20
242.6397513049
 30
0.0
  0
VERTEX
  5
63F
100
AcDbEntity
  8
0
100
AcDbVertex
100
AcDb2dVertex
 10
302.0598816421
 20
242.9027010111
 30
0.0
  0
VERTEX
  5
640
100
AcDbEntity
  8
0
100
AcDbVertex
100
AcDb2dVertex
 10
301.5394244297
 20
243.075719728
 30
0.0
  0
VERTEX
  5
641
100
AcDbEntity
  8
0
100
AcDbVertex
100
AcDb2dVertex
 10
300.9888028594
 20
243.1512457076
 30
0.0
  0
VERTEX
  5
642
100
AcDbEntity
  8
0
100
AcDbVertex
100
AcDb2dVertex
 10
300.432081736
 20
243.125978102
 30
0.0
  0
VERTEX
  5
643
100
AcDbEntity
  8
0
100
AcDbVertex
100
AcDb2dVertex
 10
299.893592444
 20
243.0010212269
 30
0.0
  0
VERTEX
  5
644
100
AcDbEntity
  8
0
100
AcDbVertex
100
AcDb2dVertex
 10
299.3968695494
 20
242.7818362974
 30
0.0
  0
VERTEX
  5
645
100
AcDbEntity
  8
0
100
AcDbVertex
100
AcDb2dVertex
 10
299.0033238954
 20
242.5116762514
 30
0.0
  0
SEQEND
  5
646
100
AcDbEntity
  8
0
  0
LINE
  5
647
100
AcDbEntity
  8
0
370
        15
  6
Continuous
 62
         7
100
AcDbLine
 10
293.4755149626
 20
188.5292178805
 30
0.0
 11
293.4755149626
 21
185.1958845472
 31
0.0
  0
LINE
  5
648
100
AcDbEntity
  8
0
370
        15
  6
Continuous
 62
         7
100
AcDbLine
 10
293.4755149626
 20
188.5292178805
 30
0.0
 11
380.0780553411
 21
145.2279476913
 31
0.0
  0
LINE
  5
649
100
AcDbEntity
  8
0
370
        15
  6
Continuous
 62
         7
100
AcDbLine
 10
380.0780553411
 20
145.2279476913
 30
0.0
 11
380.0780553411
 21
141.8946143579
 31
0.0
  0
LINE
  5
64A
100
AcDbEntity
  8
0
370
        15
  6
Continuous
 62
         7
100
AcDbLine
 10
293.4755149626
 20
185.1958845472
 30
0.0
 11
380.0780553411
 21
141.8946143579
 31
0.0
  0
LINE
  5
64B
100
AcDbEntity
  8
0
370
        15
  6
Continuous
 62
         7
100
AcDbLine
 10
270.1421816293
 20
153.5292178805
 30
0.0
 11
270.1421816293
 21
150.1958845472
 31
0.0
  0
LINE
  5
64C
100
AcDbEntity
  8
0
370
        15
  6
Continuous
 62
         7
100
AcDbLine
 10
270.1421816293
 20
153.5292178805
 30
0.0
 11
293.4755149626
 21
188.5292178805
 31
0.0
  0
LINE
  5
64D
100
AcDbEntity
  8
0
370
        15
  6
Continuous
 62
         7
100
AcDbLine
 10
270.1421816293
 20
150.1958845472
 30
0.0
 11
293.4755149626
 21
185.1958845472
 31
0.0
  0
LINE
  5
64E
100
AcDbEntity
  8
0
370
        15
  6
Continuous
 62
         7
100
AcDbLine
 10
380.0780553411
 20
141.8946143579
 30
0.0
 11
356.7447220077
 21
106.8946143579
 31
0.0
  0
LINE
  5
64F
100
AcDbEntity
  8
0
370
        15
  6
Continuous
 62
         7
100
AcDbLine
 10
356.7447220077
 20
106.8946143579
 30
0.0
 11
270.1421816293
 21
150.1958845472
 31
0.0
  0
POLYLINE
  5
650
100
AcDbEntity
  8
0
370
        15
  6
Continuous
 62
         7
100
AcDb2dPolyline
 66
         1
 10
0.0
 20
0.0
 30
0.0
 70
       128
  0
VERTEX
  5
651
100
AcDbEntity
  8
0
100
AcDbVertex
100
AcDb2dVertex
 10
291.5105542181
 20
156.8450315861
 30
0.0
  0
VERTEX
  5
652
100
AcDbEntity
  8
0
100
AcDbVertex
100
AcDb2dVertex
 10
291.9615691684
 20
156.5612510462
 30
0.0
  0
VERTEX
  5
653
100
AcDbEntity
  8
0
100
AcDbVertex
100
AcDb2dVertex
 10
292.3345995365
 20
156.2024634806
 30
0.0
  0
VERTEX
  5
654
100
AcDbEntity
  8
0
100
AcDbVertex
100
AcDb2dVertex
 10
292.6133421052
 20
155.7843496275
 30
0.0
  0
VERTEX
  5
655
100
AcDbEntity
  8
0
100
AcDbVertex
100
AcDb2dVertex
 10
292.7856144868
 20
155.3251830687
 30
0.0
  0
VERTEX
  5
656
100
AcDbEntity
  8
0
100
AcDbVertex
100
AcDb2dVertex
 10
292.8438875515
 20
154.8450315861
 30
0.0
  0
VERTEX
  5
657
100
AcDbEntity
  8
0
100
AcDbVertex
100
AcDb2dVertex
 10
292.7856144868
 20
154.3648801034
 30
0.0
  0
VERTEX
  5
658
100
AcDbEntity
  8
0
100
AcDbVertex
100
AcDb2dVertex
 10
292.6133421052
 20
153.9057135446
 30
0.0
  0
VERTEX
  5
659
100
AcDbEntity
  8
0
100
AcDbVertex
100
AcDb2dVertex
 10
292.3345995365
 20
153.4875996915
 30
0.0
  0
VERTEX
  5
65A
100
AcDbEntity
  8
0
100
AcDbVertex
100
AcDb2dVertex
 10
291.9615691684
 20
153.1288121259
 30
0.0
  0
VERTEX
  5
65B
100
AcDbEntity
  8
0
100
AcDbVertex
100
AcDb2dVertex
 10
291.5105542181
 20
152.8450315861
 30
0.0
  0
VERTEX
  5
65C
100
AcDbEntity
  8
0
100
AcDbVertex
100
AcDb2dVertex
 10
291.0012662031
 20
152.6486606433
 30
0.0
  0
VERTEX
  5
65D
100
AcDbEntity
  8
0
100
AcDbVertex
100
AcDb2dVertex
 10
290.4559634535
 20
152.54828165
 30
0.0
  0
VERTEX
  5
65E
100
AcDbEntity
  8
0
100
AcDbVertex
100
AcDb2dVertex
 10
289.8984783161
 20
152.54828165
 30
0.0
  0
VERTEX
  5
65F
100
AcDbEntity
  8
0
100
AcDbVertex
100
AcDb2dVertex
 10
289.3531755665
 20
152.6486606433
 30
0.0
  0
VERTEX
  5
660
100
AcDbEntity
  8
0
100
AcDbVertex
100
AcDb2dVertex
 10
288.8438875515
 20
152.8450315861
 30
0.0
  0
VERTEX
  5
661
100
AcDbEntity
  8
0
100
AcDbVertex
100
AcDb2dVertex
 10
288.3928726012
 20
153.1288121259
 30
0.0
  0
VERTEX
  5
662
100
AcDbEntity
  8
0
100
AcDbVertex
100
AcDb2dVertex
 10
288.0198422331
 20
153.4875996915
 30
0.0
  0
VERTEX
  5
663
100
AcDbEntity
  8
0
100
AcDbVertex
100
AcDb2dVertex
 10
287.7410996644
 20
153.9057135446
 30
0.0
  0
VERTEX
  5
664
100
AcDbEntity
  8
0
100
AcDbVertex
100
AcDb2dVertex
 10
287.5688272828
 20
154.3648801034
 30
0.0
  0
VERTEX
  5
665
100
AcDbEntity
  8
0
100
AcDbVertex
100
AcDb2dVertex
 10
287.5105542181
 20
154.8450315861
 30
0.0
  0
VERTEX
  5
666
100
AcDbEntity
  8
0
100
AcDbVertex
100
AcDb2dVertex
 10
287.5688272828
 20
155.3251830687
 30
0.0
  0
VERTEX
  5
667
100
AcDbEntity
  8
0
100
AcDbVertex
100
AcDb2dVertex
 10
287.7410996644
 20
155.7843496275
 30
0.0
  0
VERTEX
  5
668
100
AcDbEntity
  8
0
100
AcDbVertex
100
AcDb2dVertex
 10
288.0198422331
 20
156.2024634806
 30
0.0
  0
VERTEX
  5
669
100
AcDbEntity
  8
0
100
AcDbVertex
100
AcDb2dVertex
 10
288.3928726012
 20
156.5612510462
 30
0.0
  0
VERTEX
  5
66A
100
AcDbEntity
  8
0
100
AcDbVertex
100
AcDb2dVertex
 10
288.8438875515
 20
156.8450315861
 30
0.0
  0
VERTEX
  5
66B
100
AcDbEntity
  8
0
100
AcDbVertex
100
AcDb2dVertex
 10
289.3531755665
 20
157.0414025289
 30
0.0
  0
VERTEX
  5
66C
100
AcDbEntity
  8
0
100
AcDbVertex
100
AcDb2dVertex
 10
289.8984783161
 20
157.1417815221
 30
0.0
  0
VERTEX
  5
66D
100
AcDbEntity
  8
0
100
AcDbVertex
100
AcDb2dVertex
 10
290.4559634535
 20
157.1417815221
 30
0.0
  0
VERTEX
  5
66E
100
AcDbEntity
  8
0
100
AcDbVertex
100
AcDb2dVertex
 10
291.0012662031
 20
157.0414025289
 30
0.0
  0
VERTEX
  5
66F
100
AcDbEntity
  8
0
100
AcDbVertex
100
AcDb2dVertex
 10
291.5105542181
 20
156.8450315861
 30
0.0
  0
SEQEND
  5
670
100
AcDbEntity
  8
0
  0
POLYLINE
  5
671
100
AcDbEntity
  8
0
370
        15
  6
Continuous
 62
         7
100
AcDb2dPolyline
 66
         1
 10
0.0
 20
0.0
 30
0.0
 70
       128
  0
VERTEX
  5
672
100
AcDbEntity
  8
0
100
AcDbVertex
100
AcDb2dVertex
 10
357.060965278
 20
136.2364927228
 30
0.0
  0
VERTEX
  5
673
100
AcDbEntity
  8
0
100
AcDbVertex
100
AcDb2dVertex
 10
357.5258999858
 20
135.9460268691
 30
0.0
  0
VERTEX
  5
674
100
AcDbEntity
  8
0
100
AcDbVertex
100
AcDb2dVertex
 10
357.9138017123
 20
135.5804549719
 30
0.0
  0
VERTEX
  5
675
100
AcDbEntity
  8
0
100
AcDbVertex
100
AcDb2dVertex
 10
358.2087897152
 20
135.1547435876
 30
0.0
  0
VERTEX
  5
676
100
AcDbEntity
  8
0
100
AcDbVertex
100
AcDb2dVertex
 10
358.398787151
 20
134.6863213904
 30
0.0
  0
VERTEX
  5
677
100
AcDbEntity
  8
0
100
AcDbVertex
100
AcDb2dVertex
 10
358.4760155023
 20
134.1943656399
 30
0.0
  0
VERTEX
  5
678
100
AcDbEntity
  8
0
100
AcDbVertex
100
AcDb2dVertex
 10
358.4373130314
 20
133.6990170625
 30
0.0
  0
VERTEX
  5
679
100
AcDbEntity
  8
0
100
AcDbVertex
100
AcDb2dVertex
 10
358.284264222
 20
133.2205552871
 30
0.0
  0
VERTEX
  5
67A
100
AcDbEntity
  8
0
100
AcDbVertex
100
AcDb2dVertex
 10
358.0231349103
 20
132.778568595
 30
0.0
  0
VERTEX
  5
67B
100
AcDbEntity
  8
0
100
AcDbVertex
100
AcDb2dVertex
 10
357.664615761
 20
132.3911519733
 30
0.0
  0
VERTEX
  5
67C
100
AcDbEntity
  8
0
100
AcDbVertex
100
AcDb2dVertex
 10
357.2233845902
 20
132.074166304
 30
0.0
  0
VERTEX
  5
67D
100
AcDbEntity
  8
0
100
AcDbVertex
100
AcDb2dVertex
 10
356.7175054539
 20
131.8405890176
 30
0.0
  0
VERTEX
  5
67E
100
AcDbEntity
  8
0
100
AcDbVertex
100
AcDb2dVertex
 10
356.1676891034
 20
131.6999827958
 30
0.0
  0
VERTEX
  5
67F
100
AcDbEntity
  8
0
100
AcDbVertex
100
AcDb2dVertex
 10
355.5964450846
 20
131.6581040737
 30
0.0
  0
VERTEX
  5
680
100
AcDbEntity
  8
0
100
AcDbVertex
100
AcDb2dVertex
 10
355.0271601949
 20
131.7166673712
 30
0.0
  0
VERTEX
  5
681
100
AcDbEntity
  8
0
100
AcDbVertex
100
AcDb2dVertex
 10
354.4831410244
 20
131.8732751
 30
0.0
  0
VERTEX
  5
682
100
AcDbEntity
  8
0
100
AcDbVertex
100
AcDb2dVertex
 10
353.986659782
 20
132.1215157212
 30
0.0
  0
VERTEX
  5
683
100
AcDbEntity
  8
0
100
AcDbVertex
100
AcDb2dVertex
 10
353.558042468
 20
132.4512262347
 30
0.0
  0
VERTEX
  5
684
100
AcDbEntity
  8
0
100
AcDbVertex
100
AcDb2dVertex
 10
353.2148367256
 20
132.8489082532
 30
0.0
  0
VERTEX
  5
685
100
AcDbEntity
  8
0
100
AcDbVertex
100
AcDb2dVertex
 10
352.9710934383
 20
133.2982806283
 30
0.0
  0
VERTEX
  5
686
100
AcDbEntity
  8
0
100
AcDbVertex
100
AcDb2dVertex
 10
352.8367914849
 20
133.7809460021
 30
0.0
  0
VERTEX
  5
687
100
AcDbEntity
  8
0
100
AcDbVertex
100
AcDb2dVertex
 10
352.8174292031
 20
134.2771439975
 30
0.0
  0
VERTEX
  5
688
100
AcDbEntity
  8
0
100
AcDbVertex
100
AcDb2dVertex
 10
352.913799287
 20
134.7665602102
 30
0.0
  0
VERTEX
  5
689
100
AcDbEntity
  8
0
100
AcDbVertex
100
AcDb2dVertex
 10
353.121956334
 20
135.2291578831
 30
0.0
  0
VERTEX
  5
68A
100
AcDbEntity
  8
0
100
AcDbVertex
100
AcDb2dVertex
 10
353.4333783703
 20
135.6459982129
 30
0.0
  0
VERTEX
  5
68B
100
AcDbEntity
  8
0
100
AcDbVertex
100
AcDb2dVertex
 10
353.835315741
 20
136.0000157077
 30
0.0
  0
VERTEX
  5
68C
100
AcDbEntity
  8
0
100
AcDbVertex
100
AcDb2dVertex
 10
354.311313083
 20
136.2767168496
 30
0.0
  0
VERTEX
  5
68D
100
AcDbEntity
  8
0
100
AcDbVertex
100
AcDb2dVertex
 10
354.8418830091
 20
136.4647734613
 30
0.0
  0
VERTEX
  5
68E
100
AcDbEntity
  8
0
100
AcDbVertex
100
AcDb2dVertex
 10
355.4053039242
 20
136.5564864831
 30
0.0
  0
VERTEX
  5
68F
100
AcDbEntity
  8
0
100
AcDbVertex
100
AcDb2dVertex
 10
355.9785093099
 20
136.5481011731
 30
0.0
  0
VERTEX
  5
690
100
AcDbEntity
  8
0
100
AcDbVertex
100
AcDb2dVertex
 10
356.5380320704
 20
136.4399608268
 30
0.0
  0
VERTEX
  5
691
100
AcDbEntity
  8
0
100
AcDbVertex
100
AcDb2dVertex
 10
357.060965278
 20
136.2364927228
 30
0.0
  0
SEQEND
  5
692
100
AcDbEntity
  8
0
  0
POLYLINE
  5
693
100
AcDbEntity
  8
0
370
        15
  6
Continuous
 62
         7
100
AcDb2dPolyline
 66
         1
 10
0.0
 20
0.0
 30
0.0
 70
       128
  0
VERTEX
  5
694
100
AcDbEntity
  8
0
100
AcDbVertex
100
AcDb2dVertex
 10
310.8729437428
 20
159.3305034904
 30
0.0
  0
VERTEX
  5
695
100
AcDbEntity
  8
0
100
AcDbVertex
100
AcDb2dVertex
 10
311.3378784507
 20
159.0400376367
 30
0.0
  0
VERTEX
  5
696
100
AcDbEntity
  8
0
100
AcDbVertex
100
AcDb2dVertex
 10
311.7257801772
 20
158.6744657395
 30
0.0
  0
VERTEX
  5
697
100
AcDbEntity
  8
0
100
AcDbVertex
100
AcDb2dVertex
 10
312.02076818
 20
158.2487543552
 30
0.0
  0
VERTEX
  5
698
100
AcDbEntity
  8
0
100
AcDbVertex
100
AcDb2dVertex
 10
312.2107656158
 20
157.7803321579
 30
0.0
  0
VERTEX
  5
699
100
AcDbEntity
  8
0
100
AcDbVertex
100
AcDb2dVertex
 10
312.2879939671
 20
157.2883764075
 30
0.0
  0
VERTEX
  5
69A
100
AcDbEntity
  8
0
100
AcDbVertex
100
AcDb2dVertex
 10
312.2492914962
 20
156.7930278301
 30
0.0
  0
VERTEX
  5
69B
100
AcDbEntity
  8
0
100
AcDbVertex
100
AcDb2dVertex
 10
312.0962426868
 20
156.3145660547
 30
0.0
  0
VERTEX
  5
69C
100
AcDbEntity
  8
0
100
AcDbVertex
100
AcDb2dVertex
 10
311.8351133751
 20
155.8725793626
 30
0.0
  0
VERTEX
  5
69D
100
AcDbEntity
  8
0
100
AcDbVertex
100
AcDb2dVertex
 10
311.4765942258
 20
155.4851627408
 30
0.0
  0
VERTEX
  5
69E
100
AcDbEntity
  8
0
100
AcDbVertex
100
AcDb2dVertex
 10
311.035363055
 20
155.1681770716
 30
0.0
  0
VERTEX
  5
69F
100
AcDbEntity
  8
0
100
AcDbVertex
100
AcDb2dVertex
 10
310.5294839187
 20
154.9345997852
 30
0.0
  0
VERTEX
  5
6A0
100
AcDbEntity
  8
0
100
AcDbVertex
100
AcDb2dVertex
 10
309.9796675682
 20
154.7939935634
 30
0.0
  0
VERTEX
  5
6A1
100
AcDbEntity
  8
0
100
AcDbVertex
100
AcDb2dVertex
 10
309.4084235495
 20
154.7521148413
 30
0.0
  0
VERTEX
  5
6A2
100
AcDbEntity
  8
0
100
AcDbVertex
100
AcDb2dVertex
 10
308.8391386597
 20
154.8106781388
 30
0.0
  0
VERTEX
  5
6A3
100
AcDbEntity
  8
0
100
AcDbVertex
100
AcDb2dVertex
 10
308.2951194892
 20
154.9672858676
 30
0.0
  0
VERTEX
  5
6A4
100
AcDbEntity
  8
0
100
AcDbVertex
100
AcDb2dVertex
 10
307.7986382468
 20
155.2155264888
 30
0.0
  0
VERTEX
  5
6A5
100
AcDbEntity
  8
0
100
AcDbVertex
100
AcDb2dVertex
 10
307.3700209328
 20
155.5452370023
 30
0.0
  0
VERTEX
  5
6A6
100
AcDbEntity
  8
0
100
AcDbVertex
100
AcDb2dVertex
 10
307.0268151905
 20
155.9429190208
 30
0.0
  0
VERTEX
  5
6A7
100
AcDbEntity
  8
0
100
AcDbVertex
100
AcDb2dVertex
 10
306.7830719032
 20
156.3922913959
 30
0.0
  0
VERTEX
  5
6A8
100
AcDbEntity
  8
0
100
AcDbVertex
100
AcDb2dVertex
 10
306.6487699497
 20
156.8749567697
 30
0.0
  0
VERTEX
  5
6A9
100
AcDbEntity
  8
0
100
AcDbVertex
100
AcDb2dVertex
 10
306.6294076679
 20
157.3711547651
 30
0.0
  0
VERTEX
  5
6AA
100
AcDbEntity
  8
0
100
AcDbVertex
100
AcDb2dVertex
 10
306.7257777518
 20
157.8605709778
 30
0.0
  0
VERTEX
  5
6AB
100
AcDbEntity
  8
0
100
AcDbVertex
100
AcDb2dVertex
 10
306.9339347989
 20
158.3231686507
 30
0.0
  0
VERTEX
  5
6AC
100
AcDbEntity
  8
0
100
AcDbVertex
100
AcDb2dVertex
 10
307.2453568351
 20
158.7400089805
 30
0.0
  0
VERTEX
  5
6AD
100
AcDbEntity
  8
0
100
AcDbVertex
100
AcDb2dVertex
 10
307.6472942058
 20
159.0940264753
 30
0.0
  0
VERTEX
  5
6AE
100
AcDbEntity
  8
0
100
AcDbVertex
100
AcDb2dVertex
 10
308.1232915478
 20
159.3707276172
 30
0.0
  0
VERTEX
  5
6AF
100
AcDbEntity
  8
0
100
AcDbVertex
100
AcDb2dVertex
 10
308.6538614739
 20
159.5587842289
 30
0.0
  0
VERTEX
  5
6B0
100
AcDbEntity
  8
0
100
AcDbVertex
100
AcDb2dVertex
 10
309.217282389
 20
159.6504972507
 30
0.0
  0
VERTEX
  5
6B1
100
AcDbEntity
  8
0
100
AcDbVertex
100
AcDb2dVertex
 10
309.7904877748
 20
159.6421119407
 30
0.0
  0
VERTEX
  5
6B2
100
AcDbEntity
  8
0
100
AcDbVertex
100
AcDb2dVertex
 10
310.3500105352
 20
159.5339715944
 30
0.0
  0
VERTEX
  5
6B3
100
AcDbEntity
  8
0
100
AcDbVertex
100
AcDb2dVertex
 10
310.8729437428
 20
159.3305034904
 30
0.0
  0
SEQEND
  5
6B4
100
AcDbEntity
  8
0
  0
POLYLINE
  5
6B5
100
AcDbEntity
  8
0
370
        15
  6
Continuous
 62
         7
100
AcDb2dPolyline
 66
         1
 10
0.0
 20
0.0
 30
0.0
 70
       128
  0
VERTEX
  5
6B6
100
AcDbEntity
  8
0
100
AcDbVertex
100
AcDb2dVertex
 10
311.5357178842
 20
158.8721701571
 30
0.0
  0
VERTEX
  5
6B7
100
AcDbEntity
  8
0
100
AcDbVertex
100
AcDb2dVertex
 10
311.4765942258
 20
158.8184960742
 30
0.0
  0
VERTEX
  5
6B8
100
AcDbEntity
  8
0
100
AcDbVertex
100
AcDb2dVertex
 10
311.035363055
 20
158.5015104049
 30
0.0
  0
VERTEX
  5
6B9
100
AcDbEntity
  8
0
100
AcDbVertex
100
AcDb2dVertex
 10
310.5294839187
 20
158.2679331186
 30
0.0
  0
VERTEX
  5
6BA
100
AcDbEntity
  8
0
100
AcDbVertex
100
AcDb2dVertex
 10
309.9796675682
 20
158.1273268967
 30
0.0
  0
VERTEX
  5
6BB
100
AcDbEntity
  8
0
100
AcDbVertex
100
AcDb2dVertex
 10
309.4084235495
 20
158.0854481747
 30
0.0
  0
VERTEX
  5
6BC
100
AcDbEntity
  8
0
100
AcDbVertex
100
AcDb2dVertex
 10
308.8391386597
 20
158.1440114721
 30
0.0
  0
VERTEX
  5
6BD
100
AcDbEntity
  8
0
100
AcDbVertex
100
AcDb2dVertex
 10
308.2951194892
 20
158.3006192009
 30
0.0
  0
VERTEX
  5
6BE
100
AcDbEntity
  8
0
100
AcDbVertex
100
AcDb2dVertex
 10
307.7986382468
 20
158.5488598221
 30
0.0
  0
VERTEX
  5
6BF
100
AcDbEntity
  8
0
100
AcDbVertex
100
AcDb2dVertex
 10
307.3768362681
 20
158.8721701571
 30
0.0
  0
SEQEND
  5
6C0
100
AcDbEntity
  8
0
  0
POLYLINE
  5
6C1
100
AcDbEntity
  8
0
370
        15
  6
Continuous
 62
         7
100
AcDb2dPolyline
 66
         1
 10
0.0
 20
0.0
 30
0.0
 70
       128
  0
VERTEX
  5
6C2
100
AcDbEntity
  8
0
100
AcDbVertex
100
AcDb2dVertex
 10
292.0231372988
 20
156.5116982527
 30
0.0
  0
VERTEX
  5
6C3
100
AcDbEntity
  8
0
100
AcDbVertex
100
AcDb2dVertex
 10
291.9615691684
 20
156.4621454593
 30
0.0
  0
VERTEX
  5
6C4
100
AcDbEntity
  8
0
100
AcDbVertex
100
AcDb2dVertex
 10
291.5105542181
 20
156.1783649194
 30
0.0
  0
VERTEX
  5
6C5
100
AcDbEntity
  8
0
100
AcDbVertex
100
AcDb2dVertex
 10
291.0012662031
 20
155.9819939766
 30
0.0
  0
VERTEX
  5
6C6
100
AcDbEntity
  8
0
100
AcDbVertex
100
AcDb2dVertex
 10
290.4559634535
 20
155.8816149834
 30
0.0
  0
VERTEX
  5
6C7
100
AcDbEntity
  8
0
100
AcDbVertex
100
AcDb2dVertex
 10
289.8984783161
 20
155.8816149834
 30
0.0
  0
VERTEX
  5
6C8
100
AcDbEntity
  8
0
100
AcDbVertex
100
AcDb2dVertex
 10
289.3531755665
 20
155.9819939766
 30
0.0
  0
VERTEX
  5
6C9
100
AcDbEntity
  8
0
100
AcDbVertex
100
AcDb2dVertex
 10
288.8438875515
 20
156.1783649194
 30
0.0
  0
VERTEX
  5
6CA
100
AcDbEntity
  8
0
100
AcDbVertex
100
AcDb2dVertex
 10
288.3928726012
 20
156.4621454593
 30
0.0
  0
VERTEX
  5
6CB
100
AcDbEntity
  8
0
100
AcDbVertex
100
AcDb2dVertex
 10
288.3313044708
 20
156.5116982527
 30
0.0
  0
SEQEND
  5
6CC
100
AcDbEntity
  8
0
  0
POLYLINE
  5
6CD
100
AcDbEntity
  8
0
370
        15
  6
Continuous
 62
         7
100
AcDb2dPolyline
 66
         1
 10
0.0
 20
0.0
 30
0.0
 70
       128
  0
VERTEX
  5
6CE
100
AcDbEntity
  8
0
100
AcDbVertex
100
AcDb2dVertex
 10
357.7237394194
 20
135.7781593895
 30
0.0
  0
VERTEX
  5
6CF
100
AcDbEntity
  8
0
100
AcDbVertex
100
AcDb2dVertex
 10
357.664615761
 20
135.7244853066
 30
0.0
  0
VERTEX
  5
6D0
100
AcDbEntity
  8
0
100
AcDbVertex
100
AcDb2dVertex
 10
357.2233845902
 20
135.4074996373
 30
0.0
  0
VERTEX
  5
6D1
100
AcDbEntity
  8
0
100
AcDbVertex
100
AcDb2dVertex
 10
356.7175054539
 20
135.173922351
 30
0.0
  0
VERTEX
  5
6D2
100
AcDbEntity
  8
0
100
AcDbVertex
100
AcDb2dVertex
 10
356.1676891034
 20
135.0333161291
 30
0.0
  0
VERTEX
  5
6D3
100
AcDbEntity
  8
0
100
AcDbVertex
100
AcDb2dVertex
 10
355.5964450846
 20
134.9914374071
 30
0.0
  0
VERTEX
  5
6D4
100
AcDbEntity
  8
0
100
AcDbVertex
100
AcDb2dVertex
 10
355.0271601949
 20
135.0500007046
 30
0.0
  0
VERTEX
  5
6D5
100
AcDbEntity
  8
0
100
AcDbVertex
100
AcDb2dVertex
 10
354.4831410244
 20
135.2066084333
 30
0.0
  0
VERTEX
  5
6D6
100
AcDbEntity
  8
0
100
AcDbVertex
100
AcDb2dVertex
 10
353.986659782
 20
135.4548490545
 30
0.0
  0
VERTEX
  5
6D7
100
AcDbEntity
  8
0
100
AcDbVertex
100
AcDb2dVertex
 10
353.5648578033
 20
135.7781593895
 30
0.0
  0
SEQEND
  5
6D8
100
AcDbEntity
  8
0
  0
LINE
  5
6D9
100
AcDbEntity
  8
0
370
        15
  6
Continuous
 62
         7
100
AcDbLine
 10
287.7882952902
 20
85.8877574933
 30
0.0
 11
289.1325837896
 21
91.7352256179
 31
0.0
  0
LINE
  5
6DA
100
AcDbEntity
  8
0
370
         0
  6
Continuous
 62
         7
100
AcDbLine
 10
232.2493269233
 20
108.9165946067
 30
0.0
 11
228.0979251178
 21
104.7651948812
 31
0.0
  0
LINE
  5
6DB
100
AcDbEntity
  8
0
370
         0
  6
Continuous
 62
         7
100
AcDbLine
 10
235.9001561691
 20
108.077296698
 30
0.0
 11
227.5572768859
 21
99.7344110572
 31
0.0
  0
LINE
  5
6DC
100
AcDbEntity
  8
0
370
         0
  6
Continuous
 62
         7
100
AcDbLine
 10
239.5509854148
 20
107.2379987893
 30
0.0
 11
231.2081061317
 21
98.8951131485
 31
0.0
  0
LINE
  5
6DD
100
AcDbEntity
  8
0
370
         0
  6
Continuous
 62
         7
100
AcDbLine
 10
243.2018181989
 20
106.3987000671
 30
0.0
 11
234.8589353774
 21
98.0558152398
 31
0.0
  0
LINE
  5
6DE
100
AcDbEntity
  8
0
370
         0
  6
Continuous
 62
         7
100
AcDbLine
 10
246.8526474193
 20
105.5594021642
 30
0.0
 11
238.5097646232
 21
97.216517331
 31
0.0
  0
LINE
  5
6DF
100
AcDbEntity
  8
0
370
         0
  6
Continuous
 62
         7
100
AcDbLine
 10
250.503476665
 20
104.7201042555
 30
0.0
 11
242.160593869
 21
96.3772194223
 31
0.0
  0
LINE
  5
6E0
100
AcDbEntity
  8
0
370
         0
  6
Continuous
 62
         7
100
AcDbLine
 10
254.1543094364
 20
103.8808055363
 30
0.0
 11
245.8114231148
 21
95.5379215136
 31
0.0
  0
LINE
  5
6E1
100
AcDbEntity
  8
0
370
         0
  6
Continuous
 62
         7
100
AcDbLine
 10
257.8051386695
 20
103.0415076305
 30
0.0
 11
249.4622523383
 21
94.69862361
 31
0.0
  0
LINE
  5
6E2
100
AcDbEntity
  8
0
370
         0
  6
Continuous
 62
         7
100
AcDbLine
 10
261.4559679153
 20
102.2022097217
 30
0.0
 11
253.1130851192
 21
93.8593248885
 31
0.0
  0
LINE
  5
6E3
100
AcDbEntity
  8
0
370
         0
  6
Continuous
 62
         7
100
AcDbLine
 10
257.5701494468
 20
93.8262613941
 30
0.0
 11
256.7639143395
 21
93.0200269857
 31
0.0
  0
LINE
  5
6E4
100
AcDbEntity
  8
0
370
         0
  6
Continuous
 62
         7
100
AcDbLine
 10
265.106797161
 20
101.362911813
 30
0.0
 11
261.7696453648
 21
98.0257572891
 31
0.0
  0
LINE
  5
6E5
100
AcDbEntity
  8
0
370
         0
  6
Continuous
 62
         7
100
AcDbLine
 10
268.757626356
 20
100.523613916
 30
0.0
 11
261.5593234231
 21
93.3253084392
 31
0.0
  0
LINE
  5
6E6
100
AcDbEntity
  8
0
370
         0
  6
Continuous
 62
         7
100
AcDbLine
 10
269.2125743924
 20
96.4884329074
 30
0.0
 11
264.0655728311
 21
91.3414311682
 31
0.0
  0
LINE
  5
6E7
100
AcDbEntity
  8
0
370
         0
  6
Continuous
 62
         7
100
AcDbLine
 10
267.87218196
 20
90.6579121327
 30
0.0
 11
267.716402026
 21
90.5021332712
 31
0.0
  0
LINE
  5
6E8
100
AcDbEntity
  8
0
370
         0
  6
Continuous
 62
         7
100
AcDbLine
 10
279.7101176316
 20
98.0057193764
 30
0.0
 11
277.8571211616
 21
96.1527220727
 31
0.0
  0
LINE
  5
6E9
100
AcDbEntity
  8
0
370
         0
  6
Continuous
 62
         7
100
AcDbLine
 10
283.3609486465
 20
97.1664210609
 30
0.0
 11
276.5167287292
 21
90.322201298
 31
0.0
  0
LINE
  5
6EA
100
AcDbEntity
  8
0
370
         0
  6
Continuous
 62
         7
100
AcDbLine
 10
287.0117777906
 20
96.3271231756
 30
0.0
 11
278.6688933017
 21
87.9842387316
 31
0.0
  0
LINE
  5
6EB
100
AcDbEntity
  8
0
370
         0
  6
Continuous
 62
         7
100
AcDbLine
 10
290.6626080226
 20
95.4878250401
 30
0.0
 11
282.3197225474
 21
87.1449408228
 31
0.0
  0
LINE
  5
6EC
100
AcDbEntity
  8
0
370
         0
  6
Continuous
 62
         7
100
AcDbLine
 10
288.4458290652
 20
88.7809181351
 30
0.0
 11
285.9705535624
 21
86.3056425074
 31
0.0
  0
LINE
  5
6ED
100
AcDbEntity
  8
0
370
         0
  6
Continuous
 62
         7
100
AcDbLine
 10
294.3134380513
 20
94.6485269514
 30
0.0
 11
290.9762837031
 21
91.3113730142
 31
0.0
  0
LINE
  5
6EE
100
AcDbEntity
  8
0
370
         0
  6
Continuous
 62
         7
100
AcDbLine
 10
297.9642678411
 20
93.8092289176
 30
0.0
 11
293.326138668
 21
89.1710998713
 31
0.0
  0
LINE
  5
6EF
100
AcDbEntity
  8
0
370
         0
  6
Continuous
 62
         7
100
AcDbLine
 10
297.4702692495
 20
88.8251025796
 30
0.0
 11
293.2722129385
 21
84.6270464866
 31
0.0
  0
LINE
  5
6F0
100
AcDbEntity
  8
0
370
         0
  6
Continuous
 62
         7
100
AcDbLine
 10
301.6150976486
 20
92.9699308798
 30
0.0
 11
298.2779439638
 21
89.63277679
 31
0.0
  0
LINE
  5
6F1
100
AcDbEntity
  8
0
370
         0
  6
Continuous
 62
         7
100
AcDbLine
 10
305.2659278806
 20
92.1306327443
 30
0.0
 11
301.9287737713
 21
88.7934787521
 31
0.0
  0
LINE
  5
6F2
100
AcDbEntity
  8
0
370
         0
  6
Continuous
 62
         7
100
AcDbLine
 10
308.9167576881
 20
91.2913347064
 30
0.0
 11
305.5485581955
 21
87.9231352126
 31
0.0
  0
LINE
  5
6F3
100
AcDbEntity
  8
0
370
         0
  6
Continuous
 62
         7
100
AcDbLine
 10
307.3142116995
 20
85.198660688
 30
0.0
 11
304.2247030067
 21
82.1091522246
 31
0.0
  0
LINE
  5
6F4
100
AcDbEntity
  8
0
370
         0
  6
Continuous
 62
         7
100
AcDbLine
 10
312.5675879202
 20
90.452036571
 30
0.0
 11
309.2304338109
 21
87.1148825788
 31
0.0
  0
LINE
  5
6F5
100
AcDbEntity
  8
0
370
         0
  6
Continuous
 62
         7
100
AcDbLine
 10
316.2184179488
 20
89.6127384823
 30
0.0
 11
312.8812636006
 21
86.275584545
 31
0.0
  0
LINE
  5
6F6
100
AcDbEntity
  8
0
370
         0
  6
Continuous
 62
         7
100
AcDbLine
 10
319.8692479775
 20
88.7734403936
 30
0.0
 11
316.5320936293
 21
85.4362864563
 31
0.0
  0
LINE
  5
6F7
100
AcDbEntity
  8
0
370
         0
  6
Continuous
 62
         7
100
AcDbLine
 10
323.520077325
 20
87.9341424615
 30
0.0
 11
320.1829236579
 21
84.5969883676
 31
0.0
  0
LINE
  5
6F8
100
AcDbEntity
  8
0
370
         0
  6
Continuous
 62
         7
100
AcDbLine
 10
327.1709084416
 20
87.0948441226
 30
0.0
 11
323.8337530054
 21
83.7576904355
 31
0.0
  0
LINE
  5
6F9
100
AcDbEntity
  8
0
370
         0
  6
Continuous
 62
         7
100
AcDbLine
 10
330.8217373823
 20
86.255546284
 30
0.0
 11
327.484584122
 21
82.9183920967
 31
0.0
  0
LINE
  5
6FA
100
AcDbEntity
  8
0
370
         0
  6
Continuous
 62
         7
100
AcDbLine
 10
334.4725667298
 20
85.4162483519
 30
0.0
 11
331.1354130627
 21
82.0790942581
 31
0.0
  0
LINE
  5
6FB
100
AcDbEntity
  8
0
370
         0
  6
Continuous
 62
         7
100
AcDbLine
 10
338.1233960772
 20
84.5769504198
 30
0.0
 11
334.7862441793
 21
81.2397959193
 31
0.0
  0
LINE
  5
6FC
100
AcDbEntity
  8
0
370
         0
  6
Continuous
 62
         7
100
AcDbLine
 10
341.774228963
 20
83.7376516743
 30
0.0
 11
338.4370735268
 21
80.4004979872
 31
0.0
  0
LINE
  5
6FD
100
AcDbEntity
  8
0
370
         0
  6
Continuous
 62
         7
100
AcDbLine
 10
345.4250579037
 20
82.8983538357
 30
0.0
 11
342.0879028743
 21
79.5612000551
 31
0.0
  0
LINE
  5
6FE
100
AcDbEntity
  8
0
370
         0
  6
Continuous
 62
         7
100
AcDbLine
 10
349.0758872512
 20
82.0590559036
 30
0.0
 11
345.738731815
 21
78.7219022165
 31
0.0
  0
LINE
  5
6FF
100
AcDbEntity
  8
0
370
         0
  6
Continuous
 62
         7
100
AcDbLine
 10
352.7267165986
 20
81.2197579715
 30
0.0
 11
349.3895647007
 21
77.882603471
 31
0.0
  0
LINE
  5
700
100
AcDbEntity
  8
0
370
         0
  6
Continuous
 62
         7
100
AcDbLine
 10
356.3775490777
 20
80.3804593195
 30
0.0
 11
353.0403940482
 21
77.0433055389
 31
0.0
  0
LINE
  5
701
100
AcDbEntity
  8
0
370
         0
  6
Continuous
 62
         7
100
AcDbLine
 10
360.0283784251
 20
79.5411613874
 30
0.0
 11
356.6912229889
 21
76.2040077003
 31
0.0
  0
LINE
  5
702
100
AcDbEntity
  8
0
370
         0
  6
Continuous
 62
         7
100
AcDbLine
 10
363.6792077726
 20
78.7018634553
 30
0.0
 11
360.2656207047
 21
75.2882759019
 31
0.0
  0
LINE
  5
703
100
AcDbEntity
  8
0
370
         0
  6
Continuous
 62
         7
100
AcDbLine
 10
367.33003712
 20
77.8625655232
 30
0.0
 11
358.9871539935
 21
69.519680766
 31
0.0
  0
LINE
  5
704
100
AcDbEntity
  8
0
370
         0
  6
Continuous
 62
         7
100
AcDbLine
 10
370.9808660608
 20
77.0232676846
 30
0.0
 11
362.637983341
 21
68.6803828339
 31
0.0
  0
LINE
  5
705
100
AcDbEntity
  8
0
370
         0
  6
Continuous
 62
         7
100
AcDbLine
 10
374.6316954082
 20
76.1839697525
 30
0.0
 11
366.2888162267
 21
67.8410840883
 31
0.0
  0
LINE
  5
706
100
AcDbEntity
  8
0
370
         0
  6
Continuous
 62
         7
100
AcDbLine
 10
378.2825247557
 20
75.3446718204
 30
0.0
 11
369.9396455742
 21
67.0017861562
 31
0.0
  0
LINE
  5
707
100
AcDbEntity
  8
0
370
         0
  6
Continuous
 62
         7
100
AcDbLine
 10
378.2139387583
 20
70.785950987
 30
0.0
 11
373.5904745149
 21
66.1624883176
 31
0.0
  0
LINE
  5
708
100
AcDbEntity
  8
0
370
        15
  6
Continuous
 62
         7
100
AcDbLine
 10
296.3428816185
 20
83.9211230845
 30
0.0
 11
297.6871701179
 21
89.7685912092
 31
0.0
  0
LINE
  5
709
100
AcDbEntity
  8
0
370
        15
  6
Continuous
 62
         7
100
AcDbLine
 10
296.3428816185
 20
83.9211230845
 30
0.0
 11
292.3312269134
 21
84.8433720252
 31
0.0
  0
LINE
  5
70A
100
AcDbEntity
  8
0
370
        15
  6
Continuous
 62
         7
100
AcDbLine
 10
293.6755154128
 20
90.6908401498
 30
0.0
 11
292.3312269134
 21
84.8433720252
 31
0.0
  0
LINE
  5
70B
100
AcDbEntity
  8
0
370
        15
  6
Continuous
 62
         7
100
AcDbLine
 10
289.1253825037
 20
91.7368811389
 30
0.0
 11
287.7810940043
 21
85.8894130143
 31
0.0
  0
LINE
  5
70C
100
AcDbEntity
  8
0
370
        15
  6
Continuous
 62
         7
100
AcDbLine
 10
287.7810940043
 20
85.8894130143
 30
0.0
 11
276.1142624573
 21
88.5715289555
 31
0.0
  0
LINE
  5
70D
100
AcDbEntity
  8
0
370
        15
  6
Continuous
 62
         7
100
AcDbLine
 10
278.3547433939
 20
98.317309617
 30
0.0
 11
276.1142624573
 21
88.5715289555
 31
0.0
  0
LINE
  5
70E
100
AcDbEntity
  8
0
370
        15
  6
Continuous
 62
         7
100
AcDbLine
 10
376.972308158
 20
65.3850304545
 30
0.0
 11
379.2127890946
 21
75.130811116
 31
0.0
  0
LINE
  5
70F
100
AcDbEntity
  8
0
370
        15
  6
Continuous
 62
         7
100
AcDbLine
 10
358.9418584017
 20
69.5300938784
 30
0.0
 11
360.2861469011
 21
75.377562003
 31
0.0
  0
LINE
  5
710
100
AcDbEntity
  8
0
370
        15
  6
Continuous
 62
         7
100
AcDbLine
 10
306.484524443
 20
81.5896364439
 30
0.0
 11
307.8288129424
 21
87.4371045685
 31
0.0
  0
LINE
  5
711
100
AcDbEntity
  8
0
370
        15
  6
Continuous
 62
         7
100
AcDbLine
 10
306.484524443
 20
81.5896364439
 30
0.0
 11
304.2126069571
 21
82.1119330145
 31
0.0
  0
LINE
  5
712
100
AcDbEntity
  8
0
370
        15
  6
Continuous
 62
         7
100
AcDbLine
 10
305.5568954565
 20
87.9594011391
 30
0.0
 11
304.2126069571
 21
82.1119330145
 31
0.0
  0
LINE
  5
713
100
AcDbEntity
  8
0
370
        15
  6
Continuous
 62
         7
100
AcDbLine
 10
289.1253825037
 20
91.7368811389
 30
0.0
 11
293.6755154128
 21
90.6908401498
 31
0.0
  0
LINE
  5
714
100
AcDbEntity
  8
0
370
        15
  6
Continuous
 62
         7
100
AcDbLine
 10
297.6871701179
 20
89.7685912092
 30
0.0
 11
305.5568954565
 21
87.9594011391
 31
0.0
  0
LINE
  5
715
100
AcDbEntity
  8
0
370
        15
  6
Continuous
 62
         7
100
AcDbLine
 10
307.8288129424
 20
87.4371045685
 30
0.0
 11
360.2861469011
 21
75.377562003
 31
0.0
  0
LINE
  5
716
100
AcDbEntity
  8
0
370
        15
  6
Continuous
 62
         7
100
AcDbLine
 10
376.972308158
 20
65.3850304545
 30
0.0
 11
358.9418584017
 21
69.5300938784
 31
0.0
  0
LINE
  5
717
100
AcDbEntity
  8
0
370
        15
  6
Continuous
 62
         7
100
AcDbLine
 10
379.2127890946
 20
75.130811116
 30
0.0
 11
278.3547433939
 21
98.317309617
 31
0.0
  0
LINE
  5
718
100
AcDbEntity
  8
0
370
        15
  6
Continuous
 62
         7
100
AcDbLine
 10
229.2127832786
 20
109.6146729224
 30
0.0
 11
226.9723023419
 21
99.8688922609
 31
0.0
  0
LINE
  5
719
100
AcDbEntity
  8
0
370
        15
  6
Continuous
 62
         7
100
AcDbLine
 10
267.8303475057
 20
90.475938071
 30
0.0
 11
270.0708284423
 21
100.2217187325
 31
0.0
  0
LINE
  5
71A
100
AcDbEntity
  8
0
370
        15
  6
Continuous
 62
         7
100
AcDbLine
 10
267.8303475057
 20
90.475938071
 30
0.0
 11
261.2519467053
 21
91.9882624398
 31
0.0
  0
LINE
  5
71B
100
AcDbEntity
  8
0
370
        15
  6
Continuous
 62
         7
100
AcDbLine
 10
261.2519467053
 20
91.9882624398
 30
0.0
 11
262.5962352046
 21
97.8357305644
 31
0.0
  0
LINE
  5
71C
100
AcDbEntity
  8
0
370
        15
  6
Continuous
 62
         7
100
AcDbLine
 10
258.6979237267
 20
98.7319227582
 30
0.0
 11
257.3536352273
 21
92.8844546336
 31
0.0
  0
LINE
  5
71D
100
AcDbEntity
  8
0
370
        15
  6
Continuous
 62
         7
100
AcDbLine
 10
258.6979237267
 20
98.7319227582
 30
0.0
 11
262.5962352046
 21
97.8357305644
 31
0.0
  0
LINE
  5
71E
100
AcDbEntity
  8
0
370
        15
  6
Continuous
 62
         7
100
AcDbLine
 10
257.3536352273
 20
92.8844546336
 30
0.0
 11
226.9723023419
 21
99.8688922609
 31
0.0
  0
LINE
  5
71F
100
AcDbEntity
  8
0
370
        15
  6
Continuous
 62
         7
100
AcDbLine
 10
270.0708284423
 20
100.2217187325
 30
0.0
 11
229.2127832786
 21
109.6146729224
 31
0.0
  0
LINE
  5
720
100
AcDbEntity
  8
0
370
        15
  6
Continuous
 62
         7
100
AcDbLine
 10
357.5354987997
 20
69.853405267
 30
0.0
 11
313.3399873332
 21
80.0136176056
 31
0.0
  0
LINE
  5
721
100
AcDbEntity
  8
0
370
        15
  6
Continuous
 62
         7
100
AcDbLine
 10
261.2519470609
 20
91.988262358
 30
0.0
 11
257.3536352273
 21
92.8844546336
 31
0.0
  0
LINE
  5
722
100
AcDbEntity
  8
0
370
        15
  6
Continuous
 62
         7
100
AcDbLine
 10
267.8303475057
 20
90.475938071
 30
0.0
 11
276.1142624573
 21
88.5715289555
 31
0.0
  0
LINE
  5
723
100
AcDbEntity
  8
0
370
        15
  6
Continuous
 62
         7
100
AcDbLine
 10
270.0708284423
 20
100.2217187325
 30
0.0
 11
278.3547433939
 21
98.317309617
 31
0.0
  0
LINE
  5
724
100
AcDbEntity
  8
0
370
        15
  6
Continuous
 62
         7
100
AcDbLine
 10
378.2521362897
 20
65.0908076897
 30
0.0
 11
380.4926172264
 21
74.8365883512
 31
0.0
  0
LINE
  5
725
100
AcDbEntity
  8
0
370
        15
  6
Continuous
 62
         7
100
AcDbLine
 10
378.2521362897
 20
65.0908076897
 30
0.0
 11
376.972308158
 21
65.3850304545
 31
0.0
  0
LINE
  5
726
100
AcDbEntity
  8
0
370
        15
  6
Continuous
 62
         7
100
AcDbLine
 10
380.4926172264
 20
74.8365883512
 30
0.0
 11
379.2127890946
 21
75.130811116
 31
0.0
  0
LINE
  5
727
100
AcDbEntity
  8
0
370
        15
  6
Continuous
 62
         7
100
AcDbLine
 10
287.7882952902
 20
85.8877574933
 30
0.0
 11
287.7810940043
 21
85.8894130143
 31
0.0
  0
LINE
  5
728
100
AcDbEntity
  8
0
370
        15
  6
Continuous
 62
         7
100
AcDbLine
 10
358.9418571466
 20
69.530094167
 30
0.0
 11
357.5354987997
 21
69.853405267
 31
0.0
  0
LINE
  5
729
100
AcDbEntity
  8
0
370
        15
  6
Continuous
 62
         7
100
AcDbLine
 10
313.3399873332
 20
80.0136176056
 30
0.0
 11
306.4845246466
 21
81.5896363971
 31
0.0
  0
LINE
  5
72A
100
AcDbEntity
  8
0
370
        15
  6
Continuous
 62
         7
100
AcDbLine
 10
304.2126070698
 20
82.1119329886
 30
0.0
 11
296.3428819604
 21
83.9211230059
 31
0.0
  0
LINE
  5
72B
100
AcDbEntity
  8
0
370
        15
  6
Continuous
 62
         7
100
AcDbLine
 10
292.331227159
 20
84.8433719688
 30
0.0
 11
287.7882957178
 21
85.887757395
 31
0.0
  0
DIMENSION
  5
737
100
AcDbEntity
  8
0
 62
       255
100
AcDbDimension
  2
*D22
 10
315.0922749757
 20
79.6107797591
 30
0.0
 11
313.1636650759
 21
71.2215947597
 31
0.0
 70
       160
 71
         5
 72
         1
 41
1.0
 42
0.0
  3
SLDDIMSTYLE5
100
AcDbAlignedDimension
 13
307.828813073
 23
87.4371047335
 33
0.0
 14
313.3399871841
 24
80.0136174105
 34
0.0
 50
-77.0530907354
100
AcDbRotatedDimension
  0
MTEXT
  5
738
100
AcDbEntity
  8
0
 62
         7
100
AcDbMText
 10
280.2037550947
 20
78.4216859653
 30
0.0
 40
3.5
 41
0.0
 71
         2
 72
         1
  1
A-A
  7
SLDTEXTSTYLE0
 73
         1
 44
1.0
  0
ENDSEC
  0
SECTION
  2
OBJECTS
  0
DICTIONARY
  5
19
100
AcDbDictionary
280
         0
281
         1
  3
ACAD_GROUP
350
1A
  3
ACAD_MLINESTYLE
350
1B
  3
ACAD_LAYOUT
350
1E
  3
ACAD_PLOTSETTINGS
350
22
  3
ACAD_PLOTSTYLENAME
350
1F
  3
ACAD_WIPEOUT_VARS
350
23
  0
DICTIONARY
  5
1A
102
{ACAD_REACTORS
330
19
102
}
100
AcDbDictionary
280
         0
281
         1
  0
DICTIONARY
  5
1B
102
{ACAD_REACTORS
330
19
102
}
100
AcDbDictionary
280
         0
281
         1
  3
Standard
350
1C
  0
MLINESTYLE
  5
1C
102
{ACAD_REACTORS
330
1B
102
}
100
AcDbMlineStyle
  2
Standard
 70
         0
  3

 62
         0
 51
90.0
 52
90.0
 71
         2
 49
0.5
 62
       256
  6
BYLAYER
 49
-0.5
 62
       256
  6
BYLAYER
  0
ACDBDICTIONARYWDFLT
  5
1F
102
{ACAD_REACTORS
330
19
102
}
100
AcDbDictionary
281
         1
  3
Normal
350
1D
100
AcDbDictionaryWithDefault
340
1D
  0
ACDBPLACEHOLDER
  5
1D
102
{ACAD_REACTORS
330
1F
102
}
  0
LAYOUT
  5
20
102
{ACAD_REACTORS
330
1E
102
}
100
AcDbPlotSettings
  1

  2

  4

  6

 40
0.0
 41
0.0
 42
0.0
 43
0.0
 44
0.0
 45
0.0
 46
0.0
 47
0.0
 48
0.0
 49
0.0
140
0.0
141
0.0
142
1.0
143
1.0
 70
      1024
 72
         0
 73
         0
 74
         0
  7

 75
         0
147
1.0
148
0.0
149
0.0
100
AcDbLayout
  1
Model
 70
         0
 71
         0
 10
0.0
 20
0.0
 11
0.0
 21
0.0
 12
0.0
 22
0.0
 32
0.0
 14
0.0
 24
0.0
 34
0.0
 15
0.0
 25
0.0
 35
0.0
146
0.0
 13
0.0
 23
0.0
 33
0.0
 16
0.0
 26
0.0
 36
0.0
 17
0.0
 27
0.0
 37
0.0
 76
         0
330
A
331
0
345
0
346
0
  0
LAYOUT
  5
21
102
{ACAD_REACTORS
330
1E
102
}
100
AcDbPlotSettings
  1

  2

  4

  6

 40
0.0
 41
0.0
 42
0.0
 43
0.0
 44
0.0
 45
0.0
 46
0.0
 47
0.0
 48
0.0
 49
0.0
140
0.0
141
0.0
142
1.0
143
1.0
 70
         0
 72
         0
 73
         0
 74
         0
  7

 75
         0
147
1.0
148
0.0
149
0.0
100
AcDbLayout
  1
Layout1
 70
         0
 71
         0
 10
0.0
 20
0.0
 11
0.0
 21
0.0
 12
0.0
 22
0.0
 32
0.0
 14
0.0
 24
0.0
 34
0.0
 15
0.0
 25
0.0
 35
0.0
146
0.0
 13
0.0
 23
0.0
 33
0.0
 16
0.0
 26
0.0
 36
0.0
 17
0.0
 27
0.0
 37
0.0
 76
         0
330
B
331
0
345
0
346
0
  0
DICTIONARY
  5
1E
102
{ACAD_REACTORS
330
19
102
}
100
AcDbDictionary
280
         0
281
         1
  3
Layout1
350
21
  3
Model
350
20
  0
DICTIONARY
  5
22
102
{ACAD_REACTORS
330
19
102
}
100
AcDbDictionary
280
         0
281
         1
  0
WIPEOUTVARIABLES
  5
23
100
AcDbWipeoutVariables
 70
         1
  0
ENDSEC
  0
EOF
