  0
SECTION
  2
HEADER
  9
$ACADVER
  1
AC1018
  9
$ACADMAINTVER
 70
    76
  9
$DWGCODEPAGE
  3
ANSI_1252
  9
$AUTHOR
  1
DOMI
  9
$CUSTOMPROPERTYTAG
  1
Responsable
  9
$CUSTOMPROPERTY
  1

  9
$CUSTOMPROPERTYTAG
  1
Société
  9
$CUSTOMPROPERTY
  1

  9
$CUSTOMPROPERTYTAG
  1
Catégorie
  9
$CUSTOMPROPERTY
  1

  9
$CUSTOMPROPERTYTAG
  1
Numéro de pièce
  9
$CUSTOMPROPERTY
  1
Support plongeur 2 
  9
$CUSTOMPROPERTYTAG
  1
Description
  9
$CUSTOMPROPERTY
  1

  9
$CUSTOMPROPERTYTAG
  1
Projet
  9
$CUSTOMPROPERTY
  1

  9
$CUSTOMPROPERTYTAG
  1
Concepteur
  9
$CUSTOMPROPERTY
  1
DOMI
  9
$CUSTOMPROPERTYTAG
  1
Ingénieur
  9
$CUSTOMPROPERTY
  1

  9
$CUSTOMPROPERTYTAG
  1
Responsable
  9
$CUSTOMPROPERTY
  1

  9
$CUSTOMPROPERTYTAG
  1
Centre de gestion
  9
$CUSTOMPROPERTY
  1

  9
$CUSTOMPROPERTYTAG
  1
Constructeur
  9
$CUSTOMPROPERTY
  1

  9
$CUSTOMPROPERTYTAG
  1
Etat utilisateur
  9
$CUSTOMPROPERTY
  1

  9
$CUSTOMPROPERTYTAG
  1
Etat de la conception
  9
$CUSTOMPROPERTY
  1
En cours
  9
$CUSTOMPROPERTYTAG
  1
Vérifié par
  9
$CUSTOMPROPERTY
  1

  9
$CUSTOMPROPERTYTAG
  1
Appr. pr conception par
  9
$CUSTOMPROPERTY
  1

  9
$CUSTOMPROPERTYTAG
  1
Appr. pr fabrication par
  9
$CUSTOMPROPERTY
  1

  9
$INSBASE
 10
0.0
 20
0.0
 30
0.0
  9
$EXTMIN
 10
0.0
 20
0.0
 30
0.0
  9
$EXTMAX
 10
594.0
 20
420.0
 30
0.0
  9
$LIMMIN
 10
0.0
 20
0.0
  9
$LIMMAX
 10
594.0
 20
420.0
  9
$ORTHOMODE
 70
     0
  9
$REGENMODE
 70
     1
  9
$FILLMODE
 70
     1
  9
$QTEXTMODE
 70
     0
  9
$MIRRTEXT
 70
     0
  9
$LTSCALE
 40
2.0
  9
$ATTMODE
 70
     1
  9
$TEXTSIZE
 40
0.2
  9
$TRACEWID
 40
0.05
  9
$TEXTSTYLE
  7
Standard
  9
$CLAYER
  8
0
  9
$CELTYPE
  6
ByLayer
  9
$CECOLOR
 62
   256
  9
$CELTSCALE
 40
1.0
  9
$DISPSILH
 70
     0
  9
$DIMSCALE
 40
1.0
  9
$DIMASZ
 40
1.799999999999999
  9
$DIMEXO
 40
0.0625
  9
$DIMDLI
 40
0.38
  9
$DIMRND
 40
0.0
  9
$DIMDLE
 40
0.0
  9
$DIMEXE
 40
0.18
  9
$DIMTP
 40
0.0
  9
$DIMTM
 40
0.0
  9
$DIMTXT
 40
0.3499999940395355
  9
$DIMCEN
 40
0.09
  9
$DIMTSZ
 40
0.0
  9
$DIMTOL
 70
     0
  9
$DIMLIM
 70
     0
  9
$DIMTIH
 70
     1
  9
$DIMTOH
 70
     1
  9
$DIMSE1
 70
     0
  9
$DIMSE2
 70
     0
  9
$DIMTAD
 70
     0
  9
$DIMZIN
 70
     0
  9
$DIMBLK
  1

  9
$DIMASO
 70
     1
  9
$DIMSHO
 70
     1
  9
$DIMPOST
  1

  9
$DIMAPOST
  1

  9
$DIMALT
 70
     0
  9
$DIMALTD
 70
     2
  9
$DIMALTF
 40
25.4
  9
$DIMLFAC
 40
1.0
  9
$DIMTOFL
 70
     0
  9
$DIMTVP
 40
0.0
  9
$DIMTIX
 70
     0
  9
$DIMSOXD
 70
     0
  9
$DIMSAH
 70
     0
  9
$DIMBLK1
  1

  9
$DIMBLK2
  1

  9
$DIMSTYLE
  2
Standard
  9
$DIMCLRD
 70
     0
  9
$DIMCLRE
 70
     0
  9
$DIMCLRT
 70
     0
  9
$DIMTFAC
 40
1.0
  9
$DIMGAP
 40
0.09
  9
$DIMJUST
 70
     0
  9
$DIMSD1
 70
     0
  9
$DIMSD2
 70
     0
  9
$DIMTOLJ
 70
     1
  9
$DIMTZIN
 70
     0
  9
$DIMALTZ
 70
     0
  9
$DIMALTTZ
 70
     0
  9
$DIMUPT
 70
     0
  9
$DIMDEC
 70
     4
  9
$DIMTDEC
 70
     4
  9
$DIMALTU
 70
     2
  9
$DIMALTTD
 70
     2
  9
$DIMTXSTY
  7
Standard
  9
$DIMAUNIT
 70
     0
  9
$DIMADEC
 70
     0
  9
$DIMALTRND
 40
0.0
  9
$DIMAZIN
 70
     0
  9
$DIMDSEP
 70
    46
  9
$DIMATFIT
 70
     3
  9
$DIMFRAC
 70
     0
  9
$DIMLDRBLK
  1

  9
$DIMLUNIT
 70
     2
  9
$DIMLWD
 70
    -2
  9
$DIMLWE
 70
    -2
  9
$DIMTMOVE
 70
     0
  9
$LUNITS
 70
     2
  9
$LUPREC
 70
     4
  9
$SKETCHINC
 40
0.1
  9
$FILLETRAD
 40
0.0
  9
$AUNITS
 70
     0
  9
$AUPREC
 70
     0
  9
$MENU
  1
.
  9
$ELEVATION
 40
0.0
  9
$PELEVATION
 40
0.0
  9
$THICKNESS
 40
0.0
  9
$LIMCHECK
 70
     0
  9
$CHAMFERA
 40
0.0
  9
$CHAMFERB
 40
0.0
  9
$CHAMFERC
 40
0.0
  9
$CHAMFERD
 40
0.0
  9
$SKPOLY
 70
     0
  9
$TDCREATE
 40
2459660.807895868
  9
$TDUCREATE
 40
2459660.766229202
  9
$TDUPDATE
 40
2459660.807895868
  9
$TDUUPDATE
 40
2459660.766229202
  9
$TDINDWG
 40
0.0000249537
  9
$TDUSRTIMER
 40
0.0000249537
  9
$USRTIMER
 70
     1
  9
$ANGBASE
 50
0.0
  9
$ANGDIR
 70
     0
  9
$PDMODE
 70
     0
  9
$PDSIZE
 40
0.0
  9
$PLINEWID
 40
0.0
  9
$SPLFRAME
 70
     0
  9
$SPLINETYPE
 70
     6
  9
$SPLINESEGS
 70
     8
  9
$HANDSEED
  5
7E8
  9
$SURFTAB1
 70
     6
  9
$SURFTAB2
 70
     6
  9
$SURFTYPE
 70
     6
  9
$SURFU
 70
     6
  9
$SURFV
 70
     6
  9
$UCSBASE
  2

  9
$UCSNAME
  2

  9
$UCSORG
 10
0.0
 20
0.0
 30
0.0
  9
$UCSXDIR
 10
1.0
 20
0.0
 30
0.0
  9
$UCSYDIR
 10
0.0
 20
1.0
 30
0.0
  9
$UCSORTHOREF
  2

  9
$UCSORTHOVIEW
 70
     0
  9
$UCSORGTOP
 10
0.0
 20
0.0
 30
0.0
  9
$UCSORGBOTTOM
 10
0.0
 20
0.0
 30
0.0
  9
$UCSORGLEFT
 10
0.0
 20
0.0
 30
0.0
  9
$UCSORGRIGHT
 10
0.0
 20
0.0
 30
0.0
  9
$UCSORGFRONT
 10
0.0
 20
0.0
 30
0.0
  9
$UCSORGBACK
 10
0.0
 20
0.0
 30
0.0
  9
$PUCSBASE
  2

  9
$PUCSNAME
  2

  9
$PUCSORG
 10
0.0
 20
0.0
 30
0.0
  9
$PUCSXDIR
 10
1.0
 20
0.0
 30
0.0
  9
$PUCSYDIR
 10
0.0
 20
1.0
 30
0.0
  9
$PUCSORTHOREF
  2

  9
$PUCSORTHOVIEW
 70
     0
  9
$PUCSORGTOP
 10
0.0
 20
0.0
 30
0.0
  9
$PUCSORGBOTTOM
 10
0.0
 20
0.0
 30
0.0
  9
$PUCSORGLEFT
 10
0.0
 20
0.0
 30
0.0
  9
$PUCSORGRIGHT
 10
0.0
 20
0.0
 30
0.0
  9
$PUCSORGFRONT
 10
0.0
 20
0.0
 30
0.0
  9
$PUCSORGBACK
 10
0.0
 20
0.0
 30
0.0
  9
$USERI1
 70
     0
  9
$USERI2
 70
     0
  9
$USERI3
 70
     0
  9
$USERI4
 70
     0
  9
$USERI5
 70
     0
  9
$USERR1
 40
0.0
  9
$USERR2
 40
0.0
  9
$USERR3
 40
0.0
  9
$USERR4
 40
0.0
  9
$USERR5
 40
0.0
  9
$WORLDVIEW
 70
     1
  9
$SHADEDGE
 70
     3
  9
$SHADEDIF
 70
    70
  9
$TILEMODE
 70
     1
  9
$MAXACTVP
 70
    64
  9
$PINSBASE
 10
0.0
 20
0.0
 30
0.0
  9
$PLIMCHECK
 70
     0
  9
$PEXTMIN
 10
0.0
 20
0.0
 30
0.0
  9
$PEXTMAX
 10
594.0
 20
420.0
 30
0.0
  9
$PLIMMIN
 10
0.0
 20
0.0
  9
$PLIMMAX
 10
594.0
 20
420.0
  9
$UNITMODE
 70
     0
  9
$VISRETAIN
 70
     1
  9
$PLINEGEN
 70
     0
  9
$PSLTSCALE
 70
     1
  9
$TREEDEPTH
 70
  3020
  9
$CMLSTYLE
  2
Standard
  9
$CMLJUST
 70
     0
  9
$CMLSCALE
 40
1.0
  9
$PROXYGRAPHICS
 70
     1
  9
$MEASUREMENT
 70
     1
  9
$CELWEIGHT
370
    -1
  9
$ENDCAPS
280
     0
  9
$JOINSTYLE
280
     0
  9
$LWDISPLAY
290
     0
  9
$INSUNITS
 70
     0
  9
$HYPERLINKBASE
  1

  9
$STYLESHEET
  1

  9
$XEDIT
290
     1
  9
$CEPSNTYPE
380
     0
  9
$PSTYLEMODE
290
     1
  9
$FINGERPRINTGUID
  2
{4C99C21E-2EAB-47BB-AABC-4200C9FB88FE}
  9
$VERSIONGUID
  2
{EDDA0672-CCA1-4C68-801D-05B10F83784B}
  9
$EXTNAMES
290
     1
  9
$PSVPSCALE
 40
0.0
  9
$OLESTARTUP
290
     0
  9
$SORTENTS
280
   127
  9
$INDEXCTL
280
     0
  9
$HIDETEXT
280
     1
  9
$XCLIPFRAME
290
     0
  9
$HALOGAP
280
     0
  9
$OBSCOLOR
 70
   257
  9
$OBSLTYPE
280
     0
  9
$INTERSECTIONDISPLAY
280
     0
  9
$INTERSECTIONCOLOR
 70
   257
  9
$DIMASSOC
280
     1
  9
$PROJECTNAME
  1

  0
ENDSEC
  0
SECTION
  2
CLASSES
  0
CLASS
  1
ACDBDICTIONARYWDFLT
  2
AcDbDictionaryWithDefault
  3
ObjectDBX Classes
 90
        0
 91
        1
280
     0
281
     0
  0
CLASS
  1
TABLESTYLE
  2
AcDbTableStyle
  3
ObjectDBX Classes
 90
     2047
 91
        1
280
     0
281
     0
  0
CLASS
  1
DICTIONARYVAR
  2
AcDbDictionaryVar
  3
ObjectDBX Classes
 90
        0
 91
        1
280
     0
281
     0
  0
ENDSEC
  0
SECTION
  2
TABLES
  0
TABLE
  2
VPORT
  5
8
330
0
100
AcDbSymbolTable
 70
     1
  0
VPORT
  5
13
330
8
100
AcDbSymbolTableRecord
100
AcDbViewportTableRecord
  2
*Active
 70
     0
 10
0.0
 20
0.0
 11
1.0
 21
1.0
 12
297.0
 22
210.0
 13
0.0
 23
0.0
 14
1.0
 24
1.0
 15
0.0
 25
0.0
 16
0.0
 26
0.0
 36
1.0
 17
0.0
 27
0.0
 37
0.0
 40
420.0
 41
1.414285714285714
 42
50.0
 43
0.0
 44
0.0
 50
0.0
 51
0.0
 71
     0
 72
   100
 73
     1
 74
     1
 75
     0
 76
     0
 77
     0
 78
     0
281
     0
 65
     1
110
0.0
120
0.0
130
0.0
111
1.0
121
0.0
131
0.0
112
0.0
122
1.0
132
0.0
 79
     0
146
0.0
  0
ENDTAB
  0
TABLE
  2
LTYPE
  5
5
330
0
100
AcDbSymbolTable
 70
    59
  0
LTYPE
  5
14
330
5
100
AcDbSymbolTableRecord
100
AcDbLinetypeTableRecord
  2
ByBlock
 70
     0
  3

 72
    65
 73
     0
 40
0.0
  0
LTYPE
  5
15
330
5
100
AcDbSymbolTableRecord
100
AcDbLinetypeTableRecord
  2
ByLayer
 70
     0
  3

 72
    65
 73
     0
 40
0.0
  0
LTYPE
  5
16
330
5
100
AcDbSymbolTableRecord
100
AcDbLinetypeTableRecord
  2
Continuous
 70
     0
  3
Solid line
 72
    65
 73
     0
 40
0.0
  0
LTYPE
  5
2C
330
5
100
AcDbSymbolTableRecord
100
AcDbLinetypeTableRecord
  2
Section_View_Lines
 70
     0
  3
Section View Lines
 72
    65
 73
     4
 40
0.8406
 49
0.6614
 74
     0
 49
-0.0827
 74
     0
 49
0.0138
 74
     0
 49
-0.0827
 74
     0
  0
LTYPE
  5
2D
330
5
100
AcDbSymbolTableRecord
100
AcDbLinetypeTableRecord
  2
CHAIN
 70
     0
  3
Chain ____ _ ____ _ ____ _ ____ _ ____ _ ____
 72
    65
 73
     4
 40
0.3543
 49
0.2362
 74
     0
 49
-0.0295
 74
     0
 49
0.0591
 74
     0
 49
-0.0295
 74
     0
  0
LTYPE
  5
2E
330
5
100
AcDbSymbolTableRecord
100
AcDbLinetypeTableRecord
  2
DASH_DOT
 70
     0
  3
Dash dot _._._._._._._._._._._._._._._.
 72
    65
 73
     4
 40
0.182
 49
0.1181
 74
     0
 49
-0.0295
 74
     0
 49
0.0049
 74
     0
 49
-0.0295
 74
     0
  0
LTYPE
  5
2F
330
5
100
AcDbSymbolTableRecord
100
AcDbLinetypeTableRecord
  2
DASH_DOUBLE_DOT
 70
     0
  3
Dash Double Dot __ __ . __ __ . __ __ . __ _
 72
    65
 73
     6
 40
0.2164
 49
0.1181
 74
     0
 49
-0.0295
 74
     0
 49
0.0049
 74
     0
 49
-0.0295
 74
     0
 49
0.0049
 74
     0
 49
-0.0295
 74
     0
  0
LTYPE
  5
30
330
5
100
AcDbSymbolTableRecord
100
AcDbLinetypeTableRecord
  2
DASH_TRIPLE_DOT
 70
     0
  3
Dash Triple-Dot _ . . . _ . . . _ . . . _
 72
    65
 73
     8
 40
0.2508
 49
0.1181
 74
     0
 49
-0.0295
 74
     0
 49
0.0049
 74
     0
 49
-0.0295
 74
     0
 49
0.0049
 74
     0
 49
-0.0295
 74
     0
 49
0.0049
 74
     0
 49
-0.0295
 74
     0
  0
LTYPE
  5
31
330
5
100
AcDbSymbolTableRecord
100
AcDbLinetypeTableRecord
  2
DASHED
 70
     0
  3
Dashed __ __ __ __ __ __ __ __ __ __ __ __ __ _
 72
    65
 73
     2
 40
0.2068
 49
0.1655
 74
     0
 49
-0.0413
 74
     0
  0
LTYPE
  5
32
330
5
100
AcDbSymbolTableRecord
100
AcDbLinetypeTableRecord
  2
DASHED_SPACE
 70
     0
  3
Dashed Space __ __ __ __ __ __ __ __ __ __ __ _
 72
    65
 73
     2
 40
0.2067
 49
0.1654
 74
     0
 49
-0.0413
 74
     0
  0
LTYPE
  5
33
330
5
100
AcDbSymbolTableRecord
100
AcDbLinetypeTableRecord
  2
DOTTED
 70
     0
  3
Dotted . . . . . . . . . . . . . . . . . . . . 
 72
    65
 73
     2
 40
0.0481
 49
0.0068
 74
     0
 49
-0.0413
 74
     0
  0
LTYPE
  5
34
330
5
100
AcDbSymbolTableRecord
100
AcDbLinetypeTableRecord
  2
DOUBLE_DASH_CHAIN
 70
     0
  3
Double Dash Chain ___ _ _ ___ _ _ ___ _ _ ___ _
 72
    65
 73
     6
 40
1.240299999999999
 49
0.6614
 74
     0
 49
-0.0827
 74
     0
 49
0.1654
 74
     0
 49
-0.0827
 74
     0
 49
0.1654
 74
     0
 49
-0.0827
 74
     0
  0
LTYPE
  5
35
330
5
100
AcDbSymbolTableRecord
100
AcDbLinetypeTableRecord
  2
DOUBLE_DASH_DOT
 70
     0
  3
Double Dash Dot __ __ . __ __ . __ __ . __ _
 72
    65
 73
     6
 40
0.3296
 49
0.1181
 74
     0
 49
-0.0295
 74
     0
 49
0.1181
 74
     0
 49
-0.0295
 74
     0
 49
0.0049
 74
     0
 49
-0.0295
 74
     0
  0
LTYPE
  5
36
330
5
100
AcDbSymbolTableRecord
100
AcDbLinetypeTableRecord
  2
DOUBLE_DASH_DOUBLE_DOT
 70
     0
  3
Double Dash Double Dot _ _ . . _ _ . . _ _
 72
    65
 73
     8
 40
0.364
 49
0.1181
 74
     0
 49
-0.0295
 74
     0
 49
0.1181
 74
     0
 49
-0.0295
 74
     0
 49
0.0049
 74
     0
 49
-0.0295
 74
     0
 49
0.0049
 74
     0
 49
-0.0295
 74
     0
  0
LTYPE
  5
37
330
5
100
AcDbSymbolTableRecord
100
AcDbLinetypeTableRecord
  2
DOUBLE_DASH_TRIPLE_DOT
 70
     0
  3
Double Dash Triple Dot __ __ . . . __ __ . . .
 72
    65
 73
    10
 40
0.3984
 49
0.1181
 74
     0
 49
-0.0295
 74
     0
 49
0.1181
 74
     0
 49
-0.0295
 74
     0
 49
0.0049
 74
     0
 49
-0.0295
 74
     0
 49
0.0049
 74
     0
 49
-0.0295
 74
     0
 49
0.0049
 74
     0
 49
-0.0295
 74
     0
  0
LTYPE
  5
38
330
5
100
AcDbSymbolTableRecord
100
AcDbLinetypeTableRecord
  2
LONG_DASH_DOTTED
 70
     0
  3
Long Dash Dotted ____ . ____ . ____ . ____ . _
 72
    65
 73
     4
 40
0.3001
 49
0.2362
 74
     0
 49
-0.0295
 74
     0
 49
0.0049
 74
     0
 49
-0.0295
 74
     0
  0
LTYPE
  5
39
330
5
100
AcDbSymbolTableRecord
100
AcDbLinetypeTableRecord
  2
LONG_DASH_DOUBLE_DOT
 70
     0
  3
Long Dash Double Dot ____ . . ____ . . ____ . .
 72
    65
 73
     6
 40
0.3345
 49
0.2362
 74
     0
 49
-0.0295
 74
     0
 49
0.0049
 74
     0
 49
-0.0295
 74
     0
 49
0.0049
 74
     0
 49
-0.0295
 74
     0
  0
LTYPE
  5
3A
330
5
100
AcDbSymbolTableRecord
100
AcDbLinetypeTableRecord
  2
LONG_DASH_TRIPLE_DOT
 70
     0
  3
Long Dash Triple Dot ____ ... ____ ... ____
 72
    65
 73
     8
 40
0.3689
 49
0.2362
 74
     0
 49
-0.0295
 74
     0
 49
0.0049
 74
     0
 49
-0.0295
 74
     0
 49
0.0049
 74
     0
 49
-0.0295
 74
     0
 49
0.0049
 74
     0
 49
-0.0295
 74
     0
  0
LTYPE
  5
3B
330
5
100
AcDbSymbolTableRecord
100
AcDbLinetypeTableRecord
  2
BORDER
 70
     0
  3
Border __ __ . __ __ . __ __ . __ __ . __ __ .
 72
    65
 73
     6
 40
44.45
 49
12.7
 74
     0
 49
-6.349999999999999
 74
     0
 49
12.7
 74
     0
 49
-6.349999999999999
 74
     0
 49
0.0
 74
     0
 49
-6.349999999999999
 74
     0
  0
LTYPE
  5
3C
330
5
100
AcDbSymbolTableRecord
100
AcDbLinetypeTableRecord
  2
BORDER2
 70
     0
  3
Border (.5x) __.__.__.__.__.__.__.__.__.__.__.
 72
    65
 73
     6
 40
22.225
 49
6.349999999999999
 74
     0
 49
-3.174999999999999
 74
     0
 49
6.349999999999999
 74
     0
 49
-3.174999999999999
 74
     0
 49
0.0
 74
     0
 49
-3.174999999999999
 74
     0
  0
LTYPE
  5
3D
330
5
100
AcDbSymbolTableRecord
100
AcDbLinetypeTableRecord
  2
BORDERX2
 70
     0
  3
Border (2x) ____  ____  .  ____  ____  .  ___
 72
    65
 73
     6
 40
88.9
 49
25.4
 74
     0
 49
-12.7
 74
     0
 49
25.4
 74
     0
 49
-12.7
 74
     0
 49
0.0
 74
     0
 49
-12.7
 74
     0
  0
LTYPE
  5
3E
330
5
100
AcDbSymbolTableRecord
100
AcDbLinetypeTableRecord
  2
CENTER
 70
     0
  3
Center ____ _ ____ _ ____ _ ____ _ ____ _ ____
 72
    65
 73
     4
 40
50.8
 49
31.75
 74
     0
 49
-6.349999999999999
 74
     0
 49
6.349999999999999
 74
     0
 49
-6.349999999999999
 74
     0
  0
LTYPE
  5
3F
330
5
100
AcDbSymbolTableRecord
100
AcDbLinetypeTableRecord
  2
CENTER2
 70
     0
  3
Center (.5x) ___ _ ___ _ ___ _ ___ _ ___ _ ___
 72
    65
 73
     4
 40
28.575
 49
19.05
 74
     0
 49
-3.174999999999999
 74
     0
 49
3.174999999999999
 74
     0
 49
-3.174999999999999
 74
     0
  0
LTYPE
  5
40
330
5
100
AcDbSymbolTableRecord
100
AcDbLinetypeTableRecord
  2
CENTERX2
 70
     0
  3
Center (2x) ________  __  ________  __  _____
 72
    65
 73
     4
 40
101.6
 49
63.5
 74
     0
 49
-12.7
 74
     0
 49
12.7
 74
     0
 49
-12.7
 74
     0
  0
LTYPE
  5
41
330
5
100
AcDbSymbolTableRecord
100
AcDbLinetypeTableRecord
  2
DASHDOT2
 70
     0
  3
Dash dot (.5x) _._._._._._._._._._._._._._._.
 72
    65
 73
     4
 40
12.7
 49
6.349999999999999
 74
     0
 49
-3.174999999999999
 74
     0
 49
0.0
 74
     0
 49
-3.174999999999999
 74
     0
  0
LTYPE
  5
42
330
5
100
AcDbSymbolTableRecord
100
AcDbLinetypeTableRecord
  2
DASHDOTX2
 70
     0
  3
Dash dot (2x) ____  .  ____  .  ____  .  ___
 72
    65
 73
     4
 40
50.8
 49
25.4
 74
     0
 49
-12.7
 74
     0
 49
0.0
 74
     0
 49
-12.7
 74
     0
  0
LTYPE
  5
43
330
5
100
AcDbSymbolTableRecord
100
AcDbLinetypeTableRecord
  2
DASHED2
 70
     0
  3
Dashed (.5x) _ _ _ _ _ _ _ _ _ _ _ _ _ _ _ _ _
 72
    65
 73
     2
 40
9.524999999999998
 49
6.349999999999999
 74
     0
 49
-3.174999999999999
 74
     0
  0
LTYPE
  5
44
330
5
100
AcDbSymbolTableRecord
100
AcDbLinetypeTableRecord
  2
DASHEDX2
 70
     0
  3
Dashed (2x) ____  ____  ____  ____  ____  ___
 72
    65
 73
     2
 40
38.1
 49
25.4
 74
     0
 49
-12.7
 74
     0
  0
LTYPE
  5
45
330
5
100
AcDbSymbolTableRecord
100
AcDbLinetypeTableRecord
  2
DIVIDE
 70
     0
  3
Divide ____ . . ____ . . ____ . . ____ . . ____
 72
    65
 73
     6
 40
31.75
 49
12.7
 74
     0
 49
-6.349999999999999
 74
     0
 49
0.0
 74
     0
 49
-6.349999999999999
 74
     0
 49
0.0
 74
     0
 49
-6.349999999999999
 74
     0
  0
LTYPE
  5
46
330
5
100
AcDbSymbolTableRecord
100
AcDbLinetypeTableRecord
  2
DIVIDE2
 70
     0
  3
Divide (.5x) __..__..__..__..__..__..__..__.._
 72
    65
 73
     6
 40
15.875
 49
6.349999999999999
 74
     0
 49
-3.174999999999999
 74
     0
 49
0.0
 74
     0
 49
-3.174999999999999
 74
     0
 49
0.0
 74
     0
 49
-3.174999999999999
 74
     0
  0
LTYPE
  5
47
330
5
100
AcDbSymbolTableRecord
100
AcDbLinetypeTableRecord
  2
DIVIDEX2
 70
     0
  3
Divide (2x) ________  .  .  ________  .  .  _
 72
    65
 73
     6
 40
63.49999999999999
 49
25.4
 74
     0
 49
-12.7
 74
     0
 49
0.0
 74
     0
 49
-12.7
 74
     0
 49
0.0
 74
     0
 49
-12.7
 74
     0
  0
LTYPE
  5
48
330
5
100
AcDbSymbolTableRecord
100
AcDbLinetypeTableRecord
  2
DOT
 70
     0
  3
Dot . . . . . . . . . . . . . . . . . . . . . .
 72
    65
 73
     2
 40
6.349999999999999
 49
0.0
 74
     0
 49
-6.349999999999999
 74
     0
  0
LTYPE
  5
49
330
5
100
AcDbSymbolTableRecord
100
AcDbLinetypeTableRecord
  2
DOT2
 70
     0
  3
Dot (.5x) .....................................
 72
    65
 73
     2
 40
3.174999999999999
 49
0.0
 74
     0
 49
-3.174999999999999
 74
     0
  0
LTYPE
  5
4A
330
5
100
AcDbSymbolTableRecord
100
AcDbLinetypeTableRecord
  2
DOTX2
 70
     0
  3
Dot (2x) .  .  .  .  .  .  .  .  .  .  .  .  . 
 72
    65
 73
     2
 40
12.7
 49
0.0
 74
     0
 49
-12.7
 74
     0
  0
LTYPE
  5
4B
330
5
100
AcDbSymbolTableRecord
100
AcDbLinetypeTableRecord
  2
HIDDEN
 70
     0
  3
Hidden __ __ __ __ __ __ __ __ __ __ __ __ __ _
 72
    65
 73
     2
 40
9.524999999999998
 49
6.349999999999999
 74
     0
 49
-3.174999999999999
 74
     0
  0
LTYPE
  5
4C
330
5
100
AcDbSymbolTableRecord
100
AcDbLinetypeTableRecord
  2
HIDDEN2
 70
     0
  3
Hidden (.5x) _ _ _ _ _ _ _ _ _ _ _ _ _ _ _ _ _
 72
    65
 73
     2
 40
4.762499999999999
 49
3.174999999999999
 74
     0
 49
-1.587499999999999
 74
     0
  0
LTYPE
  5
4D
330
5
100
AcDbSymbolTableRecord
100
AcDbLinetypeTableRecord
  2
HIDDENX2
 70
     0
  3
Hidden (2x) ____ ____ ____ ____ ____ ____ ____
 72
    65
 73
     2
 40
19.05
 49
12.7
 74
     0
 49
-6.349999999999999
 74
     0
  0
LTYPE
  5
4E
330
5
100
AcDbSymbolTableRecord
100
AcDbLinetypeTableRecord
  2
PHANTOM
 70
     0
  3
Phantom ______  __  __  ______  __  __  ______
 72
    65
 73
     6
 40
63.5
 49
31.75
 74
     0
 49
-6.349999999999999
 74
     0
 49
6.349999999999999
 74
     0
 49
-6.349999999999999
 74
     0
 49
6.349999999999999
 74
     0
 49
-6.349999999999999
 74
     0
  0
LTYPE
  5
4F
330
5
100
AcDbSymbolTableRecord
100
AcDbLinetypeTableRecord
  2
PHANTOM2
 70
     0
  3
Phantom (.5x) ___ _ _ ___ _ _ ___ _ _ ___ _ _
 72
    65
 73
     6
 40
31.75
 49
15.875
 74
     0
 49
-3.174999999999999
 74
     0
 49
3.174999999999999
 74
     0
 49
-3.174999999999999
 74
     0
 49
3.174999999999999
 74
     0
 49
-3.174999999999999
 74
     0
  0
LTYPE
  5
50
330
5
100
AcDbSymbolTableRecord
100
AcDbLinetypeTableRecord
  2
PHANTOMX2
 70
     0
  3
Phantom (2x) ____________    ____    ____   _
 72
    65
 73
     6
 40
127.0
 49
63.5
 74
     0
 49
-12.7
 74
     0
 49
12.7
 74
     0
 49
-12.7
 74
     0
 49
12.7
 74
     0
 49
-12.7
 74
     0
  0
LTYPE
  5
51
330
5
100
AcDbSymbolTableRecord
100
AcDbLinetypeTableRecord
  2
ACAD_ISO02W100
 70
     0
  3
ISO dash __ __ __ __ __ __ __ __ __ __ __ __ __
 72
    65
 73
     2
 40
15.0
 49
12.0
 74
     0
 49
-3.0
 74
     0
  0
LTYPE
  5
52
330
5
100
AcDbSymbolTableRecord
100
AcDbLinetypeTableRecord
  2
ACAD_ISO03W100
 70
     0
  3
ISO dash space __    __    __    __    __    __
 72
    65
 73
     2
 40
30.0
 49
12.0
 74
     0
 49
-18.0
 74
     0
  0
LTYPE
  5
53
330
5
100
AcDbSymbolTableRecord
100
AcDbLinetypeTableRecord
  2
ACAD_ISO04W100
 70
     0
  3
ISO long-dash dot ____ . ____ . ____ . ____ . _
 72
    65
 73
     4
 40
30.0
 49
24.0
 74
     0
 49
-3.0
 74
     0
 49
0.0
 74
     0
 49
-3.0
 74
     0
  0
LTYPE
  5
54
330
5
100
AcDbSymbolTableRecord
100
AcDbLinetypeTableRecord
  2
ACAD_ISO05W100
 70
     0
  3
ISO long-dash double-dot ____ .. ____ .. ____ .
 72
    65
 73
     6
 40
33.0
 49
24.0
 74
     0
 49
-3.0
 74
     0
 49
0.0
 74
     0
 49
-3.0
 74
     0
 49
0.0
 74
     0
 49
-3.0
 74
     0
  0
LTYPE
  5
55
330
5
100
AcDbSymbolTableRecord
100
AcDbLinetypeTableRecord
  2
ACAD_ISO06W100
 70
     0
  3
ISO long-dash triple-dot ____ ... ____ ... ____
 72
    65
 73
     8
 40
36.0
 49
24.0
 74
     0
 49
-3.0
 74
     0
 49
0.0
 74
     0
 49
-3.0
 74
     0
 49
0.0
 74
     0
 49
-3.0
 74
     0
 49
0.0
 74
     0
 49
-3.0
 74
     0
  0
LTYPE
  5
56
330
5
100
AcDbSymbolTableRecord
100
AcDbLinetypeTableRecord
  2
ACAD_ISO07W100
 70
     0
  3
ISO dot . . . . . . . . . . . . . . . . . . . .
 72
    65
 73
     2
 40
3.0
 49
0.0
 74
     0
 49
-3.0
 74
     0
  0
LTYPE
  5
57
330
5
100
AcDbSymbolTableRecord
100
AcDbLinetypeTableRecord
  2
ACAD_ISO08W100
 70
     0
  3
ISO long-dash short-dash ____ __ ____ __ ____ _
 72
    65
 73
     4
 40
36.0
 49
24.0
 74
     0
 49
-3.0
 74
     0
 49
6.0
 74
     0
 49
-3.0
 74
     0
  0
LTYPE
  5
58
330
5
100
AcDbSymbolTableRecord
100
AcDbLinetypeTableRecord
  2
ACAD_ISO09W100
 70
     0
  3
ISO long-dash double-short-dash ____ __ __ ____
 72
    65
 73
     6
 40
45.0
 49
24.0
 74
     0
 49
-3.0
 74
     0
 49
6.0
 74
     0
 49
-3.0
 74
     0
 49
6.0
 74
     0
 49
-3.0
 74
     0
  0
LTYPE
  5
59
330
5
100
AcDbSymbolTableRecord
100
AcDbLinetypeTableRecord
  2
ACAD_ISO10W100
 70
     0
  3
ISO dash dot __ . __ . __ . __ . __ . __ . __ .
 72
    65
 73
     4
 40
18.0
 49
12.0
 74
     0
 49
-3.0
 74
     0
 49
0.0
 74
     0
 49
-3.0
 74
     0
  0
LTYPE
  5
5A
330
5
100
AcDbSymbolTableRecord
100
AcDbLinetypeTableRecord
  2
ACAD_ISO11W100
 70
     0
  3
ISO double-dash dot __ __ . __ __ . __ __ . __ 
 72
    65
 73
     6
 40
33.0
 49
12.0
 74
     0
 49
-3.0
 74
     0
 49
12.0
 74
     0
 49
-3.0
 74
     0
 49
0.0
 74
     0
 49
-3.0
 74
     0
  0
LTYPE
  5
5B
330
5
100
AcDbSymbolTableRecord
100
AcDbLinetypeTableRecord
  2
ACAD_ISO12W100
 70
     0
  3
ISO dash double-dot __ . . __ . . __ . . __ . .
 72
    65
 73
     6
 40
21.0
 49
12.0
 74
     0
 49
-3.0
 74
     0
 49
0.0
 74
     0
 49
-3.0
 74
     0
 49
0.0
 74
     0
 49
-3.0
 74
     0
  0
LTYPE
  5
5C
330
5
100
AcDbSymbolTableRecord
100
AcDbLinetypeTableRecord
  2
ACAD_ISO13W100
 70
     0
  3
ISO double-dash double-dot __ __ . . __ __ . . 
 72
    65
 73
     8
 40
36.0
 49
12.0
 74
     0
 49
-3.0
 74
     0
 49
12.0
 74
     0
 49
-3.0
 74
     0
 49
0.0
 74
     0
 49
-3.0
 74
     0
 49
0.0
 74
     0
 49
-3.0
 74
     0
  0
LTYPE
  5
5D
330
5
100
AcDbSymbolTableRecord
100
AcDbLinetypeTableRecord
  2
ACAD_ISO14W100
 70
     0
  3
ISO dash triple-dot __ . . . __ . . . __ . . . 
 72
    65
 73
     8
 40
24.0
 49
12.0
 74
     0
 49
-3.0
 74
     0
 49
0.0
 74
     0
 49
-3.0
 74
     0
 49
0.0
 74
     0
 49
-3.0
 74
     0
 49
0.0
 74
     0
 49
-3.0
 74
     0
  0
LTYPE
  5
5E
330
5
100
AcDbSymbolTableRecord
100
AcDbLinetypeTableRecord
  2
ACAD_ISO15W100
 70
     0
  3
ISO double-dash triple-dot __ __ . . . __ __ . 
 72
    65
 73
    10
 40
39.0
 49
12.0
 74
     0
 49
-3.0
 74
     0
 49
12.0
 74
     0
 49
-3.0
 74
     0
 49
0.0
 74
     0
 49
-3.0
 74
     0
 49
0.0
 74
     0
 49
-3.0
 74
     0
 49
0.0
 74
     0
 49
-3.0
 74
     0
  0
LTYPE
  5
61
330
5
100
AcDbSymbolTableRecord
100
AcDbLinetypeTableRecord
  2
FENCELINE1
 70
     0
  3
Fenceline circle ----0-----0----0-----0----0---
 72
    65
 73
     4
 40
36.83
 49
6.349999999999999
 74
     0
 49
-2.54
 74
     4
 75
   133
340
60
 46
2.54
 50
0.0
 44
-2.54
 45
0.0
 49
-2.54
 74
     0
 49
25.4
 74
     0
  0
LTYPE
  5
62
330
5
100
AcDbSymbolTableRecord
100
AcDbLinetypeTableRecord
  2
FENCELINE2
 70
     0
  3
Fenceline square ----[]-----[]----[]-----[]----
 72
    65
 73
     4
 40
36.83
 49
6.349999999999999
 74
     0
 49
-2.54
 74
     4
 75
   132
340
60
 46
2.54
 50
0.0
 44
-2.54
 45
0.0
 49
-2.54
 74
     0
 49
25.4
 74
     0
  0
LTYPE
  5
63
330
5
100
AcDbSymbolTableRecord
100
AcDbLinetypeTableRecord
  2
TRACKS
 70
     0
  3
Tracks -|-|-|-|-|-|-|-|-|-|-|-|-|-|-|-|-|-|-|-|
 72
    65
 73
     2
 40
7.62
 49
3.81
 74
     4
 75
   130
340
60
 46
6.349999999999999
 50
0.0
 44
0.0
 45
0.0
 49
3.81
 74
     0
  0
LTYPE
  5
64
330
5
100
AcDbSymbolTableRecord
100
AcDbLinetypeTableRecord
  2
BATTING
 70
     0
  3
Batting SSSSSSSSSSSSSSSSSSSSSSSSSSSSSSSSSSSSSSS
 72
    65
 73
     4
 40
10.16254
 49
0.00254
 74
     0
 49
-2.54
 74
     4
 75
   134
340
60
 46
2.54
 50
0.0
 44
-2.54
 45
0.0
 49
-5.08
 74
     4
 75
   134
340
60
 46
2.54
 50
180.0
 44
2.54
 45
0.0
 49
-2.54
 74
     0
  0
LTYPE
  5
65
330
5
100
AcDbSymbolTableRecord
100
AcDbLinetypeTableRecord
  2
HOT_WATER_SUPPLY
 70
     0
  3
Hot water supply ---- HW ---- HW ---- HW ----
 72
    65
 73
     3
 40
22.86
 49
12.7
 74
     0
 49
-5.08
 74
     2
 75
     0
340
11
 46
2.54
 50
0.0
 44
-2.54
 45
-1.27
  9
HW
 49
-5.08
 74
     0
  0
LTYPE
  5
66
330
5
100
AcDbSymbolTableRecord
100
AcDbLinetypeTableRecord
  2
GAS_LINE
 70
     0
  3
Gas line ----GAS----GAS----GAS----GAS----GAS---
 72
    65
 73
     3
 40
24.13
 49
12.7
 74
     0
 49
-5.08
 74
     2
 75
     0
340
11
 46
2.54
 50
0.0
 44
-2.54
 45
-1.27
  9
GAS
 49
-6.349999999999999
 74
     0
  0
LTYPE
  5
67
330
5
100
AcDbSymbolTableRecord
100
AcDbLinetypeTableRecord
  2
ZIGZAG
 70
     0
  3
Zig zag /\/\/\/\/\/\/\/\/\/\/\/\/\/\/\/\/\/\/\/
 72
    65
 73
     4
 40
20.32254
 49
0.00254
 74
     0
 49
-5.08
 74
     4
 75
   131
340
60
 46
5.08
 50
0.0
 44
-5.08
 45
0.0
 49
-10.16
 74
     4
 75
   131
340
60
 46
5.08
 50
180.0
 44
5.08
 45
0.0
 49
-5.08
 74
     0
  0
ENDTAB
  0
TABLE
  2
LAYER
  5
2
330
0
100
AcDbSymbolTable
 70
   255
  0
LAYER
  5
10
330
2
100
AcDbSymbolTableRecord
100
AcDbLayerTableRecord
  2
0
 70
     0
 62
     7
  6
Continuous
370
    -3
390
F
  0
LAYER
  5
A2
330
2
100
AcDbSymbolTableRecord
100
AcDbLayerTableRecord
  2
Arêtes cachées(Norme legrand)
 70
     0
 62
     7
  6
Continuous
370
    25
390
F
  0
LAYER
  5
B0
330
2
100
AcDbSymbolTableRecord
100
AcDbLayerTableRecord
  2
Arêtes tangentes visibles(Norme legrand)
 70
     0
 62
     7
  6
Continuous
370
    50
390
F
  0
LAYER
  5
BE
330
2
100
AcDbSymbolTableRecord
100
AcDbLayerTableRecord
  2
Arêtes visibles(Norme legrand)
 70
     0
 62
     7
  6
Continuous
370
    50
390
F
  0
LAYER
  5
CD
330
2
100
AcDbSymbolTableRecord
100
AcDbLayerTableRecord
  2
Cotes(Norme legrand)
 70
     0
 62
     7
  6
Continuous
370
    18
390
F
  0
LAYER
  5
542
330
2
100
AcDbSymbolTableRecord
100
AcDbLayerTableRecord
  2
Defpoints
 70
     0
 62
     7
  6
Continuous
290
     0
370
    -3
390
F
  0
ENDTAB
  0
TABLE
  2
STYLE
  5
3
330
0
100
AcDbSymbolTable
 70
    50
  0
STYLE
  5
11
330
3
100
AcDbSymbolTableRecord
100
AcDbTextStyleTableRecord
  2
Standard
 70
     0
 40
0.0
 41
1.0
 50
0.0
 71
     0
 42
0.2
  3
ARIAL.TTF
  4

1001
ACAD
1000
Arial
1071
      256
  0
STYLE
  5
60
330
3
100
AcDbSymbolTableRecord
100
AcDbTextStyleTableRecord
  2

 70
     1
 40
0.0
 41
1.0
 50
0.0
 71
     0
 42
0.2
  3
ltypeshp.shx
  4

  0
STYLE
  5
165
330
3
100
AcDbSymbolTableRecord
100
AcDbTextStyleTableRecord
  2
Cadre_1
 70
     0
 40
0.0
 41
1.0
 50
0.0
 71
     0
 42
0.2
  3
Aigdt___.ttf
  4

1001
ACAD
1000
AIGDT
1071
      514
  0
STYLE
  5
166
330
3
100
AcDbSymbolTableRecord
100
AcDbTextStyleTableRecord
  2
Courant-ANSI
 70
     0
 40
0.0
 41
1.0
 50
0.0
 71
     0
 42
0.2
  3
ARIAL.TTF
  4

1001
ACAD
1000
Arial
1071
      256
  0
STYLE
  5
167
330
3
100
AcDbSymbolTableRecord
100
AcDbTextStyleTableRecord
  2
Courant-BSI
 70
     0
 40
0.0
 41
1.0
 50
0.0
 71
     0
 42
0.2
  3
ARIAL.TTF
  4

1001
ACAD
1000
Arial
1071
      256
  0
STYLE
  5
168
330
3
100
AcDbSymbolTableRecord
100
AcDbTextStyleTableRecord
  2
Courant-DIN
 70
     0
 40
0.0
 41
1.0
 50
0.0
 71
     0
 42
0.2
  3
ARIAL.TTF
  4

1001
ACAD
1000
Arial
1071
      256
  0
STYLE
  5
169
330
3
100
AcDbSymbolTableRecord
100
AcDbTextStyleTableRecord
  2
Courant-GB
 70
     0
 40
0.0
 41
1.0
 50
0.0
 71
     0
 42
0.2
  3
ARIAL.TTF
  4

1001
ACAD
1000
Arial
1071
      256
  0
STYLE
  5
16A
330
3
100
AcDbSymbolTableRecord
100
AcDbTextStyleTableRecord
  2
Courant-ISO
 70
     0
 40
0.0
 41
1.0
 50
0.0
 71
     0
 42
0.2
  3
ARIAL.TTF
  4

1001
ACAD
1000
Arial
1071
      256
  0
STYLE
  5
16B
330
3
100
AcDbSymbolTableRecord
100
AcDbTextStyleTableRecord
  2
Courant-ISO-Norme legrand
 70
     0
 40
0.0
 41
1.0
 50
0.0
 71
     0
 42
0.2
  3
ARIAL.TTF
  4

1001
ACAD
1000
Arial
1071
      256
  0
STYLE
  5
16C
330
3
100
AcDbSymbolTableRecord
100
AcDbTextStyleTableRecord
  2
Courant-ISO-Norme legrandDuCalque
 70
     0
 40
0.0
 41
1.0
 50
0.0
 71
     0
 42
0.2
  3
ARIAL.TTF
  4

1001
ACAD
1000
Arial
1071
      256
  0
STYLE
  5
16D
330
3
100
AcDbSymbolTableRecord
100
AcDbTextStyleTableRecord
  2
Courant-JIS
 70
     0
 40
0.0
 41
1.0
 50
0.0
 71
     0
 42
0.2
  3
ARIAL.TTF
  4

1001
ACAD
1000
Arial
1071
      256
  0
STYLE
  5
16E
330
3
100
AcDbSymbolTableRecord
100
AcDbTextStyleTableRecord
  2
ISOCP
 70
     0
 40
0.0
 41
1.0
 50
0.0
 71
     0
 42
0.2
  3
ARIAL.TTF
  4

1001
ACAD
1000
Arial
1071
      256
  0
STYLE
  5
16F
330
3
100
AcDbSymbolTableRecord
100
AcDbTextStyleTableRecord
  2
ISOCPDuCalque
 70
     0
 40
0.0
 41
1.0
 50
0.0
 71
     0
 42
0.2
  3
ARIAL.TTF
  4

1001
ACAD
1000
Arial
1071
      256
  0
STYLE
  5
170
330
3
100
AcDbSymbolTableRecord
100
AcDbTextStyleTableRecord
  2
ISOCPGrandTexte
 70
     0
 40
0.0
 41
1.0
 50
0.0
 71
     0
 42
0.2
  3
ARIAL.TTF
  4

1001
ACAD
1000
Arial
1071
      256
  0
STYLE
  5
171
330
3
100
AcDbSymbolTableRecord
100
AcDbTextStyleTableRecord
  2
ISOCPUSUEL1
 70
     0
 40
0.0
 41
1.0
 50
0.0
 71
     0
 42
0.2
  3
ARIAL.TTF
  4

1001
ACAD
1000
Arial
1071
      256
  0
STYLE
  5
172
330
3
100
AcDbSymbolTableRecord
100
AcDbTextStyleTableRecord
  2
MM-ANSI
 70
     0
 40
0.0
 41
1.0
 50
0.0
 71
     0
 42
0.2
  3
ARIAL.TTF
  4

1001
ACAD
1000
Arial
1071
      256
  0
STYLE
  5
173
330
3
100
AcDbSymbolTableRecord
100
AcDbTextStyleTableRecord
  2
PAR DEFAUT_ ANSI
 70
     0
 40
0.0
 41
1.0
 50
0.0
 71
     0
 42
0.2
  3
ARIAL.TTF
  4

1001
ACAD
1000
Arial
1071
      256
  0
STYLE
  5
174
330
3
100
AcDbSymbolTableRecord
100
AcDbTextStyleTableRecord
  2
PAR DEFAUT_ ANSIDuCalque
 70
     0
 40
0.0
 41
1.0
 50
0.0
 71
     0
 42
0.2
  3
ARIAL.TTF
  4

1001
ACAD
1000
Arial
1071
      256
  0
STYLE
  5
175
330
3
100
AcDbSymbolTableRecord
100
AcDbTextStyleTableRecord
  2
PAR DEFAUT_ ANSIGrandTexte
 70
     0
 40
0.0
 41
1.0
 50
0.0
 71
     0
 42
0.2
  3
ARIAL.TTF
  4

1001
ACAD
1000
Arial
1071
      256
  0
STYLE
  5
176
330
3
100
AcDbSymbolTableRecord
100
AcDbTextStyleTableRecord
  2
PAR DEFAUT_ BSI
 70
     0
 40
0.0
 41
1.0
 50
0.0
 71
     0
 42
0.2
  3
ARIAL.TTF
  4

1001
ACAD
1000
Arial
1071
      256
  0
STYLE
  5
177
330
3
100
AcDbSymbolTableRecord
100
AcDbTextStyleTableRecord
  2
PAR DEFAUT_ BSIDuCalque
 70
     0
 40
0.0
 41
1.0
 50
0.0
 71
     0
 42
0.2
  3
ARIAL.TTF
  4

1001
ACAD
1000
Arial
1071
      256
  0
STYLE
  5
178
330
3
100
AcDbSymbolTableRecord
100
AcDbTextStyleTableRecord
  2
PAR DEFAUT_ BSIGrandTexte
 70
     0
 40
0.0
 41
1.0
 50
0.0
 71
     0
 42
0.2
  3
ARIAL.TTF
  4

1001
ACAD
1000
Arial
1071
      256
  0
STYLE
  5
179
330
3
100
AcDbSymbolTableRecord
100
AcDbTextStyleTableRecord
  2
PAR DEFAUT_ DIN
 70
     0
 40
0.0
 41
1.0
 50
0.0
 71
     0
 42
0.2
  3
ARIAL.TTF
  4

1001
ACAD
1000
Arial
1071
      256
  0
STYLE
  5
17A
330
3
100
AcDbSymbolTableRecord
100
AcDbTextStyleTableRecord
  2
PAR DEFAUT_ DINDuCalque
 70
     0
 40
0.0
 41
1.0
 50
0.0
 71
     0
 42
0.2
  3
ARIAL.TTF
  4

1001
ACAD
1000
Arial
1071
      256
  0
STYLE
  5
17B
330
3
100
AcDbSymbolTableRecord
100
AcDbTextStyleTableRecord
  2
PAR DEFAUT_ DINGrandTexte
 70
     0
 40
0.0
 41
1.0
 50
0.0
 71
     0
 42
0.2
  3
ARIAL.TTF
  4

1001
ACAD
1000
Arial
1071
      256
  0
STYLE
  5
17C
330
3
100
AcDbSymbolTableRecord
100
AcDbTextStyleTableRecord
  2
PAR DEFAUT_ GB
 70
     0
 40
0.0
 41
1.0
 50
0.0
 71
     0
 42
0.2
  3
ARIAL.TTF
  4

1001
ACAD
1000
Arial
1071
      256
  0
STYLE
  5
17D
330
3
100
AcDbSymbolTableRecord
100
AcDbTextStyleTableRecord
  2
PAR DEFAUT_ GBDuCalque
 70
     0
 40
0.0
 41
1.0
 50
0.0
 71
     0
 42
0.2
  3
ARIAL.TTF
  4

1001
ACAD
1000
Arial
1071
      256
  0
STYLE
  5
17E
330
3
100
AcDbSymbolTableRecord
100
AcDbTextStyleTableRecord
  2
PAR DEFAUT_ GBGrandTexte
 70
     0
 40
0.0
 41
1.0
 50
0.0
 71
     0
 42
0.2
  3
ARIAL.TTF
  4

1001
ACAD
1000
Arial
1071
      256
  0
STYLE
  5
17F
330
3
100
AcDbSymbolTableRecord
100
AcDbTextStyleTableRecord
  2
PAR DEFAUT_ ISO
 70
     0
 40
0.0
 41
1.0
 50
0.0
 71
     0
 42
0.2
  3
ARIAL.TTF
  4

1001
ACAD
1000
Arial
1071
      256
  0
STYLE
  5
180
330
3
100
AcDbSymbolTableRecord
100
AcDbTextStyleTableRecord
  2
PAR DEFAUT_ ISODuCalque
 70
     0
 40
0.0
 41
1.0
 50
0.0
 71
     0
 42
0.2
  3
ARIAL.TTF
  4

1001
ACAD
1000
Arial
1071
      256
  0
STYLE
  5
181
330
3
100
AcDbSymbolTableRecord
100
AcDbTextStyleTableRecord
  2
PAR DEFAUT_ ISOGrandTexte
 70
     0
 40
0.0
 41
1.0
 50
0.0
 71
     0
 42
0.2
  3
ARIAL.TTF
  4

1001
ACAD
1000
Arial
1071
      256
  0
STYLE
  5
182
330
3
100
AcDbSymbolTableRecord
100
AcDbTextStyleTableRecord
  2
PAR DEFAUT_ JIS
 70
     0
 40
0.0
 41
1.0
 50
0.0
 71
     0
 42
0.2
  3
ARIAL.TTF
  4

1001
ACAD
1000
Arial
1071
      256
  0
STYLE
  5
183
330
3
100
AcDbSymbolTableRecord
100
AcDbTextStyleTableRecord
  2
PAR DEFAUT_ JISDuCalque
 70
     0
 40
0.0
 41
1.0
 50
0.0
 71
     0
 42
0.2
  3
ARIAL.TTF
  4

1001
ACAD
1000
Arial
1071
      256
  0
STYLE
  5
184
330
3
100
AcDbSymbolTableRecord
100
AcDbTextStyleTableRecord
  2
PAR DEFAUT_ JISGrandTexte
 70
     0
 40
0.0
 41
1.0
 50
0.0
 71
     0
 42
0.2
  3
ARIAL.TTF
  4

1001
ACAD
1000
Arial
1071
      256
  0
STYLE
  5
185
330
3
100
AcDbSymbolTableRecord
100
AcDbTextStyleTableRecord
  2
PAR DEFAUT_ Norme legrand
 70
     0
 40
0.0
 41
1.0
 50
0.0
 71
     0
 42
0.2
  3
ARIAL.TTF
  4

1001
ACAD
1000
Arial
1071
      256
  0
STYLE
  5
186
330
3
100
AcDbSymbolTableRecord
100
AcDbTextStyleTableRecord
  2
Reperage
 70
     0
 40
0.0
 41
1.0
 50
0.0
 71
     0
 42
0.2
  3
ARIAL.TTF
  4

1001
ACAD
1000
Arial
1071
      256
  0
STYLE
  5
187
330
3
100
AcDbSymbolTableRecord
100
AcDbTextStyleTableRecord
  2
STANDARD_31
 70
     0
 40
0.0
 41
1.0
 50
0.0
 71
     0
 42
0.2
  3
ARIAL.TTF
  4

1001
ACAD
1000
Arial
1071
      256
  0
STYLE
  5
188
330
3
100
AcDbSymbolTableRecord
100
AcDbTextStyleTableRecord
  2
STANDARD_38
 70
     0
 40
0.0
 41
1.0
 50
0.0
 71
     0
 42
0.2
  3
ARIAL.TTF
  4

1001
ACAD
1000
Arial
1071
      256
  0
STYLE
  5
189
330
3
100
AcDbSymbolTableRecord
100
AcDbTextStyleTableRecord
  2
STANDARD_42
 70
     0
 40
0.0
 41
1.0
 50
0.0
 71
     0
 42
0.2
  3
ARIAL.TTF
  4

1001
ACAD
1000
Arial
1071
      256
  0
STYLE
  5
18A
330
3
100
AcDbSymbolTableRecord
100
AcDbTextStyleTableRecord
  2
STANDARD_46
 70
     0
 40
0.0
 41
1.0
 50
0.0
 71
     0
 42
0.2
  3
ARIAL.TTF
  4

1001
ACAD
1000
Arial
1071
      256
  0
STYLE
  5
18B
330
3
100
AcDbSymbolTableRecord
100
AcDbTextStyleTableRecord
  2
style legrand
 70
     0
 40
0.0
 41
1.0
 50
0.0
 71
     0
 42
0.2
  3
ARIAL.TTF
  4

1001
ACAD
1000
Arial
1071
      256
  0
STYLE
  5
18C
330
3
100
AcDbSymbolTableRecord
100
AcDbTextStyleTableRecord
  2
Texte de libellé (ANSI)
 70
     0
 40
0.0
 41
1.0
 50
0.0
 71
     0
 42
0.2
  3
TAHOMA.TTF
  4

1001
ACAD
1000
Tahoma
1071
      256
  0
STYLE
  5
18D
330
3
100
AcDbSymbolTableRecord
100
AcDbTextStyleTableRecord
  2
Texte de libellé (DIN)
 70
     0
 40
0.0
 41
1.0
 50
0.0
 71
     0
 42
0.2
  3
isocpeur.ttf
  4

1001
ACAD
1000
ISOCPEUR
1071
      256
  0
STYLE
  5
18E
330
3
100
AcDbSymbolTableRecord
100
AcDbTextStyleTableRecord
  2
Texte de libellé (ISO)
 70
     0
 40
0.0
 41
1.0
 50
0.0
 71
     0
 42
0.2
  3
TAHOMA.TTF
  4

1001
ACAD
1000
Tahoma
1071
      256
  0
STYLE
  5
18F
330
3
100
AcDbSymbolTableRecord
100
AcDbTextStyleTableRecord
  2
Texte de libellé (JIS)
 70
     0
 40
0.0
 41
1.0
 50
0.0
 71
     0
 42
0.2
  3
TAHOMA.TTF
  4

1001
ACAD
1000
Tahoma
1071
      256
  0
STYLE
  5
190
330
3
100
AcDbSymbolTableRecord
100
AcDbTextStyleTableRecord
  2
Texte de note (ANSI)
 70
     0
 40
0.0
 41
1.0
 50
0.0
 71
     0
 42
0.2
  3
TAHOMA.TTF
  4

1001
ACAD
1000
Tahoma
1071
      256
  0
STYLE
  5
191
330
3
100
AcDbSymbolTableRecord
100
AcDbTextStyleTableRecord
  2
Texte de note (DIN)
 70
     0
 40
0.0
 41
1.0
 50
0.0
 71
     0
 42
0.2
  3
isocpeur.ttf
  4

1001
ACAD
1000
ISOCPEUR
1071
      256
  0
STYLE
  5
192
330
3
100
AcDbSymbolTableRecord
100
AcDbTextStyleTableRecord
  2
Texte de note (ISO)
 70
     0
 40
0.0
 41
1.0
 50
0.0
 71
     0
 42
0.2
  3
TAHOMA.TTF
  4

1001
ACAD
1000
Tahoma
1071
      256
  0
STYLE
  5
193
330
3
100
AcDbSymbolTableRecord
100
AcDbTextStyleTableRecord
  2
Texte de note (JIS)
 70
     0
 40
0.0
 41
1.0
 50
0.0
 71
     0
 42
0.2
  3
TAHOMA.TTF
  4

1001
ACAD
1000
Tahoma
1071
      256
  0
STYLE
  5
194
330
3
100
AcDbSymbolTableRecord
100
AcDbTextStyleTableRecord
  2
X.X grand espace & texte
 70
     0
 40
0.0
 41
1.0
 50
0.0
 71
     0
 42
0.2
  3
ARIAL.TTF
  4

1001
ACAD
1000
Arial
1071
      256
  0
ENDTAB
  0
TABLE
  2
VIEW
  5
6
330
0
100
AcDbSymbolTable
 70
     0
  0
ENDTAB
  0
TABLE
  2
UCS
  5
7
330
0
100
AcDbSymbolTable
 70
     0
  0
ENDTAB
  0
TABLE
  2
APPID
  5
9
330
0
100
AcDbSymbolTable
 70
     1
  0
APPID
  5
12
330
9
100
AcDbSymbolTableRecord
100
AcDbRegAppTableRecord
  2
ACAD
 70
     0
  0
ENDTAB
  0
TABLE
  2
DIMSTYLE
  5
A
330
0
100
AcDbSymbolTable
 70
   137
100
AcDbDimStyleTable
 71
     2
340
1F3
340
2B
  0
DIMSTYLE
105
2B
330
A
100
AcDbSymbolTableRecord
100
AcDbDimStyleTableRecord
  2
Standard
 70
     0
340
11
  0
DIMSTYLE
105
195
330
A
100
AcDbSymbolTableRecord
100
AcDbDimStyleTableRecord
  2
1_32 - FRACTION
 70
     0
 40
2.0
 41
2.5
 42
1.587499999999999
 43
6.0
 44
3.174999999999999
 45
0.00000001
 46
10.0
 73
     0
 78
    12
 79
     3
140
3.04800009727478
144
0.0393700787401575
147
0.8
171
     1
176
     7
177
     7
178
     7
271
     5
272
     2
274
     1
276
     2
277
     5
284
    12
286
    12
340
173
371
    25
372
    25
  0
DIMSTYLE
105
196
330
A
100
AcDbSymbolTableRecord
100
AcDbDimStyleTableRecord
  2
1_32 - FRACTION$7
 70
     0
 40
2.0
 41
2.5
 42
1.587499999999999
 43
6.0
 44
3.174999999999999
 45
0.00000001
 46
10.0
 73
     0
 78
    12
 79
     3
140
3.04800009727478
144
0.0393700787401575
147
0.8
171
     1
176
     7
177
     7
178
     7
271
     5
272
     2
274
     1
276
     2
277
     5
284
    12
286
    12
340
173
371
    25
372
    25
  0
DIMSTYLE
105
197
330
A
100
AcDbSymbolTableRecord
100
AcDbDimStyleTableRecord
  2
1_64 - FRACTION
 70
     0
 40
2.0
 41
2.5
 42
1.587499999999999
 43
6.0
 44
3.174999999999999
 45
0.00000001
 46
10.0
 73
     0
 78
    12
 79
     3
140
3.04800009727478
144
0.0393700787401575
147
0.8
171
     1
176
     7
177
     7
178
     7
271
     6
272
     2
274
     1
276
     2
277
     5
284
    12
286
    12
340
173
371
    25
372
    25
  0
DIMSTYLE
105
198
330
A
100
AcDbSymbolTableRecord
100
AcDbDimStyleTableRecord
  2
1_64 - FRACTION$7
 70
     0
 40
2.0
 41
2.5
 42
1.587499999999999
 43
6.0
 44
3.174999999999999
 45
0.00000001
 46
10.0
 73
     0
 78
    12
 79
     3
140
3.04800009727478
144
0.0393700787401575
147
0.8
171
     1
176
     7
177
     7
178
     7
271
     6
272
     2
274
     1
276
     2
277
     5
284
    12
286
    12
340
173
371
    25
372
    25
  0
DIMSTYLE
105
199
330
A
100
AcDbSymbolTableRecord
100
AcDbDimStyleTableRecord
  2
ANSI ALIGNEMENT
 70
     0
 40
2.0
 41
2.5
 42
1.587499999999999
 43
6.0
 44
3.174999999999999
 45
0.00000001
 46
10.0
 73
     0
 78
     4
 79
     1
140
3.04800009727478
144
0.0393700787401575
147
0.8
171
     1
176
     7
177
     7
178
     7
271
     2
272
     2
274
     1
284
     4
286
     4
340
173
371
    25
372
    25
  0
DIMSTYLE
105
19A
330
A
100
AcDbSymbolTableRecord
100
AcDbDimStyleTableRecord
  2
ANSI ALIGNEMENT$7
 70
     0
 40
2.0
 41
2.5
 42
1.587499999999999
 43
6.0
 44
3.174999999999999
 45
0.00000001
 46
10.0
 73
     0
 78
     4
 79
     1
140
3.04800009727478
144
0.0393700787401575
147
0.8
171
     1
176
     7
177
     7
178
     7
271
     2
272
     2
274
     1
284
     4
286
     4
340
173
371
    25
372
    25
  0
DIMSTYLE
105
19B
330
A
100
AcDbSymbolTableRecord
100
AcDbDimStyleTableRecord
  2
ANSI FRACTION-ALIGNEMEN
 70
     0
 40
2.0
 41
2.5
 42
1.587499999999999
 43
6.0
 44
3.174999999999999
 45
0.00000001
 46
10.0
 73
     0
 78
    12
 79
     3
140
3.04800009727478
144
0.0393700787401575
147
0.8
171
     1
176
     7
177
     7
178
     7
272
     2
274
     1
276
     2
277
     5
284
    12
286
    12
340
173
371
    25
372
    25
  0
DIMSTYLE
105
19C
330
A
100
AcDbSymbolTableRecord
100
AcDbDimStyleTableRecord
  2
ANSI FRACTION-ALIGNEMEN$7
 70
     0
 40
2.0
 41
2.5
 42
1.587499999999999
 43
6.0
 44
3.174999999999999
 45
0.00000001
 46
10.0
 73
     0
 78
    12
 79
     3
140
3.04800009727478
144
0.0393700787401575
147
0.8
171
     1
176
     7
177
     7
178
     7
272
     2
274
     1
276
     2
277
     5
284
    12
286
    12
340
173
371
    25
372
    25
  0
DIMSTYLE
105
19D
330
A
100
AcDbSymbolTableRecord
100
AcDbDimStyleTableRecord
  2
BSI - méthode 2
 70
     0
 40
2.0
 41
2.5
 42
0.5
 43
6.0
 44
3.0
 45
0.00000001
 46
10.0
 73
     0
 77
     1
 78
     8
 79
     2
140
3.5
143
0.03937
147
0.75
171
     3
176
     7
177
     7
178
     7
179
     2
271
     2
272
     2
274
     3
278
    44
284
     8
285
     8
286
     8
340
167
371
    25
372
    25
  0
DIMSTYLE
105
19E
330
A
100
AcDbSymbolTableRecord
100
AcDbDimStyleTableRecord
  2
BSI - méthode 2$7
 70
     0
 40
2.0
 41
2.5
 42
0.5
 43
6.0
 44
3.0
 45
0.00000001
 46
10.0
 73
     0
 77
     1
 78
     8
 79
     2
140
3.5
143
0.03937
147
0.75
171
     3
176
     7
177
     7
178
     7
179
     2
271
     2
272
     2
274
     3
278
    44
284
     8
285
     8
286
     8
340
167
371
    25
372
    25
  0
DIMSTYLE
105
19F
330
A
100
AcDbSymbolTableRecord
100
AcDbDimStyleTableRecord
  2
DEFAUT-ANSI FRACTION
 70
     0
 40
2.0
 41
2.5
 42
1.587499999999999
 43
6.0
 44
3.174999999999999
 45
0.00000001
 46
10.0
 78
    12
 79
     3
140
3.04800009727478
144
0.0393700787401575
147
0.8
171
     1
176
     7
177
     7
178
     7
272
     2
274
     1
276
     2
277
     5
284
    12
286
    12
340
173
371
    25
372
    25
  0
DIMSTYLE
105
1A0
330
A
100
AcDbSymbolTableRecord
100
AcDbDimStyleTableRecord
  2
DEFAUT-ANSI FRACTION$7
 70
     0
 40
2.0
 41
2.5
 42
1.587499999999999
 43
6.0
 44
3.174999999999999
 45
0.00000001
 46
10.0
 78
    12
 79
     3
140
3.04800009727478
144
0.0393700787401575
147
0.8
171
     1
176
     7
177
     7
178
     7
272
     2
274
     1
276
     2
277
     5
284
    12
286
    12
340
173
371
    25
372
    25
  0
DIMSTYLE
105
1A1
330
A
100
AcDbSymbolTableRecord
100
AcDbDimStyleTableRecord
  2
DEFAUT-DIN - méthode 2a
 70
     0
 40
2.0
 41
2.5
 42
0.0
 43
6.0
 44
3.174999999999999
 45
0.00000001
 46
10.0
 77
     1
 78
     8
 79
     2
140
3.5
143
0.03937
147
0.8
171
     3
176
     7
177
     7
178
     7
271
     2
272
     2
274
     3
278
    44
284
     8
286
     8
340
167
371
    25
372
    25
  0
DIMSTYLE
105
1A2
330
A
100
AcDbSymbolTableRecord
100
AcDbDimStyleTableRecord
  2
DEFAUT-DIN - méthode 2a$7
 70
     0
 40
2.0
 41
2.5
 42
0.0
 43
6.0
 44
3.174999999999999
 45
0.00000001
 46
10.0
 77
     1
 78
     8
 79
     2
140
3.5
143
0.03937
147
0.8
171
     3
176
     7
177
     7
178
     7
271
     2
272
     2
274
     3
278
    44
284
     8
286
     8
340
167
371
    25
372
    25
  0
DIMSTYLE
105
1A3
330
A
100
AcDbSymbolTableRecord
100
AcDbDimStyleTableRecord
  2
DEFAUT-DIN - méthode 2b
 70
     0
 40
2.0
 41
2.5
 42
0.0
 43
6.0
 44
3.174999999999999
 45
0.00000001
 46
10.0
 77
     1
 78
     8
 79
     2
140
3.5
143
0.03937
147
0.8
171
     3
176
     7
177
     7
178
     7
271
     2
272
     2
274
     3
278
    44
284
     8
286
     8
340
167
371
    25
372
    25
  0
DIMSTYLE
105
1A4
330
A
100
AcDbSymbolTableRecord
100
AcDbDimStyleTableRecord
  2
DEFAUT-DIN - méthode 2b$7
 70
     0
 40
2.0
 41
2.5
 42
0.0
 43
6.0
 44
3.174999999999999
 45
0.00000001
 46
10.0
 77
     1
 78
     8
 79
     2
140
3.5
143
0.03937
147
0.8
171
     3
176
     7
177
     7
178
     7
271
     2
272
     2
274
     3
278
    44
284
     8
286
     8
340
167
371
    25
372
    25
  0
DIMSTYLE
105
1A5
330
A
100
AcDbSymbolTableRecord
100
AcDbDimStyleTableRecord
  2
DEFAUT-ISO - méthode 1b
 70
     0
 40
2.0
 41
2.5
 42
0.0
 43
6.0
 44
3.174999999999999
 45
0.00000001
 46
10.0
 73
     0
 77
     1
 78
     8
 79
     2
140
3.5
143
0.03937
147
0.762
171
     3
176
     7
177
     7
178
     7
179
     2
271
     2
272
     2
274
     3
278
    44
284
     8
286
     8
340
167
371
    25
372
    25
  0
DIMSTYLE
105
1A6
330
A
100
AcDbSymbolTableRecord
100
AcDbDimStyleTableRecord
  2
DEFAUT-ISO - méthode 1b$7
 70
     0
 40
2.0
 41
2.5
 42
0.0
 43
6.0
 44
3.174999999999999
 45
0.00000001
 46
10.0
 73
     0
 77
     1
 78
     8
 79
     2
140
3.5
143
0.03937
147
0.762
171
     3
176
     7
177
     7
178
     7
179
     2
271
     2
272
     2
274
     3
278
    44
284
     8
286
     8
340
167
371
    25
372
    25
  0
DIMSTYLE
105
1A7
330
A
100
AcDbSymbolTableRecord
100
AcDbDimStyleTableRecord
  2
DEFAUT-ISO - méthode 1b-Norme legrand
 70
     0
 40
2.0
 41
2.5
 42
0.0
 43
6.0
 44
3.174999999999999
 45
0.00000001
 46
10.0
 73
     0
 77
     1
 78
     8
 79
     2
140
3.5
143
0.03937
147
0.762
171
     3
176
     7
177
     7
178
     7
179
     2
271
     2
272
     2
274
     3
278
    44
284
     8
286
     8
340
167
341
1A8
371
    25
372
    25
  0
DIMSTYLE
105
1AE
330
A
100
AcDbSymbolTableRecord
100
AcDbDimStyleTableRecord
  2
DEFAUT-ISO - méthode 1b-Norme legrand$7
 70
     0
 40
2.0
 41
2.5
 42
0.0
 43
6.0
 44
3.174999999999999
 45
0.00000001
 46
10.0
 73
     0
 77
     1
 78
     8
 79
     2
140
3.5
143
0.03937
147
0.762
171
     3
176
     7
177
     7
178
     7
179
     2
271
     2
272
     2
274
     3
278
    44
284
     8
286
     8
340
167
341
1A8
371
    15
372
    25
  0
DIMSTYLE
105
1AF
330
A
100
AcDbSymbolTableRecord
100
AcDbDimStyleTableRecord
  2
DEFAUT-ISO - méthode 2a
 70
     0
 40
2.0
 41
2.5
 42
0.0
 43
6.0
 44
3.174999999999999
 45
0.00000001
 46
10.0
 77
     1
 78
     8
 79
     2
140
3.5
143
0.03937
147
0.762
171
     3
176
     7
177
     7
178
     7
179
     2
271
     2
272
     2
274
     3
278
    44
284
     8
286
     8
340
167
371
    25
372
    25
  0
DIMSTYLE
105
1B0
330
A
100
AcDbSymbolTableRecord
100
AcDbDimStyleTableRecord
  2
DEFAUT-ISO - méthode 2a$7
 70
     0
 40
2.0
 41
2.5
 42
0.0
 43
6.0
 44
3.174999999999999
 45
0.00000001
 46
10.0
 77
     1
 78
     8
 79
     2
140
3.5
143
0.03937
147
0.762
171
     3
176
     7
177
     7
178
     7
179
     2
271
     2
272
     2
274
     3
278
    44
284
     8
286
     8
340
167
371
    25
372
    25
  0
DIMSTYLE
105
1B1
330
A
100
AcDbSymbolTableRecord
100
AcDbDimStyleTableRecord
  2
DEFAUT-ISO - méthode 2a-Norme legrand
 70
     0
 40
2.0
 41
2.5
 42
0.0
 43
6.0
 44
3.174999999999999
 45
0.00000001
 46
10.0
 77
     1
 78
     8
 79
     2
140
3.5
143
0.03937
147
0.762
171
     3
176
     7
177
     7
178
     7
179
     2
271
     2
272
     2
274
     3
278
    44
284
     8
286
     8
340
167
341
1A8
371
    25
372
    25
  0
DIMSTYLE
105
1B2
330
A
100
AcDbSymbolTableRecord
100
AcDbDimStyleTableRecord
  2
DEFAUT-ISO - méthode 2a-Norme legrand$7
 70
     0
 40
2.0
 41
2.5
 42
0.0
 43
6.0
 44
3.174999999999999
 45
0.00000001
 46
10.0
 77
     1
 78
     8
 79
     2
140
3.5
143
0.03937
147
0.762
171
     3
176
     7
177
     7
178
     7
179
     2
271
     2
272
     2
274
     3
278
    44
284
     8
286
     8
340
167
341
1A8
371
    15
372
    25
  0
DIMSTYLE
105
1B3
330
A
100
AcDbSymbolTableRecord
100
AcDbDimStyleTableRecord
  2
DEFAUT-ISO - méthode 2b
 70
     0
 40
2.0
 41
2.5
 42
0.0
 43
6.0
 44
3.174999999999999
 45
0.00000001
 46
10.0
 77
     1
 78
     8
 79
     2
140
3.5
143
0.03937
147
0.762
171
     3
176
     7
177
     7
178
     7
179
     2
271
     2
272
     2
274
     3
278
    44
284
     8
286
     8
340
167
371
    25
372
    25
  0
DIMSTYLE
105
1B4
330
A
100
AcDbSymbolTableRecord
100
AcDbDimStyleTableRecord
  2
DEFAUT-ISO - méthode 2b$7
 70
     0
 40
2.0
 41
2.5
 42
0.0
 43
6.0
 44
3.174999999999999
 45
0.00000001
 46
10.0
 77
     1
 78
     8
 79
     2
140
3.5
143
0.03937
147
0.762
171
     3
176
     7
177
     7
178
     7
179
     2
271
     2
272
     2
274
     3
278
    44
284
     8
286
     8
340
167
371
    25
372
    25
  0
DIMSTYLE
105
1B5
330
A
100
AcDbSymbolTableRecord
100
AcDbDimStyleTableRecord
  2
DEFAUT-ISO - méthode 2b-Norme legrand
 70
     0
 40
2.0
 41
2.5
 42
0.0
 43
6.0
 44
3.174999999999999
 45
0.00000001
 46
10.0
 77
     1
 78
     8
 79
     2
140
3.5
143
0.03937
147
0.762
171
     3
176
     7
177
     7
178
     7
179
     2
271
     2
272
     2
274
     3
278
    44
284
     8
286
     8
340
167
341
1A8
371
    25
372
    25
  0
DIMSTYLE
105
1B6
330
A
100
AcDbSymbolTableRecord
100
AcDbDimStyleTableRecord
  2
DEFAUT-ISO - méthode 2b-Norme legrand$7
 70
     0
 40
2.0
 41
2.5
 42
0.0
 43
6.0
 44
3.174999999999999
 45
0.00000001
 46
10.0
 77
     1
 78
     8
 79
     2
140
3.5
143
0.03937
147
0.762
171
     3
176
     7
177
     7
178
     7
179
     2
271
     2
272
     2
274
     3
278
    44
284
     8
286
     8
340
167
341
1A8
371
    15
372
    25
  0
DIMSTYLE
105
1B7
330
A
100
AcDbSymbolTableRecord
100
AcDbDimStyleTableRecord
  2
DEFAUT-JIS - méthode 1b
 70
     0
 40
2.0
 41
2.5
 42
0.0
 43
6.0
 44
3.174999999999999
 45
0.00000001
 46
10.0
 73
     0
 77
     1
 78
     8
 79
     2
140
4.5
143
0.03937
147
0.8
171
     3
176
     7
177
     7
178
     7
271
     2
272
     2
274
     3
284
     8
286
     8
340
16D
341
1B8
342
1B8
371
    25
372
    25
  0
DIMSTYLE
105
1BE
330
A
100
AcDbSymbolTableRecord
100
AcDbDimStyleTableRecord
  2
DEFAUT-JIS - méthode 1b$7
 70
     0
 40
2.0
 41
2.5
 42
0.0
 43
6.0
 44
3.174999999999999
 45
0.00000001
 46
10.0
 73
     0
 77
     1
 78
     8
 79
     2
140
4.5
143
0.03937
147
0.8
171
     3
176
     7
177
     7
178
     7
271
     2
272
     2
274
     3
284
     8
286
     8
340
16D
341
1B8
342
1B8
371
    25
372
    25
  0
DIMSTYLE
105
1BF
330
A
100
AcDbSymbolTableRecord
100
AcDbDimStyleTableRecord
  2
DEFAUT-JIS - méthode 2
 70
     0
 40
2.0
 41
2.5
 42
0.0
 43
6.0
 44
3.174999999999999
 45
0.00000001
 46
10.0
 77
     1
 78
     8
 79
     2
140
4.5
143
0.03937
147
0.8
171
     3
176
     7
177
     7
178
     7
271
     2
272
     2
274
     3
284
     8
286
     8
340
16D
341
1B8
342
1B8
371
    25
372
    25
  0
DIMSTYLE
105
1C0
330
A
100
AcDbSymbolTableRecord
100
AcDbDimStyleTableRecord
  2
DEFAUT-JIS - méthode 2$7
 70
     0
 40
2.0
 41
2.5
 42
0.0
 43
6.0
 44
3.174999999999999
 45
0.00000001
 46
10.0
 77
     1
 78
     8
 79
     2
140
4.5
143
0.03937
147
0.8
171
     3
176
     7
177
     7
178
     7
271
     2
272
     2
274
     3
284
     8
286
     8
340
16D
341
1B8
342
1B8
371
    25
372
    25
  0
DIMSTYLE
105
1C1
330
A
100
AcDbSymbolTableRecord
100
AcDbDimStyleTableRecord
  2
DIN - Autre
 70
     0
 40
2.0
 41
2.5
 42
0.0
 43
6.0
 44
3.174999999999999
 45
0.00000001
 46
10.0
 77
     1
 78
     8
 79
     2
140
3.5
143
0.03937
147
0.8
171
     3
176
     7
177
     7
178
     7
271
     2
272
     2
274
     3
278
    44
284
     8
286
     8
340
167
371
    25
372
    25
  0
DIMSTYLE
105
1C2
330
A
100
AcDbSymbolTableRecord
100
AcDbDimStyleTableRecord
  2
DIN - Autre$7
 70
     0
 40
2.0
 41
2.5
 42
0.0
 43
6.0
 44
3.174999999999999
 45
0.00000001
 46
10.0
 77
     1
 78
     8
 79
     2
140
3.5
143
0.03937
147
0.8
171
     3
176
     7
177
     7
178
     7
271
     2
272
     2
274
     3
278
    44
284
     8
286
     8
340
167
371
    25
372
    25
  0
DIMSTYLE
105
1C3
330
A
100
AcDbSymbolTableRecord
100
AcDbDimStyleTableRecord
  2
MM-ANSI
 70
     0
 40
2.0
 41
2.5
 42
1.587499999999999
 43
6.0
 44
3.174999999999999
 45
0.00000001
 46
10.0
 73
     0
 78
     8
 79
     2
140
3.04800009727478
143
1.0
147
1.6002
171
     1
176
     7
177
     7
178
     7
179
     1
271
     2
272
     2
274
     1
284
     8
286
     8
340
172
371
    25
372
    25
  0
DIMSTYLE
105
1C4
330
A
100
AcDbSymbolTableRecord
100
AcDbDimStyleTableRecord
  2
MM-ANSI$7
 70
     0
 40
2.0
 41
2.5
 42
1.587499999999999
 43
6.0
 44
3.174999999999999
 45
0.00000001
 46
10.0
 73
     0
 78
     8
 79
     2
140
3.04800009727478
143
1.0
147
1.6002
171
     1
176
     7
177
     7
178
     7
179
     1
271
     2
272
     2
274
     1
284
     8
286
     8
340
172
371
    25
372
    25
  0
DIMSTYLE
105
1C5
330
A
100
AcDbSymbolTableRecord
100
AcDbDimStyleTableRecord
  2
PAR DEFAUT_ ANSI
 70
     0
 40
2.0
 41
2.5
 42
1.587499999999999
 43
6.0
 44
3.174999999999999
 45
0.00000001
 46
10.0
140
3.04800009727478
144
0.0393700787401575
147
0.8
171
     1
176
     7
177
     7
178
     7
271
     2
272
     2
274
     1
340
173
371
    25
372
    25
  0
DIMSTYLE
105
1C6
330
A
100
AcDbSymbolTableRecord
100
AcDbDimStyleTableRecord
  2
PAR DEFAUT_ ANSI$7
 70
     0
 40
2.0
 41
2.5
 42
1.587499999999999
 43
6.0
 44
3.174999999999999
 45
0.00000001
 46
10.0
140
3.04800009727478
144
0.0393700787401575
147
0.8
171
     1
176
     7
177
     7
178
     7
271
     2
272
     2
274
     1
340
173
371
    25
372
    25
  0
DIMSTYLE
105
1C7
330
A
100
AcDbSymbolTableRecord
100
AcDbDimStyleTableRecord
  2
PAR DEFAUT_ ANSIGrandTexte
 70
     0
 40
2.0
 41
5.0
 42
1.587499999999999
 43
6.0
 44
3.174999999999999
 45
0.00000001
 46
10.0
 77
     1
140
4.57200002670288
144
0.0393700787401575
146
0.6666666840491819
147
0.8
171
     1
176
     7
177
     7
178
     7
271
     2
272
     2
274
     1
340
175
371
    25
372
    25
  0
DIMSTYLE
105
1C8
330
A
100
AcDbSymbolTableRecord
100
AcDbDimStyleTableRecord
  2
PAR DEFAUT_ ANSIGrandTexte$7
 70
     0
 40
2.0
 41
5.0
 42
1.587499999999999
 43
6.0
 44
3.174999999999999
 45
0.00000001
 46
10.0
 77
     1
140
4.57200002670288
144
0.0393700787401575
146
0.6666666840491819
147
0.8
171
     1
176
     7
177
     7
178
     7
271
     2
272
     2
274
     1
340
175
371
    25
372
    25
  0
DIMSTYLE
105
1C9
330
A
100
AcDbSymbolTableRecord
100
AcDbDimStyleTableRecord
  2
PAR DEFAUT_ BSI
 70
     0
 40
2.0
 41
2.5
 42
0.5
 43
6.0
 44
3.0
 45
0.00000001
 46
10.0
 73
     0
 74
     0
 77
     1
 78
     8
 79
     2
140
3.5
143
0.03937
147
0.75
171
     3
176
     7
177
     7
178
     7
179
     2
271
     2
272
     2
274
     3
278
    44
285
     8
340
167
371
    25
372
    25
  0
DIMSTYLE
105
1CA
330
A
100
AcDbSymbolTableRecord
100
AcDbDimStyleTableRecord
  2
PAR DEFAUT_ BSI$7
 70
     0
 40
2.0
 41
2.5
 42
0.5
 43
6.0
 44
3.0
 45
0.00000001
 46
10.0
 73
     0
 74
     0
 77
     1
 78
     8
 79
     2
140
3.5
143
0.03937
147
0.75
171
     3
176
     7
177
     7
178
     7
179
     2
271
     2
272
     2
274
     3
278
    44
285
     8
340
167
371
    25
372
    25
  0
DIMSTYLE
105
1CB
330
A
100
AcDbSymbolTableRecord
100
AcDbDimStyleTableRecord
  2
PAR DEFAUT_ BSIGrandTexte
 70
     0
 40
2.0
 41
5.0
 42
0.5
 43
6.0
 44
3.0
 45
0.00000001
 46
10.0
 73
     0
 74
     0
 77
     1
 78
     8
 79
     2
140
5.25
143
0.03937
146
0.6666666666666666
147
0.75
171
     3
176
     7
177
     7
178
     7
179
     2
271
     2
272
     2
274
     3
278
    44
285
     8
340
178
371
    25
372
    25
  0
DIMSTYLE
105
1CC
330
A
100
AcDbSymbolTableRecord
100
AcDbDimStyleTableRecord
  2
PAR DEFAUT_ BSIGrandTexte$7
 70
     0
 40
2.0
 41
5.0
 42
0.5
 43
6.0
 44
3.0
 45
0.00000001
 46
10.0
 73
     0
 74
     0
 77
     1
 78
     8
 79
     2
140
5.25
143
0.03937
146
0.6666666666666666
147
0.75
171
     3
176
     7
177
     7
178
     7
179
     2
271
     2
272
     2
274
     3
278
    44
285
     8
340
178
371
    25
372
    25
  0
DIMSTYLE
105
1CD
330
A
100
AcDbSymbolTableRecord
100
AcDbDimStyleTableRecord
  2
PAR DEFAUT_ DIN
 70
     0
 40
2.0
 41
2.5
 42
0.0
 43
6.0
 44
3.174999999999999
 45
0.00000001
 46
10.0
 73
     0
 74
     0
 77
     1
140
3.5
143
0.03937
147
0.8
171
     3
176
     7
177
     7
178
     7
271
     2
272
     2
274
     3
278
    44
340
167
371
    25
372
    25
  0
DIMSTYLE
105
1CE
330
A
100
AcDbSymbolTableRecord
100
AcDbDimStyleTableRecord
  2
PAR DEFAUT_ DIN$7
 70
     0
 40
2.0
 41
2.5
 42
0.0
 43
6.0
 44
3.174999999999999
 45
0.00000001
 46
10.0
 73
     0
 74
     0
 77
     1
140
3.5
143
0.03937
147
0.8
171
     3
176
     7
177
     7
178
     7
271
     2
272
     2
274
     3
278
    44
340
167
371
    25
372
    25
  0
DIMSTYLE
105
1CF
330
A
100
AcDbSymbolTableRecord
100
AcDbDimStyleTableRecord
  2
PAR DEFAUT_ DINGrandTexte
 70
     0
 40
2.0
 41
5.0
 42
0.0
 43
6.0
 44
3.174999999999999
 45
0.00000001
 46
10.0
 73
     0
 74
     0
 77
     1
140
5.25
143
0.03937
146
0.6666666666666666
147
0.8
171
     3
176
     7
177
     7
178
     7
271
     2
272
     2
274
     3
278
    44
340
17B
371
    25
372
    25
  0
DIMSTYLE
105
1D0
330
A
100
AcDbSymbolTableRecord
100
AcDbDimStyleTableRecord
  2
PAR DEFAUT_ DINGrandTexte$7
 70
     0
 40
2.0
 41
5.0
 42
0.0
 43
6.0
 44
3.174999999999999
 45
0.00000001
 46
10.0
 73
     0
 74
     0
 77
     1
140
5.25
143
0.03937
146
0.6666666666666666
147
0.8
171
     3
176
     7
177
     7
178
     7
271
     2
272
     2
274
     3
278
    44
340
17B
371
    25
372
    25
  0
DIMSTYLE
105
1DF
330
A
100
AcDbSymbolTableRecord
100
AcDbDimStyleTableRecord
  2
PAR DEFAUT_ GB
 70
     0
 40
2.0
 41
4.0
 42
0.0
 43
6.0
 44
5.0
 45
0.00000001
 46
10.0
 73
     0
 74
     0
 77
     1
 78
     8
 79
     2
140
3.5
143
0.03937
147
0.75
171
     3
176
     7
177
     7
178
     7
179
     3
271
     2
272
     2
274
     3
275
     1
285
     8
340
167
341
1D1
342
1D1
371
    25
372
    25
  0
DIMSTYLE
105
1E0
330
A
100
AcDbSymbolTableRecord
100
AcDbDimStyleTableRecord
  2
PAR DEFAUT_ GB$7
 70
     0
 40
2.0
 41
4.0
 42
0.0
 43
6.0
 44
5.0
 45
0.00000001
 46
10.0
 73
     0
 74
     0
 77
     1
 78
     8
 79
     2
140
3.5
143
0.03937
147
0.75
171
     3
176
     7
177
     7
178
     7
179
     3
271
     2
272
     2
274
     3
275
     1
285
     8
340
167
341
1D1
342
1D1
371
    25
372
    25
  0
DIMSTYLE
105
1E1
330
A
100
AcDbSymbolTableRecord
100
AcDbDimStyleTableRecord
  2
PAR DEFAUT_ GBGrandTexte
 70
     0
 40
2.0
 41
8.0
 42
0.0
 43
6.0
 44
5.0
 45
0.00000001
 46
10.0
 73
     0
 74
     0
 77
     1
 78
     8
 79
     2
140
5.25
143
0.03937
146
0.6666666666666666
147
0.75
171
     3
176
     7
177
     7
178
     7
179
     3
271
     2
272
     2
274
     3
275
     1
285
     8
340
17E
341
1D1
342
1D1
371
    25
372
    25
  0
DIMSTYLE
105
1E2
330
A
100
AcDbSymbolTableRecord
100
AcDbDimStyleTableRecord
  2
PAR DEFAUT_ GBGrandTexte$7
 70
     0
 40
2.0
 41
8.0
 42
0.0
 43
6.0
 44
5.0
 45
0.00000001
 46
10.0
 73
     0
 74
     0
 77
     1
 78
     8
 79
     2
140
5.25
143
0.03937
146
0.6666666666666666
147
0.75
171
     3
176
     7
177
     7
178
     7
179
     3
271
     2
272
     2
274
     3
275
     1
285
     8
340
17E
341
1D1
342
1D1
371
    25
372
    25
  0
DIMSTYLE
105
1E3
330
A
100
AcDbSymbolTableRecord
100
AcDbDimStyleTableRecord
  2
PAR DEFAUT_ ISO
 70
     0
 40
2.0
 41
2.5
 42
0.0
 43
6.0
 44
3.174999999999999
 45
0.00000001
 46
10.0
 73
     0
 74
     0
 77
     1
140
3.5
143
0.03937
147
0.762
171
     3
176
     7
177
     7
178
     7
179
     2
271
     2
272
     2
274
     3
278
    44
340
167
371
    25
372
    25
  0
DIMSTYLE
105
1E4
330
A
100
AcDbSymbolTableRecord
100
AcDbDimStyleTableRecord
  2
PAR DEFAUT_ ISO$7
 70
     0
 40
2.0
 41
2.5
 42
0.0
 43
6.0
 44
3.174999999999999
 45
0.00000001
 46
10.0
 73
     0
 74
     0
 77
     1
140
3.5
143
0.03937
147
0.762
171
     3
176
     7
177
     7
178
     7
179
     2
271
     2
272
     2
274
     3
278
    44
340
167
371
    25
372
    25
  0
DIMSTYLE
105
1E5
330
A
100
AcDbSymbolTableRecord
100
AcDbDimStyleTableRecord
  2
PAR DEFAUT_ JIS
 70
     0
 40
2.0
 41
2.5
 42
0.0
 43
6.0
 44
3.174999999999999
 45
0.00000001
 46
10.0
 73
     0
 74
     0
 77
     1
140
4.5
143
0.03937
147
0.8
171
     3
176
     7
177
     7
178
     7
271
     2
272
     2
274
     3
340
16D
341
1B8
342
1B8
371
    25
372
    25
  0
DIMSTYLE
105
1E6
330
A
100
AcDbSymbolTableRecord
100
AcDbDimStyleTableRecord
  2
PAR DEFAUT_ JIS$7
 70
     0
 40
2.0
 41
2.5
 42
0.0
 43
6.0
 44
3.174999999999999
 45
0.00000001
 46
10.0
 73
     0
 74
     0
 77
     1
140
4.5
143
0.03937
147
0.8
171
     3
176
     7
177
     7
178
     7
271
     2
272
     2
274
     3
340
16D
341
1B8
342
1B8
371
    25
372
    25
  0
DIMSTYLE
105
1E7
330
A
100
AcDbSymbolTableRecord
100
AcDbDimStyleTableRecord
  2
PAR DEFAUT_ JISGrandTexte
 70
     0
 40
2.0
 41
5.0
 42
0.0
 43
6.0
 44
3.174999999999999
 45
0.00000001
 46
10.0
 73
     0
 74
     0
 77
     1
140
6.749999523162841
143
0.03937
146
0.666666713761698
147
0.8
171
     3
176
     7
177
     7
178
     7
271
     2
272
     2
274
     3
340
184
341
1B8
342
1B8
371
    25
372
    25
  0
DIMSTYLE
105
1E8
330
A
100
AcDbSymbolTableRecord
100
AcDbDimStyleTableRecord
  2
PAR DEFAUT_ JISGrandTexte$7
 70
     0
 40
2.0
 41
5.0
 42
0.0
 43
6.0
 44
3.174999999999999
 45
0.00000001
 46
10.0
 73
     0
 74
     0
 77
     1
140
6.749999523162841
143
0.03937
146
0.666666713761698
147
0.8
171
     3
176
     7
177
     7
178
     7
271
     2
272
     2
274
     3
340
184
341
1B8
342
1B8
371
    25
372
    25
  0
DIMSTYLE
105
1E9
330
A
100
AcDbSymbolTableRecord
100
AcDbDimStyleTableRecord
  2
PAR DEFAUT_ Norme legrand
 70
     0
 40
2.0
 41
2.5
 42
0.0
 43
6.0
 44
3.174999999999999
 45
0.00000001
 46
10.0
 73
     0
 74
     0
 77
     1
140
3.5
143
0.03937
147
0.762
171
     3
176
     7
177
     7
178
     7
179
     2
271
     2
272
     2
274
     3
278
    44
340
167
341
1A8
371
    25
372
    25
  0
DIMSTYLE
105
1EA
330
A
100
AcDbSymbolTableRecord
100
AcDbDimStyleTableRecord
  2
PAR DEFAUT_ Norme legrand$7
 70
     0
 40
2.0
 41
2.5
 42
0.0
 43
6.0
 44
3.174999999999999
 45
0.00000001
 46
10.0
 73
     0
 74
     0
 77
     1
140
3.5
143
0.03937
147
0.762
171
     3
176
     7
177
     7
178
     7
179
     2
271
     2
272
     2
274
     3
278
    44
340
167
341
1A8
371
    15
372
    25
  0
DIMSTYLE
105
1F1
330
A
100
AcDbSymbolTableRecord
100
AcDbDimStyleTableRecord
  2
style legrand
 70
     0
 40
2.0
 41
3.5
 42
0.0
 43
7.0
 44
2.0
 45
0.00000001
 46
30.0
 73
     0
 77
     1
 78
     8
 79
     2
140
3.5
143
0.03937
147
0.762
171
     3
176
     7
177
     7
178
     7
179
     3
271
     3
272
     3
274
     3
278
    44
284
     8
286
     8
340
18B
342
1EB
371
    15
372
    15
  0
DIMSTYLE
105
1F2
330
A
100
AcDbSymbolTableRecord
100
AcDbDimStyleTableRecord
  2
style legrand$7
 70
     0
 40
2.0
 41
2.5
 42
0.0
 43
7.0
 44
2.0
 45
0.00000001
 46
30.0
 73
     0
 77
     1
 78
     8
 79
     2
140
3.5
143
0.03937
147
0.762
171
     3
176
     7
177
     7
178
     7
179
     3
271
     3
272
     3
274
     3
278
    44
284
     8
286
     8
340
18B
342
1EB
371
    25
372
    15
  0
DIMSTYLE
105
1F3
102
{ACAD_REACTORS
330
540
330
614
330
6EB
102
}
330
A
100
AcDbSymbolTableRecord
100
AcDbDimStyleTableRecord
  2
style legrand-Norme legrand
 70
     0
 40
2.0
 41
3.5
 42
0.0
 43
7.0
 44
2.0
 45
0.00000001
 46
30.0
 73
     0
 77
     1
 78
     8
 79
     2
140
3.5
143
0.03937
147
0.762
171
     3
176
     7
177
     7
178
     7
179
     3
271
     3
272
     3
274
     3
278
    44
284
     8
286
     8
340
18B
341
1A8
342
1EB
371
    15
372
    15
  0
DIMSTYLE
105
1F4
330
A
100
AcDbSymbolTableRecord
100
AcDbDimStyleTableRecord
  2
style legrand-Norme legrand$7
 70
     0
 40
2.0
 41
2.5
 42
0.0
 43
7.0
 44
2.0
 45
0.00000001
 46
30.0
 73
     0
 77
     1
 78
     8
 79
     2
140
3.5
143
0.03937
147
0.762
171
     3
176
     7
177
     7
178
     7
179
     3
271
     3
272
     3
274
     3
278
    44
284
     8
286
     8
340
18B
341
1A8
342
1EB
371
    15
372
    15
  0
DIMSTYLE
105
1F5
330
A
100
AcDbSymbolTableRecord
100
AcDbDimStyleTableRecord
  2
style legrand-Norme legrandGrandTexte
 70
     0
 40
2.0
 41
5.0
 42
0.0
 43
7.0
 44
2.0
 45
0.00000001
 46
30.0
 73
     0
 77
     1
 78
     8
 79
     2
140
3.0
143
0.03937
146
1.166666666666666
147
0.762
171
     3
176
     7
177
     7
178
     7
179
     3
271
     3
272
     3
274
     3
278
    44
284
     8
286
     8
340
170
341
1A8
342
1A8
371
    15
372
    15
  0
DIMSTYLE
105
1F6
330
A
100
AcDbSymbolTableRecord
100
AcDbDimStyleTableRecord
  2
style legrand-Norme legrandGrandTexte$7
 70
     0
 40
2.0
 41
5.0
 42
0.0
 43
7.0
 44
2.0
 45
0.00000001
 46
30.0
 73
     0
 77
     1
 78
     8
 79
     2
140
3.0
143
0.03937
146
1.166666666666666
147
0.762
171
     3
176
     7
177
     7
178
     7
179
     3
271
     3
272
     3
274
     3
278
    44
284
     8
286
     8
340
170
341
1A8
342
1A8
371
    15
372
    15
  0
DIMSTYLE
105
1F7
330
A
100
AcDbSymbolTableRecord
100
AcDbDimStyleTableRecord
  2
style legrandGrandTexte
 70
     0
 40
2.0
 41
5.0
 42
0.0
 43
7.0
 44
2.0
 45
0.00000001
 46
30.0
 73
     0
 77
     1
 78
     8
 79
     2
140
5.25
143
0.03937
146
0.6666666666666666
147
0.762
171
     3
176
     7
177
     7
178
     7
179
     3
271
     3
272
     3
274
     3
278
    44
284
     8
286
     8
340
181
371
    15
372
    15
  0
DIMSTYLE
105
1F8
330
A
100
AcDbSymbolTableRecord
100
AcDbDimStyleTableRecord
  2
style legrandGrandTexte$7
 70
     0
 40
2.0
 41
5.0
 42
0.0
 43
7.0
 44
2.0
 45
0.00000001
 46
30.0
 73
     0
 77
     1
 78
     8
 79
     2
140
5.25
143
0.03937
146
0.6666666666666666
147
0.762
171
     3
176
     7
177
     7
178
     7
179
     3
271
     3
272
     3
274
     3
278
    44
284
     8
286
     8
340
181
371
    25
372
    15
  0
DIMSTYLE
105
1F9
330
A
100
AcDbSymbolTableRecord
100
AcDbDimStyleTableRecord
  2
USUEL1
 70
     0
 40
2.0
 41
4.0
 42
0.0
 43
10.0
 44
2.0
 45
0.00000001
 73
     0
 74
     0
 77
     1
 78
     8
 79
     2
140
4.0
143
0.03937
147
2.0
176
    51
177
    51
178
     7
271
     2
272
     3
284
     8
286
     8
340
171
341
1A8
371
     0
372
     0
  0
DIMSTYLE
105
1FA
330
A
100
AcDbSymbolTableRecord
100
AcDbDimStyleTableRecord
  2
USUEL1$7
 70
     0
 40
2.0
 41
2.5
 42
0.0
 43
10.0
 44
2.0
 45
0.00000001
 73
     0
 74
     0
 77
     1
 78
     8
 79
     2
140
4.0
143
0.03937
147
2.0
176
     7
177
    51
178
     7
271
     2
272
     3
284
     8
286
     8
340
171
341
1A8
371
    15
372
     0
  0
DIMSTYLE
105
1FB
330
A
100
AcDbSymbolTableRecord
100
AcDbDimStyleTableRecord
  2
X . XXX
 70
     0
 40
2.0
 41
2.5
 42
2.387599999999999
 43
6.349999999999999
 44
3.174999999999999
 45
0.00000001
 46
10.0
 73
     0
 78
     4
 79
     1
140
3.04800009727478
144
0.0393700787401575
147
1.6002
171
     1
176
     7
177
     7
178
     7
179
     1
271
     3
272
     2
274
     1
284
     4
286
     4
340
172
371
    25
372
    25
  0
DIMSTYLE
105
1FC
330
A
100
AcDbSymbolTableRecord
100
AcDbDimStyleTableRecord
  2
X . XXX$7
 70
     0
 40
2.0
 41
2.5
 42
2.387599999999999
 43
6.349999999999999
 44
3.174999999999999
 45
0.00000001
 46
10.0
 73
     0
 78
     4
 79
     1
140
3.04800009727478
144
0.0393700787401575
147
1.6002
171
     1
176
     7
177
     7
178
     7
179
     1
271
     3
272
     2
274
     1
284
     4
286
     4
340
172
371
    25
372
    25
  0
DIMSTYLE
105
1FD
330
A
100
AcDbSymbolTableRecord
100
AcDbDimStyleTableRecord
  2
X.X grand espace & texte
 70
     0
 40
2.0
 41
5.0
 42
2.0
 43
6.0
 44
3.174999999999999
 45
0.00000001
 46
10.0
 73
     0
 77
     1
 78
     8
 79
     2
140
5.0
143
0.03937
146
0.7
147
0.762
171
     3
176
   116
177
   116
178
    11
179
     1
271
     1
272
     1
274
     3
278
    44
284
     8
286
     8
340
194
342
1B8
371
    25
372
    25
  0
DIMSTYLE
105
1FE
330
A
100
AcDbSymbolTableRecord
100
AcDbDimStyleTableRecord
  2
X.X grand espace & texte$7
 70
     0
 40
2.0
 41
2.5
 42
2.0
 43
6.0
 44
3.174999999999999
 45
0.00000001
 46
10.0
 73
     0
 77
     1
 78
     8
 79
     2
140
5.0
143
0.03937
146
0.7
147
0.762
171
     3
176
     7
177
   116
178
    11
179
     1
271
     1
272
     1
274
     3
278
    44
284
     8
286
     8
340
194
342
1B8
371
    25
372
    25
  0
DIMSTYLE
105
1FF
330
A
100
AcDbSymbolTableRecord
100
AcDbDimStyleTableRecord
  2
X.X grand espace & texte-Norme legrand
 70
     0
 40
2.0
 41
5.0
 42
2.0
 43
6.0
 44
3.174999999999999
 45
0.00000001
 46
10.0
 73
     0
 77
     1
 78
     8
 79
     2
140
5.0
143
0.03937
146
0.7
147
0.762
171
     3
176
   116
177
   116
178
    11
179
     1
271
     1
272
     1
274
     3
278
    44
284
     8
286
     8
340
194
341
1A8
342
1B8
371
    25
372
    25
  0
DIMSTYLE
105
200
330
A
100
AcDbSymbolTableRecord
100
AcDbDimStyleTableRecord
  2
X.X grand espace & texte-Norme legrand$7
 70
     0
 40
2.0
 41
2.5
 42
2.0
 43
6.0
 44
3.174999999999999
 45
0.00000001
 46
10.0
 73
     0
 77
     1
 78
     8
 79
     2
140
5.0
143
0.03937
146
0.7
147
0.762
171
     3
176
     7
177
   116
178
    11
179
     1
271
     1
272
     1
274
     3
278
    44
284
     8
286
     8
340
194
341
1A8
342
1B8
371
    15
372
    25
  0
DIMSTYLE
105
201
330
A
100
AcDbSymbolTableRecord
100
AcDbDimStyleTableRecord
  2
X.XX Ecart tol.
 70
     0
 40
2.0
 41
2.5
 42
2.387599999999999
 43
6.349999999999999
 44
3.174999999999999
 45
0.00000001
 46
10.0
 48
0.000000001
 71
     1
 73
     0
 78
     4
 79
     1
140
3.04800009727478
144
0.0393700787401575
146
0.8333332942226753
147
1.6002
171
     1
176
     7
177
     7
178
     7
179
     1
271
     3
272
     3
274
     1
284
     4
286
     4
340
172
371
    25
372
    25
  0
DIMSTYLE
105
202
330
A
100
AcDbSymbolTableRecord
100
AcDbDimStyleTableRecord
  2
X.XX Ecart tol.$7
 70
     0
 40
2.0
 41
2.5
 42
2.387599999999999
 43
6.349999999999999
 44
3.174999999999999
 45
0.00000001
 46
10.0
 48
0.000000001
 71
     1
 73
     0
 78
     4
 79
     1
140
3.04800009727478
144
0.0393700787401575
146
0.8333332942226753
147
1.6002
171
     1
176
     7
177
     7
178
     7
179
     1
271
     3
272
     3
274
     1
284
     4
286
     4
340
172
371
    25
372
    25
  0
DIMSTYLE
105
203
330
A
100
AcDbSymbolTableRecord
100
AcDbDimStyleTableRecord
  2
X.XX mm [pouce]
 70
     0
  4
 po
 40
2.0
 41
2.5
 42
2.387599999999999
 43
6.349999999999999
 44
3.174999999999999
 45
0.00000001
 46
10.0
 73
     0
 78
     8
 79
     2
140
3.04800009727478
143
0.03937
147
1.6002
170
     1
171
     3
176
     7
177
     7
178
     7
179
     1
271
     2
272
     2
274
     3
284
     8
285
     4
286
     8
340
172
371
    25
372
    25
  0
DIMSTYLE
105
204
330
A
100
AcDbSymbolTableRecord
100
AcDbDimStyleTableRecord
  2
X.XX mm [pouce]$7
 70
     0
  4
 po
 40
2.0
 41
2.5
 42
2.387599999999999
 43
6.349999999999999
 44
3.174999999999999
 45
0.00000001
 46
10.0
 73
     0
 78
     8
 79
     2
140
3.04800009727478
143
0.03937
147
1.6002
170
     1
171
     3
176
     7
177
     7
178
     7
179
     1
271
     2
272
     2
274
     3
284
     8
285
     4
286
     8
340
172
371
    25
372
    25
  0
DIMSTYLE
105
205
330
A
100
AcDbSymbolTableRecord
100
AcDbDimStyleTableRecord
  2
X.XXX
 70
     0
 40
2.0
 41
2.5
 42
0.0
 43
6.0
 44
3.174999999999999
 45
0.00000001
 46
10.0
 73
     0
 74
     0
 77
     1
 78
     8
 79
     2
140
3.5
143
0.03937
147
0.762
171
     3
176
     7
177
     7
178
     7
179
     3
271
     3
272
     2
274
     3
275
     1
278
    44
284
     8
286
     8
340
167
371
    25
372
    25
  0
DIMSTYLE
105
206
330
A
100
AcDbSymbolTableRecord
100
AcDbDimStyleTableRecord
  2
X.XXX$7
 70
     0
 40
2.0
 41
2.5
 42
0.0
 43
6.0
 44
3.174999999999999
 45
0.00000001
 46
10.0
 73
     0
 74
     0
 77
     1
 78
     8
 79
     2
140
3.5
143
0.03937
147
0.762
171
     3
176
     7
177
     7
178
     7
179
     3
271
     3
272
     2
274
     3
275
     1
278
    44
284
     8
286
     8
340
167
371
    25
372
    25
  0
DIMSTYLE
105
207
330
A
100
AcDbSymbolTableRecord
100
AcDbDimStyleTableRecord
  2
X.XXX-Norme legrand
 70
     0
 40
2.0
 41
2.5
 42
0.0
 43
6.0
 44
3.174999999999999
 45
0.00000001
 46
10.0
 73
     0
 74
     0
 77
     1
 78
     8
 79
     2
140
3.5
143
0.03937
147
0.762
171
     3
176
     7
177
     7
178
     7
179
     3
271
     3
272
     2
274
     3
275
     1
278
    44
284
     8
286
     8
340
167
341
1A8
371
    25
372
    25
  0
DIMSTYLE
105
208
330
A
100
AcDbSymbolTableRecord
100
AcDbDimStyleTableRecord
  2
X.XXX-Norme legrand$7
 70
     0
 40
2.0
 41
2.5
 42
0.0
 43
6.0
 44
3.174999999999999
 45
0.00000001
 46
10.0
 73
     0
 74
     0
 77
     1
 78
     8
 79
     2
140
3.5
143
0.03937
147
0.762
171
     3
176
     7
177
     7
178
     7
179
     3
271
     3
272
     2
274
     3
275
     1
278
    44
284
     8
286
     8
340
167
341
1A8
371
    15
372
    25
  0
DIMSTYLE
105
209
330
A
100
AcDbSymbolTableRecord
100
AcDbDimStyleTableRecord
  2
X.XXX +_- tolérance
 70
     0
 40
2.0
 41
2.5
 42
0.0
 43
6.0
 44
3.174999999999999
 45
0.00000001
 46
10.0
 71
     1
 73
     0
 77
     1
 78
     8
 79
     2
140
3.5
143
0.03937
147
0.762
171
     3
176
     7
177
     7
178
     7
179
     3
271
     3
272
     3
274
     3
275
     1
278
    44
284
     8
286
     8
340
167
371
    25
372
    25
  0
DIMSTYLE
105
20A
330
A
100
AcDbSymbolTableRecord
100
AcDbDimStyleTableRecord
  2
X.XXX +_- tolérance$7
 70
     0
 40
2.0
 41
2.5
 42
0.0
 43
6.0
 44
3.174999999999999
 45
0.00000001
 46
10.0
 71
     1
 73
     0
 77
     1
 78
     8
 79
     2
140
3.5
143
0.03937
147
0.762
171
     3
176
     7
177
     7
178
     7
179
     3
271
     3
272
     3
274
     3
275
     1
278
    44
284
     8
286
     8
340
167
371
    25
372
    25
  0
DIMSTYLE
105
20B
330
A
100
AcDbSymbolTableRecord
100
AcDbDimStyleTableRecord
  2
X.XXX +_- tolérance-Norme legrand
 70
     0
 40
2.0
 41
2.5
 42
0.0
 43
6.0
 44
3.174999999999999
 45
0.00000001
 46
10.0
 71
     1
 73
     0
 77
     1
 78
     8
 79
     2
140
3.5
143
0.03937
147
0.762
171
     3
176
     7
177
     7
178
     7
179
     3
271
     3
272
     3
274
     3
275
     1
278
    44
284
     8
286
     8
340
167
341
1A8
371
    25
372
    25
  0
DIMSTYLE
105
20C
330
A
100
AcDbSymbolTableRecord
100
AcDbDimStyleTableRecord
  2
X.XXX +_- tolérance-Norme legrand$7
 70
     0
 40
2.0
 41
2.5
 42
0.0
 43
6.0
 44
3.174999999999999
 45
0.00000001
 46
10.0
 71
     1
 73
     0
 77
     1
 78
     8
 79
     2
140
3.5
143
0.03937
147
0.762
171
     3
176
     7
177
     7
178
     7
179
     3
271
     3
272
     3
274
     3
275
     1
278
    44
284
     8
286
     8
340
167
341
1A8
371
    15
372
    25
  0
DIMSTYLE
105
20D
330
A
100
AcDbSymbolTableRecord
100
AcDbDimStyleTableRecord
  2
X.XXX +tolérance_-tolérance
 70
     0
 40
2.0
 41
2.5
 42
0.0
 43
6.0
 44
3.174999999999999
 45
0.00000001
 46
10.0
 48
0.000000001
 71
     1
 73
     0
 77
     1
 78
     8
 79
     2
140
3.5
143
0.03937
147
0.762
171
     3
176
     7
177
     7
178
     7
179
     3
271
     3
272
     3
274
     3
275
     1
278
    44
284
     8
286
     8
340
167
371
    25
372
    25
  0
DIMSTYLE
105
20E
330
A
100
AcDbSymbolTableRecord
100
AcDbDimStyleTableRecord
  2
X.XXX +tolérance_-tolérance$7
 70
     0
 40
2.0
 41
2.5
 42
0.0
 43
6.0
 44
3.174999999999999
 45
0.00000001
 46
10.0
 48
0.000000001
 71
     1
 73
     0
 77
     1
 78
     8
 79
     2
140
3.5
143
0.03937
147
0.762
171
     3
176
     7
177
     7
178
     7
179
     3
271
     3
272
     3
274
     3
275
     1
278
    44
284
     8
286
     8
340
167
371
    25
372
    25
  0
DIMSTYLE
105
20F
330
A
100
AcDbSymbolTableRecord
100
AcDbDimStyleTableRecord
  2
X.XXX +tolérance_-tolérance-Norme legrand
 70
     0
 40
2.0
 41
2.5
 42
0.0
 43
6.0
 44
3.174999999999999
 45
0.00000001
 46
10.0
 48
0.000000001
 71
     1
 73
     0
 77
     1
 78
     8
 79
     2
140
3.5
143
0.03937
147
0.762
171
     3
176
     7
177
     7
178
     7
179
     3
271
     3
272
     3
274
     3
275
     1
278
    44
284
     8
286
     8
340
167
341
1A8
371
    25
372
    25
  0
DIMSTYLE
105
210
330
A
100
AcDbSymbolTableRecord
100
AcDbDimStyleTableRecord
  2
X.XXX +tolérance_-tolérance-Norme legrand$7
 70
     0
 40
2.0
 41
2.5
 42
0.0
 43
6.0
 44
3.174999999999999
 45
0.00000001
 46
10.0
 48
0.000000001
 71
     1
 73
     0
 77
     1
 78
     8
 79
     2
140
3.5
143
0.03937
147
0.762
171
     3
176
     7
177
     7
178
     7
179
     3
271
     3
272
     3
274
     3
275
     1
278
    44
284
     8
286
     8
340
167
341
1A8
371
    15
372
    25
  0
DIMSTYLE
105
211
330
A
100
AcDbSymbolTableRecord
100
AcDbDimStyleTableRecord
  2
X.XXX Limites - Empilées
 70
     0
 40
2.0
 41
2.5
 42
2.387599999999999
 43
6.349999999999999
 44
3.174999999999999
 45
0.00000001
 46
10.0
 72
     1
 73
     0
 78
     4
 79
     1
140
3.04800009727478
144
0.0393700787401575
146
0.8333332942226753
147
1.6002
171
     1
176
     7
177
     7
178
     7
179
     1
271
     3
272
     3
274
     1
284
     4
286
     4
340
172
371
    25
372
    25
  0
DIMSTYLE
105
212
330
A
100
AcDbSymbolTableRecord
100
AcDbDimStyleTableRecord
  2
X.XXX Limites - Empilées$7
 70
     0
 40
2.0
 41
2.5
 42
2.387599999999999
 43
6.349999999999999
 44
3.174999999999999
 45
0.00000001
 46
10.0
 72
     1
 73
     0
 78
     4
 79
     1
140
3.04800009727478
144
0.0393700787401575
146
0.8333332942226753
147
1.6002
171
     1
176
     7
177
     7
178
     7
179
     1
271
     3
272
     3
274
     1
284
     4
286
     4
340
172
371
    25
372
    25
  0
DIMSTYLE
105
213
330
A
100
AcDbSymbolTableRecord
100
AcDbDimStyleTableRecord
  2
X.XXX mm [pouce]
 70
     0
  4
 po
 40
2.0
 41
2.5
 42
0.0
 43
6.0
 44
3.174999999999999
 45
0.00000001
 46
10.0
 73
     0
 74
     0
 77
     1
 78
     8
 79
     2
140
3.5
143
0.03937
147
0.762
170
     1
171
     3
176
     7
177
     7
178
     7
179
     3
271
     3
272
     2
274
     3
275
     1
278
    44
284
     8
285
     4
286
     8
340
167
371
    25
372
    25
  0
DIMSTYLE
105
214
330
A
100
AcDbSymbolTableRecord
100
AcDbDimStyleTableRecord
  2
X.XXX mm [pouce]$7
 70
     0
  4
 po
 40
2.0
 41
2.5
 42
0.0
 43
6.0
 44
3.174999999999999
 45
0.00000001
 46
10.0
 73
     0
 74
     0
 77
     1
 78
     8
 79
     2
140
3.5
143
0.03937
147
0.762
170
     1
171
     3
176
     7
177
     7
178
     7
179
     3
271
     3
272
     2
274
     3
275
     1
278
    44
284
     8
285
     4
286
     8
340
167
371
    25
372
    25
  0
DIMSTYLE
105
215
330
A
100
AcDbSymbolTableRecord
100
AcDbDimStyleTableRecord
  2
X.XXX mm [pouce]-Norme legrand
 70
     0
  4
 po
 40
2.0
 41
2.5
 42
0.0
 43
6.0
 44
3.174999999999999
 45
0.00000001
 46
10.0
 73
     0
 74
     0
 77
     1
 78
     8
 79
     2
140
3.5
143
0.03937
147
0.762
170
     1
171
     3
176
     7
177
     7
178
     7
179
     3
271
     3
272
     2
274
     3
275
     1
278
    44
284
     8
285
     4
286
     8
340
167
341
1A8
371
    25
372
    25
  0
DIMSTYLE
105
216
330
A
100
AcDbSymbolTableRecord
100
AcDbDimStyleTableRecord
  2
X.XXX mm [pouce]-Norme legrand$7
 70
     0
  4
 po
 40
2.0
 41
2.5
 42
0.0
 43
6.0
 44
3.174999999999999
 45
0.00000001
 46
10.0
 73
     0
 74
     0
 77
     1
 78
     8
 79
     2
140
3.5
143
0.03937
147
0.762
170
     1
171
     3
176
     7
177
     7
178
     7
179
     3
271
     3
272
     2
274
     3
275
     1
278
    44
284
     8
285
     4
286
     8
340
167
341
1A8
371
    15
372
    25
  0
DIMSTYLE
105
217
330
A
100
AcDbSymbolTableRecord
100
AcDbDimStyleTableRecord
  2
X.XXX pouce [mm]
 70
     0
  4
 mm
 40
2.0
 41
2.5
 42
2.387599999999999
 43
6.349999999999999
 44
3.174999999999999
 45
0.00000001
 46
10.0
 73
     0
 78
     4
 79
     1
140
3.04800009727478
144
0.0393700787401575
147
1.6002
170
     1
176
     7
177
     7
178
     7
179
     1
271
     3
272
     2
284
     4
285
     8
286
     4
340
172
371
    25
372
    25
  0
DIMSTYLE
105
218
330
A
100
AcDbSymbolTableRecord
100
AcDbDimStyleTableRecord
  2
X.XXX pouce [mm]$7
 70
     0
  4
 mm
 40
2.0
 41
2.5
 42
2.387599999999999
 43
6.349999999999999
 44
3.174999999999999
 45
0.00000001
 46
10.0
 73
     0
 78
     4
 79
     1
140
3.04800009727478
144
0.0393700787401575
147
1.6002
170
     1
176
     7
177
     7
178
     7
179
     1
271
     3
272
     2
284
     4
285
     8
286
     4
340
172
371
    25
372
    25
  0
DIMSTYLE
105
219
330
A
100
AcDbSymbolTableRecord
100
AcDbDimStyleTableRecord
  2
X.XXX radial
 70
     0
 40
2.0
 41
2.5
 42
0.0
 43
6.0
 44
3.174999999999999
 45
0.00000001
 46
10.0
 73
     0
 77
     1
 78
     8
 79
     2
140
3.5
143
0.03937
147
0.762
171
     3
176
     7
177
     7
178
     7
179
     3
271
     3
272
     2
274
     3
275
     1
284
     8
286
     8
340
167
371
    25
372
    25
  0
DIMSTYLE
105
21A
330
A
100
AcDbSymbolTableRecord
100
AcDbDimStyleTableRecord
  2
X.XXX radial$7
 70
     0
 40
2.0
 41
2.5
 42
0.0
 43
6.0
 44
3.174999999999999
 45
0.00000001
 46
10.0
 73
     0
 77
     1
 78
     8
 79
     2
140
3.5
143
0.03937
147
0.762
171
     3
176
     7
177
     7
178
     7
179
     3
271
     3
272
     2
274
     3
275
     1
284
     8
286
     8
340
167
371
    25
372
    25
  0
DIMSTYLE
105
21B
330
A
100
AcDbSymbolTableRecord
100
AcDbDimStyleTableRecord
  2
X.XXX radial-Norme legrand
 70
     0
 40
2.0
 41
2.5
 42
0.0
 43
6.0
 44
3.174999999999999
 45
0.00000001
 46
10.0
 73
     0
 77
     1
 78
     8
 79
     2
140
3.5
143
0.03937
147
0.762
171
     3
176
     7
177
     7
178
     7
179
     3
271
     3
272
     2
274
     3
275
     1
284
     8
286
     8
340
167
341
1A8
371
    25
372
    25
  0
DIMSTYLE
105
21C
330
A
100
AcDbSymbolTableRecord
100
AcDbDimStyleTableRecord
  2
X.XXX radial-Norme legrand$7
 70
     0
 40
2.0
 41
2.5
 42
0.0
 43
6.0
 44
3.174999999999999
 45
0.00000001
 46
10.0
 73
     0
 77
     1
 78
     8
 79
     2
140
3.5
143
0.03937
147
0.762
171
     3
176
     7
177
     7
178
     7
179
     3
271
     3
272
     2
274
     3
275
     1
284
     8
286
     8
340
167
341
1A8
371
    15
372
    25
  0
DIMSTYLE
105
21D
330
A
100
AcDbSymbolTableRecord
100
AcDbDimStyleTableRecord
  2
X.XXX tolérance restreinte
 70
     0
 40
2.0
 41
2.5
 42
0.0
 43
6.0
 44
3.174999999999999
 45
0.00000001
 46
10.0
 71
     1
 73
     0
 77
     1
 78
     8
 79
     2
140
3.5
143
0.03937
146
0.7142857142857144
147
0.762
171
     3
176
     7
177
     7
178
     7
179
     3
271
     3
272
     3
274
     3
275
     1
278
    44
284
     8
286
     8
340
167
371
    25
372
    25
  0
DIMSTYLE
105
21E
330
A
100
AcDbSymbolTableRecord
100
AcDbDimStyleTableRecord
  2
X.XXX tolérance restreinte$7
 70
     0
 40
2.0
 41
2.5
 42
0.0
 43
6.0
 44
3.174999999999999
 45
0.00000001
 46
10.0
 71
     1
 73
     0
 77
     1
 78
     8
 79
     2
140
3.5
143
0.03937
146
0.7142857142857144
147
0.762
171
     3
176
     7
177
     7
178
     7
179
     3
271
     3
272
     3
274
     3
275
     1
278
    44
284
     8
286
     8
340
167
371
    25
372
    25
  0
DIMSTYLE
105
21F
330
A
100
AcDbSymbolTableRecord
100
AcDbDimStyleTableRecord
  2
X.XXX tolérance restreinte-Norme legrand
 70
     0
 40
2.0
 41
2.5
 42
0.0
 43
6.0
 44
3.174999999999999
 45
0.00000001
 46
10.0
 71
     1
 73
     0
 77
     1
 78
     8
 79
     2
140
3.5
143
0.03937
146
0.7142857142857144
147
0.762
171
     3
176
     7
177
     7
178
     7
179
     3
271
     3
272
     3
274
     3
275
     1
278
    44
284
     8
286
     8
340
167
341
1A8
371
    25
372
    25
  0
DIMSTYLE
105
220
330
A
100
AcDbSymbolTableRecord
100
AcDbDimStyleTableRecord
  2
X.XXX tolérance restreinte-Norme legrand$7
 70
     0
 40
2.0
 41
2.5
 42
0.0
 43
6.0
 44
3.174999999999999
 45
0.00000001
 46
10.0
 71
     1
 73
     0
 77
     1
 78
     8
 79
     2
140
3.5
143
0.03937
146
0.7142857142857144
147
0.762
171
     3
176
     7
177
     7
178
     7
179
     3
271
     3
272
     3
274
     3
275
     1
278
    44
284
     8
286
     8
340
167
341
1A8
371
    15
372
    25
  0
DIMSTYLE
105
221
330
A
100
AcDbSymbolTableRecord
100
AcDbDimStyleTableRecord
  2
Ligne de repère-Point(ANSI)
 70
     0
 40
2.0
 41
2.5
340
11
342
222
  0
DIMSTYLE
105
229
330
A
100
AcDbSymbolTableRecord
100
AcDbDimStyleTableRecord
  2
Ligne de repère-Point(BSI)
 70
     0
 40
2.0
 41
2.5
340
11
342
222
  0
DIMSTYLE
105
22A
330
A
100
AcDbSymbolTableRecord
100
AcDbDimStyleTableRecord
  2
Ligne de repère-Point(DIN)
 70
     0
 40
2.0
 41
2.5
340
11
342
222
  0
DIMSTYLE
105
22B
330
A
100
AcDbSymbolTableRecord
100
AcDbDimStyleTableRecord
  2
Ligne de repère-Point(GB)
 70
     0
 40
2.0
 41
4.0
340
11
342
222
  0
DIMSTYLE
105
22C
330
A
100
AcDbSymbolTableRecord
100
AcDbDimStyleTableRecord
  2
Ligne de repère-Point(ISO)
 70
     0
 40
2.0
 41
2.5
340
11
342
222
  0
DIMSTYLE
105
22D
330
A
100
AcDbSymbolTableRecord
100
AcDbDimStyleTableRecord
  2
Ligne de repère-Point(JIS)
 70
     0
 40
2.0
 41
2.5
340
11
342
222
  0
DIMSTYLE
105
22E
330
A
100
AcDbSymbolTableRecord
100
AcDbDimStyleTableRecord
  2
Ligne de repère-Point(Norme legrand)
 70
     0
 40
2.0
 41
2.5
340
11
342
222
  0
DIMSTYLE
105
239
330
A
100
AcDbSymbolTableRecord
100
AcDbDimStyleTableRecord
  2
Ligne de repère-Référence(ANSI)
 70
     0
 40
2.0
 41
2.5
340
11
342
222
  0
DIMSTYLE
105
23A
330
A
100
AcDbSymbolTableRecord
100
AcDbDimStyleTableRecord
  2
Ligne de repère-Référence(BSI)
 70
     0
 40
2.0
 41
2.5
340
11
342
222
  0
DIMSTYLE
105
23B
330
A
100
AcDbSymbolTableRecord
100
AcDbDimStyleTableRecord
  2
Ligne de repère-Référence(DIN)
 70
     0
 40
2.0
 41
2.5
340
11
342
222
  0
DIMSTYLE
105
25D
330
A
100
AcDbSymbolTableRecord
100
AcDbDimStyleTableRecord
  2
Ligne de repère-Référence(GB)
 70
     0
 40
2.0
 41
4.0
340
11
342
222
  0
DIMSTYLE
105
25E
330
A
100
AcDbSymbolTableRecord
100
AcDbDimStyleTableRecord
  2
Ligne de repère-Référence(ISO)
 70
     0
 40
2.0
 41
2.5
340
11
342
222
  0
DIMSTYLE
105
25F
330
A
100
AcDbSymbolTableRecord
100
AcDbDimStyleTableRecord
  2
Ligne de repère-Référence(JIS)
 70
     0
 40
2.0
 41
2.5
340
11
342
222
  0
DIMSTYLE
105
260
330
A
100
AcDbSymbolTableRecord
100
AcDbDimStyleTableRecord
  2
Ligne de repère-Référence(Norme legrand)
 70
     0
 40
2.0
 41
2.5
340
11
342
222
  0
DIMSTYLE
105
261
330
A
100
AcDbSymbolTableRecord
100
AcDbDimStyleTableRecord
  2
Ligne de repère - Indicateur d'origine(ANSI)
 70
     0
 40
2.0
 41
2.5
340
11
342
222
  0
DIMSTYLE
105
262
330
A
100
AcDbSymbolTableRecord
100
AcDbDimStyleTableRecord
  2
Ligne de repère - Indicateur d'origine(BSI)
 70
     0
 40
2.0
 41
2.5
340
11
342
222
  0
DIMSTYLE
105
263
330
A
100
AcDbSymbolTableRecord
100
AcDbDimStyleTableRecord
  2
Ligne de repère - Indicateur d'origine(DIN)
 70
     0
 40
2.0
 41
2.5
340
11
342
222
  0
DIMSTYLE
105
264
330
A
100
AcDbSymbolTableRecord
100
AcDbDimStyleTableRecord
  2
Ligne de repère - Indicateur d'origine(GB)
 70
     0
 40
2.0
 41
4.0
340
11
342
222
  0
DIMSTYLE
105
265
330
A
100
AcDbSymbolTableRecord
100
AcDbDimStyleTableRecord
  2
Ligne de repère - Indicateur d'origine(ISO)
 70
     0
 40
2.0
 41
2.5
340
11
342
222
  0
DIMSTYLE
105
266
330
A
100
AcDbSymbolTableRecord
100
AcDbDimStyleTableRecord
  2
Ligne de repère - Indicateur d'origine(JIS)
 70
     0
 40
2.0
 41
2.5
340
11
342
222
  0
DIMSTYLE
105
267
330
A
100
AcDbSymbolTableRecord
100
AcDbDimStyleTableRecord
  2
Ligne de repère - Indicateur d'origine(Norme legrand)
 70
     0
 40
2.0
 41
2.5
340
11
342
222
  0
DIMSTYLE
105
268
330
A
100
AcDbSymbolTableRecord
100
AcDbDimStyleTableRecord
  2
Ligne de repère(ANSI)
 70
     0
 40
2.0
 41
2.5
340
11
342
222
  0
DIMSTYLE
105
269
330
A
100
AcDbSymbolTableRecord
100
AcDbDimStyleTableRecord
  2
Ligne de repère(BSI)
 70
     0
 40
2.0
 41
2.5
340
11
342
222
  0
DIMSTYLE
105
26A
330
A
100
AcDbSymbolTableRecord
100
AcDbDimStyleTableRecord
  2
Ligne de repère(DIN)
 70
     0
 40
2.0
 41
2.5
340
11
342
222
  0
DIMSTYLE
105
26B
330
A
100
AcDbSymbolTableRecord
100
AcDbDimStyleTableRecord
  2
Ligne de repère(GB)
 70
     0
 40
2.0
 41
4.0
340
11
342
222
  0
DIMSTYLE
105
26C
330
A
100
AcDbSymbolTableRecord
100
AcDbDimStyleTableRecord
  2
Ligne de repère(ISO)
 70
     0
 40
2.0
 41
2.5
340
11
342
222
  0
DIMSTYLE
105
26D
330
A
100
AcDbSymbolTableRecord
100
AcDbDimStyleTableRecord
  2
Ligne de repère(JIS)
 70
     0
 40
2.0
 41
2.5
340
11
342
222
  0
DIMSTYLE
105
26E
330
A
100
AcDbSymbolTableRecord
100
AcDbDimStyleTableRecord
  2
Ligne de repère(Norme legrand)
 70
     0
 40
2.0
 41
2.5
340
11
342
222
  0
ENDTAB
  0
TABLE
  2
BLOCK_RECORD
  5
1
330
0
100
AcDbSymbolTable
 70
    14
  0
BLOCK_RECORD
  5
23
330
1
100
AcDbSymbolTableRecord
100
AcDbBlockTableRecord
  2
*Model_Space
340
26
  0
BLOCK_RECORD
  5
1F
330
1
100
AcDbSymbolTableRecord
100
AcDbBlockTableRecord
  2
*Paper_Space
340
22
  0
BLOCK_RECORD
  5
27
330
1
100
AcDbSymbolTableRecord
100
AcDbBlockTableRecord
  2
*Paper_Space0
340
2A
  0
BLOCK_RECORD
  5
1A8
330
1
100
AcDbSymbolTableRecord
100
AcDbBlockTableRecord
  2
_ClosedBlank
340
0
  0
BLOCK_RECORD
  5
1B8
330
1
100
AcDbSymbolTableRecord
100
AcDbBlockTableRecord
  2
_Open
340
0
  0
BLOCK_RECORD
  5
1D1
330
1
100
AcDbSymbolTableRecord
100
AcDbBlockTableRecord
  2
Filled-1
340
0
  0
BLOCK_RECORD
  5
1EB
330
1
100
AcDbSymbolTableRecord
100
AcDbBlockTableRecord
  2
Empty-1
340
0
102
{BLKREFS
331
60E
331
60F
331
6E6
331
6E7
331
7BD
331
7BE
331
7C6
331
7C7
331
7D3
331
7D4
331
7DF
331
7E0
102
}
  0
BLOCK_RECORD
  5
222
330
1
100
AcDbSymbolTableRecord
100
AcDbBlockTableRecord
  2
_Closed
340
0
  0
BLOCK_RECORD
  5
22F
330
1
100
AcDbSymbolTableRecord
100
AcDbBlockTableRecord
  2
DatumFilled45
340
0
  0
BLOCK_RECORD
  5
23C
330
1
100
AcDbSymbolTableRecord
100
AcDbBlockTableRecord
  2
DatumThickLine
340
0
  0
BLOCK_RECORD
  5
543
330
1
100
AcDbSymbolTableRecord
100
AcDbBlockTableRecord
  2
*D8
340
0
  0
BLOCK_RECORD
  5
615
330
1
100
AcDbSymbolTableRecord
100
AcDbBlockTableRecord
  2
*D9
340
0
  0
BLOCK_RECORD
  5
6EC
330
1
100
AcDbSymbolTableRecord
100
AcDbBlockTableRecord
  2
*D10
340
0
  0
BLOCK_RECORD
  5
7C2
330
1
100
AcDbSymbolTableRecord
100
AcDbBlockTableRecord
  2
*D11
340
0
  0
BLOCK_RECORD
  5
7CE
330
1
100
AcDbSymbolTableRecord
100
AcDbBlockTableRecord
  2
*D12
340
0
  0
BLOCK_RECORD
  5
7DA
330
1
100
AcDbSymbolTableRecord
100
AcDbBlockTableRecord
  2
*D13
340
0
  0
ENDTAB
  0
ENDSEC
  0
SECTION
  2
BLOCKS
  0
BLOCK
  5
24
330
23
100
AcDbEntity
  8
0
100
AcDbBlockBegin
  2
*Model_Space
 70
     0
 10
0.0
 20
0.0
 30
0.0
  3
*Model_Space
  1

  0
ENDBLK
  5
25
330
23
100
AcDbEntity
  8
0
100
AcDbBlockEnd
  0
BLOCK
  5
20
330
1F
100
AcDbEntity
 67
     1
  8
0
100
AcDbBlockBegin
  2
*Paper_Space
 70
     0
 10
0.0
 20
0.0
 30
0.0
  3
*Paper_Space
  1

  0
ENDBLK
  5
21
330
1F
100
AcDbEntity
 67
     1
  8
0
100
AcDbBlockEnd
  0
BLOCK
  5
28
330
27
100
AcDbEntity
 67
     1
  8
0
100
AcDbBlockBegin
  2
*Paper_Space0
 70
     0
 10
0.0
 20
0.0
 30
0.0
  3
*Paper_Space0
  1

  0
ENDBLK
  5
29
330
27
100
AcDbEntity
 67
     1
  8
0
100
AcDbBlockEnd
  0
BLOCK
  5
1AC
330
1A8
100
AcDbEntity
  8
0
100
AcDbBlockBegin
  2
_ClosedBlank
 70
     0
 10
0.0
 20
0.0
 30
0.0
  3
_ClosedBlank
  1

  0
LINE
  5
1A9
330
1A8
100
AcDbEntity
  8
0
  6
ByBlock
 62
     0
370
    -2
100
AcDbLine
 10
-1.0
 20
0.1666666666666666
 30
0.0
 11
0.0
 21
0.0
 31
0.0
  0
LINE
  5
1AA
330
1A8
100
AcDbEntity
  8
0
  6
ByBlock
 62
     0
370
    -2
100
AcDbLine
 10
0.0
 20
0.0
 30
0.0
 11
-1.0
 21
-0.1666666666666666
 31
0.0
  0
LINE
  5
1AB
330
1A8
100
AcDbEntity
  8
0
  6
ByBlock
 62
     0
370
    -2
100
AcDbLine
 10
-1.0
 20
0.1666666666666666
 30
0.0
 11
-1.0
 21
-0.1666666666666666
 31
0.0
  0
ENDBLK
  5
1AD
330
1A8
100
AcDbEntity
  8
0
100
AcDbBlockEnd
  0
BLOCK
  5
1BC
330
1B8
100
AcDbEntity
  8
0
100
AcDbBlockBegin
  2
_Open
 70
     0
 10
0.0
 20
0.0
 30
0.0
  3
_Open
  1

  0
LINE
  5
1B9
330
1B8
100
AcDbEntity
  8
0
  6
ByBlock
 62
     0
370
    -2
100
AcDbLine
 10
-1.0
 20
0.1666666666666666
 30
0.0
 11
0.0
 21
0.0
 31
0.0
  0
LINE
  5
1BA
330
1B8
100
AcDbEntity
  8
0
  6
ByBlock
 62
     0
370
    -2
100
AcDbLine
 10
-1.0
 20
-0.1666666666666666
 30
0.0
 11
0.0
 21
0.0
 31
0.0
  0
LINE
  5
1BB
330
1B8
100
AcDbEntity
  8
0
  6
ByBlock
 62
     0
370
    -2
100
AcDbLine
 10
0.0
 20
0.0
 30
0.0
 11
-1.0
 21
0.0
 31
0.0
  0
ENDBLK
  5
1BD
330
1B8
100
AcDbEntity
  8
0
100
AcDbBlockEnd
  0
BLOCK
  5
1D2
330
1D1
100
AcDbEntity
  8
0
100
AcDbBlockBegin
  2
Filled-1
 70
     0
 10
0.0
 20
0.0
 30
0.0
  3
Filled-1
  1

  0
LINE
  5
1D4
330
1D1
100
AcDbEntity
  8
0
 62
     0
100
AcDbLine
 10
-1.0
 20
0.0
 30
0.0
 11
0.0
 21
0.0
 31
0.0
  0
POLYLINE
  5
1D5
330
1D1
100
AcDbEntity
  8
0
 62
     0
100
AcDb2dPolyline
 66
     1
 10
0.0
 20
0.0
 30
0.0
 70
   128
  0
VERTEX
  5
1D6
330
1D5
100
AcDbEntity
  8
0
 62
     0
100
AcDbVertex
100
AcDb2dVertex
 10
-1.0
 20
-0.125
 30
0.0
  0
VERTEX
  5
1D7
330
1D5
100
AcDbEntity
  8
0
 62
     0
100
AcDbVertex
100
AcDb2dVertex
 10
0.0
 20
0.0
 30
0.0
  0
VERTEX
  5
1D9
330
1D5
100
AcDbEntity
  8
0
 62
     0
100
AcDbVertex
100
AcDb2dVertex
 10
-1.0
 20
0.125
 30
0.0
  0
VERTEX
  5
1DA
330
1D5
100
AcDbEntity
  8
0
 62
     0
100
AcDbVertex
100
AcDb2dVertex
 10
-1.0
 20
-0.125
 30
0.0
  0
SEQEND
  5
1D8
330
1D5
100
AcDbEntity
  8
0
 62
     0
  0
SOLID
  5
1DB
330
1D1
100
AcDbEntity
  8
0
 62
     0
100
AcDbTrace
 10
-1.0
 20
-0.125
 30
0.0
 11
0.0
 21
0.0
 31
0.0
 12
-1.0
 22
0.125
 32
0.0
 13
-1.0
 23
-0.125
 33
0.0
  0
LINE
  5
1DC
330
1D1
100
AcDbEntity
  8
0
 62
     0
100
AcDbLine
 10
-1.0
 20
-0.125
 30
0.0
 11
0.0
 21
0.0
 31
0.0
  0
LINE
  5
1DD
330
1D1
100
AcDbEntity
  8
0
 62
     0
100
AcDbLine
 10
0.0
 20
0.0
 30
0.0
 11
-1.0
 21
0.125
 31
0.0
  0
LINE
  5
1DE
330
1D1
100
AcDbEntity
  8
0
 62
     0
100
AcDbLine
 10
-1.0
 20
0.125
 30
0.0
 11
-1.0
 21
-0.125
 31
0.0
  0
ENDBLK
  5
1D3
330
1D1
100
AcDbEntity
  8
0
100
AcDbBlockEnd
  0
BLOCK
  5
1EC
330
1EB
100
AcDbEntity
  8
0
100
AcDbBlockBegin
  2
Empty-1
 70
     0
 10
0.0
 20
0.0
 30
0.0
  3
Empty-1
  1

  0
LINE
  5
1EE
330
1EB
100
AcDbEntity
  8
0
 62
     0
100
AcDbLine
 10
-1.0
 20
-0.1428571428571429
 30
0.0
 11
0.0
 21
0.0
 31
0.0
  0
LINE
  5
1EF
330
1EB
100
AcDbEntity
  8
0
 62
     0
100
AcDbLine
 10
0.0
 20
0.0
 30
0.0
 11
-1.0
 21
0.1428571428571429
 31
0.0
  0
LINE
  5
1F0
330
1EB
100
AcDbEntity
  8
0
 62
     0
100
AcDbLine
 10
-1.0
 20
0.1428571428571429
 30
0.0
 11
-1.0
 21
-0.1428571428571429
 31
0.0
  0
ENDBLK
  5
1ED
330
1EB
100
AcDbEntity
  8
0
100
AcDbBlockEnd
  0
BLOCK
  5
227
330
222
100
AcDbEntity
  8
0
100
AcDbBlockBegin
  2
_Closed
 70
     0
 10
0.0
 20
0.0
 30
0.0
  3
_Closed
  1

  0
LINE
  5
223
330
222
100
AcDbEntity
  8
0
  6
ByBlock
 62
     0
370
    -2
100
AcDbLine
 10
-1.0
 20
0.1666666666666666
 30
0.0
 11
0.0
 21
0.0
 31
0.0
  0
LINE
  5
224
330
222
100
AcDbEntity
  8
0
  6
ByBlock
 62
     0
370
    -2
100
AcDbLine
 10
0.0
 20
0.0
 30
0.0
 11
-1.0
 21
-0.1666666666666666
 31
0.0
  0
LINE
  5
225
330
222
100
AcDbEntity
  8
0
  6
ByBlock
 62
     0
370
    -2
100
AcDbLine
 10
-1.0
 20
0.1666666666666666
 30
0.0
 11
-1.0
 21
-0.1666666666666666
 31
0.0
  0
LINE
  5
226
330
222
100
AcDbEntity
  8
0
  6
ByBlock
 62
     0
370
    -2
100
AcDbLine
 10
0.0
 20
0.0
 30
0.0
 11
-1.0
 21
0.0
 31
0.0
  0
ENDBLK
  5
228
330
222
100
AcDbEntity
  8
0
100
AcDbBlockEnd
  0
BLOCK
  5
230
330
22F
100
AcDbEntity
  8
0
100
AcDbBlockBegin
  2
DatumFilled45
 70
     0
 10
0.0
 20
0.0
 30
0.0
  3
DatumFilled45
  1

  0
POLYLINE
  5
232
330
22F
100
AcDbEntity
  8
0
 62
     0
100
AcDb2dPolyline
 66
     1
 10
0.0
 20
0.0
 30
0.0
 70
   128
  0
VERTEX
  5
233
330
232
100
AcDbEntity
  8
0
 62
     0
100
AcDbVertex
100
AcDb2dVertex
 10
0.0
 20
1.0
 30
0.0
  0
VERTEX
  5
234
330
232
100
AcDbEntity
  8
0
 62
     0
100
AcDbVertex
100
AcDb2dVertex
 10
0.0
 20
-1.0
 30
0.0
  0
VERTEX
  5
236
330
232
100
AcDbEntity
  8
0
 62
     0
100
AcDbVertex
100
AcDb2dVertex
 10
-1.0
 20
0.0
 30
0.0
  0
VERTEX
  5
237
330
232
100
AcDbEntity
  8
0
 62
     0
100
AcDbVertex
100
AcDb2dVertex
 10
0.0
 20
1.0
 30
0.0
  0
SEQEND
  5
235
330
232
100
AcDbEntity
  8
0
 62
     0
  0
SOLID
  5
238
330
22F
100
AcDbEntity
  8
0
 62
     0
100
AcDbTrace
 10
0.0
 20
1.0
 30
0.0
 11
0.0
 21
-1.0
 31
0.0
 12
-1.0
 22
0.0
 32
0.0
 13
0.0
 23
1.0
 33
0.0
  0
ENDBLK
  5
231
330
22F
100
AcDbEntity
  8
0
100
AcDbBlockEnd
  0
BLOCK
  5
23D
330
23C
100
AcDbEntity
  8
0
100
AcDbBlockBegin
  2
DatumThickLine
 70
     0
 10
0.0
 20
0.0
 30
0.0
  3
DatumThickLine
  1

  0
POLYLINE
  5
23F
330
23C
100
AcDbEntity
  8
0
 62
     0
100
AcDb2dPolyline
 66
     1
 10
0.0
 20
0.0
 30
0.0
 70
   128
  0
VERTEX
  5
240
330
23F
100
AcDbEntity
  8
0
 62
     0
100
AcDbVertex
100
AcDb2dVertex
 10
-0.25
 20
1.0
 30
0.0
  0
VERTEX
  5
241
330
23F
100
AcDbEntity
  8
0
 62
     0
100
AcDbVertex
100
AcDb2dVertex
 10
-0.25
 20
-1.0
 30
0.0
  0
VERTEX
  5
243
330
23F
100
AcDbEntity
  8
0
 62
     0
100
AcDbVertex
100
AcDb2dVertex
 10
-0.5
 20
-1.0
 30
0.0
  0
VERTEX
  5
244
330
23F
100
AcDbEntity
  8
0
 62
     0
100
AcDbVertex
100
AcDb2dVertex
 10
-0.25
 20
1.0
 30
0.0
  0
SEQEND
  5
242
330
23F
100
AcDbEntity
  8
0
 62
     0
  0
SOLID
  5
245
330
23C
100
AcDbEntity
  8
0
 62
     0
100
AcDbTrace
 10
-0.25
 20
1.0
 30
0.0
 11
-0.25
 21
-1.0
 31
0.0
 12
-0.5
 22
-1.0
 32
0.0
 13
-0.25
 23
1.0
 33
0.0
  0
POLYLINE
  5
246
330
23C
100
AcDbEntity
  8
0
 62
     0
100
AcDb2dPolyline
 66
     1
 10
0.0
 20
0.0
 30
0.0
 70
   128
  0
VERTEX
  5
247
330
246
100
AcDbEntity
  8
0
 62
     0
100
AcDbVertex
100
AcDb2dVertex
 10
-0.25
 20
1.0
 30
0.0
  0
VERTEX
  5
248
330
246
100
AcDbEntity
  8
0
 62
     0
100
AcDbVertex
100
AcDb2dVertex
 10
-0.5
 20
-1.0
 30
0.0
  0
VERTEX
  5
24A
330
246
100
AcDbEntity
  8
0
 62
     0
100
AcDbVertex
100
AcDb2dVertex
 10
-0.5
 20
-1.0
 30
0.0
  0
VERTEX
  5
24B
330
246
100
AcDbEntity
  8
0
 62
     0
100
AcDbVertex
100
AcDb2dVertex
 10
-0.25
 20
1.0
 30
0.0
  0
SEQEND
  5
249
330
246
100
AcDbEntity
  8
0
 62
     0
  0
SOLID
  5
24C
330
23C
100
AcDbEntity
  8
0
 62
     0
100
AcDbTrace
 10
-0.25
 20
1.0
 30
0.0
 11
-0.5
 21
-1.0
 31
0.0
 12
-0.5
 22
-1.0
 32
0.0
 13
-0.25
 23
1.0
 33
0.0
  0
POLYLINE
  5
24D
330
23C
100
AcDbEntity
  8
0
 62
     0
100
AcDb2dPolyline
 66
     1
 10
0.0
 20
0.0
 30
0.0
 70
   128
  0
VERTEX
  5
24E
330
24D
100
AcDbEntity
  8
0
 62
     0
100
AcDbVertex
100
AcDb2dVertex
 10
-0.25
 20
1.0
 30
0.0
  0
VERTEX
  5
24F
330
24D
100
AcDbEntity
  8
0
 62
     0
100
AcDbVertex
100
AcDb2dVertex
 10
-0.5
 20
-1.0
 30
0.0
  0
VERTEX
  5
251
330
24D
100
AcDbEntity
  8
0
 62
     0
100
AcDbVertex
100
AcDb2dVertex
 10
-0.5
 20
1.0
 30
0.0
  0
VERTEX
  5
252
330
24D
100
AcDbEntity
  8
0
 62
     0
100
AcDbVertex
100
AcDb2dVertex
 10
-0.25
 20
1.0
 30
0.0
  0
SEQEND
  5
250
330
24D
100
AcDbEntity
  8
0
 62
     0
  0
SOLID
  5
253
330
23C
100
AcDbEntity
  8
0
 62
     0
100
AcDbTrace
 10
-0.25
 20
1.0
 30
0.0
 11
-0.5
 21
-1.0
 31
0.0
 12
-0.5
 22
1.0
 32
0.0
 13
-0.25
 23
1.0
 33
0.0
  0
POLYLINE
  5
254
330
23C
100
AcDbEntity
  8
0
 62
     0
100
AcDb2dPolyline
 66
     1
 10
0.0
 20
0.0
 30
0.0
 70
   128
  0
VERTEX
  5
255
330
254
100
AcDbEntity
  8
0
 62
     0
100
AcDbVertex
100
AcDb2dVertex
 10
-0.25
 20
1.0
 30
0.0
  0
VERTEX
  5
256
330
254
100
AcDbEntity
  8
0
 62
     0
100
AcDbVertex
100
AcDb2dVertex
 10
-0.5
 20
1.0
 30
0.0
  0
VERTEX
  5
258
330
254
100
AcDbEntity
  8
0
 62
     0
100
AcDbVertex
100
AcDb2dVertex
 10
-0.25
 20
1.0
 30
0.0
  0
VERTEX
  5
259
330
254
100
AcDbEntity
  8
0
 62
     0
100
AcDbVertex
100
AcDb2dVertex
 10
-0.25
 20
1.0
 30
0.0
  0
SEQEND
  5
257
330
254
100
AcDbEntity
  8
0
 62
     0
  0
SOLID
  5
25A
330
23C
100
AcDbEntity
  8
0
 62
     0
100
AcDbTrace
 10
-0.25
 20
1.0
 30
0.0
 11
-0.5
 21
1.0
 31
0.0
 12
-0.25
 22
1.0
 32
0.0
 13
-0.25
 23
1.0
 33
0.0
  0
LINE
  5
25B
330
23C
100
AcDbEntity
  8
0
 62
     0
100
AcDbLine
 10
-1.0
 20
0.0
 30
0.0
 11
-0.5
 21
0.0
 31
0.0
  0
LINE
  5
25C
330
23C
100
AcDbEntity
  8
0
 62
     0
100
AcDbLine
 10
-0.5
 20
0.0
 30
0.0
 11
-1.0
 21
0.0
 31
0.0
  0
ENDBLK
  5
23E
330
23C
100
AcDbEntity
  8
0
100
AcDbBlockEnd
  0
BLOCK
  5
54E
330
543
100
AcDbEntity
  8
0
100
AcDbBlockBegin
  2
*D8
 70
     1
 10
0.0
 20
0.0
 30
0.0
  3
*D8
  1

  0
LINE
  5
60B
330
543
100
AcDbEntity
  8
Cotes(Norme legrand)
  6
Continuous
 62
     7
370
    15
100
AcDbLine
 10
551.1482724801876
 20
1811.732447584644
 30
0.0
 11
551.1482724801876
 21
2514.438926225854
 31
0.0
  0
LINE
  5
60C
330
543
100
AcDbEntity
  8
Cotes(Norme legrand)
  6
Continuous
 62
     7
370
    15
100
AcDbLine
 10
3271.148272480188
 20
1811.732447584644
 30
0.0
 11
3271.148272480188
 21
2514.438926225854
 31
0.0
  0
LINE
  5
60D
330
543
100
AcDbEntity
  8
Cotes(Norme legrand)
  6
Continuous
 62
     7
370
    15
100
AcDbLine
 10
621.1482724801876
 20
2474.438926225854
 30
0.0
 11
3201.148272480188
 21
2474.438926225854
 31
0.0
  0
INSERT
  5
60E
330
543
100
AcDbEntity
  8
Cotes(Norme legrand)
  6
Continuous
 62
     7
370
    15
100
AcDbBlockReference
  2
Empty-1
 10
551.1482724801876
 20
2474.438926225854
 30
0.0
 41
70.0
 42
70.0
 43
70.0
 50
180.0
  0
INSERT
  5
60F
330
543
100
AcDbEntity
  8
Cotes(Norme legrand)
  6
Continuous
 62
     7
370
    15
100
AcDbBlockReference
  2
Empty-1
 10
3271.148272480188
 20
2474.438926225854
 30
0.0
 41
70.0
 42
70.0
 43
70.0
  0
MTEXT
  5
610
330
543
100
AcDbEntity
  8
Cotes(Norme legrand)
  6
Continuous
 62
     7
370
    18
100
AcDbMText
 10
1911.148272480187
 20
2559.9654200867
 30
0.0
 40
70.0
 41
0.0
 71
     2
 72
     1
  1
\A1;272
  7
style legrand
 73
     1
 44
1.0
  0
POINT
  5
611
330
543
100
AcDbEntity
  8
Defpoints
  6
Continuous
 62
     0
100
AcDbPoint
 10
551.1482724801876
 20
1811.732447584644
 30
0.0
  0
POINT
  5
612
330
543
100
AcDbEntity
  8
Defpoints
  6
Continuous
 62
     0
100
AcDbPoint
 10
3271.148272480188
 20
1811.732447584644
 30
0.0
  0
POINT
  5
613
330
543
100
AcDbEntity
  8
Defpoints
  6
Continuous
 62
     0
100
AcDbPoint
 10
3271.148272480188
 20
2474.438926225854
 30
0.0
  0
ENDBLK
  5
54F
330
543
100
AcDbEntity
  8
0
100
AcDbBlockEnd
  0
BLOCK
  5
620
330
615
100
AcDbEntity
  8
0
100
AcDbBlockBegin
  2
*D9
 70
     1
 10
0.0
 20
0.0
 30
0.0
  3
*D9
  1

  0
LINE
  5
6E2
330
615
100
AcDbEntity
  8
Cotes(Norme legrand)
  6
Continuous
 62
     7
370
    15
100
AcDbLine
 10
1911.148272478791
 20
1461.094514125204
 30
0.0
 11
224.9605980704564
 21
1461.094514125204
 31
0.0
  0
LINE
  5
6E3
330
615
100
AcDbEntity
  8
Cotes(Norme legrand)
  6
Continuous
 62
     7
370
    15
100
AcDbLine
 10
1911.148272478791
 20
151.0945141252035
 30
0.0
 11
224.9605980704561
 21
151.094514125204
 31
0.0
  0
LINE
  5
6E4
330
615
100
AcDbEntity
  8
Cotes(Norme legrand)
  6
Continuous
 62
     7
370
    15
100
AcDbLine
 10
264.9605980704565
 20
1391.094514125204
 30
0.0
 11
264.9605980704563
 21
221.094514125204
 31
0.0
  0
MTEXT
  5
6E5
330
615
100
AcDbEntity
  8
Cotes(Norme legrand)
  6
Continuous
 62
     7
370
    18
100
AcDbMText
 10
178.1926308126119
 20
806.0945141252041
 30
0.0
 40
70.0
 41
0.0
 71
     2
 72
     1
  1
\A1;131
  7
style legrand
 11
0.0000000000000001
 21
1.0
 31
0.0
 73
     1
 44
1.0
  0
INSERT
  5
6E6
330
615
100
AcDbEntity
  8
Cotes(Norme legrand)
  6
Continuous
 62
     7
370
    15
100
AcDbBlockReference
  2
Empty-1
 10
264.9605980704565
 20
1461.094514125204
 30
0.0
 41
70.0
 42
70.0
 43
70.0
 50
90.0
  0
INSERT
  5
6E7
330
615
100
AcDbEntity
  8
Cotes(Norme legrand)
  6
Continuous
 62
     7
370
    15
100
AcDbBlockReference
  2
Empty-1
 10
264.9605980704563
 20
151.094514125204
 30
0.0
 41
70.0
 42
70.0
 43
70.0
 50
270.0
  0
POINT
  5
6E8
330
615
100
AcDbEntity
  8
Defpoints
  6
Continuous
 62
     0
100
AcDbPoint
 10
1911.148272478791
 20
1461.094514125204
 30
0.0
  0
POINT
  5
6E9
330
615
100
AcDbEntity
  8
Defpoints
  6
Continuous
 62
     0
100
AcDbPoint
 10
1911.148272478791
 20
151.0945141252035
 30
0.0
  0
POINT
  5
6EA
330
615
100
AcDbEntity
  8
Defpoints
  6
Continuous
 62
     0
100
AcDbPoint
 10
264.9605980704563
 20
151.094514125204
 30
0.0
  0
ENDBLK
  5
621
330
615
100
AcDbEntity
  8
0
100
AcDbBlockEnd
  0
BLOCK
  5
6F7
330
6EC
100
AcDbEntity
  8
0
100
AcDbBlockBegin
  2
*D10
 70
     1
 10
0.0
 20
0.0
 30
0.0
  3
*D10
  1

  0
LINE
  5
7B9
330
6EC
100
AcDbEntity
  8
Cotes(Norme legrand)
  6
Continuous
 62
     7
370
    15
100
AcDbLine
 10
1244.680597415784
 20
2271.732447584645
 30
0.0
 11
236.1482724801883
 21
2271.732447584645
 31
0.0
  0
LINE
  5
7BA
330
6EC
100
AcDbEntity
  8
Cotes(Norme legrand)
  6
Continuous
 62
     7
370
    15
100
AcDbLine
 10
876.1482724801883
 20
1811.732447584644
 30
0.0
 11
236.1482724801883
 21
1811.732447584645
 31
0.0
  0
LINE
  5
7BB
330
6EC
100
AcDbEntity
  8
Cotes(Norme legrand)
  6
Continuous
 62
     7
370
    15
100
AcDbLine
 10
276.1482724801884
 20
2201.732447584645
 30
0.0
 11
276.1482724801883
 21
1881.732447584645
 31
0.0
  0
MTEXT
  5
7BC
330
6EC
100
AcDbEntity
  8
Cotes(Norme legrand)
  6
Continuous
 62
     7
370
    18
100
AcDbMText
 10
189.4280541991515
 20
2041.732447584645
 30
0.0
 40
70.0
 41
0.0
 71
     2
 72
     1
  1
\A1;46
  7
style legrand
 11
0.0000000000000001
 21
1.0
 31
0.0
 73
     1
 44
1.0
  0
INSERT
  5
7BD
330
6EC
100
AcDbEntity
  8
Cotes(Norme legrand)
  6
Continuous
 62
     7
370
    15
100
AcDbBlockReference
  2
Empty-1
 10
276.1482724801884
 20
2271.732447584645
 30
0.0
 41
70.0
 42
70.0
 43
70.0
 50
90.0
  0
INSERT
  5
7BE
330
6EC
100
AcDbEntity
  8
Cotes(Norme legrand)
  6
Continuous
 62
     7
370
    15
100
AcDbBlockReference
  2
Empty-1
 10
276.1482724801883
 20
1811.732447584645
 30
0.0
 41
70.0
 42
70.0
 43
70.0
 50
270.0
  0
POINT
  5
7BF
330
6EC
100
AcDbEntity
  8
Defpoints
  6
Continuous
 62
     0
100
AcDbPoint
 10
1244.680597415784
 20
2271.732447584645
 30
0.0
  0
POINT
  5
7C0
330
6EC
100
AcDbEntity
  8
Defpoints
  6
Continuous
 62
     0
100
AcDbPoint
 10
876.1482724801883
 20
1811.732447584644
 30
0.0
  0
POINT
  5
7C1
330
6EC
100
AcDbEntity
  8
Defpoints
  6
Continuous
 62
     0
100
AcDbPoint
 10
276.1482724801883
 20
1811.732447584645
 30
0.0
  0
ENDBLK
  5
6F8
330
6EC
100
AcDbEntity
  8
0
100
AcDbBlockEnd
  0
BLOCK
  5
7CC
330
7C2
100
AcDbEntity
  8
0
100
AcDbBlockBegin
  2
*D11
 70
     1
 10
0.0
 20
0.0
 30
0.0
  3
*D11
  1

  0
LINE
  5
7C3
330
7C2
100
AcDbEntity
  8
Cotes(Norme legrand)
  6
Continuous
 62
     7
370
    15
100
AcDbLine
 10
55.11482724801876
 20
181.1732447584644
 30
0.0
 11
55.11482724801877
 21
251.4438926225853
 31
0.0
  0
LINE
  5
7C4
330
7C2
100
AcDbEntity
  8
Cotes(Norme legrand)
  6
Continuous
 62
     7
370
    15
100
AcDbLine
 10
327.1148272480187
 20
181.1732447584644
 30
0.0
 11
327.1148272480187
 21
251.4438926225853
 31
0.0
  0
LINE
  5
7C5
330
7C2
100
AcDbEntity
  8
Cotes(Norme legrand)
  6
Continuous
 62
     7
370
    15
100
AcDbLine
 10
62.11482724801877
 20
247.4438926225854
 30
0.0
 11
320.1148272480188
 21
247.4438926225854
 31
0.0
  0
INSERT
  5
7C6
330
7C2
100
AcDbEntity
  8
Cotes(Norme legrand)
  6
Continuous
 62
     7
370
    15
100
AcDbBlockReference
  2
Empty-1
 10
55.11482724801877
 20
247.4438926225854
 30
0.0
 41
7.0
 42
7.0
 43
7.0
 50
180.0
  0
INSERT
  5
7C7
330
7C2
100
AcDbEntity
  8
Cotes(Norme legrand)
  6
Continuous
 62
     7
370
    15
100
AcDbBlockReference
  2
Empty-1
 10
327.1148272480187
 20
247.4438926225854
 30
0.0
 41
7.0
 42
7.0
 43
7.0
  0
MTEXT
  5
7C8
330
7C2
100
AcDbEntity
  8
Cotes(Norme legrand)
  6
Continuous
 62
     7
370
    18
100
AcDbMText
 10
191.1148272480187
 20
255.9965420086699
 30
0.0
 40
7.0
 41
0.0
 71
     2
 72
     1
  1
\A1;272
  7
style legrand
 73
     1
 44
1.0
  0
POINT
  5
7C9
330
7C2
100
AcDbEntity
  8
Defpoints
  6
Continuous
 62
     0
100
AcDbPoint
 10
55.11482724801876
 20
181.1732447584644
 30
0.0
  0
POINT
  5
7CA
330
7C2
100
AcDbEntity
  8
Defpoints
  6
Continuous
 62
     0
100
AcDbPoint
 10
327.1148272480187
 20
181.1732447584644
 30
0.0
  0
POINT
  5
7CB
330
7C2
100
AcDbEntity
  8
Defpoints
  6
Continuous
 62
     0
100
AcDbPoint
 10
327.1148272480187
 20
247.4438926225854
 30
0.0
  0
ENDBLK
  5
7CD
330
7C2
100
AcDbEntity
  8
0
100
AcDbBlockEnd
  0
BLOCK
  5
7D8
330
7CE
100
AcDbEntity
  8
0
100
AcDbBlockBegin
  2
*D12
 70
     1
 10
0.0
 20
0.0
 30
0.0
  3
*D12
  1

  0
LINE
  5
7CF
330
7CE
100
AcDbEntity
  8
Cotes(Norme legrand)
  6
Continuous
 62
     7
370
    15
100
AcDbLine
 10
191.1148272478791
 20
146.1094514125204
 30
0.0
 11
22.49605980704564
 21
146.1094514125204
 31
0.0
  0
LINE
  5
7D0
330
7CE
100
AcDbEntity
  8
Cotes(Norme legrand)
  6
Continuous
 62
     7
370
    15
100
AcDbLine
 10
191.1148272478791
 20
15.10945141252035
 30
0.0
 11
22.49605980704561
 21
15.1094514125204
 31
0.0
  0
LINE
  5
7D1
330
7CE
100
AcDbEntity
  8
Cotes(Norme legrand)
  6
Continuous
 62
     7
370
    15
100
AcDbLine
 10
26.49605980704566
 20
139.1094514125204
 30
0.0
 11
26.49605980704563
 21
22.1094514125204
 31
0.0
  0
MTEXT
  5
7D2
330
7CE
100
AcDbEntity
  8
Cotes(Norme legrand)
  6
Continuous
 62
     7
370
    18
100
AcDbMText
 10
17.81926308126119
 20
80.60945141252041
 30
0.0
 40
7.0
 41
0.0
 71
     2
 72
     1
  1
\A1;131
  7
style legrand
 11
0.0000000000000001
 21
1.0
 31
0.0
 73
     1
 44
1.0
  0
INSERT
  5
7D3
330
7CE
100
AcDbEntity
  8
Cotes(Norme legrand)
  6
Continuous
 62
     7
370
    15
100
AcDbBlockReference
  2
Empty-1
 10
26.49605980704566
 20
146.1094514125204
 30
0.0
 41
7.0
 42
7.0
 43
7.0
 50
90.0
  0
INSERT
  5
7D4
330
7CE
100
AcDbEntity
  8
Cotes(Norme legrand)
  6
Continuous
 62
     7
370
    15
100
AcDbBlockReference
  2
Empty-1
 10
26.49605980704563
 20
15.1094514125204
 30
0.0
 41
7.0
 42
7.0
 43
7.0
 50
270.0
  0
POINT
  5
7D5
330
7CE
100
AcDbEntity
  8
Defpoints
  6
Continuous
 62
     0
100
AcDbPoint
 10
191.1148272478791
 20
146.1094514125204
 30
0.0
  0
POINT
  5
7D6
330
7CE
100
AcDbEntity
  8
Defpoints
  6
Continuous
 62
     0
100
AcDbPoint
 10
191.1148272478791
 20
15.10945141252035
 30
0.0
  0
POINT
  5
7D7
330
7CE
100
AcDbEntity
  8
Defpoints
  6
Continuous
 62
     0
100
AcDbPoint
 10
26.49605980704563
 20
15.1094514125204
 30
0.0
  0
ENDBLK
  5
7D9
330
7CE
100
AcDbEntity
  8
0
100
AcDbBlockEnd
  0
BLOCK
  5
7E4
330
7DA
100
AcDbEntity
  8
0
100
AcDbBlockBegin
  2
*D13
 70
     1
 10
0.0
 20
0.0
 30
0.0
  3
*D13
  1

  0
LINE
  5
7DB
330
7DA
100
AcDbEntity
  8
Cotes(Norme legrand)
  6
Continuous
 62
     7
370
    15
100
AcDbLine
 10
124.4680597415784
 20
227.1732447584645
 30
0.0
 11
23.61482724801883
 21
227.1732447584645
 31
0.0
  0
LINE
  5
7DC
330
7DA
100
AcDbEntity
  8
Cotes(Norme legrand)
  6
Continuous
 62
     7
370
    15
100
AcDbLine
 10
87.61482724801883
 20
181.1732447584644
 30
0.0
 11
23.61482724801883
 21
181.1732447584645
 31
0.0
  0
LINE
  5
7DD
330
7DA
100
AcDbEntity
  8
Cotes(Norme legrand)
  6
Continuous
 62
     7
370
    15
100
AcDbLine
 10
27.61482724801884
 20
220.1732447584645
 30
0.0
 11
27.61482724801883
 21
188.1732447584645
 31
0.0
  0
MTEXT
  5
7DE
330
7DA
100
AcDbEntity
  8
Cotes(Norme legrand)
  6
Continuous
 62
     7
370
    18
100
AcDbMText
 10
18.94280541991515
 20
204.1732447584645
 30
0.0
 40
7.0
 41
0.0
 71
     2
 72
     1
  1
\A1;46
  7
style legrand
 11
0.0000000000000001
 21
1.0
 31
0.0
 73
     1
 44
1.0
  0
INSERT
  5
7DF
330
7DA
100
AcDbEntity
  8
Cotes(Norme legrand)
  6
Continuous
 62
     7
370
    15
100
AcDbBlockReference
  2
Empty-1
 10
27.61482724801884
 20
227.1732447584645
 30
0.0
 41
7.0
 42
7.0
 43
7.0
 50
90.0
  0
INSERT
  5
7E0
330
7DA
100
AcDbEntity
  8
Cotes(Norme legrand)
  6
Continuous
 62
     7
370
    15
100
AcDbBlockReference
  2
Empty-1
 10
27.61482724801883
 20
181.1732447584645
 30
0.0
 41
7.0
 42
7.0
 43
7.0
 50
270.0
  0
POINT
  5
7E1
330
7DA
100
AcDbEntity
  8
Defpoints
  6
Continuous
 62
     0
100
AcDbPoint
 10
124.4680597415784
 20
227.1732447584645
 30
0.0
  0
POINT
  5
7E2
330
7DA
100
AcDbEntity
  8
Defpoints
  6
Continuous
 62
     0
100
AcDbPoint
 10
87.61482724801883
 20
181.1732447584644
 30
0.0
  0
POINT
  5
7E3
330
7DA
100
AcDbEntity
  8
Defpoints
  6
Continuous
 62
     0
100
AcDbPoint
 10
27.61482724801883
 20
181.1732447584645
 30
0.0
  0
ENDBLK
  5
7E5
330
7DA
100
AcDbEntity
  8
0
100
AcDbBlockEnd
  0
ENDSEC
  0
SECTION
  2
ENTITIES
  0
LINE
  5
26F
330
23
100
AcDbEntity
  8
Arêtes visibles(Norme legrand)
100
AcDbLine
 10
121.1148234333215
 20
224.1732466658131
 30
0.0
 11
124.1148348774133
 21
227.1732438047902
 31
0.0
  0
LINE
  5
270
330
23
100
AcDbEntity
  8
Arêtes visibles(Norme legrand)
100
AcDbLine
 10
258.1148262943444
 20
227.1732438047902
 30
0.0
 11
261.1148282016931
 21
224.1732466658131
 31
0.0
  0
LINE
  5
271
330
23
100
AcDbEntity
  8
Arêtes cachées(Norme legrand)
100
AcDbLine
 10
162.6676496783027
 20
227.1732447584645
 30
0.0
 11
162.2726921855406
 21
224.1732447584645
 31
0.0
  0
LINE
  5
272
330
23
100
AcDbEntity
  8
Arêtes cachées(Norme legrand)
100
AcDbLine
 10
219.562004817735
 20
227.1732447584645
 30
0.0
 11
219.9569623104972
 21
224.1732447584645
 31
0.0
  0
LINE
  5
273
330
23
100
AcDbEntity
  8
Arêtes visibles(Norme legrand)
100
AcDbLine
 10
121.1148272480187
 20
209.1732447584644
 30
0.0
 11
121.1148272480187
 21
224.1732447584645
 31
0.0
  0
LINE
  5
274
330
23
100
AcDbEntity
  8
Arêtes visibles(Norme legrand)
100
AcDbLine
 10
261.1148272480187
 20
209.1732447584644
 30
0.0
 11
261.1148272480187
 21
224.1732447584645
 31
0.0
  0
LINE
  5
275
330
23
100
AcDbEntity
  8
Arêtes visibles(Norme legrand)
100
AcDbLine
 10
155.9466662748671
 20
201.1732447584644
 30
0.0
 11
163.2943577775726
 21
201.1732447584644
 31
0.0
  0
LINE
  5
276
330
23
100
AcDbEntity
  8
Arêtes visibles(Norme legrand)
100
AcDbLine
 10
121.1148272480187
 20
209.1732447584644
 30
0.0
 11
114.0323443433802
 21
202.0907618538259
 31
0.0
  0
LINE
  5
277
330
23
100
AcDbEntity
  8
Arêtes visibles(Norme legrand)
100
AcDbLine
 10
114.0323443433802
 20
181.1732447584644
 30
0.0
 11
121.1148272480189
 21
181.1732447584644
 31
0.0
  0
LINE
  5
278
330
23
100
AcDbEntity
  8
Arêtes visibles(Norme legrand)
100
AcDbLine
 10
121.1148272480189
 20
181.1732447584645
 30
0.0
 11
123.6916026062708
 21
183.7500201167164
 31
0.0
  0
LINE
  5
279
330
23
100
AcDbEntity
  8
Arêtes visibles(Norme legrand)
100
AcDbLine
 10
258.5380518897667
 20
183.7500201167165
 30
0.0
 11
261.1148272480189
 21
181.1732447584644
 31
0.0
  0
LINE
  5
27A
330
23
100
AcDbEntity
  8
Arêtes visibles(Norme legrand)
100
AcDbLine
 10
261.1148272480189
 20
181.1732447584644
 30
0.0
 11
268.1973101526574
 21
181.1732447584644
 31
0.0
  0
LINE
  5
27B
330
23
100
AcDbEntity
  8
Arêtes visibles(Norme legrand)
100
AcDbLine
 10
268.1973101526574
 20
202.0907618538258
 30
0.0
 11
261.1148272480187
 21
209.1732447584644
 31
0.0
  0
LINE
  5
27C
330
23
100
AcDbEntity
  8
Arêtes visibles(Norme legrand)
100
AcDbLine
 10
218.9352967184648
 20
201.1732447584644
 30
0.0
 11
226.2829882211703
 21
201.1732447584644
 31
0.0
  0
LINE
  5
27D
330
23
100
AcDbEntity
  8
Arêtes cachées(Norme legrand)
100
AcDbLine
 10
162.2726921855405
 20
201.1732447584644
 30
0.0
 11
162.2726921855406
 21
224.1732447584645
 31
0.0
  0
LINE
  5
27E
330
23
100
AcDbEntity
  8
Arêtes visibles(Norme legrand)
100
AcDbLine
 10
65.54308092984445
 20
181.1732447584644
 30
0.0
 11
56.17112663305768
 21
181.1732447584644
 31
0.0
  0
LINE
  5
27F
330
23
100
AcDbEntity
  8
Arêtes visibles(Norme legrand)
100
AcDbLine
 10
55.11482724801876
 20
181.1732447584644
 30
0.0
 11
56.17112663305764
 21
181.1732447584644
 31
0.0
  0
LINE
  5
280
330
23
100
AcDbEntity
  8
Arêtes visibles(Norme legrand)
100
AcDbLine
 10
65.54308092984445
 20
201.1732447584644
 30
0.0
 11
65.54308092984445
 21
181.1732447584644
 31
0.0
  0
LINE
  5
281
330
23
100
AcDbEntity
  8
Arêtes visibles(Norme legrand)
100
AcDbLine
 10
55.11482724801876
 20
201.1732447584644
 30
0.0
 11
55.11482724801876
 21
181.1732447584644
 31
0.0
  0
LINE
  5
282
330
23
100
AcDbEntity
  8
Arêtes cachées(Norme legrand)
100
AcDbLine
 10
219.9569623104972
 20
224.1732447584645
 30
0.0
 11
219.9569623104971
 21
201.1732447584644
 31
0.0
  0
LINE
  5
283
330
23
100
AcDbEntity
  8
Arêtes visibles(Norme legrand)
100
AcDbLine
 10
316.686573566193
 20
181.1732447584644
 30
0.0
 11
316.686573566193
 21
201.1732447584644
 31
0.0
  0
LINE
  5
284
330
23
100
AcDbEntity
  8
Arêtes visibles(Norme legrand)
100
AcDbLine
 10
326.0585278629799
 20
181.1732447584644
 30
0.0
 11
327.1148272480187
 21
181.1732447584644
 31
0.0
  0
LINE
  5
285
330
23
100
AcDbEntity
  8
Arêtes visibles(Norme legrand)
100
AcDbLine
 10
326.0585278629799
 20
181.1732447584644
 30
0.0
 11
316.686573566193
 21
181.1732447584644
 31
0.0
  0
LINE
  5
286
330
23
100
AcDbEntity
  8
Arêtes visibles(Norme legrand)
100
AcDbLine
 10
327.1148272480187
 20
201.1732447584644
 30
0.0
 11
327.1148272480187
 21
181.1732447584644
 31
0.0
  0
LINE
  5
287
330
23
100
AcDbEntity
  8
Arêtes visibles(Norme legrand)
100
AcDbLine
 10
258.1148272480187
 20
227.1732447584645
 30
0.0
 11
257.7615947544593
 21
227.1732447584645
 31
0.0
  0
LINE
  5
288
330
23
100
AcDbEntity
  8
Arêtes visibles(Norme legrand)
100
AcDbLine
 10
258.5380518897667
 20
224.1732447584645
 30
0.0
 11
261.1148272480187
 21
224.1732447584645
 31
0.0
  0
LINE
  5
289
330
23
100
AcDbEntity
  8
Arêtes visibles(Norme legrand)
100
AcDbLine
 10
166.2751223636919
 20
227.1732447584645
 30
0.0
 11
215.9545321323455
 21
227.1732447584645
 31
0.0
  0
LINE
  5
28A
330
23
100
AcDbEntity
  8
Arêtes visibles(Norme legrand)
100
AcDbLine
 10
218.9352967184648
 20
224.1732447584645
 30
0.0
 11
163.2943577775727
 21
224.1732447584645
 31
0.0
  0
LINE
  5
28B
330
23
100
AcDbEntity
  8
Arêtes visibles(Norme legrand)
100
AcDbLine
 10
225.5065310858627
 20
227.1732447584645
 30
0.0
 11
215.9545321323456
 21
227.1732447584645
 31
0.0
  0
LINE
  5
28C
330
23
100
AcDbEntity
  8
Arêtes visibles(Norme legrand)
100
AcDbLine
 10
218.9352967184648
 20
224.1732447584645
 30
0.0
 11
226.2829882211703
 21
224.1732447584645
 31
0.0
  0
LINE
  5
28D
330
23
100
AcDbEntity
  8
Arêtes visibles(Norme legrand)
100
AcDbLine
 10
155.9466662748671
 20
224.1732447584645
 30
0.0
 11
163.2943577775726
 21
224.1732447584645
 31
0.0
  0
LINE
  5
28E
330
23
100
AcDbEntity
  8
Arêtes visibles(Norme legrand)
100
AcDbLine
 10
166.2751223636919
 20
227.1732447584645
 30
0.0
 11
156.7231234101747
 21
227.1732447584645
 31
0.0
  0
LINE
  5
28F
330
23
100
AcDbEntity
  8
Arêtes visibles(Norme legrand)
100
AcDbLine
 10
257.7615947544592
 20
227.1732447584645
 30
0.0
 11
225.5065310858627
 21
227.1732447584645
 31
0.0
  0
LINE
  5
290
330
23
100
AcDbEntity
  8
Arêtes visibles(Norme legrand)
100
AcDbLine
 10
226.2829882211703
 20
224.1732447584645
 30
0.0
 11
258.5380518897667
 21
224.1732447584645
 31
0.0
  0
LINE
  5
291
330
23
100
AcDbEntity
  8
Arêtes visibles(Norme legrand)
100
AcDbLine
 10
123.6916026062708
 20
224.1732447584645
 30
0.0
 11
155.9466662748671
 21
224.1732447584645
 31
0.0
  0
LINE
  5
292
330
23
100
AcDbEntity
  8
Arêtes visibles(Norme legrand)
100
AcDbLine
 10
156.7231234101747
 20
227.1732447584645
 30
0.0
 11
124.4680597415784
 21
227.1732447584645
 31
0.0
  0
LINE
  5
293
330
23
100
AcDbEntity
  8
Arêtes visibles(Norme legrand)
100
AcDbLine
 10
121.1148272480187
 20
224.1732447584645
 30
0.0
 11
123.6916026062708
 21
224.1732447584645
 31
0.0
  0
LINE
  5
294
330
23
100
AcDbEntity
  8
Arêtes visibles(Norme legrand)
100
AcDbLine
 10
124.4680597415784
 20
227.1732447584645
 30
0.0
 11
124.1148272480188
 21
227.1732447584645
 31
0.0
  0
LINE
  5
295
330
23
100
AcDbEntity
  8
Arêtes visibles(Norme legrand)
100
AcDbLine
 10
123.6916026062708
 20
183.7500201167164
 30
0.0
 11
141.1148272480189
 21
201.1732447584644
 31
0.0
  0
LINE
  5
296
330
23
100
AcDbEntity
  8
Arêtes visibles(Norme legrand)
100
AcDbLine
 10
141.1148272480189
 20
201.1732447584644
 30
0.0
 11
155.9466662748671
 21
201.1732447584644
 31
0.0
  0
LINE
  5
297
330
23
100
AcDbEntity
  8
Arêtes visibles(Norme legrand)
100
AcDbLine
 10
226.2829882211703
 20
201.1732447584644
 30
0.0
 11
241.1148272480189
 21
201.1732447584644
 31
0.0
  0
LINE
  5
298
330
23
100
AcDbEntity
  8
Arêtes visibles(Norme legrand)
100
AcDbLine
 10
241.1148272480189
 20
201.1732447584644
 30
0.0
 11
258.5380518897667
 21
183.7500201167165
 31
0.0
  0
LINE
  5
299
330
23
100
AcDbEntity
  8
Arêtes visibles(Norme legrand)
100
AcDbLine
 10
218.9352967184648
 20
201.1732447584644
 30
0.0
 11
163.2943577775727
 21
201.1732447584644
 31
0.0
  0
LINE
  5
29A
330
23
100
AcDbEntity
  8
Arêtes visibles(Norme legrand)
100
AcDbLine
 10
113.1148272480187
 20
201.1732447584644
 30
0.0
 11
114.0323443433802
 21
202.0907618538259
 31
0.0
  0
LINE
  5
29B
330
23
100
AcDbEntity
  8
Arêtes visibles(Norme legrand)
100
AcDbLine
 10
269.1148272480187
 20
201.1732447584644
 30
0.0
 11
268.1973101526574
 21
202.0907618538258
 31
0.0
  0
LINE
  5
29C
330
23
100
AcDbEntity
  8
Arêtes visibles(Norme legrand)
100
AcDbLine
 10
113.1148272480187
 20
201.1732447584644
 30
0.0
 11
110.1148272480187
 21
201.1732447584644
 31
0.0
  0
LINE
  5
29D
330
23
100
AcDbEntity
  8
Arêtes visibles(Norme legrand)
100
AcDbLine
 10
272.1148272480188
 20
201.1732447584644
 30
0.0
 11
269.1148272480187
 21
201.1732447584644
 31
0.0
  0
LINE
  5
29E
330
23
100
AcDbEntity
  8
Arêtes visibles(Norme legrand)
100
AcDbLine
 10
294.6148272480188
 20
201.1732447584644
 30
0.0
 11
272.1148272480188
 21
201.1732447584644
 31
0.0
  0
LINE
  5
29F
330
23
100
AcDbEntity
  8
Arêtes visibles(Norme legrand)
100
AcDbLine
 10
297.6148272480187
 20
201.1732447584644
 30
0.0
 11
294.6148272480188
 21
201.1732447584644
 31
0.0
  0
LINE
  5
2A0
330
23
100
AcDbEntity
  8
Arêtes visibles(Norme legrand)
100
AcDbLine
 10
316.686573566193
 20
201.1732447584644
 30
0.0
 11
297.6148272480187
 21
201.1732447584644
 31
0.0
  0
LINE
  5
2A1
330
23
100
AcDbEntity
  8
Arêtes visibles(Norme legrand)
100
AcDbLine
 10
326.0585278629799
 20
201.1732447584644
 30
0.0
 11
316.686573566193
 21
201.1732447584644
 31
0.0
  0
LINE
  5
2A2
330
23
100
AcDbEntity
  8
Arêtes visibles(Norme legrand)
100
AcDbLine
 10
326.0585278629799
 20
201.1732447584644
 30
0.0
 11
327.1148272480187
 21
201.1732447584644
 31
0.0
  0
LINE
  5
2A3
330
23
100
AcDbEntity
  8
Arêtes visibles(Norme legrand)
100
AcDbLine
 10
55.11482724801876
 20
201.1732447584644
 30
0.0
 11
56.17112663305764
 21
201.1732447584644
 31
0.0
  0
LINE
  5
2A4
330
23
100
AcDbEntity
  8
Arêtes visibles(Norme legrand)
100
AcDbLine
 10
65.54308092984445
 20
201.1732447584644
 30
0.0
 11
56.17112663305768
 21
201.1732447584644
 31
0.0
  0
LINE
  5
2A5
330
23
100
AcDbEntity
  8
Arêtes visibles(Norme legrand)
100
AcDbLine
 10
84.61482724801882
 20
201.1732447584644
 30
0.0
 11
65.54308092984445
 21
201.1732447584644
 31
0.0
  0
LINE
  5
2A6
330
23
100
AcDbEntity
  8
Arêtes visibles(Norme legrand)
100
AcDbLine
 10
87.61482724801883
 20
201.1732447584644
 30
0.0
 11
84.6148272480188
 21
201.1732447584644
 31
0.0
  0
LINE
  5
2A7
330
23
100
AcDbEntity
  8
Arêtes visibles(Norme legrand)
100
AcDbLine
 10
110.1148272480187
 20
201.1732447584644
 30
0.0
 11
87.61482724801883
 21
201.1732447584644
 31
0.0
  0
LINE
  5
2A8
330
23
100
AcDbEntity
  8
Arêtes visibles(Norme legrand)
100
AcDbLine
 10
110.1148272480187
 20
201.1732447584644
 30
0.0
 11
110.1148272480187
 21
181.1732447584644
 31
0.0
  0
LINE
  5
2A9
330
23
100
AcDbEntity
  8
Arêtes visibles(Norme legrand)
100
AcDbLine
 10
114.0323443433802
 20
181.1732447584644
 30
0.0
 11
110.1148272480187
 21
181.1732447584644
 31
0.0
  0
LINE
  5
2AA
330
23
100
AcDbEntity
  8
Arêtes visibles(Norme legrand)
100
AcDbLine
 10
110.1148272480187
 20
181.1732447584644
 30
0.0
 11
87.61482724801883
 21
181.1732447584644
 31
0.0
  0
LINE
  5
2AB
330
23
100
AcDbEntity
  8
Arêtes visibles(Norme legrand)
100
AcDbLine
 10
84.61482724801882
 20
181.1732447584644
 30
0.0
 11
65.54308092984445
 21
181.1732447584644
 31
0.0
  0
LINE
  5
2AC
330
23
100
AcDbEntity
  8
Arêtes cachées(Norme legrand)
100
AcDbLine
 10
175.5148272480187
 20
215.6732447584644
 30
0.0
 11
206.7148272480188
 21
215.6732447584644
 31
0.0
  0
LINE
  5
2AD
330
23
100
AcDbEntity
  8
Arêtes cachées(Norme legrand)
100
AcDbLine
 10
205.2148272480188
 20
217.1732447584644
 30
0.0
 11
177.0148272480187
 21
217.1732447584644
 31
0.0
  0
LINE
  5
2AE
330
23
100
AcDbEntity
  8
Arêtes cachées(Norme legrand)
100
AcDbLine
 10
205.2148272480188
 20
217.1732447584644
 30
0.0
 11
206.7148272480188
 21
215.6732447584644
 31
0.0
  0
LINE
  5
2AF
330
23
100
AcDbEntity
  8
Arêtes cachées(Norme legrand)
100
AcDbLine
 10
177.0148272480188
 20
217.1732447584644
 30
0.0
 11
175.5148272480187
 21
215.6732447584644
 31
0.0
  0
LINE
  5
2B0
330
23
100
AcDbEntity
  8
Arêtes cachées(Norme legrand)
100
AcDbLine
 10
177.0148272480187
 20
226.1732447584645
 30
0.0
 11
205.2148272480188
 21
226.1732447584645
 31
0.0
  0
LINE
  5
2B1
330
23
100
AcDbEntity
  8
Arêtes cachées(Norme legrand)
100
AcDbLine
 10
177.0148272480188
 20
226.1732447584645
 30
0.0
 11
176.0148272480187
 21
227.1732447584645
 31
0.0
  0
LINE
  5
2B2
330
23
100
AcDbEntity
  8
Arêtes cachées(Norme legrand)
100
AcDbLine
 10
205.2148272480188
 20
226.1732447584645
 30
0.0
 11
206.2148272480188
 21
227.1732447584645
 31
0.0
  0
LINE
  5
2B3
330
23
100
AcDbEntity
  8
Arêtes cachées(Norme legrand)
100
AcDbLine
 10
169.0148272480187
 20
214.1732447584645
 30
0.0
 11
213.2148272480188
 21
214.1732447584645
 31
0.0
  0
LINE
  5
2B4
330
23
100
AcDbEntity
  8
Arêtes cachées(Norme legrand)
100
AcDbLine
 10
169.0148272480187
 20
201.1732447584644
 30
0.0
 11
169.0148272480187
 21
214.1732447584645
 31
0.0
  0
LINE
  5
2B5
330
23
100
AcDbEntity
  8
Arêtes cachées(Norme legrand)
100
AcDbLine
 10
213.2148272480188
 20
201.1732447584644
 30
0.0
 11
213.2148272480188
 21
214.1732447584645
 31
0.0
  0
LINE
  5
2B6
330
23
100
AcDbEntity
  8
Arêtes cachées(Norme legrand)
100
AcDbLine
 10
128.6148272480187
 20
201.1732447584644
 30
0.0
 11
141.1148272480188
 21
201.1732447584644
 31
0.0
  0
LINE
  5
2B7
330
23
100
AcDbEntity
  8
Arêtes cachées(Norme legrand)
100
AcDbLine
 10
241.1148272480188
 20
201.1732447584644
 30
0.0
 11
253.6148272480188
 21
201.1732447584644
 31
0.0
  0
LINE
  5
2B8
330
23
100
AcDbEntity
  8
Arêtes cachées(Norme legrand)
100
AcDbLine
 10
128.6148272480187
 20
188.6732447584643
 30
0.0
 11
128.6148272480187
 21
201.1732447584644
 31
0.0
  0
LINE
  5
2B9
330
23
100
AcDbEntity
  8
Arêtes cachées(Norme legrand)
100
AcDbLine
 10
253.6148272480188
 20
188.6732447584645
 30
0.0
 11
253.6148272480188
 21
201.1732447584644
 31
0.0
  0
LINE
  5
2BA
330
23
100
AcDbEntity
  8
Arêtes cachées(Norme legrand)
100
AcDbLine
 10
269.6148272480187
 20
187.8497447584644
 30
0.0
 11
269.6148272480187
 21
194.4967447584644
 31
0.0
  0
LINE
  5
2BB
330
23
100
AcDbEntity
  8
Arêtes cachées(Norme legrand)
100
AcDbLine
 10
267.6178669806807
 20
191.1732447584644
 30
0.0
 11
269.6148272480188
 21
194.4967447584644
 31
0.0
  0
LINE
  5
2BC
330
23
100
AcDbEntity
  8
Arêtes cachées(Norme legrand)
100
AcDbLine
 10
267.6178669806807
 20
191.1732447584644
 30
0.0
 11
269.6148272480188
 21
187.8497447584644
 31
0.0
  0
LINE
  5
2BD
330
23
100
AcDbEntity
  8
Arêtes cachées(Norme legrand)
100
AcDbLine
 10
269.6148272480187
 20
194.4967447584644
 30
0.0
 11
294.6148272480188
 21
194.4967447584644
 31
0.0
  0
LINE
  5
2BE
330
23
100
AcDbEntity
  8
Arêtes cachées(Norme legrand)
100
AcDbLine
 10
269.6148272480187
 20
187.8497447584644
 30
0.0
 11
294.6148272480188
 21
187.8497447584644
 31
0.0
  0
LINE
  5
2BF
330
23
100
AcDbEntity
  8
Arêtes cachées(Norme legrand)
100
AcDbLine
 10
294.6148272480188
 20
195.1732447584644
 30
0.0
 11
274.6148272480188
 21
195.1732447584644
 31
0.0
  0
LINE
  5
2C0
330
23
100
AcDbEntity
  8
Arêtes cachées(Norme legrand)
100
AcDbLine
 10
274.6148272480188
 20
187.1732447584644
 30
0.0
 11
294.6148272480188
 21
187.1732447584644
 31
0.0
  0
LINE
  5
2C1
330
23
100
AcDbEntity
  8
Arêtes cachées(Norme legrand)
100
AcDbLine
 10
274.6148272480188
 20
195.1732447584644
 30
0.0
 11
274.6148272480188
 21
187.1732447584644
 31
0.0
  0
LINE
  5
2C2
330
23
100
AcDbEntity
  8
Arêtes cachées(Norme legrand)
100
AcDbLine
 10
308.1148272480187
 20
198.1732447584644
 30
0.0
 11
308.1148272480187
 21
184.1732447584644
 31
0.0
  0
LINE
  5
2C3
330
23
100
AcDbEntity
  8
Arêtes cachées(Norme legrand)
100
AcDbLine
 10
319.3660654905043
 20
184.1732447584644
 30
0.0
 11
308.1148272480187
 21
184.1732447584644
 31
0.0
  0
LINE
  5
2C4
330
23
100
AcDbEntity
  8
Arêtes cachées(Norme legrand)
100
AcDbLine
 10
319.3660654905043
 20
198.1732447584644
 30
0.0
 11
308.1148272480187
 21
198.1732447584644
 31
0.0
  0
LINE
  5
2C5
330
23
100
AcDbEntity
  8
Arêtes cachées(Norme legrand)
100
AcDbLine
 10
308.1148272480187
 20
186.9232447584644
 30
0.0
 11
297.6148272480188
 21
186.9232447584644
 31
0.0
  0
LINE
  5
2C6
330
23
100
AcDbEntity
  8
Arêtes cachées(Norme legrand)
100
AcDbLine
 10
308.1148272480187
 20
195.4232447584644
 30
0.0
 11
297.6148272480188
 21
195.4232447584644
 31
0.0
  0
ELLIPSE
  5
2C7
330
23
100
AcDbEntity
  8
Arêtes visibles(Norme legrand)
100
AcDbEllipse
 10
319.3660654905043
 20
191.1732447584644
 30
0.0
 11
0.0
 21
7.0
 31
0.0
210
0.0
220
0.0
230
1.0
 40
0.2679491924311226
 41
0.0
 42
6.283185307179585
  0
LINE
  5
2C8
330
23
100
AcDbEntity
  8
Arêtes cachées(Norme legrand)
100
AcDbLine
 10
112.6148272480188
 20
194.4967447584645
 30
0.0
 11
112.6148272480188
 21
187.8497447584644
 31
0.0
  0
LINE
  5
2C9
330
23
100
AcDbEntity
  8
Arêtes cachées(Norme legrand)
100
AcDbLine
 10
114.6117875153569
 20
191.1732447584644
 30
0.0
 11
112.6148272480188
 21
187.8497447584644
 31
0.0
  0
LINE
  5
2CA
330
23
100
AcDbEntity
  8
Arêtes cachées(Norme legrand)
100
AcDbLine
 10
114.6117875153569
 20
191.1732447584644
 30
0.0
 11
112.6148272480188
 21
194.4967447584645
 31
0.0
  0
LINE
  5
2CB
330
23
100
AcDbEntity
  8
Arêtes cachées(Norme legrand)
100
AcDbLine
 10
112.6148272480188
 20
187.8497447584644
 30
0.0
 11
87.61482724801883
 21
187.8497447584644
 31
0.0
  0
LINE
  5
2CC
330
23
100
AcDbEntity
  8
Arêtes cachées(Norme legrand)
100
AcDbLine
 10
112.6148272480188
 20
194.4967447584644
 30
0.0
 11
87.61482724801883
 21
194.4967447584644
 31
0.0
  0
LINE
  5
2CD
330
23
100
AcDbEntity
  8
Arêtes cachées(Norme legrand)
100
AcDbLine
 10
87.61482724801883
 20
187.1732447584644
 30
0.0
 11
107.6148272480188
 21
187.1732447584644
 31
0.0
  0
LINE
  5
2CE
330
23
100
AcDbEntity
  8
Arêtes cachées(Norme legrand)
100
AcDbLine
 10
107.6148272480188
 20
195.1732447584644
 30
0.0
 11
87.61482724801883
 21
195.1732447584644
 31
0.0
  0
LINE
  5
2CF
330
23
100
AcDbEntity
  8
Arêtes cachées(Norme legrand)
100
AcDbLine
 10
107.6148272480188
 20
187.1732447584644
 30
0.0
 11
107.6148272480188
 21
195.1732447584644
 31
0.0
  0
LINE
  5
2D0
330
23
100
AcDbEntity
  8
Arêtes cachées(Norme legrand)
100
AcDbLine
 10
74.11482724801874
 20
198.1732447584644
 30
0.0
 11
74.11482724801874
 21
184.1732447584644
 31
0.0
  0
LINE
  5
2D1
330
23
100
AcDbEntity
  8
Arêtes cachées(Norme legrand)
100
AcDbLine
 10
74.11482724801878
 20
184.1732447584644
 30
0.0
 11
62.86358900553324
 21
184.1732447584644
 31
0.0
  0
LINE
  5
2D2
330
23
100
AcDbEntity
  8
Arêtes cachées(Norme legrand)
100
AcDbLine
 10
74.11482724801878
 20
198.1732447584644
 30
0.0
 11
62.86358900553324
 21
198.1732447584644
 31
0.0
  0
LINE
  5
2D3
330
23
100
AcDbEntity
  8
Arêtes cachées(Norme legrand)
100
AcDbLine
 10
84.61482724801882
 20
186.9232447584644
 30
0.0
 11
74.11482724801874
 21
186.9232447584644
 31
0.0
  0
LINE
  5
2D4
330
23
100
AcDbEntity
  8
Arêtes cachées(Norme legrand)
100
AcDbLine
 10
84.61482724801882
 20
195.4232447584644
 30
0.0
 11
74.11482724801874
 21
195.4232447584644
 31
0.0
  0
ELLIPSE
  5
2D5
330
23
100
AcDbEntity
  8
Arêtes visibles(Norme legrand)
100
AcDbEllipse
 10
62.86358900553324
 20
191.1732447584644
 30
0.0
 11
0.0
 21
-7.0
 31
0.0
210
0.0
220
0.0
230
1.0
 40
0.2679491924311212
 41
0.0
 42
6.283185307179585
  0
LINE
  5
2D6
330
23
100
AcDbEntity
  8
Arêtes visibles(Norme legrand)
100
AcDbLine
 10
87.61482724801883
 20
181.1732447584644
 30
0.0
 11
84.6148272480188
 21
181.1732447584644
 31
0.0
  0
LINE
  5
2D7
330
23
100
AcDbEntity
  8
Arêtes visibles(Norme legrand)
100
AcDbLine
 10
297.6148272480187
 20
181.1732447584644
 30
0.0
 11
294.6148272480188
 21
181.1732447584644
 31
0.0
  0
LINE
  5
2D8
330
23
100
AcDbEntity
  8
Arêtes cachées(Norme legrand)
100
AcDbLine
 10
271.1148272480188
 20
181.1732447584644
 30
0.0
 11
271.1148272480188
 21
201.1732447584644
 31
0.0
  0
LINE
  5
2D9
330
23
100
AcDbEntity
  8
Arêtes cachées(Norme legrand)
100
AcDbLine
 10
321.1148272480187
 20
181.1732447584644
 30
0.0
 11
321.1148272480187
 21
201.1732447584644
 31
0.0
  0
LINE
  5
2DA
330
23
100
AcDbEntity
  8
Arêtes cachées(Norme legrand)
100
AcDbLine
 10
61.11482724801877
 20
181.1732447584644
 30
0.0
 11
61.11482724801877
 21
201.1732447584644
 31
0.0
  0
LINE
  5
2DB
330
23
100
AcDbEntity
  8
Arêtes cachées(Norme legrand)
100
AcDbLine
 10
111.1148272480187
 20
181.1732447584644
 30
0.0
 11
111.1148272480187
 21
201.1732447584644
 31
0.0
  0
LINE
  5
2DC
330
23
100
AcDbEntity
  8
Arêtes visibles(Norme legrand)
100
AcDbLine
 10
294.6148272480188
 20
181.1732447584644
 30
0.0
 11
294.6148272480188
 21
201.1732447584644
 31
0.0
  0
LINE
  5
2DD
330
23
100
AcDbEntity
  8
Arêtes visibles(Norme legrand)
100
AcDbLine
 10
87.61482724801883
 20
201.1732447584644
 30
0.0
 11
87.61482724801883
 21
181.1732447584644
 31
0.0
  0
LINE
  5
2DE
330
23
100
AcDbEntity
  8
Arêtes visibles(Norme legrand)
100
AcDbLine
 10
84.61482724801882
 20
181.1732447584644
 30
0.0
 11
84.61482724801882
 21
201.1732447584644
 31
0.0
  0
LINE
  5
2DF
330
23
100
AcDbEntity
  8
Arêtes visibles(Norme legrand)
100
AcDbLine
 10
297.6148272480187
 20
201.1732447584644
 30
0.0
 11
297.6148272480187
 21
181.1732447584644
 31
0.0
  0
LINE
  5
2E0
330
23
100
AcDbEntity
  8
Arêtes visibles(Norme legrand)
100
AcDbLine
 10
272.1148272480188
 20
201.1732447584644
 30
0.0
 11
272.1148272480188
 21
181.1732447584644
 31
0.0
  0
LINE
  5
2E1
330
23
100
AcDbEntity
  8
Arêtes visibles(Norme legrand)
100
AcDbLine
 10
294.6148272480188
 20
181.1732447584644
 30
0.0
 11
272.1148272480188
 21
181.1732447584644
 31
0.0
  0
LINE
  5
2E2
330
23
100
AcDbEntity
  8
Arêtes visibles(Norme legrand)
100
AcDbLine
 10
272.1148272480188
 20
181.1732447584644
 30
0.0
 11
268.1973101526574
 21
181.1732447584644
 31
0.0
  0
LINE
  5
2E3
330
23
100
AcDbEntity
  8
Arêtes visibles(Norme legrand)
100
AcDbLine
 10
316.686573566193
 20
181.1732447584644
 30
0.0
 11
297.6148272480187
 21
181.1732447584644
 31
0.0
  0
LINE
  5
2E4
330
23
100
AcDbEntity
  8
Arêtes cachées(Norme legrand)
100
AcDbLine
 10
177.0148272480188
 20
217.1732447584644
 30
0.0
 11
177.0148272480188
 21
226.1732447584645
 31
0.0
  0
LINE
  5
2E5
330
23
100
AcDbEntity
  8
Arêtes cachées(Norme legrand)
100
AcDbLine
 10
205.2148272480188
 20
217.1732447584644
 30
0.0
 11
205.2148272480188
 21
226.1732447584645
 31
0.0
  0
LINE
  5
2E6
330
23
100
AcDbEntity
  8
Arêtes cachées(Norme legrand)
100
AcDbLine
 10
175.5148272480187
 20
214.1732447584645
 30
0.0
 11
175.5148272480187
 21
215.6732447584644
 31
0.0
  0
LINE
  5
2E7
330
23
100
AcDbEntity
  8
Arêtes cachées(Norme legrand)
100
AcDbLine
 10
206.7148272480188
 20
214.1732447584645
 30
0.0
 11
206.7148272480188
 21
215.6732447584644
 31
0.0
  0
LINE
  5
2E8
330
23
100
AcDbEntity
  8
Arêtes cachées(Norme legrand)
100
AcDbLine
 10
169.1148272480187
 20
201.1732447584644
 30
0.0
 11
169.1148272480187
 21
227.1732447584645
 31
0.0
  0
LINE
  5
2E9
330
23
100
AcDbEntity
  8
Arêtes cachées(Norme legrand)
100
AcDbLine
 10
213.1148272480187
 20
201.1732447584644
 30
0.0
 11
213.1148272480187
 21
227.1732447584645
 31
0.0
  0
LINE
  5
2EA
330
23
100
AcDbEntity
  8
Arêtes cachées(Norme legrand)
100
AcDbLine
 10
231.1148272480187
 20
201.1732447584644
 30
0.0
 11
231.1148272480187
 21
227.1732447584645
 31
0.0
  0
LINE
  5
2EB
330
23
100
AcDbEntity
  8
Arêtes cachées(Norme legrand)
100
AcDbLine
 10
241.1148272480188
 20
201.1732447584644
 30
0.0
 11
241.1148272480188
 21
227.1732447584645
 31
0.0
  0
LINE
  5
2EC
330
23
100
AcDbEntity
  8
Arêtes cachées(Norme legrand)
100
AcDbLine
 10
141.1148272480187
 20
201.1732447584644
 30
0.0
 11
141.1148272480187
 21
227.1732447584645
 31
0.0
  0
LINE
  5
2ED
330
23
100
AcDbEntity
  8
Arêtes cachées(Norme legrand)
100
AcDbLine
 10
151.1148272480187
 20
201.1732447584644
 30
0.0
 11
151.1148272480187
 21
227.1732447584645
 31
0.0
  0
POLYLINE
  5
2EE
330
23
100
AcDbEntity
  8
Arêtes cachées(Norme legrand)
100
AcDb2dPolyline
 66
     1
 10
0.0
 20
0.0
 30
0.0
 70
   128
  0
VERTEX
  5
2EF
330
2EE
100
AcDbEntity
  8
Arêtes cachées(Norme legrand)
100
AcDbVertex
100
AcDb2dVertex
 10
121.1148234334629
 20
357.0149715033096
 30
0.0
  0
VERTEX
  5
2F0
330
2EE
100
AcDbEntity
  8
Arêtes cachées(Norme legrand)
100
AcDbVertex
100
AcDb2dVertex
 10
121.2258311238926
 20
356.9047076788468
 30
0.0
  0
VERTEX
  5
2F2
330
2EE
100
AcDbEntity
  8
Arêtes cachées(Norme legrand)
100
AcDbVertex
100
AcDb2dVertex
 10
121.338040443961
 20
356.7944438543839
 30
0.0
  0
VERTEX
  5
2F3
330
2EE
100
AcDbEntity
  8
Arêtes cachées(Norme legrand)
100
AcDbVertex
100
AcDb2dVertex
 10
121.4514895406407
 20
356.6841704931779
 30
0.0
  0
VERTEX
  5
2F4
330
2EE
100
AcDbEntity
  8
Arêtes cachées(Norme legrand)
100
AcDbVertex
100
AcDb2dVertex
 10
121.566140266959
 20
356.5739066687151
 30
0.0
  0
VERTEX
  5
2F5
330
2EE
100
AcDbEntity
  8
Arêtes cachées(Norme legrand)
100
AcDbVertex
100
AcDb2dVertex
 10
121.6820116964024
 20
356.4636428442522
 30
0.0
  0
VERTEX
  5
2F6
330
2EE
100
AcDbEntity
  8
Arêtes cachées(Norme legrand)
100
AcDbVertex
100
AcDb2dVertex
 10
121.7991038289707
 20
356.3533694830462
 30
0.0
  0
VERTEX
  5
2F7
330
2EE
100
AcDbEntity
  8
Arêtes cachées(Norme legrand)
100
AcDbVertex
100
AcDb2dVertex
 10
121.9173975911778
 20
356.2431056585834
 30
0.0
  0
VERTEX
  5
2F8
330
2EE
100
AcDbEntity
  8
Arêtes cachées(Norme legrand)
100
AcDbVertex
100
AcDb2dVertex
 10
122.0369311299961
 20
356.1328418341205
 30
0.0
  0
VERTEX
  5
2F9
330
2EE
100
AcDbEntity
  8
Arêtes cachées(Norme legrand)
100
AcDbVertex
100
AcDb2dVertex
 10
122.1576662984532
 20
356.0225684729144
 30
0.0
  0
VERTEX
  5
2FA
330
2EE
100
AcDbEntity
  8
Arêtes cachées(Norme legrand)
100
AcDbVertex
100
AcDb2dVertex
 10
122.2796221700352
 20
355.9123046484516
 30
0.0
  0
VERTEX
  5
2FB
330
2EE
100
AcDbEntity
  8
Arêtes cachées(Norme legrand)
100
AcDbVertex
100
AcDb2dVertex
 10
122.4027987447422
 20
355.8020408239888
 30
0.0
  0
VERTEX
  5
2FC
330
2EE
100
AcDbEntity
  8
Arêtes cachées(Norme legrand)
100
AcDbVertex
100
AcDb2dVertex
 10
122.5271769490879
 20
355.6917674627828
 30
0.0
  0
VERTEX
  5
2FD
330
2EE
100
AcDbEntity
  8
Arêtes cachées(Norme legrand)
100
AcDbVertex
100
AcDb2dVertex
 10
122.652794930045
 20
355.5815036383199
 30
0.0
  0
VERTEX
  5
2FE
330
2EE
100
AcDbEntity
  8
Arêtes cachées(Norme legrand)
100
AcDbVertex
100
AcDb2dVertex
 10
122.7796145406407
 20
355.471239813857
 30
0.0
  0
VERTEX
  5
2FF
330
2EE
100
AcDbEntity
  8
Arêtes cachées(Norme legrand)
100
AcDbVertex
100
AcDb2dVertex
 10
122.9076548543614
 20
355.360966452651
 30
0.0
  0
VERTEX
  5
300
330
2EE
100
AcDbEntity
  8
Arêtes cachées(Norme legrand)
100
AcDbVertex
100
AcDb2dVertex
 10
123.0369158712071
 20
355.2507026281881
 30
0.0
  0
VERTEX
  5
301
330
2EE
100
AcDbEntity
  8
Arêtes cachées(Norme legrand)
100
AcDbVertex
100
AcDb2dVertex
 10
123.1673975911778
 20
355.1404388037253
 30
0.0
  0
VERTEX
  5
302
330
2EE
100
AcDbEntity
  8
Arêtes cachées(Norme legrand)
100
AcDbVertex
100
AcDb2dVertex
 10
123.2991000142735
 20
355.0301749792624
 30
0.0
  0
VERTEX
  5
303
330
2EE
100
AcDbEntity
  8
Arêtes cachées(Norme legrand)
100
AcDbVertex
100
AcDb2dVertex
 10
123.4320040670079
 20
354.9199016180564
 30
0.0
  0
VERTEX
  5
304
330
2EE
100
AcDbEntity
  8
Arêtes cachées(Norme legrand)
100
AcDbVertex
100
AcDb2dVertex
 10
123.5661288228672
 20
354.8096377935936
 30
0.0
  0
VERTEX
  5
305
330
2EE
100
AcDbEntity
  8
Arêtes cachées(Norme legrand)
100
AcDbVertex
100
AcDb2dVertex
 10
123.7014742818516
 20
354.6993739691308
 30
0.0
  0
VERTEX
  5
306
330
2EE
100
AcDbEntity
  8
Arêtes cachées(Norme legrand)
100
AcDbVertex
100
AcDb2dVertex
 10
123.838040443961
 20
354.5891006079248
 30
0.0
  0
VERTEX
  5
307
330
2EE
100
AcDbEntity
  8
Arêtes cachées(Norme legrand)
100
AcDbVertex
100
AcDb2dVertex
 10
123.9758273091954
 20
354.4788367834619
 30
0.0
  0
VERTEX
  5
308
330
2EE
100
AcDbEntity
  8
Arêtes cachées(Norme legrand)
100
AcDbVertex
100
AcDb2dVertex
 10
124.1148348775547
 20
354.368572958999
 30
0.0
  0
SEQEND
  5
2F1
330
2EE
100
AcDbEntity
  8
Arêtes cachées(Norme legrand)
  0
LINE
  5
309
330
23
100
AcDbEntity
  8
Arêtes cachées(Norme legrand)
100
AcDbLine
 10
124.1148272481602
 20
354.3685694313501
 30
0.0
 11
124.1148272481602
 21
281.6916142230638
 31
0.0
  0
LINE
  5
30A
330
23
100
AcDbEntity
  8
Arêtes cachées(Norme legrand)
100
AcDbLine
 10
124.1148272481602
 20
281.6916142230638
 30
0.0
 11
121.1148272481602
 21
279.389633259126
 31
0.0
  0
LINE
  5
30B
330
23
100
AcDbEntity
  8
Arêtes cachées(Norme legrand)
100
AcDbLine
 10
124.1148272481602
 20
281.6916142230638
 30
0.0
 11
162.6676496784442
 21
271.3614165869287
 31
0.0
  0
LINE
  5
30C
330
23
100
AcDbEntity
  8
Arêtes cachées(Norme legrand)
100
AcDbLine
 10
162.6676496784442
 20
271.3614165869287
 30
0.0
 11
162.2726921856821
 21
268.3614165869278
 31
0.0
  0
LINE
  5
30D
330
23
100
AcDbEntity
  8
Arêtes cachées(Norme legrand)
100
AcDbLine
 10
162.6676496784442
 20
271.3614165869287
 30
0.0
 11
219.5620048178765
 21
271.3614165869287
 31
0.0
  0
LINE
  5
30E
330
23
100
AcDbEntity
  8
Arêtes cachées(Norme legrand)
100
AcDbLine
 10
219.5620048178765
 20
271.3614165869287
 30
0.0
 11
219.9569623106387
 21
268.3614165869278
 31
0.0
  0
LINE
  5
30F
330
23
100
AcDbEntity
  8
Arêtes cachées(Norme legrand)
100
AcDbLine
 10
219.5620048178765
 20
271.3614165869287
 30
0.0
 11
258.1148272481602
 21
281.6916142230637
 31
0.0
  0
LINE
  5
310
330
23
100
AcDbEntity
  8
Arêtes cachées(Norme legrand)
100
AcDbLine
 10
258.1148272481602
 20
281.6916142230637
 30
0.0
 11
261.1148272481602
 21
279.3896332591259
 31
0.0
  0
POLYLINE
  5
311
330
23
100
AcDbEntity
  8
Arêtes cachées(Norme legrand)
100
AcDb2dPolyline
 66
     1
 10
0.0
 20
0.0
 30
0.0
 70
   128
  0
VERTEX
  5
312
330
311
100
AcDbEntity
  8
Arêtes cachées(Norme legrand)
100
AcDbVertex
100
AcDb2dVertex
 10
258.1148262944859
 20
354.368572958999
 30
0.0
  0
VERTEX
  5
313
330
311
100
AcDbEntity
  8
Arêtes cachées(Norme legrand)
100
AcDbVertex
100
AcDb2dVertex
 10
258.2538243261021
 20
354.4788367834619
 30
0.0
  0
VERTEX
  5
315
330
311
100
AcDbEntity
  8
Arêtes cachées(Norme legrand)
100
AcDbVertex
100
AcDb2dVertex
 10
258.3916064229649
 20
354.5891006079248
 30
0.0
  0
VERTEX
  5
316
330
311
100
AcDbEntity
  8
Arêtes cachées(Norme legrand)
100
AcDbVertex
100
AcDb2dVertex
 10
258.5281725850743
 20
354.6993739691308
 30
0.0
  0
VERTEX
  5
317
330
311
100
AcDbEntity
  8
Arêtes cachées(Norme legrand)
100
AcDbVertex
100
AcDb2dVertex
 10
258.6635180440587
 20
354.8096377935936
 30
0.0
  0
VERTEX
  5
318
330
311
100
AcDbEntity
  8
Arêtes cachées(Norme legrand)
100
AcDbVertex
100
AcDb2dVertex
 10
258.7976475682896
 20
354.9199016180564
 30
0.0
  0
VERTEX
  5
319
330
311
100
AcDbEntity
  8
Arêtes cachées(Norme legrand)
100
AcDbVertex
100
AcDb2dVertex
 10
258.9305611577672
 20
355.0301749792624
 30
0.0
  0
VERTEX
  5
31A
330
311
100
AcDbEntity
  8
Arêtes cachées(Norme legrand)
100
AcDbVertex
100
AcDb2dVertex
 10
259.0622540441197
 20
355.1404388037253
 30
0.0
  0
VERTEX
  5
31B
330
311
100
AcDbEntity
  8
Arêtes cachées(Norme legrand)
100
AcDbVertex
100
AcDb2dVertex
 10
259.1927309957188
 20
355.2507026281881
 30
0.0
  0
VERTEX
  5
31C
330
311
100
AcDbEntity
  8
Arêtes cachées(Norme legrand)
100
AcDbVertex
100
AcDb2dVertex
 10
259.3219920125645
 20
355.360966452651
 30
0.0
  0
VERTEX
  5
31D
330
311
100
AcDbEntity
  8
Arêtes cachées(Norme legrand)
100
AcDbVertex
100
AcDb2dVertex
 10
259.4500370946568
 20
355.471239813857
 30
0.0
  0
VERTEX
  5
31E
330
311
100
AcDbEntity
  8
Arêtes cachées(Norme legrand)
100
AcDbVertex
100
AcDb2dVertex
 10
259.5768614736241
 20
355.5815036383199
 30
0.0
  0
VERTEX
  5
31F
330
311
100
AcDbEntity
  8
Arêtes cachées(Norme legrand)
100
AcDbVertex
100
AcDb2dVertex
 10
259.702469917838
 20
355.6917674627828
 30
0.0
  0
VERTEX
  5
320
330
311
100
AcDbEntity
  8
Arêtes cachées(Norme legrand)
100
AcDbVertex
100
AcDb2dVertex
 10
259.8268624272984
 20
355.8020408239888
 30
0.0
  0
VERTEX
  5
321
330
311
100
AcDbEntity
  8
Arêtes cachées(Norme legrand)
100
AcDbVertex
100
AcDb2dVertex
 10
259.9500342336339
 20
355.9123046484516
 30
0.0
  0
VERTEX
  5
322
330
311
100
AcDbEntity
  8
Arêtes cachées(Norme legrand)
100
AcDbVertex
100
AcDb2dVertex
 10
260.0719948735875
 20
356.0225684729144
 30
0.0
  0
VERTEX
  5
323
330
311
100
AcDbEntity
  8
Arêtes cachées(Norme legrand)
100
AcDbVertex
100
AcDb2dVertex
 10
260.1927300420445
 20
356.1328418341205
 30
0.0
  0
VERTEX
  5
324
330
311
100
AcDbEntity
  8
Arêtes cachées(Norme legrand)
100
AcDbVertex
100
AcDb2dVertex
 10
260.3122540441197
 20
356.2431056585834
 30
0.0
  0
VERTEX
  5
325
330
311
100
AcDbEntity
  8
Arêtes cachées(Norme legrand)
100
AcDbVertex
100
AcDb2dVertex
 10
260.4305573430699
 20
356.3533694830462
 30
0.0
  0
VERTEX
  5
326
330
311
100
AcDbEntity
  8
Arêtes cachées(Norme legrand)
100
AcDbVertex
100
AcDb2dVertex
 10
260.5476494756382
 20
356.4636428442522
 30
0.0
  0
VERTEX
  5
327
330
311
100
AcDbEntity
  8
Arêtes cachées(Norme legrand)
100
AcDbVertex
100
AcDb2dVertex
 10
260.66351613671
 20
356.5739066687151
 30
0.0
  0
VERTEX
  5
328
330
311
100
AcDbEntity
  8
Arêtes cachées(Norme legrand)
100
AcDbVertex
100
AcDb2dVertex
 10
260.7781716314
 20
356.6841704931779
 30
0.0
  0
VERTEX
  5
329
330
311
100
AcDbEntity
  8
Arêtes cachées(Norme legrand)
100
AcDbVertex
100
AcDb2dVertex
 10
260.8916064229649
 20
356.7944438543839
 30
0.0
  0
VERTEX
  5
32A
330
311
100
AcDbEntity
  8
Arêtes cachées(Norme legrand)
100
AcDbVertex
100
AcDb2dVertex
 10
261.0038252797764
 20
356.9047076788468
 30
0.0
  0
VERTEX
  5
32B
330
311
100
AcDbEntity
  8
Arêtes cachées(Norme legrand)
100
AcDbVertex
100
AcDb2dVertex
 10
261.1148282018346
 20
357.0149715033096
 30
0.0
  0
SEQEND
  5
314
330
311
100
AcDbEntity
  8
Arêtes cachées(Norme legrand)
  0
LINE
  5
32C
330
23
100
AcDbEntity
  8
Arêtes cachées(Norme legrand)
100
AcDbLine
 10
258.1148272481602
 20
281.6916142230637
 30
0.0
 11
258.1148272481602
 21
354.3685694313501
 31
0.0
  0
LINE
  5
32D
330
23
100
AcDbEntity
  8
Arêtes visibles(Norme legrand)
100
AcDbLine
 10
162.272692185682
 20
268.361416586921
 30
0.0
 11
141.1148272481603
 21
274.0306494104967
 31
0.0
  0
LINE
  5
32E
330
23
100
AcDbEntity
  8
Arêtes visibles(Norme legrand)
100
AcDbLine
 10
141.1148272481603
 20
274.0306494104967
 30
0.0
 11
121.1148272481603
 21
279.3896332591132
 31
0.0
  0
LINE
  5
32F
330
23
100
AcDbEntity
  8
Arêtes visibles(Norme legrand)
100
AcDbLine
 10
219.9569623106386
 20
268.361416586921
 30
0.0
 11
162.272692185682
 21
268.361416586921
 31
0.0
  0
LINE
  5
330
330
23
100
AcDbEntity
  8
Arêtes visibles(Norme legrand)
100
AcDbLine
 10
261.1148272481603
 20
279.3896332591132
 30
0.0
 11
241.1148272481603
 21
274.0306494104967
 31
0.0
  0
LINE
  5
331
330
23
100
AcDbEntity
  8
Arêtes visibles(Norme legrand)
100
AcDbLine
 10
241.1148272481603
 20
274.0306494104967
 30
0.0
 11
219.9569623106386
 21
268.361416586921
 31
0.0
  0
LINE
  5
332
330
23
100
AcDbEntity
  8
Arêtes visibles(Norme legrand)
100
AcDbLine
 10
123.6916026064123
 20
357.3557090405292
 30
0.0
 11
141.1148272481603
 21
362.0242480128368
 31
0.0
  0
LINE
  5
333
330
23
100
AcDbEntity
  8
Arêtes visibles(Norme legrand)
100
AcDbLine
 10
141.1148272481603
 20
362.0242480128368
 30
0.0
 11
155.9466662750086
 21
365.9984273023492
 31
0.0
  0
LINE
  5
334
330
23
100
AcDbEntity
  8
Arêtes visibles(Norme legrand)
100
AcDbLine
 10
226.2829882213118
 20
365.9984273023492
 30
0.0
 11
241.1148272481603
 21
362.0242480128368
 31
0.0
  0
LINE
  5
335
330
23
100
AcDbEntity
  8
Arêtes visibles(Norme legrand)
100
AcDbLine
 10
241.1148272481603
 20
362.0242480128368
 30
0.0
 11
258.5380518899082
 21
357.3557090405292
 31
0.0
  0
ARC
  5
336
330
23
100
AcDbEntity
  8
Arêtes visibles(Norme legrand)
100
AcDbCircle
 10
191.1148272481602
 20
371.361416586921
 30
0.0
 40
28.00000000000002
100
AcDbArc
 50
6.491724710084281
 51
173.5082752899157
  0
LINE
  5
337
330
23
100
AcDbEntity
  8
Arêtes visibles(Norme legrand)
100
AcDbLine
 10
241.1148272481603
 20
274.0306494104967
 30
0.0
 11
241.1148272481603
 21
301.0909067556726
 31
0.0
  0
LINE
  5
338
330
23
100
AcDbEntity
  8
Arêtes visibles(Norme legrand)
100
AcDbLine
 10
261.1148272481603
 20
357.0149738186385
 30
0.0
 11
261.1148272481603
 21
279.3896332591132
 31
0.0
  0
LINE
  5
339
330
23
100
AcDbEntity
  8
Arêtes visibles(Norme legrand)
100
AcDbLine
 10
241.1148272481603
 20
334.6319264181694
 30
0.0
 11
241.1148272481603
 21
362.0242480128368
 31
0.0
  0
CIRCLE
  5
33A
330
23
100
AcDbEntity
  8
Arêtes visibles(Norme legrand)
100
AcDbCircle
 10
146.1148272481602
 20
317.861416586921
 30
0.0
 40
5.0
  0
LINE
  5
33B
330
23
100
AcDbEntity
  8
Arêtes visibles(Norme legrand)
100
AcDbLine
 10
141.1148272481603
 20
274.0306494104967
 30
0.0
 11
141.1148272481603
 21
301.0909067556726
 31
0.0
  0
LINE
  5
33C
330
23
100
AcDbEntity
  8
Arêtes visibles(Norme legrand)
100
AcDbLine
 10
141.1148272481603
 20
334.6319264181695
 30
0.0
 11
141.1148272481603
 21
362.0242480128368
 31
0.0
  0
CIRCLE
  5
33D
330
23
100
AcDbEntity
  8
Arêtes visibles(Norme legrand)
100
AcDbCircle
 10
191.1148272481602
 20
371.361416586921
 30
0.0
 40
22.0
  0
CIRCLE
  5
33E
330
23
100
AcDbEntity
  8
Arêtes visibles(Norme legrand)
100
AcDbCircle
 10
236.1148272481602
 20
317.861416586921
 30
0.0
 40
5.0
  0
LINE
  5
33F
330
23
100
AcDbEntity
  8
Arêtes visibles(Norme legrand)
100
AcDbLine
 10
121.1148272481603
 20
357.0149738186385
 30
0.0
 11
121.1148272481603
 21
279.3896332591132
 31
0.0
  0
LINE
  5
340
330
23
100
AcDbEntity
  8
Arêtes visibles(Norme legrand)
100
AcDbLine
 10
78.09143684998211
 20
290.917715971954
 30
0.0
 11
121.1148272481603
 21
279.3896332591132
 31
0.0
  0
LINE
  5
341
330
23
100
AcDbEntity
  8
Arêtes visibles(Norme legrand)
100
AcDbLine
 10
65.54308092998593
 20
363.8614165869151
 30
0.0
 11
56.17112663319915
 21
328.8848069850932
 31
0.0
  0
ARC
  5
342
330
23
100
AcDbEntity
  8
Arêtes visibles(Norme legrand)
100
AcDbCircle
 10
86.11482724816028
 20
320.861416586915
 30
0.0
 40
31.00000000000005
100
AcDbArc
 50
165.0
 51
254.9999999999999
  0
LINE
  5
343
330
23
100
AcDbEntity
  8
Arêtes visibles(Norme legrand)
100
AcDbLine
 10
261.1148272481603
 20
279.3896332591132
 30
0.0
 11
304.1382176463384
 21
290.917715971954
 31
0.0
  0
ARC
  5
344
330
23
100
AcDbEntity
  8
Arêtes visibles(Norme legrand)
100
AcDbCircle
 10
296.1148272481602
 20
320.861416586915
 30
0.0
 40
31.0
100
AcDbArc
 50
285.0
 51
14.99999999999986
  0
LINE
  5
345
330
23
100
AcDbEntity
  8
Arêtes visibles(Norme legrand)
100
AcDbLine
 10
326.0585278631213
 20
328.8848069850932
 30
0.0
 11
316.6865735663345
 21
363.8614165869151
 31
0.0
  0
ARC
  5
346
330
23
100
AcDbEntity
  8
Arêtes cachées(Norme legrand)
100
AcDbCircle
 10
261.1262423409079
 20
367.0149673033329
 30
0.0
 40
12.99999999989688
100
AcDbArc
 50
254.9999999999951
 51
256.6059245250197
  0
ARC
  5
347
330
23
100
AcDbEntity
  8
Arêtes cachées(Norme legrand)
100
AcDbCircle
 10
191.1148272481602
 20
371.3614165869287
 30
0.0
 40
25.00000000000002
100
AcDbArc
 50
6.491724710084168
 51
173.5082752899157
  0
ARC
  5
348
330
23
100
AcDbEntity
  8
Arêtes cachées(Norme legrand)
100
AcDbCircle
 10
228.8711786723371
 20
375.6576855652476
 30
0.0
 40
13.00000000000002
100
AcDbArc
 50
186.4917247100841
 51
254.9999999999997
  0
ARC
  5
349
330
23
100
AcDbEntity
  8
Arêtes cachées(Norme legrand)
100
AcDbCircle
 10
153.3584758239834
 20
375.6576855652476
 30
0.0
 40
13.0
100
AcDbArc
 50
284.9999999999999
 51
353.5082752899159
  0
LINE
  5
34A
330
23
100
AcDbEntity
  8
Arêtes cachées(Norme legrand)
100
AcDbLine
 10
257.7615947546007
 20
354.457931561675
 30
0.0
 11
225.5065310860042
 21
363.1006498234898
 31
0.0
  0
LINE
  5
34B
330
23
100
AcDbEntity
  8
Arêtes cachées(Norme legrand)
100
AcDbLine
 10
156.7231234103161
 20
363.1006498234897
 30
0.0
 11
124.4680597417199
 21
354.457931561675
 31
0.0
  0
ARC
  5
34C
330
23
100
AcDbEntity
  8
Arêtes cachées(Norme legrand)
100
AcDbCircle
 10
121.1034121553663
 20
367.0149673035155
 30
0.0
 40
13.00000000008523
100
AcDbArc
 50
283.3940754749923
 51
284.9999999999942
  0
ARC
  5
34D
330
23
100
AcDbEntity
  8
Arêtes visibles(Norme legrand)
100
AcDbCircle
 10
153.3584758239834
 20
375.6576855652399
 30
0.0
 40
10.00000000000003
100
AcDbArc
 50
285.0000000000001
 51
353.5082752899157
  0
ARC
  5
34E
330
23
100
AcDbEntity
  8
Arêtes visibles(Norme legrand)
100
AcDbCircle
 10
121.1034121553871
 20
367.0149673034193
 30
0.0
 40
10.00000000000009
100
AcDbArc
 50
225.0000000000005
 51
270.0654036780696
  0
ARC
  5
34F
330
23
100
AcDbEntity
  8
Arêtes visibles(Norme legrand)
100
AcDbCircle
 10
121.1034121553871
 20
367.0149673034192
 30
0.0
 40
10.0
100
AcDbArc
 50
270.0654036780869
 51
285.0000000000182
  0
ARC
  5
350
330
23
100
AcDbEntity
  8
Arêtes visibles(Norme legrand)
100
AcDbCircle
 10
261.1262423409334
 20
367.0149673034192
 30
0.0
 40
9.999999999999998
100
AcDbArc
 50
254.9999999999817
 51
269.9345963219142
  0
ARC
  5
351
330
23
100
AcDbEntity
  8
Arêtes visibles(Norme legrand)
100
AcDbCircle
 10
261.1262423409335
 20
367.014967303419
 30
0.0
 40
9.999999999999815
100
AcDbArc
 50
269.9345963219309
 51
315.0000000000003
  0
ARC
  5
352
330
23
100
AcDbEntity
  8
Arêtes visibles(Norme legrand)
100
AcDbCircle
 10
228.871178672337
 20
375.6576855652399
 30
0.0
 40
9.999999999999984
100
AcDbArc
 50
186.491724710084
 51
254.9999999999998
  0
CIRCLE
  5
353
330
23
100
AcDbEntity
  8
Arêtes cachées(Norme legrand)
100
AcDbCircle
 10
191.1148272481602
 20
295.8614165869287
 30
0.0
 40
15.09999999999999
  0
LINE
  5
354
330
23
100
AcDbEntity
  8
Arêtes visibles(Norme legrand)
100
AcDbLine
 10
114.0323443435216
 20
359.9438994915536
 30
0.0
 11
110.1148272481602
 21
363.8614165869151
 31
0.0
  0
LINE
  5
355
330
23
100
AcDbEntity
  8
Arêtes visibles(Norme legrand)
100
AcDbLine
 10
110.1148272481602
 20
363.8614165869151
 30
0.0
 11
87.61482724816032
 21
363.8614165869151
 31
0.0
  0
LINE
  5
356
330
23
100
AcDbEntity
  8
Arêtes visibles(Norme legrand)
100
AcDbLine
 10
84.61482724816029
 20
363.8614165869151
 30
0.0
 11
65.54308092998593
 21
363.8614165869151
 31
0.0
  0
CIRCLE
  5
357
330
23
100
AcDbEntity
  8
Arêtes visibles(Norme legrand)
100
AcDbCircle
 10
191.1148272481602
 20
295.8614165869258
 30
0.0
 40
14.1
  0
CIRCLE
  5
358
330
23
100
AcDbEntity
  8
Arêtes visibles(Norme legrand)
100
AcDbCircle
 10
191.1148272481602
 20
295.8614165869249
 30
0.0
 40
15.6
  0
CIRCLE
  5
359
330
23
100
AcDbEntity
  8
Arêtes visibles(Norme legrand)
100
AcDbCircle
 10
191.1148272481602
 20
295.861416586921
 30
0.0
 40
22.1
  0
ARC
  5
35A
330
23
100
AcDbEntity
  8
Arêtes visibles(Norme legrand)
100
AcDbCircle
 10
146.1148272481602
 20
317.8614165869225
 30
0.0
 40
17.5
100
AcDbArc
 50
106.6015495990382
 51
253.3984504009985
  0
ARC
  5
35B
330
23
100
AcDbEntity
  8
Arêtes visibles(Norme legrand)
100
AcDbCircle
 10
236.1148272481602
 20
317.8614165869225
 30
0.0
 40
17.5
100
AcDbArc
 50
286.6015495990022
 51
73.39845040096104
  0
LINE
  5
35C
330
23
100
AcDbEntity
  8
Arêtes cachées(Norme legrand)
100
AcDbLine
 10
269.6148272481602
 20
350.5379165869181
 30
0.0
 11
269.6148272481602
 21
357.184916586918
 31
0.0
  0
LINE
  5
35D
330
23
100
AcDbEntity
  8
Arêtes cachées(Norme legrand)
100
AcDbLine
 10
267.6178669808221
 20
353.861416586918
 30
0.0
 11
269.6148272481602
 21
357.184916586918
 31
0.0
  0
LINE
  5
35E
330
23
100
AcDbEntity
  8
Arêtes cachées(Norme legrand)
100
AcDbLine
 10
267.6178669808221
 20
353.861416586918
 30
0.0
 11
269.6148272481602
 21
350.5379165869181
 31
0.0
  0
LINE
  5
35F
330
23
100
AcDbEntity
  8
Arêtes cachées(Norme legrand)
100
AcDbLine
 10
269.6148272481602
 20
357.184916586918
 30
0.0
 11
294.6148272481603
 21
357.184916586918
 31
0.0
  0
LINE
  5
360
330
23
100
AcDbEntity
  8
Arêtes cachées(Norme legrand)
100
AcDbLine
 10
269.6148272481602
 20
350.5379165869181
 30
0.0
 11
294.6148272481603
 21
350.5379165869181
 31
0.0
  0
LINE
  5
361
330
23
100
AcDbEntity
  8
Arêtes cachées(Norme legrand)
100
AcDbLine
 10
294.6148272481603
 20
357.8614165869181
 30
0.0
 11
274.6148272481602
 21
357.8614165869181
 31
0.0
  0
LINE
  5
362
330
23
100
AcDbEntity
  8
Arêtes cachées(Norme legrand)
100
AcDbLine
 10
274.6148272481602
 20
349.861416586918
 30
0.0
 11
294.6148272481603
 21
349.861416586918
 31
0.0
  0
LINE
  5
363
330
23
100
AcDbEntity
  8
Arêtes cachées(Norme legrand)
100
AcDbLine
 10
274.6148272481602
 20
357.8614165869181
 30
0.0
 11
274.6148272481602
 21
349.861416586918
 31
0.0
  0
LINE
  5
364
330
23
100
AcDbEntity
  8
Arêtes cachées(Norme legrand)
100
AcDbLine
 10
308.1148272481602
 20
360.8614165869181
 30
0.0
 11
308.1148272481602
 21
346.861416586918
 31
0.0
  0
LINE
  5
365
330
23
100
AcDbEntity
  8
Arêtes cachées(Norme legrand)
100
AcDbLine
 10
321.2417098376636
 20
346.861416586918
 30
0.0
 11
308.1148272481602
 21
346.861416586918
 31
0.0
  0
LINE
  5
366
330
23
100
AcDbEntity
  8
Arêtes cachées(Norme legrand)
100
AcDbLine
 10
317.4904211436279
 20
360.861416586918
 30
0.0
 11
308.1148272481602
 21
360.861416586918
 31
0.0
  0
LINE
  5
367
330
23
100
AcDbEntity
  8
Arêtes cachées(Norme legrand)
100
AcDbLine
 10
308.1148272481602
 20
349.6114165869181
 30
0.0
 11
297.6148272481603
 21
349.6114165869181
 31
0.0
  0
LINE
  5
368
330
23
100
AcDbEntity
  8
Arêtes cachées(Norme legrand)
100
AcDbLine
 10
308.1148272481602
 20
358.111416586918
 30
0.0
 11
297.6148272481603
 21
358.111416586918
 31
0.0
  0
LINE
  5
369
330
23
100
AcDbEntity
  8
Arêtes cachées(Norme legrand)
100
AcDbLine
 10
112.6148272481603
 20
357.184916586918
 30
0.0
 11
112.6148272481603
 21
350.5379165869181
 31
0.0
  0
LINE
  5
36A
330
23
100
AcDbEntity
  8
Arêtes cachées(Norme legrand)
100
AcDbLine
 10
114.6117875154984
 20
353.861416586918
 30
0.0
 11
112.6148272481603
 21
350.537916586918
 31
0.0
  0
LINE
  5
36B
330
23
100
AcDbEntity
  8
Arêtes cachées(Norme legrand)
100
AcDbLine
 10
114.6117875154984
 20
353.861416586918
 30
0.0
 11
112.6148272481603
 21
357.184916586918
 31
0.0
  0
LINE
  5
36C
330
23
100
AcDbEntity
  8
Arêtes cachées(Norme legrand)
100
AcDbLine
 10
112.6148272481603
 20
350.5379165869181
 30
0.0
 11
87.61482724816032
 21
350.5379165869181
 31
0.0
  0
LINE
  5
36D
330
23
100
AcDbEntity
  8
Arêtes cachées(Norme legrand)
100
AcDbLine
 10
112.6148272481603
 20
357.184916586918
 30
0.0
 11
87.61482724816032
 21
357.184916586918
 31
0.0
  0
LINE
  5
36E
330
23
100
AcDbEntity
  8
Arêtes cachées(Norme legrand)
100
AcDbLine
 10
87.61482724816032
 20
349.861416586918
 30
0.0
 11
107.6148272481603
 21
349.861416586918
 31
0.0
  0
LINE
  5
36F
330
23
100
AcDbEntity
  8
Arêtes cachées(Norme legrand)
100
AcDbLine
 10
107.6148272481603
 20
357.8614165869181
 30
0.0
 11
87.61482724816032
 21
357.8614165869181
 31
0.0
  0
LINE
  5
370
330
23
100
AcDbEntity
  8
Arêtes cachées(Norme legrand)
100
AcDbLine
 10
107.6148272481603
 20
349.861416586918
 30
0.0
 11
107.6148272481603
 21
357.8614165869181
 31
0.0
  0
LINE
  5
371
330
23
100
AcDbEntity
  8
Arêtes cachées(Norme legrand)
100
AcDbLine
 10
74.11482724816022
 20
360.8614165869181
 30
0.0
 11
74.11482724816022
 21
346.861416586918
 31
0.0
  0
LINE
  5
372
330
23
100
AcDbEntity
  8
Arêtes cachées(Norme legrand)
100
AcDbLine
 10
74.11482724816025
 20
346.861416586918
 30
0.0
 11
60.98794465865687
 21
346.861416586918
 31
0.0
  0
LINE
  5
373
330
23
100
AcDbEntity
  8
Arêtes cachées(Norme legrand)
100
AcDbLine
 10
74.11482724816022
 20
360.861416586918
 30
0.0
 11
64.73923335269255
 21
360.861416586918
 31
0.0
  0
LINE
  5
374
330
23
100
AcDbEntity
  8
Arêtes cachées(Norme legrand)
100
AcDbLine
 10
84.61482724816029
 20
349.6114165869181
 30
0.0
 11
74.11482724816022
 21
349.6114165869181
 31
0.0
  0
LINE
  5
375
330
23
100
AcDbEntity
  8
Arêtes cachées(Norme legrand)
100
AcDbLine
 10
84.61482724816029
 20
358.111416586918
 30
0.0
 11
74.11482724816022
 21
358.111416586918
 31
0.0
  0
LINE
  5
376
330
23
100
AcDbEntity
  8
Arêtes visibles(Norme legrand)
100
AcDbLine
 10
87.61482724816032
 20
363.8614165869151
 30
0.0
 11
87.61482724816032
 21
345.8163760138506
 31
0.0
  0
LINE
  5
377
330
23
100
AcDbEntity
  8
Arêtes visibles(Norme legrand)
100
AcDbLine
 10
84.61482724816029
 20
345.8163760138506
 30
0.0
 11
84.61482724816029
 21
363.8614165869151
 31
0.0
  0
LINE
  5
378
330
23
100
AcDbEntity
  8
Arêtes visibles(Norme legrand)
100
AcDbLine
 10
294.6148272481603
 20
345.8163760138506
 30
0.0
 11
294.6148272481603
 21
363.8614165869151
 31
0.0
  0
LINE
  5
379
330
23
100
AcDbEntity
  8
Arêtes visibles(Norme legrand)
100
AcDbLine
 10
297.6148272481602
 20
363.8614165869151
 30
0.0
 11
297.6148272481602
 21
345.8163760138506
 31
0.0
  0
ARC
  5
37A
330
23
100
AcDbEntity
  8
Arêtes visibles(Norme legrand)
100
AcDbCircle
 10
86.11482724816028
 20
320.861416586915
 30
0.0
 40
25.0
100
AcDbArc
 50
93.43981276751508
 51
86.56018723248481
  0
ARC
  5
37B
330
23
100
AcDbEntity
  8
Arêtes visibles(Norme legrand)
100
AcDbCircle
 10
296.1148272481602
 20
320.861416586915
 30
0.0
 40
25.0
100
AcDbArc
 50
93.43981276751508
 51
86.56018723248488
  0
LINE
  5
37C
330
23
100
AcDbEntity
  8
Arêtes cachées(Norme legrand)
100
AcDbLine
 10
269.1148272481602
 20
360.861416586921
 30
0.0
 11
269.1148272481602
 21
281.5332267985681
 31
0.0
  0
LINE
  5
37D
330
23
100
AcDbEntity
  8
Arêtes cachées(Norme legrand)
100
AcDbLine
 10
113.1148272481602
 20
281.5332267985681
 30
0.0
 11
113.1148272481602
 21
360.861416586921
 31
0.0
  0
LINE
  5
37E
330
23
100
AcDbEntity
  8
Arêtes visibles(Norme legrand)
100
AcDbLine
 10
294.6148272481603
 20
363.8614165869151
 30
0.0
 11
272.1148272481603
 21
363.8614165869151
 31
0.0
  0
LINE
  5
37F
330
23
100
AcDbEntity
  8
Arêtes visibles(Norme legrand)
100
AcDbLine
 10
272.1148272481603
 20
363.8614165869151
 30
0.0
 11
268.1973101527989
 21
359.9438994915537
 31
0.0
  0
LINE
  5
380
330
23
100
AcDbEntity
  8
Arêtes visibles(Norme legrand)
100
AcDbLine
 10
316.6865735663345
 20
363.8614165869151
 30
0.0
 11
297.6148272481602
 21
363.8614165869151
 31
0.0
  0
POLYLINE
  5
381
330
23
100
AcDbEntity
  8
Arêtes visibles(Norme legrand)
100
AcDb2dPolyline
 66
     1
 10
0.0
 20
0.0
 30
0.0
 70
   128
  0
VERTEX
  5
382
330
381
100
AcDbEntity
  8
Arêtes visibles(Norme legrand)
100
AcDbVertex
100
AcDb2dVertex
 10
121.1148234331818
 20
57.45589649613854
 30
0.0
  0
VERTEX
  5
383
330
381
100
AcDbEntity
  8
Arêtes visibles(Norme legrand)
100
AcDbVertex
100
AcDb2dVertex
 10
121.2258311236115
 20
57.56616032060147
 30
0.0
  0
VERTEX
  5
385
330
381
100
AcDbEntity
  8
Arêtes visibles(Norme legrand)
100
AcDbVertex
100
AcDb2dVertex
 10
121.3380404436799
 20
57.6764241450644
 30
0.0
  0
VERTEX
  5
386
330
381
100
AcDbEntity
  8
Arêtes visibles(Norme legrand)
100
AcDbVertex
100
AcDb2dVertex
 10
121.4514895403596
 20
57.78669750627049
 30
0.0
  0
VERTEX
  5
387
330
381
100
AcDbEntity
  8
Arêtes visibles(Norme legrand)
100
AcDbVertex
100
AcDb2dVertex
 10
121.5661402666779
 20
57.89696133073341
 30
0.0
  0
VERTEX
  5
388
330
381
100
AcDbEntity
  8
Arêtes visibles(Norme legrand)
100
AcDbVertex
100
AcDb2dVertex
 10
121.6820116961213
 20
58.00722515519634
 30
0.0
  0
VERTEX
  5
389
330
381
100
AcDbEntity
  8
Arêtes visibles(Norme legrand)
100
AcDbVertex
100
AcDb2dVertex
 10
121.7991038286897
 20
58.11749851640243
 30
0.0
  0
VERTEX
  5
38A
330
381
100
AcDbEntity
  8
Arêtes visibles(Norme legrand)
100
AcDbVertex
100
AcDb2dVertex
 10
121.9173975908967
 20
58.22776234086536
 30
0.0
  0
VERTEX
  5
38B
330
381
100
AcDbEntity
  8
Arêtes visibles(Norme legrand)
100
AcDbVertex
100
AcDb2dVertex
 10
122.036931129715
 20
58.33802616532828
 30
0.0
  0
VERTEX
  5
38C
330
381
100
AcDbEntity
  8
Arêtes visibles(Norme legrand)
100
AcDbVertex
100
AcDb2dVertex
 10
122.1576662981721
 20
58.44829952653437
 30
0.0
  0
VERTEX
  5
38D
330
381
100
AcDbEntity
  8
Arêtes visibles(Norme legrand)
100
AcDbVertex
100
AcDb2dVertex
 10
122.2796221697541
 20
58.5585633509973
 30
0.0
  0
VERTEX
  5
38E
330
381
100
AcDbEntity
  8
Arêtes visibles(Norme legrand)
100
AcDbVertex
100
AcDb2dVertex
 10
122.4027987444611
 20
58.66882717546022
 30
0.0
  0
VERTEX
  5
38F
330
381
100
AcDbEntity
  8
Arêtes visibles(Norme legrand)
100
AcDbVertex
100
AcDb2dVertex
 10
122.5271769488069
 20
58.77910053666631
 30
0.0
  0
VERTEX
  5
390
330
381
100
AcDbEntity
  8
Arêtes visibles(Norme legrand)
100
AcDbVertex
100
AcDb2dVertex
 10
122.6527949297639
 20
58.88936436112924
 30
0.0
  0
VERTEX
  5
391
330
381
100
AcDbEntity
  8
Arêtes visibles(Norme legrand)
100
AcDbVertex
100
AcDb2dVertex
 10
122.7796145403596
 20
58.99962818559217
 30
0.0
  0
VERTEX
  5
392
330
381
100
AcDbEntity
  8
Arêtes visibles(Norme legrand)
100
AcDbVertex
100
AcDb2dVertex
 10
122.9076548540803
 20
59.10990154679826
 30
0.0
  0
VERTEX
  5
393
330
381
100
AcDbEntity
  8
Arêtes visibles(Norme legrand)
100
AcDbVertex
100
AcDb2dVertex
 10
123.036915870926
 20
59.22016537126118
 30
0.0
  0
VERTEX
  5
394
330
381
100
AcDbEntity
  8
Arêtes visibles(Norme legrand)
100
AcDbVertex
100
AcDb2dVertex
 10
123.1673975908967
 20
59.33042919572411
 30
0.0
  0
VERTEX
  5
395
330
381
100
AcDbEntity
  8
Arêtes visibles(Norme legrand)
100
AcDbVertex
100
AcDb2dVertex
 10
123.2991000139924
 20
59.44069302018705
 30
0.0
  0
VERTEX
  5
396
330
381
100
AcDbEntity
  8
Arêtes visibles(Norme legrand)
100
AcDbVertex
100
AcDb2dVertex
 10
123.4320040667268
 20
59.55096638139315
 30
0.0
  0
VERTEX
  5
397
330
381
100
AcDbEntity
  8
Arêtes visibles(Norme legrand)
100
AcDbVertex
100
AcDb2dVertex
 10
123.5661288225861
 20
59.66123020585607
 30
0.0
  0
VERTEX
  5
398
330
381
100
AcDbEntity
  8
Arêtes visibles(Norme legrand)
100
AcDbVertex
100
AcDb2dVertex
 10
123.7014742815705
 20
59.77149403031901
 30
0.0
  0
VERTEX
  5
399
330
381
100
AcDbEntity
  8
Arêtes visibles(Norme legrand)
100
AcDbVertex
100
AcDb2dVertex
 10
123.8380404436799
 20
59.8817673915251
 30
0.0
  0
VERTEX
  5
39A
330
381
100
AcDbEntity
  8
Arêtes visibles(Norme legrand)
100
AcDbVertex
100
AcDb2dVertex
 10
123.9758273089143
 20
59.99203121598803
 30
0.0
  0
VERTEX
  5
39B
330
381
100
AcDbEntity
  8
Arêtes visibles(Norme legrand)
100
AcDbVertex
100
AcDb2dVertex
 10
124.1148348772736
 20
60.10229504045096
 30
0.0
  0
SEQEND
  5
384
330
381
100
AcDbEntity
  8
Arêtes visibles(Norme legrand)
  0
LINE
  5
39C
330
23
100
AcDbEntity
  8
Arêtes visibles(Norme legrand)
100
AcDbLine
 10
124.1148272478791
 20
60.10229856809991
 30
0.0
 11
124.1148272478791
 21
132.7792537763862
 31
0.0
  0
LINE
  5
39D
330
23
100
AcDbEntity
  8
Arêtes visibles(Norme legrand)
100
AcDbLine
 10
124.1148272478791
 20
132.7792537763862
 30
0.0
 11
121.1148272478791
 21
135.0812347403222
 31
0.0
  0
LINE
  5
39E
330
23
100
AcDbEntity
  8
Arêtes visibles(Norme legrand)
100
AcDbLine
 10
121.1148272478791
 20
135.0812347403222
 30
0.0
 11
121.1148272478791
 21
57.45589418079702
 31
0.0
  0
LINE
  5
39F
330
23
100
AcDbEntity
  8
Arêtes visibles(Norme legrand)
100
AcDbLine
 10
124.1148272478791
 20
132.7792537763862
 30
0.0
 11
162.6676496781631
 21
143.1094514125212
 31
0.0
  0
LINE
  5
3A0
330
23
100
AcDbEntity
  8
Arêtes visibles(Norme legrand)
100
AcDbLine
 10
162.6676496781631
 20
143.1094514125212
 30
0.0
 11
162.272692185401
 21
146.1094514125204
 31
0.0
  0
LINE
  5
3A1
330
23
100
AcDbEntity
  8
Arêtes visibles(Norme legrand)
100
AcDbLine
 10
162.272692185401
 20
146.1094514125204
 30
0.0
 11
121.1148272478791
 21
135.0812347403222
 31
0.0
  0
LINE
  5
3A2
330
23
100
AcDbEntity
  8
Arêtes visibles(Norme legrand)
100
AcDbLine
 10
162.6676496781631
 20
143.1094514125212
 30
0.0
 11
219.5620048175954
 21
143.1094514125212
 31
0.0
  0
LINE
  5
3A3
330
23
100
AcDbEntity
  8
Arêtes visibles(Norme legrand)
100
AcDbLine
 10
219.5620048175954
 20
143.1094514125212
 30
0.0
 11
219.9569623103576
 21
146.1094514125204
 31
0.0
  0
LINE
  5
3A4
330
23
100
AcDbEntity
  8
Arêtes visibles(Norme legrand)
100
AcDbLine
 10
219.9569623103576
 20
146.1094514125204
 30
0.0
 11
162.272692185401
 21
146.1094514125204
 31
0.0
  0
LINE
  5
3A5
330
23
100
AcDbEntity
  8
Arêtes visibles(Norme legrand)
100
AcDbLine
 10
219.5620048175954
 20
143.1094514125212
 30
0.0
 11
258.1148272478791
 21
132.7792537763863
 31
0.0
  0
LINE
  5
3A6
330
23
100
AcDbEntity
  8
Arêtes visibles(Norme legrand)
100
AcDbLine
 10
258.1148272478791
 20
132.7792537763863
 30
0.0
 11
261.1148272478791
 21
135.0812347403223
 31
0.0
  0
LINE
  5
3A7
330
23
100
AcDbEntity
  8
Arêtes visibles(Norme legrand)
100
AcDbLine
 10
261.1148272478791
 20
135.0812347403223
 30
0.0
 11
219.9569623103576
 21
146.1094514125204
 31
0.0
  0
POLYLINE
  5
3A8
330
23
100
AcDbEntity
  8
Arêtes visibles(Norme legrand)
100
AcDb2dPolyline
 66
     1
 10
0.0
 20
0.0
 30
0.0
 70
   128
  0
VERTEX
  5
3A9
330
3A8
100
AcDbEntity
  8
Arêtes visibles(Norme legrand)
100
AcDbVertex
100
AcDb2dVertex
 10
258.1148262942048
 20
60.10229504045096
 30
0.0
  0
VERTEX
  5
3AA
330
3A8
100
AcDbEntity
  8
Arêtes visibles(Norme legrand)
100
AcDbVertex
100
AcDb2dVertex
 10
258.253824325821
 20
59.99203121598803
 30
0.0
  0
VERTEX
  5
3AC
330
3A8
100
AcDbEntity
  8
Arêtes visibles(Norme legrand)
100
AcDbVertex
100
AcDb2dVertex
 10
258.3916064226838
 20
59.8817673915251
 30
0.0
  0
VERTEX
  5
3AD
330
3A8
100
AcDbEntity
  8
Arêtes visibles(Norme legrand)
100
AcDbVertex
100
AcDb2dVertex
 10
258.5281725847932
 20
59.77149403031901
 30
0.0
  0
VERTEX
  5
3AE
330
3A8
100
AcDbEntity
  8
Arêtes visibles(Norme legrand)
100
AcDbVertex
100
AcDb2dVertex
 10
258.6635180437776
 20
59.66123020585607
 30
0.0
  0
VERTEX
  5
3AF
330
3A8
100
AcDbEntity
  8
Arêtes visibles(Norme legrand)
100
AcDbVertex
100
AcDb2dVertex
 10
258.7976475680085
 20
59.55096638139315
 30
0.0
  0
VERTEX
  5
3B0
330
3A8
100
AcDbEntity
  8
Arêtes visibles(Norme legrand)
100
AcDbVertex
100
AcDb2dVertex
 10
258.9305611574861
 20
59.44069302018705
 30
0.0
  0
VERTEX
  5
3B1
330
3A8
100
AcDbEntity
  8
Arêtes visibles(Norme legrand)
100
AcDbVertex
100
AcDb2dVertex
 10
259.0622540438386
 20
59.33042919572411
 30
0.0
  0
VERTEX
  5
3B2
330
3A8
100
AcDbEntity
  8
Arêtes visibles(Norme legrand)
100
AcDbVertex
100
AcDb2dVertex
 10
259.1927309954377
 20
59.22016537126118
 30
0.0
  0
VERTEX
  5
3B3
330
3A8
100
AcDbEntity
  8
Arêtes visibles(Norme legrand)
100
AcDbVertex
100
AcDb2dVertex
 10
259.3219920122834
 20
59.10990154679826
 30
0.0
  0
VERTEX
  5
3B4
330
3A8
100
AcDbEntity
  8
Arêtes visibles(Norme legrand)
100
AcDbVertex
100
AcDb2dVertex
 10
259.4500370943757
 20
58.99962818559217
 30
0.0
  0
VERTEX
  5
3B5
330
3A8
100
AcDbEntity
  8
Arêtes visibles(Norme legrand)
100
AcDbVertex
100
AcDb2dVertex
 10
259.576861473343
 20
58.88936436112924
 30
0.0
  0
VERTEX
  5
3B6
330
3A8
100
AcDbEntity
  8
Arêtes visibles(Norme legrand)
100
AcDbVertex
100
AcDb2dVertex
 10
259.7024699175569
 20
58.77910053666631
 30
0.0
  0
VERTEX
  5
3B7
330
3A8
100
AcDbEntity
  8
Arêtes visibles(Norme legrand)
100
AcDbVertex
100
AcDb2dVertex
 10
259.8268624270173
 20
58.66882717546022
 30
0.0
  0
VERTEX
  5
3B8
330
3A8
100
AcDbEntity
  8
Arêtes visibles(Norme legrand)
100
AcDbVertex
100
AcDb2dVertex
 10
259.9500342333528
 20
58.5585633509973
 30
0.0
  0
VERTEX
  5
3B9
330
3A8
100
AcDbEntity
  8
Arêtes visibles(Norme legrand)
100
AcDbVertex
100
AcDb2dVertex
 10
260.0719948733064
 20
58.44829952653437
 30
0.0
  0
VERTEX
  5
3BA
330
3A8
100
AcDbEntity
  8
Arêtes visibles(Norme legrand)
100
AcDbVertex
100
AcDb2dVertex
 10
260.1927300417634
 20
58.33802616532828
 30
0.0
  0
VERTEX
  5
3BB
330
3A8
100
AcDbEntity
  8
Arêtes visibles(Norme legrand)
100
AcDbVertex
100
AcDb2dVertex
 10
260.3122540438386
 20
58.22776234086536
 30
0.0
  0
VERTEX
  5
3BC
330
3A8
100
AcDbEntity
  8
Arêtes visibles(Norme legrand)
100
AcDbVertex
100
AcDb2dVertex
 10
260.4305573427888
 20
58.11749851640243
 30
0.0
  0
VERTEX
  5
3BD
330
3A8
100
AcDbEntity
  8
Arêtes visibles(Norme legrand)
100
AcDbVertex
100
AcDb2dVertex
 10
260.5476494753572
 20
58.00722515519634
 30
0.0
  0
VERTEX
  5
3BE
330
3A8
100
AcDbEntity
  8
Arêtes visibles(Norme legrand)
100
AcDbVertex
100
AcDb2dVertex
 10
260.6635161364289
 20
57.89696133073341
 30
0.0
  0
VERTEX
  5
3BF
330
3A8
100
AcDbEntity
  8
Arêtes visibles(Norme legrand)
100
AcDbVertex
100
AcDb2dVertex
 10
260.7781716311189
 20
57.78669750627049
 30
0.0
  0
VERTEX
  5
3C0
330
3A8
100
AcDbEntity
  8
Arêtes visibles(Norme legrand)
100
AcDbVertex
100
AcDb2dVertex
 10
260.8916064226838
 20
57.6764241450644
 30
0.0
  0
VERTEX
  5
3C1
330
3A8
100
AcDbEntity
  8
Arêtes visibles(Norme legrand)
100
AcDbVertex
100
AcDb2dVertex
 10
261.0038252794954
 20
57.56616032060147
 30
0.0
  0
VERTEX
  5
3C2
330
3A8
100
AcDbEntity
  8
Arêtes visibles(Norme legrand)
100
AcDbVertex
100
AcDb2dVertex
 10
261.1148282015534
 20
57.45589649613854
 30
0.0
  0
SEQEND
  5
3AB
330
3A8
100
AcDbEntity
  8
Arêtes visibles(Norme legrand)
  0
LINE
  5
3C3
330
23
100
AcDbEntity
  8
Arêtes visibles(Norme legrand)
100
AcDbLine
 10
261.1148272478791
 20
57.45589418079702
 30
0.0
 11
261.1148272478791
 21
135.0812347403223
 31
0.0
  0
LINE
  5
3C4
330
23
100
AcDbEntity
  8
Arêtes visibles(Norme legrand)
100
AcDbLine
 10
258.1148272478791
 20
132.7792537763863
 30
0.0
 11
258.1148272478791
 21
60.10229856809987
 31
0.0
  0
LINE
  5
3C5
330
23
100
AcDbEntity
  8
Arêtes visibles(Norme legrand)
100
AcDbLine
 10
78.09143684970102
 20
123.5531520274747
 30
0.0
 11
113.1148272478791
 21
132.9376412008664
 31
0.0
  0
LINE
  5
3C6
330
23
100
AcDbEntity
  8
Arêtes visibles(Norme legrand)
100
AcDbLine
 10
269.1148272478791
 20
132.9376412008664
 30
0.0
 11
304.1382176460573
 21
123.5531520274746
 31
0.0
  0
LINE
  5
3C7
330
23
100
AcDbEntity
  8
Arêtes visibles(Norme legrand)
100
AcDbLine
 10
113.1148272478791
 20
53.60945141251352
 30
0.0
 11
110.1148272478791
 21
50.60945141251355
 31
0.0
  0
LINE
  5
3C8
330
23
100
AcDbEntity
  8
Arêtes visibles(Norme legrand)
100
AcDbLine
 10
272.1148272478792
 20
50.60945141251355
 30
0.0
 11
269.1148272478791
 21
53.6094514125136
 31
0.0
  0
LINE
  5
3C9
330
23
100
AcDbEntity
  8
Arêtes visibles(Norme legrand)
100
AcDbLine
 10
294.6148272478792
 20
50.60945141251355
 30
0.0
 11
272.1148272478792
 21
50.60945141251355
 31
0.0
  0
LINE
  5
3CA
330
23
100
AcDbEntity
  8
Arêtes visibles(Norme legrand)
100
AcDbLine
 10
294.6148272478792
 20
68.65449198557801
 30
0.0
 11
294.6148272478792
 21
50.60945141251355
 31
0.0
  0
ARC
  5
3CB
330
23
100
AcDbEntity
  8
Arêtes visibles(Norme legrand)
100
AcDbCircle
 10
296.1148272478791
 20
93.60945141251356
 30
0.0
 40
25.0
100
AcDbArc
 50
273.4398127675151
 51
266.560187232485
  0
LINE
  5
3CC
330
23
100
AcDbEntity
  8
Arêtes visibles(Norme legrand)
100
AcDbLine
 10
297.6148272478791
 20
50.60945141251355
 30
0.0
 11
297.6148272478791
 21
68.65449198557801
 31
0.0
  0
LINE
  5
3CD
330
23
100
AcDbEntity
  8
Arêtes visibles(Norme legrand)
100
AcDbLine
 10
316.6865735660534
 20
50.60945141251355
 30
0.0
 11
297.6148272478791
 21
50.60945141251355
 31
0.0
  0
LINE
  5
3CE
330
23
100
AcDbEntity
  8
Arêtes visibles(Norme legrand)
100
AcDbLine
 10
326.0585278628403
 20
85.58606101433543
 30
0.0
 11
316.6865735660534
 21
50.60945141251355
 31
0.0
  0
ARC
  5
3CF
330
23
100
AcDbEntity
  8
Arêtes visibles(Norme legrand)
100
AcDbCircle
 10
296.1148272478791
 20
93.60945141251356
 30
0.0
 40
31.0
100
AcDbArc
 50
345.0000000000001
 51
75.00000000000006
  0
ARC
  5
3D0
330
23
100
AcDbEntity
  8
Arêtes visibles(Norme legrand)
100
AcDbCircle
 10
86.11482724787919
 20
93.60945141251356
 30
0.0
 40
31.00000000000005
100
AcDbArc
 50
105.0
 51
194.9999999999999
  0
LINE
  5
3D1
330
23
100
AcDbEntity
  8
Arêtes visibles(Norme legrand)
100
AcDbLine
 10
65.54308092970484
 20
50.60945141251355
 30
0.0
 11
56.17112663291806
 21
85.58606101433545
 31
0.0
  0
LINE
  5
3D2
330
23
100
AcDbEntity
  8
Arêtes visibles(Norme legrand)
100
AcDbLine
 10
84.6148272478792
 20
50.60945141251355
 30
0.0
 11
65.54308092970484
 21
50.60945141251355
 31
0.0
  0
LINE
  5
3D3
330
23
100
AcDbEntity
  8
Arêtes visibles(Norme legrand)
100
AcDbLine
 10
84.6148272478792
 20
68.65449198557799
 30
0.0
 11
84.6148272478792
 21
50.60945141251355
 31
0.0
  0
ARC
  5
3D4
330
23
100
AcDbEntity
  8
Arêtes visibles(Norme legrand)
100
AcDbCircle
 10
86.11482724787919
 20
93.60945141251356
 30
0.0
 40
25.0
100
AcDbArc
 50
273.4398127675152
 51
266.560187232485
  0
LINE
  5
3D5
330
23
100
AcDbEntity
  8
Arêtes visibles(Norme legrand)
100
AcDbLine
 10
87.61482724787923
 20
50.60945141251355
 30
0.0
 11
87.61482724787923
 21
68.65449198557801
 31
0.0
  0
LINE
  5
3D6
330
23
100
AcDbEntity
  8
Arêtes visibles(Norme legrand)
100
AcDbLine
 10
110.1148272478791
 20
50.60945141251355
 30
0.0
 11
87.61482724787923
 21
50.60945141251355
 31
0.0
  0
LINE
  5
3D7
330
23
100
AcDbEntity
  8
Arêtes visibles(Norme legrand)
100
AcDbLine
 10
121.1148272478791
 20
135.0812347403177
 30
0.0
 11
113.1148272478791
 21
132.9376412008664
 31
0.0
  0
LINE
  5
3D8
330
23
100
AcDbEntity
  8
Arêtes visibles(Norme legrand)
100
AcDbLine
 10
269.1148272478791
 20
132.9376412008664
 30
0.0
 11
261.1148272478791
 21
135.0812347403178
 31
0.0
  0
LINE
  5
3D9
330
23
100
AcDbEntity
  8
Arêtes visibles(Norme legrand)
100
AcDbLine
 10
113.1148272478791
 20
53.60945141251352
 30
0.0
 11
114.0323443432405
 21
54.52696850787524
 31
0.0
  0
LINE
  5
3DA
330
23
100
AcDbEntity
  8
Arêtes visibles(Norme legrand)
100
AcDbLine
 10
269.1148272478791
 20
53.6094514125136
 30
0.0
 11
268.1973101525177
 21
54.52696850787521
 31
0.0
  0
LINE
  5
3DB
330
23
100
AcDbEntity
  8
Arêtes visibles(Norme legrand)
100
AcDbLine
 10
269.1148272478791
 20
53.6094514125136
 30
0.0
 11
269.1148272478791
 21
132.9376412008664
 31
0.0
  0
LINE
  5
3DC
330
23
100
AcDbEntity
  8
Arêtes visibles(Norme legrand)
100
AcDbLine
 10
113.1148272478791
 20
132.9376412008664
 30
0.0
 11
113.1148272478791
 21
53.60945141251352
 31
0.0
  0
ARC
  5
3DD
330
23
100
AcDbEntity
  8
Arêtes visibles(Norme legrand)
100
AcDbCircle
 10
261.1262423406268
 20
47.45590069611708
 30
0.0
 40
12.99999999989688
100
AcDbArc
 50
103.3940754749803
 51
105.0000000000049
  0
ARC
  5
3DE
330
23
100
AcDbEntity
  8
Arêtes visibles(Norme legrand)
100
AcDbCircle
 10
261.1262423406527
 20
47.45590069601357
 30
0.0
 40
10.00000000000273
100
AcDbArc
 50
90.06540367807131
 51
104.9999999999978
  0
ARC
  5
3DF
330
23
100
AcDbEntity
  8
Arêtes visibles(Norme legrand)
100
AcDbCircle
 10
191.1148272478791
 20
43.10945141252128
 30
0.0
 40
25.00000000000002
100
AcDbArc
 50
186.4917247100843
 51
353.5082752899158
  0
ARC
  5
3E0
330
23
100
AcDbEntity
  8
Arêtes visibles(Norme legrand)
100
AcDbCircle
 10
191.1148272478791
 20
43.10945141252037
 30
0.0
 40
28.00000000000002
100
AcDbArc
 50
186.4917247100841
 51
353.5082752899158
  0
ARC
  5
3E1
330
23
100
AcDbEntity
  8
Arêtes visibles(Norme legrand)
100
AcDbCircle
 10
228.871178672056
 20
38.81318243420235
 30
0.0
 40
13.00000000000002
100
AcDbArc
 50
105.0000000000002
 51
173.5082752899158
  0
ARC
  5
3E2
330
23
100
AcDbEntity
  8
Arêtes visibles(Norme legrand)
100
AcDbCircle
 10
228.871178672056
 20
38.81318243420146
 30
0.0
 40
10.00000000000002
100
AcDbArc
 50
105.0000000000003
 51
173.5082752899157
  0
ARC
  5
3E3
330
23
100
AcDbEntity
  8
Arêtes visibles(Norme legrand)
100
AcDbCircle
 10
153.3584758237023
 20
38.81318243420146
 30
0.0
 40
10.00000000000003
100
AcDbArc
 50
6.491724710084223
 51
74.9999999999999
  0
ARC
  5
3E4
330
23
100
AcDbEntity
  8
Arêtes visibles(Norme legrand)
100
AcDbCircle
 10
153.3584758237023
 20
38.81318243420239
 30
0.0
 40
13.0
100
AcDbArc
 50
6.491724710084057
 51
74.99999999999996
  0
LINE
  5
3E5
330
23
100
AcDbEntity
  8
Arêtes visibles(Norme legrand)
100
AcDbLine
 10
257.7615947543195
 20
60.01293643777504
 30
0.0
 11
225.5065310857231
 21
51.37021817596025
 31
0.0
  0
LINE
  5
3E6
330
23
100
AcDbEntity
  8
Arêtes visibles(Norme legrand)
100
AcDbLine
 10
226.2829882210307
 20
48.47244069709214
 30
0.0
 11
258.5380518896271
 21
57.11515895890697
 31
0.0
  0
LINE
  5
3E7
330
23
100
AcDbEntity
  8
Arêtes visibles(Norme legrand)
100
AcDbLine
 10
123.6916026061312
 20
57.11515895890697
 30
0.0
 11
155.9466662747275
 21
48.47244069709216
 31
0.0
  0
LINE
  5
3E8
330
23
100
AcDbEntity
  8
Arêtes visibles(Norme legrand)
100
AcDbLine
 10
156.723123410035
 20
51.37021817596028
 30
0.0
 11
124.4680597414387
 21
60.01293643777504
 31
0.0
  0
ARC
  5
3E9
330
23
100
AcDbEntity
  8
Arêtes visibles(Norme legrand)
100
AcDbCircle
 10
121.1034121551062
 20
47.45590069601748
 30
0.0
 40
9.999999999998802
100
AcDbArc
 50
74.99999999999928
 51
89.93459632193212
  0
ARC
  5
3EA
330
23
100
AcDbEntity
  8
Arêtes visibles(Norme legrand)
100
AcDbCircle
 10
121.1034121550852
 20
47.45590069593453
 30
0.0
 40
13.00000000008523
100
AcDbArc
 50
75.00000000000584
 51
76.60592452500779
  0
ARC
  5
3EB
330
23
100
AcDbEntity
  8
Arêtes visibles(Norme legrand)
100
AcDbCircle
 10
121.103412155106
 20
47.45590069601184
 30
0.0
 40
10.0
100
AcDbArc
 50
89.93459632194809
 51
135.0000000000253
  0
ARC
  5
3EC
330
23
100
AcDbEntity
  8
Arêtes visibles(Norme legrand)
100
AcDbCircle
 10
261.1262423406523
 20
47.45590069601184
 30
0.0
 40
9.999999999999998
100
AcDbArc
 50
44.99999999997437
 51
90.0654036780522
  0
CIRCLE
  5
3ED
330
23
100
AcDbEntity
  8
Arêtes visibles(Norme legrand)
100
AcDbCircle
 10
191.1148272478791
 20
118.6094514125213
 30
0.0
 40
15.09999999999999
  0
CIRCLE
  5
3EE
330
23
100
AcDbEntity
  8
Arêtes visibles(Norme legrand)
100
AcDbCircle
 10
191.1148272478791
 20
118.609451412521
 30
0.0
 40
14.1
  0
CIRCLE
  5
3EF
330
23
100
AcDbEntity
  8
Arêtes visibles(Norme legrand)
100
AcDbCircle
 10
236.1148272478791
 20
96.60945141252128
 30
0.0
 40
5.0
  0
CIRCLE
  5
3F0
330
23
100
AcDbEntity
  8
Arêtes visibles(Norme legrand)
100
AcDbCircle
 10
146.1148272478791
 20
96.60945141252128
 30
0.0
 40
5.0
  0
CIRCLE
  5
3F1
330
23
100
AcDbEntity
  8
Arêtes visibles(Norme legrand)
100
AcDbCircle
 10
191.1148272478791
 20
43.10945141252126
 30
0.0
 40
22.0
  0
CIRCLE
  5
3F2
330
23
100
AcDbEntity
  8
Arêtes cachées(Norme legrand)
100
AcDbCircle
 10
191.1148272478791
 20
118.6094514125178
 30
0.0
 40
15.6
  0
CIRCLE
  5
3F3
330
23
100
AcDbEntity
  8
Arêtes cachées(Norme legrand)
100
AcDbCircle
 10
191.1148272478791
 20
118.6094514125174
 30
0.0
 40
22.1
  0
ARC
  5
3F4
330
23
100
AcDbEntity
  8
Arêtes cachées(Norme legrand)
100
AcDbCircle
 10
146.1148272478791
 20
96.60945141251358
 30
0.0
 40
17.50000000000001
100
AcDbArc
 50
106.6015495990199
 51
253.3984504009799
  0
ARC
  5
3F5
330
23
100
AcDbEntity
  8
Arêtes cachées(Norme legrand)
100
AcDbCircle
 10
236.1148272478791
 20
96.60945141251358
 30
0.0
 40
17.49999999999999
100
AcDbArc
 50
286.6015495990205
 51
73.39845040097959
  0
LINE
  5
3F6
330
23
100
AcDbEntity
  8
Arêtes cachées(Norme legrand)
100
AcDbLine
 10
241.1148272478793
 20
140.4402185889378
 30
0.0
 11
241.1148272478793
 21
113.3799612437619
 31
0.0
  0
LINE
  5
3F7
330
23
100
AcDbEntity
  8
Arêtes cachées(Norme legrand)
100
AcDbLine
 10
241.1148272478793
 20
79.83894158126517
 30
0.0
 11
241.1148272478793
 21
52.44661998659779
 31
0.0
  0
LINE
  5
3F8
330
23
100
AcDbEntity
  8
Arêtes cachées(Norme legrand)
100
AcDbLine
 10
141.1148272478792
 20
140.4402185889379
 30
0.0
 11
141.1148272478792
 21
113.379961243762
 31
0.0
  0
LINE
  5
3F9
330
23
100
AcDbEntity
  8
Arêtes cachées(Norme legrand)
100
AcDbLine
 10
141.1148272478792
 20
79.8389415812651
 30
0.0
 11
141.1148272478792
 21
52.44661998659772
 31
0.0
  0
LINE
  5
3FA
330
23
100
AcDbEntity
  8
Arêtes cachées(Norme legrand)
100
AcDbLine
 10
269.6148272478791
 20
57.28595141251059
 30
0.0
 11
269.6148272478791
 21
63.93295141251059
 31
0.0
  0
LINE
  5
3FB
330
23
100
AcDbEntity
  8
Arêtes cachées(Norme legrand)
100
AcDbLine
 10
267.6178669805411
 20
60.60945141251059
 30
0.0
 11
269.6148272478791
 21
63.93295141251059
 31
0.0
  0
LINE
  5
3FC
330
23
100
AcDbEntity
  8
Arêtes cachées(Norme legrand)
100
AcDbLine
 10
267.6178669805411
 20
60.60945141251059
 30
0.0
 11
269.6148272478791
 21
57.28595141251059
 31
0.0
  0
LINE
  5
3FD
330
23
100
AcDbEntity
  8
Arêtes cachées(Norme legrand)
100
AcDbLine
 10
269.6148272478791
 20
63.93295141251059
 30
0.0
 11
294.6148272478792
 21
63.93295141251059
 31
0.0
  0
LINE
  5
3FE
330
23
100
AcDbEntity
  8
Arêtes cachées(Norme legrand)
100
AcDbLine
 10
269.6148272478791
 20
57.28595141251059
 30
0.0
 11
294.6148272478792
 21
57.28595141251059
 31
0.0
  0
LINE
  5
3FF
330
23
100
AcDbEntity
  8
Arêtes cachées(Norme legrand)
100
AcDbLine
 10
294.6148272478792
 20
64.60945141251059
 30
0.0
 11
274.6148272478791
 21
64.60945141251059
 31
0.0
  0
LINE
  5
400
330
23
100
AcDbEntity
  8
Arêtes cachées(Norme legrand)
100
AcDbLine
 10
274.6148272478791
 20
56.60945141251058
 30
0.0
 11
294.6148272478792
 21
56.60945141251058
 31
0.0
  0
LINE
  5
401
330
23
100
AcDbEntity
  8
Arêtes cachées(Norme legrand)
100
AcDbLine
 10
274.6148272478791
 20
64.60945141251059
 30
0.0
 11
274.6148272478791
 21
56.60945141251058
 31
0.0
  0
LINE
  5
402
330
23
100
AcDbEntity
  8
Arêtes cachées(Norme legrand)
100
AcDbLine
 10
308.1148272478791
 20
67.60945141251058
 30
0.0
 11
308.1148272478791
 21
53.60945141251059
 31
0.0
  0
LINE
  5
403
330
23
100
AcDbEntity
  8
Arêtes cachées(Norme legrand)
100
AcDbLine
 10
317.4904211433468
 20
53.60945141251059
 30
0.0
 11
308.1148272478791
 21
53.60945141251059
 31
0.0
  0
LINE
  5
404
330
23
100
AcDbEntity
  8
Arêtes cachées(Norme legrand)
100
AcDbLine
 10
321.2417098373825
 20
67.6094514125106
 30
0.0
 11
308.1148272478791
 21
67.6094514125106
 31
0.0
  0
LINE
  5
405
330
23
100
AcDbEntity
  8
Arêtes cachées(Norme legrand)
100
AcDbLine
 10
308.1148272478791
 20
56.35945141251058
 30
0.0
 11
297.6148272478792
 21
56.35945141251058
 31
0.0
  0
LINE
  5
406
330
23
100
AcDbEntity
  8
Arêtes cachées(Norme legrand)
100
AcDbLine
 10
308.1148272478791
 20
64.85945141251059
 30
0.0
 11
297.6148272478792
 21
64.85945141251059
 31
0.0
  0
LINE
  5
407
330
23
100
AcDbEntity
  8
Arêtes cachées(Norme legrand)
100
AcDbLine
 10
112.6148272478792
 20
63.93295141251059
 30
0.0
 11
112.6148272478792
 21
57.28595141251059
 31
0.0
  0
LINE
  5
408
330
23
100
AcDbEntity
  8
Arêtes cachées(Norme legrand)
100
AcDbLine
 10
114.6117875152173
 20
60.60945141251059
 30
0.0
 11
112.6148272478792
 21
57.28595141251057
 31
0.0
  0
LINE
  5
409
330
23
100
AcDbEntity
  8
Arêtes cachées(Norme legrand)
100
AcDbLine
 10
114.6117875152173
 20
60.60945141251059
 30
0.0
 11
112.6148272478792
 21
63.9329514125106
 31
0.0
  0
LINE
  5
40A
330
23
100
AcDbEntity
  8
Arêtes cachées(Norme legrand)
100
AcDbLine
 10
112.6148272478792
 20
57.28595141251059
 30
0.0
 11
87.61482724787923
 21
57.28595141251059
 31
0.0
  0
LINE
  5
40B
330
23
100
AcDbEntity
  8
Arêtes cachées(Norme legrand)
100
AcDbLine
 10
112.6148272478792
 20
63.93295141251059
 30
0.0
 11
87.61482724787923
 21
63.93295141251059
 31
0.0
  0
LINE
  5
40C
330
23
100
AcDbEntity
  8
Arêtes cachées(Norme legrand)
100
AcDbLine
 10
87.61482724787923
 20
56.60945141251058
 30
0.0
 11
107.6148272478792
 21
56.60945141251058
 31
0.0
  0
LINE
  5
40D
330
23
100
AcDbEntity
  8
Arêtes cachées(Norme legrand)
100
AcDbLine
 10
107.6148272478792
 20
64.60945141251059
 30
0.0
 11
87.61482724787923
 21
64.60945141251059
 31
0.0
  0
LINE
  5
40E
330
23
100
AcDbEntity
  8
Arêtes cachées(Norme legrand)
100
AcDbLine
 10
107.6148272478792
 20
56.60945141251058
 30
0.0
 11
107.6148272478792
 21
64.60945141251059
 31
0.0
  0
LINE
  5
40F
330
23
100
AcDbEntity
  8
Arêtes cachées(Norme legrand)
100
AcDbLine
 10
74.11482724787913
 20
67.60945141251058
 30
0.0
 11
74.11482724787913
 21
53.60945141251059
 31
0.0
  0
LINE
  5
410
330
23
100
AcDbEntity
  8
Arêtes cachées(Norme legrand)
100
AcDbLine
 10
74.11482724787913
 20
53.60945141251059
 30
0.0
 11
64.73923335241146
 21
53.60945141251059
 31
0.0
  0
LINE
  5
411
330
23
100
AcDbEntity
  8
Arêtes cachées(Norme legrand)
100
AcDbLine
 10
74.11482724787916
 20
67.6094514125106
 30
0.0
 11
60.98794465837578
 21
67.6094514125106
 31
0.0
  0
LINE
  5
412
330
23
100
AcDbEntity
  8
Arêtes cachées(Norme legrand)
100
AcDbLine
 10
84.6148272478792
 20
56.35945141251058
 30
0.0
 11
74.11482724787913
 21
56.35945141251058
 31
0.0
  0
LINE
  5
413
330
23
100
AcDbEntity
  8
Arêtes cachées(Norme legrand)
100
AcDbLine
 10
84.6148272478792
 20
64.85945141251059
 30
0.0
 11
74.11482724787913
 21
64.85945141251059
 31
0.0
  0
POLYLINE
  5
414
330
23
100
AcDbEntity
  8
Arêtes visibles(Norme legrand)
100
AcDb2dPolyline
 66
     1
 10
0.0
 20
0.0
 30
0.0
 70
   128
  0
VERTEX
  5
415
330
414
100
AcDbEntity
  8
Arêtes visibles(Norme legrand)
100
AcDbVertex
100
AcDb2dVertex
 10
441.7639983014598
 20
376.452958489368
 30
0.0
  0
VERTEX
  5
416
330
414
100
AcDbEntity
  8
Arêtes visibles(Norme legrand)
100
AcDbVertex
100
AcDb2dVertex
 10
441.7645242941293
 20
376.4536038983288
 30
0.0
  0
VERTEX
  5
418
330
414
100
AcDbEntity
  8
Arêtes visibles(Norme legrand)
100
AcDbVertex
100
AcDb2dVertex
 10
441.7658999672648
 20
376.454757991181
 30
0.0
  0
VERTEX
  5
419
330
414
100
AcDbEntity
  8
Arêtes visibles(Norme legrand)
100
AcDbVertex
100
AcDb2dVertex
 10
441.7681455513534
 20
376.4563974529519
 30
0.0
  0
VERTEX
  5
41A
330
414
100
AcDbEntity
  8
Arêtes visibles(Norme legrand)
100
AcDbVertex
100
AcDb2dVertex
 10
441.7712475594038
 20
376.4585494819355
 30
0.0
  0
VERTEX
  5
41B
330
414
100
AcDbEntity
  8
Arêtes visibles(Norme legrand)
100
AcDbVertex
100
AcDb2dVertex
 10
441.7752127349118
 20
376.4611985298003
 30
0.0
  0
VERTEX
  5
41C
330
414
100
AcDbEntity
  8
Arêtes visibles(Norme legrand)
100
AcDbVertex
100
AcDb2dVertex
 10
441.7800343343815
 20
376.4643407132255
 30
0.0
  0
VERTEX
  5
41D
330
414
100
AcDbEntity
  8
Arêtes visibles(Norme legrand)
100
AcDbVertex
100
AcDb2dVertex
 10
441.7857123578128
 20
376.4679915654949
 30
0.0
  0
VERTEX
  5
41E
330
414
100
AcDbEntity
  8
Arêtes visibles(Norme legrand)
100
AcDbVertex
100
AcDb2dVertex
 10
441.7922670356932
 20
376.4721355683723
 30
0.0
  0
VERTEX
  5
41F
330
414
100
AcDbEntity
  8
Arêtes visibles(Norme legrand)
100
AcDbVertex
100
AcDb2dVertex
 10
441.7996646505439
 20
376.4767804734518
 30
0.0
  0
VERTEX
  5
420
330
414
100
AcDbEntity
  8
Arêtes visibles(Norme legrand)
100
AcDbVertex
100
AcDb2dVertex
 10
441.8079321763478
 20
376.4819262807338
 30
0.0
  0
VERTEX
  5
421
330
414
100
AcDbEntity
  8
Arêtes visibles(Norme legrand)
100
AcDbVertex
100
AcDb2dVertex
 10
441.8170628696093
 20
376.4875730052655
 30
0.0
  0
VERTEX
  5
422
330
414
100
AcDbEntity
  8
Arêtes visibles(Norme legrand)
100
AcDbVertex
100
AcDb2dVertex
 10
441.8270364998408
 20
376.4937167336311
 30
0.0
  0
VERTEX
  5
423
330
414
100
AcDbEntity
  8
Arêtes visibles(Norme legrand)
100
AcDbVertex
100
AcDb2dVertex
 10
441.8378935280173
 20
376.5003574959255
 30
0.0
  0
VERTEX
  5
424
330
414
100
AcDbEntity
  8
Arêtes visibles(Norme legrand)
100
AcDbVertex
100
AcDb2dVertex
 10
441.8496002366597
 20
376.5075069421115
 30
0.0
  0
VERTEX
  5
425
330
414
100
AcDbEntity
  8
Arêtes visibles(Norme legrand)
100
AcDbVertex
100
AcDb2dVertex
 10
441.8621633692639
 20
376.5151456254896
 30
0.0
  0
VERTEX
  5
426
330
414
100
AcDbEntity
  8
Arêtes visibles(Norme legrand)
100
AcDbVertex
100
AcDb2dVertex
 10
441.8755964128213
 20
376.5232891094383
 30
0.0
  0
VERTEX
  5
427
330
414
100
AcDbEntity
  8
Arêtes visibles(Norme legrand)
100
AcDbVertex
100
AcDb2dVertex
 10
441.8898926238362
 20
376.5319296122685
 30
0.0
  0
VERTEX
  5
428
330
414
100
AcDbEntity
  8
Arêtes visibles(Norme legrand)
100
AcDbVertex
100
AcDb2dVertex
 10
441.9050520023087
 20
376.5410710323485
 30
0.0
  0
VERTEX
  5
429
330
414
100
AcDbEntity
  8
Arêtes visibles(Norme legrand)
100
AcDbVertex
100
AcDb2dVertex
 10
441.9210543177513
 20
376.5507094562622
 30
0.0
  0
VERTEX
  5
42A
330
414
100
AcDbEntity
  8
Arêtes visibles(Norme legrand)
100
AcDbVertex
100
AcDb2dVertex
 10
441.9379265441472
 20
376.5608526807466
 30
0.0
  0
VERTEX
  5
42B
330
414
100
AcDbEntity
  8
Arêtes visibles(Norme legrand)
100
AcDbVertex
100
AcDb2dVertex
 10
441.9556619380006
 20
376.571496822481
 30
0.0
  0
VERTEX
  5
42C
330
414
100
AcDbEntity
  8
Arêtes visibles(Norme legrand)
100
AcDbVertex
100
AcDb2dVertex
 10
441.9742537558158
 20
376.5826302014072
 30
0.0
  0
VERTEX
  5
42D
330
414
100
AcDbEntity
  8
Arêtes visibles(Norme legrand)
100
AcDbVertex
100
AcDb2dVertex
 10
441.9937154845842
 20
376.5942683809042
 30
0.0
  0
VERTEX
  5
42E
330
414
100
AcDbEntity
  8
Arêtes visibles(Norme legrand)
100
AcDbVertex
100
AcDb2dVertex
 10
442.0140403808101
 20
376.6064035792826
 30
0.0
  0
SEQEND
  5
417
330
414
100
AcDbEntity
  8
Arêtes visibles(Norme legrand)
  0
LINE
  5
42F
330
23
100
AcDbEntity
  8
Arêtes visibles(Norme legrand)
100
AcDbLine
 10
442.0140324915889
 20
376.6064060291694
 30
0.0
 11
430.2704733385056
 21
369.8437400796513
 31
0.0
  0
LINE
  5
430
330
23
100
AcDbEntity
  8
Arêtes visibles(Norme legrand)
100
AcDbLine
 10
402.3729800958812
 20
353.7786421677225
 30
0.0
 11
390.6236646278264
 21
347.0126613768734
 31
0.0
  0
LINE
  5
431
330
23
100
AcDbEntity
  8
Arêtes visibles(Norme legrand)
100
AcDbLine
 10
390.6236646278264
 20
347.0126613768734
 30
0.0
 11
386.8745979345046
 21
344.8442503619759
 31
0.0
  0
LINE
  5
432
330
23
100
AcDbEntity
  8
Arêtes visibles(Norme legrand)
100
AcDbLine
 10
386.8745979345046
 20
344.8442503619759
 30
0.0
 11
402.3840433167719
 21
353.7755459611497
 31
0.0
  0
LINE
  5
433
330
23
100
AcDbEntity
  8
Arêtes visibles(Norme legrand)
100
AcDbLine
 10
430.2786932737411
 20
369.8390065337646
 30
0.0
 11
441.7640026360518
 21
376.4529563194894
 31
0.0
  0
LINE
  5
434
330
23
100
AcDbEntity
  8
Arêtes visibles(Norme legrand)
100
AcDbLine
 10
386.8745979345046
 20
343.0263551661696
 30
0.0
 11
386.8745979345046
 21
344.8442503619759
 31
0.0
  0
LINE
  5
435
330
23
100
AcDbEntity
  8
Arêtes visibles(Norme legrand)
100
AcDbLine
 10
553.3782927036896
 20
298.9506618154448
 30
0.0
 11
549.1356520165703
 21
298.9506618154445
 31
0.0
  0
LINE
  5
436
330
23
100
AcDbEntity
  8
Arêtes visibles(Norme legrand)
100
AcDbLine
 10
569.2881952803894
 20
289.7887582551187
 30
0.0
 11
553.3782927036896
 21
298.9506618154448
 31
0.0
  0
ELLIPSE
  5
437
330
23
100
AcDbEntity
  8
Arêtes visibles(Norme legrand)
100
AcDbEllipse
 10
539.9432638611523
 20
271.6685489913573
 30
0.0
 11
-25.0
 21
0.0000000000014899
 31
0.0
210
0.0
220
0.0
230
1.0
 40
0.5758617009853121
 41
0.603924817330805
 42
2.537667836259664
  0
LINE
  5
438
330
23
100
AcDbEntity
  8
Arêtes visibles(Norme legrand)
100
AcDbLine
 10
571.4095156239493
 20
288.5671711137419
 30
0.0
 11
569.2881952803894
 21
287.3455839723643
 31
0.0
  0
LINE
  5
439
330
23
100
AcDbEntity
  8
Arêtes visibles(Norme legrand)
100
AcDbLine
 10
584.895276774602
 20
280.8012377584477
 30
0.0
 11
571.4095156239493
 21
288.5671711137419
 31
0.0
  0
ELLIPSE
  5
43A
330
23
100
AcDbEntity
  8
Arêtes visibles(Norme legrand)
100
AcDbEllipse
 10
391.4508398119552
 20
357.1796488877348
 30
0.0
 11
-30.99999999999996
 21
-0.0000000000000033
 31
0.0
210
0.0
220
0.0
230
1.0
 40
0.5758617009853121
 41
5.235987755983137
 42
6.283185307179586
  0
LINE
  5
43B
330
23
100
AcDbEntity
  8
Arêtes visibles(Norme legrand)
100
AcDbLine
 10
407.3100100805397
 20
383.0657915067903
 30
0.0
 11
375.9508398119513
 21
372.6396856134472
 31
0.0
  0
LINE
  5
43C
330
23
100
AcDbEntity
  8
Arêtes visibles(Norme legrand)
100
AcDbLine
 10
420.7957712311923
 20
375.2998581514962
 30
0.0
 11
407.3100100805397
 21
383.0657915067903
 31
0.0
  0
ELLIPSE
  5
43D
330
23
100
AcDbEntity
  8
Arêtes visibles(Norme legrand)
100
AcDbEllipse
 10
391.4508398119552
 20
357.1796488877348
 30
0.0
 11
-24.99999999999998
 21
0.0000000000014844
 31
0.0
210
0.0
220
0.0
230
1.0
 40
0.5758617009853122
 41
0.6039248173308059
 42
2.537667836259666
  0
LINE
  5
43E
330
23
100
AcDbEntity
  8
Arêtes visibles(Norme legrand)
100
AcDbLine
 10
422.9170915747523
 20
374.0782710101194
 30
0.0
 11
420.7957712311923
 21
372.8566838687418
 31
0.0
  0
LINE
  5
43F
330
23
100
AcDbEntity
  8
Arêtes visibles(Norme legrand)
100
AcDbLine
 10
438.8269941514519
 20
364.9163674497933
 30
0.0
 11
422.9170915747523
 21
374.0782710101194
 31
0.0
  0
LINE
  5
440
330
23
100
AcDbEntity
  8
Arêtes visibles(Norme legrand)
100
AcDbLine
 10
441.7640026360518
 20
364.1897494468513
 30
0.0
 11
438.8269941514519
 21
362.4984387451008
 31
0.0
  0
LINE
  5
441
330
23
100
AcDbEntity
  8
Arêtes visibles(Norme legrand)
100
AcDbLine
 10
549.1356520165703
 20
298.9506618154445
 30
0.0
 11
547.8380868966012
 21
299.700775278751
 31
0.0
  0
LINE
  5
442
330
23
100
AcDbEntity
  8
Arêtes visibles(Norme legrand)
100
AcDbLine
 10
441.7640026360518
 20
364.1897494468513
 30
0.0
 11
441.7640026360518
 21
376.4529563194894
 31
0.0
  0
LINE
  5
443
330
23
100
AcDbEntity
  8
Arêtes visibles(Norme legrand)
100
AcDbLine
 10
540.7589520021832
 20
307.182349515933
 30
0.0
 11
540.7589520021832
 21
319.4455563885711
 31
0.0
  0
LINE
  5
444
330
23
100
AcDbEntity
  8
Arêtes tangentes visibles(Norme legrand)
100
AcDbLine
 10
472.7460930899389
 20
365.9276045178723
 30
0.0
 11
472.7460930899389
 21
347.1240206464939
 31
0.0
  0
ELLIPSE
  5
445
330
23
100
AcDbEntity
  8
Arêtes visibles(Norme legrand)
100
AcDbEllipse
 10
477.7460930899376
 20
352.1111292676923
 30
0.0
 11
10.00000000000003
 21
0.0000000000005951
 31
0.0
210
0.0
220
0.0
230
1.0
 40
0.5758617009853121
 41
4.188790204786435
 42
5.384485173458097
  0
LINE
  5
446
330
23
100
AcDbEntity
  8
Arêtes tangentes visibles(Norme legrand)
100
AcDbLine
 10
483.9723697206038
 20
347.6049064304212
 30
0.0
 11
483.9723697206038
 21
366.4084903017996
 31
0.0
  0
LINE
  5
447
330
23
100
AcDbEntity
  8
Arêtes tangentes visibles(Norme legrand)
100
AcDbLine
 10
443.8269941514541
 20
342.4945592773702
 30
0.0
 11
443.8269941514541
 21
375.5424503600953
 31
0.0
  0
ELLIPSE
  5
448
330
23
100
AcDbEntity
  8
Arêtes visibles(Norme legrand)
100
AcDbEllipse
 10
448.8269941514528
 20
368.2570197323792
 30
0.0
 11
9.999995325965036
 21
5.780950031656534
 31
0.0
210
0.0
220
0.0
230
1.0
 40
0.001672482992433
 41
2.354086089458665
 42
3.140625743783504
  0
ELLIPSE
  5
449
330
23
100
AcDbEntity
  8
Arêtes visibles(Norme legrand)
100
AcDbEllipse
 10
448.8269941514529
 20
345.3750326130646
 30
0.0
 11
-10.00000000000009
 21
-0.0000000000009198
 31
0.0
210
0.0
220
0.0
230
1.0
 40
0.5758617009853121
 41
0.0
 42
0.786539672922233
  0
ELLIPSE
  5
44A
330
23
100
AcDbEntity
  8
Arêtes visibles(Norme legrand)
100
AcDbEllipse
 10
448.8269941514528
 20
345.365700236788
 30
0.0
 11
-9.999995325965032
 21
-5.780950031656532
 31
0.0
210
0.0
220
0.0
230
1.0
 40
0.0016724829924331
 41
5.235020901774753
 42
5.495678780048326
  0
LINE
  5
44B
330
23
100
AcDbEntity
  8
Arêtes tangentes visibles(Norme legrand)
100
AcDbLine
 10
539.1778328587561
 20
320.6335541917486
 30
0.0
 11
539.1778328587561
 21
287.5856631090236
 31
0.0
  0
ELLIPSE
  5
44C
330
23
100
AcDbEntity
  8
Arêtes visibles(Norme legrand)
100
AcDbEllipse
 10
547.8380868965997
 20
288.3490039521703
 30
0.0
 11
7.077901197452833
 21
-12.24348567356306
 31
0.0
210
0.0
220
0.0
230
1.0
 40
0.5769784850933438
 41
4.449622738374098
 42
4.710280616648033
  0
ELLIPSE
  5
44D
330
23
100
AcDbEntity
  8
Arêtes visibles(Norme legrand)
100
AcDbEllipse
 10
547.8380868965996
 20
288.3583363284466
 30
0.0
 11
9.999999999999815
 21
0.0000000000005934
 31
0.0
210
0.0
220
0.0
230
1.0
 40
0.5758617009853122
 41
3.925849307461923
 42
4.712388980384741
  0
LINE
  5
44E
330
23
100
AcDbEntity
  8
Arêtes tangentes visibles(Norme legrand)
100
AcDbLine
 10
547.8380868966012
 20
282.5997193185936
 30
0.0
 11
547.8380868966012
 21
299.700775278751
 31
0.0
  0
ELLIPSE
  5
44F
330
23
100
AcDbEntity
  8
Arêtes visibles(Norme legrand)
100
AcDbEllipse
 10
547.8380868965997
 20
311.2403234477613
 30
0.0
 11
7.077901197452832
 21
-12.24348567356306
 31
0.0
210
0.0
220
0.0
230
1.0
 40
0.5769784850933438
 41
4.71028061664802
 42
5.496820289570696
  0
LINE
  5
450
330
23
100
AcDbEntity
  8
Arêtes tangentes visibles(Norme legrand)
100
AcDbLine
 10
522.4813833018974
 20
318.4833718260458
 30
0.0
 11
522.4813833018974
 21
324.2419888359004
 31
0.0
  0
ELLIPSE
  5
451
330
23
100
AcDbEntity
  8
Arêtes visibles(Norme legrand)
100
AcDbEllipse
 10
531.1416373397411
 20
321.3626803309731
 30
0.0
 11
-9.999999999999985
 21
0.0000000000000006
 31
0.0
210
0.0
220
0.0
230
1.0
 40
0.5758617009853121
 41
5.611089114106325
 42
6.806784082778031
  0
LINE
  5
452
330
23
100
AcDbEntity
  8
Arêtes visibles(Norme legrand)
100
AcDbLine
 10
408.179476537686
 20
304.7907177395043
 30
0.0
 11
397.2674758067896
 21
315.6745843234149
 31
0.0
  0
LINE
  5
453
330
23
100
AcDbEntity
  8
Arêtes visibles(Norme legrand)
100
AcDbLine
 10
448.9684151108454
 20
281.3019301913863
 30
0.0
 11
408.179476537686
 21
304.7907177395043
 31
0.0
  0
LINE
  5
454
330
23
100
AcDbEntity
  8
Arêtes visibles(Norme legrand)
100
AcDbLine
 10
485.869547300636
 20
252.6823240628283
 30
0.0
 11
467.9380378572735
 21
274.9950255820828
 31
0.0
  0
LINE
  5
455
330
23
100
AcDbEntity
  8
Arêtes visibles(Norme legrand)
100
AcDbLine
 10
467.9380378572735
 20
274.9950255820828
 30
0.0
 11
448.9684151108454
 21
281.3019301913863
 31
0.0
  0
LINE
  5
456
330
23
100
AcDbEntity
  8
Arêtes visibles(Norme legrand)
100
AcDbLine
 10
443.8269941514541
 20
342.4945592773702
 30
0.0
 11
459.4482300113208
 21
351.5452131533515
 31
0.0
  0
LINE
  5
457
330
23
100
AcDbEntity
  8
Arêtes visibles(Norme legrand)
100
AcDbLine
 10
459.4482300113208
 20
351.5452131533515
 30
0.0
 11
472.7460930899389
 21
347.1240206464939
 31
0.0
  0
LINE
  5
458
330
23
100
AcDbEntity
  8
Arêtes visibles(Norme legrand)
100
AcDbLine
 10
522.4813833018974
 20
318.4833718260458
 30
0.0
 11
530.158908129986
 21
310.8256417741241
 31
0.0
  0
LINE
  5
459
330
23
100
AcDbEntity
  8
Arêtes visibles(Norme legrand)
100
AcDbLine
 10
530.158908129986
 20
310.8256417741241
 30
0.0
 11
539.1778328587561
 21
287.5856631090235
 31
0.0
  0
ELLIPSE
  5
45A
330
23
100
AcDbEntity
  8
Arêtes visibles(Norme legrand)
100
AcDbEllipse
 10
501.4059442864691
 20
334.987482486062
 30
0.0
 11
28.00000000000002
 21
-0.0000000000016698
 31
0.0
210
0.0
220
0.0
230
1.0
 40
0.5758617009853121
 41
5.611089114106578
 42
8.526077827048215
  0
LINE
  5
45B
330
23
100
AcDbEntity
  8
Arêtes visibles(Norme legrand)
100
AcDbLine
 10
467.9380378572735
 20
274.9950255820828
 30
0.0
 11
487.0725293266976
 21
286.0138463871576
 31
0.0
  0
LINE
  5
45C
330
23
100
AcDbEntity
  8
Arêtes visibles(Norme legrand)
100
AcDbLine
 10
540.7589520021834
 20
284.2910300203418
 30
0.0
 11
485.869547300636
 21
252.6823240628283
 31
0.0
  0
LINE
  5
45D
330
23
100
AcDbEntity
  8
Arêtes visibles(Norme legrand)
100
AcDbLine
 10
510.7896117779568
 20
299.6716058299527
 30
0.0
 11
530.158908129986
 21
310.8256417741241
 31
0.0
  0
ELLIPSE
  5
45E
330
23
100
AcDbEntity
  8
Arêtes visibles(Norme legrand)
100
AcDbEllipse
 10
431.7559263395951
 20
331.5263189188212
 30
0.0
 11
-5.000000000000005
 21
0.0000000000000008
 31
0.0
210
0.0
220
0.0
230
1.0
 40
0.5758617009853121
 41
5.67408158356036
 42
11.60467801118381
  0
ELLIPSE
  5
45F
330
23
100
AcDbEntity
  8
Arêtes visibles(Norme legrand)
100
AcDbEllipse
 10
501.4059442864691
 20
334.987482486062
 30
0.0
 11
22.0
 21
-0.0000000000000044
 31
0.0
210
0.0
220
0.0
230
1.0
 40
0.5758617009853123
 41
0.0
 42
6.283185307179586
  0
ELLIPSE
  5
460
330
23
100
AcDbEntity
  8
Arêtes visibles(Norme legrand)
100
AcDbEllipse
 10
495.3955366463938
 20
294.8787046775166
 30
0.0
 11
5.0
 21
-0.0000000000000008
 31
0.0
210
0.0
220
0.0
230
1.0
 40
0.5758617009853122
 41
0.0000000000000003
 42
6.283185307179586
  0
LINE
  5
461
330
23
100
AcDbEntity
  8
Arêtes visibles(Norme legrand)
100
AcDbLine
 10
441.7640026360519
 20
341.2984299512602
 30
0.0
 11
386.8745979345047
 21
309.6897239937466
 31
0.0
  0
LINE
  5
462
330
23
100
AcDbEntity
  8
Arêtes visibles(Norme legrand)
100
AcDbLine
 10
364.6040522946401
 20
331.9028500256093
 30
0.0
 11
386.8745979345047
 21
309.6897239937466
 31
0.0
  0
LINE
  5
463
330
23
100
AcDbEntity
  8
Arêtes visibles(Norme legrand)
100
AcDbLine
 10
407.3100100805397
 20
366.7148490099395
 30
0.0
 11
375.9508398119513
 21
356.2887431165965
 31
0.0
  0
ELLIPSE
  5
464
330
23
100
AcDbEntity
  8
Arêtes visibles(Norme legrand)
100
AcDbEllipse
 10
391.4508398119553
 20
340.828706390884
 30
0.0
 11
-31.00000000000005
 21
0.0000000000000044
 31
0.0
210
0.0
220
0.0
230
1.0
 40
0.5758617009853121
 41
5.235987755983137
 42
6.806784082778032
  0
LINE
  5
465
330
23
100
AcDbEntity
  8
Arêtes visibles(Norme legrand)
100
AcDbLine
 10
407.3100100805397
 20
383.0657915067903
 30
0.0
 11
407.3100100805397
 21
366.7148490099395
 31
0.0
  0
LINE
  5
466
330
23
100
AcDbEntity
  8
Arêtes tangentes visibles(Norme legrand)
100
AcDbLine
 10
375.9508398119513
 20
372.6396856134472
 30
0.0
 11
375.9508398119513
 21
356.2887431165965
 31
0.0
  0
LINE
  5
467
330
23
100
AcDbEntity
  8
Arêtes visibles(Norme legrand)
100
AcDbLine
 10
360.4508398119553
 20
357.1796488877348
 30
0.0
 11
360.4508398119553
 21
340.828706390884
 31
0.0
  0
LINE
  5
468
330
23
100
AcDbEntity
  8
Arêtes visibles(Norme legrand)
100
AcDbLine
 10
485.869547300636
 20
252.6823240628283
 30
0.0
 11
524.4432638611563
 21
239.8575697687915
 31
0.0
  0
LINE
  5
469
330
23
100
AcDbEntity
  8
Arêtes visibles(Norme legrand)
100
AcDbLine
 10
584.895276774602
 20
264.4502952615969
 30
0.0
 11
584.895276774602
 21
280.8012377584477
 31
0.0
  0
ELLIPSE
  5
46A
330
23
100
AcDbEntity
  8
Arêtes visibles(Norme legrand)
100
AcDbEllipse
 10
539.9432638611523
 20
255.3176064945065
 30
0.0
 11
31.00000000000001
 21
0.0000000000018396
 31
0.0
210
0.0
220
0.0
230
1.0
 40
0.5758617009853119
 41
4.188790204786436
 42
5.759586531581193
  0
LINE
  5
46B
330
23
100
AcDbEntity
  8
Arêtes visibles(Norme legrand)
100
AcDbLine
 10
566.7900513784722
 20
246.3917501292365
 30
0.0
 11
584.895276774602
 21
264.4502952615969
 31
0.0
  0
ELLIPSE
  5
46C
330
23
100
AcDbEntity
  8
Arêtes visibles(Norme legrand)
100
AcDbEllipse
 10
547.8380868966019
 20
323.5128626966769
 30
0.0
 11
10.00000000000273
 21
0.0000000000005937
 31
0.0
210
0.0
220
0.0
230
1.0
 40
0.5758617009853121
 41
3.665191429187892
 42
3.92584930746182
  0
ELLIPSE
  5
46D
330
23
100
AcDbEntity
  8
Arêtes visibles(Norme legrand)
100
AcDbEllipse
 10
501.4059442864691
 20
356.243707731968
 30
0.0
 11
-25.00000000000007
 21
-0.0000000000014833
 31
0.0
210
0.0
220
0.0
230
1.0
 40
0.5758617009853121
 41
3.923138270879167
 42
5.384485173458026
  0
LINE
  5
46E
330
23
100
AcDbEntity
  8
Arêtes tangentes visibles(Norme legrand)
100
AcDbLine
 10
485.8402527098037
 20
367.5092648251458
 30
0.0
 11
483.9723697206038
 21
366.4084903017996
 31
0.0
  0
ELLIPSE
  5
46F
330
23
100
AcDbEntity
  8
Arêtes visibles(Norme legrand)
100
AcDbEllipse
 10
501.4059442864692
 20
353.7910663574404
 30
0.0
 11
28.00000000000002
 21
-0.0000000000016709
 31
0.0
210
0.0
220
0.0
230
1.0
 40
0.5758617009853122
 41
0.0
 42
2.242892519868629
  0
LINE
  5
470
330
23
100
AcDbEntity
  8
Arêtes tangentes visibles(Norme legrand)
100
AcDbLine
 10
471.2460930899393
 20
366.8841133060404
 30
0.0
 11
472.7460930899389
 21
365.9276045178723
 31
0.0
  0
ELLIPSE
  5
471
330
23
100
AcDbEntity
  8
Arêtes visibles(Norme legrand)
100
AcDbEllipse
 10
477.7460930899376
 20
370.9147131390707
 30
0.0
 11
10.00000000000003
 21
0.0000000000005951
 31
0.0
210
0.0
220
0.0
230
1.0
 40
0.5758617009853121
 41
4.188790204786435
 42
5.384485173458097
  0
ELLIPSE
  5
472
330
23
100
AcDbEntity
  8
Arêtes visibles(Norme legrand)
100
AcDbEllipse
 10
477.7460930899376
 20
373.3673545135983
 30
0.0
 11
-13.0
 21
0.0000000000007766
 31
0.0
210
0.0
220
0.0
230
1.0
 40
0.5758617009853121
 41
1.047197551196892
 42
2.242892519868631
  0
LINE
  5
473
330
23
100
AcDbEntity
  8
Arêtes visibles(Norme legrand)
100
AcDbLine
 10
528.6111478686283
 20
331.1729953540949
 30
0.0
 11
539.1778328587561
 21
320.6335541917486
 31
0.0
  0
LINE
  5
474
330
23
100
AcDbEntity
  8
Arêtes tangentes visibles(Norme legrand)
100
AcDbLine
 10
442.3269941514545
 20
376.4989591482635
 30
0.0
 11
443.8269941514541
 21
375.5424503600953
 31
0.0
  0
LINE
  5
475
330
23
100
AcDbEntity
  8
Arêtes visibles(Norme legrand)
100
AcDbLine
 10
443.8269941514541
 20
375.5424503600953
 30
0.0
 11
472.7460930899389
 21
365.9276045178723
 31
0.0
  0
LINE
  5
476
330
23
100
AcDbEntity
  8
Arêtes visibles(Norme legrand)
100
AcDbLine
 10
471.2460930899393
 20
366.8841133060404
 30
0.0
 11
442.3269941514545
 21
376.4989591482635
 31
0.0
  0
ELLIPSE
  5
477
330
23
100
AcDbEntity
  8
Arêtes visibles(Norme legrand)
100
AcDbEllipse
 10
448.8269941514521
 20
380.5295589812932
 30
0.0
 11
9.999999999998802
 21
0.0000000000005979
 31
0.0
210
0.0
220
0.0
230
1.0
 40
0.5758617009853121
 41
3.928132326512347
 42
4.18879020478638
  0
ELLIPSE
  5
478
330
23
100
AcDbEntity
  8
Arêtes visibles(Norme legrand)
100
AcDbEllipse
 10
448.8269941514966
 20
382.9822003558635
 30
0.0
 11
-13.00000000008523
 21
0.0
 31
0.0
210
0.0
220
0.0
230
1.0
 40
0.5758617009853122
 41
1.019168880696833
 42
1.047197551196644
  0
LINE
  5
479
330
23
100
AcDbEntity
  8
Arêtes visibles(Norme legrand)
100
AcDbLine
 10
519.1515864977982
 20
366.3843066217742
 30
0.0
 11
521.2810635631576
 21
365.1485371140233
 31
0.0
  0
ELLIPSE
  5
47A
330
23
100
AcDbEntity
  8
Arêtes visibles(Norme legrand)
100
AcDbEllipse
 10
448.0193823068927
 20
325.500431340642
 30
0.0
 11
-15.09999999999969
 21
0.0000000000000025
 31
0.0
210
0.0
220
0.0
230
1.0
 40
0.5758617009853121
 41
1.420030398011576
 42
1.721562255578227
  0
ELLIPSE
  5
47B
330
23
100
AcDbEntity
  8
Arêtes visibles(Norme legrand)
100
AcDbEllipse
 10
448.0193823068927
 20
324.6828842157996
 30
0.0
 11
14.0999999999999
 21
-0.0000000000000014
 31
0.0
210
0.0
220
0.0
230
1.0
 40
0.5758617009853122
 41
4.463754307028377
 42
4.961023653741001
  0
ELLIPSE
  5
47C
330
23
100
AcDbEntity
  8
Arêtes visibles(Norme legrand)
100
AcDbEllipse
 10
501.4059442864691
 20
356.243707731968
 30
0.0
 11
-22.0
 21
0.000000000001309
 31
0.0
210
0.0
220
0.0
230
1.0
 40
0.5758617009853121
 41
0.995277083614475
 42
2.146315569975579
  0
LINE
  5
47D
330
23
100
AcDbEntity
  8
Arêtes visibles(Norme legrand)
100
AcDbLine
 10
438.8269941514519
 20
364.9163674497933
 30
0.0
 11
438.8269941514519
 21
348.5654249529424
 31
0.0
  0
LINE
  5
47E
330
23
100
AcDbEntity
  8
Arêtes visibles(Norme legrand)
100
AcDbLine
 10
438.8269941514528
 20
345.3750326130637
 30
0.0
 11
438.8269941514519
 21
348.5654249529424
 31
0.0
  0
LINE
  5
47F
330
23
100
AcDbEntity
  8
Arêtes visibles(Norme legrand)
100
AcDbLine
 10
438.8269941514519
 20
348.5654249529424
 30
0.0
 11
422.9170915747523
 21
357.7273285132685
 31
0.0
  0
LINE
  5
480
330
23
100
AcDbEntity
  8
Arêtes visibles(Norme legrand)
100
AcDbLine
 10
420.7957712311923
 20
358.9489156546453
 30
0.0
 11
407.3100100805397
 21
366.7148490099395
 31
0.0
  0
LINE
  5
481
330
23
100
AcDbEntity
  8
Arêtes visibles(Norme legrand)
100
AcDbLine
 10
529.4059442864692
 20
353.7910663574404
 30
0.0
 11
529.4059442864692
 21
334.987482486062
 31
0.0
  0
ELLIPSE
  5
482
330
23
100
AcDbEntity
  8
Arêtes visibles(Norme legrand)
100
AcDbEllipse
 10
448.0193823068927
 20
316.098639404953
 30
0.0
 11
-15.59999999999999
 21
0.0000000000000014
 31
0.0
210
0.0
220
0.0
230
1.0
 40
0.5758617009853121
 41
0.2819776263839766
 42
2.859615027205821
  0
ELLIPSE
  5
483
330
23
100
AcDbEntity
  8
Arêtes visibles(Norme legrand)
100
AcDbEllipse
 10
448.0193823068927
 20
317.3249600922168
 30
0.0
 11
14.1
 21
-0.0000000000000017
 31
0.0
210
0.0
220
0.0
230
1.0
 40
0.5758617009853121
 41
3.502795260872735
 42
5.92198269989664
  0
ELLIPSE
  5
484
330
23
100
AcDbEntity
  8
Arêtes visibles(Norme legrand)
100
AcDbEllipse
 10
448.0193823068927
 20
314.8723187176892
 30
0.0
 11
15.6
 21
0.0
 31
0.0
210
0.0
220
0.0
230
1.0
 40
0.5758617009853121
 41
3.308341966541307
 42
6.116435994228067
  0
ELLIPSE
  5
485
330
23
100
AcDbEntity
  8
Arêtes visibles(Norme legrand)
100
AcDbEllipse
 10
448.0193823068927
 20
314.8723187176892
 30
0.0
 11
22.1
 21
0.0000000000013101
 31
0.0
210
0.0
220
0.0
230
1.0
 40
0.5758617009853119
 41
3.572347614761705
 42
5.852430346006824
  0
ELLIPSE
  5
486
330
23
100
AcDbEntity
  8
Arêtes visibles(Norme legrand)
100
AcDbEllipse
 10
448.0193823068927
 20
304.2442060947362
 30
0.0
 11
22.10000000000001
 21
-0.0000000000013212
 31
0.0
210
0.0
220
0.0
230
1.0
 40
0.5758617009853122
 41
0.0000000000002091
 42
6.283185307179586
  0
ELLIPSE
  5
487
330
23
100
AcDbEntity
  8
Arêtes visibles(Norme legrand)
100
AcDbEllipse
 10
495.3955366463938
 20
298.9664403017293
 30
0.0
 11
-12.38632709554246
 21
21.42609992873537
 31
0.0
210
0.0
220
0.0
230
1.0
 40
0.5769784850933437
 41
1.859581174019506
 42
4.421670424737192
  0
ELLIPSE
  5
488
330
23
100
AcDbEntity
  8
Arêtes visibles(Norme legrand)
100
AcDbEllipse
 10
495.3955366463938
 20
294.8787046775166
 30
0.0
 11
17.5
 21
0.0000000000010431
 31
0.0
210
0.0
220
0.0
230
1.0
 40
0.5758617009853121
 41
4.216742518423349
 42
6.089085579623128
  0
ELLIPSE
  5
489
330
23
100
AcDbEntity
  8
Arêtes visibles(Norme legrand)
100
AcDbEllipse
 10
406.300082216868
 20
367.3279847599657
 30
0.0
 11
-3.493225481089194
 21
-6.066084053016975
 31
0.0
210
0.0
220
0.0
230
1.0
 40
0.578093115915639
 41
4.480974891247315
 42
4.709500888791152
  0
ELLIPSE
  5
48A
330
23
100
AcDbEntity
  8
Arêtes visibles(Norme legrand)
100
AcDbEllipse
 10
398.34425535886
 20
371.9094407471615
 30
0.0
 11
-5.284706110598488
 21
-4.843951829183446
 31
0.0
210
0.0
220
0.0
230
1.0
 40
0.6988762971203668
 41
0.0000000000000988
 42
6.283185307179586
  0
LINE
  5
48B
330
23
100
AcDbEntity
  8
Arêtes visibles(Norme legrand)
100
AcDbLine
 10
422.9170915747523
 20
357.7273285132685
 30
0.0
 11
410.157321018754
 21
350.3794653367068
 31
0.0
  0
LINE
  5
48C
330
23
100
AcDbEntity
  8
Arêtes visibles(Norme legrand)
100
AcDbLine
 10
408.036000675194
 20
351.6010524780837
 30
0.0
 11
420.7957712311923
 21
358.9489156546453
 31
0.0
  0
LINE
  5
48D
330
23
100
AcDbEntity
  8
Arêtes visibles(Norme legrand)
100
AcDbLine
 10
558.649745067951
 20
264.8683654403294
 30
0.0
 11
558.649745067951
 21
267.3115397230837
 31
0.0
  0
LINE
  5
48E
330
23
100
AcDbEntity
  8
Arêtes visibles(Norme legrand)
100
AcDbLine
 10
569.2881952803894
 20
273.4378157582679
 30
0.0
 11
569.2881952803894
 21
289.7887582551187
 31
0.0
  0
LINE
  5
48F
330
23
100
AcDbEntity
  8
Arêtes visibles(Norme legrand)
100
AcDbLine
 10
556.5284247243909
 20
266.0899525817062
 30
0.0
 11
569.2881952803894
 21
273.4378157582679
 31
0.0
  0
LINE
  5
490
330
23
100
AcDbEntity
  8
Arêtes visibles(Norme legrand)
100
AcDbLine
 10
422.9170915747523
 20
374.0782710101194
 30
0.0
 11
422.9170915747523
 21
357.7273285132685
 31
0.0
  0
LINE
  5
491
330
23
100
AcDbEntity
  8
Arêtes visibles(Norme legrand)
100
AcDbLine
 10
410.157321018754
 20
350.3794653367068
 30
0.0
 11
410.157321018754
 21
352.8226396194611
 31
0.0
  0
LINE
  5
492
330
23
100
AcDbEntity
  8
Arêtes visibles(Norme legrand)
100
AcDbLine
 10
420.7957712311923
 20
358.9489156546453
 30
0.0
 11
420.7957712311923
 21
375.2998581514962
 31
0.0
  0
LINE
  5
493
330
23
100
AcDbEntity
  8
Arêtes visibles(Norme legrand)
100
AcDbLine
 10
571.4095156239493
 20
272.2162286168911
 30
0.0
 11
558.649745067951
 21
264.8683654403294
 31
0.0
  0
LINE
  5
494
330
23
100
AcDbEntity
  8
Arêtes visibles(Norme legrand)
100
AcDbLine
 10
571.4095156239493
 20
288.5671711137419
 30
0.0
 11
571.4095156239493
 21
272.2162286168911
 31
0.0
  0
ELLIPSE
  5
495
330
23
100
AcDbEntity
  8
Arêtes visibles(Norme legrand)
100
AcDbEllipse
 10
391.4508398119553
 20
340.828706390884
 30
0.0
 11
25.0
 21
0.0000000000000011
 31
0.0
210
0.0
220
0.0
230
1.0
 40
0.5758617009853121
 41
0.845434221842872
 42
7.008547412131903
  0
ELLIPSE
  5
496
330
23
100
AcDbEntity
  8
Arêtes visibles(Norme legrand)
100
AcDbEllipse
 10
539.9432638611523
 20
255.3176064945065
 30
0.0
 11
25.00000000000001
 21
-0.0000000000000022
 31
0.0
210
0.0
220
0.0
230
1.0
 40
0.5758617009853121
 41
0.8454342218428736
 42
7.008547412131904
  0
LINE
  5
497
330
23
100
AcDbEntity
  8
Arêtes visibles(Norme legrand)
100
AcDbLine
 10
553.3782927036896
 20
298.9506618154448
 30
0.0
 11
553.3782927036896
 21
282.5997193185941
 31
0.0
  0
LINE
  5
498
330
23
100
AcDbEntity
  8
Arêtes visibles(Norme legrand)
100
AcDbLine
 10
569.2881952803894
 20
273.4378157582679
 30
0.0
 11
553.3782927036896
 21
282.5997193185941
 31
0.0
  0
LINE
  5
499
330
23
100
AcDbEntity
  8
Arêtes visibles(Norme legrand)
100
AcDbLine
 10
553.3782927036896
 20
282.5997193185941
 30
0.0
 11
547.8380868966012
 21
282.5997193185936
 31
0.0
  0
LINE
  5
49A
330
23
100
AcDbEntity
  8
Arêtes visibles(Norme legrand)
100
AcDbLine
 10
584.895276774602
 20
264.4502952615969
 30
0.0
 11
571.4095156239493
 21
272.2162286168911
 31
0.0
  0
POLYLINE
  5
49B
330
23
100
AcDbEntity
  8
Arêtes visibles(Norme legrand)
100
AcDb2dPolyline
 66
     1
 10
0.0
 20
0.0
 30
0.0
 70
   128
  0
VERTEX
  5
49C
330
49B
100
AcDbEntity
  8
Arêtes visibles(Norme legrand)
100
AcDbVertex
100
AcDb2dVertex
 10
445.6655059539706
 20
89.18689874933077
 30
0.0
  0
VERTEX
  5
49D
330
49B
100
AcDbEntity
  8
Arêtes visibles(Norme legrand)
100
AcDbVertex
100
AcDb2dVertex
 10
445.66603194664
 20
89.36774578318862
 30
0.0
  0
VERTEX
  5
49F
330
49B
100
AcDbEntity
  8
Arêtes visibles(Norme legrand)
100
AcDbVertex
100
AcDb2dVertex
 10
445.6674076197754
 20
89.55008009781503
 30
0.0
  0
VERTEX
  5
4A0
330
49B
100
AcDbEntity
  8
Arêtes visibles(Norme legrand)
100
AcDbVertex
100
AcDb2dVertex
 10
445.669653203864
 20
89.7339172114462
 30
0.0
  0
VERTEX
  5
4A1
330
49B
100
AcDbEntity
  8
Arêtes visibles(Norme legrand)
100
AcDbVertex
100
AcDb2dVertex
 10
445.6727552119145
 20
89.91923772252503
 30
0.0
  0
VERTEX
  5
4A2
330
49B
100
AcDbEntity
  8
Arêtes visibles(Norme legrand)
100
AcDbVertex
100
AcDb2dVertex
 10
445.6767203874224
 20
90.10604938264581
 30
0.0
  0
VERTEX
  5
4A3
330
49B
100
AcDbEntity
  8
Arêtes visibles(Norme legrand)
100
AcDbVertex
100
AcDb2dVertex
 10
445.6815419868921
 20
90.29435607512949
 30
0.0
  0
VERTEX
  5
4A4
330
49B
100
AcDbEntity
  8
Arêtes visibles(Norme legrand)
100
AcDbVertex
100
AcDb2dVertex
 10
445.6872200103235
 20
90.48414226669235
 30
0.0
  0
VERTEX
  5
4A5
330
49B
100
AcDbEntity
  8
Arêtes visibles(Norme legrand)
100
AcDbVertex
100
AcDb2dVertex
 10
445.6937746882039
 20
90.67543127230749
 30
0.0
  0
VERTEX
  5
4A6
330
49B
100
AcDbEntity
  8
Arêtes visibles(Norme legrand)
100
AcDbVertex
100
AcDb2dVertex
 10
445.7011723030546
 20
90.86820754364365
 30
0.0
  0
VERTEX
  5
4A7
330
49B
100
AcDbEntity
  8
Arêtes visibles(Norme legrand)
100
AcDbVertex
100
AcDb2dVertex
 10
445.7094398288585
 20
91.06247108070085
 30
0.0
  0
VERTEX
  5
4A8
330
49B
100
AcDbEntity
  8
Arêtes visibles(Norme legrand)
100
AcDbVertex
100
AcDb2dVertex
 10
445.7185705221199
 20
91.25822966516851
 30
0.0
  0
VERTEX
  5
4A9
330
49B
100
AcDbEntity
  8
Arêtes visibles(Norme legrand)
100
AcDbVertex
100
AcDb2dVertex
 10
445.7285441523516
 20
91.45547161698871
 30
0.0
  0
VERTEX
  5
4AA
330
49B
100
AcDbEntity
  8
Arêtes visibles(Norme legrand)
100
AcDbVertex
100
AcDb2dVertex
 10
445.739401180528
 20
91.65421249954029
 30
0.0
  0
VERTEX
  5
4AB
330
49B
100
AcDbEntity
  8
Arêtes visibles(Norme legrand)
100
AcDbVertex
100
AcDb2dVertex
 10
445.7511078891704
 20
91.85444066286043
 30
0.0
  0
VERTEX
  5
4AC
330
49B
100
AcDbEntity
  8
Arêtes visibles(Norme legrand)
100
AcDbVertex
100
AcDb2dVertex
 10
445.7636710217745
 20
92.05615996017501
 30
0.0
  0
VERTEX
  5
4AD
330
49B
100
AcDbEntity
  8
Arêtes visibles(Norme legrand)
100
AcDbVertex
100
AcDb2dVertex
 10
445.7771040653319
 20
92.25937042157907
 30
0.0
  0
VERTEX
  5
4AE
330
49B
100
AcDbEntity
  8
Arêtes visibles(Norme legrand)
100
AcDbVertex
100
AcDb2dVertex
 10
445.791400276347
 20
92.46407203202512
 30
0.0
  0
VERTEX
  5
4AF
330
49B
100
AcDbEntity
  8
Arêtes visibles(Norme legrand)
100
AcDbVertex
100
AcDb2dVertex
 10
445.8065596548193
 20
92.67026868988159
 30
0.0
  0
VERTEX
  5
4B0
330
49B
100
AcDbEntity
  8
Arêtes visibles(Norme legrand)
100
AcDbVertex
100
AcDb2dVertex
 10
445.8225619702619
 20
92.87794871509063
 30
0.0
  0
VERTEX
  5
4B1
330
49B
100
AcDbEntity
  8
Arêtes visibles(Norme legrand)
100
AcDbVertex
100
AcDb2dVertex
 10
445.8394341966579
 20
93.0871199043892
 30
0.0
  0
VERTEX
  5
4B2
330
49B
100
AcDbEntity
  8
Arêtes visibles(Norme legrand)
100
AcDbVertex
100
AcDb2dVertex
 10
445.8571695905113
 20
93.29778614109816
 30
0.0
  0
VERTEX
  5
4B3
330
49B
100
AcDbEntity
  8
Arêtes visibles(Norme legrand)
100
AcDbVertex
100
AcDb2dVertex
 10
445.8757614083265
 20
93.50994351180155
 30
0.0
  0
VERTEX
  5
4B4
330
49B
100
AcDbEntity
  8
Arêtes visibles(Norme legrand)
100
AcDbVertex
100
AcDb2dVertex
 10
445.8952231370949
 20
93.72359204659446
 30
0.0
  0
VERTEX
  5
4B5
330
49B
100
AcDbEntity
  8
Arêtes visibles(Norme legrand)
100
AcDbVertex
100
AcDb2dVertex
 10
445.9155480333207
 20
93.93873173042933
 30
0.0
  0
SEQEND
  5
49E
330
49B
100
AcDbEntity
  8
Arêtes visibles(Norme legrand)
  0
LINE
  5
4B6
330
23
100
AcDbEntity
  8
Arêtes visibles(Norme legrand)
100
AcDbLine
 10
445.9155401440997
 20
93.93873083988982
 30
0.0
 11
394.5251722803371
 21
123.5324754921858
 31
0.0
  0
LINE
  5
4B7
330
23
100
AcDbEntity
  8
Arêtes visibles(Norme legrand)
100
AcDbLine
 10
394.5251722803371
 20
123.5324754921858
 30
0.0
 11
390.7761055870153
 21
120.7956037580282
 31
0.0
  0
LINE
  5
4B8
330
23
100
AcDbEntity
  8
Arêtes visibles(Norme legrand)
100
AcDbLine
 10
390.7761055870153
 20
120.7956037580282
 30
0.0
 11
445.6655102885625
 21
89.1868978005146
 31
0.0
  0
LINE
  5
4B9
330
23
100
AcDbEntity
  8
Arêtes visibles(Norme legrand)
100
AcDbLine
 10
394.5251722803371
 20
123.5324754921858
 30
0.0
 11
414.4815816551686
 21
143.4374317404546
 31
0.0
  0
LINE
  5
4BA
330
23
100
AcDbEntity
  8
Arêtes visibles(Norme legrand)
100
AcDbLine
 10
414.4815816551686
 20
143.4374317404546
 30
0.0
 11
412.0809841901966
 21
142.0455525091213
 31
0.0
  0
LINE
  5
4BB
330
23
100
AcDbEntity
  8
Arêtes visibles(Norme legrand)
100
AcDbLine
 10
412.0809841901966
 20
142.0455525091213
 30
0.0
 11
390.7761055870153
 21
120.7956037580282
 31
0.0
  0
LINE
  5
4BC
330
23
100
AcDbEntity
  8
Arêtes visibles(Norme legrand)
100
AcDbLine
 10
414.4815816551686
 20
143.4374317404546
 30
0.0
 11
454.7119659855027
 21
166.6045692922068
 31
0.0
  0
LINE
  5
4BD
330
23
100
AcDbEntity
  8
Arêtes visibles(Norme legrand)
100
AcDbLine
 10
454.7119659855027
 20
166.6045692922068
 30
0.0
 11
489.2774809593484
 21
178.0967011403505
 31
0.0
  0
POLYLINE
  5
4BE
330
23
100
AcDbEntity
  8
Arêtes visibles(Norme legrand)
100
AcDb2dPolyline
 66
     1
 10
0.0
 20
0.0
 30
0.0
 70
   128
  0
VERTEX
  5
4BF
330
4BE
100
AcDbEntity
  8
Arêtes visibles(Norme legrand)
100
AcDbVertex
100
AcDb2dVertex
 10
540.667850643186
 20
148.5029538836052
 30
0.0
  0
VERTEX
  5
4C0
330
4BE
100
AcDbEntity
  8
Arêtes visibles(Norme legrand)
100
AcDbVertex
100
AcDb2dVertex
 10
540.8441053919107
 20
148.4010168884906
 30
0.0
  0
VERTEX
  5
4C2
330
4BE
100
AcDbEntity
  8
Arêtes visibles(Norme legrand)
100
AcDbVertex
100
AcDb2dVertex
 10
541.0195003449258
 20
148.2995788539178
 30
0.0
  0
VERTEX
  5
4C3
330
4BE
100
AcDbEntity
  8
Arêtes visibles(Norme legrand)
100
AcDbVertex
100
AcDb2dVertex
 10
541.194042245727
 20
148.1986397949344
 30
0.0
  0
VERTEX
  5
4C4
330
4BE
100
AcDbEntity
  8
Arêtes visibles(Norme legrand)
100
AcDbVertex
100
AcDb2dVertex
 10
541.3677142355749
 20
148.0981977397848
 30
0.0
  0
VERTEX
  5
4C5
330
4BE
100
AcDbEntity
  8
Arêtes visibles(Norme legrand)
100
AcDbVertex
100
AcDb2dVertex
 10
541.5405264297133
 20
147.9982585435455
 30
0.0
  0
VERTEX
  5
4C6
330
4BE
100
AcDbEntity
  8
Arêtes visibles(Norme legrand)
100
AcDbVertex
100
AcDb2dVertex
 10
541.7124855716377
 20
147.8988183228955
 30
0.0
  0
VERTEX
  5
4C7
330
4BE
100
AcDbEntity
  8
Arêtes visibles(Norme legrand)
100
AcDbVertex
100
AcDb2dVertex
 10
541.8835748026089
 20
147.7998751060793
 30
0.0
  0
VERTEX
  5
4C8
330
4BE
100
AcDbEntity
  8
Arêtes visibles(Norme legrand)
100
AcDbVertex
100
AcDb2dVertex
 10
542.0538042378705
 20
147.7014347481734
 30
0.0
  0
VERTEX
  5
4C9
330
4BE
100
AcDbEntity
  8
Arêtes visibles(Norme legrand)
100
AcDbVertex
100
AcDb2dVertex
 10
542.2231738774224
 20
147.6034933508094
 30
0.0
  0
VERTEX
  5
4CA
330
4BE
100
AcDbEntity
  8
Arêtes visibles(Norme legrand)
100
AcDbVertex
100
AcDb2dVertex
 10
542.3916904647605
 20
147.5060509290347
 30
0.0
  0
VERTEX
  5
4CB
330
4BE
100
AcDbEntity
  8
Arêtes visibles(Norme legrand)
100
AcDbVertex
100
AcDb2dVertex
 10
542.5593371411452
 20
147.4091055110937
 30
0.0
  0
VERTEX
  5
4CC
330
4BE
100
AcDbEntity
  8
Arêtes visibles(Norme legrand)
100
AcDbVertex
100
AcDb2dVertex
 10
542.7261240218204
 20
147.3126629520631
 30
0.0
  0
VERTEX
  5
4CD
330
4BE
100
AcDbEntity
  8
Arêtes visibles(Norme legrand)
100
AcDbVertex
100
AcDb2dVertex
 10
542.8920578502818
 20
147.2167193686218
 30
0.0
  0
VERTEX
  5
4CE
330
4BE
100
AcDbEntity
  8
Arêtes visibles(Norme legrand)
100
AcDbVertex
100
AcDb2dVertex
 10
543.0571217677899
 20
147.1212727890143
 30
0.0
  0
VERTEX
  5
4CF
330
4BE
100
AcDbEntity
  8
Arêtes visibles(Norme legrand)
100
AcDbVertex
100
AcDb2dVertex
 10
543.2213292613361
 20
147.0263310099776
 30
0.0
  0
VERTEX
  5
4D0
330
4BE
100
AcDbEntity
  8
Arêtes visibles(Norme legrand)
100
AcDbVertex
100
AcDb2dVertex
 10
543.3846769591728
 20
146.9318804248408
 30
0.0
  0
VERTEX
  5
4D1
330
4BE
100
AcDbEntity
  8
Arêtes visibles(Norme legrand)
100
AcDbVertex
100
AcDb2dVertex
 10
543.547161489552
 20
146.8379346252272
 30
0.0
  0
VERTEX
  5
4D2
330
4BE
100
AcDbEntity
  8
Arêtes visibles(Norme legrand)
100
AcDbVertex
100
AcDb2dVertex
 10
543.7087828524737
 20
146.7444897428635
 30
0.0
  0
VERTEX
  5
4D3
330
4BE
100
AcDbEntity
  8
Arêtes visibles(Norme legrand)
100
AcDbVertex
100
AcDb2dVertex
 10
543.8695545349295
 20
146.651541879381
 30
0.0
  0
VERTEX
  5
4D4
330
4BE
100
AcDbEntity
  8
Arêtes visibles(Norme legrand)
100
AcDbVertex
100
AcDb2dVertex
 10
544.029452934684
 20
146.5590929764404
 30
0.0
  0
VERTEX
  5
4D5
330
4BE
100
AcDbEntity
  8
Arêtes visibles(Norme legrand)
100
AcDbVertex
100
AcDb2dVertex
 10
544.1884949104769
 20
146.4671449757021
 30
0.0
  0
VERTEX
  5
4D6
330
4BE
100
AcDbEntity
  8
Arêtes visibles(Norme legrand)
100
AcDbVertex
100
AcDb2dVertex
 10
544.346680462308
 20
146.3756940088927
 30
0.0
  0
VERTEX
  5
4D7
330
4BE
100
AcDbEntity
  8
Arêtes visibles(Norme legrand)
100
AcDbVertex
100
AcDb2dVertex
 10
544.5039994749335
 20
146.284745885946
 30
0.0
  0
VERTEX
  5
4D8
330
4BE
100
AcDbEntity
  8
Arêtes visibles(Norme legrand)
100
AcDbVertex
100
AcDb2dVertex
 10
544.6604586918498
 20
146.1943006219096
 30
0.0
  0
SEQEND
  5
4C1
330
4BE
100
AcDbEntity
  8
Arêtes visibles(Norme legrand)
  0
LINE
  5
4D9
330
23
100
AcDbEntity
  8
Arêtes visibles(Norme legrand)
100
AcDbLine
 10
489.2774809593484
 20
178.0967011403505
 30
0.0
 11
540.6678488231111
 21
148.5029564880544
 31
0.0
  0
LINE
  5
4DA
330
23
100
AcDbEntity
  8
Arêtes visibles(Norme legrand)
100
AcDbLine
 10
390.7761055870153
 20
108.5323968853901
 30
0.0
 11
390.7761055870153
 21
120.7956037580282
 31
0.0
  0
LINE
  5
4DB
330
23
100
AcDbEntity
  8
Arêtes visibles(Norme legrand)
100
AcDbLine
 10
368.5055599471507
 20
79.77889385478707
 30
0.0
 11
386.6350008653739
 21
97.8615920749349
 31
0.0
  0
LINE
  5
4DC
330
23
100
AcDbEntity
  8
Arêtes visibles(Norme legrand)
100
AcDbLine
 10
510.4826188017907
 20
165.8854743927701
 30
0.0
 11
528.3447715136669
 21
171.824174111605
 31
0.0
  0
LINE
  5
4DD
330
23
100
AcDbEntity
  8
Arêtes visibles(Norme legrand)
100
AcDbLine
 10
442.7285018039633
 20
65.55949321020799
 30
0.0
 11
442.7285018039627
 21
63.11631892745402
 31
0.0
  0
LINE
  5
4DE
330
23
100
AcDbEntity
  8
Arêtes visibles(Norme legrand)
100
AcDbLine
 10
557.2798003562004
 20
129.0820245618023
 30
0.0
 11
553.037159669081
 21
129.0820245618027
 31
0.0
  0
LINE
  5
4DF
330
23
100
AcDbEntity
  8
Arêtes visibles(Norme legrand)
100
AcDbLine
 10
573.1897029329001
 20
138.2439281221285
 30
0.0
 11
557.2798003562004
 21
129.0820245618023
 31
0.0
  0
LINE
  5
4E0
330
23
100
AcDbEntity
  8
Arêtes visibles(Norme legrand)
100
AcDbLine
 10
560.4299323769017
 20
145.5917912986902
 30
0.0
 11
573.1897029329001
 21
138.2439281221285
 31
0.0
  0
ELLIPSE
  5
4E1
330
23
100
AcDbEntity
  8
Arêtes visibles(Norme legrand)
100
AcDbEllipse
 10
543.8447715136629
 20
156.3641373858899
 30
0.0
 11
25.0
 21
0.0000000000000011
 31
0.0
210
0.0
220
0.0
230
1.0
 40
0.5758617009853121
 41
5.557823202227267
 42
9.135446548909673
  0
ELLIPSE
  5
4E2
330
23
100
AcDbEntity
  8
Arêtes visibles(Norme legrand)
100
AcDbEllipse
 10
543.844771513663
 20
156.3641373858899
 30
0.0
 11
24.99999999999996
 21
-0.0000000000000012
 31
0.0
210
0.0
220
0.0
230
1.0
 40
0.5758617009853121
 41
4.745022297769149
 42
5.43775108533671
  0
LINE
  5
4E3
330
23
100
AcDbEntity
  8
Arêtes visibles(Norme legrand)
100
AcDbLine
 10
575.3110232764599
 20
139.4655152635053
 30
0.0
 11
562.5512527204616
 21
146.813378440067
 31
0.0
  0
LINE
  5
4E4
330
23
100
AcDbEntity
  8
Arêtes visibles(Norme legrand)
100
AcDbLine
 10
588.7967844271127
 20
147.2314486187995
 30
0.0
 11
575.3110232764599
 21
139.4655152635053
 31
0.0
  0
LINE
  5
4E5
330
23
100
AcDbEntity
  8
Arêtes visibles(Norme legrand)
100
AcDbLine
 10
570.6915590309829
 20
165.2899937511599
 30
0.0
 11
588.7967844271127
 21
147.2314486187995
 31
0.0
  0
ELLIPSE
  5
4E6
330
23
100
AcDbEntity
  8
Arêtes visibles(Norme legrand)
100
AcDbEllipse
 10
543.8447715136629
 20
156.3641373858899
 30
0.0
 11
31.0
 21
-0.0000000000018463
 31
0.0
210
0.0
220
0.0
230
1.0
 40
0.5758617009853122
 41
0.5235987755983924
 42
2.09439510239315
  0
ELLIPSE
  5
4E7
330
23
100
AcDbEntity
  8
Arêtes visibles(Norme legrand)
100
AcDbEllipse
 10
395.3523474644661
 20
70.85303748951244
 30
0.0
 11
-31.00000000000005
 21
-0.0000000000000022
 31
0.0
210
0.0
220
0.0
230
1.0
 40
0.5758617009853121
 41
5.759586531581138
 42
7.330382858376035
  0
LINE
  5
4E8
330
23
100
AcDbEntity
  8
Arêtes visibles(Norme legrand)
100
AcDbLine
 10
411.2115177330504
 20
44.96689487045689
 30
0.0
 11
379.8523474644619
 21
55.39300076380001
 31
0.0
  0
LINE
  5
4E9
330
23
100
AcDbEntity
  8
Arêtes visibles(Norme legrand)
100
AcDbLine
 10
424.697278883703
 20
52.73282822575106
 30
0.0
 11
411.2115177330504
 21
44.96689487045689
 31
0.0
  0
LINE
  5
4EA
330
23
100
AcDbEntity
  8
Arêtes visibles(Norme legrand)
100
AcDbLine
 10
411.9375083277048
 20
60.08069140231274
 30
0.0
 11
424.697278883703
 21
52.73282822575106
 31
0.0
  0
ELLIPSE
  5
4EB
330
23
100
AcDbEntity
  8
Arêtes visibles(Norme legrand)
100
AcDbEllipse
 10
395.3523474644661
 20
70.85303748951242
 30
0.0
 11
25.0
 21
-0.0000000000000011
 31
0.0
210
0.0
220
0.0
230
1.0
 40
0.5758617009853121
 41
5.557823202227269
 42
11.7209363925163
  0
LINE
  5
4EC
330
23
100
AcDbEntity
  8
Arêtes visibles(Norme legrand)
100
AcDbLine
 10
426.818599227263
 20
53.95441536712789
 30
0.0
 11
414.0588286712646
 21
61.3022785436896
 31
0.0
  0
LINE
  5
4ED
330
23
100
AcDbEntity
  8
Arêtes visibles(Norme legrand)
100
AcDbLine
 10
442.7285018039627
 20
63.11631892745402
 30
0.0
 11
426.818599227263
 21
53.95441536712789
 31
0.0
  0
LINE
  5
4EE
330
23
100
AcDbEntity
  8
Arêtes visibles(Norme legrand)
100
AcDbLine
 10
445.6655102885625
 20
76.9236909278765
 30
0.0
 11
390.7761055870153
 21
108.5323968853901
 31
0.0
  0
LINE
  5
4EF
330
23
100
AcDbEntity
  8
Arêtes visibles(Norme legrand)
100
AcDbLine
 10
390.7761055870153
 20
108.5323968853901
 30
0.0
 11
386.6350008653739
 21
97.8615920749349
 31
0.0
  0
LINE
  5
4F0
330
23
100
AcDbEntity
  8
Arêtes visibles(Norme legrand)
100
AcDbLine
 10
442.7285018039633
 20
65.55949321020799
 30
0.0
 11
442.7285018039635
 21
67.05682473063934
 31
0.0
  0
LINE
  5
4F1
330
23
100
AcDbEntity
  8
Arêtes visibles(Norme legrand)
100
AcDbLine
 10
553.037159669081
 20
129.0820245618027
 30
0.0
 11
551.7395945491118
 21
129.8321380251094
 31
0.0
  0
LINE
  5
4F2
330
23
100
AcDbEntity
  8
Arêtes visibles(Norme legrand)
100
AcDbLine
 10
386.6350008653739
 20
97.8615920749349
 30
0.0
 11
442.7285018039633
 21
65.55949321020799
 31
0.0
  0
LINE
  5
4F3
330
23
100
AcDbEntity
  8
Arêtes visibles(Norme legrand)
100
AcDbLine
 10
445.6655102885625
 20
76.9236909278765
 30
0.0
 11
445.6655102885625
 21
89.1868978005146
 31
0.0
  0
LINE
  5
4F4
330
23
100
AcDbEntity
  8
Arêtes visibles(Norme legrand)
100
AcDbLine
 10
544.6604596546939
 20
133.9310908587948
 30
0.0
 11
544.6604596546939
 21
146.1942977314329
 31
0.0
  0
LINE
  5
4F5
330
23
100
AcDbEntity
  8
Arêtes tangentes visibles(Norme legrand)
100
AcDbLine
 10
476.6476007424495
 20
99.71224960213175
 30
0.0
 11
476.6476007424495
 21
80.90866573075333
 31
0.0
  0
ELLIPSE
  5
4F6
330
23
100
AcDbEntity
  8
Arêtes visibles(Norme legrand)
100
AcDbEllipse
 10
481.6476007424483
 20
75.92155710955492
 30
0.0
 11
10.00000000000003
 21
-0.0000000000005954
 31
0.0
210
0.0
220
0.0
230
1.0
 40
0.5758617009853121
 41
0.8987001337214888
 42
2.09439510239315
  0
LINE
  5
4F7
330
23
100
AcDbEntity
  8
Arêtes tangentes visibles(Norme legrand)
100
AcDbLine
 10
487.8738773731146
 20
80.42777994682609
 30
0.0
 11
487.8738773731146
 21
99.23136381820448
 31
0.0
  0
LINE
  5
4F8
330
23
100
AcDbEntity
  8
Arêtes tangentes visibles(Norme legrand)
100
AcDbLine
 10
447.7285018039647
 20
57.0495126771835
 30
0.0
 11
447.7285018039647
 21
90.09740375990871
 31
0.0
  0
ELLIPSE
  5
4F9
330
23
100
AcDbEntity
  8
Arêtes visibles(Norme legrand)
100
AcDbEllipse
 10
452.7285018039634
 20
72.83775588979572
 30
0.0
 11
-7.077901197452837
 21
-12.24348567356304
 31
0.0
210
0.0
220
0.0
230
1.0
 40
0.5769784850933445
 41
4.712214325070913
 42
5.498753997993577
  0
ELLIPSE
  5
4FA
330
23
100
AcDbEntity
  8
Arêtes visibles(Norme legrand)
100
AcDbEllipse
 10
452.7285018039635
 20
49.95576877048103
 30
0.0
 11
-10.00000000000009
 21
0.0000000000009198
 31
0.0
210
0.0
220
0.0
230
1.0
 40
0.5758617009853121
 41
5.496645634257347
 42
6.283185307180228
  0
ELLIPSE
  5
4FB
330
23
100
AcDbEntity
  8
Arêtes visibles(Norme legrand)
100
AcDbEllipse
 10
452.7285018039634
 20
49.94643639420454
 30
0.0
 11
-7.077901197452838
 21
-12.24348567356304
 31
0.0
210
0.0
220
0.0
230
1.0
 40
0.5769784850933445
 41
4.451556446796983
 42
4.712214325070901
  0
LINE
  5
4FC
330
23
100
AcDbEntity
  8
Arêtes tangentes visibles(Norme legrand)
100
AcDbLine
 10
543.0793405112667
 20
145.0062999282554
 30
0.0
 11
543.0793405112667
 21
111.9584088455303
 31
0.0
  0
ELLIPSE
  5
4FD
330
23
100
AcDbEntity
  8
Arêtes visibles(Norme legrand)
100
AcDbEllipse
 10
551.7395945491103
 20
106.9631326788225
 30
0.0
 11
9.999995325965032
 21
-5.780950031656537
 31
0.0
210
0.0
220
0.0
230
1.0
 40
0.0016724829924337
 41
3.666158283424874
 42
3.926816161693853
  0
ELLIPSE
  5
4FE
330
23
100
AcDbEntity
  8
Arêtes visibles(Norme legrand)
100
AcDbEllipse
 10
551.7395945491102
 20
106.972465055099
 30
0.0
 11
9.999999999999815
 21
-0.0000000000005951
 31
0.0
210
0.0
220
0.0
230
1.0
 40
0.5758617009853122
 41
1.570796326794845
 42
2.357335999717664
  0
LINE
  5
4FF
330
23
100
AcDbEntity
  8
Arêtes tangentes visibles(Norme legrand)
100
AcDbLine
 10
551.7395945491118
 20
112.731082064952
 30
0.0
 11
551.7395945491118
 21
129.8321380251094
 31
0.0
  0
ELLIPSE
  5
500
330
23
100
AcDbEntity
  8
Arêtes visibles(Norme legrand)
100
AcDbEllipse
 10
551.7395945491103
 20
129.8544521744135
 30
0.0
 11
-9.999995325965032
 21
5.780950031656535
 31
0.0
210
0.0
220
0.0
230
0.9999999999999998
 40
0.0016724829924336
 41
0.7852235451201768
 42
1.571763199539438
  0
LINE
  5
501
330
23
100
AcDbEntity
  8
Arêtes tangentes visibles(Norme legrand)
100
AcDbLine
 10
526.3828909544081
 20
122.5942814127252
 30
0.0
 11
526.3828909544081
 21
128.3528984225798
 31
0.0
  0
ELLIPSE
  5
502
330
23
100
AcDbEntity
  8
Arêtes visibles(Norme legrand)
100
AcDbEllipse
 10
551.7395945490217
 20
144.579632797886
 30
0.0
 11
-12.99999999989688
 21
0.0
 31
0.0
210
0.0
220
0.0
230
1.0
 40
0.5758617009853121
 41
5.731557861081022
 42
5.759586531581225
  0
LINE
  5
503
330
23
100
AcDbEntity
  8
Arêtes tangentes visibles(Norme legrand)
100
AcDbLine
 10
543.0793405112667
 20
145.0062999282554
 30
0.0
 11
540.4812642999136
 21
148.3227338542612
 31
0.0
  0
ELLIPSE
  5
504
330
23
100
AcDbEntity
  8
Arêtes visibles(Norme legrand)
100
AcDbEllipse
 10
551.7395945491125
 20
142.1269914233272
 30
0.0
 11
10.00000000000273
 21
-0.0000000000005959
 31
0.0
210
0.0
220
0.0
230
1.0
 40
0.5758617009853122
 41
2.357335999717765
 42
2.617993877991692
  0
LINE
  5
505
330
23
100
AcDbEntity
  8
Arêtes tangentes visibles(Norme legrand)
100
AcDbLine
 10
527.2179626098118
 20
121.8881156663133
 30
0.0
 11
524.8704078950797
 21
123.2651147654392
 31
0.0
  0
ELLIPSE
  5
506
330
23
100
AcDbEntity
  8
Arêtes visibles(Norme legrand)
100
AcDbEllipse
 10
505.3074519389798
 20
114.3014291370912
 30
0.0
 11
25.00000000000002
 21
0.0000000000000044
 31
0.0
210
0.0
220
0.0
230
1.0
 40
0.5758617009853121
 41
4.040292787311138
 42
6.955281500252839
  0
LINE
  5
507
330
23
100
AcDbEntity
  8
Arêtes tangentes visibles(Norme legrand)
100
AcDbLine
 10
489.7417603623144
 20
103.0358720439134
 30
0.0
 11
487.8738773731146
 21
99.23136381820448
 31
0.0
  0
ELLIPSE
  5
508
330
23
100
AcDbEntity
  8
Arêtes visibles(Norme legrand)
100
AcDbEllipse
 10
505.3074519389798
 20
111.8487877625636
 30
0.0
 11
28.00000000000002
 21
0.0000000000016698
 31
0.0
210
0.0
220
0.0
230
1.0
 40
0.5758617009853122
 41
4.040292787310956
 42
6.955281500252599
  0
LINE
  5
509
330
23
100
AcDbEntity
  8
Arêtes tangentes visibles(Norme legrand)
100
AcDbLine
 10
526.3828909544081
 20
128.3528984225798
 30
0.0
 11
523.784814743055
 21
131.6693323485856
 31
0.0
  0
ELLIPSE
  5
50A
330
23
100
AcDbEntity
  8
Arêtes visibles(Norme legrand)
100
AcDbEllipse
 10
535.0431449922519
 20
127.9262312921801
 30
0.0
 11
-13.00000000000002
 21
0.0
 31
0.0
210
0.0
220
0.0
230
1.0
 40
0.5758617009853121
 41
5.759586531581142
 42
6.95528150025284
  0
ELLIPSE
  5
50B
330
23
100
AcDbEntity
  8
Arêtes visibles(Norme legrand)
100
AcDbEllipse
 10
535.0431449922517
 20
125.4735899176525
 30
0.0
 11
-10.00000000000002
 21
-0.0000000000000006
 31
0.0
210
0.0
220
0.0
230
1.0
 40
0.5758617009853122
 41
5.759586531581142
 42
6.95528150025284
  0
LINE
  5
50C
330
23
100
AcDbEntity
  8
Arêtes tangentes visibles(Norme legrand)
100
AcDbLine
 10
475.1476007424499
 20
103.6610235630189
 30
0.0
 11
476.6476007424495
 21
99.71224960213175
 31
0.0
  0
ELLIPSE
  5
50D
330
23
100
AcDbEntity
  8
Arêtes visibles(Norme legrand)
100
AcDbEllipse
 10
481.6476007424483
 20
94.72514098093331
 30
0.0
 11
10.00000000000003
 21
-0.0000000000005954
 31
0.0
210
0.0
220
0.0
230
1.0
 40
0.5758617009853121
 41
0.8987001337214888
 42
2.09439510239315
  0
ELLIPSE
  5
50E
330
23
100
AcDbEntity
  8
Arêtes visibles(Norme legrand)
100
AcDbEllipse
 10
481.6476007424483
 20
97.17778235546095
 30
0.0
 11
-13.0
 21
-0.0000000000007772
 31
0.0
210
0.0
220
0.0
230
1.0
 40
0.5758617009853121
 41
4.040292787310951
 42
5.235987755982693
  0
LINE
  5
50F
330
23
100
AcDbEntity
  8
Arêtes visibles(Norme legrand)
100
AcDbLine
 10
540.4812642999136
 20
148.3227338542612
 30
0.0
 11
523.784814743055
 21
131.6693323485856
 31
0.0
  0
LINE
  5
510
330
23
100
AcDbEntity
  8
Arêtes visibles(Norme legrand)
100
AcDbLine
 10
526.3828909544081
 20
128.3528984225798
 30
0.0
 11
543.0793405112667
 21
145.0062999282554
 31
0.0
  0
LINE
  5
511
330
23
100
AcDbEntity
  8
Arêtes tangentes visibles(Norme legrand)
100
AcDbLine
 10
446.2285018039652
 20
94.04617772079582
 30
0.0
 11
447.7285018039647
 21
90.09740375990871
 31
0.0
  0
LINE
  5
512
330
23
100
AcDbEntity
  8
Arêtes visibles(Norme legrand)
100
AcDbLine
 10
447.7285018039647
 20
90.09740375990871
 30
0.0
 11
476.6476007424495
 21
99.71224960213175
 31
0.0
  0
LINE
  5
513
330
23
100
AcDbEntity
  8
Arêtes visibles(Norme legrand)
100
AcDbLine
 10
475.1476007424499
 20
103.6610235630189
 30
0.0
 11
446.2285018039652
 21
94.04617772079582
 31
0.0
  0
ELLIPSE
  5
514
330
23
100
AcDbEntity
  8
Arêtes visibles(Norme legrand)
100
AcDbEllipse
 10
452.7285018039627
 20
85.11029513871083
 30
0.0
 11
9.999999999998802
 21
-0.000000000000594
 31
0.0
210
0.0
220
0.0
230
1.0
 40
0.5758617009853121
 41
2.094395102393203
 42
2.355052980667236
  0
ELLIPSE
  5
515
330
23
100
AcDbEntity
  8
Arêtes visibles(Norme legrand)
100
AcDbEllipse
 10
452.7285018040072
 20
87.56293651319579
 30
0.0
 11
-13.00000000008523
 21
-0.0000000000000006
 31
0.0
210
0.0
220
0.0
230
1.0
 40
0.5758617009853122
 41
5.235987755982944
 42
5.264016426482752
  0
LINE
  5
516
330
23
100
AcDbEntity
  8
Arêtes visibles(Norme legrand)
100
AcDbLine
 10
447.7285018039647
 20
57.0495126771835
 30
0.0
 11
463.3497376638314
 21
76.48747322389571
 31
0.0
  0
LINE
  5
517
330
23
100
AcDbEntity
  8
Arêtes visibles(Norme legrand)
100
AcDbLine
 10
463.3497376638314
 20
76.48747322389571
 30
0.0
 11
476.6476007424495
 21
80.90866573075333
 31
0.0
  0
LINE
  5
518
330
23
100
AcDbEntity
  8
Arêtes visibles(Norme legrand)
100
AcDbLine
 10
532.5126555211389
 20
115.6632748945307
 30
0.0
 11
534.0604157824966
 21
117.2070446031231
 31
0.0
  0
LINE
  5
519
330
23
100
AcDbEntity
  8
Arêtes visibles(Norme legrand)
100
AcDbLine
 10
534.0604157824966
 20
117.2070446031231
 30
0.0
 11
543.0793405112667
 21
111.9584088455303
 31
0.0
  0
ELLIPSE
  5
51A
330
23
100
AcDbEntity
  8
Arêtes visibles(Norme legrand)
100
AcDbEllipse
 10
505.3074519389798
 20
93.04520389118522
 30
0.0
 11
28.00000000000004
 21
0.0000000000016653
 31
0.0
210
0.0
220
0.0
230
1.0
 40
0.5758617009853121
 41
4.040292787310956
 42
6.283185307179238
  0
LINE
  5
51B
330
23
100
AcDbEntity
  8
Arêtes visibles(Norme legrand)
100
AcDbLine
 10
544.660459654694
 20
111.0397713632037
 30
0.0
 11
534.020299714315
 21
117.1670319652279
 31
0.0
  0
ELLIPSE
  5
51C
330
23
100
AcDbEntity
  8
Arêtes visibles(Norme legrand)
100
AcDbEllipse
 10
505.3074519389798
 20
93.04520389118522
 30
0.0
 11
22.00000000000001
 21
-0.0000000000013067
 31
0.0
210
0.0
220
0.0
230
1.0
 40
0.5758617009853122
 41
0.995277083614475
 42
2.146315569975577
  0
ELLIPSE
  5
51D
330
23
100
AcDbEntity
  8
Arêtes visibles(Norme legrand)
100
AcDbEllipse
 10
451.9208899594034
 20
145.044705528417
 30
0.0
 11
15.09999999999999
 21
0.0000000000008987
 31
0.0
210
0.0
220
0.0
230
1.0
 40
0.5758617009853121
 41
0.0
 42
6.283185307179378
  0
ELLIPSE
  5
51E
330
23
100
AcDbEntity
  8
Arêtes visibles(Norme legrand)
100
AcDbEllipse
 10
451.9208899594033
 20
144.2271584035745
 30
0.0
 11
-14.09999999999999
 21
-0.0000000000000011
 31
0.0
210
0.0
220
0.0
230
1.0
 40
0.5758617009853121
 41
2.395177275405675
 42
7.029600685363702
  0
ELLIPSE
  5
51F
330
23
100
AcDbEntity
  8
Arêtes visibles(Norme legrand)
100
AcDbEllipse
 10
499.2970442989045
 20
154.4102069456366
 30
0.0
 11
5.0
 21
0.0000000000002975
 31
0.0
210
0.0
220
0.0
230
1.0
 40
0.5758617009853121
 41
0.0
 42
6.283185307179379
  0
ELLIPSE
  5
520
330
23
100
AcDbEntity
  8
Arêtes visibles(Norme legrand)
100
AcDbEllipse
 10
435.6574339921057
 20
117.762592704332
 30
0.0
 11
5.0
 21
0.0000000000002975
 31
0.0
210
0.0
220
0.0
230
1.0
 40
0.5758617009853121
 41
0.0
 42
6.283185307179379
  0
ELLIPSE
  5
521
330
23
100
AcDbEntity
  8
Arêtes visibles(Norme legrand)
100
AcDbEllipse
 10
505.3074519389798
 20
114.3014291370912
 30
0.0
 11
22.0
 21
0.0000000000013145
 31
0.0
210
0.0
220
0.0
230
1.0
 40
0.5758617009853122
 41
0.0
 42
6.283185307179377
  0
LINE
  5
522
330
23
100
AcDbEntity
  8
Arêtes visibles(Norme legrand)
100
AcDbLine
 10
442.7285018039627
 20
63.11631892745402
 30
0.0
 11
442.7285018039627
 21
46.76537643060322
 31
0.0
  0
LINE
  5
523
330
23
100
AcDbEntity
  8
Arêtes visibles(Norme legrand)
100
AcDbLine
 10
442.7285018039627
 20
46.76537643060322
 30
0.0
 11
426.818599227263
 21
37.60347287027712
 31
0.0
  0
LINE
  5
524
330
23
100
AcDbEntity
  8
Arêtes visibles(Norme legrand)
100
AcDbLine
 10
424.697278883703
 20
36.38188572890029
 30
0.0
 11
411.2115177330504
 21
28.6159523736061
 31
0.0
  0
LINE
  5
525
330
23
100
AcDbEntity
  8
Arêtes visibles(Norme legrand)
100
AcDbLine
 10
533.3074519389798
 20
111.8487877625636
 30
0.0
 11
533.3074519389798
 21
93.04520389118522
 31
0.0
  0
ELLIPSE
  5
526
330
23
100
AcDbEntity
  8
Arêtes visibles(Norme legrand)
100
AcDbEllipse
 10
451.9208899594034
 20
135.6429135927278
 30
0.0
 11
15.6
 21
-0.0000000000009259
 31
0.0
210
0.0
220
0.0
230
1.0
 40
0.5758617009853119
 41
0.8312398939226151
 42
2.310352759667608
  0
ELLIPSE
  5
527
330
23
100
AcDbEntity
  8
Arêtes visibles(Norme legrand)
100
AcDbEllipse
 10
451.9208899594034
 20
136.8692342799916
 30
0.0
 11
-14.09999999999998
 21
-0.0000000000008388
 31
0.0
210
0.0
220
0.0
230
1.0
 40
0.5758617009853121
 41
3.611825280993322
 42
5.812952679775237
  0
ELLIPSE
  5
528
330
23
100
AcDbEntity
  8
Arêtes visibles(Norme legrand)
100
AcDbEllipse
 10
451.9208899594034
 20
134.416592905464
 30
0.0
 11
-15.59999999999998
 21
-0.0000000000009315
 31
0.0
210
0.0
220
0.0
230
1.0
 40
0.5758617009853121
 41
3.822952863547918
 42
5.601825097220852
  0
ELLIPSE
  5
529
330
23
100
AcDbEntity
  8
Arêtes visibles(Norme legrand)
100
AcDbEllipse
 10
451.9208899594033
 20
123.7884802825105
 30
0.0
 11
-22.10000000000088
 21
0.0
 31
0.0
210
0.0
220
0.0
230
1.0
 40
0.5758617009853121
 41
4.609585789003393
 42
4.815192171765989
  0
ELLIPSE
  5
52A
330
23
100
AcDbEntity
  8
Arêtes visibles(Norme legrand)
100
AcDbEllipse
 10
410.201589869379
 20
44.35375912043091
 30
0.0
 11
3.493225481089531
 21
-6.066084053017558
 31
0.0
210
0.0
220
0.0
230
1.0
 40
0.578093115915639
 41
4.715277071978247
 42
4.943803069522014
  0
ELLIPSE
  5
52B
330
23
100
AcDbEntity
  8
Arêtes visibles(Norme legrand)
100
AcDbEllipse
 10
402.2457630113706
 20
39.7723031332349
 30
0.0
 11
5.284706110598138
 21
-4.843951829183825
 31
0.0
210
0.0
220
0.0
230
1.0
 40
0.6988762971203668
 41
0.0000000000000038
 42
6.283185307179586
  0
LINE
  5
52C
330
23
100
AcDbEntity
  8
Arêtes visibles(Norme legrand)
100
AcDbLine
 10
426.818599227263
 20
37.60347287027712
 30
0.0
 11
424.697278883703
 21
38.82506001165466
 31
0.0
  0
LINE
  5
52D
330
23
100
AcDbEntity
  8
Arêtes visibles(Norme legrand)
100
AcDbLine
 10
562.5512527204616
 20
144.3702041573126
 30
0.0
 11
562.5512527204616
 21
146.813378440067
 31
0.0
  0
LINE
  5
52E
330
23
100
AcDbEntity
  8
Arêtes visibles(Norme legrand)
100
AcDbLine
 10
573.1897029329001
 20
121.8929856252777
 30
0.0
 11
573.1897029329001
 21
138.2439281221285
 31
0.0
  0
LINE
  5
52F
330
23
100
AcDbEntity
  8
Arêtes visibles(Norme legrand)
100
AcDbLine
 10
426.818599227263
 20
53.95441536712789
 30
0.0
 11
426.818599227263
 21
37.60347287027712
 31
0.0
  0
LINE
  5
530
330
23
100
AcDbEntity
  8
Arêtes visibles(Norme legrand)
100
AcDbLine
 10
414.0588286712646
 20
58.85910426093518
 30
0.0
 11
414.0588286712646
 21
61.3022785436896
 31
0.0
  0
LINE
  5
531
330
23
100
AcDbEntity
  8
Arêtes visibles(Norme legrand)
100
AcDbLine
 10
424.697278883703
 20
36.38188572890029
 30
0.0
 11
424.697278883703
 21
52.73282822575106
 31
0.0
  0
LINE
  5
532
330
23
100
AcDbEntity
  8
Arêtes visibles(Norme legrand)
100
AcDbLine
 10
575.3110232764599
 20
123.1145727666545
 30
0.0
 11
573.1897029329001
 21
124.3361599080321
 31
0.0
  0
LINE
  5
533
330
23
100
AcDbEntity
  8
Arêtes visibles(Norme legrand)
100
AcDbLine
 10
575.3110232764599
 20
139.4655152635053
 30
0.0
 11
575.3110232764599
 21
123.1145727666545
 31
0.0
  0
ELLIPSE
  5
534
330
23
100
AcDbEntity
  8
Arêtes visibles(Norme legrand)
100
AcDbEllipse
 10
395.352347464466
 20
54.50209499266165
 30
0.0
 11
-24.99999999999996
 21
-0.0000000000014877
 31
0.0
210
0.0
220
0.0
230
1.0
 40
0.5758617009853121
 41
3.745517470919914
 42
5.679260489848782
  0
ELLIPSE
  5
535
330
23
100
AcDbEntity
  8
Arêtes visibles(Norme legrand)
100
AcDbEllipse
 10
543.8447715136629
 20
140.0131948890391
 30
0.0
 11
-25.00000000000001
 21
-0.0000000000014877
 31
0.0
210
0.0
220
0.0
230
1.0
 40
0.5758617009853122
 41
3.745517470919917
 42
5.164522441199994
  0
LINE
  5
536
330
23
100
AcDbEntity
  8
Arêtes visibles(Norme legrand)
100
AcDbLine
 10
411.2115177330504
 20
28.6159523736061
 30
0.0
 11
379.8523474644619
 21
39.04205826694923
 31
0.0
  0
ELLIPSE
  5
537
330
23
100
AcDbEntity
  8
Arêtes visibles(Norme legrand)
100
AcDbEllipse
 10
395.3523474644659
 20
54.50209499266161
 30
0.0
 11
-30.99999999999995
 21
-0.0000000000000011
 31
0.0
210
0.0
220
0.0
230
1.0
 40
0.5758617009853121
 41
0.0
 42
1.047197551196449
  0
LINE
  5
538
330
23
100
AcDbEntity
  8
Arêtes visibles(Norme legrand)
100
AcDbLine
 10
411.2115177330504
 20
44.96689487045689
 30
0.0
 11
411.2115177330504
 21
28.6159523736061
 31
0.0
  0
LINE
  5
539
330
23
100
AcDbEntity
  8
Arêtes tangentes visibles(Norme legrand)
100
AcDbLine
 10
379.8523474644619
 20
55.39300076380001
 30
0.0
 11
379.8523474644619
 21
39.04205826694923
 31
0.0
  0
LINE
  5
53A
330
23
100
AcDbEntity
  8
Arêtes visibles(Norme legrand)
100
AcDbLine
 10
364.352347464466
 20
70.85303748951242
 30
0.0
 11
364.352347464466
 21
54.50209499266164
 31
0.0
  0
LINE
  5
53B
330
23
100
AcDbEntity
  8
Arêtes visibles(Norme legrand)
100
AcDbLine
 10
557.2798003562004
 20
129.0820245618023
 30
0.0
 11
557.2798003562004
 21
112.7310820649515
 31
0.0
  0
LINE
  5
53C
330
23
100
AcDbEntity
  8
Arêtes visibles(Norme legrand)
100
AcDbLine
 10
573.1897029329001
 20
121.8929856252777
 30
0.0
 11
557.2798003562004
 21
112.7310820649515
 31
0.0
  0
LINE
  5
53D
330
23
100
AcDbEntity
  8
Arêtes visibles(Norme legrand)
100
AcDbLine
 10
557.2798003562004
 20
112.7310820649515
 30
0.0
 11
551.7395945491118
 21
112.731082064952
 31
0.0
  0
LINE
  5
53E
330
23
100
AcDbEntity
  8
Arêtes visibles(Norme legrand)
100
AcDbLine
 10
588.7967844271127
 20
130.8805061219487
 30
0.0
 11
575.3110232764599
 21
123.1145727666545
 31
0.0
  0
LINE
  5
53F
330
23
100
AcDbEntity
  8
Arêtes visibles(Norme legrand)
100
AcDbLine
 10
588.7967844271127
 20
130.8805061219487
 30
0.0
 11
588.7967844271127
 21
147.2314486187995
 31
0.0
  0
DIMENSION
  5
540
330
23
100
AcDbEntity
  8
Cotes(Norme legrand)
  6
Continuous
 62
     7
370
    18
100
AcDbDimension
  2
*D11
 10
327.1148272480187
 20
247.4438926225854
 30
0.0
 11
191.1148272480187
 21
247.4438926225854
 31
0.0
 70
   160
  1
<>
 71
     2
 42
272.0
  3
style legrand-Norme legrand
100
AcDbAlignedDimension
 13
55.11482724801876
 23
181.1732447584644
 33
0.0
 14
327.1148272480187
 24
181.1732447584644
 34
0.0
 50
180.0
100
AcDbRotatedDimension
1001
ACAD
1000
DSTYLE
1002
{
1070
    74
1070
     0
1070
   271
1070
     3
1070
   272
1070
     3
1070
    47
1040
0.0
1070
    48
1040
0.0
1002
}
  0
DIMENSION
  5
614
330
23
100
AcDbEntity
  8
Cotes(Norme legrand)
  6
Continuous
 62
     7
370
    18
100
AcDbDimension
  2
*D12
 10
26.49605980704563
 20
15.1094514125204
 30
0.0
 11
26.49605980704564
 21
80.60945141252041
 31
0.0
 70
   160
  1
<>
 71
     2
 42
131.0
  3
style legrand-Norme legrand
100
AcDbAlignedDimension
 13
191.1148272478791
 23
146.1094514125204
 33
0.0
 14
191.1148272478791
 24
15.10945141252035
 34
0.0
 50
270.0
100
AcDbRotatedDimension
1001
ACAD
1000
DSTYLE
1002
{
1070
   279
1070
     1
1070
    74
1070
     0
1070
   271
1070
     3
1070
   272
1070
     3
1070
    47
1040
0.0
1070
    48
1040
0.0
1002
}
  0
DIMENSION
  5
6EB
330
23
100
AcDbEntity
  8
Cotes(Norme legrand)
  6
Continuous
 62
     7
370
    18
100
AcDbDimension
  2
*D13
 10
27.61482724801883
 20
181.1732447584645
 30
0.0
 11
27.61482724801883
 21
204.1732447584645
 31
0.0
 70
   160
  1
<>
 71
     2
 42
46.00000000000003
  3
style legrand-Norme legrand
100
AcDbAlignedDimension
 13
124.4680597415784
 23
227.1732447584645
 33
0.0
 14
87.61482724801883
 24
181.1732447584644
 34
0.0
 50
90.0
100
AcDbRotatedDimension
1001
ACAD
1000
DSTYLE
1002
{
1070
   279
1070
     1
1070
    74
1070
     0
1070
   271
1070
     3
1070
   272
1070
     3
1070
    47
1040
0.0
1070
    48
1040
0.0
1002
}
  0
ENDSEC
  0
SECTION
  2
OBJECTS
  0
DICTIONARY
  5
C
330
0
100
AcDbDictionary
281
     1
  3
ACAD_COLOR
350
1C
  3
ACAD_GROUP
350
D
  3
ACAD_LAYOUT
350
1A
  3
ACAD_MATERIAL
350
1B
  3
ACAD_MLINESTYLE
350
17
  3
ACAD_PLOTSETTINGS
350
19
  3
ACAD_PLOTSTYLENAME
350
E
  3
ACAD_TABLESTYLE
350
1D
  3
AcDbVariableDictionary
350
7E6
  0
DICTIONARY
  5
1C
102
{ACAD_REACTORS
330
C
102
}
330
C
100
AcDbDictionary
281
     1
  0
DICTIONARY
  5
D
102
{ACAD_REACTORS
330
C
102
}
330
C
100
AcDbDictionary
281
     1
  0
DICTIONARY
  5
1A
102
{ACAD_REACTORS
330
C
102
}
330
C
100
AcDbDictionary
281
     1
  3
Layout1
350
22
  3
Layout2
350
2A
  3
Model
350
26
  0
DICTIONARY
  5
1B
102
{ACAD_REACTORS
330
C
102
}
330
C
100
AcDbDictionary
281
     1
  0
DICTIONARY
  5
17
102
{ACAD_REACTORS
330
C
102
}
330
C
100
AcDbDictionary
281
     1
  3
Standard
350
18
  0
DICTIONARY
  5
19
102
{ACAD_REACTORS
330
C
102
}
330
C
100
AcDbDictionary
281
     1
  0
ACDBDICTIONARYWDFLT
  5
E
102
{ACAD_REACTORS
330
C
102
}
330
C
100
AcDbDictionary
281
     1
  3
Normal
350
F
100
AcDbDictionaryWithDefault
340
F
  0
DICTIONARY
  5
1D
102
{ACAD_REACTORS
330
C
102
}
330
C
100
AcDbDictionary
281
     1
  3
Standard
350
1E
  0
DICTIONARY
  5
7E6
102
{ACAD_REACTORS
330
C
102
}
330
C
100
AcDbDictionary
281
     1
  3
CTABLESTYLE
350
7E7
  0
LAYOUT
  5
22
102
{ACAD_REACTORS
330
1A
102
}
330
1A
100
AcDbPlotSettings
  1

  2

  4

  6

 40
0.0
 41
0.0
 42
0.0
 43
0.0
 44
0.0
 45
0.0
 46
0.0
 47
0.0
 48
0.0
 49
0.0
140
0.0
141
0.0
142
1.0
143
1.0
 70
   688
 72
     0
 73
     0
 74
     5
  7

 75
    16
147
1.0
 76
     0
 77
     2
 78
   300
148
0.0
149
0.0
100
AcDbLayout
  1
Layout1
 70
     1
 71
     1
 10
0.0
 20
0.0
 11
12.0
 21
9.0
 12
0.0
 22
0.0
 32
0.0
 14
0.0
 24
0.0
 34
0.0
 15
0.0
 25
0.0
 35
0.0
146
0.0
 13
0.0
 23
0.0
 33
0.0
 16
1.0
 26
0.0
 36
0.0
 17
0.0
 27
1.0
 37
0.0
 76
     0
330
1F
  0
LAYOUT
  5
2A
102
{ACAD_REACTORS
330
1A
102
}
330
1A
100
AcDbPlotSettings
  1

  2

  4

  6

 40
0.0
 41
0.0
 42
0.0
 43
0.0
 44
0.0
 45
0.0
 46
0.0
 47
0.0
 48
0.0
 49
0.0
140
0.0
141
0.0
142
1.0
143
1.0
 70
   688
 72
     0
 73
     0
 74
     5
  7

 75
    16
147
1.0
 76
     0
 77
     2
 78
   300
148
0.0
149
0.0
100
AcDbLayout
  1
Layout2
 70
     1
 71
     2
 10
0.0
 20
0.0
 11
12.0
 21
9.0
 12
0.0
 22
0.0
 32
0.0
 14
0.0
 24
0.0
 34
0.0
 15
0.0
 25
0.0
 35
0.0
146
0.0
 13
0.0
 23
0.0
 33
0.0
 16
1.0
 26
0.0
 36
0.0
 17
0.0
 27
1.0
 37
0.0
 76
     0
330
27
  0
LAYOUT
  5
26
102
{ACAD_REACTORS
330
1A
102
}
330
1A
100
AcDbPlotSettings
  1

  2

  4

  6

 40
0.0
 41
0.0
 42
0.0
 43
0.0
 44
0.0
 45
0.0
 46
0.0
 47
0.0
 48
0.0
 49
0.0
140
0.0
141
0.0
142
1.0
143
1.0
 70
  1712
 72
     0
 73
     0
 74
     0
  7

 75
     0
147
1.0
 76
     0
 77
     2
 78
   300
148
0.0
149
0.0
100
AcDbLayout
  1
Model
 70
     1
 71
     0
 10
0.0
 20
0.0
 11
12.0
 21
9.0
 12
0.0
 22
0.0
 32
0.0
 14
0.0
 24
0.0
 34
0.0
 15
0.0
 25
0.0
 35
0.0
146
0.0
 13
0.0
 23
0.0
 33
0.0
 16
1.0
 26
0.0
 36
0.0
 17
0.0
 27
1.0
 37
0.0
 76
     0
330
23
  0
MLINESTYLE
  5
18
102
{ACAD_REACTORS
330
17
102
}
330
17
100
AcDbMlineStyle
  2
STANDARD
 70
     0
  3

 62
   256
 51
90.0
 52
90.0
 71
     2
 49
0.5
 62
   256
  6
BYLAYER
 49
-0.5
 62
   256
  6
BYLAYER
  0
ACDBPLACEHOLDER
  5
F
102
{ACAD_REACTORS
330
E
102
}
330
E
  0
TABLESTYLE
  5
1E
102
{ACAD_REACTORS
330
1D
102
}
330
1D
100
AcDbTableStyle
  3
Standard
 70
     0
 71
     0
 40
0.06
 41
0.06
280
     0
281
     0
  7
Standard
140
0.18
170
     2
 62
     0
 63
     7
283
     0
274
    -2
284
     1
 64
     0
275
    -2
285
     1
 65
     0
276
    -2
286
     1
 66
     0
277
    -2
287
     1
 67
     0
278
    -2
288
     1
 68
     0
279
    -2
289
     1
 69
     0
  7
Standard
140
0.25
170
     5
 62
     0
 63
     7
283
     0
274
    -2
284
     1
 64
     0
275
    -2
285
     1
 65
     0
276
    -2
286
     1
 66
     0
277
    -2
287
     1
 67
     0
278
    -2
288
     1
 68
     0
279
    -2
289
     1
 69
     0
  7
Standard
140
0.18
170
     5
 62
     0
 63
     7
283
     0
274
    -2
284
     1
 64
     0
275
    -2
285
     1
 65
     0
276
    -2
286
     1
 66
     0
277
    -2
287
     1
 67
     0
278
    -2
288
     1
 68
     0
279
    -2
289
     1
 69
     0
  0
DICTIONARYVAR
  5
7E7
102
{ACAD_REACTORS
330
7E6
102
}
330
7E6
100
DictionaryVariables
280
     0
  1
STANDARD
  0
ENDSEC
  0
EOF
