999
DXF file: 100034-b_rondelle-arriere.dxf
999
Pro/ENGINEER 2004090 by Parametric Technology Corporation
0
SECTION
2
HEADER
9
$ACADVER
1
AC1014
9
$HANDSEED
5
       2DF
9
$EXTMAX
10
297.0000000000
20
210.0000000000
9
$EXTMIN
10
0.0000000000
20
0.0000000000
9
$LIMMIN
10
0.0000000000
20
0.0000000000
9
$LIMMAX
10
297.0000000000
20
210.0000000000
9
$VIEWCTR
10
148.5000000000
20
105.0000000000
9
$VIEWSIZE
40
210.0000000000
9
$CLAYER
8
0
9
$LTSCALE
40
16.3350000000
9
$CELTYPE
6
BYLAYER
9
$DIMSCALE
40
1
9
$DIMASZ
40
4.5000000000
9
$DIMEXO
40
1.8562500000
9
$DIMDLI
40
11.2860000000
9
$DIMEXE
40
5.3460000000
9
$DIMCEN
40
2.6730000000
9
$DIMLFAC
40
1.0000000000
9
$DIMTXT
40
3.5000000000
9
$DIMTOL
70
1
9
$DIMLIM
70
0
9
$DIMTFAC
40
1.0000000000
9
$DIMTP
40
0.0500000000
9
$DIMTM
40
0.0500000000
9
$MEASUREMENT
70
1
0
ENDSEC
0
SECTION
2
CLASSES
0
ENDSEC
0
SECTION
2
TABLES
0
TABLE
2
VPORT
5
8
100
AcDbSymbolTable
70
2
0
VPORT
5
1F4
100
AcDbSymbolTableRecord
100
AcDbViewportTableRecord
2
*ACTIVE
70
0
10
0.0
20
0.0
11
1.0
21
1.0
12
148.5000000000
22
105.0000000000
13
0.0
23
0.0
14
1.0
24
1.0
15
0.0
25
0.0
16
0.0
26
0.0
36
1.0
17
0.0
27
0.0
37
0.0
40
210.0000000000
41
1.4142857143
42
50.0
43
0.0
44
0.0
50
0.0
51
0.0
71
0
72
100
73
1
74
1
75
0
76
0
77
0
78
0
0
ENDTAB
0
TABLE
2
LTYPE
5
5
100
AcDbSymbolTable
70
6
0
LTYPE
5
14
100
AcDbSymbolTableRecord
100
AcDbLinetypeTableRecord
2
BYBLOCK
70
0
3

72
65
73
0
40
0.0
0
LTYPE
5
15
100
AcDbSymbolTableRecord
100
AcDbLinetypeTableRecord
2
BYLAYER
70
0
3

72
65
73
0
40
0.0
0
LTYPE
5
16
100
AcDbSymbolTableRecord
100
AcDbLinetypeTableRecord
2
CONTINUOUS
70
64
3
Solid line
72
65
73
0
40
0
0
LTYPE
5
1F5
100
AcDbSymbolTableRecord
100
AcDbLinetypeTableRecord
2
CENTER
70
64
3
____ _ ____ _ ____ _ ____ _ ____ _ ____ _ ____
72
65
73
4
40
0.6
49
0.375
74
0
49
-0.075
74
0
49
0.075
74
0
49
-0.075
74
0
0
LTYPE
5
1F6
100
AcDbSymbolTableRecord
100
AcDbLinetypeTableRecord
2
HIDDEN
70
64
3
- - - - - - - - - - - - - - - - - - - -
72
65
73
2
40
0.2
49
0.1
74
0
49
-0.1
74
0
0
LTYPE
5
1F7
100
AcDbSymbolTableRecord
100
AcDbLinetypeTableRecord
2
PHANTOM
70
64
3
_____ _ _ _____ _ _ _____ _ _ _____
72
65
73
6
40
0.8
49
0.45
74
0
49
-0.05
74
0
49
0.1
74
0
49
-0.05
74
0
49
0.1
74
0
49
-0.05
74
0
0
LTYPE
5
1F8
100
AcDbSymbolTableRecord
100
AcDbLinetypeTableRecord
2
DOT
70
64
3
. . . . . . . . . . . . . . . . . . . .
72
65
73
2
40
0.2
49
0.1
74
0
49
-0.1
74
0
0
LTYPE
5
1F9
100
AcDbSymbolTableRecord
100
AcDbLinetypeTableRecord
2
DASHED
70
64
3
- - - - - - - - - - - - - - - - - - - -
72
65
73
2
40
0.2
49
0.1
74
0
49
-0.1
74
0
0
ENDTAB
0
TABLE
2
LAYER
5
2
100
AcDbSymbolTable
70
36
0
LAYER
5
10
100
AcDbSymbolTableRecord
100
AcDbLayerTableRecord
2
0
70
0
62
7
6
CONTINUOUS
0
LAYER
5
1FA
100
AcDbSymbolTableRecord
100
AcDbLayerTableRecord
2
DEFAULT_1
70
0
62
7
6
CENTER
0
LAYER
5
1FB
100
AcDbSymbolTableRecord
100
AcDbLayerTableRecord
2
DEFAULT_2
70
0
62
8
6
HIDDEN
0
LAYER
5
1FC
100
AcDbSymbolTableRecord
100
AcDbLayerTableRecord
2
DEFAULT_3
70
0
62
7
6
PHANTOM
0
LAYER
5
1FD
100
AcDbSymbolTableRecord
100
AcDbLayerTableRecord
2
POUB
70
0
62
7
6
CONTINUOUS
0
ENDTAB
0
TABLE
2
STYLE
5
3
100
AcDbSymbolTable
70
1
0
STYLE
5
11
100
AcDbSymbolTableRecord
100
AcDbTextStyleTableRecord
2
STANDARD
70
0
40
0.0
41
0.8000000000
50
0.0
71
0
42
0.2
3
txt
4

0
STYLE
5
1FE
100
AcDbSymbolTableRecord
100
AcDbTextStyleTableRecord
2
TEXTSTYLE_1
70
0
40
0.0
41
0.8000000000
50
0.0
71
0
42
0.2
3
txt
4

0
ENDTAB
0
TABLE
2
VIEW
5
6
100
AcDbSymbolTable
70
0
0
ENDTAB
0
TABLE
2
UCS
5
7
100
AcDbSymbolTable
70
0
0
ENDTAB
0
TABLE
2
APPID
5
9
100
AcDbSymbolTable
70
1
0
APPID
5
1FF
100
AcDbSymbolTableRecord
100
AcDbRegAppTableRecord
2
ACAD
70
0
0
ENDTAB
0
TABLE
2
DIMSTYLE
5
A
100
AcDbSymbolTable
70
1
0
DIMSTYLE
105
200
100
AcDbSymbolTableRecord
100
AcDbDimStyleTableRecord
2
STANDARD
70
0
3

4

5

6

7

40
1.0
41
4.5000000000
42
0.0625
43
0.38
44
0.18
45
0.0
46
0.0
47
0.0500000000
48
0.0500000000
140
3.5000000000
141
0.09
142
0.0
143
25.4
144
1.0000000000
145
0.0
146
1.0000000000
147
0.09
71
1
72
0
73
0
74
0
75
0
76
0
77
1
78
8
170
0
171
2
172
0
173
0
174
0
175
0
176
0
177
0
178
0
270
2
271
2
272
2
273
2
274
2
340
11
275
0
280
0
281
0
282
0
283
1
284
8
285
0
286
0
287
3
288
0
0
DIMSTYLE
105
201
100
AcDbSymbolTableRecord
100
AcDbDimStyleTableRecord
2
DIMSTYLE_1
70
0
3

4

5

6

7

40
1.0
41
4.5000000000
42
0.0625
43
0.38
44
0.18
45
0.0
46
0.0
47
0.0000000000
48
0.0200000000
140
3.5000000000
141
0.09
142
0.0
143
25.4
144
1.0000000000
145
0.0
146
0.6000000000
147
0.09
71
1
72
0
73
0
74
0
75
0
76
0
77
1
78
8
170
0
171
2
172
0
173
0
174
0
175
0
176
0
177
0
178
0
270
2
271
2
272
2
273
2
274
2
340
1FE
275
0
280
0
281
0
282
0
283
1
284
8
285
0
286
0
287
3
288
0
0
DIMSTYLE
105
202
100
AcDbSymbolTableRecord
100
AcDbDimStyleTableRecord
2
DIMSTYLE_2
70
0
3

4

5

6

7

40
1.0
41
4.5000000000
42
0.0625
43
0.38
44
0.18
45
0.0
46
0.0
47
0.0500000000
48
0.0500000000
140
3.5000000000
141
0.09
142
0.0
143
25.4
144
1.0000000000
145
0.0
146
1.0000000000
147
0.09
71
0
72
0
73
0
74
0
75
0
76
0
77
1
78
8
170
0
171
2
172
0
173
0
174
0
175
0
176
0
177
0
178
0
270
2
271
2
272
2
273
2
274
2
340
1FE
275
0
280
0
281
0
282
0
283
1
284
8
285
0
286
0
287
3
288
0
0
DIMSTYLE
105
203
100
AcDbSymbolTableRecord
100
AcDbDimStyleTableRecord
2
DIMSTYLE_3
70
0
3

4

5

6

7

40
1.0
41
4.5000000000
42
0.0625
43
0.38
44
0.18
45
0.0
46
0.0
47
0.1000000000
48
-0.0500000000
140
3.5000000000
141
0.09
142
0.0
143
25.4
144
1.0000000000
145
0.0
146
0.6000000000
147
0.09
71
1
72
0
73
0
74
0
75
0
76
0
77
1
78
8
170
0
171
2
172
0
173
0
174
0
175
0
176
0
177
0
178
0
270
2
271
2
272
2
273
2
274
2
340
1FE
275
0
280
0
281
0
282
0
283
1
284
8
285
0
286
0
287
3
288
0
0
ENDTAB
0
TABLE
2
BLOCK_RECORD
5
1
100
AcDbSymbolTable
70
0
0
BLOCK_RECORD
5
1B
100
AcDbSymbolTableRecord
100
AcDbBlockTableRecord
2
*MODEL_SPACE
0
BLOCK_RECORD
5
1C
100
AcDbSymbolTableRecord
100
AcDbBlockTableRecord
2
*PAPER_SPACE
0
BLOCK_RECORD
5
204
100
AcDbSymbolTableRecord
100
AcDbBlockTableRecord
2
N-DES_BL0
0
BLOCK_RECORD
5
205
100
AcDbSymbolTableRecord
100
AcDbBlockTableRecord
2
N-CART_BL1
0
BLOCK_RECORD
5
206
100
AcDbSymbolTableRecord
100
AcDbBlockTableRecord
2
*D0
0
BLOCK_RECORD
5
207
100
AcDbSymbolTableRecord
100
AcDbBlockTableRecord
2
*D1
0
BLOCK_RECORD
5
208
100
AcDbSymbolTableRecord
100
AcDbBlockTableRecord
2
*D2
0
BLOCK_RECORD
5
209
100
AcDbSymbolTableRecord
100
AcDbBlockTableRecord
2
N-CAR_BL2
0
ENDTAB
0
ENDSEC
0
SECTION
2
BLOCKS
0
BLOCK
5
1E
100
AcDbEntity
8
0
100
AcDbBlockBegin
2
*MODEL_SPACE
70
0
10
0.0
20
0.0
30
0.0
3
*MODEL_SPACE
1

0
ENDBLK
5
1F
100
AcDbEntity
8
0
100
AcDbBlockEnd
0
BLOCK
5
20
100
AcDbEntity
8
0
100
AcDbBlockBegin
2
*PAPER_SPACE
70
0
10
0.0
20
0.0
30
0.0
3
*PAPER_SPACE
1

0
ENDBLK
5
21
100
AcDbEntity
8
0
100
AcDbBlockEnd
0
BLOCK
5
20A
100
AcDbEntity
8
0
100
AcDbBlockBegin
62
2
6
CONTINUOUS
2
N-DES_BL0
70
64
10
0.0000000000
20
0.0000000000
3
N-DES_BL0
1

0
LINE
5
20B
100
AcDbEntity
8
0
100
AcDbLine
62
7
6
CONTINUOUS
10
271.5047785790
20
46.1229811484
11
271.5047785790
21
44.4337905733
0
LINE
5
20C
100
AcDbEntity
8
0
100
AcDbLine
62
7
6
CONTINUOUS
10
276.9101884192
20
43.5891952858
11
271.5047785790
21
44.4337905733
0
LINE
5
20D
100
AcDbEntity
8
DEFAULT_1
100
AcDbLine
62
2
6
CENTER
10
270.6939671030
20
45.2783858608
11
277.7209998952
21
45.2783858608
0
LINE
5
20E
100
AcDbEntity
8
0
100
AcDbLine
62
7
6
CONTINUOUS
10
276.9101884192
20
46.9675764359
11
271.5047785790
21
46.1229811484
0
LINE
5
20F
100
AcDbEntity
8
0
100
AcDbLine
62
7
6
CONTINUOUS
10
276.9101884192
20
46.9675764359
11
276.9101884192
21
43.5891952858
0
LINE
5
210
100
AcDbEntity
8
0
100
AcDbLine
62
2
6
CONTINUOUS
10
281.3069357808
20
45.3787237810
11
281.3069357808
21
45.1780479407
0
LINE
5
211
100
AcDbEntity
8
DEFAULT_1
100
AcDbLine
62
2
6
CENTER
10
281.3069357808
20
42.6806079119
11
281.3069357808
21
47.7783879119
0
LINE
5
212
100
AcDbEntity
8
0
100
AcDbLine
62
2
6
CONTINUOUS
10
281.4072737010
20
45.2783858608
11
281.2065978606
21
45.2783858608
0
LINE
5
213
100
AcDbEntity
8
DEFAULT_1
100
AcDbLine
62
2
6
CENTER
10
280.8052461800
20
45.2783858608
11
278.8069337297
21
45.2783858608
0
LINE
5
214
100
AcDbEntity
8
DEFAULT_1
100
AcDbLine
62
2
6
CENTER
10
281.8086253816
20
45.2783858608
11
283.8069378319
21
45.2783858608
0
CIRCLE
5
215
100
AcDbEntity
8
0
100
AcDbCircle
62
7
6
CONTINUOUS
10
281.3069357808
20
45.2783858608
40
1.6891905751
0
CIRCLE
5
216
100
AcDbEntity
8
0
100
AcDbCircle
62
7
6
CONTINUOUS
10
281.3069357808
20
45.2783858608
40
0.8445952875
0
ENDBLK
5
217
100
AcDbEntity
8
0
100
AcDbBlockEnd
0
BLOCK
5
218
100
AcDbEntity
8
0
100
AcDbBlockBegin
62
2
6
CONTINUOUS
2
N-CART_BL1
70
64
10
0.0000000000
20
0.0000000000
3
N-CART_BL1
1

0
LINE
5
219
100
AcDbEntity
8
0
100
AcDbLine
62
7
6
CONTINUOUS
10
299.0041682662
20
54.4975549711
11
133.0041954662
21
54.4975549711
0
LINE
5
21A
100
AcDbEntity
8
0
100
AcDbLine
62
7
6
CONTINUOUS
10
299.0041682662
20
12.9975617711
11
133.0041954662
21
12.9975617711
0
LINE
5
21B
100
AcDbEntity
8
0
100
AcDbLine
62
7
6
CONTINUOUS
10
299.0041682662
20
54.4975549711
11
299.0041682662
21
12.9975617711
0
LINE
5
21C
100
AcDbEntity
8
0
100
AcDbLine
62
7
6
CONTINUOUS
10
133.0041954662
20
54.4975549711
11
133.0041954662
21
12.9975617711
0
LINE
5
21D
100
AcDbEntity
8
0
100
AcDbLine
62
7
6
CONTINUOUS
10
299.0041682662
20
49.9975557085
11
133.0041954662
21
49.9975557085
0
LINE
5
21E
100
AcDbEntity
8
0
100
AcDbLine
62
7
6
CONTINUOUS
10
253.0041758036
20
22.4975602145
11
253.0041758036
21
12.9975617711
0
LINE
5
21F
100
AcDbEntity
8
0
100
AcDbLine
62
7
6
CONTINUOUS
10
299.0041682662
20
22.4975602145
11
253.0041758036
21
22.4975602145
0
ENDBLK
5
220
100
AcDbEntity
8
0
100
AcDbBlockEnd
0
BLOCK
5
221
100
AcDbEntity
8
0
100
AcDbBlockBegin
62
2
6
CONTINUOUS
2
*D0
70
65
10
0.0000000000
20
0.0000000000
3
*D0
1

0
TEXT
5
222
100
AcDbEntity
8
0
100
AcDbText
62
2
6
CONTINUOUS
10
201.5185547473
20
167.1415029571
7
TEXTSTYLE_1
40
3.5000000000
1
1,35
41
0.5291666667
72
0
100
AcDbText
0
TEXT
5
223
100
AcDbEntity
8
0
100
AcDbText
62
2
6
CONTINUOUS
10
208.9268880807
20
169.2415029571
7
TEXTSTYLE_1
40
2.1000000000
1
 0
41
0.7666666667
72
0
100
AcDbText
0
TEXT
5
224
100
AcDbEntity
8
0
100
AcDbText
62
2
6
CONTINUOUS
10
208.9268880807
20
166.4415029571
7
TEXTSTYLE_1
40
2.1000000000
1
-0,02
41
0.5766666667
72
0
100
AcDbText
0
LINE
5
225
100
AcDbEntity
8
0
100
AcDbLine
62
2
6
CONTINUOUS
10
191.8719230467
20
156.3915846881
11
191.8719230467
21
168.5915029571
0
LINE
5
226
100
AcDbEntity
8
0
100
AcDbLine
62
2
6
CONTINUOUS
10
193.2219230467
20
156.3915846881
11
193.2219230467
21
168.5915029571
0
LINE
5
227
100
AcDbEntity
8
0
100
AcDbLine
62
2
6
CONTINUOUS
10
191.8719230467
20
165.3915029571
11
189.8719230467
21
165.3915029571
0
LINE
5
228
100
AcDbEntity
8
0
100
AcDbLine
62
2
6
CONTINUOUS
10
189.8719230467
20
165.3915029571
11
192.5469230467
21
165.3915029571
0
LINE
5
229
100
AcDbEntity
8
0
100
AcDbLine
62
2
6
CONTINUOUS
10
193.2219230467
20
165.3915029571
11
214.9818880807
21
165.3915029571
0
LINE
5
22A
100
AcDbEntity
8
0
100
AcDbLine
62
2
6
CONTINUOUS
10
214.9818880807
20
165.3915029571
11
192.5469230467
21
165.3915029571
0
SOLID
5
22B
100
AcDbEntity
8
0
100
AcDbTrace
62
2
6
CONTINUOUS
10
187.3719230467
20
164.5915029571
11
191.8719230467
21
165.3915029571
12
187.3719230467
22
166.1915029571
13
187.3719230467
23
166.1915029571
0
SOLID
5
22C
100
AcDbEntity
8
0
100
AcDbTrace
62
2
6
CONTINUOUS
10
197.7219230467
20
166.1915029571
11
193.2219230467
21
165.3915029571
12
197.7219230467
22
164.5915029571
13
197.7219230467
23
164.5915029571
0
ENDBLK
5
22D
100
AcDbEntity
8
0
100
AcDbBlockEnd
0
BLOCK
5
22E
100
AcDbEntity
8
0
100
AcDbBlockBegin
62
2
6
CONTINUOUS
2
*D1
70
65
10
0.0000000000
20
0.0000000000
3
*D1
1

0
TEXT
5
22F
100
AcDbEntity
8
0
100
AcDbText
62
2
6
CONTINUOUS
10
206.5234666461
20
125.6242961907
7
TEXTSTYLE_1
40
3.5000000000
1
%%c
50
90.0000000000
41
1.3333333333
72
0
100
AcDbText
0
TEXT
5
230
100
AcDbEntity
8
0
100
AcDbText
62
2
6
CONTINUOUS
10
206.5234666461
20
130.2909628573
7
TEXTSTYLE_1
40
3.5000000000
1
18
50
90.0000000000
41
0.5333333333
72
0
100
AcDbText
0
LINE
5
231
100
AcDbEntity
8
0
100
AcDbLine
62
2
6
CONTINUOUS
10
194.7219230467
20
154.8915846881
11
210.5984666461
21
154.8915846881
0
LINE
5
232
100
AcDbEntity
8
0
100
AcDbLine
62
2
6
CONTINUOUS
10
193.3719230467
20
136.8915846881
11
210.5984666461
21
136.8915846881
0
LINE
5
233
100
AcDbEntity
8
0
100
AcDbLine
62
2
6
CONTINUOUS
10
207.3984666461
20
154.8915846881
11
207.3984666461
21
145.8915846881
0
LINE
5
234
100
AcDbEntity
8
0
100
AcDbLine
62
2
6
CONTINUOUS
10
207.3984666461
20
136.8915846881
11
207.3984666461
21
145.8915846881
0
LINE
5
235
100
AcDbEntity
8
0
100
AcDbLine
62
2
6
CONTINUOUS
10
207.3984666461
20
145.8915846881
11
207.3984666461
21
125.6242961907
0
SOLID
5
236
100
AcDbEntity
8
0
100
AcDbTrace
62
2
6
CONTINUOUS
10
208.1984666461
20
150.3915846881
11
207.3984666461
21
154.8915846881
12
206.5984666461
22
150.3915846881
13
206.5984666461
23
150.3915846881
0
SOLID
5
237
100
AcDbEntity
8
0
100
AcDbTrace
62
2
6
CONTINUOUS
10
206.5984666461
20
141.3915846881
11
207.3984666461
21
136.8915846881
12
208.1984666461
22
141.3915846881
13
208.1984666461
23
141.3915846881
0
ENDBLK
5
238
100
AcDbEntity
8
0
100
AcDbBlockEnd
0
BLOCK
5
239
100
AcDbEntity
8
0
100
AcDbBlockBegin
62
2
6
CONTINUOUS
2
*D2
70
65
10
0.0000000000
20
0.0000000000
3
*D2
1

0
TEXT
5
23A
100
AcDbEntity
8
0
100
AcDbText
62
2
6
CONTINUOUS
10
175.0231118086
20
123.6804407204
7
TEXTSTYLE_1
40
3.5000000000
1
12
50
90.0000000000
41
0.5333333333
72
0
100
AcDbText
0
TEXT
5
23B
100
AcDbEntity
8
0
100
AcDbText
62
2
6
CONTINUOUS
10
172.9231118086
20
127.4137740537
7
TEXTSTYLE_1
40
2.1000000000
1
+0,10
50
90.0000000000
41
0.5033333333
72
0
100
AcDbText
0
TEXT
5
23C
100
AcDbEntity
8
0
100
AcDbText
62
2
6
CONTINUOUS
10
175.7231118086
20
127.4137740537
7
TEXTSTYLE_1
40
2.1000000000
1
+0,05
50
90.0000000000
41
0.5833333333
72
0
100
AcDbText
0
LINE
5
23D
100
AcDbEntity
8
0
100
AcDbLine
62
2
6
CONTINUOUS
10
191.7219230467
20
151.8915846881
11
173.5731118086
21
151.8915846881
0
LINE
5
23E
100
AcDbEntity
8
0
100
AcDbLine
62
2
6
CONTINUOUS
10
191.7219230467
20
139.8915846881
11
173.5731118086
21
139.8915846881
0
LINE
5
23F
100
AcDbEntity
8
0
100
AcDbLine
62
2
6
CONTINUOUS
10
176.7731118086
20
151.8915846881
11
176.7731118086
21
153.8915846881
0
LINE
5
240
100
AcDbEntity
8
0
100
AcDbLine
62
2
6
CONTINUOUS
10
176.7731118086
20
153.8915846881
11
176.7731118086
21
145.8915846881
0
LINE
5
241
100
AcDbEntity
8
0
100
AcDbLine
62
2
6
CONTINUOUS
10
176.7731118086
20
139.8915846881
11
176.7731118086
21
123.6804407204
0
LINE
5
242
100
AcDbEntity
8
0
100
AcDbLine
62
2
6
CONTINUOUS
10
176.7731118086
20
123.6804407204
11
176.7731118086
21
145.8915846881
0
SOLID
5
243
100
AcDbEntity
8
0
100
AcDbTrace
62
2
6
CONTINUOUS
10
175.9731118086
20
156.3915846881
11
176.7731118086
21
151.8915846881
12
177.5731118086
22
156.3915846881
13
177.5731118086
23
156.3915846881
0
SOLID
5
244
100
AcDbEntity
8
0
100
AcDbTrace
62
2
6
CONTINUOUS
10
177.5731118086
20
135.3915846881
11
176.7731118086
21
139.8915846881
12
175.9731118086
22
135.3915846881
13
175.9731118086
23
135.3915846881
0
ENDBLK
5
245
100
AcDbEntity
8
0
100
AcDbBlockEnd
0
BLOCK
5
246
100
AcDbEntity
8
0
100
AcDbBlockBegin
62
2
6
CONTINUOUS
2
N-CAR_BL2
70
64
10
0.0000000000
20
0.0000000000
3
N-CAR_BL2
1

0
TEXT
5
247
100
AcDbEntity
8
0
100
AcDbText
62
2
6
CONTINUOUS
10
150.3658631015
20
39.5264630068
7
STANDARD
40
2.9999987760
1
3,2
41
0.5000000000
72
0
100
AcDbText
0
TEXT
5
248
100
AcDbEntity
8
0
100
AcDbText
62
2
6
CONTINUOUS
10
165.3904610371
20
39.5044169558
7
STANDARD
40
2.9999987760
1
.
41
0.5000000000
72
0
100
AcDbText
0
TEXT
5
249
100
AcDbEntity
8
0
100
AcDbText
62
2
6
CONTINUOUS
10
175.3885204705
20
39.4871184518
7
STANDARD
40
2.9999987760
1
.
41
0.5000000000
72
0
100
AcDbText
0
TEXT
5
24A
100
AcDbEntity
8
0
100
AcDbText
62
2
6
CONTINUOUS
10
185.4369315539
20
39.5129614048
7
STANDARD
40
2.9999987760
1
.
41
0.5000000000
72
0
100
AcDbText
0
LINE
5
24B
100
AcDbEntity
8
0
100
AcDbLine
62
7
6
CONTINUOUS
10
195.5120712574
20
42.3696581028
11
197.5197560349
21
42.3696581028
0
LINE
5
24C
100
AcDbEntity
8
0
100
AcDbLine
62
7
6
CONTINUOUS
10
197.5197560349
20
42.3696581028
11
197.5197560349
21
32.3696621828
0
LINE
5
24D
100
AcDbEntity
8
0
100
AcDbLine
62
7
6
CONTINUOUS
10
195.5120712574
20
32.3696621828
11
197.5197560349
21
32.3696621828
0
LINE
5
24E
100
AcDbEntity
8
0
100
AcDbLine
62
7
6
CONTINUOUS
10
195.1043417519
20
40.5349770444
11
192.0703610147
21
40.5349770444
0
LINE
5
24F
100
AcDbEntity
8
0
100
AcDbLine
62
7
6
CONTINUOUS
10
192.0703610147
20
40.5349770444
11
189.7044800889
21
33.4373342671
0
LINE
5
250
100
AcDbEntity
8
0
100
AcDbLine
62
7
6
CONTINUOUS
10
189.7044800889
20
33.4373342671
11
187.3624598706
21
38.5471965614
0
LINE
5
251
100
AcDbEntity
8
0
100
AcDbLine
62
7
6
CONTINUOUS
10
175.1043499119
20
40.5349770444
11
172.0703691746
21
40.5349770444
0
LINE
5
252
100
AcDbEntity
8
0
100
AcDbLine
62
7
6
CONTINUOUS
10
172.0703691746
20
40.5349770444
11
169.7044882488
21
33.4373342671
0
LINE
5
253
100
AcDbEntity
8
0
100
AcDbLine
62
7
6
CONTINUOUS
10
169.7044882488
20
33.4373342671
11
167.3624680306
21
38.5471965614
0
LINE
5
254
100
AcDbEntity
8
0
100
AcDbLine
62
7
6
CONTINUOUS
10
185.1043458319
20
40.5349770444
11
182.0703650946
21
40.5349770444
0
LINE
5
255
100
AcDbEntity
8
0
100
AcDbLine
62
7
6
CONTINUOUS
10
182.0703650946
20
40.5349770444
11
179.7044841689
21
33.4373342671
0
LINE
5
256
100
AcDbEntity
8
0
100
AcDbLine
62
7
6
CONTINUOUS
10
179.7044841689
20
33.4373342671
11
177.3624639506
21
38.5471965614
0
LINE
5
257
100
AcDbEntity
8
0
100
AcDbLine
62
7
6
CONTINUOUS
10
162.5197703149
20
42.3696581028
11
164.9154378492
21
42.3696581028
0
LINE
5
258
100
AcDbEntity
8
0
100
AcDbLine
62
7
6
CONTINUOUS
10
162.5197703149
20
42.3696581028
11
162.5197703149
21
32.3696621828
0
LINE
5
259
100
AcDbEntity
8
0
100
AcDbLine
62
7
6
CONTINUOUS
10
162.5197703149
20
32.3696621828
11
164.9154378492
21
32.3696621828
0
LINE
5
25A
100
AcDbEntity
8
0
100
AcDbLine
62
7
6
CONTINUOUS
10
160.1043560319
20
40.5349770444
11
157.0703752946
21
40.5349770444
0
LINE
5
25B
100
AcDbEntity
8
0
100
AcDbLine
62
7
6
CONTINUOUS
10
157.0703752946
20
40.5349770444
11
154.7044943688
21
33.4373342671
0
LINE
5
25C
100
AcDbEntity
8
0
100
AcDbLine
62
7
6
CONTINUOUS
10
154.7044943688
20
33.4373342671
11
152.3624741506
21
38.5471965614
0
ARC
5
25D
100
AcDbEntity
8
0
100
AcDbCircle
62
7
6
CONTINUOUS
10
147.1723126431
20
38.2462954967
40
2.4999989800
100
AcDbArc
50
177.5591686478
51
2.4408313522
0
ARC
5
25E
100
AcDbEntity
8
0
100
AcDbCircle
62
7
6
CONTINUOUS
10
142.1723146831
20
38.2462954967
40
2.4999989800
100
AcDbArc
50
0.0000000000
51
177.5591686478
0
ENDBLK
5
25F
100
AcDbEntity
8
0
100
AcDbBlockEnd
0
ENDSEC
0
SECTION
2
ENTITIES
0
TEXT
5
260
100
AcDbEntity
8
0
100
AcDbText
62
2
6
CONTINUOUS
10
289.9260027481
20
9.9313254789
7
STANDARD
40
2.0000000000
1
22/96a
41
0.8000000000
72
0
100
AcDbText
0
INSERT
5
261
100
AcDbEntity
8
0
100
AcDbBlockReference
62
2
6
CONTINUOUS
2
N-DES_BL0
10
0.0000000000
20
0.0000000000
0
INSERT
5
262
100
AcDbEntity
8
0
100
AcDbBlockReference
62
2
6
CONTINUOUS
2
N-CART_BL1
10
0.0000000000
20
0.0000000000
0
SOLID
5
263
100
AcDbEntity
8
0
100
AcDbTrace
62
7
6
CONTINUOUS
10
122.0590151979
20
178.7394164283
11
117.0590151979
21
177.4894164283
12
117.0590151979
22
179.9894164283
13
117.0590151979
23
179.9894164283
0
TEXT
5
264
100
AcDbEntity
8
0
100
AcDbText
62
7
6
CONTINUOUS
10
108.6722897441
20
180.4894164283
7
TEXTSTYLE_1
40
3.5000000000
1
A
41
0.8000000000
72
0
100
AcDbText
0
SOLID
5
265
100
AcDbEntity
8
0
100
AcDbTrace
62
7
6
CONTINUOUS
10
122.0590151979
20
113.4210319545
11
117.0590151979
21
112.1710319545
12
117.0590151979
22
114.6710319545
13
117.0590151979
23
114.6710319545
0
TEXT
5
266
100
AcDbEntity
8
0
100
AcDbText
62
7
6
CONTINUOUS
10
108.6722897441
20
108.1710319545
7
TEXTSTYLE_1
40
3.5000000000
1
A
41
0.8000000000
72
0
100
AcDbText
0
DIMENSION
5
267
100
AcDbEntity
8
0
100
AcDbDimension
62
2
6
CONTINUOUS
2
*D0
10
193.2219230467
20
165.3915029571
11
208.2502214140
21
168.8915029571
70
160
3
DIMSTYLE_1
100
AcDbAlignedDimension
13
191.8719230467
23
156.3915846881
14
193.2219230467
24
156.3915846881
100
AcDbRotatedDimension
0
DIMENSION
5
268
100
AcDbEntity
8
0
100
AcDbDimension
62
2
6
CONTINUOUS
2
*D1
10
207.3984666461
20
136.8915846881
11
204.7734666461
21
129.8242961907
70
160
1
%%c<>
3
DIMSTYLE_2
100
AcDbAlignedDimension
13
194.7219230467
23
154.8915846881
14
193.3719230467
24
136.8915846881
50
270.000000
100
AcDbRotatedDimension
0
DIMENSION
5
269
100
AcDbEntity
8
0
100
AcDbDimension
62
2
6
CONTINUOUS
2
*D2
10
176.7731118086
20
139.8915846881
11
173.2731118086
21
128.6096073870
70
160
3
DIMSTYLE_3
100
AcDbAlignedDimension
13
191.7219230467
23
151.8915846881
14
191.7219230467
24
139.8915846881
50
270.000000
100
AcDbRotatedDimension
0
LINE
5
26A
100
AcDbEntity
8
0
100
AcDbLine
62
2
6
CONTINUOUS
10
133.0031754241
20
76.9983765268
11
299.0031754241
21
76.9983765268
0
LINE
5
26B
100
AcDbEntity
8
0
100
AcDbLine
62
2
6
CONTINUOUS
10
133.0031754241
20
76.9983765268
11
133.0031754241
21
12.9983765268
0
LINE
5
26C
100
AcDbEntity
8
0
100
AcDbLine
62
2
6
CONTINUOUS
10
133.0031754241
20
72.4983765268
11
299.0031754241
21
72.4983765268
0
LINE
5
26D
100
AcDbEntity
8
0
100
AcDbLine
62
2
6
CONTINUOUS
10
133.0031754241
20
67.9983765268
11
299.0031754241
21
67.9983765268
0
LINE
5
26E
100
AcDbEntity
8
0
100
AcDbLine
62
2
6
CONTINUOUS
10
133.0031754241
20
63.4983765268
11
299.0031754241
21
63.4983765268
0
LINE
5
26F
100
AcDbEntity
8
0
100
AcDbLine
62
2
6
CONTINUOUS
10
133.0031754241
20
58.9983765268
11
299.0031754241
21
58.9983765268
0
LINE
5
270
100
AcDbEntity
8
0
100
AcDbLine
62
2
6
CONTINUOUS
10
133.0031754241
20
54.4983765268
11
299.0031754241
21
54.4983765268
0
LINE
5
271
100
AcDbEntity
8
0
100
AcDbLine
62
2
6
CONTINUOUS
10
133.0031754241
20
49.9983765268
11
299.0031754241
21
49.9983765268
0
LINE
5
272
100
AcDbEntity
8
0
100
AcDbLine
62
2
6
CONTINUOUS
10
253.0031754241
20
40.9983765268
11
299.0031754241
21
40.9983765268
0
LINE
5
273
100
AcDbEntity
8
0
100
AcDbLine
62
2
6
CONTINUOUS
10
133.0031754241
20
30.4983765268
11
299.0031754241
21
30.4983765268
0
LINE
5
274
100
AcDbEntity
8
0
100
AcDbLine
62
2
6
CONTINUOUS
10
133.0031754241
20
22.4983765268
11
299.0031754241
21
22.4983765268
0
LINE
5
275
100
AcDbEntity
8
0
100
AcDbLine
62
2
6
CONTINUOUS
10
133.0031754241
20
12.9983765268
11
299.0031754241
21
12.9983765268
0
LINE
5
276
100
AcDbEntity
8
0
100
AcDbLine
62
2
6
CONTINUOUS
10
148.0031754241
20
76.9983765268
11
148.0031754241
21
49.9983765268
0
LINE
5
277
100
AcDbEntity
8
0
100
AcDbLine
62
2
6
CONTINUOUS
10
163.0031754241
20
76.9983765268
11
163.0031754241
21
49.9983765268
0
LINE
5
278
100
AcDbEntity
8
0
100
AcDbLine
62
2
6
CONTINUOUS
10
173.0031754241
20
30.4983765268
11
173.0031754241
21
22.4983765268
0
LINE
5
279
100
AcDbEntity
8
0
100
AcDbLine
62
2
6
CONTINUOUS
10
178.0031754241
20
76.9983765268
11
178.0031754241
21
49.9983765268
0
LINE
5
27A
100
AcDbEntity
8
0
100
AcDbLine
62
2
6
CONTINUOUS
10
193.0031754241
20
76.9983765268
11
193.0031754241
21
49.9983765268
0
LINE
5
27B
100
AcDbEntity
8
0
100
AcDbLine
62
2
6
CONTINUOUS
10
213.0031754241
20
30.4983765268
11
213.0031754241
21
22.4983765268
0
LINE
5
27C
100
AcDbEntity
8
0
100
AcDbLine
62
2
6
CONTINUOUS
10
253.0031754241
20
49.9983765268
11
253.0031754241
21
12.9983765268
0
LINE
5
27D
100
AcDbEntity
8
0
100
AcDbLine
62
2
6
CONTINUOUS
10
279.0031754241
20
40.9983765268
11
279.0031754241
21
30.4983765268
0
LINE
5
27E
100
AcDbEntity
8
0
100
AcDbLine
62
2
6
CONTINUOUS
10
299.0031754241
20
76.9983765268
11
299.0031754241
21
12.9983765268
0
TEXT
5
27F
100
AcDbEntity
8
0
100
AcDbText
62
2
6
CONTINUOUS
10
139.7031754241
20
73.7483765268
7
STANDARD
40
2.0000000000
1
D
41
0.8000000000
72
1
11
140.5031754241
21
73.7483765268
100
AcDbText
0
TEXT
5
280
100
AcDbEntity
8
0
100
AcDbText
62
2
6
CONTINUOUS
10
139.7031754241
20
69.2483765268
7
STANDARD
40
2.0000000000
1
C
41
0.8000000000
72
1
11
140.5031754241
21
69.2483765268
100
AcDbText
0
TEXT
5
281
100
AcDbEntity
8
0
100
AcDbText
62
2
6
CONTINUOUS
10
139.7031754241
20
64.7483765268
7
STANDARD
40
2.0000000000
1
B
41
0.8000000000
72
1
11
140.5031754241
21
64.7483765268
100
AcDbText
0
TEXT
5
282
100
AcDbEntity
8
0
100
AcDbText
62
2
6
CONTINUOUS
10
139.7031754241
20
60.2483765268
7
STANDARD
40
2.0000000000
1
A
41
0.8000000000
72
1
11
140.5031754241
21
60.2483765268
100
AcDbText
0
TEXT
5
283
100
AcDbEntity
8
0
100
AcDbText
62
2
6
CONTINUOUS
10
169.7031754241
20
60.2483765268
7
STANDARD
40
2.0000000000
1
 
41
0.8000000000
72
1
11
170.5031754241
21
60.2483765268
100
AcDbText
0
TEXT
5
284
100
AcDbEntity
8
0
100
AcDbText
62
2
6
CONTINUOUS
10
184.7031754241
20
60.2483765268
7
STANDARD
40
2.0000000000
1
 
41
0.8000000000
72
1
11
185.5031754241
21
60.2483765268
100
AcDbText
0
TEXT
5
285
100
AcDbEntity
8
0
100
AcDbText
62
2
6
CONTINUOUS
10
137.3031754241
20
55.7483765268
7
STANDARD
40
2.0000000000
1
IND.
41
0.8000000000
72
1
11
140.5031754241
21
55.7483765268
100
AcDbText
0
TEXT
5
286
100
AcDbEntity
8
0
100
AcDbText
62
2
6
CONTINUOUS
10
152.3031754241
20
55.7483765268
7
STANDARD
40
2.0000000000
1
DATE
41
0.8000000000
72
1
11
155.5031754241
21
55.7483765268
100
AcDbText
0
TEXT
5
287
100
AcDbEntity
8
0
100
AcDbText
62
2
6
CONTINUOUS
10
166.5031754241
20
55.7483765268
7
STANDARD
40
2.0000000000
1
DESS.
41
0.8000000000
72
1
11
170.5031754241
21
55.7483765268
100
AcDbText
0
TEXT
5
288
100
AcDbEntity
8
0
100
AcDbText
62
2
6
CONTINUOUS
10
180.7031754241
20
55.7483765268
7
STANDARD
40
2.0000000000
1
VERIF.
41
0.8000000000
72
1
11
185.5031754241
21
55.7483765268
100
AcDbText
0
TEXT
5
289
100
AcDbEntity
8
0
100
AcDbText
62
2
6
CONTINUOUS
10
235.6031754241
20
55.7483765268
7
STANDARD
40
2.0000000000
1
MODIFICATIONS
41
0.8000000000
72
1
11
246.0031754241
21
55.7483765268
100
AcDbText
0
TEXT
5
28A
100
AcDbEntity
8
0
100
AcDbText
62
2
6
CONTINUOUS
10
134.1031754241
20
51.2483765268
7
STANDARD
40
2.0000000000
1
Création
41
0.8000000000
72
1
11
140.5031754241
21
51.2483765268
100
AcDbText
0
TEXT
5
28B
100
AcDbEntity
8
0
100
AcDbText
62
2
6
CONTINUOUS
10
148.3031754241
20
51.2483765268
7
STANDARD
40
2.0000000000
1
07-Dec-21
41
0.8000000000
72
1
11
155.5031754241
21
51.2483765268
100
AcDbText
0
TEXT
5
28C
100
AcDbEntity
8
0
100
AcDbText
62
2
6
CONTINUOUS
10
165.7031754241
20
51.2483765268
7
STANDARD
40
2.0000000000
1
BALLON
41
0.8000000000
72
1
11
170.5031754241
21
51.2483765268
100
AcDbText
0
TEXT
5
28D
100
AcDbEntity
8
0
100
AcDbText
62
2
6
CONTINUOUS
10
183.1031754241
20
51.2483765268
7
STANDARD
40
2.0000000000
1
B.L
41
0.8000000000
72
1
11
185.5031754241
21
51.2483765268
100
AcDbText
0
TEXT
5
28E
100
AcDbEntity
8
0
100
AcDbText
62
2
6
CONTINUOUS
10
193.0656754241
20
51.2483765268
7
STANDARD
40
2.0000000000
1
Annule et remplace plan N%%d:                       ind:
41
0.7975308642
72
0
100
AcDbText
0
TEXT
5
28F
100
AcDbEntity
8
0
100
AcDbText
62
2
6
CONTINUOUS
10
134.4031754241
20
46.7483765268
7
STANDARD
40
2.0000000000
1
ETAT DE SURFACES:
41
0.8000000000
72
1
11
148.0031754241
21
46.7483765268
100
AcDbText
0
TEXT
5
290
100
AcDbEntity
8
0
100
AcDbText
62
2
6
CONTINUOUS
10
196.6031754241
20
46.7483765268
7
STANDARD
40
2.0000000000
1
CASSER LES ANGLES VIFS: 0,5 x 0,5
41
0.8000000000
72
1
11
223.0031754241
21
46.7483765268
100
AcDbText
0
TEXT
5
291
100
AcDbEntity
8
0
100
AcDbText
62
2
6
CONTINUOUS
10
258.6365087574
20
33.7483765268
7
TEXTSTYLE_1
40
4.0000000000
1
ECH: 
41
0.6700000000
72
1
11
265.3365087574
21
33.7483765268
100
AcDbText
0
TEXT
5
292
100
AcDbEntity
8
0
100
AcDbText
62
2
6
CONTINUOUS
10
272.0365087574
20
33.7483765268
7
TEXTSTYLE_1
40
4.0000000000
1
1
41
0.3333333333
72
1
11
272.7031754241
21
33.7483765268
100
AcDbText
0
TEXT
5
293
100
AcDbEntity
8
0
100
AcDbText
62
2
6
CONTINUOUS
10
285.8031754241
20
34.3460327768
7
TEXTSTYLE_1
40
4.0000000000
1
A4
41
0.8000000000
72
1
11
289.0031754241
21
34.3460327768
100
AcDbText
0
TEXT
5
294
100
AcDbEntity
8
0
100
AcDbText
62
2
6
CONTINUOUS
10
288.9406754241
20
33.1507202768
7
STANDARD
40
0.1562500000
1
 
41
0.8000000000
72
1
11
289.0031754241
21
33.1507202768
100
AcDbText
0
TEXT
5
295
100
AcDbEntity
8
0
100
AcDbText
62
2
6
CONTINUOUS
10
202.2031754241
20
33.2483765268
7
STANDARD
40
2.0000000000
1
TOL. GENERALE: JS13 - js13
41
0.8000000000
72
1
11
223.0031754241
21
33.2483765268
100
AcDbText
0
TEXT
5
296
100
AcDbEntity
8
0
100
AcDbText
62
2
6
CONTINUOUS
10
133.0656754241
20
30.2640015268
7
STANDARD
40
0.1562500000
1
 
41
0.8000000000
72
0
100
AcDbText
0
TEXT
5
297
100
AcDbEntity
8
0
100
AcDbText
62
2
6
CONTINUOUS
10
133.0656754241
20
27.7249390268
7
STANDARD
40
2.0000000000
1
MATIERE
41
0.8000000000
72
0
100
AcDbText
0
TEXT
5
298
100
AcDbEntity
8
0
100
AcDbText
62
2
6
CONTINUOUS
10
133.0656754241
20
23.4749390268
7
STANDARD
40
3.0000000000
1
 
41
0.8000000000
72
0
100
AcDbText
0
TEXT
5
299
100
AcDbEntity
8
0
100
AcDbText
62
2
6
CONTINUOUS
10
173.0656754241
20
30.2640015268
7
STANDARD
40
0.1562500000
1
 
41
0.8000000000
72
0
100
AcDbText
0
TEXT
5
29A
100
AcDbEntity
8
0
100
AcDbText
62
2
6
CONTINUOUS
10
173.0656754241
20
27.7249390268
7
STANDARD
40
2.0000000000
1
TRAITEMENT
41
0.8000000000
72
0
100
AcDbText
0
TEXT
5
29B
100
AcDbEntity
8
0
100
AcDbText
62
2
6
CONTINUOUS
10
213.0656754241
20
30.2640015268
7
STANDARD
40
0.1562500000
1
 
41
0.8000000000
72
0
100
AcDbText
0
TEXT
5
29C
100
AcDbEntity
8
0
100
AcDbText
62
2
6
CONTINUOUS
10
213.0656754241
20
27.7249390268
7
STANDARD
40
2.0000000000
1
PROTECTION
41
0.8000000000
72
0
100
AcDbText
0
TEXT
5
29D
100
AcDbEntity
8
0
100
AcDbText
62
2
6
CONTINUOUS
10
258.5865087574
20
23.9598099971
7
TEXTSTYLE_1
40
5.0000000000
1
FSM France
41
0.6966666667
51
10.0000000000
72
1
11
276.0031754241
21
23.9598099971
100
AcDbText
0
TEXT
5
29E
100
AcDbEntity
8
0
100
AcDbText
62
2
6
CONTINUOUS
10
152.9406754241
20
27.2640015268
7
STANDARD
40
0.1562500000
1
 
41
0.8000000000
72
1
11
153.0031754241
21
27.2640015268
100
AcDbText
0
TEXT
5
29F
100
AcDbEntity
8
0
100
AcDbText
62
2
6
CONTINUOUS
10
144.0031754241
20
23.4749390268
7
TEXTSTYLE_1
40
3.0000000000
1
INOX 316L
41
0.6666666667
72
1
11
153.0031754241
21
23.4749390268
100
AcDbText
0
TEXT
5
2A0
100
AcDbEntity
8
0
100
AcDbText
62
2
6
CONTINUOUS
10
151.8031754241
20
18.9749390268
7
STANDARD
40
3.0000000000
1
 
41
0.8000000000
72
1
11
153.0031754241
21
18.9749390268
100
AcDbText
0
TEXT
5
2A1
100
AcDbEntity
8
0
100
AcDbText
62
2
6
CONTINUOUS
10
192.9406754241
20
27.2640015268
7
STANDARD
40
0.1562500000
1
 
41
0.8000000000
72
1
11
193.0031754241
21
27.2640015268
100
AcDbText
0
TEXT
5
2A2
100
AcDbEntity
8
0
100
AcDbText
62
2
6
CONTINUOUS
10
193.0031754241
20
27.2249390268
7
TEXTSTYLE_1
40
3.0000000000
1

41
1.0000000000
72
1
11
193.0031754241
21
27.2249390268
100
AcDbText
0
TEXT
5
2A3
100
AcDbEntity
8
0
100
AcDbText
62
2
6
CONTINUOUS
10
191.8031754241
20
23.4749390268
7
STANDARD
40
3.0000000000
1
 
41
0.8000000000
72
1
11
193.0031754241
21
23.4749390268
100
AcDbText
0
TEXT
5
2A4
100
AcDbEntity
8
0
100
AcDbText
62
2
6
CONTINUOUS
10
232.9406754241
20
27.2640015268
7
STANDARD
40
0.1562500000
1
 
41
0.8000000000
72
1
11
233.0031754241
21
27.2640015268
100
AcDbText
0
TEXT
5
2A5
100
AcDbEntity
8
0
100
AcDbText
62
2
6
CONTINUOUS
10
233.0031754241
20
27.2249390268
7
TEXTSTYLE_1
40
3.0000000000
1

41
1.0000000000
72
1
11
233.0031754241
21
27.2249390268
100
AcDbText
0
TEXT
5
2A6
100
AcDbEntity
8
0
100
AcDbText
62
2
6
CONTINUOUS
10
231.8031754241
20
23.4749390268
7
STANDARD
40
3.0000000000
1
 
41
0.8000000000
72
1
11
233.0031754241
21
23.4749390268
100
AcDbText
0
TEXT
5
2A7
100
AcDbEntity
8
0
100
AcDbText
62
2
6
CONTINUOUS
10
136.9094254241
20
15.4554077768
7
TEXTSTYLE_1
40
5.0000000000
1
DESIGNATION :
41
0.4951923077
72
1
11
153.0031754241
21
15.4554077768
100
AcDbText
0
TEXT
5
2A8
100
AcDbEntity
8
0
100
AcDbText
62
2
6
CONTINUOUS
10
152.9406754241
20
15.0413452768
7
STANDARD
40
0.1562500000
1
 
41
0.8000000000
72
1
11
153.0031754241
21
15.0413452768
100
AcDbText
0
TEXT
5
2A9
100
AcDbEntity
8
0
100
AcDbText
62
2
6
CONTINUOUS
10
191.0031754241
20
15.4554077768
7
TEXTSTYLE_1
40
5.0000000000
1
RONDELLE ARRIERE
41
0.5500000000
72
1
11
213.0031754241
21
15.4554077768
100
AcDbText
0
TEXT
5
2AA
100
AcDbEntity
8
0
100
AcDbText
62
2
6
CONTINUOUS
10
212.9406754241
20
15.0413452768
7
STANDARD
40
0.1562500000
1
 
41
0.8000000000
72
1
11
213.0031754241
21
15.0413452768
100
AcDbText
0
TEXT
5
2AB
100
AcDbEntity
8
0
100
AcDbText
62
2
6
CONTINUOUS
10
259.9094254241
20
15.2483765268
7
TEXTSTYLE_1
40
5.0000000000
1
 N : 
41
0.5125000000
72
1
11
266.3156754241
21
15.2483765268
100
AcDbText
0
TEXT
5
2AC
100
AcDbEntity
8
0
100
AcDbText
62
2
6
CONTINUOUS
10
272.7219254241
20
15.2483765268
7
TEXTSTYLE_1
40
5.0000000000
1
100034-B
41
0.4843750000
72
1
11
282.4094254241
21
15.2483765268
100
AcDbText
0
TEXT
5
2AD
100
AcDbEntity
8
0
100
AcDbText
62
2
6
CONTINUOUS
10
184.9631568457
20
185.4994723296
7
TEXTSTYLE_1
40
3.5000000000
1
COUPE 
41
0.7666666667
72
0
100
AcDbText
0
TEXT
5
2AE
100
AcDbEntity
8
0
100
AcDbText
62
2
6
CONTINUOUS
10
201.0631568457
20
185.4994723296
7
TEXTSTYLE_1
40
3.5000000000
1
A-A
41
0.6555555556
72
0
100
AcDbText
0
INSERT
5
2AF
100
AcDbEntity
8
0
100
AcDbBlockReference
62
2
6
CONTINUOUS
2
N-CAR_BL2
10
0.0000000000
20
0.0000000000
0
LINE
5
2B0
100
AcDbEntity
8
0
100
AcDbLine
62
7
6
CONTINUOUS
10
7.0000000000
20
8.0000000000
11
7.0000000000
21
218.0000000000
0
LINE
5
2B1
100
AcDbEntity
8
0
100
AcDbLine
62
7
6
CONTINUOUS
10
12.0000000000
20
13.0000000000
11
12.0000000000
21
213.0000000000
0
LINE
5
2B2
100
AcDbEntity
8
0
100
AcDbLine
62
7
6
CONTINUOUS
10
7.0000000000
20
8.0000000000
11
304.0000000000
21
8.0000000000
0
LINE
5
2B3
100
AcDbEntity
8
0
100
AcDbLine
62
7
6
CONTINUOUS
10
12.0000000000
20
13.0000000000
11
299.0000000000
21
13.0000000000
0
LINE
5
2B4
100
AcDbEntity
8
0
100
AcDbLine
62
7
6
CONTINUOUS
10
7.0000000000
20
113.0000000000
11
12.0000000000
21
115.8867513459
0
LINE
5
2B5
100
AcDbEntity
8
0
100
AcDbLine
62
7
6
CONTINUOUS
10
7.0000000000
20
113.0000000000
11
12.0000000000
21
110.1132486541
0
LINE
5
2B6
100
AcDbEntity
8
0
100
AcDbLine
62
7
6
CONTINUOUS
10
152.6132486541
20
213.0000000000
11
155.5000000000
21
218.0000000000
0
LINE
5
2B7
100
AcDbEntity
8
0
100
AcDbLine
62
7
6
CONTINUOUS
10
155.5000000000
20
8.0000000000
11
152.6132486541
21
13.0000000000
0
LINE
5
2B8
100
AcDbEntity
8
0
100
AcDbLine
62
7
6
CONTINUOUS
10
155.5000000000
20
8.0000000000
11
158.3867513459
21
13.0000000000
0
LINE
5
2B9
100
AcDbEntity
8
0
100
AcDbLine
62
7
6
CONTINUOUS
10
158.3867513459
20
213.0000000000
11
155.5000000000
21
218.0000000000
0
LINE
5
2BA
100
AcDbEntity
8
0
100
AcDbLine
62
7
6
CONTINUOUS
10
299.0000000000
20
110.1132486541
11
304.0000000000
21
113.0000000000
0
LINE
5
2BB
100
AcDbEntity
8
0
100
AcDbLine
62
7
6
CONTINUOUS
10
299.0000000000
20
115.8867513459
11
304.0000000000
21
113.0000000000
0
LINE
5
2BC
100
AcDbEntity
8
0
100
AcDbLine
62
7
6
CONTINUOUS
10
12.0000000000
20
213.0000000000
11
299.0000000000
21
213.0000000000
0
LINE
5
2BD
100
AcDbEntity
8
0
100
AcDbLine
62
7
6
CONTINUOUS
10
7.0000000000
20
218.0000000000
11
304.0000000000
21
218.0000000000
0
LINE
5
2BE
100
AcDbEntity
8
0
100
AcDbLine
62
7
6
CONTINUOUS
10
299.0000000000
20
13.0000000000
11
299.0000000000
21
213.0000000000
0
LINE
5
2BF
100
AcDbEntity
8
0
100
AcDbLine
62
7
6
CONTINUOUS
10
304.0000000000
20
8.0000000000
11
304.0000000000
21
218.0000000000
0
LINE
5
2C0
100
AcDbEntity
8
0
100
AcDbLine
62
7
6
CONTINUOUS
10
191.8719230467
20
136.8915846881
11
193.2219230467
21
136.8915846881
0
LINE
5
2C1
100
AcDbEntity
8
0
100
AcDbLine
62
2
6
CONTINUOUS
10
191.8719230467
20
154.4222346881
11
192.3412730467
21
154.8915846881
0
LINE
5
2C2
100
AcDbEntity
8
0
100
AcDbLine
62
7
6
CONTINUOUS
10
191.8719230467
20
139.8915846881
11
193.2219230467
21
139.8915846881
0
LINE
5
2C3
100
AcDbEntity
8
0
100
AcDbLine
62
2
6
CONTINUOUS
10
191.8719230467
20
152.9683885343
11
193.2219230467
21
154.3183885343
0
LINE
5
2C4
100
AcDbEntity
8
0
100
AcDbLine
62
2
6
CONTINUOUS
10
192.2489653544
20
151.8915846881
11
193.2219230467
21
152.8645423804
0
LINE
5
2C5
100
AcDbEntity
8
0
100
AcDbLine
62
7
6
CONTINUOUS
10
191.8719230467
20
136.8915846881
11
191.8719230467
21
154.8915846881
0
LINE
5
2C6
100
AcDbEntity
8
DEFAULT_1
100
AcDbLine
62
2
6
CENTER
10
208.9793151840
20
145.8915846881
11
189.3719230467
21
145.8915846881
0
LINE
5
2C7
100
AcDbEntity
8
0
100
AcDbLine
62
7
6
CONTINUOUS
10
193.2219230467
20
136.8915846881
11
193.2219230467
21
154.8915846881
0
LINE
5
2C8
100
AcDbEntity
8
0
100
AcDbLine
62
2
6
CONTINUOUS
10
191.8719230467
20
139.8837731497
11
191.8797345852
21
139.8915846881
0
LINE
5
2C9
100
AcDbEntity
8
0
100
AcDbLine
62
2
6
CONTINUOUS
10
191.8719230467
20
138.4299269958
11
193.2219230467
21
139.7799269958
0
LINE
5
2CA
100
AcDbEntity
8
0
100
AcDbLine
62
2
6
CONTINUOUS
10
191.8719230467
20
136.9760808420
11
193.2219230467
21
138.3260808420
0
LINE
5
2CB
100
AcDbEntity
8
0
100
AcDbLine
62
7
6
CONTINUOUS
10
191.8719230467
20
151.8915846881
11
193.2219230467
21
151.8915846881
0
LINE
5
2CC
100
AcDbEntity
8
0
100
AcDbLine
62
7
6
CONTINUOUS
10
191.8719230467
20
154.8915846881
11
193.2219230467
21
154.8915846881
0
LINE
5
2CD
100
AcDbEntity
8
0
100
AcDbLine
62
7
6
CONTINUOUS
10
122.0590151979
20
113.4210319545
11
117.2722897441
21
113.4210319545
0
LINE
5
2CE
100
AcDbEntity
8
0
100
AcDbLine
62
5
6
CONTINUOUS
10
117.2722897441
20
113.4210319545
11
107.2722897441
21
113.4210319545
0
LINE
5
2CF
100
AcDbEntity
8
0
100
AcDbLine
62
5
6
PHANTOM
10
122.0590151979
20
178.7394164283
11
122.0590151979
21
168.7394164283
0
LINE
5
2D0
100
AcDbEntity
8
0
100
AcDbLine
62
2
6
PHANTOM
10
122.0590151979
20
168.7394164283
11
122.0590151979
21
156.8915846881
0
LINE
5
2D1
100
AcDbEntity
8
0
100
AcDbLine
62
2
6
PHANTOM
10
122.0590151979
20
134.8915846881
11
122.0590151979
21
123.4210319545
0
LINE
5
2D2
100
AcDbEntity
8
DEFAULT_1
100
AcDbLine
62
2
6
CENTER
10
122.0590151979
20
145.8915846881
11
122.0590151979
21
134.8915846881
0
LINE
5
2D3
100
AcDbEntity
8
0
100
AcDbLine
62
5
6
PHANTOM
10
122.0590151979
20
123.4210319545
11
122.0590151979
21
113.4210319545
0
LINE
5
2D4
100
AcDbEntity
8
DEFAULT_1
100
AcDbLine
62
2
6
CENTER
10
122.0590151979
20
145.8915846881
11
122.0590151979
21
156.8915846881
0
LINE
5
2D5
100
AcDbEntity
8
DEFAULT_1
100
AcDbLine
62
2
6
CENTER
10
122.0590151979
20
145.8915846881
11
111.0590151979
21
145.8915846881
0
LINE
5
2D6
100
AcDbEntity
8
DEFAULT_1
100
AcDbLine
62
2
6
CENTER
10
122.0590151979
20
145.8915846881
11
133.0590151979
21
145.8915846881
0
LINE
5
2D7
100
AcDbEntity
8
0
100
AcDbLine
62
7
6
CONTINUOUS
10
122.0590151979
20
178.7394164283
11
117.2722897441
21
178.7394164283
0
LINE
5
2D8
100
AcDbEntity
8
0
100
AcDbLine
62
5
6
CONTINUOUS
10
117.2722897441
20
178.7394164283
11
107.2722897441
21
178.7394164283
0
CIRCLE
5
2D9
100
AcDbEntity
8
0
100
AcDbCircle
62
7
6
CONTINUOUS
10
122.0590151979
20
145.8915846881
40
9.0000000000
0
CIRCLE
5
2DA
100
AcDbEntity
8
0
100
AcDbCircle
62
7
6
CONTINUOUS
10
122.0590151979
20
145.8915846881
40
6.0000000000
0
ENDSEC
0
SECTION
2
OBJECTS
0
DICTIONARY
5
2DB
100
AcDbDictionary
3
ACAD_GROUP
350
2DC
3
ACAD_MLINESTYLE
350
2DD
0
DICTIONARY
5
2DC
102
{ACAD_REACTORS
330
2DB
102
}
100
AcDbDictionary
0
DICTIONARY
5
2DD
102
{ACAD_REACTORS
330
2DB
102
}
100
AcDbDictionary
3
STANDARD
350
2DE
0
MLINESTYLE
5
2DE
102
{ACAD_REACTORS
330
2DD
102
}
100
AcDbMlineStyle
2
STANDARD
70
0
3

62
256
51
90.0
52
90.0
71
2
49
0.5
62
256
6
BYLAYER
49
-0.5
62
256
6
BYLAYER
0
ENDSEC
0
EOF
