999
dxfrw 0.6.3
  0
SECTION
  2
HEADER
  9
$ACADVER
  1
AC1021
  9
$DWGCODEPAGE
  3
ANSI_1252
  9
$INSBASE
 10
0
 20
0
 30
0
  9
$EXTMIN
 10
-58.60674624486523
 20
-0.02470111059660056
 30
0
  9
$EXTMAX
 10
178
 20
449.6517996479863
 30
0
  9
$LIMMIN
 10
0
 20
0
  9
$LIMMAX
 10
420
 20
297
  9
$ORTHOMODE
 70
    0
  9
$REGENMODE
 70
    1
  9
$FILLMODE
 70
    1
  9
$QTEXTMODE
 70
    0
  9
$MIRRTEXT
 70
    0
  9
$LTSCALE
 40
1
  9
$ATTMODE
 70
    0
  9
$TEXTSIZE
 40
2.5
  9
$TRACEWID
 40
15.68
  9
$TEXTSTYLE
  7
STANDARD
  9
$CLAYER
  8
Cotes
  9
$CELTYPE
  6
BYLAYER
  9
$CECOLOR
 62
  256
  9
$CELTSCALE
 40
1
  9
$DISPSILH
 70
    0
  9
$DIMSCALE
 40
2
  9
$DIMASZ
 40
2.5
  9
$DIMEXO
 40
0.625
  9
$DIMDLI
 40
3.75
  9
$DIMRND
 40
0
  9
$DIMDLE
 40
0
  9
$DIMEXE
 40
1.25
  9
$DIMTP
 40
0
  9
$DIMTM
 40
0
  9
$DIMTXT
 40
2.5
  9
$DIMCEN
 40
2.5
  9
$DIMTSZ
 40
0
  9
$DIMTOL
 70
    0
  9
$DIMLIM
 70
    0
  9
$DIMTIH
 70
    0
  9
$DIMTOH
 70
    0
  9
$DIMSE1
 70
    0
  9
$DIMSE2
 70
    0
  9
$DIMTAD
 70
    1
  9
$DIMZIN
 70
    8
  9
$DIMBLK
  1

  9
$DIMASO
 70
    1
  9
$DIMSHO
 70
    1
  9
$DIMPOST
  1

  9
$DIMAPOST
  1

  9
$DIMALT
 70
    0
  9
$DIMALTD
 70
    3
  9
$DIMALTF
 40
0.03937
  9
$DIMLFAC
 40
1
  9
$DIMTOFL
 70
    1
  9
$DIMTVP
 40
0
  9
$DIMTIX
 70
    0
  9
$DIMSOXD
 70
    0
  9
$DIMSAH
 70
    0
  9
$DIMBLK1
  1

  9
$DIMBLK2
  1

  9
$DIMSTYLE
  2
STANDARD
  9
$DIMCLRD
 70
    0
  9
$DIMCLRE
 70
    0
  9
$DIMCLRT
 70
    0
  9
$DIMTFAC
 40
1
  9
$DIMGAP
 40
0.625
  9
$DIMJUST
 70
    0
  9
$DIMSD1
 70
    0
  9
$DIMSD2
 70
    0
  9
$DIMTOLJ
 70
    0
  9
$DIMTZIN
 70
    8
  9
$DIMALTZ
 70
    0
  9
$DIMALTTZ
 70
    0
  9
$DIMUPT
 70
    0
  9
$DIMDEC
 70
    0
  9
$DIMTDEC
 70
    2
  9
$DIMALTU
 70
    2
  9
$DIMALTTD
 70
    3
  9
$DIMTXSTY
  7
standard
  9
$DIMAUNIT
 70
    0
  9
$DIMADEC
 70
    2
  9
$DIMALTRND
 40
0
  9
$DIMAZIN
 70
    0
  9
$DIMDSEP
 70
    0
  9
$DIMATFIT
 70
    3
  9
$DIMFRAC
 70
    0
  9
$DIMLDRBLK
  1
STANDARD
  9
$DIMLUNIT
 70
    2
  9
$DIMLWD
 70
   -2
  9
$DIMLWE
 70
   -2
  9
$DIMTMOVE
 70
    0
  9
$DIMFXL
 40
1
  9
$DIMFXLON
 70
    0
  9
$DIMJOGANG
 40
0.7854
  9
$DIMTFILL
 70
    0
  9
$DIMTFILLCLR
 70
    0
  9
$DIMARCSYM
 70
    0
  9
$DIMLTYPE
  6

  9
$DIMLTEX1
  6

  9
$DIMLTEX2
  6

  9
$LUNITS
 70
    2
  9
$LUPREC
 70
    4
  9
$SKETCHINC
 40
1
  9
$FILLETRAD
 40
0
  9
$AUNITS
 70
    0
  9
$AUPREC
 70
    2
  9
$MENU
  1
.
  9
$ELEVATION
 40
0
  9
$PELEVATION
 40
0
  9
$THICKNESS
 40
0
  9
$LIMCHECK
 70
    0
  9
$CHAMFERA
 40
0
  9
$CHAMFERB
 40
0
  9
$CHAMFERC
 40
0
  9
$CHAMFERD
 40
0
  9
$SKPOLY
 70
    0
  9
$USRTIMER
 70
    1
  9
$ANGBASE
 50
0
  9
$ANGDIR
 70
    0
  9
$PDMODE
 70
   34
  9
$PDSIZE
 40
0
  9
$PLINEWID
 40
0
  9
$SPLFRAME
 70
    0
  9
$SPLINETYPE
 70
    2
  9
$SPLINESEGS
 70
    8
  9
$HANDSEED
  5
20000
  9
$SURFTAB1
 70
    6
  9
$SURFTAB2
 70
    6
  9
$SURFTYPE
 70
    6
  9
$SURFU
 70
    6
  9
$SURFV
 70
    6
  9
$UCSBASE
  2

  9
$UCSNAME
  2

  9
$UCSORG
 10
0
 20
0
 30
0
  9
$UCSXDIR
 10
1
 20
0
 30
0
  9
$UCSYDIR
 10
0
 20
1
 30
0
  9
$UCSORTHOREF
  2

  9
$UCSORTHOVIEW
 70
    0
  9
$UCSORGTOP
 10
0
 20
0
 30
0
  9
$UCSORGBOTTOM
 10
0
 20
0
 30
0
  9
$UCSORGLEFT
 10
0
 20
0
 30
0
  9
$UCSORGRIGHT
 10
0
 20
0
 30
0
  9
$UCSORGFRONT
 10
0
 20
0
 30
0
  9
$UCSORGBACK
 10
0
 20
0
 30
0
  9
$PUCSBASE
  2

  9
$PUCSNAME
  2

  9
$PUCSORG
 10
0
 20
0
 30
0
  9
$PUCSXDIR
 10
1
 20
0
 30
0
  9
$PUCSYDIR
 10
0
 20
1
 30
0
  9
$PUCSORTHOREF
  2

  9
$PUCSORTHOVIEW
 70
    0
  9
$PUCSORGTOP
 10
0
 20
0
 30
0
  9
$PUCSORGBOTTOM
 10
0
 20
0
 30
0
  9
$PUCSORGLEFT
 10
0
 20
0
 30
0
  9
$PUCSORGRIGHT
 10
0
 20
0
 30
0
  9
$PUCSORGFRONT
 10
0
 20
0
 30
0
  9
$PUCSORGBACK
 10
0
 20
0
 30
0
  9
$USERI1
 70
    0
  9
$USERI2
 70
    0
  9
$USERI3
 70
    0
  9
$USERI4
 70
    0
  9
$USERI5
 70
    0
  9
$USERR1
 40
0
  9
$USERR2
 40
0
  9
$USERR3
 40
0
  9
$USERR4
 40
0
  9
$USERR5
 40
0
  9
$WORLDVIEW
 70
    1
  9
$SHADEDGE
 70
    3
  9
$SHADEDIF
 70
   70
  9
$TILEMODE
 70
    1
  9
$MAXACTVP
 70
   64
  9
$PINSBASE
 10
68.89074705192185
 20
12.51494119010209
 30
0
  9
$PLIMCHECK
 70
    0
  9
$PEXTMIN
 10
0
 20
0
 30
0
  9
$PEXTMAX
 10
0
 20
0
 30
0
  9
$GRIDMODE
 70
    0
  9
$SNAPSTYLE
 70
    0
  9
$PLIMMIN
 10
0
 20
0
  9
$PLIMMAX
 10
210
 20
297
  9
$UNITMODE
 70
    0
  9
$VISRETAIN
 70
    1
  9
$PLINEGEN
 70
    0
  9
$PSLTSCALE
 70
    1
  9
$TREEDEPTH
 70
 3020
  9
$CMLSTYLE
  2
Standard
  9
$CMLJUST
 70
    0
  9
$CMLSCALE
 40
20
  9
$PROXYGRAPHICS
 70
    1
  9
$MEASUREMENT
 70
    1
  9
$CELWEIGHT
370
   -1
  9
$ENDCAPS
280
    0
  9
$JOINSTYLE
280
    0
  9
$LWDISPLAY
290
    0
  9
$INSUNITS
 70
    0
  9
$HYPERLINKBASE
  1

  9
$STYLESHEET
  1

  9
$XEDIT
290
    1
  9
$CEPSNTYPE
380
    0
  9
$PSTYLEMODE
290
    1
  9
$EXTNAMES
290
    1
  9
$PSVPSCALE
 40
0.6048801732376816
  9
$OLESTARTUP
290
    0
  9
$SORTENTS
280
  127
  9
$INDEXCTL
280
    0
  9
$HIDETEXT
280
    1
  9
$XCLIPFRAME
290
    0
  9
$HALOGAP
280
    0
  9
$OBSCOLOR
 70
  257
  9
$OBSLTYPE
280
    0
  9
$INTERSECTIONDISPLAY
280
    0
  9
$INTERSECTIONCOLOR
 70
  257
  9
$DIMASSOC
280
    1
  9
$PROJECTNAME
  1

  9
$CAMERADISPLAY
290
    0
  9
$LENSLENGTH
 40
50
  9
$CAMERAHEIGHT
 40
0
  9
$STEPSPERSEC
 40
2
  9
$STEPSIZE
 40
50
  9
$3DDWFPREC
 40
2
  9
$PSOLWIDTH
 40
5
  9
$PSOLHEIGHT
 40
80
  9
$LOFTANG1
 40
1.570796326794897
  9
$LOFTANG2
 40
1.570796326794897
  9
$LOFTMAG1
 40
0
  9
$LOFTMAG2
 40
0
  9
$LOFTPARAM
 70
    7
  9
$LOFTNORMALS
280
    1
  9
$LATITUDE
 40
1
  9
$LONGITUDE
 40
1
  9
$NORTHDIRECTION
 40
0
  9
$TIMEZONE
 70
-8000
  9
$LIGHTGLYPHDISPLAY
280
    1
  9
$TILEMODELIGHTSYNCH
280
    1
  9
$SOLIDHIST
280
    1
  9
$SHOWHIST
280
    1
  9
$DWFFRAME
280
    2
  9
$DGNFRAME
280
    0
  9
$REALWORLDSCALE
290
    1
  9
$INTERFERECOLOR
 62
    1
  9
$CSHADOW
280
    0
  9
$SHADOWPLANELOCATION
 40
0
  0
ENDSEC
  0
SECTION
  2
CLASSES
  0
ENDSEC
  0
SECTION
  2
TABLES
  0
TABLE
  2
VPORT
  5
8
330
0
100
AcDbSymbolTable
 70
    1
  0
VPORT
  5
31
330
2
100
AcDbSymbolTableRecord
100
AcDbViewportTableRecord
  2
*ACTIVE
 70
    0
 10
0
 20
0
 11
1
 21
1
 12
-167.2357968751075
 22
-8.728381882834421
 13
0
 23
0
 14
10
 24
10
 15
10
 25
10
 16
0
 26
0
 36
1
 17
0
 27
0
 37
0
 40
37.7066097338447
 41
1.814814814814815
 42
50
 43
0
 44
0
 50
0
 51
0
 71
    0
 72
  100
 73
    1
 74
    3
 75
    0
 76
    0
 77
    0
 78
    0
281
    0
 65
    1
110
0
120
0
130
0
111
1
121
0
131
0
112
0
122
1
132
0
 79
    0
146
0
348
10020
 60
    7
 61
    5
292
1
282
    1
141
0
142
0
 63
  250
421
3358443
  0
ENDTAB
  0
TABLE
  2
LTYPE
  5
5
330
0
100
AcDbSymbolTable
 70
    4
  0
LTYPE
  5
14
330
5
100
AcDbSymbolTableRecord
100
AcDbLinetypeTableRecord
  2
ByBlock
 70
    0
  3

 72
   65
 73
    0
 40
0
  0
LTYPE
  5
15
330
5
100
AcDbSymbolTableRecord
100
AcDbLinetypeTableRecord
  2
ByLayer
 70
    0
  3

 72
   65
 73
    0
 40
0
  0
LTYPE
  5
16
330
5
100
AcDbSymbolTableRecord
100
AcDbLinetypeTableRecord
  2
Continuous
 70
    0
  3
Solid line
 72
   65
 73
    0
 40
0
  0
LTYPE
  5
32
330
5
100
AcDbSymbolTableRecord
100
AcDbLinetypeTableRecord
  2
DOT
 70
    0
  3
Dot . . . . . . . . . . . . . . . . . . . . . .
 72
   65
 73
    2
 40
6.35
 49
0
 74
    0
 49
-6.35
 74
    0
  0
LTYPE
  5
33
330
5
100
AcDbSymbolTableRecord
100
AcDbLinetypeTableRecord
  2
DOTTINY
 70
    0
  3
Dot (.15x) .....................................
 72
   65
 73
    2
 40
0.9525
 49
0
 74
    0
 49
-0.9525
 74
    0
  0
LTYPE
  5
34
330
5
100
AcDbSymbolTableRecord
100
AcDbLinetypeTableRecord
  2
DOT2
 70
    0
  3
Dot (.5x) .....................................
 72
   65
 73
    2
 40
3.175
 49
0
 74
    0
 49
-3.175
 74
    0
  0
LTYPE
  5
35
330
5
100
AcDbSymbolTableRecord
100
AcDbLinetypeTableRecord
  2
DOTX2
 70
    0
  3
Dot (2x) .  .  .  .  .  .  .  .  .  .  .  .  .
 72
   65
 73
    2
 40
12.7
 49
0
 74
    0
 49
-12.7
 74
    0
  0
LTYPE
  5
36
330
5
100
AcDbSymbolTableRecord
100
AcDbLinetypeTableRecord
  2
DASHED
 70
    0
  3
Dashed _ _ _ _ _ _ _ _ _ _ _ _ _ _ _ _ _
 72
   65
 73
    2
 40
19.05
 49
12.7
 74
    0
 49
-6.35
 74
    0
  0
LTYPE
  5
37
330
5
100
AcDbSymbolTableRecord
100
AcDbLinetypeTableRecord
  2
DASHEDTINY
 70
    0
  3
Dashed (.15x) _ _ _ _ _ _ _ _ _ _ _ _ _ _ _ _ _
 72
   65
 73
    2
 40
2.8575
 49
1.905
 74
    0
 49
-0.9525
 74
    0
  0
LTYPE
  5
38
330
5
100
AcDbSymbolTableRecord
100
AcDbLinetypeTableRecord
  2
DASHED2
 70
    0
  3
Dashed (.5x) _ _ _ _ _ _ _ _ _ _ _ _ _ _ _ _ _
 72
   65
 73
    2
 40
9.524999999999999
 49
6.35
 74
    0
 49
-3.175
 74
    0
  0
LTYPE
  5
39
330
5
100
AcDbSymbolTableRecord
100
AcDbLinetypeTableRecord
  2
DASHEDX2
 70
    0
  3
Dashed (2x) ____  ____  ____  ____  ____  ___
 72
   65
 73
    2
 40
38.09999999999999
 49
25.4
 74
    0
 49
-12.7
 74
    0
  0
LTYPE
  5
3A
330
5
100
AcDbSymbolTableRecord
100
AcDbLinetypeTableRecord
  2
DASHDOT
 70
    0
  3
Dash dot __ . __ . __ . __ . __ . __ . __ . __
 72
   65
 73
    4
 40
25.4
 49
12.7
 74
    0
 49
-6.35
 74
    0
 49
0
 74
    0
 49
-6.35
 74
    0
  0
LTYPE
  5
3B
330
5
100
AcDbSymbolTableRecord
100
AcDbLinetypeTableRecord
  2
DASHDOTTINY
 70
    0
  3
Dash dot (.15x) _._._._._._._._._._._._._._._.
 72
   65
 73
    4
 40
3.81
 49
1.905
 74
    0
 49
-0.9525
 74
    0
 49
0
 74
    0
 49
-0.9525
 74
    0
  0
LTYPE
  5
3C
330
5
100
AcDbSymbolTableRecord
100
AcDbLinetypeTableRecord
  2
DASHDOT2
 70
    0
  3
Dash dot (.5x) _._._._._._._._._._._._._._._.
 72
   65
 73
    4
 40
12.7
 49
6.35
 74
    0
 49
-3.175
 74
    0
 49
0
 74
    0
 49
-3.175
 74
    0
  0
LTYPE
  5
3D
330
5
100
AcDbSymbolTableRecord
100
AcDbLinetypeTableRecord
  2
DASHDOTX2
 70
    0
  3
Dash dot (2x) ____  .  ____  .  ____  .  ___
 72
   65
 73
    4
 40
50.8
 49
25.4
 74
    0
 49
-12.7
 74
    0
 49
0
 74
    0
 49
-12.7
 74
    0
  0
LTYPE
  5
3E
330
5
100
AcDbSymbolTableRecord
100
AcDbLinetypeTableRecord
  2
DIVIDE
 70
    0
  3
Divide ____ . . ____ . . ____ . . ____ . . ____
 72
   65
 73
    6
 40
31.75
 49
12.7
 74
    0
 49
-6.35
 74
    0
 49
0
 74
    0
 49
-6.35
 74
    0
 49
0
 74
    0
 49
-6.35
 74
    0
  0
LTYPE
  5
3F
330
5
100
AcDbSymbolTableRecord
100
AcDbLinetypeTableRecord
  2
DIVIDETINY
 70
    0
  3
Divide (.15x) __..__..__..__..__..__..__..__.._
 72
   65
 73
    6
 40
4.7625
 49
1.905
 74
    0
 49
-0.9525
 74
    0
 49
0
 74
    0
 49
-0.9525
 74
    0
 49
0
 74
    0
 49
-0.9525
 74
    0
  0
LTYPE
  5
40
330
5
100
AcDbSymbolTableRecord
100
AcDbLinetypeTableRecord
  2
DIVIDE2
 70
    0
  3
Divide (.5x) __..__..__..__..__..__..__..__.._
 72
   65
 73
    6
 40
15.875
 49
6.35
 74
    0
 49
-3.175
 74
    0
 49
0
 74
    0
 49
-3.175
 74
    0
 49
0
 74
    0
 49
-3.175
 74
    0
  0
LTYPE
  5
41
330
5
100
AcDbSymbolTableRecord
100
AcDbLinetypeTableRecord
  2
DIVIDEX2
 70
    0
  3
Divide (2x) ________  .  .  ________  .  .  _
 72
   65
 73
    6
 40
63.5
 49
25.4
 74
    0
 49
-12.7
 74
    0
 49
0
 74
    0
 49
-12.7
 74
    0
 49
0
 74
    0
 49
-12.7
 74
    0
  0
LTYPE
  5
42
330
5
100
AcDbSymbolTableRecord
100
AcDbLinetypeTableRecord
  2
BORDER
 70
    0
  3
Border __ __ . __ __ . __ __ . __ __ . __ __ .
 72
   65
 73
    6
 40
44.45
 49
12.7
 74
    0
 49
-6.35
 74
    0
 49
12.7
 74
    0
 49
-6.35
 74
    0
 49
0
 74
    0
 49
-6.35
 74
    0
  0
LTYPE
  5
43
330
5
100
AcDbSymbolTableRecord
100
AcDbLinetypeTableRecord
  2
BORDERTINY
 70
    0
  3
Border (.15x) __.__.__.__.__.__.__.__.__.__.__.
 72
   65
 73
    6
 40
6.6675
 49
1.905
 74
    0
 49
-0.9525
 74
    0
 49
1.905
 74
    0
 49
-0.9525
 74
    0
 49
0
 74
    0
 49
-0.9525
 74
    0
  0
LTYPE
  5
44
330
5
100
AcDbSymbolTableRecord
100
AcDbLinetypeTableRecord
  2
BORDER2
 70
    0
  3
Border (.5x) __.__.__.__.__.__.__.__.__.__.__.
 72
   65
 73
    6
 40
22.225
 49
6.35
 74
    0
 49
-3.175
 74
    0
 49
6.35
 74
    0
 49
-3.175
 74
    0
 49
0
 74
    0
 49
-3.175
 74
    0
  0
LTYPE
  5
45
330
5
100
AcDbSymbolTableRecord
100
AcDbLinetypeTableRecord
  2
BORDERX2
 70
    0
  3
Border (2x) ____  ____  .  ____  ____  .  ___
 72
   65
 73
    6
 40
88.89999999999999
 49
25.4
 74
    0
 49
-12.7
 74
    0
 49
25.4
 74
    0
 49
-12.7
 74
    0
 49
0
 74
    0
 49
-12.7
 74
    0
  0
LTYPE
  5
46
330
5
100
AcDbSymbolTableRecord
100
AcDbLinetypeTableRecord
  2
CENTER
 70
    0
  3
Center ____ _ ____ _ ____ _ ____ _ ____ _ ____
 72
   65
 73
    4
 40
50.8
 49
31.75
 74
    0
 49
-6.35
 74
    0
 49
6.35
 74
    0
 49
-6.35
 74
    0
  0
LTYPE
  5
47
330
5
100
AcDbSymbolTableRecord
100
AcDbLinetypeTableRecord
  2
CENTERTINY
 70
    0
  3
Center (.15x) ___ _ ___ _ ___ _ ___ _ ___ _ ___
 72
   65
 73
    4
 40
7.619999999999999
 49
4.7625
 74
    0
 49
-0.9525
 74
    0
 49
0.9525
 74
    0
 49
-0.9525
 74
    0
  0
LTYPE
  5
48
330
5
100
AcDbSymbolTableRecord
100
AcDbLinetypeTableRecord
  2
CENTER2
 70
    0
  3
Center (.5x) ___ _ ___ _ ___ _ ___ _ ___ _ ___
 72
   65
 73
    4
 40
28.575
 49
19.05
 74
    0
 49
-3.175
 74
    0
 49
3.175
 74
    0
 49
-3.175
 74
    0
  0
LTYPE
  5
49
330
5
100
AcDbSymbolTableRecord
100
AcDbLinetypeTableRecord
  2
CENTERX2
 70
    0
  3
Center (2x) ________  __  ________  __  _____
 72
   65
 73
    4
 40
101.6
 49
63.5
 74
    0
 49
-12.7
 74
    0
 49
12.7
 74
    0
 49
-12.7
 74
    0
  0
ENDTAB
  0
TABLE
  2
LAYER
  5
2
330
0
100
AcDbSymbolTable
 70
    1
  0
LAYER
  5
10
330
2
100
AcDbSymbolTableRecord
100
AcDbLayerTableRecord
  2
0
 70
    0
 62
    7
  6
CONTINUOUS
370
    0
390
F
  0
LAYER
  5
4A
330
2
100
AcDbSymbolTableRecord
100
AcDbLayerTableRecord
  2
Cotes
 70
    0
 62
    4
  6
CONTINUOUS
370
    0
390
F
  0
ENDTAB
  0
TABLE
  2
STYLE
  5
3
330
0
100
AcDbSymbolTable
 70
    3
  0
STYLE
  5
4B
330
2
100
AcDbSymbolTableRecord
100
AcDbTextStyleTableRecord
  2
Standard
 70
    0
 40
0
 41
1
 50
0
 71
    0
 42
1
  3
txt
  4

  0
ENDTAB
  0
TABLE
  2
VIEW
  5
6
330
0
100
AcDbSymbolTable
 70
    0
  0
ENDTAB
  0
TABLE
  2
UCS
  5
7
330
0
100
AcDbSymbolTable
 70
    0
  0
ENDTAB
  0
TABLE
  2
APPID
  5
9
330
0
100
AcDbSymbolTable
 70
    1
  0
APPID
  5
12
330
9
100
AcDbSymbolTableRecord
100
AcDbRegAppTableRecord
  2
ACAD
 70
    0
  0
APPID
  5
4C
330
9
100
AcDbSymbolTableRecord
100
AcDbRegAppTableRecord
  2
LibreCad
 70
    0
  0
ENDTAB
  0
TABLE
  2
DIMSTYLE
  5
A
330
0
100
AcDbSymbolTable
 70
    1
100
AcDbDimStyleTable
 71
    1
  0
DIMSTYLE
105
4D
330
A
100
AcDbSymbolTableRecord
100
AcDbDimStyleTableRecord
  2
Standard
 70
    0
 40
2
 41
2.5
 42
0.625
 43
0.38
 44
1.25
 45
0
 46
0
 47
0
 48
0
 49
1
140
2.5
141
0.09
142
0
143
25.4
144
1
145
0
146
1
147
0.625
148
0
 71
    0
 72
    0
 73
    0
 74
    1
 75
    0
 76
    0
 77
    0
 78
    1
 79
    0
170
    0
171
    2
172
    0
173
    0
174
    0
175
    0
176
    0
177
    0
178
    0
179
    2
271
    0
272
    4
273
    2
274
    2
275
    0
276
    0
277
    2
278
    0
279
    0
280
    0
281
    0
282
    0
283
    1
284
    0
285
    0
286
    0
288
    0
289
    3
340
standard
341

371
   -2
372
   -2
  0
ENDTAB
  0
TABLE
  2
BLOCK_RECORD
  5
1
330
0
100
AcDbSymbolTable
 70
    2
  0
BLOCK_RECORD
  5
1F
330
1
100
AcDbSymbolTableRecord
100
AcDbBlockTableRecord
  2
*Model_Space
 70
    0
280
    1
281
    0
  0
BLOCK_RECORD
  5
1E
330
1
100
AcDbSymbolTableRecord
100
AcDbBlockTableRecord
  2
*Paper_Space
 70
    0
280
    1
281
    0
  0
BLOCK_RECORD
  5
4E
330
1
100
AcDbSymbolTableRecord
100
AcDbBlockTableRecord
  2
*D2
 70
    0
280
    1
281
    0
  0
BLOCK_RECORD
  5
51
330
1
100
AcDbSymbolTableRecord
100
AcDbBlockTableRecord
  2
*D1
 70
    0
280
    1
281
    0
  0
BLOCK_RECORD
  5
54
330
1
100
AcDbSymbolTableRecord
100
AcDbBlockTableRecord
  2
*D5
 70
    0
280
    1
281
    0
  0
BLOCK_RECORD
  5
57
330
1
100
AcDbSymbolTableRecord
100
AcDbBlockTableRecord
  2
*D7
 70
    0
280
    1
281
    0
  0
BLOCK_RECORD
  5
5A
330
1
100
AcDbSymbolTableRecord
100
AcDbBlockTableRecord
  2
*D8
 70
    0
280
    1
281
    0
  0
BLOCK_RECORD
  5
5D
330
1
100
AcDbSymbolTableRecord
100
AcDbBlockTableRecord
  2
*D4
 70
    0
280
    1
281
    0
  0
BLOCK_RECORD
  5
60
330
1
100
AcDbSymbolTableRecord
100
AcDbBlockTableRecord
  2
*D6
 70
    0
280
    1
281
    0
  0
BLOCK_RECORD
  5
63
330
1
100
AcDbSymbolTableRecord
100
AcDbBlockTableRecord
  2
*D9
 70
    0
280
    1
281
    0
  0
BLOCK_RECORD
  5
66
330
1
100
AcDbSymbolTableRecord
100
AcDbBlockTableRecord
  2
*D3
 70
    0
280
    1
281
    0
  0
ENDTAB
  0
ENDSEC
  0
SECTION
  2
BLOCKS
  0
BLOCK
  5
20
330
1F
100
AcDbEntity
  8
0
100
AcDbBlockBegin
  2
*Model_Space
 70
    0
 10
0
 20
0
 30
0
  3
*Model_Space
  1

  0
ENDBLK
  5
21
330
1F
100
AcDbEntity
  8
0
100
AcDbBlockEnd
  0
BLOCK
  5
1C
330
1B
100
AcDbEntity
  8
0
100
AcDbBlockBegin
  2
*Paper_Space
 70
    0
 10
0
 20
0
 30
0
  3
*Paper_Space
  1

  0
ENDBLK
  5
1D
330
1F
100
AcDbEntity
  8
0
100
AcDbBlockEnd
  0
BLOCK
  5
4F
330
4E
100
AcDbEntity
  8
0
100
AcDbBlockBegin
  2
*D2
 70
    1
 10
0
 20
0
  3
*D2
  1

  0
LINE
  5
69
100
AcDbEntity
  8
Cotes
  6
ByBlock
 62
    0
370
   -2
100
AcDbLine
 10
-1.25
 20
430
 11
-54.85674624486523
 21
430
  0
LINE
  5
6A
100
AcDbEntity
  8
Cotes
  6
ByBlock
 62
    0
370
   -2
100
AcDbLine
 10
-1.25
 20
1.530808498934192e-16
 11
-54.85674624486523
 21
6.718013870041279e-15
  0
LINE
  5
6B
100
AcDbEntity
  8
Cotes
  6
ByBlock
 62
    0
370
   -2
100
AcDbLine
 10
-52.35674624486523
 20
430
 11
-52.35674624486523
 21
6.411852170254441e-15
  0
SOLID
  5
6C
100
AcDbEntity
  8
Cotes
  6
ByBlock
 62
    0
370
   -2
100
AcDbTrace
 10
-52.35674624486523
 20
430
 30
0
 11
-51.52417692931954
 21
425
 31
0
 12
-53.18931556041091
 22
425
 32
0
 13
-53.18931556041091
 23
425
 33
0
  0
SOLID
  5
6D
100
AcDbEntity
  8
Cotes
  6
ByBlock
 62
    0
370
   -2
100
AcDbTrace
 10
-52.35674624486523
 20
6.411852170254441e-15
 30
0
 11
-53.18931556041091
 21
5.000000000000006
 31
0
 12
-51.52417692931954
 22
5.000000000000006
 32
0
 13
-51.52417692931954
 23
5.000000000000006
 33
0
  0
MTEXT
  5
6E
100
AcDbEntity
  8
Cotes
  6
CONTINUOUS
 62
    0
370
   -2
100
AcDbMText
 10
-56.10674624486523
 20
215
 30
0
 40
5
 41
10.55555555555587
 71
    5
 72
    1
  1
430
  7
standard
210
0
220
0
230
1
 50
90
 73
    2
 44
1
  0
ENDBLK
  5
50
330
4E
100
AcDbEntity
  8
0
100
AcDbBlockEnd
  0
BLOCK
  5
52
330
51
100
AcDbEntity
  8
0
100
AcDbBlockBegin
  2
*D1
 70
    1
 10
0
 20
0
  3
*D1
  1

  0
LINE
  5
6F
100
AcDbEntity
  8
Cotes
  6
ByBlock
 62
    0
370
   -2
100
AcDbLine
 10
7.654042494670958e-17
 20
431.25
 11
9.737044019794471e-16
 21
445.9017996479863
  0
LINE
  5
70
100
AcDbEntity
  8
Cotes
  6
ByBlock
 62
    0
370
   -2
100
AcDbLine
 10
40
 20
431.25
 11
40
 21
445.9017996479863
  0
LINE
  5
71
100
AcDbEntity
  8
Cotes
  6
ByBlock
 62
    0
370
   -2
100
AcDbLine
 10
8.206235520860278e-16
 20
443.4017996479863
 11
40
 21
443.4017996479863
  0
SOLID
  5
72
100
AcDbEntity
  8
Cotes
  6
ByBlock
 62
    0
370
   -2
100
AcDbTrace
 10
8.206235520860278e-16
 20
443.4017996479863
 30
0
 11
5.000000000000001
 21
444.234368963532
 31
0
 12
5.000000000000001
 22
442.5692303324406
 32
0
 13
5.000000000000001
 23
442.5692303324406
 33
0
  0
SOLID
  5
73
100
AcDbEntity
  8
Cotes
  6
ByBlock
 62
    0
370
   -2
100
AcDbTrace
 10
40
 20
443.4017996479863
 30
0
 11
35
 21
442.5692303324406
 31
0
 12
35
 22
444.234368963532
 32
0
 13
35
 23
444.234368963532
 33
0
  0
MTEXT
  5
74
100
AcDbEntity
  8
Cotes
  6
CONTINUOUS
 62
    0
370
   -2
100
AcDbMText
 10
20
 20
447.1517996479863
 30
0
 40
5
 41
6.666666666666667
 71
    5
 72
    1
  1
40
  7
standard
210
0
220
0
230
1
 50
0
 73
    2
 44
1
  0
ENDBLK
  5
53
330
51
100
AcDbEntity
  8
0
100
AcDbBlockEnd
  0
BLOCK
  5
55
330
54
100
AcDbEntity
  8
0
100
AcDbBlockBegin
  2
*D5
 70
    1
 10
0
 20
0
  3
*D5
  1

  0
LINE
  5
75
100
AcDbEntity
  8
Cotes
  6
ByBlock
 62
    0
370
   -2
100
AcDbLine
 10
22.49907095499025
 20
98.99729107653066
 11
81.52125082195445
 21
98.73620293439409
  0
LINE
  5
76
100
AcDbEntity
  8
Cotes
  6
ByBlock
 62
    0
370
   -2
100
AcDbLine
 10
23.52499637632427
 20
330.9203276899264
 11
82.54717624328848
 21
330.6592395477898
  0
LINE
  5
77
100
AcDbEntity
  8
Cotes
  6
ByBlock
 62
    0
370
   -2
100
AcDbLine
 10
79.02127528144712
 20
98.74726172569473
 11
80.04720070278114
 21
330.6702983390904
  0
SOLID
  5
78
100
AcDbEntity
  8
Cotes
  6
ByBlock
 62
    0
370
   -2
100
AcDbTrace
 10
79.02127528144712
 20
98.74726172569473
 30
0
 11
78.21083169419195
 21
103.750895690831
 31
0
 12
79.87595403390488
 22
103.7435299225878
 32
0
 13
79.87595403390488
 23
103.7435299225878
 33
0
  0
SOLID
  5
79
100
AcDbEntity
  8
Cotes
  6
ByBlock
 62
    0
370
   -2
100
AcDbTrace
 10
80.04720070278114
 20
330.6702983390904
 30
0
 11
80.8576442900363
 21
325.6666643739542
 31
0
 12
79.1925219503234
 22
325.6740301421974
 32
0
 13
79.1925219503234
 23
325.6740301421974
 33
0
  0
MTEXT
  5
7A
100
AcDbEntity
  8
Cotes
  6
CONTINUOUS
 62
    0
370
   -2
100
AcDbMText
 10
75.78427468135312
 20
214.7253682193436
 30
0
 40
5
 41
10.00000000000031
 71
    5
 72
    1
  1
232
  7
standard
210
0
220
0
230
1
 50
89.74655034621559
 73
    2
 44
1
  0
ENDBLK
  5
56
330
54
100
AcDbEntity
  8
0
100
AcDbBlockEnd
  0
BLOCK
  5
58
330
57
100
AcDbEntity
  8
0
100
AcDbBlockBegin
  2
*D7
 70
    1
 10
0
 20
0
  3
*D7
  1

  0
LINE
  5
7B
100
AcDbEntity
  8
Cotes
  6
ByBlock
 62
    0
370
   -2
100
AcDbLine
 10
22.03985521593563
 20
99.00150743479816
 11
82.53559517858812
 21
98.97730638114223
  0
LINE
  5
7C
100
AcDbEntity
  8
Cotes
  6
ByBlock
 62
    0
370
   -2
100
AcDbLine
 10
22.00024989997739
 20
-0.0005000569406694271
 11
82.49598986262988
 21
-0.02470111059660056
  0
LINE
  5
7D
100
AcDbEntity
  8
Cotes
  6
ByBlock
 62
    0
370
   -2
100
AcDbLine
 10
80.03559537863369
 20
98.97830649502356
 11
79.99599006267545
 21
-0.0237009967152617
  0
SOLID
  5
7E
100
AcDbEntity
  8
Cotes
  6
ByBlock
 62
    0
370
   -2
100
AcDbTrace
 10
80.03559537863369
 20
98.97830649502356
 30
0
 11
80.86616439979598
 21
93.97797382946283
 31
0
 12
79.20102590194605
 22
93.97863996076654
 32
0
 13
79.20102590194605
 23
93.97863996076654
 33
0
  0
SOLID
  5
7F
100
AcDbEntity
  8
Cotes
  6
ByBlock
 62
    0
370
   -2
100
AcDbTrace
 10
79.99599006267545
 20
-0.0237009967152617
 30
0
 11
79.16542104151316
 21
4.976631668845474
 31
0
 12
80.83055953936308
 22
4.975965537541751
 32
0
 13
80.83055953936308
 23
4.975965537541751
 33
0
  0
MTEXT
  5
80
100
AcDbEntity
  8
Cotes
  6
CONTINUOUS
 62
    0
370
   -2
100
AcDbMText
 10
76.26579302072291
 20
49.47880291997615
 30
0
 40
5
 41
6.111111111111422
 71
    5
 72
    1
  1
99
  7
standard
210
0
220
0
230
1
 50
89.97707907761539
 73
    2
 44
1
  0
ENDBLK
  5
59
330
57
100
AcDbEntity
  8
0
100
AcDbBlockEnd
  0
BLOCK
  5
5B
330
5A
100
AcDbEntity
  8
0
100
AcDbBlockBegin
  2
*D8
 70
    1
 10
0
 20
0
  3
*D8
  1

  0
LINE
  5
81
100
AcDbEntity
  8
Cotes
  6
ByBlock
 62
    0
370
   -2
100
AcDbLine
 10
22.58208152895634
 20
330.9950038024057
 11
82.50125231433523
 21
330.995846882409
  0
LINE
  5
82
100
AcDbEntity
  8
Cotes
  6
ByBlock
 62
    0
370
   -2
100
AcDbLine
 10
22.58068849987646
 20
430.0000175878603
 11
82.49985928525534
 21
430.0008606678635
  0
LINE
  5
83
100
AcDbEntity
  8
Cotes
  6
ByBlock
 62
    0
370
   -2
100
AcDbLine
 10
80.0012523145827
 20
330.9958117066884
 11
79.99985928550281
 21
430.000825492143
  0
SOLID
  5
84
100
AcDbEntity
  8
Cotes
  6
ByBlock
 62
    0
370
   -2
100
AcDbTrace
 10
80.0012523145827
 20
330.9958117066884
 30
0
 11
79.1686126476783
 21
335.9957999917032
 31
0
 12
80.83375127860484
 22
335.9958234206837
 32
0
 13
80.83375127860484
 23
335.9958234206837
 33
0
  0
SOLID
  5
85
100
AcDbEntity
  8
Cotes
  6
ByBlock
 62
    0
370
   -2
100
AcDbTrace
 10
79.99985928550281
 20
430.000825492143
 30
0
 11
80.83249895240721
 21
425.0008372071282
 31
0
 12
79.16736032148067
 22
425.0008137781477
 32
0
 13
79.16736032148067
 23
425.0008137781477
 33
0
  0
MTEXT
  5
86
100
AcDbEntity
  8
Cotes
  6
CONTINUOUS
 62
    0
370
   -2
100
AcDbMText
 10
83.75055579967155
 20
380.4983713629966
 30
0
 40
5
 41
6.111111111111422
 71
    5
 72
    1
  1
99
  7
standard
210
0
220
0
230
1
 50
270.0008061681319
 73
    2
 44
1
  0
ENDBLK
  5
5C
330
5A
100
AcDbEntity
  8
0
100
AcDbBlockEnd
  0
BLOCK
  5
5E
330
5D
100
AcDbEntity
  8
0
100
AcDbBlockBegin
  2
*D4
 70
    1
 10
0
 20
0
  3
*D4
  1

  0
LINE
  5
87
100
AcDbEntity
  8
Cotes
  6
ByBlock
 62
    0
370
   -2
100
AcDbLine
 10
20
 20
58.40177170089962
 11
-10
 21
58.40177170089962
  0
SOLID
  5
88
100
AcDbEntity
  8
Cotes
  6
ByBlock
 62
    0
370
   -2
100
AcDbTrace
 10
10
 20
58.40177170089962
 30
0
 11
15
 21
59.2343410164453
 31
0
 12
15
 22
57.56920238535393
 32
0
 13
15
 23
57.56920238535393
 33
0
  0
SOLID
  5
89
100
AcDbEntity
  8
Cotes
  6
ByBlock
 62
    0
370
   -2
100
AcDbTrace
 10
0
 20
58.40177170089962
 30
0
 11
-5
 21
57.56920238535393
 31
0
 12
-5
 22
59.2343410164453
 32
0
 13
-5
 23
59.2343410164453
 33
0
  0
MTEXT
  5
8A
100
AcDbEntity
  8
Cotes
  6
CONTINUOUS
 62
    0
370
   -2
100
AcDbMText
 10
5
 20
62.15177170089962
 30
0
 40
5
 41
5
 71
    5
 72
    1
  1
10
  7
standard
210
0
220
0
230
1
 50
360
 73
    2
 44
1
  0
LINE
  5
8B
100
AcDbEntity
  8
Cotes
  6
ByBlock
 62
    0
370
   -2
100
AcDbLine
 10
10
 20
108.75
 11
10
 21
55.90177170089962
  0
LINE
  5
8C
100
AcDbEntity
  8
Cotes
  6
ByBlock
 62
    0
370
   -2
100
AcDbLine
 10
-2.296212748401287e-16
 20
108.75
 11
-4.592425496802574e-16
 21
55.90177170089962
  0
ENDBLK
  5
5F
330
5D
100
AcDbEntity
  8
0
100
AcDbBlockEnd
  0
BLOCK
  5
61
330
60
100
AcDbEntity
  8
0
100
AcDbBlockBegin
  2
*D6
 70
    1
 10
0
 20
0
  3
*D6
  1

  0
LINE
  5
8D
100
AcDbEntity
  8
Cotes
  6
ByBlock
 62
    0
370
   -2
100
AcDbLine
 10
32
 20
320
 11
10
 21
320
  0
SOLID
  5
8E
100
AcDbEntity
  8
Cotes
  6
ByBlock
 62
    0
370
   -2
100
AcDbTrace
 10
32
 20
320
 30
0
 11
27
 21
319.1674306844543
 31
0
 12
27
 22
320.8325693155457
 32
0
 13
27
 23
320.8325693155457
 33
0
  0
SOLID
  5
8F
100
AcDbEntity
  8
Cotes
  6
ByBlock
 62
    0
370
   -2
100
AcDbTrace
 10
10
 20
320
 30
0
 11
15
 21
320.8325693155457
 31
0
 12
15
 22
319.1674306844543
 32
0
 13
15
 23
319.1674306844543
 33
0
  0
MTEXT
  5
90
100
AcDbEntity
  8
Cotes
  6
CONTINUOUS
 62
    0
370
   -2
100
AcDbMText
 10
21
 20
323.75
 30
0
 40
5
 41
6.111111111111111
 71
    5
 72
    1
  1
22
  7
standard
210
0
220
0
230
1
 50
360
 73
    2
 44
1
  0
ENDBLK
  5
62
330
60
100
AcDbEntity
  8
0
100
AcDbBlockEnd
  0
BLOCK
  5
64
330
63
100
AcDbEntity
  8
0
100
AcDbBlockBegin
  2
*D9
 70
    1
 10
0
 20
0
  3
*D9
  1

  0
LINE
  5
91
100
AcDbEntity
  8
Cotes
  6
ByBlock
 62
    0
370
   -2
100
AcDbLine
 10
160
 20
431.25
 11
160
 21
442.5
  0
LINE
  5
92
100
AcDbEntity
  8
Cotes
  6
ByBlock
 62
    0
370
   -2
100
AcDbLine
 10
168
 20
431.25
 11
168
 21
442.5
  0
LINE
  5
93
100
AcDbEntity
  8
Cotes
  6
ByBlock
 62
    0
370
   -2
100
AcDbLine
 10
150
 20
440
 11
178
 21
440
  0
SOLID
  5
94
100
AcDbEntity
  8
Cotes
  6
ByBlock
 62
    0
370
   -2
100
AcDbTrace
 10
160
 20
440
 30
0
 11
155
 21
439.1674306844543
 31
0
 12
155
 22
440.8325693155457
 32
0
 13
155
 23
440.8325693155457
 33
0
  0
SOLID
  5
95
100
AcDbEntity
  8
Cotes
  6
ByBlock
 62
    0
370
   -2
100
AcDbTrace
 10
168
 20
440
 30
0
 11
173
 21
440.8325693155457
 31
0
 12
173
 22
439.1674306844543
 32
0
 13
173
 23
439.1674306844543
 33
0
  0
MTEXT
  5
96
100
AcDbEntity
  8
Cotes
  6
CONTINUOUS
 62
    0
370
   -2
100
AcDbMText
 10
164
 20
443.75
 30
0
 40
5
 41
2.222222222222222
 71
    5
 72
    1
  1
8
  7
standard
210
0
220
0
230
1
 50
0
 73
    2
 44
1
  0
ENDBLK
  5
65
330
63
100
AcDbEntity
  8
0
100
AcDbBlockEnd
  0
BLOCK
  5
67
330
66
100
AcDbEntity
  8
0
100
AcDbBlockBegin
  2
*D3
 70
    1
 10
0
 20
0
  3
*D3
  1

  0
LINE
  5
97
100
AcDbEntity
  8
Cotes
  6
ByBlock
 62
    0
370
   -2
100
AcDbLine
 10
22
 20
84.8012881252566
 11
50
 21
84.8012881252566
  0
SOLID
  5
98
100
AcDbEntity
  8
Cotes
  6
ByBlock
 62
    0
370
   -2
100
AcDbTrace
 10
32
 20
84.8012881252566
 30
0
 11
27
 21
83.96871880971092
 31
0
 12
27
 22
85.63385744080229
 32
0
 13
27
 23
85.63385744080229
 33
0
  0
SOLID
  5
99
100
AcDbEntity
  8
Cotes
  6
ByBlock
 62
    0
370
   -2
100
AcDbTrace
 10
40
 20
84.8012881252566
 30
0
 11
45
 21
85.63385744080229
 31
0
 12
45
 22
83.96871880971092
 32
0
 13
45
 23
83.96871880971092
 33
0
  0
MTEXT
  5
9A
100
AcDbEntity
  8
Cotes
  6
CONTINUOUS
 62
    0
370
   -2
100
AcDbMText
 10
36
 20
88.5512881252566
 30
0
 40
5
 41
2.222222222222222
 71
    5
 72
    1
  1
8
  7
standard
210
0
220
0
230
1
 50
0
 73
    2
 44
1
  0
LINE
  5
9B
100
AcDbEntity
  8
Cotes
  6
ByBlock
 62
    0
370
   -2
100
AcDbLine
 10
32
 20
108.75
 11
32
 21
82.3012881252566
  0
LINE
  5
9C
100
AcDbEntity
  8
Cotes
  6
ByBlock
 62
    0
370
   -2
100
AcDbLine
 10
40
 20
108.75
 11
40
 21
82.3012881252566
  0
ENDBLK
  5
68
330
66
100
AcDbEntity
  8
0
100
AcDbBlockEnd
  0
ENDSEC
  0
SECTION
  2
ENTITIES
  0
LWPOLYLINE
  5
9D
100
AcDbEntity
  8
0
  6
ByLayer
 62
  256
370
   70
100
AcDbPolyline
 90
    4
 70
    1
 43
0
 10
0
 20
0
 10
40
 20
0
 10
40
 20
430
 10
0
 20
430
  0
LINE
  5
9E
100
AcDbEntity
  8
0
  6
ByLayer
 62
  256
370
   70
100
AcDbLine
 10
10
 20
110
 11
10
 21
320
  0
LINE
  5
9F
100
AcDbEntity
  8
0
  6
ByLayer
 62
  256
370
   70
100
AcDbLine
 10
32
 20
320
 11
32
 21
110
  0
ARC
  5
A0
100
AcDbEntity
  8
0
  6
ByLayer
 62
  256
370
   70
100
AcDbCircle
 10
21
 20
110
 40
11
100
AcDbArc
 50
180
 51
0
  0
ARC
  5
A1
100
AcDbEntity
  8
0
  6
ByLayer
 62
  256
370
   70
100
AcDbCircle
 10
21
 20
320
 40
11
100
AcDbArc
 50
0
 51
180
  0
LINE
  5
A2
100
AcDbEntity
  8
0
  6
ByLayer
 62
  256
370
   70
100
AcDbLine
 10
160
 20
0
 11
168
 21
0
  0
LINE
  5
A3
100
AcDbEntity
  8
0
  6
ByLayer
 62
  256
370
   70
100
AcDbLine
 10
168
 20
0
 11
168
 21
430
  0
LINE
  5
A4
100
AcDbEntity
  8
0
  6
ByLayer
 62
  256
370
   70
100
AcDbLine
 10
168
 20
430
 11
160
 21
430
  0
LINE
  5
A5
100
AcDbEntity
  8
0
  6
ByLayer
 62
  256
370
   70
100
AcDbLine
 10
160
 20
430
 11
160
 21
0
  0
DIMENSION
  5
A6
100
AcDbEntity
  8
Cotes
  6
DASHED
 62
    5
370
   50
100
AcDbDimension
  2
*D1
 10
40
 20
443.4017996479863
 30
0
 11
20
 21
447.1517996479863
 31
0
 70
   33
 71
    5
  3
Standard
 53
0
210
0
220
0
230
1
100
AcDbAlignedDimension
 13
0
 23
430
 33
0
 14
40
 24
430
 34
0
  0
DIMENSION
  5
A7
100
AcDbEntity
  8
Cotes
  6
DASHED
 62
    5
370
   50
100
AcDbDimension
  2
*D2
 10
-52.35674624486523
 20
1.282370434050888e-14
 30
0
 11
-56.10674624486523
 21
215
 31
0
 70
   33
 71
    5
  3
Standard
 53
0
210
0
220
0
230
1
100
AcDbAlignedDimension
 13
0
 23
430
 33
0
 14
0
 24
0
 34
0
  0
DIMENSION
  5
A8
100
AcDbEntity
  8
Cotes
  6
DASHED
 62
    5
370
   50
100
AcDbDimension
  2
*D3
 10
40
 20
84.8012881252566
 30
0
 11
36
 21
88.5512881252566
 31
0
 70
   32
 71
    5
  3
Standard
 53
0
210
0
220
0
230
1
100
AcDbAlignedDimension
 13
32
 23
110
 33
0
 14
40
 24
110
 34
0
100
AcDbRotatedDimension
  0
DIMENSION
  5
A9
100
AcDbEntity
  8
Cotes
  6
DASHED
 62
    5
370
   50
100
AcDbDimension
  2
*D4
 10
3.094133600047662
 20
58.40177170089962
 30
0
 11
5
 21
62.15177170089962
 31
0
 70
   32
 71
    5
  3
Standard
 53
0
210
0
220
0
230
1
100
AcDbAlignedDimension
 13
10
 23
110
 33
0
 14
0
 24
110
 34
0
100
AcDbRotatedDimension
  0
DIMENSION
  5
AA
100
AcDbEntity
  8
Cotes
  6
DASHED
 62
    5
370
   50
100
AcDbDimension
  2
*D5
 10
80.04720070278114
 20
330.6702983390904
 30
0
 11
75.78427468135312
 21
214.7253682193436
 31
0
 70
   33
 71
    5
  3
Standard
 53
0
210
0
220
0
230
1
100
AcDbAlignedDimension
 13
21.24908318473658
 23
99.00282047218099
 33
0
 14
22.2750086060706
 24
330.9258570855767
 34
0
  0
DIMENSION
  5
AB
100
AcDbEntity
  8
Cotes
  6
DASHED
 62
    5
370
   50
100
AcDbDimension
  2
*D6
 10
32
 20
320
 30
0
 11
21
 21
323.75
 31
0
 70
   35
 71
    5
  3
Standard
 53
0
210
0
220
0
230
1
100
AcDbDiametricDimension
 15
10
 25
320
 35
0
 40
0
  0
DIMENSION
  5
AC
100
AcDbEntity
  8
Cotes
  6
DASHED
 62
    5
370
   50
100
AcDbDimension
  2
*D7
 10
79.99599006267545
 20
-0.0237009967152617
 30
0
 11
76.26579302072291
 21
49.47880291997615
 31
0
 70
   33
 71
    5
  3
Standard
 53
0
210
0
220
0
230
1
100
AcDbAlignedDimension
 13
20.78985531595842
 23
99.00200749173882
 33
0
 14
20.75025000000018
 24
0
 34
0
  0
DIMENSION
  5
AD
100
AcDbEntity
  8
Cotes
  6
DASHED
 62
    5
370
   50
100
AcDbDimension
  2
*D8
 10
79.99985928550281
 20
430.000825492143
 30
0
 11
83.75055579967155
 21
380.4983713629966
 31
0
 70
   33
 71
    5
  3
Standard
 53
0
210
0
220
0
230
1
100
AcDbAlignedDimension
 13
21.33208152908008
 23
330.9949862145454
 33
0
 14
21.33068850000019
 24
430
 34
0
  0
DIMENSION
  5
AE
100
AcDbEntity
  8
Cotes
  6
DASHED
 62
    5
370
   50
100
AcDbDimension
  2
*D9
 10
168
 20
440
 30
0
 11
164
 21
443.75
 31
0
 70
   33
 71
    5
  3
Standard
 53
0
210
0
220
0
230
1
100
AcDbAlignedDimension
 13
160
 23
430
 33
0
 14
168
 24
430
 34
0
  0
ENDSEC
  0
SECTION
  2
OBJECTS
  0
DICTIONARY
  5
C
330
0
100
AcDbDictionary
281
    1
  3
ACAD_GROUP
350
D
  0
DICTIONARY
  5
D
330
C
100
AcDbDictionary
281
    1
  0
ENDSEC
  0
EOF
