  0
SECTION
  2
HEADER
  9
$ACADVER
  1
AC1015
  9
$ACADMAINTVER
 70
         6
  9
$DWGCODEPAGE
  3
ANSI_1252
  9
$INSBASE
 10
0.0
 20
0.0
 30
0.0
  9
$EXTMIN
 10
0.0
 20
0.0
 30
0.0
  9
$EXTMAX
 10
210.0
 20
297.0
 30
0.0
  9
$LIMMIN
 10
0.0
 20
0.0
  9
$LIMMAX
 10
0.0
 20
0.0
  9
$ORTHOMODE
 70
         0
  9
$REGENMODE
 70
         1
  9
$FILLMODE
 70
         1
  9
$QTEXTMODE
 70
         0
  9
$MIRRTEXT
 70
         1
  9
$LTSCALE
 40
1.0
  9
$ATTMODE
 70
         1
  9
$TEXTSIZE
 40
3.5
  9
$TRACEWID
 40
0.05
  9
$TEXTSTYLE
  7
Standard
  9
$CLAYER
  8
0
  9
$CELTYPE
  6
Continuous
  9
$CECOLOR
 62
       256
  9
$CELTSCALE
 40
1.0
  9
$DISPSILH
 70
         0
  9
$DIMSCALE
 40
1.0
  9
$DIMASZ
 40
3.0
  9
$DIMEXO
 40
1.0
  9
$DIMDLI
 40
0.38
  9
$DIMRND
 40
0.0
  9
$DIMDLE
 40
1.0
  9
$DIMEXE
 40
0.18
  9
$DIMTP
 40
0.0
  9
$DIMTM
 40
0.0
  9
$DIMTXT
 40
3.5
  9
$DIMCEN
 40
0.09
  9
$DIMTSZ
 40
0.0
  9
$DIMTOL
 70
         0
  9
$DIMLIM
 70
         0
  9
$DIMTIH
 70
         1
  9
$DIMTOH
 70
         1
  9
$DIMSE1
 70
         0
  9
$DIMSE2
 70
         0
  9
$DIMTAD
 70
         1
  9
$DIMZIN
 70
         0
  9
$DIMBLK
  1

  9
$DIMASO
 70
         1
  9
$DIMSHO
 70
         1
  9
$DIMPOST
  1

  9
$DIMAPOST
  1

  9
$DIMALT
 70
         0
  9
$DIMALTD
 70
         2
  9
$DIMALTF
 40
0.0394
  9
$DIMLFAC
 40
1.0
  9
$DIMTOFL
 70
         0
  9
$DIMTVP
 40
0.0
  9
$DIMTIX
 70
         0
  9
$DIMSOXD
 70
         0
  9
$DIMSAH
 70
         0
  9
$DIMBLK1
  1

  9
$DIMBLK2
  1

  9
$DIMSTYLE
  2
Standard
  9
$DIMCLRD
 70
         0
  9
$DIMCLRE
 70
         0
  9
$DIMCLRT
 70
         0
  9
$DIMTFAC
 40
1.0
  9
$DIMGAP
 40
1.0
  9
$DIMJUST
 70
         0
  9
$DIMSD1
 70
         0
  9
$DIMSD2
 70
         0
  9
$DIMTOLJ
 70
         1
  9
$DIMTZIN
 70
         0
  9
$DIMALTZ
 70
         0
  9
$DIMALTTZ
 70
         0
  9
$DIMUPT
 70
         0
  9
$DIMDEC
 70
         4
  9
$DIMTDEC
 70
         4
  9
$DIMALTU
 70
         2
  9
$DIMALTTD
 70
         2
  9
$DIMTXSTY
  7
Standard
  9
$DIMAUNIT
 70
         0
  9
$DIMADEC
 70
         0
  9
$DIMALTRND
 40
0.0
  9
$DIMAZIN
 70
         0
  9
$DIMDSEP
 70
         0
  9
$DIMATFIT
 70
         3
  9
$DIMFRAC
 70
         0
  9
$DIMLDRBLK
  1

  9
$DIMLUNIT
 70
         2
  9
$DIMLWD
 70
         0
  9
$DIMLWE
 70
         0
  9
$DIMTMOVE
 70
         0
  9
$LUNITS
 70
         2
  9
$LUPREC
 70
         2
  9
$SKETCHINC
 40
0.1
  9
$FILLETRAD
 40
0.0
  9
$AUNITS
 70
         0
  9
$AUPREC
 70
         2
  9
$MENU
  1
acad
  9
$ELEVATION
 40
0.0
  9
$PELEVATION
 40
0.0
  9
$THICKNESS
 40
0.0
  9
$LIMCHECK
 70
         0
  9
$CHAMFERA
 40
0.0
  9
$CHAMFERB
 40
0.0
  9
$CHAMFERC
 40
0.0
  9
$CHAMFERD
 40
0.0
  9
$SKPOLY
 70
         0
  9
$TDCREATE
 40
0.000000000
  9
$TDUCREATE
 40
0.000000000
  9
$TDUPDATE
 40
0.000000000
  9
$TDUUPDATE
 40
0.000000000
  9
$TDINDWG
 40
0.0000000000
  9
$TDUSRTIMER
 40
0.0000000000
  9
$USRTIMER
 70
         1
  9
$ANGBASE
 50
0.0
  9
$ANGDIR
 70
         0
  9
$PDMODE
 70
         0
  9
$PDSIZE
 40
-1.0
  9
$PLINEWID
 40
0.0
  9
$SPLFRAME
 70
         0
  9
$SPLINETYPE
 70
         6
  9
$SPLINESEGS
 70
         8
  9
$HANDSEED
  5
94
  9
$SURFTAB1
 70
         6
  9
$SURFTAB2
 70
         6
  9
$SURFTYPE
 70
         6
  9
$SURFU
 70
         6
  9
$SURFV
 70
         6
  9
$UCSBASE
  2

  9
$UCSNAME
  2

  9
$UCSORG
 10
0.0
 20
0.0
 30
0.0
  9
$UCSXDIR
 10
1.0
 20
0.0
 30
0.0
  9
$UCSYDIR
 10
0.0
 20
1.0
 30
0.0
  9
$UCSORTHOREF
  2

  9
$UCSORTHOVIEW
 70
         0
  9
$UCSORGTOP
 10
0.0
 20
0.0
 30
0.0
  9
$UCSORGBOTTOM
 10
0.0
 20
0.0
 30
0.0
  9
$UCSORGLEFT
 10
0.0
 20
0.0
 30
0.0
  9
$UCSORGRIGHT
 10
0.0
 20
0.0
 30
0.0
  9
$UCSORGFRONT
 10
0.0
 20
0.0
 30
0.0
  9
$UCSORGBACK
 10
0.0
 20
0.0
 30
0.0
  9
$PUCSBASE
  2

  9
$PUCSNAME
  2

  9
$PUCSORG
 10
0.0
 20
0.0
 30
0.0
  9
$PUCSXDIR
 10
1.0
 20
0.0
 30
0.0
  9
$PUCSYDIR
 10
0.0
 20
1.0
 30
0.0
  9
$PUCSORTHOREF
  2

  9
$PUCSORTHOVIEW
 70
         0
  9
$PUCSORGTOP
 10
0.0
 20
0.0
 30
0.0
  9
$PUCSORGBOTTOM
 10
0.0
 20
0.0
 30
0.0
  9
$PUCSORGLEFT
 10
0.0
 20
0.0
 30
0.0
  9
$PUCSORGRIGHT
 10
0.0
 20
0.0
 30
0.0
  9
$PUCSORGFRONT
 10
0.0
 20
0.0
 30
0.0
  9
$PUCSORGBACK
 10
0.0
 20
0.0
 30
0.0
  9
$USERI1
 70
         0
  9
$USERI2
 70
         0
  9
$USERI3
 70
         0
  9
$USERI4
 70
         0
  9
$USERI5
 70
         0
  9
$USERR1
 40
0.0
  9
$USERR2
 40
0.0
  9
$USERR3
 40
0.0
  9
$USERR4
 40
0.0
  9
$USERR5
 40
0.0
  9
$WORLDVIEW
 70
         1
  9
$SHADEDGE
 70
         3
  9
$SHADEDIF
 70
        70
  9
$TILEMODE
 70
         1
  9
$MAXACTVP
 70
        16
  9
$PINSBASE
 10
0.0
 20
0.0
 30
0.0
  9
$PLIMCHECK
 70
         0
  9
$PEXTMIN
 10
1.0000000000E+20
 20
1.0000000000E+20
 30
1.0000000000E+20
  9
$PEXTMAX
 10
-1.0000000000E+20
 20
-1.0000000000E+20
 30
-1.0000000000E+20
  9
$PLIMMIN
 10
0.0
 20
0.0
  9
$PLIMMAX
 10
12.0
 20
9.0
  9
$UNITMODE
 70
         0
  9
$VISRETAIN
 70
         0
  9
$PLINEGEN
 70
         1
  9
$PSLTSCALE
 70
         1
  9
$TREEDEPTH
 70
      3020
  9
$CMLSTYLE
  2
Standard
  9
$CMLJUST
 70
         0
  9
$CMLSCALE
 40
1.0
  9
$PROXYGRAPHICS
 70
         0
  9
$MEASUREMENT
 70
         0
  9
$CELWEIGHT
370
         0
  9
$ENDCAPS
280
         0
  9
$JOINSTYLE
280
         0
  9
$LWDISPLAY
290
         0
  9
$INSUNITS
 70
         0
  9
$HYPERLINKBASE
  1

  9
$XEDIT
290
         1
  9
$CEPSNTYPE
380
         0
  9
$PSTYLEMODE
290
         1
  9
$FINGERPRINTGUID
  2

  9
$VERSIONGUID
  2

  9
$EXTNAMES
290
         1
  9
$PSVPSCALE
 40
0.0
  0
ENDSEC
  0
SECTION
  2
CLASSES
  0
CLASS
  1
LWPOLYLINE
  2
AcDbPolyline
  3
AutoCAD 2000
 90
    32768
280
         0
281
         1
  0
CLASS
  1
IMAGE
  2
AcDbRasterImage
  3
ISM
 90
    32895
280
         0
281
         1
  0
CLASS
  1
OLE2FRAME
  2
AcDbOle2Frame
  3
AutoCAD 2000
 90
    32768
280
         0
281
         1
  0
CLASS
  1
HATCH
  2
AcDbHatch
  3
AutoCAD 2000
 90
    32768
280
         0
281
         1
  0
CLASS
  1
DICTIONARYVAR
  2
AcDbDictionaryVar
  3
AutoCAD 2000
 90
    32768
280
         0
281
         0
  0
CLASS
  1
RASTERVARIABLES
  2
AcDbRasterVariables
  3
ISM
 90
    32768
280
         0
281
         0
  0
CLASS
  1
IMAGEDEF
  2
AcDbRasterImageDef
  3
ISM
 90
    32768
280
         0
281
         0
  0
CLASS
  1
IMAGEDEF_REACTOR
  2
AcDbRasterImageDefReactor
  3
ISM
 90
    32769
280
         0
281
         0
  0
CLASS
  1
IDBUFFER
  2
AcDbIdBuffer
  3
AutoCAD 2000
 90
    32768
280
         0
281
         0
  0
CLASS
  1
SPATIAL_FILTER
  2
AcDbSpatialFilter
  3
AutoCAD 2000
 90
    32768
280
         0
281
         0
  0
CLASS
  1
XRECORD
  2
AcDbXrecord
  3
AutoCAD 2000
 90
    32768
280
         0
281
         0
  0
CLASS
  1
SORTENTSTABLE
  2
AcDbSortentsTable
  3
AutoCAD 2000
 90
    32768
280
         0
281
         0
  0
CLASS
  1
LAYER_INDEX
  2
AcDbLayerIndex
  3
AutoCAD 2000
 90
    32768
280
         0
281
         0
  0
CLASS
  1
SPATIAL_INDEX
  2
AcDbSpatialIndex
  3
AutoCAD 2000
 90
    32768
280
         0
281
         0
  0
CLASS
  1
OBJECT_PTR
  2
CAseDLPNTableRecord
  3
"ASE-LPNTableRecord"
 90
    32769
280
         0
281
         0
  0
CLASS
  1
LAYOUT
  2
AcDbLayout
  3
AutoCAD 2000
 90
        0
280
         0
281
         0
  0
CLASS
  1
PLOTSETTINGS
  2
AcDbPlotSettings
  3
AutoCAD 2000
 90
    32768
280
         0
281
         0
  0
CLASS
  1
ACDBDICTIONARYWDFLT
  2
AcDbDictionaryWithDefault
  3
AutoCAD 2000
 90
        0
280
         0
281
         0
  0
CLASS
  1
ACDBPLACEHOLDER
  2
AcDbPlaceHolder
  3
AutoCAD 2000
 90
        0
280
         0
281
         0
  0
CLASS
  1
VBA_PROJECT
  2
AcDbVbaProject
  3
acadvba
 90
    32768
280
         0
281
         0
  0
CLASS
  1
WIPEOUT
  2
AcDbWipeout
  3
WipeOut|AutoCAD Express Tool|expresstools@autodesk.com
 90
    32895
280
         0
281
         1
  0
CLASS
  1
WIPEOUTVARIABLES
  2
AcDbWipeoutVariables
  3
WipeOut|AutoCAD Express Tool|expresstools@autodesk.com
 90
        0
280
         0
281
         0
  0
CLASS
  1
RTEXT
  2
RText
  3
RText|AutoCAD Express Tool|expresstools@autodesk.com
 90
    32768
280
         0
281
         1
  0
CLASS
  1
ARCALIGNEDTEXT
  2
AcDbArcAlignedText
  3
ATEXT|AutoCAD Express Tool|expresstools@autodesk.com
 90
    32768
280
         0
281
         1
  0
ENDSEC
  0
SECTION
  2
TABLES
  0
TABLE
  2
VPORT
  5
7
100
AcDbSymbolTable
 70
         1
  0
VPORT
  5
15
100
AcDbSymbolTableRecord
100
AcDbViewportTableRecord
  2
*ACTIVE
 70
         0
 10
0.0
 20
0.0
 11
1.0
 21
1.0
 12
105.0
 22
148.5
 13
0.0
 23
0.0
 14
1.0
 24
1.0
 15
0.0
 25
0.0
 16
0.0
 26
0.0
 36
1.0
 17
0.0
 27
0.0
 37
0.0
 40
297.0
 41
1.4142857143
 42
50.0
 43
0.0
 44
0.0
 50
0.0
 51
0.0
 71
         0
 72
      2000
 73
         1
 74
         1
 75
         0
 76
         0
 77
         0
 78
         0
281
         0
 65
         0
110
0.0
120
0.0
130
0.0
111
1.0
121
0.0
131
0.0
112
0.0
122
1.0
132
0.0
345
0
346
0
 79
         0
146
0.0
  0
ENDTAB
  0
TABLE
  2
LTYPE
  5
4
100
AcDbSymbolTable
 70
         9
  0
LTYPE
  5
11
100
AcDbSymbolTableRecord
100
AcDbLinetypeTableRecord
  2
ByBlock
 70
        64
  3

 72
        65
 73
         0
 40
0.0
  0
LTYPE
  5
12
100
AcDbSymbolTableRecord
100
AcDbLinetypeTableRecord
  2
ByLayer
 70
        64
  3

 72
        65
 73
         0
 40
0.0
  0
LTYPE
  5
13
100
AcDbSymbolTableRecord
100
AcDbLinetypeTableRecord
  2
Continuous
 70
        64
  3
Solid line
 72
        65
 73
         0
 40
0.0
  0
LTYPE
  5
24
100
AcDbSymbolTableRecord
100
AcDbLinetypeTableRecord
  2
CONTINUOUS
 70
        64
  3
Solid line
 72
        65
 73
         1
 40
60.96
 49
60.96
 74
         0
  0
LTYPE
  5
25
100
AcDbSymbolTableRecord
100
AcDbLinetypeTableRecord
  2
HIDDEN
 70
        64
  3
Hidden __ __ __ __ __ __ __ __ __ __ __ __ __ __
 72
        65
 73
         2
 40
1.905
 49
1.27
 74
         0
 49
-0.635
 74
         0
  0
LTYPE
  5
26
100
AcDbSymbolTableRecord
100
AcDbLinetypeTableRecord
  2
PHANTOM
 70
        64
  3
Phantom ______  __  __  ______  __  __  ______
 72
        65
 73
         6
 40
12.7
 49
6.35
 74
         0
 49
-1.27
 74
         0
 49
1.27
 74
         0
 49
-1.27
 74
         0
 49
1.27
 74
         0
 49
-1.27
 74
         0
  0
LTYPE
  5
27
100
AcDbSymbolTableRecord
100
AcDbLinetypeTableRecord
  2
CENTER
 70
        64
  3
Center ____ _ ____ _ ____ _ ____ _ ____ _ ____
 72
        65
 73
         4
 40
10.16
 49
6.35
 74
         0
 49
-1.27
 74
         0
 49
1.27
 74
         0
 49
-1.27
 74
         0
  0
LTYPE
  5
28
100
AcDbSymbolTableRecord
100
AcDbLinetypeTableRecord
  2
CENTERX2
 70
        64
  3
Center (2x) ________  __  ________  __  _____
 72
        65
 73
         4
 40
20.32
 49
12.7
 74
         0
 49
-2.54
 74
         0
 49
2.54
 74
         0
 49
-2.54
 74
         0
  0
LTYPE
  5
29
100
AcDbSymbolTableRecord
100
AcDbLinetypeTableRecord
  2
DOT2
 70
        64
  3
Dot (.5x) ........................................
 72
        65
 73
         2
 40
0.635
 49
0.0
 74
         0
 49
-0.635
 74
         0
  0
ENDTAB
  0
TABLE
  2
LAYER
  5
2
100
AcDbSymbolTable
 70
         1
  0
LAYER
  5
14
100
AcDbSymbolTableRecord
100
AcDbLayerTableRecord
  2
0
 70
         0
 62
         7
  6
Continuous
290
         1
370
        -3
390
1D
  0
ENDTAB
  0
TABLE
  2
STYLE
  5
3
100
AcDbSymbolTable
 70
         2
  0
STYLE
  5
17
100
AcDbSymbolTableRecord
100
AcDbTextStyleTableRecord
  2
Standard
 70
         0
 40
0.0
 41
1.0
 50
0.0
 71
         0
 42
0.0
  3
txt
  4

  0
STYLE
  5
4A
100
AcDbSymbolTableRecord
100
AcDbTextStyleTableRecord
  2
SLDTEXTSTYLE0
 70
         0
 40
0.0
 41
0.75
 50
0.0
 71
         0
 42
0.0
  3
txt
  4

  0
ENDTAB
  0
TABLE
  2
VIEW
  5
5
100
AcDbSymbolTable
 70
         0
  0
ENDTAB
  0
TABLE
  2
UCS
  5
6
100
AcDbSymbolTable
 70
         0
  0
ENDTAB
  0
TABLE
  2
APPID
  5
8
100
AcDbSymbolTable
 70
         1
  0
APPID
  5
16
100
AcDbSymbolTableRecord
100
AcDbRegAppTableRecord
  2
ACAD
 70
         0
  0
ENDTAB
  0
TABLE
  2
DIMSTYLE
  5
9
100
AcDbSymbolTable
 70
         2
100
AcDbDimStyleTable
 71
         0
  0
DIMSTYLE
105
18
100
AcDbSymbolTableRecord
100
AcDbDimStyleTableRecord
  2
Standard
 70
         0
  3

  4

 40
1.0
 41
0.18
 42
0.0625
 43
0.38
 44
0.18
 45
0.0
 46
0.0
 47
0.0
 48
0.0
 71
         0
 72
         0
 73
         1
 74
         1
 75
         0
 76
         0
 77
         0
 78
         0
 79
         0
140
0.18
141
0.09
142
0.0
143
25.4
144
1.0
145
0.0
146
1.0
147
0.09
148
0.0
170
         0
171
         2
172
         0
173
         0
174
         0
175
         0
176
         0
177
         0
178
         0
179
         0
271
         4
272
         4
273
         2
274
         2
275
         0
276
         0
277
         2
278
        46
279
         0
280
         0
281
         0
282
         0
283
         1
284
         0
285
         0
286
         0
288
         0
340
17
341
0
342
0
343
0
344
0
371
        -2
372
        -2
  0
DIMSTYLE
105
6C
100
AcDbSymbolTableRecord
100
AcDbDimStyleTableRecord
  2
SLDDIMSTYLE0
 70
         0
  3

  4

 40
1.0
 41
3.0
 42
0.0625
 43
0.38
 44
1.0
 45
0.0
 46
0.0
 47
0.0
 48
0.0
 71
         0
 72
         0
 73
         1
 74
         1
 75
         0
 76
         0
 77
         0
 78
        12
 79
         0
140
3.5
141
0.09
142
0.0
143
25.4
144
1.0
145
0.0
146
1.0
147
0.875
148
0.0
170
         0
171
         2
172
         0
173
         1
174
         0
175
         0
176
       255
177
       255
178
       255
179
         0
271
         2
272
         4
273
         2
274
         2
275
         0
276
         0
277
         2
278
        46
279
         0
280
         0
281
         0
282
         0
283
         1
284
        12
285
         0
286
         0
288
         0
340
17
341
0
342
0
343
0
344
0
371
        -2
372
        -2
  0
ENDTAB
  0
TABLE
  2
BLOCK_RECORD
  5
1
100
AcDbSymbolTable
 70
         3
  0
BLOCK_RECORD
  5
A
100
AcDbSymbolTableRecord
100
AcDbBlockTableRecord
  2
*MODEL_SPACE
340
20
  0
BLOCK_RECORD
  5
B
100
AcDbSymbolTableRecord
100
AcDbBlockTableRecord
  2
*PAPER_SPACE
340
21
  0
BLOCK_RECORD
  5
64
100
AcDbSymbolTableRecord
100
AcDbBlockTableRecord
  2
*D0
340
0
  0
BLOCK_RECORD
  5
71
100
AcDbSymbolTableRecord
100
AcDbBlockTableRecord
  2
*D1
340
0
  0
BLOCK_RECORD
  5
88
100
AcDbSymbolTableRecord
100
AcDbBlockTableRecord
  2
*D2
340
0
  0
ENDTAB
  0
ENDSEC
  0
SECTION
  2
BLOCKS
  0
BLOCK
  5
D
100
AcDbEntity
  8
0
100
AcDbBlockBegin
  2
*MODEL_SPACE
 70
         0
 10
0.0
 20
0.0
 30
0.0
  3
*MODEL_SPACE
  1

  0
ENDBLK
  5
E
100
AcDbEntity
  8
0
100
AcDbBlockEnd
  0
BLOCK
  5
F
100
AcDbEntity
 67
         1
  8
0
100
AcDbBlockBegin
  2
*PAPER_SPACE
 70
         0
 10
0.0
 20
0.0
 30
0.0
  3
*PAPER_SPACE
  1

  0
ENDBLK
  5
10
100
AcDbEntity
 67
         1
  8
0
100
AcDbBlockEnd
  0
BLOCK
  5
65
100
AcDbEntity
  8
0
 62
       255
100
AcDbBlockBegin
  2
*D0
 70
         1
 10
0.0
 20
0.0
 30
0.0
  3
*D0
  1

  0
MTEXT
  5
66
100
AcDbEntity
  8
0
 62
         7
100
AcDbMText
 10
98.2888011236
 20
260.2459550562
 30
0.0
 40
3.5
 41
0.0
 71
         7
 72
         1
  1
100
  7
SLDTEXTSTYLE0
 11
1.0
 21
0.0
 31
0.0
 73
         1
 44
1.0
  0
LINE
  5
67
100
AcDbEntity
  8
0
100
AcDbLine
 10
52.9155504587
 20
247.5920183486
 30
0.0
 11
52.9155504587
 21
259.7459550562
 31
0.0
  0
LINE
  5
68
100
AcDbEntity
  8
0
100
AcDbLine
 10
152.9155504587
 20
247.5920183486
 30
0.0
 11
152.9155504587
 21
259.7459550562
 31
0.0
  0
LINE
  5
69
100
AcDbEntity
  8
0
100
AcDbLine
 10
52.9155504587
 20
258.7459550562
 30
0.0
 11
152.9155504587
 21
258.7459550562
 31
0.0
  0
SOLID
  5
6A
100
AcDbEntity
  8
0
 62
       255
100
AcDbTrace
 10
52.9155504587
 20
258.7459550562
 30
0.0
 11
55.9155504587
 21
258.2959550562
 31
0.0
 12
55.9155504587
 22
259.1959550562
 32
0.0
 13
55.9155504587
 23
259.1959550562
 33
0.0
  0
SOLID
  5
6B
100
AcDbEntity
  8
0
 62
       255
100
AcDbTrace
 10
152.9155504587
 20
258.7459550562
 30
0.0
 11
149.9155504587
 21
259.1959550562
 31
0.0
 12
149.9155504587
 22
258.2959550562
 32
0.0
 13
149.9155504587
 23
258.2959550562
 33
0.0
  0
POINT
  5
6D
100
AcDbEntity
  8
0
 62
         7
100
AcDbPoint
 10
52.9155504587
 20
246.5920183486
 30
0.0
  0
POINT
  5
6E
100
AcDbEntity
  8
0
 62
         7
100
AcDbPoint
 10
152.9155504587
 20
246.5920183486
 30
0.0
  0
ENDBLK
  5
6F
100
AcDbEntity
  8
0
 62
       255
100
AcDbBlockEnd
  0
BLOCK
  5
72
100
AcDbEntity
  8
0
 62
       255
100
AcDbBlockBegin
  2
*D1
 70
         1
 10
0.0
 20
0.0
 30
0.0
  3
*D1
  1

  0
MTEXT
  5
73
100
AcDbEntity
  8
0
 62
         7
100
AcDbMText
 10
41.2857303371
 20
214.938788764
 30
0.0
 40
3.5
 41
0.0
 71
         7
 72
         1
  1
60
  7
SLDTEXTSTYLE0
 11
0.0
 21
1.0
 31
0.0
 73
         1
 44
1.0
  0
LINE
  5
74
100
AcDbEntity
  8
0
100
AcDbLine
 10
51.9155504587
 20
246.5920183486
 30
0.0
 11
41.7857303371
 21
246.5920183486
 31
0.0
  0
LINE
  5
75
100
AcDbEntity
  8
0
100
AcDbLine
 10
51.9155504587
 20
186.5920183486
 30
0.0
 11
41.7857303371
 21
186.5920183486
 31
0.0
  0
LINE
  5
76
100
AcDbEntity
  8
0
100
AcDbLine
 10
42.7857303371
 20
246.5920183486
 30
0.0
 11
42.7857303371
 21
186.5920183486
 31
0.0
  0
SOLID
  5
77
100
AcDbEntity
  8
0
 62
       255
100
AcDbTrace
 10
42.7857303371
 20
246.5920183486
 30
0.0
 11
42.3357303371
 21
243.5920183486
 31
0.0
 12
43.2357303371
 22
243.5920183486
 32
0.0
 13
43.2357303371
 23
243.5920183486
 33
0.0
  0
SOLID
  5
78
100
AcDbEntity
  8
0
 62
       255
100
AcDbTrace
 10
42.7857303371
 20
186.5920183486
 30
0.0
 11
43.2357303371
 21
189.5920183486
 31
0.0
 12
42.3357303371
 22
189.5920183486
 32
0.0
 13
42.3357303371
 23
189.5920183486
 33
0.0
  0
POINT
  5
79
100
AcDbEntity
  8
0
 62
         7
100
AcDbPoint
 10
52.9155504587
 20
246.5920183486
 30
0.0
  0
POINT
  5
7A
100
AcDbEntity
  8
0
 62
         7
100
AcDbPoint
 10
52.9155504587
 20
186.5920183486
 30
0.0
  0
ENDBLK
  5
7B
100
AcDbEntity
  8
0
 62
       255
100
AcDbBlockEnd
  0
BLOCK
  5
89
100
AcDbEntity
  8
0
 62
       255
100
AcDbBlockBegin
  2
*D2
 70
         1
 10
0.0
 20
0.0
 30
0.0
  3
*D2
  1

  0
MTEXT
  5
8A
100
AcDbEntity
  8
0
 62
         7
100
AcDbMText
 10
41.6639325843
 20
121.5228337079
 30
0.0
 40
3.5
 41
0.0
 71
         7
 72
         1
  1
30
  7
SLDTEXTSTYLE0
 11
0.0
 21
1.0
 31
0.0
 73
         1
 44
1.0
  0
LINE
  5
8B
100
AcDbEntity
  8
0
100
AcDbLine
 10
51.9155504587
 20
139.1059550562
 30
0.0
 11
42.1639325843
 21
139.1059550562
 31
0.0
  0
LINE
  5
8C
100
AcDbEntity
  8
0
100
AcDbLine
 10
51.9155504587
 20
109.1059550562
 30
0.0
 11
42.1639325843
 21
109.1059550562
 31
0.0
  0
LINE
  5
8D
100
AcDbEntity
  8
0
100
AcDbLine
 10
43.1639325843
 20
139.1059550562
 30
0.0
 11
43.1639325843
 21
109.1059550562
 31
0.0
  0
SOLID
  5
8E
100
AcDbEntity
  8
0
 62
       255
100
AcDbTrace
 10
43.1639325843
 20
139.1059550562
 30
0.0
 11
42.7139325843
 21
136.1059550562
 31
0.0
 12
43.6139325843
 22
136.1059550562
 32
0.0
 13
43.6139325843
 23
136.1059550562
 33
0.0
  0
SOLID
  5
8F
100
AcDbEntity
  8
0
 62
       255
100
AcDbTrace
 10
43.1639325843
 20
109.1059550562
 30
0.0
 11
43.6139325843
 21
112.1059550562
 31
0.0
 12
42.7139325843
 22
112.1059550562
 32
0.0
 13
42.7139325843
 23
112.1059550562
 33
0.0
  0
POINT
  5
90
100
AcDbEntity
  8
0
 62
         7
100
AcDbPoint
 10
52.9155504587
 20
139.1059550562
 30
0.0
  0
POINT
  5
91
100
AcDbEntity
  8
0
 62
         7
100
AcDbPoint
 10
52.9155504587
 20
109.1059550562
 30
0.0
  0
ENDBLK
  5
92
100
AcDbEntity
  8
0
 62
       255
100
AcDbBlockEnd
  0
ENDSEC
  0
SECTION
  2
ENTITIES
  0
LINE
  5
30
100
AcDbEntity
  8
0
370
         0
  6
CENTERX2
 62
         7
100
AcDbLine
 10
15.73913136
 20
46.1706597895
 30
0.0
 11
26.0619197449
 21
46.1706597895
 31
0.0
  0
LINE
  5
31
100
AcDbEntity
  8
0
370
         0
  6
Continuous
 62
         7
100
AcDbLine
 10
12.0
 20
285.0
 30
0.0
 11
198.0
 21
285.0
 31
0.0
  0
LINE
  5
32
100
AcDbEntity
  8
0
370
         0
  6
Continuous
 62
         7
100
AcDbLine
 10
12.0
 20
285.0
 30
0.0
 11
12.0
 21
12.0
 31
0.0
  0
LINE
  5
33
100
AcDbEntity
  8
0
370
         0
  6
Continuous
 62
         7
100
AcDbLine
 10
12.0
 20
12.0
 30
0.0
 11
198.0
 21
12.0
 31
0.0
  0
LINE
  5
34
100
AcDbEntity
  8
0
370
         0
  6
Continuous
 62
         7
100
AcDbLine
 10
198.0
 20
285.0
 30
0.0
 11
198.0
 21
12.0
 31
0.0
  0
LINE
  5
35
100
AcDbEntity
  8
0
370
         0
  6
CENTERX2
 62
         7
100
AcDbLine
 10
38.3005650963
 20
46.1706597895
 30
0.0
 11
30.2291345052
 21
46.1706597895
 31
0.0
  0
LINE
  5
36
100
AcDbEntity
  8
0
370
         0
  6
CENTERX2
 62
         7
100
AcDbLine
 10
34.2648498008
 20
49.1829176886
 30
0.0
 11
34.2648498008
 21
43.1584018904
 31
0.0
  0
LINE
  5
37
100
AcDbEntity
  8
0
370
         0
  6
Continuous
 62
         7
100
AcDbLine
 10
17.9511574424
 20
45.0227523149
 30
0.0
 11
17.9511574424
 21
47.3185672641
 31
0.0
  0
LINE
  5
38
100
AcDbEntity
  8
0
370
         0
  6
Continuous
 62
         7
100
AcDbLine
 10
17.9511574424
 20
47.3185672641
 30
0.0
 11
23.0203838815
 21
48.8854190726
 31
0.0
  0
LINE
  5
39
100
AcDbEntity
  8
0
370
         0
  6
Continuous
 62
         7
100
AcDbLine
 10
23.0203838815
 20
48.8854190726
 30
0.0
 11
23.0203838815
 21
43.4559005065
 31
0.0
  0
LINE
  5
3A
100
AcDbEntity
  8
0
370
         0
  6
Continuous
 62
         7
100
AcDbLine
 10
23.0203838815
 20
43.4559005065
 30
0.0
 11
17.9511574424
 21
45.0227523149
 31
0.0
  0
LINE
  5
3B
100
AcDbEntity
  8
0
370
         0
  6
Continuous
 62
         7
100
AcDbLine
 10
198.0
 20
53.1939488102
 30
0.0
 11
12.0
 21
53.1939488102
 31
0.0
  0
LINE
  5
3C
100
AcDbEntity
  8
0
370
         0
  6
Continuous
 62
         7
100
AcDbLine
 10
148.3249993699
 20
53.1939488102
 30
0.0
 11
148.3249993699
 21
29.806982774
 31
0.0
  0
LINE
  5
3D
100
AcDbEntity
  8
0
370
         0
  6
Continuous
 62
         7
100
AcDbLine
 10
198.0
 20
12.0
 30
0.0
 11
70.4401626767
 21
12.0
 31
0.0
  0
LINE
  5
3E
100
AcDbEntity
  8
0
370
         0
  6
Continuous
 62
         7
100
AcDbLine
 10
198.0
 20
12.0
 30
0.0
 11
198.0
 21
29.806982774
 31
0.0
  0
LINE
  5
3F
100
AcDbEntity
  8
0
370
         0
  6
Continuous
 62
         7
100
AcDbLine
 10
198.0
 20
29.806982774
 30
0.0
 11
70.4401626767
 21
29.806982774
 31
0.0
  0
LINE
  5
40
100
AcDbEntity
  8
0
370
         0
  6
Continuous
 62
         7
100
AcDbLine
 10
70.4401626767
 20
12.0
 30
0.0
 11
70.4401626767
 21
29.806982774
 31
0.0
  0
LINE
  5
41
100
AcDbEntity
  8
0
370
         0
  6
Continuous
 62
         7
100
AcDbLine
 10
70.4401626767
 20
12.0
 30
0.0
 11
12.0
 21
12.0
 31
0.0
  0
LINE
  5
42
100
AcDbEntity
  8
0
370
         0
  6
Continuous
 62
         7
100
AcDbLine
 10
70.4401626767
 20
12.0
 30
0.0
 11
70.4401626767
 21
53.1939488102
 31
0.0
  0
LINE
  5
43
100
AcDbEntity
  8
0
370
         0
  6
Continuous
 62
         7
100
AcDbLine
 10
70.4401626767
 20
53.1939488102
 30
0.0
 11
12.0
 21
53.1939488102
 31
0.0
  0
LINE
  5
44
100
AcDbEntity
  8
0
370
         0
  6
Continuous
 62
         7
100
AcDbLine
 10
12.0
 20
12.0
 30
0.0
 11
12.0
 21
53.1939488102
 31
0.0
  0
LINE
  5
45
100
AcDbEntity
  8
0
370
         0
  6
Continuous
 62
         7
100
AcDbLine
 10
148.3249993699
 20
41.5004657921
 30
0.0
 11
198.0
 21
41.5004657921
 31
0.0
  0
LINE
  5
46
100
AcDbEntity
  8
0
370
         0
  6
Continuous
 62
         7
100
AcDbLine
 10
148.3249993699
 20
41.5004657921
 30
0.0
 11
70.4401626767
 21
41.5004657921
 31
0.0
  0
LINE
  5
47
100
AcDbEntity
  8
0
370
         0
  6
Continuous
 62
         7
100
AcDbLine
 10
70.4401626767
 20
32.5969744051
 30
0.0
 11
12.0
 21
32.5969744051
 31
0.0
  0
CIRCLE
  5
48
100
AcDbEntity
  8
0
370
         0
  6
Continuous
 62
         5
100
AcDbCircle
 10
34.2648498008
 20
46.1706597895
 30
0.0
 40
3.1391205675
  0
CIRCLE
  5
49
100
AcDbEntity
  8
0
370
         0
  6
Continuous
 62
         5
100
AcDbCircle
 10
34.2648498008
 20
46.1706597895
 30
0.0
 40
1.5
  0
MTEXT
  5
4B
100
AcDbEntity
  8
0
 62
         7
100
AcDbMText
 10
90.5361554048
 20
21.8783954377
 30
0.0
 40
5.2916666667
 41
0.0
 71
         1
 72
         1
  1
ARL-ST02-MOULE
  7
SLDTEXTSTYLE0
 73
         1
 44
1.0
  0
MTEXT
  5
4C
100
AcDbEntity
  8
0
 62
         7
100
AcDbMText
 10
159.1208968099
 20
37.4920483588
 30
0.0
 40
3.5
 41
0.0
 71
         1
 72
         1
  1
22/09/2021
  7
SLDTEXTSTYLE0
 73
         1
 44
1.0
  0
MTEXT
  5
4D
100
AcDbEntity
  8
0
 62
         7
100
AcDbMText
 10
55.1629009346
 20
51.3483733122
 30
0.0
 40
3.5
 41
0.0
 71
         2
 72
         1
  1
A4 \PEchelle 1:1
  7
SLDTEXTSTYLE0
 73
         1
 44
1.0
  0
MTEXT
  5
4E
100
AcDbEntity
  8
0
 62
         7
100
AcDbMText
 10
24.8311285925
 20
39.5428577037
 30
0.0
 40
3.5
 41
0.0
 71
         1
 72
         1
  1
Tol Gén: +/-0.2
  7
SLDTEXTSTYLE0
 73
         1
 44
1.0
  0
MTEXT
  5
4F
100
AcDbEntity
  8
0
 62
         7
100
AcDbMText
 10
71.9255642628
 20
28.7484840676
 30
0.0
 40
3.5
 41
0.0
 71
         1
 72
         1
  1
Désignation:
  7
SLDTEXTSTYLE0
 73
         1
 44
1.0
  0
MTEXT
  5
50
100
AcDbEntity
  8
0
 62
         7
100
AcDbMText
 10
71.5883486038
 20
38.4908095824
 30
0.0
 40
3.5
 41
0.0
 71
         1
 72
         1
  1
Observation:
  7
SLDTEXTSTYLE0
 73
         1
 44
1.0
  0
MTEXT
  5
51
100
AcDbEntity
  8
0
 62
         7
100
AcDbMText
 10
72.052519555
 20
50.0312998863
 30
0.0
 40
3.5
 41
0.0
 71
         1
 72
         1
  1
Matière:
  7
SLDTEXTSTYLE0
 73
         1
 44
1.0
  0
MTEXT
  5
52
100
AcDbEntity
  8
0
 62
         7
100
AcDbMText
 10
152.20665097
 20
50.1889458277
 30
0.0
 40
3.5
 41
0.0
 71
         1
 72
         1
  1
Quantité:
  7
SLDTEXTSTYLE0
 73
         1
 44
1.0
  0
MTEXT
  5
53
100
AcDbEntity
  8
0
 62
         7
100
AcDbMText
 10
182.1799712454
 20
50.6741546648
 30
0.0
 40
3.5
 41
0.0
 71
         1
 72
         1
  1
01
  7
SLDTEXTSTYLE0
 73
         1
 44
1.0
  0
MTEXT
  5
54
100
AcDbEntity
  8
0
 62
         7
100
AcDbMText
 10
98.9461171982
 20
50.4538562545
 30
0.0
 40
3.5
 41
0.0
 71
         1
 72
         1
  1
Aluminium
  7
SLDTEXTSTYLE0
 73
         1
 44
1.0
  0
ARC
  5
55
100
AcDbEntity
  8
0
370
        15
  6
Continuous
 62
         7
100
AcDbCircle
 10
94.5933883845
 20
217.7325931757
 30
0.0
 40
4.0
100
AcDbArc
 50
128.5075092301
 51
271.4060637811
  0
ARC
  5
56
100
AcDbEntity
  8
0
370
        15
  6
Continuous
 62
         7
100
AcDbCircle
 10
132.2301821362
 20
170.429385319
 30
0.0
 40
64.4493318197
100
AcDbArc
 50
115.0
 51
128.5075092301
  0
ARC
  5
57
100
AcDbEntity
  8
0
370
        15
  6
Continuous
 62
         7
100
AcDbCircle
 10
103.3022445053
 20
232.4655477646
 30
0.0
 40
4.0
100
AcDbArc
 50
295.0
 51
115.0
  0
ARC
  5
58
100
AcDbEntity
  8
0
370
        15
  6
Continuous
 62
         7
100
AcDbCircle
 10
132.2301821362
 20
170.429385319
 30
0.0
 40
72.4493318197
100
AcDbArc
 50
115.0
 51
150.0599395776
  0
ARC
  5
59
100
AcDbEntity
  8
0
370
        15
  6
Continuous
 62
         7
100
AcDbCircle
 10
72.9155504587
 20
204.5920183486
 30
0.0
 40
4.0
100
AcDbArc
 50
150.0599395776
 51
289.9934141743
  0
ARC
  5
5A
100
AcDbEntity
  8
0
370
        15
  6
Continuous
 62
         7
100
AcDbCircle
 10
96.5074873401
 20
139.7505153264
 30
0.0
 40
65.0
100
AcDbArc
 50
71.4077460272
 51
109.9934141743
  0
ARC
  5
5B
100
AcDbEntity
  8
0
370
        15
  6
Continuous
 62
         7
100
AcDbCircle
 10
121.9126829057
 20
215.2743004797
 30
0.0
 40
14.6822821311
100
AcDbArc
 50
251.4077460272
 51
38.2350629277
  0
ARC
  5
5C
100
AcDbEntity
  8
0
370
        15
  6
Continuous
 62
         7
100
AcDbCircle
 10
130.3033837426
 20
221.8854494717
 30
0.0
 40
4.0
100
AcDbArc
 50
38.2350629277
 51
205.0
  0
LINE
  5
5D
100
AcDbEntity
  8
0
370
        15
  6
Continuous
 62
         7
100
AcDbLine
 10
126.6781528178
 20
220.1949764001
 30
0.0
 11
128.7912436458
 21
215.6634374713
 31
0.0
  0
LINE
  5
5E
100
AcDbEntity
  8
0
370
        15
  6
Continuous
 62
         7
100
AcDbLine
 10
128.7912436458
 20
215.6634374713
 30
0.0
 11
117.9155501234
 21
210.5920182965
 31
0.0
  0
ARC
  5
5F
100
AcDbEntity
  8
0
370
        15
  6
Continuous
 62
         7
100
AcDbCircle
 10
96.5074873401
 20
139.7505153264
 30
0.0
 40
74.0055654457
100
AcDbArc
 50
73.1853602398
 51
91.4060637811
  0
LINE
  5
60
100
AcDbEntity
  8
0
370
        15
  6
Continuous
 62
         7
100
AcDbLine
 10
152.9155512038
 20
246.5920176781
 30
0.0
 11
52.9155497137
 21
246.5920176781
 31
0.0
  0
LINE
  5
61
100
AcDbEntity
  8
0
370
        15
  6
Continuous
 62
         7
100
AcDbLine
 10
152.9155512038
 20
186.5920190192
 30
0.0
 11
152.9155512038
 21
246.5920176781
 31
0.0
  0
LINE
  5
62
100
AcDbEntity
  8
0
370
        15
  6
Continuous
 62
         7
100
AcDbLine
 10
52.9155497137
 20
186.5920190192
 30
0.0
 11
152.9155512038
 21
186.5920190192
 31
0.0
  0
LINE
  5
63
100
AcDbEntity
  8
0
370
        15
  6
Continuous
 62
         7
100
AcDbLine
 10
52.9155497137
 20
246.5920176781
 30
0.0
 11
52.9155497137
 21
186.5920190192
 31
0.0
  0
DIMENSION
  5
70
100
AcDbEntity
  8
0
 62
       255
100
AcDbDimension
  2
*D0
 10
152.9155504587
 20
258.7459550562
 30
0.0
 11
102.1634831461
 21
258.7459550562
 31
0.0
 70
       160
 71
         5
 72
         1
 41
1.0
 42
0.0
  3
SLDDIMSTYLE0
100
AcDbAlignedDimension
 13
52.9155504587
 23
246.5920183486
 33
0.0
 14
152.9155504587
 24
246.5920183486
 34
0.0
100
AcDbRotatedDimension
  0
DIMENSION
  5
7C
100
AcDbEntity
  8
0
 62
       255
100
AcDbDimension
  2
*D1
 10
42.7857303371
 20
186.5920183486
 30
0.0
 11
42.7857303371
 21
217.5219101124
 31
0.0
 70
       160
 71
         5
 72
         1
 41
1.0
 42
0.0
  3
SLDDIMSTYLE0
100
AcDbAlignedDimension
 13
52.9155504587
 23
246.5920183486
 33
0.0
 14
52.9155504587
 24
186.5920183486
 34
0.0
 50
90.0
100
AcDbRotatedDimension
  0
LINE
  5
7D
100
AcDbEntity
  8
0
370
        15
  6
Continuous
 62
         7
100
AcDbLine
 10
152.9155512038
 20
109.1059557267
 30
0.0
 11
152.9155512038
 21
139.1059550562
 31
0.0
  0
LINE
  5
7E
100
AcDbEntity
  8
0
370
        15
  6
Continuous
 62
         7
100
AcDbLine
 10
152.9155512038
 20
109.1059557267
 30
0.0
 11
52.9155497137
 21
109.1059557267
 31
0.0
  0
LINE
  5
7F
100
AcDbEntity
  8
0
370
        15
  6
Continuous
 62
         7
100
AcDbLine
 10
152.9155512038
 20
139.1059550562
 30
0.0
 11
52.9155497137
 21
139.1059550562
 31
0.0
  0
LINE
  5
80
100
AcDbEntity
  8
0
370
        15
  6
Continuous
 62
         7
100
AcDbLine
 10
52.9155497137
 20
109.1059557267
 30
0.0
 11
52.9155497137
 21
139.1059550562
 31
0.0
  0
LINE
  5
81
100
AcDbEntity
  8
0
370
         0
  6
HIDDEN
 62
         9
100
AcDbLine
 10
128.7912436458
 20
139.1059550562
 30
0.0
 11
128.7912436458
 21
109.1059557267
 31
0.0
  0
LINE
  5
82
100
AcDbEntity
  8
0
370
         0
  6
HIDDEN
 62
         9
100
AcDbLine
 10
117.9155501234
 20
139.1059550562
 30
0.0
 11
117.9155501234
 21
109.1059557267
 31
0.0
  0
LINE
  5
83
100
AcDbEntity
  8
0
370
         0
  6
HIDDEN
 62
         9
100
AcDbLine
 10
107.3022446293
 20
109.1059557267
 30
0.0
 11
107.3022446293
 21
139.1059550562
 31
0.0
  0
LINE
  5
84
100
AcDbEntity
  8
0
370
         0
  6
HIDDEN
 62
         9
100
AcDbLine
 10
126.3033830258
 20
139.1059550562
 30
0.0
 11
126.3033830258
 21
109.1059557267
 31
0.0
  0
LINE
  5
85
100
AcDbEntity
  8
0
370
         0
  6
HIDDEN
 62
         9
100
AcDbLine
 10
136.5949649992
 20
109.1059557267
 30
0.0
 11
136.5949649992
 21
139.1059550562
 31
0.0
  0
LINE
  5
86
100
AcDbEntity
  8
0
370
         0
  6
HIDDEN
 62
         9
100
AcDbLine
 10
90.5933881807
 20
139.1059550562
 30
0.0
 11
90.5933881807
 21
109.1059557267
 31
0.0
  0
LINE
  5
87
100
AcDbEntity
  8
0
370
         0
  6
HIDDEN
 62
         9
100
AcDbLine
 10
68.915548611
 20
139.1059550562
 30
0.0
 11
68.915548611
 21
109.1059557267
 31
0.0
  0
DIMENSION
  5
93
100
AcDbEntity
  8
0
 62
       255
100
AcDbDimension
  2
*D2
 10
43.1639325843
 20
109.1059550562
 30
0.0
 11
43.1639325843
 21
124.1059550562
 31
0.0
 70
       160
 71
         5
 72
         1
 41
1.0
 42
0.0
  3
SLDDIMSTYLE0
100
AcDbAlignedDimension
 13
52.9155504587
 23
139.1059550562
 33
0.0
 14
52.9155504587
 24
109.1059550562
 34
0.0
 50
90.0
100
AcDbRotatedDimension
  0
ENDSEC
  0
SECTION
  2
OBJECTS
  0
DICTIONARY
  5
19
100
AcDbDictionary
280
         0
281
         1
  3
ACAD_GROUP
350
1A
  3
ACAD_MLINESTYLE
350
1B
  3
ACAD_LAYOUT
350
1E
  3
ACAD_PLOTSETTINGS
350
22
  3
ACAD_PLOTSTYLENAME
350
1F
  3
ACAD_WIPEOUT_VARS
350
23
  0
DICTIONARY
  5
1A
102
{ACAD_REACTORS
330
19
102
}
100
AcDbDictionary
280
         0
281
         1
  0
DICTIONARY
  5
1B
102
{ACAD_REACTORS
330
19
102
}
100
AcDbDictionary
280
         0
281
         1
  3
Standard
350
1C
  0
MLINESTYLE
  5
1C
102
{ACAD_REACTORS
330
1B
102
}
100
AcDbMlineStyle
  2
Standard
 70
         0
  3

 62
         0
 51
90.0
 52
90.0
 71
         2
 49
0.5
 62
       256
  6
BYLAYER
 49
-0.5
 62
       256
  6
BYLAYER
  0
ACDBDICTIONARYWDFLT
  5
1F
102
{ACAD_REACTORS
330
19
102
}
100
AcDbDictionary
281
         1
  3
Normal
350
1D
100
AcDbDictionaryWithDefault
340
1D
  0
ACDBPLACEHOLDER
  5
1D
102
{ACAD_REACTORS
330
1F
102
}
  0
LAYOUT
  5
20
102
{ACAD_REACTORS
330
1E
102
}
100
AcDbPlotSettings
  1

  2

  4

  6

 40
0.0
 41
0.0
 42
0.0
 43
0.0
 44
0.0
 45
0.0
 46
0.0
 47
0.0
 48
0.0
 49
0.0
140
0.0
141
0.0
142
1.0
143
1.0
 70
      1024
 72
         0
 73
         0
 74
         0
  7

 75
         0
147
1.0
148
0.0
149
0.0
100
AcDbLayout
  1
Model
 70
         0
 71
         0
 10
0.0
 20
0.0
 11
0.0
 21
0.0
 12
0.0
 22
0.0
 32
0.0
 14
0.0
 24
0.0
 34
0.0
 15
0.0
 25
0.0
 35
0.0
146
0.0
 13
0.0
 23
0.0
 33
0.0
 16
0.0
 26
0.0
 36
0.0
 17
0.0
 27
0.0
 37
0.0
 76
         0
330
A
331
0
345
0
346
0
  0
LAYOUT
  5
21
102
{ACAD_REACTORS
330
1E
102
}
100
AcDbPlotSettings
  1

  2

  4

  6

 40
0.0
 41
0.0
 42
0.0
 43
0.0
 44
0.0
 45
0.0
 46
0.0
 47
0.0
 48
0.0
 49
0.0
140
0.0
141
0.0
142
1.0
143
1.0
 70
         0
 72
         0
 73
         0
 74
         0
  7

 75
         0
147
1.0
148
0.0
149
0.0
100
AcDbLayout
  1
Layout1
 70
         0
 71
         0
 10
0.0
 20
0.0
 11
0.0
 21
0.0
 12
0.0
 22
0.0
 32
0.0
 14
0.0
 24
0.0
 34
0.0
 15
0.0
 25
0.0
 35
0.0
146
0.0
 13
0.0
 23
0.0
 33
0.0
 16
0.0
 26
0.0
 36
0.0
 17
0.0
 27
0.0
 37
0.0
 76
         0
330
B
331
0
345
0
346
0
  0
DICTIONARY
  5
1E
102
{ACAD_REACTORS
330
19
102
}
100
AcDbDictionary
280
         0
281
         1
  3
Layout1
350
21
  3
Model
350
20
  0
DICTIONARY
  5
22
102
{ACAD_REACTORS
330
19
102
}
100
AcDbDictionary
280
         0
281
         1
  0
WIPEOUTVARIABLES
  5
23
100
AcDbWipeoutVariables
 70
         1
  0
ENDSEC
  0
EOF
