  0
SECTION
  2
HEADER
  9
$ACADVER
  1
AC1032
  9
$ACADMAINTVER
 90
        4
  9
$DWGCODEPAGE
  3
ANSI_1252
  9
$COMMENTS
  1
File was created by SpaceClaim
  9
$REQUIREDVERSIONS
160
                 0
  9
$INSBASE
 10
0.0
 20
0.0
 30
0.0
  9
$EXTMIN
 10
-27.49999909111531
 20
-12.00000010430828
 30
-0.1647422472677509
  9
$EXTMAX
 10
27.50000091146801
 20
12.00000010430828
 30
-0.1647422472677499
  9
$LIMMIN
 10
0.0
 20
0.0
  9
$LIMMAX
 10
420.0
 20
297.0
  9
$ORTHOMODE
 70
     0
  9
$REGENMODE
 70
     1
  9
$FILLMODE
 70
     1
  9
$QTEXTMODE
 70
     0
  9
$MIRRTEXT
 70
     1
  9
$LTSCALE
 40
1.0
  9
$ATTMODE
 70
     1
  9
$TEXTSIZE
 40
2.5
  9
$TRACEWID
 40
1.0
  9
$TEXTSTYLE
  7
Standard
  9
$CLAYER
  8
0
  9
$CELTYPE
  6
ByLayer
  9
$CECOLOR
 62
   256
  9
$CELTSCALE
 40
1.0
  9
$DISPSILH
 70
     0
  9
$DIMSCALE
 40
1.0
  9
$DIMASZ
 40
2.5
  9
$DIMEXO
 40
0.625
  9
$DIMDLI
 40
3.75
  9
$DIMRND
 40
0.0
  9
$DIMDLE
 40
0.0
  9
$DIMEXE
 40
1.25
  9
$DIMTP
 40
0.0
  9
$DIMTM
 40
0.0
  9
$DIMTXT
 40
2.5
  9
$DIMCEN
 40
2.5
  9
$DIMTSZ
 40
0.0
  9
$DIMTOL
 70
     0
  9
$DIMLIM
 70
     0
  9
$DIMTIH
 70
     1
  9
$DIMTOH
 70
     0
  9
$DIMSE1
 70
     0
  9
$DIMSE2
 70
     0
  9
$DIMTAD
 70
     1
  9
$DIMZIN
 70
     8
  9
$DIMBLK
  1

  9
$DIMASO
 70
     1
  9
$DIMSHO
 70
     1
  9
$DIMPOST
  1
mm
  9
$DIMAPOST
  1

  9
$DIMALT
 70
     0
  9
$DIMALTD
 70
     3
  9
$DIMALTF
 40
0.0393700787401575
  9
$DIMLFAC
 40
1.0
  9
$DIMTOFL
 70
     1
  9
$DIMTVP
 40
0.0
  9
$DIMTIX
 70
     0
  9
$DIMSOXD
 70
     0
  9
$DIMSAH
 70
     0
  9
$DIMBLK1
  1

  9
$DIMBLK2
  1

  9
$DIMSTYLE
  2
ISO-25
  9
$DIMCLRD
 70
     0
  9
$DIMCLRE
 70
     0
  9
$DIMCLRT
 70
     0
  9
$DIMTFAC
 40
1.0
  9
$DIMGAP
 40
0.625
  9
$DIMJUST
 70
     0
  9
$DIMSD1
 70
     0
  9
$DIMSD2
 70
     0
  9
$DIMTOLJ
 70
     0
  9
$DIMTZIN
 70
     8
  9
$DIMALTZ
 70
     0
  9
$DIMALTTZ
 70
     8
  9
$DIMUPT
 70
     0
  9
$DIMDEC
 70
     2
  9
$DIMTDEC
 70
     2
  9
$DIMALTU
 70
     2
  9
$DIMALTTD
 70
     3
  9
$DIMTXSTY
  7
Standard
  9
$DIMAUNIT
 70
     0
  9
$DIMADEC
 70
     1
  9
$DIMALTRND
 40
0.0
  9
$DIMAZIN
 70
     0
  9
$DIMDSEP
 70
    44
  9
$DIMATFIT
 70
     3
  9
$DIMFRAC
 70
     0
  9
$DIMLDRBLK
  1

  9
$DIMLUNIT
 70
     2
  9
$DIMLWD
 70
    -2
  9
$DIMLWE
 70
    -2
  9
$DIMTMOVE
 70
     0
  9
$DIMFXL
 40
1.0
  9
$DIMFXLON
 70
     0
  9
$DIMJOGANG
 40
0.7853981633974483
  9
$DIMTFILL
 70
     0
  9
$DIMTFILLCLR
 70
     0
  9
$DIMARCSYM
 70
     0
  9
$DIMLTYPE
  6

  9
$DIMLTEX1
  6

  9
$DIMLTEX2
  6

  9
$DIMTXTDIRECTION
 70
     0
  9
$LUNITS
 70
     2
  9
$LUPREC
 70
     4
  9
$SKETCHINC
 40
1.0
  9
$FILLETRAD
 40
10.0
  9
$AUNITS
 70
     0
  9
$AUPREC
 70
     0
  9
$MENU
  1
.
  9
$ELEVATION
 40
0.0
  9
$PELEVATION
 40
0.0
  9
$THICKNESS
 40
0.0
  9
$LIMCHECK
 70
     0
  9
$CHAMFERA
 40
0.0
  9
$CHAMFERB
 40
0.0
  9
$CHAMFERC
 40
0.0
  9
$CHAMFERD
 40
0.0
  9
$SKPOLY
 70
     0
  9
$TDCREATE
 40
2459438.679515405
  9
$TDUCREATE
 40
2459438.596182072
  9
$TDUPDATE
 40
2459438.679516065
  9
$TDUUPDATE
 40
2459438.596182731
  9
$TDINDWG
 40
0.0000000116
  9
$TDUSRTIMER
 40
0.0000000116
  9
$USRTIMER
 70
     1
  9
$ANGBASE
 50
0.0
  9
$ANGDIR
 70
     0
  9
$PDMODE
 70
     0
  9
$PDSIZE
 40
0.0
  9
$PLINEWID
 40
0.0
  9
$SPLFRAME
 70
     0
  9
$SPLINETYPE
 70
     6
  9
$SPLINESEGS
 70
     8
  9
$HANDSEED
  5
18C
  9
$SURFTAB1
 70
     6
  9
$SURFTAB2
 70
     6
  9
$SURFTYPE
 70
     6
  9
$SURFU
 70
     6
  9
$SURFV
 70
     6
  9
$UCSBASE
  2

  9
$UCSNAME
  2

  9
$UCSORG
 10
0.0
 20
0.0
 30
0.0
  9
$UCSXDIR
 10
1.0
 20
0.0
 30
0.0
  9
$UCSYDIR
 10
0.0
 20
1.0
 30
0.0
  9
$UCSORTHOREF
  2

  9
$UCSORTHOVIEW
 70
     0
  9
$UCSORGTOP
 10
0.0
 20
0.0
 30
0.0
  9
$UCSORGBOTTOM
 10
0.0
 20
0.0
 30
0.0
  9
$UCSORGLEFT
 10
0.0
 20
0.0
 30
0.0
  9
$UCSORGRIGHT
 10
0.0
 20
0.0
 30
0.0
  9
$UCSORGFRONT
 10
0.0
 20
0.0
 30
0.0
  9
$UCSORGBACK
 10
0.0
 20
0.0
 30
0.0
  9
$PUCSBASE
  2

  9
$PUCSNAME
  2

  9
$PUCSORG
 10
0.0
 20
0.0
 30
0.0
  9
$PUCSXDIR
 10
1.0
 20
0.0
 30
0.0
  9
$PUCSYDIR
 10
0.0
 20
1.0
 30
0.0
  9
$PUCSORTHOREF
  2

  9
$PUCSORTHOVIEW
 70
     0
  9
$PUCSORGTOP
 10
0.0
 20
0.0
 30
0.0
  9
$PUCSORGBOTTOM
 10
0.0
 20
0.0
 30
0.0
  9
$PUCSORGLEFT
 10
0.0
 20
0.0
 30
0.0
  9
$PUCSORGRIGHT
 10
0.0
 20
0.0
 30
0.0
  9
$PUCSORGFRONT
 10
0.0
 20
0.0
 30
0.0
  9
$PUCSORGBACK
 10
0.0
 20
0.0
 30
0.0
  9
$USERI1
 70
     0
  9
$USERI2
 70
     0
  9
$USERI3
 70
     0
  9
$USERI4
 70
     0
  9
$USERI5
 70
     0
  9
$USERR1
 40
0.0
  9
$USERR2
 40
0.0
  9
$USERR3
 40
0.0
  9
$USERR4
 40
0.0
  9
$USERR5
 40
0.0
  9
$WORLDVIEW
 70
     1
  9
$SHADEDGE
 70
     3
  9
$SHADEDIF
 70
    70
  9
$TILEMODE
 70
     1
  9
$MAXACTVP
 70
    64
  9
$PINSBASE
 10
0.0
 20
0.0
 30
0.0
  9
$PLIMCHECK
 70
     0
  9
$PEXTMIN
 10
1.000000000000000E+20
 20
1.000000000000000E+20
 30
1.000000000000000E+20
  9
$PEXTMAX
 10
-1.000000000000000E+20
 20
-1.000000000000000E+20
 30
-1.000000000000000E+20
  9
$PLIMMIN
 10
0.0
 20
0.0
  9
$PLIMMAX
 10
420.0
 20
297.0
  9
$UNITMODE
 70
     0
  9
$VISRETAIN
 70
     1
  9
$PLINEGEN
 70
     0
  9
$PSLTSCALE
 70
     1
  9
$TREEDEPTH
 70
  3020
  9
$CMLSTYLE
  2
Standard
  9
$CMLJUST
 70
     0
  9
$CMLSCALE
 40
20.0
  9
$PROXYGRAPHICS
 70
     1
  9
$MEASUREMENT
 70
     1
  9
$CELWEIGHT
370
    -1
  9
$ENDCAPS
280
     0
  9
$JOINSTYLE
280
     0
  9
$LWDISPLAY
290
     0
  9
$INSUNITS
 70
     4
  9
$HYPERLINKBASE
  1

  9
$STYLESHEET
  1

  9
$XEDIT
290
     1
  9
$CEPSNTYPE
380
     0
  9
$PSTYLEMODE
290
     1
  9
$FINGERPRINTGUID
  2
{37401cc9-16a2-44dd-9f23-55b061e6f277}
  9
$VERSIONGUID
  2
{FAEB1C32-E019-11D5-929B-00C0DF256EC4}
  9
$EXTNAMES
290
     1
  9
$PSVPSCALE
 40
0.0
  9
$OLESTARTUP
290
     0
  9
$SORTENTS
280
   127
  9
$INDEXCTL
280
     0
  9
$HIDETEXT
280
     1
  9
$XCLIPFRAME
280
     2
  9
$HALOGAP
280
     0
  9
$OBSCOLOR
 70
   257
  9
$OBSLTYPE
280
     0
  9
$INTERSECTIONDISPLAY
280
     0
  9
$INTERSECTIONCOLOR
 70
   257
  9
$DIMASSOC
280
     2
  9
$PROJECTNAME
  1

  9
$CAMERADISPLAY
290
     0
  9
$LENSLENGTH
 40
50.0
  9
$CAMERAHEIGHT
 40
0.0
  9
$STEPSPERSEC
 40
2.0
  9
$STEPSIZE
 40
6.0
  9
$3DDWFPREC
 40
2.0
  9
$PSOLWIDTH
 40
5.0
  9
$PSOLHEIGHT
 40
80.0
  9
$LOFTANG1
 40
1.570796326794897
  9
$LOFTANG2
 40
1.570796326794897
  9
$LOFTMAG1
 40
0.0
  9
$LOFTMAG2
 40
0.0
  9
$LOFTPARAM
 70
     7
  9
$LOFTNORMALS
280
     1
  9
$LATITUDE
 40
37.795
  9
$LONGITUDE
 40
-122.394
  9
$NORTHDIRECTION
 40
0.0
  9
$TIMEZONE
 70
 -8000
  9
$LIGHTGLYPHDISPLAY
280
     1
  9
$TILEMODELIGHTSYNCH
280
     1
  9
$CMATERIAL
347
44
  9
$SOLIDHIST
280
     0
  9
$SHOWHIST
280
     1
  9
$DWFFRAME
280
     2
  9
$DGNFRAME
280
     2
  9
$REALWORLDSCALE
290
     1
  9
$INTERFERECOLOR
 62
   256
  9
$CSHADOW
280
     0
  9
$SHADOWPLANELOCATION
 40
0.0
  0
ENDSEC
  0
SECTION
  2
CLASSES
  0
CLASS
  1
ACDBDICTIONARYWDFLT
  2
AcDbDictionaryWithDefault
  3
ObjectDBX Classes
 90
        0
 91
        3
280
     0
281
     0
  0
CLASS
  1
VISUALSTYLE
  2
AcDbVisualStyle
  3
ObjectDBX Classes
 90
     4095
 91
        3
280
     0
281
     0
  0
CLASS
  1
MATERIAL
  2
AcDbMaterial
  3
ObjectDBX Classes
 90
     1153
 91
        3
280
     0
281
     0
  0
CLASS
  1
SCALE
  2
AcDbScale
  3
ObjectDBX Classes
 90
     1153
 91
        3
280
     0
281
     0
  0
CLASS
  1
TABLESTYLE
  2
AcDbTableStyle
  3
ObjectDBX Classes
 90
     4095
 91
        3
280
     0
281
     0
  0
CLASS
  1
MLEADERSTYLE
  2
AcDbMLeaderStyle
  3
ACDB_MLEADERSTYLE_CLASS
 90
     4095
 91
        3
280
     0
281
     0
  0
CLASS
  1
SUN
  2
AcDbSun
  3
SCENEOE
 90
     1153
 91
        3
280
     0
281
     0
  0
CLASS
  1
DICTIONARYVAR
  2
AcDbDictionaryVar
  3
ObjectDBX Classes
 90
        0
 91
        3
280
     0
281
     0
  0
CLASS
  1
CELLSTYLEMAP
  2
AcDbCellStyleMap
  3
ObjectDBX Classes
 90
     1152
 91
        3
280
     0
281
     0
  0
ENDSEC
  0
SECTION
  2
TABLES
  0
TABLE
  2
VPORT
  5
8
330
0
100
AcDbSymbolTable
 70
     1
  0
VPORT
  5
29
330
8
100
AcDbSymbolTableRecord
100
AcDbViewportTableRecord
  2
*Active
 70
     0
 10
0.0
 20
0.0
 11
1.0
 21
1.0
 12
0.0000009101763503
 22
0.5
 13
0.0
 23
0.0
 14
10.0
 24
10.0
 15
10.0
 25
10.0
 16
0.0
 26
0.0
 36
1.0
 17
0.0
 27
0.0
 37
0.0
 40
24.00000020861657
 41
2.29166664685432
 42
50.0
 43
0.0
 44
0.0
 50
0.0
 51
0.0
 71
     0
 72
   100
 73
     1
 74
     3
 75
     0
 76
     0
 77
     0
 78
     0
281
     0
 65
     1
110
0.0
120
0.0
130
0.0
111
1.0
121
0.0
131
0.0
112
0.0
122
1.0
132
0.0
 79
     0
146
0.0
348
2F
 60
     3
 61
     5
292
     1
282
     1
141
0.0
142
0.0
 63
   250
361
6D
  0
ENDTAB
  0
TABLE
  2
LTYPE
  5
5
330
0
100
AcDbSymbolTable
 70
     2
  0
LTYPE
  5
14
330
5
100
AcDbSymbolTableRecord
100
AcDbLinetypeTableRecord
  2
ByBlock
 70
     0
  3

 72
    65
 73
     0
 40
0.0
  0
LTYPE
  5
15
330
5
100
AcDbSymbolTableRecord
100
AcDbLinetypeTableRecord
  2
ByLayer
 70
     0
  3

 72
    65
 73
     0
 40
0.0
  0
LTYPE
  5
16
330
5
100
AcDbSymbolTableRecord
100
AcDbLinetypeTableRecord
  2
Continuous
 70
     0
  3
Solid line
 72
    65
 73
     0
 40
0.0
  0
LTYPE
  5
82
330
5
100
AcDbSymbolTableRecord
100
AcDbLinetypeTableRecord
  2
HIDDEN
 70
     0
  3
- - - - - - - - - - - - - - - - - - - - -
 72
    65
 73
     2
 40
9.524999999999999
 49
6.35
 74
     0
 49
-3.175
 74
     0
  0
ENDTAB
  0
TABLE
  2
LAYER
  5
2
330
0
100
AcDbSymbolTable
 70
     3
  0
LAYER
  5
10
330
2
100
AcDbSymbolTableRecord
100
AcDbLayerTableRecord
  2
0
 70
     0
 62
     7
  6
Continuous
370
    70
390
F
347
46
348
0
  0
LAYER
  5
80
330
2
100
AcDbSymbolTableRecord
100
AcDbLayerTableRecord
  2
Hidden
 70
     0
 62
     7
  6
Continuous
370
    70
390
F
347
46
348
0
  0
LAYER
  5
92
330
2
100
AcDbSymbolTableRecord
100
AcDbLayerTableRecord
  2
Defpoints
 70
     0
 62
     7
  6
Continuous
290
     0
370
    -3
390
F
347
46
348
0
  0
ENDTAB
  0
TABLE
  2
STYLE
  5
3
330
0
100
AcDbSymbolTable
 70
     2
  0
STYLE
  5
11
330
3
100
AcDbSymbolTableRecord
100
AcDbTextStyleTableRecord
  2
Standard
 70
     0
 40
0.0
 41
1.0
 50
0.0
 71
     0
 42
2.5
  3
txt
  4

  0
STYLE
  5
8F
330
3
100
AcDbSymbolTableRecord
100
AcDbTextStyleTableRecord
  2
SpaceClaim ASME CB
 70
     0
 40
0.0
 41
1.0
 50
0.0
 71
     0
 42
2.5
  3
SpaceClaim ASME.ttf
  4

1001
ACAD
1000
SpaceClaim ASME CB
1071
        0
  0
ENDTAB
  0
TABLE
  2
VIEW
  5
6
330
0
100
AcDbSymbolTable
 70
     0
  0
ENDTAB
  0
TABLE
  2
UCS
  5
7
330
0
100
AcDbSymbolTable
 70
     0
  0
ENDTAB
  0
TABLE
  2
APPID
  5
9
330
0
100
AcDbSymbolTable
 70
     1
  0
APPID
  5
12
330
9
100
AcDbSymbolTableRecord
100
AcDbRegAppTableRecord
  2
ACAD
 70
     0
  0
ENDTAB
  0
TABLE
  2
DIMSTYLE
  5
A
330
0
100
AcDbSymbolTable
 70
     2
100
AcDbDimStyleTable
  0
DIMSTYLE
105
27
330
A
100
AcDbSymbolTableRecord
100
AcDbDimStyleTableRecord
  2
ISO-25
 70
     0
 41
2.5
 42
0.625
 43
3.75
 44
1.25
 73
     0
 74
     0
 77
     1
 78
     8
140
2.5
141
2.5
143
0.03937007874016
147
0.625
171
     3
172
     1
178
     0
271
     2
272
     2
274
     3
278
    44
283
     0
284
     8
340
11
  0
DIMSTYLE
105
90
102
{ACAD_REACTORS
330
8E
330
A0
330
AF
330
BE
330
CD
330
DC
330
EB
330
FA
330
109
330
118
330
127
330
136
330
145
330
154
330
163
330
172
102
}
330
A
100
AcDbSymbolTableRecord
100
AcDbDimStyleTableRecord
  2
SpaceClaim ASME CB
 70
     0
178
     0
340
8F
  0
ENDTAB
  0
TABLE
  2
BLOCK_RECORD
  5
1
330
0
100
AcDbSymbolTable
 70
    17
  0
BLOCK_RECORD
  5
1F
330
1
100
AcDbSymbolTableRecord
100
AcDbBlockTableRecord
  2
*Model_Space
340
22
 70
     0
280
     1
281
     0
  0
BLOCK_RECORD
  5
1B
330
1
100
AcDbSymbolTableRecord
100
AcDbBlockTableRecord
  2
*Paper_Space
340
1E
 70
     0
280
     1
281
     0
  0
BLOCK_RECORD
  5
23
330
1
100
AcDbSymbolTableRecord
100
AcDbBlockTableRecord
  2
*Paper_Space0
340
26
 70
     0
280
     1
281
     0
  0
BLOCK_RECORD
  5
93
330
1
100
AcDbSymbolTableRecord
100
AcDbBlockTableRecord
  2
*D1
340
0
 70
     0
280
     1
281
     0
  0
BLOCK_RECORD
  5
A2
330
1
100
AcDbSymbolTableRecord
100
AcDbBlockTableRecord
  2
*D2
340
0
 70
     0
280
     1
281
     0
  0
BLOCK_RECORD
  5
B1
330
1
100
AcDbSymbolTableRecord
100
AcDbBlockTableRecord
  2
*D3
340
0
 70
     0
280
     1
281
     0
  0
BLOCK_RECORD
  5
C0
330
1
100
AcDbSymbolTableRecord
100
AcDbBlockTableRecord
  2
*D4
340
0
 70
     0
280
     1
281
     0
  0
BLOCK_RECORD
  5
CF
330
1
100
AcDbSymbolTableRecord
100
AcDbBlockTableRecord
  2
*D5
340
0
 70
     0
280
     1
281
     0
  0
BLOCK_RECORD
  5
DE
330
1
100
AcDbSymbolTableRecord
100
AcDbBlockTableRecord
  2
*D6
340
0
 70
     0
280
     1
281
     0
  0
BLOCK_RECORD
  5
ED
330
1
100
AcDbSymbolTableRecord
100
AcDbBlockTableRecord
  2
*D7
340
0
 70
     0
280
     1
281
     0
  0
BLOCK_RECORD
  5
FC
330
1
100
AcDbSymbolTableRecord
100
AcDbBlockTableRecord
  2
*D8
340
0
 70
     0
280
     1
281
     0
  0
BLOCK_RECORD
  5
10B
330
1
100
AcDbSymbolTableRecord
100
AcDbBlockTableRecord
  2
*D9
340
0
 70
     0
280
     1
281
     0
  0
BLOCK_RECORD
  5
11A
330
1
100
AcDbSymbolTableRecord
100
AcDbBlockTableRecord
  2
*D10
340
0
 70
     0
280
     1
281
     0
  0
BLOCK_RECORD
  5
129
330
1
100
AcDbSymbolTableRecord
100
AcDbBlockTableRecord
  2
*D11
340
0
 70
     0
280
     1
281
     0
  0
BLOCK_RECORD
  5
138
330
1
100
AcDbSymbolTableRecord
100
AcDbBlockTableRecord
  2
*D12
340
0
 70
     0
280
     1
281
     0
  0
BLOCK_RECORD
  5
147
330
1
100
AcDbSymbolTableRecord
100
AcDbBlockTableRecord
  2
*D13
340
0
 70
     0
280
     1
281
     0
  0
BLOCK_RECORD
  5
156
330
1
100
AcDbSymbolTableRecord
100
AcDbBlockTableRecord
  2
*D14
340
0
 70
     0
280
     1
281
     0
  0
BLOCK_RECORD
  5
165
330
1
100
AcDbSymbolTableRecord
100
AcDbBlockTableRecord
  2
*D15
340
0
 70
     0
280
     1
281
     0
  0
BLOCK_RECORD
  5
174
330
1
100
AcDbSymbolTableRecord
100
AcDbBlockTableRecord
  2
*D16
340
0
 70
     0
280
     1
281
     0
  0
ENDTAB
  0
ENDSEC
  0
SECTION
  2
BLOCKS
  0
BLOCK
  5
20
330
1F
100
AcDbEntity
  8
0
100
AcDbBlockBegin
  2
*Model_Space
 70
     0
 10
0.0
 20
0.0
 30
0.0
  3
*Model_Space
  1

  0
ENDBLK
  5
21
330
1F
100
AcDbEntity
  8
0
100
AcDbBlockEnd
  0
BLOCK
  5
1C
330
1B
100
AcDbEntity
 67
     1
  8
0
100
AcDbBlockBegin
  2
*Paper_Space
 70
     0
 10
0.0
 20
0.0
 30
0.0
  3
*Paper_Space
  1

  0
ENDBLK
  5
1D
330
1B
100
AcDbEntity
 67
     1
  8
0
100
AcDbBlockEnd
  0
BLOCK
  5
24
330
23
100
AcDbEntity
  8
0
100
AcDbBlockBegin
  2
*Paper_Space0
 70
     0
 10
0.0
 20
0.0
 30
0.0
  3
*Paper_Space0
  1

  0
ENDBLK
  5
25
330
23
100
AcDbEntity
  8
0
100
AcDbBlockEnd
  0
BLOCK
  5
94
330
93
100
AcDbEntity
  8
0
100
AcDbBlockBegin
  2
*D1
 70
     1
 10
0.0
 20
0.0
 30
0.0
  3
*D1
  1

  0
LINE
  5
96
330
93
100
AcDbEntity
  8
0
 62
     7
370
    -2
100
AcDbLine
 10
27.56250090847158
 20
11.99999999999996
 30
0.0
 11
54.75690815928439
 21
12.00000000000004
 31
0.0
  0
LINE
  5
97
330
93
100
AcDbEntity
  8
0
 62
     7
370
    -2
100
AcDbLine
 10
27.56250090847164
 20
-12.00000000000004
 30
0.0
 11
54.75690815928445
 21
-11.99999999999996
 31
0.0
  0
LINE
  5
98
330
93
100
AcDbEntity
  8
0
 62
     7
370
    -2
100
AcDbLine
 10
54.57690815928439
 20
10.75000000000004
 30
0.0
 11
54.57690815928441
 21
0.3237947471432303
 31
0.0
  0
LINE
  5
99
330
93
100
AcDbEntity
  8
0
 62
     7
370
    -2
100
AcDbLine
 10
54.57690815928445
 20
-10.74999999999996
 30
0.0
 11
54.57690815928442
 21
-1.613205252856771
 31
0.0
  0
SOLID
  5
9A
330
93
100
AcDbEntity
  8
0
 62
     7
100
AcDbTrace
 10
54.78524149261772
 20
10.75000000000004
 30
0.0
 11
54.36857482595105
 21
10.75000000000004
 31
0.0
 12
54.57690815928439
 22
12.00000000000004
 32
0.0
 13
54.57690815928439
 23
12.00000000000004
 33
0.0
  0
SOLID
  5
9B
330
93
100
AcDbEntity
  8
0
 62
     7
100
AcDbTrace
 10
54.36857482595111
 20
-10.74999999999996
 30
0.0
 11
54.78524149261779
 21
-10.74999999999996
 31
0.0
 12
54.57690815928445
 22
-11.99999999999996
 32
0.0
 13
54.57690815928445
 23
-11.99999999999996
 33
0.0
  0
MTEXT
  5
9C
330
93
100
AcDbEntity
  8
0
 62
     7
370
    35
100
AcDbMText
 10
54.57690815928442
 20
-0.6447052528567722
 30
0.0
 40
1.75
 41
0.0
 46
0.0
 71
     5
 72
     1
  1
\A1;{\fSpaceClaim ASME CB|b0|i0;24mm}
  7
SpaceClaim ASME CB
 73
     1
 44
1.0
  0
POINT
  5
9D
330
93
100
AcDbEntity
  8
Defpoints
 62
     0
100
AcDbPoint
 10
27.50000090847158
 20
11.99999999999996
 30
0.0
  0
POINT
  5
9E
330
93
100
AcDbEntity
  8
Defpoints
 62
     0
100
AcDbPoint
 10
27.50000090847164
 20
-12.00000000000004
 30
0.0
  0
POINT
  5
9F
330
93
100
AcDbEntity
  8
Defpoints
 62
     0
100
AcDbPoint
 10
54.57690815928445
 20
-11.99999999999996
 30
0.0
  0
ENDBLK
  5
95
330
93
100
AcDbEntity
  8
0
100
AcDbBlockEnd
  0
BLOCK
  5
A3
330
A2
100
AcDbEntity
  8
0
100
AcDbBlockBegin
  2
*D2
 70
     1
 10
0.0
 20
0.0
 30
0.0
  3
*D2
  1

  0
LINE
  5
A5
330
A2
100
AcDbEntity
  8
0
 62
     7
370
    -2
100
AcDbLine
 10
27.50000090847164
 20
-12.06250000000004
 30
0.0
 11
27.50000090847168
 21
-23.50534314449986
 31
0.0
  0
LINE
  5
A6
330
A2
100
AcDbEntity
  8
0
 62
     7
370
    -2
100
AcDbLine
 10
-27.49999908689132
 20
-12.06250000000019
 30
0.0
 11
-27.49999908689129
 21
-23.50534314450001
 31
0.0
  0
LINE
  5
A7
330
A2
100
AcDbEntity
  8
0
 62
     7
370
    -2
100
AcDbLine
 10
26.25000090847168
 20
-23.32534314449986
 30
0.0
 11
3.346327197888492
 21
-23.32534314449993
 31
0.0
  0
LINE
  5
A8
330
A2
100
AcDbEntity
  8
0
 62
     7
370
    -2
100
AcDbLine
 10
-26.24999908689129
 20
-23.32534314450001
 30
0.0
 11
-2.083672802111508
 21
-23.32534314449994
 31
0.0
  0
SOLID
  5
A9
330
A2
100
AcDbEntity
  8
0
 62
     7
100
AcDbTrace
 10
26.25000090847168
 20
-23.53367647783319
 30
0.0
 11
26.25000090847168
 21
-23.11700981116653
 31
0.0
 12
27.50000090847168
 22
-23.32534314449986
 32
0.0
 13
27.50000090847168
 23
-23.32534314449986
 33
0.0
  0
SOLID
  5
AA
330
A2
100
AcDbEntity
  8
0
 62
     7
100
AcDbTrace
 10
-26.24999908689129
 20
-23.11700981116667
 30
0.0
 11
-26.24999908689129
 21
-23.53367647783334
 31
0.0
 12
-27.49999908689129
 22
-23.32534314450001
 32
0.0
 13
-27.49999908689129
 23
-23.32534314450001
 33
0.0
  0
MTEXT
  5
AB
330
A2
100
AcDbEntity
  8
0
 62
     7
370
    35
100
AcDbMText
 10
0.6313271978884893
 20
-23.32534314449993
 30
0.0
 40
1.75
 41
0.0
 46
0.0
 71
     5
 72
     1
  1
\A1;{\fSpaceClaim ASME CB|b0|i0;55mm}
  7
SpaceClaim ASME CB
 73
     1
 44
1.0
  0
POINT
  5
AC
330
A2
100
AcDbEntity
  8
Defpoints
 62
     0
100
AcDbPoint
 10
27.50000090847164
 20
-12.00000000000004
 30
0.0
  0
POINT
  5
AD
330
A2
100
AcDbEntity
  8
Defpoints
 62
     0
100
AcDbPoint
 10
-27.49999908689132
 20
-12.00000000000019
 30
0.0
  0
POINT
  5
AE
330
A2
100
AcDbEntity
  8
Defpoints
 62
     0
100
AcDbPoint
 10
-27.49999908689129
 20
-23.32534314450001
 30
0.0
  0
ENDBLK
  5
A4
330
A2
100
AcDbEntity
  8
0
100
AcDbBlockEnd
  0
BLOCK
  5
B2
330
B1
100
AcDbEntity
  8
0
100
AcDbBlockBegin
  2
*D3
 70
     1
 10
0.0
 20
0.0
 30
0.0
  3
*D3
  1

  0
LINE
  5
B4
330
B1
100
AcDbEntity
  8
0
 62
     7
370
    -2
100
AcDbLine
 10
27.00652065025406
 20
21.40340488881892
 30
0.0
 11
23.13496811484883
 21
21.40340488881892
 31
0.0
  0
LINE
  5
B5
330
B1
100
AcDbEntity
  8
0
 62
     7
370
    -2
100
AcDbLine
 10
23.13496811484883
 20
21.40340488881892
 30
0.0
 11
23.00721649893384
 21
6.399985500364006
 31
0.0
  0
LINE
  5
B6
330
B1
100
AcDbEntity
  8
0
 62
     7
370
    -2
100
AcDbLine
 10
23.00040487917113
 20
5.600014499741981
 30
0.0
 11
23.01104803505036
 21
6.849969188213899
 31
0.0
  0
LINE
  5
B7
330
B1
100
AcDbEntity
  8
0
 62
     7
370
    -2
100
AcDbLine
 10
22.9897617232919
 20
4.350059811270063
 30
0.0
 11
22.96847541153344
 21
1.850150434326225
 31
0.0
  0
MTEXT
  5
B8
330
B1
100
AcDbEntity
  8
0
 62
     7
370
    35
100
AcDbMText
 10
30.77152065025406
 20
21.40340488881892
 30
0.0
 40
1.75
 41
0.0
 46
0.0
 71
     5
 72
     1
  1
\A1;{\fSpaceClaim ASME CB|b0|i0;%%c3,3mm}
  7
SpaceClaim ASME CB
 73
     1
 44
1.0
  0
LINE
  5
B9
330
B1
100
AcDbEntity
  8
0
 62
     7
370
    -2
100
AcDbLine
 10
22.9897617232919
 20
4.350059811270063
 30
0.0
 11
23.01785965481307
 21
7.649940188835925
 31
0.0
  0
SOLID
  5
BA
330
B1
100
AcDbEntity
  8
0
 62
     7
100
AcDbTrace
 10
22.79207909775915
 20
5.601788359055186
 30
0.0
 11
23.20873066058312
 21
5.598240640428775
 31
0.0
 12
22.9897617232919
 22
4.350059811270063
 32
0.0
 13
22.9897617232919
 23
4.350059811270063
 33
0.0
  0
SOLID
  5
BB
330
B1
100
AcDbEntity
  8
0
 62
     7
100
AcDbTrace
 10
23.21554228034583
 20
6.398211641050801
 30
0.0
 11
22.79889071752186
 21
6.401759359677212
 31
0.0
 12
23.01785965481307
 22
7.649940188835925
 32
0.0
 13
23.01785965481307
 23
7.649940188835925
 33
0.0
  0
POINT
  5
BC
330
B1
100
AcDbEntity
  8
Defpoints
 62
     0
100
AcDbPoint
 10
23.01785965481307
 20
7.649940188835925
 30
0.0
  0
POINT
  5
BD
330
B1
100
AcDbEntity
  8
Defpoints
 62
     0
100
AcDbPoint
 10
22.9897617232919
 20
4.350059811270063
 30
0.0
  0
ENDBLK
  5
B3
330
B1
100
AcDbEntity
  8
0
100
AcDbBlockEnd
  0
BLOCK
  5
C1
330
C0
100
AcDbEntity
  8
0
100
AcDbBlockBegin
  2
*D4
 70
     1
 10
0.0
 20
0.0
 30
0.0
  3
*D4
  1

  0
LINE
  5
C3
330
C0
100
AcDbEntity
  8
0
 62
     7
370
    -2
100
AcDbLine
 10
-10.83428357670568
 20
22.75882149588863
 30
0.0
 11
-7.145544951684404
 21
22.75882149588863
 31
0.0
  0
LINE
  5
C4
330
C0
100
AcDbEntity
  8
0
 62
     7
370
    -2
100
AcDbLine
 10
-7.145544951684404
 20
22.75882149588863
 30
0.0
 11
-0.1568838261068368
 21
6.367949966836725
 31
0.0
  0
LINE
  5
C5
330
C0
100
AcDbEntity
  8
0
 62
     7
370
    -2
100
AcDbLine
 10
0.1568856553024783
 20
5.632050033057594
 30
0.0
 11
-0.3333791593995763
 21
6.781893679587486
 31
0.0
  0
LINE
  5
C6
330
C0
100
AcDbEntity
  8
0
 62
     7
370
    -2
100
AcDbLine
 10
0.647150470004533
 20
4.482206386527701
 30
0.0
 11
1.627680099408642
 21
2.182519093467916
 31
0.0
  0
MTEXT
  5
C7
330
C0
100
AcDbEntity
  8
0
 62
     7
370
    35
100
AcDbMText
 10
-14.59928357670568
 20
22.75882149588863
 30
0.0
 40
1.75
 41
0.0
 46
0.0
 71
     5
 72
     1
  1
\A1;{\fSpaceClaim ASME CB|b0|i0;%%c3,3mm}
  7
SpaceClaim ASME CB
 73
     1
 44
1.0
  0
LINE
  5
C8
330
C0
100
AcDbEntity
  8
0
 62
     7
370
    -2
100
AcDbLine
 10
0.647150470004533
 20
4.482206386527701
 30
0.0
 11
-0.6471486408088915
 21
7.517793613366617
 31
0.0
  0
SOLID
  5
C9
330
C0
100
AcDbEntity
  8
0
 62
     7
100
AcDbTrace
 10
-0.0347549524525037
 20
5.550339230607251
 30
0.0
 11
0.3485262630574604
 21
5.713760835507936
 31
0.0
 12
0.647150470004533
 22
4.482206386527701
 32
0.0
 13
0.647150470004533
 23
4.482206386527701
 33
0.0
  0
SOLID
  5
CA
330
C0
100
AcDbEntity
  8
0
 62
     7
100
AcDbTrace
 10
0.0347567816481452
 20
6.449660769287068
 30
0.0
 11
-0.3485244338618189
 21
6.286239164386382
 31
0.0
 12
-0.6471486408088915
 22
7.517793613366617
 32
0.0
 13
-0.6471486408088915
 23
7.517793613366617
 33
0.0
  0
POINT
  5
CB
330
C0
100
AcDbEntity
  8
Defpoints
 62
     0
100
AcDbPoint
 10
-0.6471486408088915
 20
7.517793613366617
 30
0.0
  0
POINT
  5
CC
330
C0
100
AcDbEntity
  8
Defpoints
 62
     0
100
AcDbPoint
 10
0.647150470004533
 20
4.482206386527701
 30
0.0
  0
ENDBLK
  5
C2
330
C0
100
AcDbEntity
  8
0
100
AcDbBlockEnd
  0
BLOCK
  5
D0
330
CF
100
AcDbEntity
  8
0
100
AcDbBlockBegin
  2
*D5
 70
     1
 10
0.0
 20
0.0
 30
0.0
  3
*D5
  1

  0
LINE
  5
D2
330
CF
100
AcDbEntity
  8
0
 62
     7
370
    -2
100
AcDbLine
 10
-37.85225461097265
 20
18.42148835326333
 30
0.0
 11
-34.37771385475867
 21
18.42148835326333
 31
0.0
  0
LINE
  5
D3
330
CF
100
AcDbEntity
  8
0
 62
     7
370
    -2
100
AcDbLine
 10
-34.37771385475867
 20
18.42148835326333
 30
0.0
 11
-23.27017730679158
 21
6.294963944670495
 31
0.0
  0
LINE
  5
D4
330
CF
100
AcDbEntity
  8
0
 62
     7
370
    -2
100
AcDbLine
 10
-22.72982086401276
 20
5.705036055223477
 30
0.0
 11
-23.57412780585468
 21
6.626798382484442
 31
0.0
  0
LINE
  5
D5
330
CF
100
AcDbEntity
  8
0
 62
     7
370
    -2
100
AcDbLine
 10
-21.88551392217084
 20
4.783273727962512
 30
0.0
 11
-20.19690003848701
 21
2.939749073440581
 31
0.0
  0
MTEXT
  5
D6
330
CF
100
AcDbEntity
  8
0
 62
     7
370
    35
100
AcDbMText
 10
-41.61725461097264
 20
18.42148835326333
 30
0.0
 40
1.75
 41
0.0
 46
0.0
 71
     5
 72
     1
  1
\A1;{\fSpaceClaim ASME CB|b0|i0;%%c3,3mm}
  7
SpaceClaim ASME CB
 73
     1
 44
1.0
  0
LINE
  5
D7
330
CF
100
AcDbEntity
  8
0
 62
     7
370
    -2
100
AcDbLine
 10
-21.88551392217084
 20
4.783273727962512
 30
0.0
 11
-24.1144842486335
 21
7.21672627193146
 31
0.0
  0
SOLID
  5
D8
330
CF
100
AcDbEntity
  8
0
 62
     7
100
AcDbTrace
 10
-22.88344791855626
 20
5.564318231583158
 30
0.0
 11
-22.57619380946927
 21
5.845753878863796
 31
0.0
 12
-21.88551392217084
 22
4.783273727962512
 32
0.0
 13
-21.88551392217084
 23
4.783273727962512
 33
0.0
  0
SOLID
  5
D9
330
CF
100
AcDbEntity
  8
0
 62
     7
100
AcDbTrace
 10
-23.11655025224809
 20
6.435681768310814
 30
0.0
 11
-23.42380436133508
 21
6.154246121030176
 31
0.0
 12
-24.1144842486335
 22
7.21672627193146
 32
0.0
 13
-24.1144842486335
 23
7.21672627193146
 33
0.0
  0
POINT
  5
DA
330
CF
100
AcDbEntity
  8
Defpoints
 62
     0
100
AcDbPoint
 10
-24.1144842486335
 20
7.21672627193146
 30
0.0
  0
POINT
  5
DB
330
CF
100
AcDbEntity
  8
Defpoints
 62
     0
100
AcDbPoint
 10
-21.88551392217084
 20
4.783273727962512
 30
0.0
  0
ENDBLK
  5
D1
330
CF
100
AcDbEntity
  8
0
100
AcDbBlockEnd
  0
BLOCK
  5
DF
330
DE
100
AcDbEntity
  8
0
100
AcDbBlockBegin
  2
*D6
 70
     1
 10
0.0
 20
0.0
 30
0.0
  3
*D6
  1

  0
LINE
  5
E1
330
DE
100
AcDbEntity
  8
0
 62
     7
370
    -2
100
AcDbLine
 10
13.36199347241341
 20
24.74676585292538
 30
0.0
 11
9.525410886335504
 21
24.74676585292538
 31
0.0
  0
LINE
  5
E2
330
DE
100
AcDbEntity
  8
0
 62
     7
370
    -2
100
AcDbLine
 10
9.525410886335504
 20
24.74676585292538
 30
0.0
 11
8.022026468295373
 21
7.74902785978716
 31
0.0
  0
LINE
  5
E3
330
DE
100
AcDbEntity
  8
0
 62
     7
370
    -2
100
AcDbLine
 10
7.977975359352151
 20
7.25097214021266
 30
0.0
 11
8.088103131710204
 21
8.496111439148908
 31
0.0
  0
LINE
  5
E4
330
DE
100
AcDbEntity
  8
0
 62
     7
370
    -2
100
AcDbLine
 10
7.867847586994096
 20
6.005832841276412
 30
0.0
 11
7.647592042277989
 21
3.515554243403915
 31
0.0
  0
MTEXT
  5
E5
330
DE
100
AcDbEntity
  8
0
 62
     7
370
    35
100
AcDbMText
 10
16.25199347241341
 20
24.74676585292538
 30
0.0
 40
1.75
 41
0.0
 46
0.0
 71
     5
 72
     1
  1
\A1;{\fSpaceClaim ASME CB|b0|i0;%%c3mm}
  7
SpaceClaim ASME CB
 73
     1
 44
1.0
  0
LINE
  5
E6
330
DE
100
AcDbEntity
  8
0
 62
     7
370
    -2
100
AcDbLine
 10
7.867847586994096
 20
6.005832841276412
 30
0.0
 11
8.132154240653426
 21
8.994167158723409
 31
0.0
  0
SOLID
  5
E7
330
DE
100
AcDbEntity
  8
0
 62
     7
100
AcDbTrace
 10
7.770452142862776
 20
7.269326768939003
 30
0.0
 11
8.185498575841525
 21
7.232617511486318
 31
0.0
 12
7.867847586994096
 22
6.005832841276412
 32
0.0
 13
7.867847586994096
 23
6.005832841276412
 33
0.0
  0
SOLID
  5
E8
330
DE
100
AcDbEntity
  8
0
 62
     7
100
AcDbTrace
 10
8.229549684784747
 20
7.730673231060818
 30
0.0
 11
7.814503251805998
 21
7.767382488513503
 31
0.0
 12
8.132154240653426
 22
8.994167158723409
 32
0.0
 13
8.132154240653426
 23
8.994167158723409
 33
0.0
  0
POINT
  5
E9
330
DE
100
AcDbEntity
  8
Defpoints
 62
     0
100
AcDbPoint
 10
8.132154240653426
 20
8.994167158723409
 30
0.0
  0
POINT
  5
EA
330
DE
100
AcDbEntity
  8
Defpoints
 62
     0
100
AcDbPoint
 10
7.867847586994096
 20
6.005832841276412
 30
0.0
  0
ENDBLK
  5
E0
330
DE
100
AcDbEntity
  8
0
100
AcDbBlockEnd
  0
BLOCK
  5
EE
330
ED
100
AcDbEntity
  8
0
100
AcDbBlockBegin
  2
*D7
 70
     1
 10
0.0
 20
0.0
 30
0.0
  3
*D7
  1

  0
LINE
  5
F0
330
ED
100
AcDbEntity
  8
0
 62
     7
370
    -2
100
AcDbLine
 10
23.00381068905277
 20
-6.062499999947017
 30
0.0
 11
23.00381068905277
 21
-17.8125933948045
 31
0.0
  0
LINE
  5
F1
330
ED
100
AcDbEntity
  8
0
 62
     7
370
    -2
100
AcDbLine
 10
27.50000090847164
 20
-12.06250000000004
 30
0.0
 11
27.50000090847164
 21
-17.8125933948045
 31
0.0
  0
LINE
  5
F2
330
ED
100
AcDbEntity
  8
0
 62
     7
370
    -2
100
AcDbLine
 10
27.50000090847164
 20
-17.6325933948045
 30
0.0
 11
32.35789498157953
 21
-17.6325933948045
 31
0.0
  0
LINE
  5
F3
330
ED
100
AcDbEntity
  8
0
 62
     7
370
    -2
100
AcDbLine
 10
24.25381068905277
 20
-17.6325933948045
 30
0.0
 11
26.25000090847164
 21
-17.6325933948045
 31
0.0
  0
SOLID
  5
F4
330
ED
100
AcDbEntity
  8
0
 62
     7
100
AcDbTrace
 10
24.25381068905277
 20
-17.42426006147117
 30
0.0
 11
24.25381068905277
 21
-17.84092672813783
 31
0.0
 12
23.00381068905277
 22
-17.6325933948045
 32
0.0
 13
23.00381068905277
 23
-17.6325933948045
 33
0.0
  0
SOLID
  5
F5
330
ED
100
AcDbEntity
  8
0
 62
     7
100
AcDbTrace
 10
26.25000090847164
 20
-17.84092672813783
 30
0.0
 11
26.25000090847164
 21
-17.42426006147117
 31
0.0
 12
27.50000090847164
 22
-17.6325933948045
 32
0.0
 13
27.50000090847164
 23
-17.6325933948045
 33
0.0
  0
MTEXT
  5
F6
330
ED
100
AcDbEntity
  8
0
 62
     7
370
    35
100
AcDbMText
 10
35.33976998157953
 20
-17.6325933948045
 30
0.0
 40
1.75
 41
0.0
 46
0.0
 71
     5
 72
     1
  1
\A1;{\fSpaceClaim ASME CB|b0|i0;4,5mm}
  7
SpaceClaim ASME CB
 73
     1
 44
1.0
  0
POINT
  5
F7
330
ED
100
AcDbEntity
  8
Defpoints
 62
     0
100
AcDbPoint
 10
23.00381068905277
 20
-5.999999999947017
 30
0.0
  0
POINT
  5
F8
330
ED
100
AcDbEntity
  8
Defpoints
 62
     0
100
AcDbPoint
 10
27.50000090847164
 20
-12.00000000000004
 30
0.0
  0
POINT
  5
F9
330
ED
100
AcDbEntity
  8
Defpoints
 62
     0
100
AcDbPoint
 10
27.50000090847164
 20
-17.6325933948045
 30
0.0
  0
ENDBLK
  5
EF
330
ED
100
AcDbEntity
  8
0
100
AcDbBlockEnd
  0
BLOCK
  5
FD
330
FC
100
AcDbEntity
  8
0
100
AcDbBlockBegin
  2
*D8
 70
     1
 10
0.0
 20
0.0
 30
0.0
  3
*D8
  1

  0
LINE
  5
FF
330
FC
100
AcDbEntity
  8
0
 62
     7
370
    -2
100
AcDbLine
 10
-27.49999908689138
 20
12.06249999999982
 30
0.0
 11
-27.49999908689138
 21
22.03521042450811
 31
0.0
  0
LINE
  5
100
330
FC
100
AcDbEntity
  8
0
 62
     7
370
    -2
100
AcDbLine
 10
-22.99999908540218
 20
6.062499999946986
 30
0.0
 11
-22.99999908540218
 21
22.03521042450811
 31
0.0
  0
LINE
  5
101
330
FC
100
AcDbEntity
  8
0
 62
     7
370
    -2
100
AcDbLine
 10
-27.49999908689138
 20
21.85521042450811
 30
0.0
 11
-32.32340749824633
 21
21.85521042450811
 31
0.0
  0
LINE
  5
102
330
FC
100
AcDbEntity
  8
0
 62
     7
370
    -2
100
AcDbLine
 10
-26.24999908689138
 20
21.85521042450811
 30
0.0
 11
-24.24999908540218
 21
21.85521042450811
 31
0.0
  0
SOLID
  5
103
330
FC
100
AcDbEntity
  8
0
 62
     7
100
AcDbTrace
 10
-26.24999908689138
 20
22.06354375784144
 30
0.0
 11
-26.24999908689138
 21
21.64687709117478
 31
0.0
 12
-27.49999908689138
 22
21.85521042450811
 32
0.0
 13
-27.49999908689138
 23
21.85521042450811
 33
0.0
  0
SOLID
  5
104
330
FC
100
AcDbEntity
  8
0
 62
     7
100
AcDbTrace
 10
-24.24999908540218
 20
21.64687709117478
 30
0.0
 11
-24.24999908540218
 21
22.06354375784144
 31
0.0
 12
-22.99999908540218
 22
21.85521042450811
 32
0.0
 13
-22.99999908540218
 23
21.85521042450811
 33
0.0
  0
MTEXT
  5
105
330
FC
100
AcDbEntity
  8
0
 62
     7
370
    35
100
AcDbMText
 10
-35.30528249824633
 20
21.85521042450811
 30
0.0
 40
1.75
 41
0.0
 46
0.0
 71
     5
 72
     1
  1
\A1;{\fSpaceClaim ASME CB|b0|i0;4,5mm}
  7
SpaceClaim ASME CB
 73
     1
 44
1.0
  0
POINT
  5
106
330
FC
100
AcDbEntity
  8
Defpoints
 62
     0
100
AcDbPoint
 10
-27.49999908689138
 20
11.99999999999982
 30
0.0
  0
POINT
  5
107
330
FC
100
AcDbEntity
  8
Defpoints
 62
     0
100
AcDbPoint
 10
-22.99999908540218
 20
5.999999999946986
 30
0.0
  0
POINT
  5
108
330
FC
100
AcDbEntity
  8
Defpoints
 62
     0
100
AcDbPoint
 10
-22.99999908540218
 20
21.85521042450811
 30
0.0
  0
ENDBLK
  5
FE
330
FC
100
AcDbEntity
  8
0
100
AcDbBlockEnd
  0
BLOCK
  5
10C
330
10B
100
AcDbEntity
  8
0
100
AcDbBlockBegin
  2
*D9
 70
     1
 10
0.0
 20
0.0
 30
0.0
  3
*D9
  1

  0
LINE
  5
10E
330
10B
100
AcDbEntity
  8
0
 62
     7
370
    -2
100
AcDbLine
 10
-22.99999908540205
 20
-6.062500000053024
 30
0.0
 11
-22.99999908540205
 21
-17.63187118052901
 31
0.0
  0
LINE
  5
10F
330
10B
100
AcDbEntity
  8
0
 62
     7
370
    -2
100
AcDbLine
 10
0.0000009145979567
 20
-6.062500000052851
 30
0.0
 11
0.0000009145979565
 21
-17.63187118052901
 31
0.0
  0
LINE
  5
110
330
10B
100
AcDbEntity
  8
0
 62
     7
370
    -2
100
AcDbLine
 10
-21.74999908540205
 20
-17.45187118052901
 30
0.0
 11
-14.21587408540198
 21
-17.45187118052901
 31
0.0
  0
LINE
  5
111
330
10B
100
AcDbEntity
  8
0
 62
     7
370
    -2
100
AcDbLine
 10
-1.249999085402044
 20
-17.45187118052901
 30
0.0
 11
-8.784124085401977
 21
-17.45187118052901
 31
0.0
  0
SOLID
  5
112
330
10B
100
AcDbEntity
  8
0
 62
     7
100
AcDbTrace
 10
-21.74999908540205
 20
-17.24353784719568
 30
0.0
 11
-21.74999908540205
 21
-17.66020451386234
 31
0.0
 12
-22.99999908540205
 22
-17.45187118052901
 32
0.0
 13
-22.99999908540205
 23
-17.45187118052901
 33
0.0
  0
SOLID
  5
113
330
10B
100
AcDbEntity
  8
0
 62
     7
100
AcDbTrace
 10
-1.249999085402044
 20
-17.66020451386234
 30
0.0
 11
-1.249999085402044
 21
-17.24353784719568
 31
0.0
 12
0.0000009145979565
 22
-17.45187118052901
 32
0.0
 13
0.0000009145979565
 23
-17.45187118052901
 33
0.0
  0
MTEXT
  5
114
330
10B
100
AcDbEntity
  8
0
 62
     7
370
    35
100
AcDbMText
 10
-11.49999908540198
 20
-17.45187118052901
 30
0.0
 40
1.75
 41
0.0
 46
0.0
 71
     5
 72
     1
  1
\A1;{\fSpaceClaim ASME CB|b0|i0;23mm}
  7
SpaceClaim ASME CB
 73
     1
 44
1.0
  0
POINT
  5
115
330
10B
100
AcDbEntity
  8
Defpoints
 62
     0
100
AcDbPoint
 10
-22.99999908540205
 20
-6.000000000053024
 30
0.0
  0
POINT
  5
116
330
10B
100
AcDbEntity
  8
Defpoints
 62
     0
100
AcDbPoint
 10
0.0000009145979567
 20
-6.000000000052851
 30
0.0
  0
POINT
  5
117
330
10B
100
AcDbEntity
  8
Defpoints
 62
     0
100
AcDbPoint
 10
0.0000009145979567
 20
-17.45187118052901
 30
0.0
  0
ENDBLK
  5
10D
330
10B
100
AcDbEntity
  8
0
100
AcDbBlockEnd
  0
BLOCK
  5
11B
330
11A
100
AcDbEntity
  8
0
100
AcDbBlockBegin
  2
*D10
 70
     1
 10
0.0
 20
0.0
 30
0.0
  3
*D10
  1

  0
LINE
  5
11D
330
11A
100
AcDbEntity
  8
0
 62
     7
370
    -2
100
AcDbLine
 10
0.0000009145979567
 20
-6.062500000052851
 30
0.0
 11
0.0000009145979583
 21
-17.63187118052886
 31
0.0
  0
LINE
  5
11E
330
11A
100
AcDbEntity
  8
0
 62
     7
370
    -2
100
AcDbLine
 10
23.00381068905277
 20
-6.062499999947017
 30
0.0
 11
23.00381068905278
 21
-17.63187118052886
 31
0.0
  0
LINE
  5
11F
330
11A
100
AcDbEntity
  8
0
 62
     7
370
    -2
100
AcDbLine
 10
1.250000914597958
 20
-17.45187118052886
 30
0.0
 11
10.47564609007278
 21
-17.45187118052886
 31
0.0
  0
LINE
  5
120
330
11A
100
AcDbEntity
  8
0
 62
     7
370
    -2
100
AcDbLine
 10
21.75381068905278
 20
-17.45187118052886
 30
0.0
 11
15.90739609007279
 21
-17.45187118052886
 31
0.0
  0
SOLID
  5
121
330
11A
100
AcDbEntity
  8
0
 62
     7
100
AcDbTrace
 10
1.250000914597958
 20
-17.24353784719553
 30
0.0
 11
1.250000914597958
 21
-17.66020451386219
 31
0.0
 12
0.0000009145979583
 22
-17.45187118052886
 32
0.0
 13
0.0000009145979583
 23
-17.45187118052886
 33
0.0
  0
SOLID
  5
122
330
11A
100
AcDbEntity
  8
0
 62
     7
100
AcDbTrace
 10
21.75381068905278
 20
-17.66020451386219
 30
0.0
 11
21.75381068905278
 21
-17.24353784719553
 31
0.0
 12
23.00381068905278
 22
-17.45187118052886
 32
0.0
 13
23.00381068905278
 23
-17.45187118052886
 33
0.0
  0
MTEXT
  5
123
330
11A
100
AcDbEntity
  8
0
 62
     7
370
    35
100
AcDbMText
 10
13.19152109007278
 20
-17.45187118052886
 30
0.0
 40
1.75
 41
0.0
 46
0.0
 71
     5
 72
     1
  1
\A1;{\fSpaceClaim ASME CB|b0|i0;23mm}
  7
SpaceClaim ASME CB
 73
     1
 44
1.0
  0
POINT
  5
124
330
11A
100
AcDbEntity
  8
Defpoints
 62
     0
100
AcDbPoint
 10
0.0000009145979567
 20
-6.000000000052851
 30
0.0
  0
POINT
  5
125
330
11A
100
AcDbEntity
  8
Defpoints
 62
     0
100
AcDbPoint
 10
23.00381068905277
 20
-5.999999999947017
 30
0.0
  0
POINT
  5
126
330
11A
100
AcDbEntity
  8
Defpoints
 62
     0
100
AcDbPoint
 10
23.00381068905277
 20
-17.45187118052886
 30
0.0
  0
ENDBLK
  5
11C
330
11A
100
AcDbEntity
  8
0
100
AcDbBlockEnd
  0
BLOCK
  5
12A
330
129
100
AcDbEntity
  8
0
100
AcDbBlockBegin
  2
*D11
 70
     1
 10
0.0
 20
0.0
 30
0.0
  3
*D11
  1

  0
LINE
  5
12C
330
129
100
AcDbEntity
  8
0
 62
     7
370
    -2
100
AcDbLine
 10
23.06631068905277
 20
-5.999999999947017
 30
0.0
 11
36.71371942073368
 21
-5.999999999946933
 31
0.0
  0
LINE
  5
12D
330
129
100
AcDbEntity
  8
0
 62
     7
370
    -2
100
AcDbLine
 10
23.06631068905249
 20
6.000000000052993
 30
0.0
 11
36.71371942073361
 21
6.000000000053078
 31
0.0
  0
LINE
  5
12E
330
129
100
AcDbEntity
  8
0
 62
     7
370
    -2
100
AcDbLine
 10
36.53371942073368
 20
-4.749999999946934
 30
0.0
 11
36.53371942073365
 21
-0.1979068584886505
 31
0.0
  0
LINE
  5
12F
330
129
100
AcDbEntity
  8
0
 62
     7
370
    -2
100
AcDbLine
 10
36.53371942073362
 20
4.750000000053077
 30
0.0
 11
36.53371942073364
 21
1.74784314151135
 31
0.0
  0
SOLID
  5
130
330
129
100
AcDbEntity
  8
0
 62
     7
100
AcDbTrace
 10
36.32538608740034
 20
-4.749999999946935
 30
0.0
 11
36.74205275406701
 21
-4.749999999946933
 31
0.0
 12
36.53371942073368
 22
-5.999999999946934
 32
0.0
 13
36.53371942073368
 23
-5.999999999946934
 33
0.0
  0
SOLID
  5
131
330
129
100
AcDbEntity
  8
0
 62
     7
100
AcDbTrace
 10
36.74205275406695
 20
4.750000000053078
 30
0.0
 11
36.32538608740028
 21
4.750000000053076
 31
0.0
 12
36.53371942073361
 22
6.000000000053077
 32
0.0
 13
36.53371942073361
 23
6.000000000053077
 33
0.0
  0
MTEXT
  5
132
330
129
100
AcDbEntity
  8
0
 62
     7
370
    35
100
AcDbMText
 10
36.53371942073364
 20
0.7749681415113497
 30
0.0
 40
1.75
 41
0.0
 46
0.0
 71
     5
 72
     1
  1
\A1;{\fSpaceClaim ASME CB|b0|i0;12mm}
  7
SpaceClaim ASME CB
 73
     1
 44
1.0
  0
POINT
  5
133
330
129
100
AcDbEntity
  8
Defpoints
 62
     0
100
AcDbPoint
 10
23.00381068905277
 20
-5.999999999947017
 30
0.0
  0
POINT
  5
134
330
129
100
AcDbEntity
  8
Defpoints
 62
     0
100
AcDbPoint
 10
23.00381068905249
 20
6.000000000052993
 30
0.0
  0
POINT
  5
135
330
129
100
AcDbEntity
  8
Defpoints
 62
     0
100
AcDbPoint
 10
36.53371942073361
 20
6.000000000053077
 30
0.0
  0
ENDBLK
  5
12B
330
129
100
AcDbEntity
  8
0
100
AcDbBlockEnd
  0
BLOCK
  5
139
330
138
100
AcDbEntity
  8
0
100
AcDbBlockBegin
  2
*D12
 70
     1
 10
0.0
 20
0.0
 30
0.0
  3
*D12
  1

  0
LINE
  5
13B
330
138
100
AcDbEntity
  8
0
 62
     7
370
    -2
100
AcDbLine
 10
-15.75647083629861
 20
0.259596712067505
 30
0.0
 11
-12.11309690399402
 21
0.259596712067505
 31
0.0
  0
LINE
  5
13C
330
138
100
AcDbEntity
  8
0
 62
     7
370
    -2
100
AcDbLine
 10
-12.11309690399402
 20
0.259596712067505
 30
0.0
 11
-8.936677308985717
 21
-5.732902405945291
 31
0.0
  0
LINE
  5
13D
330
138
100
AcDbEntity
  8
0
 62
     7
370
    -2
100
AcDbLine
 10
-7.063320863366684
 20
-9.267097594054974
 30
0.0
 11
-7.648744752622632
 21
-8.162661597770699
 31
0.0
  0
LINE
  5
13E
330
138
100
AcDbEntity
  8
0
 62
     7
370
    -2
100
AcDbLine
 10
-6.477896974110736
 20
-10.37153359033925
 30
0.0
 11
-5.307049195598841
 21
-12.5804055829078
 31
0.0
  0
MTEXT
  5
13F
330
138
100
AcDbEntity
  8
0
 62
     7
370
    35
100
AcDbMText
 10
-19.52147083629861
 20
0.259596712067505
 30
0.0
 40
1.75
 41
0.0
 46
0.0
 71
     5
 72
     1
  1
\A1;{\fSpaceClaim ASME CB|b0|i0;%%c6,5mm}
  7
SpaceClaim ASME CB
 73
     1
 44
1.0
  0
LINE
  5
140
330
138
100
AcDbEntity
  8
0
 62
     7
370
    -2
100
AcDbLine
 10
-6.477896974110736
 20
-10.37153359033925
 30
0.0
 11
-9.522101198241664
 21
-4.628466409661016
 31
0.0
  0
SOLID
  5
141
330
138
100
AcDbEntity
  8
0
 62
     7
100
AcDbTrace
 10
-7.247393529414063
 20
-9.364668242264298
 30
0.0
 11
-6.879248197319304
 21
-9.16952694584565
 31
0.0
 12
-6.477896974110736
 22
-10.37153359033925
 32
0.0
 13
-6.477896974110736
 23
-10.37153359033925
 33
0.0
  0
SOLID
  5
142
330
138
100
AcDbEntity
  8
0
 62
     7
100
AcDbTrace
 10
-8.752604642938337
 20
-5.635331757735966
 30
0.0
 11
-9.120749975033096
 21
-5.830473054154615
 31
0.0
 12
-9.522101198241664
 22
-4.628466409661016
 32
0.0
 13
-9.522101198241664
 23
-4.628466409661016
 33
0.0
  0
POINT
  5
143
330
138
100
AcDbEntity
  8
Defpoints
 62
     0
100
AcDbPoint
 10
-9.522101198241664
 20
-4.628466409661016
 30
0.0
  0
POINT
  5
144
330
138
100
AcDbEntity
  8
Defpoints
 62
     0
100
AcDbPoint
 10
-6.477896974110736
 20
-10.37153359033925
 30
0.0
  0
ENDBLK
  5
13A
330
138
100
AcDbEntity
  8
0
100
AcDbBlockEnd
  0
BLOCK
  5
148
330
147
100
AcDbEntity
  8
0
100
AcDbBlockBegin
  2
*D13
 70
     1
 10
0.0
 20
0.0
 30
0.0
  3
*D13
  1

  0
LINE
  5
14A
330
147
100
AcDbEntity
  8
0
 62
     7
370
    -2
100
AcDbLine
 10
8.0625009138238
 20
-7.500000000000089
 30
0.0
 11
16.5026048541622
 21
-7.500000000000038
 31
0.0
  0
LINE
  5
14B
330
147
100
AcDbEntity
  8
0
 62
     7
370
    -2
100
AcDbLine
 10
8.062500913823762
 20
7.49999999999991
 30
0.0
 11
16.50260485416211
 21
7.499999999999962
 31
0.0
  0
LINE
  5
14C
330
147
100
AcDbEntity
  8
0
 62
     7
370
    -2
100
AcDbLine
 10
16.32260485416219
 20
-6.250000000000039
 30
0.0
 11
16.32260485416215
 21
0.43192223949241
 31
0.0
  0
LINE
  5
14D
330
147
100
AcDbEntity
  8
0
 62
     7
370
    -2
100
AcDbLine
 10
16.32260485416212
 20
6.249999999999961
 30
0.0
 11
16.32260485416214
 21
2.37767223949241
 31
0.0
  0
SOLID
  5
14E
330
147
100
AcDbEntity
  8
0
 62
     7
100
AcDbTrace
 10
16.11427152082886
 20
-6.25000000000004
 30
0.0
 11
16.53093818749553
 21
-6.250000000000038
 31
0.0
 12
16.3226048541622
 22
-7.500000000000039
 32
0.0
 13
16.3226048541622
 23
-7.500000000000039
 33
0.0
  0
SOLID
  5
14F
330
147
100
AcDbEntity
  8
0
 62
     7
100
AcDbTrace
 10
16.53093818749545
 20
6.249999999999962
 30
0.0
 11
16.11427152082878
 21
6.24999999999996
 31
0.0
 12
16.32260485416211
 22
7.499999999999961
 32
0.0
 13
16.32260485416211
 23
7.499999999999961
 33
0.0
  0
MTEXT
  5
150
330
147
100
AcDbEntity
  8
0
 62
     7
370
    35
100
AcDbMText
 10
16.32260485416215
 20
1.404797239492411
 30
0.0
 40
1.75
 41
0.0
 46
0.0
 71
     5
 72
     1
  1
\A1;{\fSpaceClaim ASME CB|b0|i0;15mm}
  7
SpaceClaim ASME CB
 73
     1
 44
1.0
  0
POINT
  5
151
330
147
100
AcDbEntity
  8
Defpoints
 62
     0
100
AcDbPoint
 10
8.0000009138238
 20
-7.500000000000089
 30
0.0
  0
POINT
  5
152
330
147
100
AcDbEntity
  8
Defpoints
 62
     0
100
AcDbPoint
 10
8.000000913823762
 20
7.49999999999991
 30
0.0
  0
POINT
  5
153
330
147
100
AcDbEntity
  8
Defpoints
 62
     0
100
AcDbPoint
 10
16.32260485416211
 20
7.499999999999962
 30
0.0
  0
ENDBLK
  5
149
330
147
100
AcDbEntity
  8
0
100
AcDbBlockEnd
  0
BLOCK
  5
157
330
156
100
AcDbEntity
  8
0
100
AcDbBlockBegin
  2
*D14
 70
     1
 10
0.0
 20
0.0
 30
0.0
  3
*D14
  1

  0
LINE
  5
159
330
156
100
AcDbEntity
  8
0
 62
     7
370
    -2
100
AcDbLine
 10
8.0000009138238
 20
-7.437500000000089
 30
0.0
 11
8.000000913823735
 21
2.398047203734248
 31
0.0
  0
LINE
  5
15A
330
156
100
AcDbEntity
  8
0
 62
     7
370
    -2
100
AcDbLine
 10
-7.9999990861762
 20
-7.437500000000131
 30
0.0
 11
-7.999999086176265
 21
2.398047203734146
 31
0.0
  0
LINE
  5
15B
330
156
100
AcDbEntity
  8
0
 62
     7
370
    -2
100
AcDbLine
 10
6.750000913823737
 20
2.21804720373424
 30
0.0
 11
2.540000913823741
 21
2.218047203734213
 31
0.0
  0
LINE
  5
15C
330
156
100
AcDbEntity
  8
0
 62
     7
370
    -2
100
AcDbLine
 10
-6.749999086176264
 20
2.218047203734154
 30
0.0
 11
-2.539999086176259
 21
2.218047203734181
 31
0.0
  0
SOLID
  5
15D
330
156
100
AcDbEntity
  8
0
 62
     7
100
AcDbTrace
 10
6.750000913823738
 20
2.009713870400906
 30
0.0
 11
6.750000913823736
 21
2.426380537067573
 31
0.0
 12
8.000000913823737
 22
2.218047203734248
 32
0.0
 13
8.000000913823737
 23
2.218047203734248
 33
0.0
  0
SOLID
  5
15E
330
156
100
AcDbEntity
  8
0
 62
     7
100
AcDbTrace
 10
-6.749999086176265
 20
2.426380537067488
 30
0.0
 11
-6.749999086176263
 21
2.009713870400821
 31
0.0
 12
-7.999999086176264
 22
2.218047203734146
 32
0.0
 13
-7.999999086176264
 23
2.218047203734146
 33
0.0
  0
MTEXT
  5
15F
330
156
100
AcDbEntity
  8
0
 62
     7
370
    35
100
AcDbMText
 10
0.0000009138237409
 20
2.218047203734197
 30
0.0
 40
1.75
 41
0.0
 46
0.0
 71
     5
 72
     1
  1
\A1;{\fSpaceClaim ASME CB|b0|i0;16mm}
  7
SpaceClaim ASME CB
 73
     1
 44
1.0
  0
POINT
  5
160
330
156
100
AcDbEntity
  8
Defpoints
 62
     0
100
AcDbPoint
 10
8.0000009138238
 20
-7.500000000000089
 30
0.0
  0
POINT
  5
161
330
156
100
AcDbEntity
  8
Defpoints
 62
     0
100
AcDbPoint
 10
-7.9999990861762
 20
-7.500000000000131
 30
0.0
  0
POINT
  5
162
330
156
100
AcDbEntity
  8
Defpoints
 62
     0
100
AcDbPoint
 10
-7.999999086176262
 20
2.218047203734146
 30
0.0
  0
ENDBLK
  5
158
330
156
100
AcDbEntity
  8
0
100
AcDbBlockEnd
  0
BLOCK
  5
166
330
165
100
AcDbEntity
  8
0
100
AcDbBlockBegin
  2
*D15
 70
     1
 10
0.0
 20
0.0
 30
0.0
  3
*D15
  1

  0
LINE
  5
168
330
165
100
AcDbEntity
  8
0
 62
     7
370
    -2
100
AcDbLine
 10
-23.06249908540205
 20
-6.000000000053024
 30
0.0
 11
-40.42205319492186
 21
-6.000000000053072
 31
0.0
  0
LINE
  5
169
330
165
100
AcDbEntity
  8
0
 62
     7
370
    -2
100
AcDbLine
 10
-27.56249908689132
 20
-12.00000000000019
 30
0.0
 11
-40.42205319492184
 21
-12.00000000000022
 31
0.0
  0
LINE
  5
16A
330
165
100
AcDbEntity
  8
0
 62
     7
370
    -2
100
AcDbLine
 10
-40.24205319492186
 20
-7.250000000053071
 30
0.0
 11
-40.24205319492185
 21
-7.596625000026645
 31
0.0
  0
LINE
  5
16B
330
165
100
AcDbEntity
  8
0
 62
     7
370
    -2
100
AcDbLine
 10
-40.24205319492184
 20
-10.75000000000022
 30
0.0
 11
-40.24205319492185
 21
-9.528375000026646
 31
0.0
  0
SOLID
  5
16C
330
165
100
AcDbEntity
  8
0
 62
     7
100
AcDbTrace
 10
-40.03371986158852
 20
-7.25000000005307
 30
0.0
 11
-40.45038652825519
 21
-7.250000000053072
 31
0.0
 12
-40.24205319492186
 22
-6.000000000053071
 32
0.0
 13
-40.24205319492186
 23
-6.000000000053071
 33
0.0
  0
SOLID
  5
16D
330
165
100
AcDbEntity
  8
0
 62
     7
100
AcDbTrace
 10
-40.45038652825518
 20
-10.75000000000022
 30
0.0
 11
-40.03371986158851
 21
-10.75000000000022
 31
0.0
 12
-40.24205319492184
 22
-12.00000000000022
 32
0.0
 13
-40.24205319492184
 23
-12.00000000000022
 33
0.0
  0
MTEXT
  5
16E
330
165
100
AcDbEntity
  8
0
 62
     7
370
    35
100
AcDbMText
 10
-40.24205319492185
 20
-8.562500000026645
 30
0.0
 40
1.75
 41
0.0
 46
0.0
 71
     5
 72
     1
  1
\A1;{\fSpaceClaim ASME CB|b0|i0;6mm}
  7
SpaceClaim ASME CB
 73
     1
 44
1.0
  0
POINT
  5
16F
330
165
100
AcDbEntity
  8
Defpoints
 62
     0
100
AcDbPoint
 10
-22.99999908540205
 20
-6.000000000053024
 30
0.0
  0
POINT
  5
170
330
165
100
AcDbEntity
  8
Defpoints
 62
     0
100
AcDbPoint
 10
-27.49999908689132
 20
-12.00000000000019
 30
0.0
  0
POINT
  5
171
330
165
100
AcDbEntity
  8
Defpoints
 62
     0
100
AcDbPoint
 10
-40.24205319492184
 20
-12.00000000000022
 30
0.0
  0
ENDBLK
  5
167
330
165
100
AcDbEntity
  8
0
100
AcDbBlockEnd
  0
BLOCK
  5
175
330
174
100
AcDbEntity
  8
0
100
AcDbBlockBegin
  2
*D16
 70
     1
 10
0.0
 20
0.0
 30
0.0
  3
*D16
  1

  0
LINE
  5
177
330
174
100
AcDbEntity
  8
0
 62
     7
370
    -2
100
AcDbLine
 10
-8.0624990861762
 20
-7.500000000000131
 30
0.0
 11
-17.19535577008778
 21
-7.500000000000155
 31
0.0
  0
LINE
  5
178
330
174
100
AcDbEntity
  8
0
 62
     7
370
    -2
100
AcDbLine
 10
-17.07785577008776
 20
-12.00000000000016
 30
0.0
 11
-17.19535577008776
 21
-12.00000000000016
 31
0.0
  0
LINE
  5
179
330
174
100
AcDbEntity
  8
0
 62
     7
370
    -2
100
AcDbLine
 10
-17.01535577008778
 20
-6.250000000000155
 30
0.0
 11
-17.01535577008778
 21
-5.000000000000155
 31
0.0
  0
LINE
  5
17A
330
174
100
AcDbEntity
  8
0
 62
     7
370
    -2
100
AcDbLine
 10
-17.01535577008776
 20
-13.25000000000016
 30
0.0
 11
-17.01535577008775
 21
-14.50000000000016
 31
0.0
  0
SOLID
  5
17B
330
174
100
AcDbEntity
  8
0
 62
     7
100
AcDbTrace
 10
-17.22368910342111
 20
-6.250000000000155
 30
0.0
 11
-16.80702243675445
 21
-6.250000000000154
 31
0.0
 12
-17.01535577008778
 22
-7.500000000000155
 32
0.0
 13
-17.01535577008778
 23
-7.500000000000155
 33
0.0
  0
SOLID
  5
17C
330
174
100
AcDbEntity
  8
0
 62
     7
100
AcDbTrace
 10
-16.80702243675443
 20
-13.25000000000016
 30
0.0
 11
-17.22368910342109
 21
-13.25000000000016
 31
0.0
 12
-17.01535577008776
 22
-12.00000000000016
 32
0.0
 13
-17.01535577008776
 23
-12.00000000000016
 33
0.0
  0
MTEXT
  5
17D
330
174
100
AcDbEntity
  8
0
 62
     7
370
    35
100
AcDbMText
 10
-17.01535577008777
 20
-9.312500000000156
 30
0.0
 40
1.75
 41
0.0
 46
0.0
 71
     5
 72
     1
  1
\A1;{\fSpaceClaim ASME CB|b0|i0;4,5mm}
  7
SpaceClaim ASME CB
 73
     1
 44
1.0
  0
POINT
  5
17E
330
174
100
AcDbEntity
  8
Defpoints
 62
     0
100
AcDbPoint
 10
-7.9999990861762
 20
-7.500000000000131
 30
0.0
  0
POINT
  5
17F
330
174
100
AcDbEntity
  8
Defpoints
 62
     0
100
AcDbPoint
 10
-17.01535577008776
 20
-12.00000000000016
 30
0.0
  0
POINT
  5
180
330
174
100
AcDbEntity
  8
Defpoints
 62
     0
100
AcDbPoint
 10
-17.01535577008776
 20
-12.00000000000016
 30
0.0
  0
ENDBLK
  5
176
330
174
100
AcDbEntity
  8
0
100
AcDbBlockEnd
  0
ENDSEC
  0
SECTION
  2
ENTITIES
  0
CIRCLE
  5
6E
330
1F
100
AcDbEntity
  8
0
 62
     7
370
    -3
100
AcDbCircle
 10
8.000000913823762
 20
7.499999999999909
 30
0.0
 40
1.5
  0
CIRCLE
  5
6F
330
1F
100
AcDbEntity
  8
0
 62
     7
370
    -3
100
AcDbCircle
 10
8.0000009138238
 20
-7.50000000000009
 30
0.0
 40
1.5
  0
CIRCLE
  5
70
330
1F
100
AcDbEntity
  8
0
 62
     7
370
    -3
100
AcDbCircle
 10
-7.9999990861762
 20
-7.500000000000132
 30
0.0
 40
1.5
  0
CIRCLE
  5
71
330
1F
100
AcDbEntity
  8
0
 62
     7
370
    -3
100
AcDbCircle
 10
-7.999999086176238
 20
7.499999999999867
 30
0.0
 40
1.5
  0
CIRCLE
  5
72
330
1F
100
AcDbEntity
  8
0
 62
     7
370
    -3
100
AcDbCircle
 10
-8.0000009138238
 20
-7.500000000000089
 30
0.0000000000000009
 40
3.25
210
3.464408322462953E-18
220
-1.110223024625156E-16
230
-1.0
  0
CIRCLE
  5
73
330
1F
100
AcDbEntity
  8
0
 62
     7
370
    -3
100
AcDbCircle
 10
-8.000000913823762
 20
7.49999999999991
 30
-0.0000000000000008
 40
3.25
210
3.464408322462953E-18
220
-1.110223024625156E-16
230
-1.0
  0
CIRCLE
  5
74
330
1F
100
AcDbEntity
  8
0
 62
     7
370
    -3
100
AcDbCircle
 10
7.9999990861762
 20
-7.500000000000131
 30
0.0000000000000008
 40
3.25
210
3.464408322462953E-18
220
-1.110223024625156E-16
230
-1.0
  0
CIRCLE
  5
75
330
1F
100
AcDbEntity
  8
0
 62
     7
370
    -3
100
AcDbCircle
 10
7.999999086176238
 20
7.499999999999868
 30
-0.0000000000000009
 40
3.25
210
3.464408322462953E-18
220
-1.110223024625156E-16
230
-1.0
  0
CIRCLE
  5
76
330
1F
100
AcDbEntity
  8
0
 62
     7
370
    -3
100
AcDbCircle
 10
22.99999908540205
 20
-6.000000000053023
 30
0.0000000000000006
 40
1.65
210
3.464408322462953E-18
220
-1.110223024625156E-16
230
-1.0
  0
CIRCLE
  5
77
330
1F
100
AcDbEntity
  8
0
 62
     7
370
    -3
100
AcDbCircle
 10
-0.0000009145979568
 20
-6.000000000052852
 30
0.0000000000000007
 40
1.65
210
3.464408322462953E-18
220
-1.110223024625156E-16
230
-1.0
  0
CIRCLE
  5
78
330
1F
100
AcDbEntity
  8
0
 62
     7
370
    -3
100
AcDbCircle
 10
-0.0000009145978206
 20
5.999999999947159
 30
-0.0000000000000007
 40
1.65
210
3.464408322462953E-18
220
-1.110223024625156E-16
230
-1.0
  0
CIRCLE
  5
79
330
1F
100
AcDbEntity
  8
0
 62
     7
370
    -3
100
AcDbCircle
 10
22.99999908540218
 20
5.999999999946987
 30
-0.0000000000000008
 40
1.65
210
3.464408322462953E-18
220
-1.110223024625156E-16
230
-1.0
  0
CIRCLE
  5
7A
330
1F
100
AcDbEntity
  8
0
 62
     7
370
    -3
100
AcDbCircle
 10
-23.00381068905277
 20
-5.999999999947017
 30
0.0000000000000008
 40
1.65
210
3.464408322462953E-18
220
-1.110223024625156E-16
230
-1.0
  0
CIRCLE
  5
7B
330
1F
100
AcDbEntity
  8
0
 62
     7
370
    -3
100
AcDbCircle
 10
-23.00381068905249
 20
6.000000000052993
 30
-0.0000000000000006
 40
1.649999999999998
210
3.464408322462953E-18
220
-1.110223024625156E-16
230
-1.0
  0
LINE
  5
7C
330
1F
100
AcDbEntity
  8
0
 62
     7
370
    -3
100
AcDbLine
 10
27.50000090847164
 20
-12.00000000000004
 30
0.0
 11
-27.49999908689132
 21
-12.00000000000018
 31
0.0
  0
LINE
  5
7D
330
1F
100
AcDbEntity
  8
0
 62
     7
370
    -3
100
AcDbLine
 10
-27.49999908689139
 20
11.99999999999982
 30
0.0
 11
27.50000090847158
 21
11.99999999999996
 31
0.0
  0
LINE
  5
7E
330
1F
100
AcDbEntity
  8
0
 62
     7
370
    -3
100
AcDbLine
 10
-27.49999908689132
 20
-12.00000000000018
 30
0.0
 11
-27.49999908689139
 21
11.99999999999982
 31
0.0
  0
LINE
  5
7F
330
1F
100
AcDbEntity
  8
0
 62
     7
370
    -3
100
AcDbLine
 10
27.50000090847158
 20
11.99999999999996
 30
0.0
 11
27.50000090847164
 21
-12.00000000000004
 31
0.0
  0
LINE
  5
81
330
1F
100
AcDbEntity
  8
Hidden
  6
HIDDEN
370
    -3
100
AcDbLine
 10
13.75000085681684
 20
-12.00000010430804
 30
0.0
 11
13.75000085681669
 21
12.00000010430821
 31
0.0
  0
LINE
  5
83
330
1F
100
AcDbEntity
  8
Hidden
  6
HIDDEN
370
    -3
100
AcDbLine
 10
16.25000126659863
 20
12.00000010430823
 30
0.0
 11
16.25000126659878
 21
-12.00000010430803
 31
0.0
  0
LINE
  5
84
330
1F
100
AcDbEntity
  8
Hidden
  6
HIDDEN
370
    -3
100
AcDbLine
 10
-16.24999940395348
 20
-12.00000010430823
 30
0.0
 11
-16.24999940395363
 21
12.00000010430803
 31
0.0
  0
LINE
  5
85
330
1F
100
AcDbEntity
  8
Hidden
  6
HIDDEN
370
    -3
100
AcDbLine
 10
-13.74999899417169
 20
12.00000010430804
 30
0.0
 11
-13.74999899417154
 21
-12.00000010430821
 31
0.0
  0
LINE
  5
86
330
1F
100
AcDbEntity
  8
Hidden
  6
HIDDEN
370
    -3
100
AcDbLine
 10
-22.74999908855759
 20
-12.00000010430827
 30
0.0
 11
-22.7499990885576
 21
-7.630950771272321
 31
0.0
  0
LINE
  5
87
330
1F
100
AcDbEntity
  8
Hidden
  6
HIDDEN
370
    -3
100
AcDbLine
 10
-25.24999908855766
 20
12.00000010430797
 30
0.0
 11
-25.24999908855759
 21
-12.00000010430828
 31
0.0
  0
LINE
  5
88
330
1F
100
AcDbEntity
  8
Hidden
  6
HIDDEN
370
    -3
100
AcDbLine
 10
-22.74999908855764
 20
7.630950771272043
 30
0.0
 11
-22.74999908855765
 21
12.00000010430799
 31
0.0
  0
LINE
  5
89
330
1F
100
AcDbEntity
  8
Hidden
  6
HIDDEN
370
    -3
100
AcDbLine
 10
-22.74999908855761
 20
-4.369049333036085
 30
0.0
 11
-22.74999908855763
 21
4.369049333035806
 31
0.0
  0
LINE
  5
8A
330
1F
100
AcDbEntity
  8
Hidden
  6
HIDDEN
370
    -3
100
AcDbLine
 10
25.25000090985436
 20
-12.00000010430797
 30
0.0
 11
25.25000090985429
 21
12.00000010430828
 31
0.0
  0
LINE
  5
8B
330
1F
100
AcDbEntity
  8
Hidden
  6
HIDDEN
370
    -3
100
AcDbLine
 10
22.75000090985436
 20
-7.630362175404886
 30
0.0
 11
22.75000090985437
 21
-12.00000010430799
 31
0.0
  0
LINE
  5
8C
330
1F
100
AcDbEntity
  8
Hidden
  6
HIDDEN
370
    -3
100
AcDbLine
 10
22.75000090985433
 20
4.369637928903242
 30
0.0
 11
22.75000090985435
 21
-4.369637928902963
 31
0.0
  0
LINE
  5
8D
330
1F
100
AcDbEntity
  8
Hidden
  6
HIDDEN
370
    -3
100
AcDbLine
 10
22.75000090985431
 20
12.00000010430827
 30
0.0
 11
22.75000090985432
 21
7.630362175405164
 31
0.0
  0
DIMENSION
  5
8E
102
{ACAD_XDICTIONARY
360
91
102
}
330
1F
100
AcDbEntity
  8
0
 62
     7
370
    35
100
AcDbDimension
280
     0
  2
*D1
 10
54.57690815928445
 20
-11.99999999999996
 30
4.250000190588195
 11
54.57690815928442
 21
-0.6447052528567722
 31
4.250000190588195
 70
   160
  1
{\fSpaceClaim ASME CB|b0|i0;<>}
 71
     5
 42
24.0
 73
     0
 74
     0
 75
     0
  3
SpaceClaim ASME CB
100
AcDbAlignedDimension
 13
27.50000090847158
 23
11.99999999999996
 33
4.250000190588193
 14
27.50000090847164
 24
-12.00000000000004
 34
4.250000190588197
 50
-89.99999999999984
100
AcDbRotatedDimension
1001
ACAD
1000
DSTYLE
1002
{
1070
   144
1040
1.0
1070
     4
1000

1070
   273
1070
     2
1070
   277
1070
     2
1070
   284
1070
     8
1070
   285
1070
     0
1070
    78
1070
     8
1070
   171
1070
     3
1070
   271
1070
     2
1070
   274
1070
     3
1070
   272
1070
     2
1070
   278
1070
    44
1070
    74
1070
     1
1070
   174
1070
     1
1070
    77
1070
     0
1070
   170
1070
     0
1070
    41
1040
1.25
1070
   344
1005
0
1070
   343
1005
0
1070
   173
1070
     1
1070
   140
1040
1.75
1070
   178
1070
     7
1070
   177
1070
     7
1070
   176
1070
     7
1070
   179
1070
     1
1070
   143
1040
0.0393700787401575
1070
   286
1070
     8
1070
     3
1000
mm
1070
    73
1070
     1
1002
}
  0
DIMENSION
  5
A0
102
{ACAD_XDICTIONARY
360
A1
102
}
330
1F
100
AcDbEntity
  8
0
 62
     7
370
    35
100
AcDbDimension
280
     0
  2
*D2
 10
-27.49999908689129
 20
-23.32534314450001
 30
4.250000190588198
 11
0.6313271978884893
 21
-23.32534314449993
 31
4.250000190588198
 70
   160
  1
{\fSpaceClaim ASME CB|b0|i0;<>}
 71
     5
 42
54.99999999536297
 73
     0
 74
     0
 75
     0
  3
SpaceClaim ASME CB
100
AcDbAlignedDimension
 13
27.50000090847164
 23
-12.00000000000004
 33
4.250000190588197
 14
-27.49999908689132
 24
-12.00000000000019
 34
4.250000190588197
 50
-179.9999999999998
100
AcDbRotatedDimension
1001
ACAD
1000
DSTYLE
1002
{
1070
   144
1040
1.0
1070
     4
1000

1070
   273
1070
     2
1070
   277
1070
     2
1070
   284
1070
     8
1070
   285
1070
     0
1070
    78
1070
     8
1070
   171
1070
     3
1070
   271
1070
     2
1070
   274
1070
     3
1070
   272
1070
     2
1070
   278
1070
    44
1070
    74
1070
     1
1070
   174
1070
     1
1070
    77
1070
     0
1070
   170
1070
     0
1070
    41
1040
1.25
1070
   344
1005
0
1070
   343
1005
0
1070
   173
1070
     1
1070
   140
1040
1.75
1070
   178
1070
     7
1070
   177
1070
     7
1070
   176
1070
     7
1070
   179
1070
     1
1070
   143
1040
0.0393700787401575
1070
   286
1070
     8
1070
     3
1000
mm
1070
    73
1070
     1
1002
}
  0
DIMENSION
  5
AF
102
{ACAD_XDICTIONARY
360
B0
102
}
330
1F
100
AcDbEntity
  8
0
 62
     7
370
    35
100
AcDbDimension
280
     0
  2
*D3
 10
22.9897617232919
 20
4.350059811270063
 30
4.250000190588194
 11
30.77152065025406
 21
21.40340488881892
 31
4.250000190588192
 70
   163
  1
{\fSpaceClaim ASME CB|b0|i0;<>}
 71
     5
 42
3.299999999999998
 73
     0
 74
     1
 75
     1
  3
SpaceClaim ASME CB
100
AcDbDiametricDimension
 15
23.01785965481307
 25
7.649940188835925
 35
4.250000190588194
 40
0.0
1001
ACAD
1000
DSTYLE
1002
{
1070
   144
1040
1.0
1070
     4
1000

1070
   273
1070
     2
1070
   277
1070
     2
1070
   284
1070
     8
1070
   285
1070
     0
1070
    78
1070
     8
1070
   171
1070
     3
1070
   271
1070
     2
1070
   274
1070
     3
1070
   272
1070
     2
1070
   278
1070
    44
1070
    74
1070
     1
1070
   174
1070
     1
1070
    77
1070
     0
1070
   170
1070
     0
1070
    41
1040
1.25
1070
   344
1005
0
1070
   343
1005
0
1070
   173
1070
     1
1070
   140
1040
1.75
1070
   178
1070
     7
1070
   177
1070
     7
1070
   176
1070
     7
1070
   172
1070
     1
1070
   141
1040
0.0
1070
   179
1070
     1
1070
   143
1040
0.0393700787401575
1070
   286
1070
     8
1070
     3
1000
mm
1070
    73
1070
     1
1002
}
  0
DIMENSION
  5
BE
102
{ACAD_XDICTIONARY
360
BF
102
}
330
1F
100
AcDbEntity
  8
0
 62
     7
370
    35
100
AcDbDimension
280
     0
  2
*D4
 10
0.647150470004533
 20
4.482206386527701
 30
4.250000190588194
 11
-14.59928357670568
 21
22.75882149588863
 31
4.250000190588192
 70
   163
  1
{\fSpaceClaim ASME CB|b0|i0;<>}
 71
     5
 42
3.3
 73
     0
 74
     1
 75
     1
  3
SpaceClaim ASME CB
100
AcDbDiametricDimension
 15
-0.6471486408088915
 25
7.517793613366617
 35
4.250000190588194
 40
0.0
1001
ACAD
1000
DSTYLE
1002
{
1070
   144
1040
1.0
1070
     4
1000

1070
   273
1070
     2
1070
   277
1070
     2
1070
   284
1070
     8
1070
   285
1070
     0
1070
    78
1070
     8
1070
   171
1070
     3
1070
   271
1070
     2
1070
   274
1070
     3
1070
   272
1070
     2
1070
   278
1070
    44
1070
    74
1070
     1
1070
   174
1070
     1
1070
    77
1070
     0
1070
   170
1070
     0
1070
    41
1040
1.25
1070
   344
1005
0
1070
   343
1005
0
1070
   173
1070
     1
1070
   140
1040
1.75
1070
   178
1070
     7
1070
   177
1070
     7
1070
   176
1070
     7
1070
   172
1070
     1
1070
   141
1040
0.0
1070
   179
1070
     1
1070
   143
1040
0.0393700787401575
1070
   286
1070
     8
1070
     3
1000
mm
1070
    73
1070
     1
1002
}
  0
DIMENSION
  5
CD
102
{ACAD_XDICTIONARY
360
CE
102
}
330
1F
100
AcDbEntity
  8
0
 62
     7
370
    35
100
AcDbDimension
280
     0
  2
*D5
 10
-21.88551392217084
 20
4.783273727962512
 30
4.250000190588194
 11
-41.61725461097264
 21
18.42148835326333
 31
4.250000190588193
 70
   163
  1
{\fSpaceClaim ASME CB|b0|i0;<>}
 71
     5
 42
3.299999999999999
 73
     0
 74
     1
 75
     1
  3
SpaceClaim ASME CB
100
AcDbDiametricDimension
 15
-24.1144842486335
 25
7.21672627193146
 35
4.250000190588194
 40
0.0
1001
ACAD
1000
DSTYLE
1002
{
1070
   144
1040
1.0
1070
     4
1000

1070
   273
1070
     2
1070
   277
1070
     2
1070
   284
1070
     8
1070
   285
1070
     0
1070
    78
1070
     8
1070
   171
1070
     3
1070
   271
1070
     2
1070
   274
1070
     3
1070
   272
1070
     2
1070
   278
1070
    44
1070
    74
1070
     1
1070
   174
1070
     1
1070
    77
1070
     0
1070
   170
1070
     0
1070
    41
1040
1.25
1070
   344
1005
0
1070
   343
1005
0
1070
   173
1070
     1
1070
   140
1040
1.75
1070
   178
1070
     7
1070
   177
1070
     7
1070
   176
1070
     7
1070
   172
1070
     1
1070
   141
1040
0.0
1070
   179
1070
     1
1070
   143
1040
0.0393700787401575
1070
   286
1070
     8
1070
     3
1000
mm
1070
    73
1070
     1
1002
}
  0
DIMENSION
  5
DC
102
{ACAD_XDICTIONARY
360
DD
102
}
330
1F
100
AcDbEntity
  8
0
 62
     7
370
    35
100
AcDbDimension
280
     0
  2
*D6
 10
7.867847586994096
 20
6.005832841276412
 30
4.250000190588194
 11
16.25199347241341
 21
24.74676585292538
 31
4.250000190588192
 70
   163
  1
{\fSpaceClaim ASME CB|b0|i0;<>}
 71
     5
 42
3.0
 73
     0
 74
     1
 75
     1
  3
SpaceClaim ASME CB
100
AcDbDiametricDimension
 15
8.132154240653426
 25
8.994167158723409
 35
4.250000190588194
 40
0.0
1001
ACAD
1000
DSTYLE
1002
{
1070
   144
1040
1.0
1070
     4
1000

1070
   273
1070
     2
1070
   277
1070
     2
1070
   284
1070
     8
1070
   285
1070
     0
1070
    78
1070
     8
1070
   171
1070
     3
1070
   271
1070
     2
1070
   274
1070
     3
1070
   272
1070
     2
1070
   278
1070
    44
1070
    74
1070
     1
1070
   174
1070
     1
1070
    77
1070
     0
1070
   170
1070
     0
1070
    41
1040
1.25
1070
   344
1005
0
1070
   343
1005
0
1070
   173
1070
     1
1070
   140
1040
1.75
1070
   178
1070
     7
1070
   177
1070
     7
1070
   176
1070
     7
1070
   172
1070
     1
1070
   141
1040
0.0
1070
   179
1070
     1
1070
   143
1040
0.0393700787401575
1070
   286
1070
     8
1070
     3
1000
mm
1070
    73
1070
     1
1002
}
  0
DIMENSION
  5
EB
102
{ACAD_XDICTIONARY
360
EC
102
}
330
1F
100
AcDbEntity
  8
0
 62
     7
370
    35
100
AcDbDimension
280
     0
  2
*D7
 10
27.50000090847164
 20
-17.6325933948045
 30
4.250000190588197
 11
35.33976998157953
 21
-17.6325933948045
 31
4.250000190588197
 70
   160
  1
{\fSpaceClaim ASME CB|b0|i0;<>}
 71
     5
 42
4.496190219418855
 73
     0
 74
     0
 75
     0
  3
SpaceClaim ASME CB
100
AcDbAlignedDimension
 13
23.00381068905277
 23
-5.999999999947017
 33
4.250000190588196
 14
27.50000090847164
 24
-12.00000000000004
 34
4.250000190588197
 50
0.0000000000001523
100
AcDbRotatedDimension
1001
ACAD
1000
DSTYLE
1002
{
1070
   144
1040
1.0
1070
     4
1000

1070
   273
1070
     2
1070
   277
1070
     2
1070
   284
1070
     8
1070
   285
1070
     0
1070
    78
1070
     8
1070
   171
1070
     3
1070
   271
1070
     2
1070
   274
1070
     3
1070
   272
1070
     2
1070
   278
1070
    44
1070
    74
1070
     1
1070
   174
1070
     1
1070
    77
1070
     0
1070
   170
1070
     0
1070
    41
1040
1.25
1070
   344
1005
0
1070
   343
1005
0
1070
   173
1070
     1
1070
   140
1040
1.75
1070
   178
1070
     7
1070
   177
1070
     7
1070
   176
1070
     7
1070
   179
1070
     1
1070
   143
1040
0.0393700787401575
1070
   286
1070
     8
1070
     3
1000
mm
1070
    73
1070
     1
1002
}
  0
DIMENSION
  5
FA
102
{ACAD_XDICTIONARY
360
FB
102
}
330
1F
100
AcDbEntity
  8
0
 62
     7
370
    35
100
AcDbDimension
280
     0
  2
*D8
 10
-22.99999908540218
 20
21.85521042450811
 30
4.250000190588192
 11
-35.30528249824633
 21
21.85521042450811
 31
4.250000190588192
 70
   160
  1
{\fSpaceClaim ASME CB|b0|i0;<>}
 71
     5
 42
4.500000001489189
 73
     0
 74
     0
 75
     0
  3
SpaceClaim ASME CB
100
AcDbAlignedDimension
 13
-27.49999908689138
 23
11.99999999999982
 33
4.250000190588193
 14
-22.99999908540218
 24
5.999999999946986
 34
4.250000190588194
 50
0.0000000000001523
100
AcDbRotatedDimension
1001
ACAD
1000
DSTYLE
1002
{
1070
   144
1040
1.0
1070
     4
1000

1070
   273
1070
     2
1070
   277
1070
     2
1070
   284
1070
     8
1070
   285
1070
     0
1070
    78
1070
     8
1070
   171
1070
     3
1070
   271
1070
     2
1070
   274
1070
     3
1070
   272
1070
     2
1070
   278
1070
    44
1070
    74
1070
     1
1070
   174
1070
     1
1070
    77
1070
     0
1070
   170
1070
     0
1070
    41
1040
1.25
1070
   344
1005
0
1070
   343
1005
0
1070
   173
1070
     1
1070
   140
1040
1.75
1070
   178
1070
     7
1070
   177
1070
     7
1070
   176
1070
     7
1070
   179
1070
     1
1070
   143
1040
0.0393700787401575
1070
   286
1070
     8
1070
     3
1000
mm
1070
    73
1070
     1
1002
}
  0
DIMENSION
  5
109
102
{ACAD_XDICTIONARY
360
10A
102
}
330
1F
100
AcDbEntity
  8
0
 62
     7
370
    35
100
AcDbDimension
280
     0
  2
*D9
 10
0.0000009145979565
 20
-17.45187118052901
 30
4.250000190588197
 11
-11.49999908540198
 21
-17.45187118052901
 31
4.250000190588197
 70
   160
  1
{\fSpaceClaim ASME CB|b0|i0;<>}
 71
     5
 42
23.00000000000001
 73
     0
 74
     0
 75
     0
  3
SpaceClaim ASME CB
100
AcDbAlignedDimension
 13
-22.99999908540205
 23
-6.000000000053024
 33
4.250000190588196
 14
0.0000009145979567
 24
-6.000000000052851
 34
4.250000190588196
 50
0.0000000000003511
100
AcDbRotatedDimension
1001
ACAD
1000
DSTYLE
1002
{
1070
   144
1040
1.0
1070
     4
1000

1070
   273
1070
     2
1070
   277
1070
     2
1070
   284
1070
     8
1070
   285
1070
     0
1070
    78
1070
     8
1070
   171
1070
     3
1070
   271
1070
     2
1070
   274
1070
     3
1070
   272
1070
     2
1070
   278
1070
    44
1070
    74
1070
     1
1070
   174
1070
     1
1070
    77
1070
     0
1070
   170
1070
     0
1070
    41
1040
1.25
1070
   344
1005
0
1070
   343
1005
0
1070
   173
1070
     1
1070
   140
1040
1.75
1070
   178
1070
     7
1070
   177
1070
     7
1070
   176
1070
     7
1070
   179
1070
     1
1070
   143
1040
0.0393700787401575
1070
   286
1070
     8
1070
     3
1000
mm
1070
    73
1070
     1
1002
}
  0
DIMENSION
  5
118
102
{ACAD_XDICTIONARY
360
119
102
}
330
1F
100
AcDbEntity
  8
0
 62
     7
370
    35
100
AcDbDimension
280
     0
  2
*D10
 10
23.00381068905278
 20
-17.45187118052886
 30
4.250000190588197
 11
13.19152109007278
 21
-17.45187118052886
 31
4.250000190588197
 70
   160
  1
{\fSpaceClaim ASME CB|b0|i0;<>}
 71
     5
 42
23.00380977445482
 73
     0
 74
     0
 75
     0
  3
SpaceClaim ASME CB
100
AcDbAlignedDimension
 13
0.0000009145979567
 23
-6.000000000052851
 33
4.250000190588196
 14
23.00381068905277
 24
-5.999999999947017
 34
4.250000190588196
 50
0.0000000000003511
100
AcDbRotatedDimension
1001
ACAD
1000
DSTYLE
1002
{
1070
   144
1040
1.0
1070
     4
1000

1070
   273
1070
     2
1070
   277
1070
     2
1070
   284
1070
     8
1070
   285
1070
     0
1070
    78
1070
     8
1070
   171
1070
     3
1070
   271
1070
     2
1070
   274
1070
     3
1070
   272
1070
     2
1070
   278
1070
    44
1070
    74
1070
     1
1070
   174
1070
     1
1070
    77
1070
     0
1070
   170
1070
     0
1070
    41
1040
1.25
1070
   344
1005
0
1070
   343
1005
0
1070
   173
1070
     1
1070
   140
1040
1.75
1070
   178
1070
     7
1070
   177
1070
     7
1070
   176
1070
     7
1070
   179
1070
     1
1070
   143
1040
0.0393700787401575
1070
   286
1070
     8
1070
     3
1000
mm
1070
    73
1070
     1
1002
}
  0
DIMENSION
  5
127
102
{ACAD_XDICTIONARY
360
128
102
}
330
1F
100
AcDbEntity
  8
0
 62
     7
370
    35
100
AcDbDimension
280
     0
  2
*D11
 10
36.53371942073361
 20
6.000000000053077
 30
4.250000190588195
 11
36.53371942073364
 21
0.7749681415113497
 31
4.250000190588195
 70
   160
  1
{\fSpaceClaim ASME CB|b0|i0;<>}
 71
     5
 42
12.00000000000001
 73
     0
 74
     0
 75
     0
  3
SpaceClaim ASME CB
100
AcDbAlignedDimension
 13
23.00381068905277
 23
-5.999999999947017
 33
4.250000190588196
 14
23.00381068905249
 24
6.000000000052993
 34
4.250000190588194
 50
90.00000000000036
100
AcDbRotatedDimension
1001
ACAD
1000
DSTYLE
1002
{
1070
   144
1040
1.0
1070
     4
1000

1070
   273
1070
     2
1070
   277
1070
     2
1070
   284
1070
     8
1070
   285
1070
     0
1070
    78
1070
     8
1070
   171
1070
     3
1070
   271
1070
     2
1070
   274
1070
     3
1070
   272
1070
     2
1070
   278
1070
    44
1070
    74
1070
     1
1070
   174
1070
     1
1070
    77
1070
     0
1070
   170
1070
     0
1070
    41
1040
1.25
1070
   344
1005
0
1070
   343
1005
0
1070
   173
1070
     1
1070
   140
1040
1.75
1070
   178
1070
     7
1070
   177
1070
     7
1070
   176
1070
     7
1070
   179
1070
     1
1070
   143
1040
0.0393700787401575
1070
   286
1070
     8
1070
     3
1000
mm
1070
    73
1070
     1
1002
}
  0
DIMENSION
  5
136
102
{ACAD_XDICTIONARY
360
137
102
}
330
1F
100
AcDbEntity
  8
0
 62
     7
370
    35
100
AcDbDimension
280
     0
  2
*D12
 10
-6.477896974110736
 20
-10.37153359033925
 30
4.250000190588196
 11
-19.52147083629861
 21
0.259596712067505
 31
4.250000190588195
 70
   163
  1
{\fSpaceClaim ASME CB|b0|i0;<>}
 71
     5
 42
6.500000000000001
 73
     0
 74
     1
 75
     1
  3
SpaceClaim ASME CB
100
AcDbDiametricDimension
 15
-9.522101198241664
 25
-4.628466409661016
 35
4.250000190588196
 40
0.0
1001
ACAD
1000
DSTYLE
1002
{
1070
   144
1040
1.0
1070
     4
1000

1070
   273
1070
     2
1070
   277
1070
     2
1070
   284
1070
     8
1070
   285
1070
     0
1070
    78
1070
     8
1070
   171
1070
     3
1070
   271
1070
     2
1070
   274
1070
     3
1070
   272
1070
     2
1070
   278
1070
    44
1070
    74
1070
     1
1070
   174
1070
     1
1070
    77
1070
     0
1070
   170
1070
     0
1070
    41
1040
1.25
1070
   344
1005
0
1070
   343
1005
0
1070
   173
1070
     1
1070
   140
1040
1.75
1070
   178
1070
     7
1070
   177
1070
     7
1070
   176
1070
     7
1070
   172
1070
     1
1070
   141
1040
0.0
1070
   179
1070
     1
1070
   143
1040
0.0393700787401575
1070
   286
1070
     8
1070
     3
1000
mm
1070
    73
1070
     1
1002
}
  0
DIMENSION
  5
145
102
{ACAD_XDICTIONARY
360
146
102
}
330
1F
100
AcDbEntity
  8
0
 62
     7
370
    35
100
AcDbDimension
280
     0
  2
*D13
 10
16.32260485416211
 20
7.499999999999961
 30
4.250000190588195
 11
16.32260485416215
 21
1.404797239492411
 31
4.250000190588195
 70
   160
  1
{\fSpaceClaim ASME CB|b0|i0;<>}
 71
     5
 42
15.0
 73
     0
 74
     0
 75
     0
  3
SpaceClaim ASME CB
100
AcDbAlignedDimension
 13
8.0000009138238
 23
-7.500000000000089
 33
4.250000190588196
 14
8.000000913823762
 24
7.49999999999991
 34
4.250000190588194
 50
90.00000000000036
100
AcDbRotatedDimension
1001
ACAD
1000
DSTYLE
1002
{
1070
   144
1040
1.0
1070
     4
1000

1070
   273
1070
     2
1070
   277
1070
     2
1070
   284
1070
     8
1070
   285
1070
     0
1070
    78
1070
     8
1070
   171
1070
     3
1070
   271
1070
     2
1070
   274
1070
     3
1070
   272
1070
     2
1070
   278
1070
    44
1070
    74
1070
     1
1070
   174
1070
     1
1070
    77
1070
     0
1070
   170
1070
     0
1070
    41
1040
1.25
1070
   344
1005
0
1070
   343
1005
0
1070
   173
1070
     1
1070
   140
1040
1.75
1070
   178
1070
     7
1070
   177
1070
     7
1070
   176
1070
     7
1070
   179
1070
     1
1070
   143
1040
0.0393700787401575
1070
   286
1070
     8
1070
     3
1000
mm
1070
    73
1070
     1
1002
}
  0
DIMENSION
  5
154
102
{ACAD_XDICTIONARY
360
155
102
}
330
1F
100
AcDbEntity
  8
0
 62
     7
370
    35
100
AcDbDimension
280
     0
  2
*D14
 10
-7.999999086176264
 20
2.218047203734146
 30
4.250000190588195
 11
0.0000009138237409
 21
2.218047203734197
 31
4.250000190588195
 70
   160
  1
{\fSpaceClaim ASME CB|b0|i0;<>}
 71
     5
 42
16.0
 73
     0
 74
     0
 75
     0
  3
SpaceClaim ASME CB
100
AcDbAlignedDimension
 13
8.0000009138238
 23
-7.500000000000089
 33
4.250000190588196
 14
-7.9999990861762
 24
-7.500000000000131
 34
4.250000190588196
 50
-179.9999999999996
100
AcDbRotatedDimension
1001
ACAD
1000
DSTYLE
1002
{
1070
   144
1040
1.0
1070
     4
1000

1070
   273
1070
     2
1070
   277
1070
     2
1070
   284
1070
     8
1070
   285
1070
     0
1070
    78
1070
     8
1070
   171
1070
     3
1070
   271
1070
     2
1070
   274
1070
     3
1070
   272
1070
     2
1070
   278
1070
    44
1070
    74
1070
     1
1070
   174
1070
     1
1070
    77
1070
     0
1070
   170
1070
     0
1070
    41
1040
1.25
1070
   344
1005
0
1070
   343
1005
0
1070
   173
1070
     1
1070
   140
1040
1.75
1070
   178
1070
     7
1070
   177
1070
     7
1070
   176
1070
     7
1070
   179
1070
     1
1070
   143
1040
0.0393700787401575
1070
   286
1070
     8
1070
     3
1000
mm
1070
    73
1070
     1
1002
}
  0
DIMENSION
  5
163
102
{ACAD_XDICTIONARY
360
164
102
}
330
1F
100
AcDbEntity
  8
0
 62
     7
370
    35
100
AcDbDimension
280
     0
  2
*D15
 10
-40.24205319492184
 20
-12.00000000000022
 30
4.250000190588196
 11
-40.24205319492185
 21
-8.562500000026645
 31
4.250000190588196
 70
   160
  1
{\fSpaceClaim ASME CB|b0|i0;<>}
 71
     5
 42
5.99999999994715
 73
     0
 74
     0
 75
     0
  3
SpaceClaim ASME CB
100
AcDbAlignedDimension
 13
-22.99999908540205
 23
-6.000000000053024
 33
4.250000190588196
 14
-27.49999908689132
 24
-12.00000000000019
 34
4.250000190588197
 50
-89.99999999999984
100
AcDbRotatedDimension
1001
ACAD
1000
DSTYLE
1002
{
1070
   144
1040
1.0
1070
     4
1000

1070
   273
1070
     2
1070
   277
1070
     2
1070
   284
1070
     8
1070
   285
1070
     0
1070
    78
1070
     8
1070
   171
1070
     3
1070
   271
1070
     2
1070
   274
1070
     3
1070
   272
1070
     2
1070
   278
1070
    44
1070
    74
1070
     1
1070
   174
1070
     1
1070
    77
1070
     0
1070
   170
1070
     0
1070
    41
1040
1.25
1070
   344
1005
0
1070
   343
1005
0
1070
   173
1070
     1
1070
   140
1040
1.75
1070
   178
1070
     7
1070
   177
1070
     7
1070
   176
1070
     7
1070
   179
1070
     1
1070
   143
1040
0.0393700787401575
1070
   286
1070
     8
1070
     3
1000
mm
1070
    73
1070
     1
1002
}
  0
DIMENSION
  5
172
102
{ACAD_XDICTIONARY
360
173
102
}
330
1F
100
AcDbEntity
  8
0
 62
     7
370
    35
100
AcDbDimension
280
     0
  2
*D16
 10
-17.01535577008776
 20
-12.00000000000016
 30
4.250000190588196
 11
-17.01535577008777
 21
-9.312500000000156
 31
4.250000190588196
 70
   160
  1
{\fSpaceClaim ASME CB|b0|i0;<>}
 71
     5
 42
4.5
 73
     0
 74
     0
 75
     0
  3
SpaceClaim ASME CB
100
AcDbAlignedDimension
 13
-7.9999990861762
 23
-7.500000000000131
 33
4.250000190588196
 14
-17.01535577008776
 24
-12.00000000000016
 34
4.250000190588197
 50
-89.99999999999984
100
AcDbRotatedDimension
1001
ACAD
1000
DSTYLE
1002
{
1070
   144
1040
1.0
1070
     4
1000

1070
   273
1070
     2
1070
   277
1070
     2
1070
   284
1070
     8
1070
   285
1070
     0
1070
    78
1070
     8
1070
   171
1070
     3
1070
   271
1070
     2
1070
   274
1070
     3
1070
   272
1070
     2
1070
   278
1070
    44
1070
    74
1070
     1
1070
   174
1070
     1
1070
    77
1070
     0
1070
   170
1070
     0
1070
    41
1040
1.25
1070
   344
1005
0
1070
   343
1005
0
1070
   173
1070
     1
1070
   140
1040
1.75
1070
   178
1070
     7
1070
   177
1070
     7
1070
   176
1070
     7
1070
   179
1070
     1
1070
   143
1040
0.0393700787401575
1070
   286
1070
     8
1070
     3
1000
mm
1070
    73
1070
     1
1002
}
  0
ENDSEC
  0
SECTION
  2
OBJECTS
  0
DICTIONARY
  5
C
330
0
100
AcDbDictionary
281
     1
  3
ACAD_DETAILVIEWSTYLE
350
188
  3
ACAD_GROUP
350
D
  3
ACAD_LAYOUT
350
1A
  3
ACAD_MATERIAL
350
43
  3
ACAD_MLEADERSTYLE
350
6B
  3
ACAD_MLINESTYLE
350
17
  3
ACAD_PLOTSETTINGS
350
19
  3
ACAD_PLOTSTYLENAME
350
E
  3
ACAD_SCALELIST
350
47
  3
ACAD_SECTIONVIEWSTYLE
350
189
  3
ACAD_TABLESTYLE
350
69
  3
ACAD_VISUALSTYLE
350
2A
  3
ACDB_RECOMPOSE_DATA
350
185
  3
AcDbVariableDictionary
350
181
  0
SUN
  5
6D
330
29
100
AcDbSun
 90
        1
290
     0
 63
     7
421
 16777215
 40
1.0
291
     1
 91
  2455826
 92
 54000000
292
     0
 70
     2
 71
   256
280
     1
  0
DICTIONARY
  5
91
330
8E
100
AcDbDictionary
280
     1
281
     1
  0
DICTIONARY
  5
A1
330
A0
100
AcDbDictionary
280
     1
281
     1
  0
DICTIONARY
  5
B0
330
AF
100
AcDbDictionary
280
     1
281
     1
  0
DICTIONARY
  5
BF
330
BE
100
AcDbDictionary
280
     1
281
     1
  0
DICTIONARY
  5
CE
330
CD
100
AcDbDictionary
280
     1
281
     1
  0
DICTIONARY
  5
DD
330
DC
100
AcDbDictionary
280
     1
281
     1
  0
DICTIONARY
  5
EC
330
EB
100
AcDbDictionary
280
     1
281
     1
  0
DICTIONARY
  5
FB
330
FA
100
AcDbDictionary
280
     1
281
     1
  0
DICTIONARY
  5
10A
330
109
100
AcDbDictionary
280
     1
281
     1
  0
DICTIONARY
  5
119
330
118
100
AcDbDictionary
280
     1
281
     1
  0
DICTIONARY
  5
128
330
127
100
AcDbDictionary
280
     1
281
     1
  0
DICTIONARY
  5
137
330
136
100
AcDbDictionary
280
     1
281
     1
  0
DICTIONARY
  5
146
330
145
100
AcDbDictionary
280
     1
281
     1
  0
DICTIONARY
  5
155
330
154
100
AcDbDictionary
280
     1
281
     1
  0
DICTIONARY
  5
164
330
163
100
AcDbDictionary
280
     1
281
     1
  0
DICTIONARY
  5
173
330
172
100
AcDbDictionary
280
     1
281
     1
  0
DICTIONARY
  5
188
102
{ACAD_REACTORS
330
C
102
}
330
C
100
AcDbDictionary
281
     1
  0
DICTIONARY
  5
D
102
{ACAD_REACTORS
330
C
102
}
330
C
100
AcDbDictionary
281
     1
  0
DICTIONARY
  5
1A
102
{ACAD_REACTORS
330
C
102
}
330
C
100
AcDbDictionary
281
     1
  3
Layout1
350
1E
  3
Layout2
350
26
  3
Model
350
22
  0
DICTIONARY
  5
43
102
{ACAD_REACTORS
330
C
102
}
330
C
100
AcDbDictionary
281
     1
  3
ByBlock
350
45
  3
ByLayer
350
44
  3
Global
350
46
  0
DICTIONARY
  5
6B
102
{ACAD_REACTORS
330
C
102
}
330
C
100
AcDbDictionary
281
     1
  3
Standard
350
6C
  0
DICTIONARY
  5
17
102
{ACAD_REACTORS
330
C
102
}
330
C
100
AcDbDictionary
281
     1
  3
Standard
350
18
  0
DICTIONARY
  5
19
102
{ACAD_REACTORS
330
C
102
}
330
C
100
AcDbDictionary
281
     1
  0
ACDBDICTIONARYWDFLT
  5
E
102
{ACAD_REACTORS
330
C
102
}
330
C
100
AcDbDictionary
281
     1
  3
Normal
350
F
100
AcDbDictionaryWithDefault
340
F
  0
DICTIONARY
  5
47
102
{ACAD_REACTORS
330
C
102
}
330
C
100
AcDbDictionary
281
     1
  3
A0
350
48
  3
A1
350
49
  3
A2
350
4A
  3
A3
350
4B
  3
A4
350
4C
  3
A5
350
4D
  3
A6
350
4E
  3
A7
350
4F
  3
A8
350
50
  3
A9
350
51
  3
B0
350
52
  3
B1
350
53
  3
B2
350
54
  3
B3
350
55
  3
B4
350
56
  3
B5
350
57
  3
B6
350
58
  3
B7
350
59
  3
B8
350
5A
  3
B9
350
5B
  3
C0
350
5C
  3
C1
350
5D
  3
C2
350
5E
  3
C3
350
5F
  3
C4
350
60
  3
C5
350
61
  3
C6
350
62
  3
C7
350
63
  3
C8
350
64
  3
C9
350
65
  3
D0
350
66
  3
D1
350
67
  3
D2
350
68
  0
DICTIONARY
  5
189
102
{ACAD_REACTORS
330
C
102
}
330
C
100
AcDbDictionary
281
     1
  0
DICTIONARY
  5
69
102
{ACAD_REACTORS
330
C
102
}
330
C
100
AcDbDictionary
281
     1
  3
Standard
350
6A
  0
DICTIONARY
  5
2A
102
{ACAD_REACTORS
330
C
102
}
330
C
100
AcDbDictionary
281
     1
  3
2dWireframe
350
2F
  3
Basic
350
32
  3
Brighten
350
36
  3
ColorChange
350
3A
  3
Conceptual
350
34
  3
Dim
350
35
  3
EdgeColorOff
350
3D
  3
Facepattern
350
39
  3
Flat
350
2B
  3
FlatWithEdges
350
2C
  3
Gouraud
350
2D
  3
GouraudWithEdges
350
2E
  3
Hidden
350
31
  3
JitterOff
350
3B
  3
Linepattern
350
38
  3
OverhangOff
350
3C
  3
Realistic
350
33
  3
Shaded
350
42
  3
Shaded with edges
350
41
  3
Shades of Gray
350
3E
  3
Sketchy
350
3F
  3
Thicken
350
37
  3
Wireframe
350
30
  3
X-Ray
350
40
  0
XRECORD
  5
185
102
{ACAD_REACTORS
330
C
102
}
330
C
100
AcDbXrecord
280
     1
 90
        1
330
6A
  0
DICTIONARY
  5
181
102
{ACAD_REACTORS
330
C
102
}
330
C
100
AcDbDictionary
281
     1
  3
CANNOSCALE
350
182
  3
CENTEREXE
350
18A
  3
CENTERLTYPEFILE
350
18B
  3
CMLEADERSTYLE
350
187
  3
CTABLESTYLE
350
186
  0
LAYOUT
  5
1E
102
{ACAD_REACTORS
330
1A
102
}
330
1A
100
AcDbPlotSettings
  1

  2
none_device
  4

  6

 40
0.0
 41
0.0
 42
0.0
 43
0.0
 44
0.0
 45
0.0
 46
0.0
 47
0.0
 48
0.0
 49
0.0
140
0.0
141
0.0
142
1.0
143
1.0
 70
   688
 72
     1
 73
     0
 74
     5
  7

 75
    16
 76
     0
 77
     2
 78
   300
147
1.0
148
0.0
149
0.0
100
AcDbLayout
  1
Layout1
 70
     1
 71
     1
 10
0.0
 20
0.0
 11
420.0
 21
297.0
 12
0.0
 22
0.0
 32
0.0
 14
1.000000000000000E+20
 24
1.000000000000000E+20
 34
1.000000000000000E+20
 15
-1.000000000000000E+20
 25
-1.000000000000000E+20
 35
-1.000000000000000E+20
146
0.0
 13
0.0
 23
0.0
 33
0.0
 16
1.0
 26
0.0
 36
0.0
 17
0.0
 27
1.0
 37
0.0
 76
     0
330
1B
  0
LAYOUT
  5
26
102
{ACAD_REACTORS
330
1A
102
}
330
1A
100
AcDbPlotSettings
  1

  2
none_device
  4

  6

 40
0.0
 41
0.0
 42
0.0
 43
0.0
 44
0.0
 45
0.0
 46
0.0
 47
0.0
 48
0.0
 49
0.0
140
0.0
141
0.0
142
1.0
143
1.0
 70
   688
 72
     1
 73
     0
 74
     5
  7

 75
    16
 76
     0
 77
     2
 78
   300
147
1.0
148
0.0
149
0.0
100
AcDbLayout
  1
Layout2
 70
     1
 71
     2
 10
0.0
 20
0.0
 11
0.0
 21
0.0
 12
0.0
 22
0.0
 32
0.0
 14
0.0
 24
0.0
 34
0.0
 15
0.0
 25
0.0
 35
0.0
146
0.0
 13
0.0
 23
0.0
 33
0.0
 16
1.0
 26
0.0
 36
0.0
 17
0.0
 27
1.0
 37
0.0
 76
     0
330
23
  0
LAYOUT
  5
22
102
{ACAD_REACTORS
330
1A
102
}
330
1A
100
AcDbPlotSettings
  1

  2
none_device
  4
Letter_(8.50_x_11.00_Inches)
  6

 40
6.35
 41
6.35
 42
6.35000508
 43
6.35000508
 44
215.9
 45
279.4
 46
0.0
 47
0.0
 48
0.0
 49
0.0
140
0.0
141
0.0
142
1.0
143
1.0
 70
  1712
 72
     1
 73
     0
 74
     0
  7

 75
     0
 76
     0
 77
     2
 78
   300
147
1.0
148
0.0
149
0.0
100
AcDbLayout
  1
Model
 70
     1
 71
     0
 10
0.0
 20
0.0
 11
420.0
 21
297.0
 12
0.0
 22
0.0
 32
0.0
 14
-27.49999909111531
 24
-12.00000010430828
 34
-0.1647422472677509
 15
27.50000091146801
 25
12.00000010430828
 35
-0.1647422472677499
146
0.0
 13
0.0
 23
0.0
 33
0.0
 16
1.0
 26
0.0
 36
0.0
 17
0.0
 27
1.0
 37
0.0
 76
     0
330
1F
331
29
  0
MATERIAL
  5
45
102
{ACAD_REACTORS
330
43
102
}
330
43
100
AcDbMaterial
  1
ByBlock
 72
     1
 94
      127
  0
MATERIAL
  5
44
102
{ACAD_REACTORS
330
43
102
}
330
43
100
AcDbMaterial
  1
ByLayer
 72
     1
 94
      127
  0
MATERIAL
  5
46
102
{ACAD_REACTORS
330
43
102
}
330
43
100
AcDbMaterial
  1
Global
 72
     1
 94
      127
  0
MLEADERSTYLE
  5
6C
102
{ACAD_REACTORS
330
6B
102
}
330
6B
100
AcDbMLeaderStyle
179
     2
170
     2
171
     1
172
     0
 90
        2
 40
0.0
 41
0.0
173
     1
 91
-1056964608
340
14
 92
       -2
290
     1
 42
2.0
291
     1
 43
8.0
  3
Standard
341
0
 44
4.0
300

342
11
174
     1
178
     6
175
     1
176
     0
 93
-1056964608
 45
4.0
292
     0
297
     0
 46
4.0
343
0
 94
-1056964608
 47
1.0
 49
1.0
140
1.0
293
     1
141
0.0
294
     1
177
     0
142
1.0
295
     0
296
     0
143
3.75
271
     0
272
     9
273
     9
298
     0
  0
MLINESTYLE
  5
18
102
{ACAD_REACTORS
330
17
102
}
330
17
100
AcDbMlineStyle
  2
Standard
 70
     0
  3

 62
   256
 51
90.0
 52
90.0
 71
     2
 49
0.5
 62
   256
  6
BYLAYER
 49
-0.5
 62
   256
  6
BYLAYER
  0
ACDBPLACEHOLDER
  5
F
102
{ACAD_REACTORS
330
E
102
}
330
E
  0
SCALE
  5
48
102
{ACAD_REACTORS
330
47
102
}
330
47
100
AcDbScale
 70
     0
300
1:1
140
1.0
141
1.0
290
     1
  0
SCALE
  5
49
102
{ACAD_REACTORS
330
47
102
}
330
47
100
AcDbScale
 70
     0
300
1:2
140
1.0
141
2.0
290
     0
  0
SCALE
  5
4A
102
{ACAD_REACTORS
330
47
102
}
330
47
100
AcDbScale
 70
     0
300
1:4
140
1.0
141
4.0
290
     0
  0
SCALE
  5
4B
102
{ACAD_REACTORS
330
47
102
}
330
47
100
AcDbScale
 70
     0
300
1:5
140
1.0
141
5.0
290
     0
  0
SCALE
  5
4C
102
{ACAD_REACTORS
330
47
102
}
330
47
100
AcDbScale
 70
     0
300
1:8
140
1.0
141
8.0
290
     0
  0
SCALE
  5
4D
102
{ACAD_REACTORS
330
47
102
}
330
47
100
AcDbScale
 70
     0
300
1:10
140
1.0
141
10.0
290
     0
  0
SCALE
  5
4E
102
{ACAD_REACTORS
330
47
102
}
330
47
100
AcDbScale
 70
     0
300
1:16
140
1.0
141
16.0
290
     0
  0
SCALE
  5
4F
102
{ACAD_REACTORS
330
47
102
}
330
47
100
AcDbScale
 70
     0
300
1:20
140
1.0
141
20.0
290
     0
  0
SCALE
  5
50
102
{ACAD_REACTORS
330
47
102
}
330
47
100
AcDbScale
 70
     0
300
1:30
140
1.0
141
30.0
290
     0
  0
SCALE
  5
51
102
{ACAD_REACTORS
330
47
102
}
330
47
100
AcDbScale
 70
     0
300
1:40
140
1.0
141
40.0
290
     0
  0
SCALE
  5
52
102
{ACAD_REACTORS
330
47
102
}
330
47
100
AcDbScale
 70
     0
300
1:50
140
1.0
141
50.0
290
     0
  0
SCALE
  5
53
102
{ACAD_REACTORS
330
47
102
}
330
47
100
AcDbScale
 70
     0
300
1:100
140
1.0
141
100.0
290
     0
  0
SCALE
  5
54
102
{ACAD_REACTORS
330
47
102
}
330
47
100
AcDbScale
 70
     0
300
2:1
140
2.0
141
1.0
290
     0
  0
SCALE
  5
55
102
{ACAD_REACTORS
330
47
102
}
330
47
100
AcDbScale
 70
     0
300
4:1
140
4.0
141
1.0
290
     0
  0
SCALE
  5
56
102
{ACAD_REACTORS
330
47
102
}
330
47
100
AcDbScale
 70
     0
300
8:1
140
8.0
141
1.0
290
     0
  0
SCALE
  5
57
102
{ACAD_REACTORS
330
47
102
}
330
47
100
AcDbScale
 70
     0
300
10:1
140
10.0
141
1.0
290
     0
  0
SCALE
  5
58
102
{ACAD_REACTORS
330
47
102
}
330
47
100
AcDbScale
 70
     0
300
100:1
140
100.0
141
1.0
290
     0
  0
SCALE
  5
59
102
{ACAD_REACTORS
330
47
102
}
330
47
100
AcDbScale
 70
     0
300
1/128" = 1'-0"
140
0.0078125
141
12.0
290
     0
  0
SCALE
  5
5A
102
{ACAD_REACTORS
330
47
102
}
330
47
100
AcDbScale
 70
     0
300
1/64" = 1'-0"
140
0.015625
141
12.0
290
     0
  0
SCALE
  5
5B
102
{ACAD_REACTORS
330
47
102
}
330
47
100
AcDbScale
 70
     0
300
1/32" = 1'-0"
140
0.03125
141
12.0
290
     0
  0
SCALE
  5
5C
102
{ACAD_REACTORS
330
47
102
}
330
47
100
AcDbScale
 70
     0
300
1/16" = 1'-0"
140
0.0625
141
12.0
290
     0
  0
SCALE
  5
5D
102
{ACAD_REACTORS
330
47
102
}
330
47
100
AcDbScale
 70
     0
300
3/32" = 1'-0"
140
0.09375
141
12.0
290
     0
  0
SCALE
  5
5E
102
{ACAD_REACTORS
330
47
102
}
330
47
100
AcDbScale
 70
     0
300
1/8" = 1'-0"
140
0.125
141
12.0
290
     0
  0
SCALE
  5
5F
102
{ACAD_REACTORS
330
47
102
}
330
47
100
AcDbScale
 70
     0
300
3/16" = 1'-0"
140
0.1875
141
12.0
290
     0
  0
SCALE
  5
60
102
{ACAD_REACTORS
330
47
102
}
330
47
100
AcDbScale
 70
     0
300
1/4" = 1'-0"
140
0.25
141
12.0
290
     0
  0
SCALE
  5
61
102
{ACAD_REACTORS
330
47
102
}
330
47
100
AcDbScale
 70
     0
300
3/8" = 1'-0"
140
0.375
141
12.0
290
     0
  0
SCALE
  5
62
102
{ACAD_REACTORS
330
47
102
}
330
47
100
AcDbScale
 70
     0
300
1/2" = 1'-0"
140
0.5
141
12.0
290
     0
  0
SCALE
  5
63
102
{ACAD_REACTORS
330
47
102
}
330
47
100
AcDbScale
 70
     0
300
3/4" = 1'-0"
140
0.75
141
12.0
290
     0
  0
SCALE
  5
64
102
{ACAD_REACTORS
330
47
102
}
330
47
100
AcDbScale
 70
     0
300
1" = 1'-0"
140
1.0
141
12.0
290
     0
  0
SCALE
  5
65
102
{ACAD_REACTORS
330
47
102
}
330
47
100
AcDbScale
 70
     0
300
1-1/2" = 1'-0"
140
1.5
141
12.0
290
     0
  0
SCALE
  5
66
102
{ACAD_REACTORS
330
47
102
}
330
47
100
AcDbScale
 70
     0
300
3" = 1'-0"
140
3.0
141
12.0
290
     0
  0
SCALE
  5
67
102
{ACAD_REACTORS
330
47
102
}
330
47
100
AcDbScale
 70
     0
300
6" = 1'-0"
140
6.0
141
12.0
290
     0
  0
SCALE
  5
68
102
{ACAD_REACTORS
330
47
102
}
330
47
100
AcDbScale
 70
     0
300
1'-0" = 1'-0"
140
12.0
141
12.0
290
     0
  0
TABLESTYLE
  5
6A
102
{ACAD_REACTORS
330
69
102
}
102
{ACAD_XDICTIONARY
360
183
102
}
330
69
100
AcDbTableStyle
  3
Standard
 70
     0
 71
     0
 40
0.06
 41
0.06
280
     0
281
     0
  7
Standard
140
4.5
170
     2
 62
     0
 63
   257
283
     0
 90
        4
 91
        0
  1

274
    -2
284
     1
 64
     0
275
    -2
285
     1
 65
     0
276
    -2
286
     1
 66
     0
277
    -2
287
     1
 67
     0
278
    -2
288
     1
 68
     0
279
    -2
289
     1
 69
     0
  7
Standard
140
6.0
170
     5
 62
     0
 63
   257
283
     0
 90
        4
 91
        0
  1

274
    -2
284
     1
 64
     0
275
    -2
285
     1
 65
     0
276
    -2
286
     1
 66
     0
277
    -2
287
     1
 67
     0
278
    -2
288
     1
 68
     0
279
    -2
289
     1
 69
     0
  7
Standard
140
4.5
170
     5
 62
     0
 63
   257
283
     0
 90
        4
 91
        0
  1

274
    -2
284
     1
 64
     0
275
    -2
285
     1
 65
     0
276
    -2
286
     1
 66
     0
277
    -2
287
     1
 67
     0
278
    -2
288
     1
 68
     0
279
    -2
289
     1
 69
     0
  0
VISUALSTYLE
  5
2F
102
{ACAD_REACTORS
330
2A
102
}
330
2A
100
AcDbVisualStyle
  2
2dWireframe
 70
     4
177
     3
291
     0
 70
    58
 90
        0
176
     1
 90
        2
176
     1
 90
        0
176
     1
 90
        0
176
     1
 40
0.6
176
     1
 40
30.0
176
     1
 62
     7
420
 16777215
176
     1
 90
        1
176
     1
 90
        4
176
     1
 62
     7
176
     1
 62
   257
176
     1
 90
        1
176
     1
 90
        1
176
     1
 40
1.0
176
     1
 90
        0
176
     1
 62
   257
176
     1
 40
1.0
176
     1
 90
        1
176
     1
 90
        6
176
     1
 90
        2
176
     1
 62
     7
176
     1
 90
        5
176
     1
 90
        0
176
     1
 90
        0
176
     1
290
     0
176
     1
 90
        1
176
     1
 40
0.0
176
     1
 90
        0
176
     1
290
     1
176
     1
290
     1
176
     1
290
     0
176
     1
290
     0
176
     1
290
     0
176
     1
290
     0
176
     1
290
     0
176
     1
290
     0
176
     1
290
     0
176
     1
 90
       50
176
     1
 40
0.0
176
     1
 40
1.0
176
     1
 90
        0
176
     1
 62
    18
420
        0
176
     1
 90
       50
176
     1
 90
        3
176
     1
 62
     5
420
      255
176
     1
290
     0
176
     1
 90
       50
176
     1
 90
       50
176
     1
 90
       50
176
     1
290
     0
176
     1
 90
       50
176
     1
 62
   256
176
     0
 40
1.0
176
     0
 90
        2
176
     1
  1
strokes_ogs.tif
176
     1
290
     0
176
     1
 40
1.0
176
     1
 40
1.0
176
     1
  0
VISUALSTYLE
  5
32
102
{ACAD_REACTORS
330
2A
102
}
330
2A
100
AcDbVisualStyle
  2
Basic
 70
     7
177
     3
291
     1
 70
    58
 90
        1
176
     1
 90
        0
176
     1
 90
        1
176
     1
 90
        0
176
     1
 40
0.6
176
     1
 40
30.0
176
     1
 62
     7
420
 16777215
176
     1
 90
        0
176
     1
 90
        4
176
     1
 62
     7
176
     1
 62
   257
176
     1
 90
        1
176
     1
 90
        1
176
     1
 40
1.0
176
     1
 90
        8
176
     1
 62
     7
176
     1
 40
1.0
176
     1
 90
        1
176
     1
 90
        6
176
     1
 90
        2
176
     1
 62
     7
176
     1
 90
        5
176
     1
 90
        0
176
     1
 90
        0
176
     1
290
     0
176
     1
 90
        1
176
     1
 40
0.0
176
     1
 90
        0
176
     1
290
     0
176
     1
290
     1
176
     1
290
     1
176
     1
290
     0
176
     1
290
     0
176
     1
290
     0
176
     1
290
     0
176
     1
290
     0
176
     1
290
     0
176
     1
 90
       50
176
     1
 40
0.0
176
     1
 40
1.0
176
     1
 90
        0
176
     1
 62
    18
420
        0
176
     1
 90
       50
176
     1
 90
        3
176
     1
 62
     5
420
      255
176
     1
290
     0
176
     1
 90
       50
176
     1
 90
       50
176
     1
 90
       50
176
     1
290
     0
176
     1
 90
       50
176
     1
 62
   256
176
     0
 40
1.0
176
     0
 90
        2
176
     1
  1
strokes_ogs.tif
176
     1
290
     0
176
     1
 40
1.0
176
     1
 40
1.0
176
     1
  0
VISUALSTYLE
  5
36
102
{ACAD_REACTORS
330
2A
102
}
330
2A
100
AcDbVisualStyle
  2
Brighten
 70
    12
177
     3
291
     1
 70
    58
 90
        2
176
     1
 90
        2
176
     1
 90
        0
176
     1
 90
        0
176
     1
 40
0.6
176
     1
 40
30.0
176
     1
 62
     7
420
 16777215
176
     1
 90
        1
176
     1
 90
        4
176
     1
 62
     7
176
     1
 62
   257
176
     1
 90
        1
176
     1
 90
        1
176
     1
 40
1.0
176
     1
 90
        8
176
     1
 62
     7
176
     1
 40
1.0
176
     1
 90
        1
176
     1
 90
        6
176
     1
 90
        2
176
     1
 62
     7
176
     1
 90
        5
176
     1
 90
        0
176
     1
 90
        0
176
     1
290
     0
176
     1
 90
        1
176
     1
 40
50.0
176
     1
 90
        0
176
     1
290
     0
176
     1
290
     1
176
     1
290
     1
176
     1
290
     0
176
     1
290
     0
176
     1
290
     0
176
     1
290
     0
176
     1
290
     0
176
     1
290
     0
176
     1
 90
       50
176
     1
 40
0.0
176
     1
 40
1.0
176
     1
 90
        0
176
     1
 62
    18
420
        0
176
     1
 90
       50
176
     1
 90
        3
176
     1
 62
     5
420
      255
176
     1
290
     0
176
     1
 90
       50
176
     1
 90
       50
176
     1
 90
       50
176
     1
290
     0
176
     1
 90
       50
176
     1
 62
   256
176
     0
 40
1.0
176
     0
 90
        2
176
     1
  1
strokes_ogs.tif
176
     1
290
     0
176
     1
 40
1.0
176
     1
 40
1.0
176
     1
  0
VISUALSTYLE
  5
3A
102
{ACAD_REACTORS
330
2A
102
}
330
2A
100
AcDbVisualStyle
  2
ColorChange
 70
    16
177
     3
291
     1
 70
    58
 90
        2
176
     1
 90
        2
176
     1
 90
        3
176
     1
 90
        0
176
     1
 40
0.6
176
     1
 40
30.0
176
     1
 62
     8
420
  8421504
176
     1
 90
        1
176
     1
 90
        4
176
     1
 62
     7
176
     1
 62
   257
176
     1
 90
        1
176
     1
 90
        1
176
     1
 40
1.0
176
     1
 90
        8
176
     1
 62
     8
420
  8421504
176
     1
 40
1.0
176
     1
 90
        1
176
     1
 90
        6
176
     1
 90
        2
176
     1
 62
     7
176
     1
 90
        5
176
     1
 90
        0
176
     1
 90
        0
176
     1
290
     0
176
     1
 90
        1
176
     1
 40
0.0
176
     1
 90
        0
176
     1
290
     0
176
     1
290
     1
176
     1
290
     1
176
     1
290
     0
176
     1
290
     0
176
     1
290
     0
176
     1
290
     0
176
     1
290
     0
176
     1
290
     0
176
     1
 90
       50
176
     1
 40
0.0
176
     1
 40
1.0
176
     1
 90
        0
176
     1
 62
    18
420
        0
176
     1
 90
       50
176
     1
 90
        3
176
     1
 62
     5
420
      255
176
     1
290
     0
176
     1
 90
       50
176
     1
 90
       50
176
     1
 90
       50
176
     1
290
     0
176
     1
 90
       50
176
     1
 62
   256
176
     0
 40
1.0
176
     0
 90
        2
176
     1
  1
strokes_ogs.tif
176
     1
290
     0
176
     1
 40
1.0
176
     1
 40
1.0
176
     1
  0
VISUALSTYLE
  5
34
102
{ACAD_REACTORS
330
2A
102
}
330
2A
100
AcDbVisualStyle
  2
Conceptual
 70
     9
177
     3
291
     0
 70
    58
 90
        3
176
     1
 90
        2
176
     1
 90
        0
176
     1
 90
        0
176
     1
 40
0.6
176
     1
 40
30.0
176
     1
 62
     7
420
 16777215
176
     1
 90
        2
176
     1
 90
        2
176
     1
 62
     7
176
     1
 62
   257
176
     1
 90
        1
176
     1
 90
        1
176
     1
 40
179.0
176
     1
 90
        8
176
     1
 62
     7
176
     1
 40
1.0
176
     1
 90
        1
176
     1
 90
        6
176
     1
 90
        2
176
     1
 62
     7
176
     1
 90
        3
176
     1
 90
        0
176
     1
 90
        0
176
     1
290
     0
176
     1
 90
        1
176
     1
 40
0.0
176
     1
 90
        0
176
     1
290
     0
176
     1
290
     1
176
     1
290
     1
176
     1
290
     0
176
     1
290
     0
176
     1
290
     0
176
     1
290
     0
176
     1
290
     0
176
     1
290
     0
176
     1
 90
       50
176
     1
 40
0.0
176
     1
 40
1.0
176
     1
 90
        0
176
     1
 62
    18
420
        0
176
     1
 90
       50
176
     1
 90
        3
176
     1
 62
     5
420
      255
176
     1
290
     0
176
     1
 90
       50
176
     1
 90
       50
176
     1
 90
       50
176
     1
290
     0
176
     1
 90
       50
176
     1
 62
   256
176
     0
 40
1.0
176
     0
 90
        2
176
     1
  1
strokes_ogs.tif
176
     1
290
     0
176
     1
 40
1.0
176
     1
 40
1.0
176
     1
  0
VISUALSTYLE
  5
35
102
{ACAD_REACTORS
330
2A
102
}
330
2A
100
AcDbVisualStyle
  2
Dim
 70
    11
177
     3
291
     1
 70
    58
 90
        2
176
     1
 90
        2
176
     1
 90
        0
176
     1
 90
        0
176
     1
 40
0.6
176
     1
 40
30.0
176
     1
 62
     7
420
 16777215
176
     1
 90
        1
176
     1
 90
        4
176
     1
 62
     7
176
     1
 62
   257
176
     1
 90
        1
176
     1
 90
        1
176
     1
 40
1.0
176
     1
 90
        8
176
     1
 62
     7
176
     1
 40
1.0
176
     1
 90
        1
176
     1
 90
        6
176
     1
 90
        2
176
     1
 62
     7
176
     1
 90
        5
176
     1
 90
        0
176
     1
 90
        0
176
     1
290
     0
176
     1
 90
        1
176
     1
 40
-50.0
176
     1
 90
        0
176
     1
290
     0
176
     1
290
     1
176
     1
290
     1
176
     1
290
     0
176
     1
290
     0
176
     1
290
     0
176
     1
290
     0
176
     1
290
     0
176
     1
290
     0
176
     1
 90
       50
176
     1
 40
0.0
176
     1
 40
1.0
176
     1
 90
        0
176
     1
 62
    18
420
        0
176
     1
 90
       50
176
     1
 90
        3
176
     1
 62
     5
420
      255
176
     1
290
     0
176
     1
 90
       50
176
     1
 90
       50
176
     1
 90
       50
176
     1
290
     0
176
     1
 90
       50
176
     1
 62
   256
176
     0
 40
1.0
176
     0
 90
        2
176
     1
  1
strokes_ogs.tif
176
     1
290
     0
176
     1
 40
1.0
176
     1
 40
1.0
176
     1
  0
VISUALSTYLE
  5
3D
102
{ACAD_REACTORS
330
2A
102
}
330
2A
100
AcDbVisualStyle
  2
EdgeColorOff
 70
    22
177
     3
291
     1
 70
    58
 90
        2
176
     0
 90
        2
176
     0
 90
        0
176
     0
 90
        0
176
     0
 40
0.6
176
     0
 40
30.0
176
     0
 62
     7
420
 16777215
176
     0
 90
        1
176
     0
 90
        4
176
     0
 62
     7
176
     0
 62
   257
176
     0
 90
        1
176
     0
 90
        1
176
     0
 40
1.0
176
     0
 90
        8
176
     2
 62
     7
176
     0
 40
1.0
176
     0
 90
        1
176
     0
 90
        6
176
     0
 90
        2
176
     0
 62
     7
176
     0
 90
        5
176
     0
 90
        0
176
     0
 90
        0
176
     0
290
     0
176
     0
 90
        1
176
     0
 40
0.0
176
     0
 90
        0
176
     0
290
     0
176
     0
290
     1
176
     0
290
     1
176
     0
290
     0
176
     0
290
     0
176
     0
290
     0
176
     0
290
     0
176
     0
290
     0
176
     0
290
     0
176
     0
 90
       50
176
     0
 40
0.0
176
     0
 40
1.0
176
     0
 90
        0
176
     0
 62
    18
420
        0
176
     0
 90
       50
176
     0
 90
        3
176
     0
 62
     5
420
      255
176
     0
290
     0
176
     0
 90
       50
176
     0
 90
       50
176
     0
 90
       50
176
     0
290
     0
176
     0
 90
       50
176
     0
 62
   256
176
     0
 40
1.0
176
     0
 90
        2
176
     0
  1
strokes_ogs.tif
176
     0
290
     0
176
     0
 40
1.0
176
     0
 40
1.0
176
     0
  0
VISUALSTYLE
  5
39
102
{ACAD_REACTORS
330
2A
102
}
330
2A
100
AcDbVisualStyle
  2
Facepattern
 70
    15
177
     3
291
     1
 70
    58
 90
        2
176
     1
 90
        2
176
     1
 90
        0
176
     1
 90
        0
176
     1
 40
0.6
176
     1
 40
30.0
176
     1
 62
     7
420
 16777215
176
     1
 90
        1
176
     1
 90
        4
176
     1
 62
     7
176
     1
 62
   257
176
     1
 90
        1
176
     1
 90
        1
176
     1
 40
1.0
176
     1
 90
        8
176
     1
 62
     7
176
     1
 40
1.0
176
     1
 90
        1
176
     1
 90
        6
176
     1
 90
        2
176
     1
 62
     7
176
     1
 90
        5
176
     1
 90
        0
176
     1
 90
        0
176
     1
290
     0
176
     1
 90
        1
176
     1
 40
0.0
176
     1
 90
        0
176
     1
290
     0
176
     1
290
     1
176
     1
290
     1
176
     1
290
     0
176
     1
290
     0
176
     1
290
     0
176
     1
290
     0
176
     1
290
     0
176
     1
290
     0
176
     1
 90
       50
176
     1
 40
0.0
176
     1
 40
1.0
176
     1
 90
        0
176
     1
 62
    18
420
        0
176
     1
 90
       50
176
     1
 90
        3
176
     1
 62
     5
420
      255
176
     1
290
     0
176
     1
 90
       50
176
     1
 90
       50
176
     1
 90
       50
176
     1
290
     0
176
     1
 90
       50
176
     1
 62
   256
176
     0
 40
1.0
176
     0
 90
        2
176
     1
  1
strokes_ogs.tif
176
     1
290
     0
176
     1
 40
1.0
176
     1
 40
1.0
176
     1
  0
VISUALSTYLE
  5
2B
102
{ACAD_REACTORS
330
2A
102
}
330
2A
100
AcDbVisualStyle
  2
Flat
 70
     0
177
     3
291
     1
 70
    58
 90
        2
176
     1
 90
        1
176
     1
 90
        1
176
     1
 90
        2
176
     1
 40
0.6
176
     1
 40
30.0
176
     1
 62
     7
420
 16777215
176
     1
 90
        0
176
     1
 90
        0
176
     1
 62
     7
176
     1
 62
   257
176
     1
 90
        1
176
     1
 90
        1
176
     1
 40
1.0
176
     1
 90
        8
176
     1
 62
     7
176
     1
 40
1.0
176
     1
 90
        1
176
     1
 90
        6
176
     1
 90
        2
176
     1
 62
     7
176
     1
 90
        5
176
     1
 90
        0
176
     1
 90
        0
176
     1
290
     0
176
     1
 90
       13
176
     1
 40
0.0
176
     1
 90
        0
176
     1
290
     0
176
     1
290
     1
176
     1
290
     1
176
     1
290
     0
176
     1
290
     0
176
     1
290
     0
176
     1
290
     0
176
     1
290
     0
176
     1
290
     0
176
     1
 90
       50
176
     1
 40
0.0
176
     1
 40
1.0
176
     1
 90
        0
176
     1
 62
    18
420
        0
176
     1
 90
       50
176
     1
 90
        3
176
     1
 62
     5
420
      255
176
     1
290
     0
176
     1
 90
       50
176
     1
 90
       50
176
     1
 90
       50
176
     1
290
     0
176
     1
 90
       50
176
     1
 62
   256
176
     0
 40
1.0
176
     0
 90
        2
176
     1
  1
strokes_ogs.tif
176
     1
290
     0
176
     1
 40
1.0
176
     1
 40
1.0
176
     1
  0
VISUALSTYLE
  5
2C
102
{ACAD_REACTORS
330
2A
102
}
330
2A
100
AcDbVisualStyle
  2
FlatWithEdges
 70
     1
177
     3
291
     1
 70
    58
 90
        2
176
     1
 90
        1
176
     1
 90
        1
176
     1
 90
        2
176
     1
 40
0.6
176
     1
 40
30.0
176
     1
 62
     7
420
 16777215
176
     1
 90
        1
176
     1
 90
        0
176
     1
 62
     7
176
     1
 62
   257
176
     1
 90
        1
176
     1
 90
        1
176
     1
 40
1.0
176
     1
 90
        0
176
     1
 62
   257
176
     1
 40
1.0
176
     1
 90
        1
176
     1
 90
        6
176
     1
 90
        2
176
     1
 62
     7
176
     1
 90
        5
176
     1
 90
        0
176
     1
 90
        0
176
     1
290
     0
176
     1
 90
       13
176
     1
 40
0.0
176
     1
 90
        0
176
     1
290
     0
176
     1
290
     1
176
     1
290
     1
176
     1
290
     0
176
     1
290
     0
176
     1
290
     0
176
     1
290
     0
176
     1
290
     0
176
     1
290
     0
176
     1
 90
       50
176
     1
 40
0.0
176
     1
 40
1.0
176
     1
 90
        0
176
     1
 62
    18
420
        0
176
     1
 90
       50
176
     1
 90
        3
176
     1
 62
     5
420
      255
176
     1
290
     0
176
     1
 90
       50
176
     1
 90
       50
176
     1
 90
       50
176
     1
290
     0
176
     1
 90
       50
176
     1
 62
   256
176
     0
 40
1.0
176
     0
 90
        2
176
     1
  1
strokes_ogs.tif
176
     1
290
     0
176
     1
 40
1.0
176
     1
 40
1.0
176
     1
  0
VISUALSTYLE
  5
2D
102
{ACAD_REACTORS
330
2A
102
}
330
2A
100
AcDbVisualStyle
  2
Gouraud
 70
     2
177
     3
291
     1
 70
    58
 90
        2
176
     1
 90
        2
176
     1
 90
        1
176
     1
 90
        2
176
     1
 40
0.6
176
     1
 40
30.0
176
     1
 62
     7
420
 16777215
176
     1
 90
        0
176
     1
 90
        0
176
     1
 62
     7
176
     1
 62
   257
176
     1
 90
        1
176
     1
 90
        1
176
     1
 40
1.0
176
     1
 90
        0
176
     1
 62
     7
176
     1
 40
1.0
176
     1
 90
        1
176
     1
 90
        6
176
     1
 90
        2
176
     1
 62
     7
176
     1
 90
        5
176
     1
 90
        0
176
     1
 90
        0
176
     1
290
     0
176
     1
 90
       13
176
     1
 40
0.0
176
     1
 90
        0
176
     1
290
     0
176
     1
290
     1
176
     1
290
     1
176
     1
290
     0
176
     1
290
     0
176
     1
290
     0
176
     1
290
     0
176
     1
290
     0
176
     1
290
     0
176
     1
 90
       50
176
     1
 40
0.0
176
     1
 40
1.0
176
     1
 90
        0
176
     1
 62
    18
420
        0
176
     1
 90
       50
176
     1
 90
        3
176
     1
 62
     5
420
      255
176
     1
290
     0
176
     1
 90
       50
176
     1
 90
       50
176
     1
 90
       50
176
     1
290
     0
176
     1
 90
       50
176
     1
 62
   256
176
     0
 40
1.0
176
     0
 90
        2
176
     1
  1
strokes_ogs.tif
176
     1
290
     0
176
     1
 40
1.0
176
     1
 40
1.0
176
     1
  0
VISUALSTYLE
  5
2E
102
{ACAD_REACTORS
330
2A
102
}
330
2A
100
AcDbVisualStyle
  2
GouraudWithEdges
 70
     3
177
     3
291
     1
 70
    58
 90
        2
176
     1
 90
        2
176
     1
 90
        1
176
     1
 90
        2
176
     1
 40
0.6
176
     1
 40
30.0
176
     1
 62
     7
420
 16777215
176
     1
 90
        1
176
     1
 90
        0
176
     1
 62
     7
176
     1
 62
   257
176
     1
 90
        1
176
     1
 90
        1
176
     1
 40
1.0
176
     1
 90
        0
176
     1
 62
   257
176
     1
 40
1.0
176
     1
 90
        1
176
     1
 90
        6
176
     1
 90
        2
176
     1
 62
     7
176
     1
 90
        5
176
     1
 90
        0
176
     1
 90
        0
176
     1
290
     0
176
     1
 90
       13
176
     1
 40
0.0
176
     1
 90
        0
176
     1
290
     0
176
     1
290
     1
176
     1
290
     1
176
     1
290
     0
176
     1
290
     0
176
     1
290
     0
176
     1
290
     0
176
     1
290
     0
176
     1
290
     0
176
     1
 90
       50
176
     1
 40
0.0
176
     1
 40
1.0
176
     1
 90
        0
176
     1
 62
    18
420
        0
176
     1
 90
       50
176
     1
 90
        3
176
     1
 62
     5
420
      255
176
     1
290
     0
176
     1
 90
       50
176
     1
 90
       50
176
     1
 90
       50
176
     1
290
     0
176
     1
 90
       50
176
     1
 62
   256
176
     0
 40
1.0
176
     0
 90
        2
176
     1
  1
strokes_ogs.tif
176
     1
290
     0
176
     1
 40
1.0
176
     1
 40
1.0
176
     1
  0
VISUALSTYLE
  5
31
102
{ACAD_REACTORS
330
2A
102
}
330
2A
100
AcDbVisualStyle
  2
Hidden
 70
     6
177
     3
291
     0
 70
    58
 90
        1
176
     1
 90
        2
176
     1
 90
        2
176
     1
 90
        0
176
     1
 40
0.6
176
     1
 40
30.0
176
     1
 62
     7
420
 16777215
176
     1
 90
        2
176
     1
 90
        2
176
     1
 62
     7
176
     1
 62
   257
176
     1
 90
        2
176
     1
 90
        1
176
     1
 40
40.0
176
     1
 90
        0
176
     1
 62
   257
176
     1
 40
1.0
176
     1
 90
        1
176
     1
 90
        6
176
     1
 90
        2
176
     1
 62
     7
176
     1
 90
        3
176
     1
 90
        0
176
     1
 90
        0
176
     1
290
     0
176
     1
 90
        1
176
     1
 40
0.0
176
     1
 90
        0
176
     1
290
     0
176
     1
290
     1
176
     1
290
     1
176
     1
290
     0
176
     1
290
     0
176
     1
290
     0
176
     1
290
     0
176
     1
290
     0
176
     1
290
     0
176
     1
 90
       50
176
     1
 40
0.0
176
     1
 40
1.0
176
     1
 90
        0
176
     1
 62
    18
420
        0
176
     1
 90
       50
176
     1
 90
        3
176
     1
 62
     5
420
      255
176
     1
290
     0
176
     1
 90
       50
176
     1
 90
       50
176
     1
 90
       50
176
     1
290
     0
176
     1
 90
       50
176
     1
 62
   256
176
     0
 40
1.0
176
     0
 90
        2
176
     1
  1
strokes_ogs.tif
176
     1
290
     0
176
     1
 40
1.0
176
     1
 40
1.0
176
     1
  0
VISUALSTYLE
  5
3B
102
{ACAD_REACTORS
330
2A
102
}
330
2A
100
AcDbVisualStyle
  2
JitterOff
 70
    20
177
     3
291
     1
 70
    58
 90
        2
176
     0
 90
        2
176
     0
 90
        0
176
     0
 90
        0
176
     0
 40
0.6
176
     0
 40
30.0
176
     0
 62
     7
420
 16777215
176
     0
 90
        1
176
     0
 90
        4
176
     0
 62
     7
176
     0
 62
   257
176
     0
 90
        1
176
     0
 90
        1
176
     0
 40
1.0
176
     0
 90
       10
176
     2
 62
     7
176
     0
 40
1.0
176
     0
 90
        1
176
     0
 90
        6
176
     0
 90
        2
176
     0
 62
     7
176
     0
 90
        5
176
     0
 90
        0
176
     0
 90
        0
176
     0
290
     0
176
     0
 90
        1
176
     0
 40
0.0
176
     0
 90
        0
176
     0
290
     0
176
     0
290
     1
176
     0
290
     1
176
     0
290
     0
176
     0
290
     0
176
     0
290
     0
176
     0
290
     0
176
     0
290
     0
176
     0
290
     0
176
     0
 90
       50
176
     0
 40
0.0
176
     0
 40
1.0
176
     0
 90
        0
176
     0
 62
    18
420
        0
176
     0
 90
       50
176
     0
 90
        3
176
     0
 62
     5
420
      255
176
     0
290
     0
176
     0
 90
       50
176
     0
 90
       50
176
     0
 90
       50
176
     0
290
     0
176
     0
 90
       50
176
     0
 62
   256
176
     0
 40
1.0
176
     0
 90
        2
176
     0
  1
strokes_ogs.tif
176
     0
290
     0
176
     0
 40
1.0
176
     0
 40
1.0
176
     0
  0
VISUALSTYLE
  5
38
102
{ACAD_REACTORS
330
2A
102
}
330
2A
100
AcDbVisualStyle
  2
Linepattern
 70
    14
177
     3
291
     1
 70
    58
 90
        2
176
     1
 90
        2
176
     1
 90
        0
176
     1
 90
        0
176
     1
 40
0.6
176
     1
 40
30.0
176
     1
 62
     7
420
 16777215
176
     1
 90
        1
176
     1
 90
        4
176
     1
 62
     7
176
     1
 62
   257
176
     1
 90
        7
176
     1
 90
        7
176
     1
 40
1.0
176
     1
 90
        8
176
     1
 62
     7
176
     1
 40
1.0
176
     1
 90
        1
176
     1
 90
        6
176
     1
 90
        2
176
     1
 62
     7
176
     1
 90
        5
176
     1
 90
        0
176
     1
 90
        0
176
     1
290
     0
176
     1
 90
        1
176
     1
 40
0.0
176
     1
 90
        0
176
     1
290
     0
176
     1
290
     1
176
     1
290
     1
176
     1
290
     0
176
     1
290
     0
176
     1
290
     0
176
     1
290
     0
176
     1
290
     0
176
     1
290
     0
176
     1
 90
       50
176
     1
 40
0.0
176
     1
 40
1.0
176
     1
 90
        0
176
     1
 62
    18
420
        0
176
     1
 90
       50
176
     1
 90
        3
176
     1
 62
     5
420
      255
176
     1
290
     0
176
     1
 90
       50
176
     1
 90
       50
176
     1
 90
       50
176
     1
290
     0
176
     1
 90
       50
176
     1
 62
   256
176
     0
 40
1.0
176
     0
 90
        2
176
     1
  1
strokes_ogs.tif
176
     1
290
     0
176
     1
 40
1.0
176
     1
 40
1.0
176
     1
  0
VISUALSTYLE
  5
3C
102
{ACAD_REACTORS
330
2A
102
}
330
2A
100
AcDbVisualStyle
  2
OverhangOff
 70
    21
177
     3
291
     1
 70
    58
 90
        2
176
     0
 90
        2
176
     0
 90
        0
176
     0
 90
        0
176
     0
 40
0.6
176
     0
 40
30.0
176
     0
 62
     7
420
 16777215
176
     0
 90
        1
176
     0
 90
        4
176
     0
 62
     7
176
     0
 62
   257
176
     0
 90
        1
176
     0
 90
        1
176
     0
 40
1.0
176
     0
 90
        9
176
     2
 62
     7
176
     0
 40
1.0
176
     0
 90
        1
176
     0
 90
        6
176
     0
 90
        2
176
     0
 62
     7
176
     0
 90
        5
176
     0
 90
        0
176
     0
 90
        0
176
     0
290
     0
176
     0
 90
        1
176
     0
 40
0.0
176
     0
 90
        0
176
     0
290
     0
176
     0
290
     1
176
     0
290
     1
176
     0
290
     0
176
     0
290
     0
176
     0
290
     0
176
     0
290
     0
176
     0
290
     0
176
     0
290
     0
176
     0
 90
       50
176
     0
 40
0.0
176
     0
 40
1.0
176
     0
 90
        0
176
     0
 62
    18
420
        0
176
     0
 90
       50
176
     0
 90
        3
176
     0
 62
     5
420
      255
176
     0
290
     0
176
     0
 90
       50
176
     0
 90
       50
176
     0
 90
       50
176
     0
290
     0
176
     0
 90
       50
176
     0
 62
   256
176
     0
 40
1.0
176
     0
 90
        2
176
     0
  1
strokes_ogs.tif
176
     0
290
     0
176
     0
 40
1.0
176
     0
 40
1.0
176
     0
  0
VISUALSTYLE
  5
33
102
{ACAD_REACTORS
330
2A
102
}
330
2A
100
AcDbVisualStyle
  2
Realistic
 70
     8
177
     3
291
     0
 70
    58
 90
        2
176
     1
 90
        3
176
     1
 90
        0
176
     1
 90
        2
176
     1
 40
0.6
176
     1
 40
30.0
176
     1
 62
     7
420
 16777215
176
     1
 90
        0
176
     1
 90
        0
176
     1
 62
     7
176
     1
 62
   257
176
     1
 90
        1
176
     1
 90
        1
176
     1
 40
1.0
176
     1
 90
        8
176
     1
 62
   257
176
     1
 40
1.0
176
     1
 90
        1
176
     1
 90
        6
176
     1
 90
        2
176
     1
 62
     7
176
     1
 90
        3
176
     1
 90
        0
176
     1
 90
        0
176
     1
290
     0
176
     1
 90
       13
176
     1
 40
0.0
176
     1
 90
        0
176
     1
290
     0
176
     1
290
     1
176
     1
290
     1
176
     1
290
     0
176
     1
290
     0
176
     1
290
     0
176
     1
290
     0
176
     1
290
     0
176
     1
290
     0
176
     1
 90
       50
176
     1
 40
0.0
176
     1
 40
1.0
176
     1
 90
        0
176
     1
 62
    18
420
        0
176
     1
 90
       50
176
     1
 90
        3
176
     1
 62
     5
420
      255
176
     1
290
     0
176
     1
 90
       50
176
     1
 90
       50
176
     1
 90
       50
176
     1
290
     0
176
     1
 90
       50
176
     1
 62
   256
176
     0
 40
1.0
176
     0
 90
        2
176
     1
  1
strokes_ogs.tif
176
     1
290
     0
176
     1
 40
1.0
176
     1
 40
1.0
176
     1
  0
VISUALSTYLE
  5
42
102
{ACAD_REACTORS
330
2A
102
}
330
2A
100
AcDbVisualStyle
  2
Shaded
 70
    27
177
     3
291
     0
 70
    58
 90
        2
176
     1
 90
        2
176
     1
 90
        1
176
     1
 90
        2
176
     1
 40
0.6
176
     1
 40
30.0
176
     1
 62
     7
420
 16777215
176
     1
 90
        0
176
     1
 90
        4
176
     1
 62
     7
176
     1
 62
   257
176
     1
 90
        1
176
     1
 90
        1
176
     1
 40
1.0
176
     1
 90
        8
176
     1
 62
   257
176
     1
 40
1.0
176
     1
 90
        1
176
     1
 90
        6
176
     1
 90
        2
176
     1
 62
     8
420
  7895160
176
     1
 90
        3
176
     1
 90
        0
176
     1
 90
        0
176
     1
290
     0
176
     1
 90
        5
176
     1
 40
0.0
176
     1
 90
        0
176
     1
290
     0
176
     1
290
     1
176
     1
290
     1
176
     1
290
     0
176
     1
290
     0
176
     1
290
     0
176
     1
290
     0
176
     1
290
     0
176
     1
290
     0
176
     1
 90
       50
176
     1
 40
0.0
176
     1
 40
1.0
176
     1
 90
        0
176
     1
 62
    18
420
        0
176
     1
 90
       50
176
     1
 90
        3
176
     1
 62
     5
420
      255
176
     1
290
     0
176
     1
 90
       50
176
     1
 90
       50
176
     1
 90
       50
176
     1
290
     0
176
     1
 90
       50
176
     1
 62
   256
176
     0
 40
1.0
176
     0
 90
        2
176
     1
  1
strokes_ogs.tif
176
     1
290
     0
176
     1
 40
1.0
176
     1
 40
1.0
176
     1
  0
VISUALSTYLE
  5
41
102
{ACAD_REACTORS
330
2A
102
}
330
2A
100
AcDbVisualStyle
  2
Shaded with edges
 70
    26
177
     3
291
     0
 70
    58
 90
        2
176
     1
 90
        2
176
     1
 90
        1
176
     1
 90
        2
176
     1
 40
0.6
176
     1
 40
30.0
176
     1
 62
     7
420
 16777215
176
     1
 90
        1
176
     1
 90
       10
176
     1
 62
     7
176
     1
 62
   257
176
     1
 90
        2
176
     1
 90
        1
176
     1
 40
1.0
176
     1
 90
        8
176
     1
 62
   257
176
     1
 40
1.0
176
     1
 90
        1
176
     1
 90
        6
176
     1
 90
        2
176
     1
 62
     7
176
     1
 90
        3
176
     1
 90
        0
176
     1
 90
        0
176
     1
290
     0
176
     1
 90
        5
176
     1
 40
0.0
176
     1
 90
        0
176
     1
290
     0
176
     1
290
     1
176
     1
290
     1
176
     1
290
     0
176
     1
290
     0
176
     1
290
     0
176
     1
290
     0
176
     1
290
     0
176
     1
290
     0
176
     1
 90
       50
176
     1
 40
0.0
176
     1
 40
1.0
176
     1
 90
        0
176
     1
 62
    18
420
        0
176
     1
 90
       50
176
     1
 90
        3
176
     1
 62
     5
420
      255
176
     1
290
     0
176
     1
 90
       50
176
     1
 90
       50
176
     1
 90
       50
176
     1
290
     0
176
     1
 90
       50
176
     1
 62
   256
176
     0
 40
1.0
176
     0
 90
        2
176
     1
  1
strokes_ogs.tif
176
     1
290
     0
176
     1
 40
1.0
176
     1
 40
1.0
176
     1
  0
VISUALSTYLE
  5
3E
102
{ACAD_REACTORS
330
2A
102
}
330
2A
100
AcDbVisualStyle
  2
Shades of Gray
 70
    23
177
     3
291
     0
 70
    58
 90
        2
176
     1
 90
        2
176
     1
 90
        3
176
     1
 90
        0
176
     1
 40
0.6
176
     1
 40
30.0
176
     1
 62
     7
420
 16777215
176
     1
 90
        2
176
     1
 90
        2
176
     1
 62
     7
176
     1
 62
     7
176
     1
 90
        1
176
     1
 90
        1
176
     1
 40
40.0
176
     1
 90
        8
176
     1
 62
     7
176
     1
 40
1.0
176
     1
 90
        1
176
     1
 90
        6
176
     1
 90
        2
176
     1
 62
     7
176
     1
 90
        3
176
     1
 90
        0
176
     1
 90
        0
176
     1
290
     0
176
     1
 90
        1
176
     1
 40
0.0
176
     1
 90
        0
176
     1
290
     0
176
     1
290
     1
176
     1
290
     1
176
     1
290
     0
176
     1
290
     0
176
     1
290
     0
176
     1
290
     0
176
     1
290
     0
176
     1
290
     0
176
     1
 90
       50
176
     1
 40
0.0
176
     1
 40
1.0
176
     1
 90
        0
176
     1
 62
    18
420
        0
176
     1
 90
       50
176
     1
 90
        3
176
     1
 62
     5
420
      255
176
     1
290
     0
176
     1
 90
       50
176
     1
 90
       50
176
     1
 90
       50
176
     1
290
     0
176
     1
 90
       50
176
     1
 62
   256
176
     0
 40
1.0
176
     0
 90
        2
176
     1
  1
strokes_ogs.tif
176
     1
290
     0
176
     1
 40
1.0
176
     1
 40
1.0
176
     1
  0
VISUALSTYLE
  5
3F
102
{ACAD_REACTORS
330
2A
102
}
330
2A
100
AcDbVisualStyle
  2
Sketchy
 70
    24
177
     3
291
     0
 70
    58
 90
        1
176
     1
 90
        2
176
     1
 90
        2
176
     1
 90
        0
176
     1
 40
0.6
176
     1
 40
30.0
176
     1
 62
     7
420
 16777215
176
     1
 90
        2
176
     1
 90
        2
176
     1
 62
     7
176
     1
 62
     7
176
     1
 90
        1
176
     1
 90
        1
176
     1
 40
40.0
176
     1
 90
       11
176
     1
 62
     7
176
     1
 40
1.0
176
     1
 90
        1
176
     1
 90
        6
176
     1
 90
        2
176
     1
 62
     7
176
     1
 90
        6
176
     1
 90
        0
176
     1
 90
        0
176
     1
290
     0
176
     1
 90
        1
176
     1
 40
0.0
176
     1
 90
        0
176
     1
290
     0
176
     1
290
     1
176
     1
290
     1
176
     1
290
     0
176
     1
290
     0
176
     1
290
     0
176
     1
290
     0
176
     1
290
     0
176
     1
290
     0
176
     1
 90
       50
176
     1
 40
0.0
176
     1
 40
1.0
176
     1
 90
        0
176
     1
 62
    18
420
        0
176
     1
 90
       50
176
     1
 90
        3
176
     1
 62
     5
420
      255
176
     1
290
     0
176
     1
 90
       50
176
     1
 90
       50
176
     1
 90
       50
176
     1
290
     0
176
     1
 90
       50
176
     1
 62
   256
176
     0
 40
1.0
176
     0
 90
        2
176
     1
  1
strokes_ogs.tif
176
     1
290
     0
176
     1
 40
1.0
176
     1
 40
1.0
176
     1
  0
VISUALSTYLE
  5
37
102
{ACAD_REACTORS
330
2A
102
}
330
2A
100
AcDbVisualStyle
  2
Thicken
 70
    13
177
     3
291
     1
 70
    58
 90
        2
176
     1
 90
        2
176
     1
 90
        0
176
     1
 90
        0
176
     1
 40
0.6
176
     1
 40
30.0
176
     1
 62
     7
420
 16777215
176
     1
 90
        1
176
     1
 90
        4
176
     1
 62
     7
176
     1
 62
   257
176
     1
 90
        1
176
     1
 90
        1
176
     1
 40
1.0
176
     1
 90
       12
176
     1
 62
     7
176
     1
 40
1.0
176
     1
 90
        1
176
     1
 90
        6
176
     1
 90
        2
176
     1
 62
     7
176
     1
 90
        5
176
     1
 90
        0
176
     1
 90
        0
176
     1
290
     0
176
     1
 90
        1
176
     1
 40
0.0
176
     1
 90
        0
176
     1
290
     0
176
     1
290
     1
176
     1
290
     1
176
     1
290
     0
176
     1
290
     0
176
     1
290
     0
176
     1
290
     0
176
     1
290
     0
176
     1
290
     0
176
     1
 90
       50
176
     1
 40
0.0
176
     1
 40
1.0
176
     1
 90
        0
176
     1
 62
    18
420
        0
176
     1
 90
       50
176
     1
 90
        3
176
     1
 62
     5
420
      255
176
     1
290
     0
176
     1
 90
       50
176
     1
 90
       50
176
     1
 90
       50
176
     1
290
     0
176
     1
 90
       50
176
     1
 62
   256
176
     0
 40
1.0
176
     0
 90
        2
176
     1
  1
strokes_ogs.tif
176
     1
290
     0
176
     1
 40
1.0
176
     1
 40
1.0
176
     1
  0
VISUALSTYLE
  5
30
102
{ACAD_REACTORS
330
2A
102
}
330
2A
100
AcDbVisualStyle
  2
Wireframe
 70
     5
177
     3
291
     0
 70
    58
 90
        0
176
     1
 90
        2
176
     1
 90
        0
176
     1
 90
        0
176
     1
 40
0.6
176
     1
 40
30.0
176
     1
 62
     7
420
 16777215
176
     1
 90
        1
176
     1
 90
        4
176
     1
 62
     7
176
     1
 62
   257
176
     1
 90
        1
176
     1
 90
        1
176
     1
 40
1.0
176
     1
 90
        0
176
     1
 62
   257
176
     1
 40
1.0
176
     1
 90
        1
176
     1
 90
        6
176
     1
 90
        2
176
     1
 62
     7
176
     1
 90
        3
176
     1
 90
        0
176
     1
 90
        0
176
     1
290
     0
176
     1
 90
        1
176
     1
 40
0.0
176
     1
 90
        0
176
     1
290
     0
176
     1
290
     1
176
     1
290
     1
176
     1
290
     0
176
     1
290
     0
176
     1
290
     0
176
     1
290
     0
176
     1
290
     0
176
     1
290
     0
176
     1
 90
       50
176
     1
 40
0.0
176
     1
 40
1.0
176
     1
 90
        0
176
     1
 62
    18
420
        0
176
     1
 90
       50
176
     1
 90
        3
176
     1
 62
     5
420
      255
176
     1
290
     0
176
     1
 90
       50
176
     1
 90
       50
176
     1
 90
       50
176
     1
290
     0
176
     1
 90
       50
176
     1
 62
   256
176
     0
 40
1.0
176
     0
 90
        2
176
     1
  1
strokes_ogs.tif
176
     1
290
     0
176
     1
 40
1.0
176
     1
 40
1.0
176
     1
  0
VISUALSTYLE
  5
40
102
{ACAD_REACTORS
330
2A
102
}
330
2A
100
AcDbVisualStyle
  2
X-Ray
 70
    25
177
     3
291
     0
 70
    58
 90
        2
176
     1
 90
        2
176
     1
 90
        1
176
     1
 90
        1
176
     1
 40
0.5
176
     1
 40
30.0
176
     1
 62
     7
420
 16777215
176
     1
 90
        1
176
     1
 90
        0
176
     1
 62
     7
176
     1
 62
   257
176
     1
 90
        1
176
     1
 90
        1
176
     1
 40
1.0
176
     1
 90
        8
176
     1
 62
     7
176
     1
 40
1.0
176
     1
 90
        1
176
     1
 90
        6
176
     1
 90
        2
176
     1
 62
     7
176
     1
 90
        3
176
     1
 90
        0
176
     1
 90
        0
176
     1
290
     0
176
     1
 90
       13
176
     1
 40
0.0
176
     1
 90
        0
176
     1
290
     0
176
     1
290
     1
176
     1
290
     1
176
     1
290
     0
176
     1
290
     0
176
     1
290
     0
176
     1
290
     0
176
     1
290
     0
176
     1
290
     0
176
     1
 90
       50
176
     1
 40
0.0
176
     1
 40
1.0
176
     1
 90
        0
176
     1
 62
    18
420
        0
176
     1
 90
       50
176
     1
 90
        3
176
     1
 62
     5
420
      255
176
     1
290
     0
176
     1
 90
       50
176
     1
 90
       50
176
     1
 90
       50
176
     1
290
     0
176
     1
 90
       50
176
     1
 62
   256
176
     0
 40
1.0
176
     0
 90
        2
176
     1
  1
strokes_ogs.tif
176
     1
290
     0
176
     1
 40
1.0
176
     1
 40
1.0
176
     1
  0
DICTIONARYVAR
  5
182
102
{ACAD_REACTORS
330
181
102
}
330
181
100
DictionaryVariables
280
     0
  1
1:1
  0
DICTIONARYVAR
  5
18A
102
{ACAD_REACTORS
330
181
102
}
330
181
100
DictionaryVariables
280
     0
  1
3.500000
  0
DICTIONARYVAR
  5
18B
102
{ACAD_REACTORS
330
181
102
}
330
181
100
DictionaryVariables
280
     0
  1
acadiso.lin
  0
DICTIONARYVAR
  5
187
102
{ACAD_REACTORS
330
181
102
}
330
181
100
DictionaryVariables
280
     0
  1
Standard
  0
DICTIONARYVAR
  5
186
102
{ACAD_REACTORS
330
181
102
}
330
181
100
DictionaryVariables
280
     0
  1
Standard
  0
DICTIONARY
  5
183
330
6A
100
AcDbDictionary
280
     1
281
     1
  3
ACAD_ROUNDTRIP_2008_TABLESTYLE_CELLSTYLEMAP
360
184
  0
CELLSTYLEMAP
  5
184
102
{ACAD_REACTORS
330
183
102
}
330
183
100
AcDbCellStyleMap
 90
        3
300
CELLSTYLE
  1
TABLEFORMAT_BEGIN
 90
        5
170
     1
 91
        0
 92
    32768
 62
   257
 93
        1
300
CONTENTFORMAT
  1
CONTENTFORMAT_BEGIN
 90
        0
 91
        0
 92
        4
 93
        0
300

 40
0.0
140
1.0
 94
        5
 62
     0
340
11
144
6.0
309
CONTENTFORMAT_END
171
     1
301
MARGIN
  1
CELLMARGIN_BEGIN
 40
1.5
 40
1.5
 40
1.5
 40
1.5
 40
1.5
 40
1.5
309
CELLMARGIN_END
 94
        6
 95
        1
302
GRIDFORMAT
  1
GRIDFORMAT_BEGIN
 90
        0
 91
        1
 62
     0
 92
       -2
340
14
 93
        0
 40
0.045
309
GRIDFORMAT_END
 95
        2
302
GRIDFORMAT
  1
GRIDFORMAT_BEGIN
 90
        0
 91
        1
 62
     0
 92
       -2
340
14
 93
        0
 40
0.045
309
GRIDFORMAT_END
 95
        4
302
GRIDFORMAT
  1
GRIDFORMAT_BEGIN
 90
        0
 91
        1
 62
     0
 92
       -2
340
14
 93
        0
 40
0.045
309
GRIDFORMAT_END
 95
        8
302
GRIDFORMAT
  1
GRIDFORMAT_BEGIN
 90
        0
 91
        1
 62
     0
 92
       -2
340
14
 93
        0
 40
0.045
309
GRIDFORMAT_END
 95
       16
302
GRIDFORMAT
  1
GRIDFORMAT_BEGIN
 90
        0
 91
        1
 62
     0
 92
       -2
340
14
 93
        0
 40
0.045
309
GRIDFORMAT_END
 95
       32
302
GRIDFORMAT
  1
GRIDFORMAT_BEGIN
 90
        0
 91
        1
 62
     0
 92
       -2
340
14
 93
        0
 40
0.045
309
GRIDFORMAT_END
309
TABLEFORMAT_END
  1
CELLSTYLE_BEGIN
 90
        1
 91
        1
300
_TITLE
309
CELLSTYLE_END
300
CELLSTYLE
  1
TABLEFORMAT_BEGIN
 90
        5
170
     1
 91
        0
 92
        0
 62
   257
 93
        1
300
CONTENTFORMAT
  1
CONTENTFORMAT_BEGIN
 90
        0
 91
        0
 92
        4
 93
        0
300

 40
0.0
140
1.0
 94
        5
 62
     0
340
11
144
4.5
309
CONTENTFORMAT_END
171
     1
301
MARGIN
  1
CELLMARGIN_BEGIN
 40
1.5
 40
1.5
 40
1.5
 40
1.5
 40
1.5
 40
1.5
309
CELLMARGIN_END
 94
        6
 95
        1
302
GRIDFORMAT
  1
GRIDFORMAT_BEGIN
 90
        0
 91
        1
 62
     0
 92
       -2
340
14
 93
        0
 40
0.045
309
GRIDFORMAT_END
 95
        2
302
GRIDFORMAT
  1
GRIDFORMAT_BEGIN
 90
        0
 91
        1
 62
     0
 92
       -2
340
14
 93
        0
 40
0.045
309
GRIDFORMAT_END
 95
        4
302
GRIDFORMAT
  1
GRIDFORMAT_BEGIN
 90
        0
 91
        1
 62
     0
 92
       -2
340
14
 93
        0
 40
0.045
309
GRIDFORMAT_END
 95
        8
302
GRIDFORMAT
  1
GRIDFORMAT_BEGIN
 90
        0
 91
        1
 62
     0
 92
       -2
340
14
 93
        0
 40
0.045
309
GRIDFORMAT_END
 95
       16
302
GRIDFORMAT
  1
GRIDFORMAT_BEGIN
 90
        0
 91
        1
 62
     0
 92
       -2
340
14
 93
        0
 40
0.045
309
GRIDFORMAT_END
 95
       32
302
GRIDFORMAT
  1
GRIDFORMAT_BEGIN
 90
        0
 91
        1
 62
     0
 92
       -2
340
14
 93
        0
 40
0.045
309
GRIDFORMAT_END
309
TABLEFORMAT_END
  1
CELLSTYLE_BEGIN
 90
        2
 91
        1
300
_HEADER
309
CELLSTYLE_END
300
CELLSTYLE
  1
TABLEFORMAT_BEGIN
 90
        5
170
     1
 91
        0
 92
        0
 62
   257
 93
        1
300
CONTENTFORMAT
  1
CONTENTFORMAT_BEGIN
 90
        0
 91
        0
 92
        4
 93
        0
300

 40
0.0
140
1.0
 94
        2
 62
     0
340
11
144
4.5
309
CONTENTFORMAT_END
171
     1
301
MARGIN
  1
CELLMARGIN_BEGIN
 40
1.5
 40
1.5
 40
1.5
 40
1.5
 40
1.5
 40
1.5
309
CELLMARGIN_END
 94
        6
 95
        1
302
GRIDFORMAT
  1
GRIDFORMAT_BEGIN
 90
        0
 91
        1
 62
     0
 92
       -2
340
14
 93
        0
 40
0.045
309
GRIDFORMAT_END
 95
        2
302
GRIDFORMAT
  1
GRIDFORMAT_BEGIN
 90
        0
 91
        1
 62
     0
 92
       -2
340
14
 93
        0
 40
0.045
309
GRIDFORMAT_END
 95
        4
302
GRIDFORMAT
  1
GRIDFORMAT_BEGIN
 90
        0
 91
        1
 62
     0
 92
       -2
340
14
 93
        0
 40
0.045
309
GRIDFORMAT_END
 95
        8
302
GRIDFORMAT
  1
GRIDFORMAT_BEGIN
 90
        0
 91
        1
 62
     0
 92
       -2
340
14
 93
        0
 40
0.045
309
GRIDFORMAT_END
 95
       16
302
GRIDFORMAT
  1
GRIDFORMAT_BEGIN
 90
        0
 91
        1
 62
     0
 92
       -2
340
14
 93
        0
 40
0.045
309
GRIDFORMAT_END
 95
       32
302
GRIDFORMAT
  1
GRIDFORMAT_BEGIN
 90
        0
 91
        1
 62
     0
 92
       -2
340
14
 93
        0
 40
0.045
309
GRIDFORMAT_END
309
TABLEFORMAT_END
  1
CELLSTYLE_BEGIN
 90
        3
 91
        2
300
_DATA
309
CELLSTYLE_END
  0
ENDSEC
  0
EOF
