  0
SECTION
  2
HEADER
  9
$ACADVER
  1
AC1032
  9
$ACADMAINTVER
 90
        4
  9
$DWGCODEPAGE
  3
ANSI_1252
  9
$COMMENTS
  1
File was created by SpaceClaim
  9
$REQUIREDVERSIONS
160
                 0
  9
$INSBASE
 10
0.0
 20
0.0
 30
0.0
  9
$EXTMIN
 10
-27.49999909111527
 20
-4.249999809412007
 30
0.0619136457872125
  9
$EXTMAX
 10
27.500000911468
 20
4.250000230968142
 30
0.0619136457874009
  9
$LIMMIN
 10
0.0
 20
0.0
  9
$LIMMAX
 10
420.0
 20
297.0
  9
$ORTHOMODE
 70
     0
  9
$REGENMODE
 70
     1
  9
$FILLMODE
 70
     1
  9
$QTEXTMODE
 70
     0
  9
$MIRRTEXT
 70
     1
  9
$LTSCALE
 40
1.0
  9
$ATTMODE
 70
     1
  9
$TEXTSIZE
 40
2.5
  9
$TRACEWID
 40
1.0
  9
$TEXTSTYLE
  7
Standard
  9
$CLAYER
  8
0
  9
$CELTYPE
  6
ByLayer
  9
$CECOLOR
 62
   256
  9
$CELTSCALE
 40
1.0
  9
$DISPSILH
 70
     0
  9
$DIMSCALE
 40
1.0
  9
$DIMASZ
 40
2.5
  9
$DIMEXO
 40
0.625
  9
$DIMDLI
 40
3.75
  9
$DIMRND
 40
0.0
  9
$DIMDLE
 40
0.0
  9
$DIMEXE
 40
1.25
  9
$DIMTP
 40
0.0
  9
$DIMTM
 40
0.0
  9
$DIMTXT
 40
2.5
  9
$DIMCEN
 40
2.5
  9
$DIMTSZ
 40
0.0
  9
$DIMTOL
 70
     0
  9
$DIMLIM
 70
     0
  9
$DIMTIH
 70
     1
  9
$DIMTOH
 70
     0
  9
$DIMSE1
 70
     0
  9
$DIMSE2
 70
     0
  9
$DIMTAD
 70
     1
  9
$DIMZIN
 70
     8
  9
$DIMBLK
  1

  9
$DIMASO
 70
     1
  9
$DIMSHO
 70
     1
  9
$DIMPOST
  1
mm
  9
$DIMAPOST
  1

  9
$DIMALT
 70
     0
  9
$DIMALTD
 70
     3
  9
$DIMALTF
 40
0.0393700787401575
  9
$DIMLFAC
 40
1.0
  9
$DIMTOFL
 70
     1
  9
$DIMTVP
 40
0.0
  9
$DIMTIX
 70
     0
  9
$DIMSOXD
 70
     0
  9
$DIMSAH
 70
     0
  9
$DIMBLK1
  1

  9
$DIMBLK2
  1

  9
$DIMSTYLE
  2
ISO-25
  9
$DIMCLRD
 70
     0
  9
$DIMCLRE
 70
     0
  9
$DIMCLRT
 70
     0
  9
$DIMTFAC
 40
1.0
  9
$DIMGAP
 40
0.625
  9
$DIMJUST
 70
     0
  9
$DIMSD1
 70
     0
  9
$DIMSD2
 70
     0
  9
$DIMTOLJ
 70
     0
  9
$DIMTZIN
 70
     8
  9
$DIMALTZ
 70
     0
  9
$DIMALTTZ
 70
     8
  9
$DIMUPT
 70
     0
  9
$DIMDEC
 70
     2
  9
$DIMTDEC
 70
     2
  9
$DIMALTU
 70
     2
  9
$DIMALTTD
 70
     3
  9
$DIMTXSTY
  7
Standard
  9
$DIMAUNIT
 70
     0
  9
$DIMADEC
 70
     1
  9
$DIMALTRND
 40
0.0
  9
$DIMAZIN
 70
     0
  9
$DIMDSEP
 70
    44
  9
$DIMATFIT
 70
     3
  9
$DIMFRAC
 70
     0
  9
$DIMLDRBLK
  1

  9
$DIMLUNIT
 70
     2
  9
$DIMLWD
 70
    -2
  9
$DIMLWE
 70
    -2
  9
$DIMTMOVE
 70
     0
  9
$DIMFXL
 40
1.0
  9
$DIMFXLON
 70
     0
  9
$DIMJOGANG
 40
0.7853981633974483
  9
$DIMTFILL
 70
     0
  9
$DIMTFILLCLR
 70
     0
  9
$DIMARCSYM
 70
     0
  9
$DIMLTYPE
  6

  9
$DIMLTEX1
  6

  9
$DIMLTEX2
  6

  9
$DIMTXTDIRECTION
 70
     0
  9
$LUNITS
 70
     2
  9
$LUPREC
 70
     4
  9
$SKETCHINC
 40
1.0
  9
$FILLETRAD
 40
10.0
  9
$AUNITS
 70
     0
  9
$AUPREC
 70
     0
  9
$MENU
  1
.
  9
$ELEVATION
 40
0.0
  9
$PELEVATION
 40
0.0
  9
$THICKNESS
 40
0.0
  9
$LIMCHECK
 70
     0
  9
$CHAMFERA
 40
0.0
  9
$CHAMFERB
 40
0.0
  9
$CHAMFERC
 40
0.0
  9
$CHAMFERD
 40
0.0
  9
$SKPOLY
 70
     0
  9
$TDCREATE
 40
2459438.679741146
  9
$TDUCREATE
 40
2459438.596407813
  9
$TDUPDATE
 40
2459438.679741748
  9
$TDUUPDATE
 40
2459438.596408414
  9
$TDINDWG
 40
0.0000000116
  9
$TDUSRTIMER
 40
0.0000000116
  9
$USRTIMER
 70
     1
  9
$ANGBASE
 50
0.0
  9
$ANGDIR
 70
     0
  9
$PDMODE
 70
     0
  9
$PDSIZE
 40
0.0
  9
$PLINEWID
 40
0.0
  9
$SPLFRAME
 70
     0
  9
$SPLINETYPE
 70
     6
  9
$SPLINESEGS
 70
     8
  9
$HANDSEED
  5
171
  9
$SURFTAB1
 70
     6
  9
$SURFTAB2
 70
     6
  9
$SURFTYPE
 70
     6
  9
$SURFU
 70
     6
  9
$SURFV
 70
     6
  9
$UCSBASE
  2

  9
$UCSNAME
  2

  9
$UCSORG
 10
0.0
 20
0.0
 30
0.0
  9
$UCSXDIR
 10
1.0
 20
0.0
 30
0.0
  9
$UCSYDIR
 10
0.0
 20
1.0
 30
0.0
  9
$UCSORTHOREF
  2

  9
$UCSORTHOVIEW
 70
     0
  9
$UCSORGTOP
 10
0.0
 20
0.0
 30
0.0
  9
$UCSORGBOTTOM
 10
0.0
 20
0.0
 30
0.0
  9
$UCSORGLEFT
 10
0.0
 20
0.0
 30
0.0
  9
$UCSORGRIGHT
 10
0.0
 20
0.0
 30
0.0
  9
$UCSORGFRONT
 10
0.0
 20
0.0
 30
0.0
  9
$UCSORGBACK
 10
0.0
 20
0.0
 30
0.0
  9
$PUCSBASE
  2

  9
$PUCSNAME
  2

  9
$PUCSORG
 10
0.0
 20
0.0
 30
0.0
  9
$PUCSXDIR
 10
1.0
 20
0.0
 30
0.0
  9
$PUCSYDIR
 10
0.0
 20
1.0
 30
0.0
  9
$PUCSORTHOREF
  2

  9
$PUCSORTHOVIEW
 70
     0
  9
$PUCSORGTOP
 10
0.0
 20
0.0
 30
0.0
  9
$PUCSORGBOTTOM
 10
0.0
 20
0.0
 30
0.0
  9
$PUCSORGLEFT
 10
0.0
 20
0.0
 30
0.0
  9
$PUCSORGRIGHT
 10
0.0
 20
0.0
 30
0.0
  9
$PUCSORGFRONT
 10
0.0
 20
0.0
 30
0.0
  9
$PUCSORGBACK
 10
0.0
 20
0.0
 30
0.0
  9
$USERI1
 70
     0
  9
$USERI2
 70
     0
  9
$USERI3
 70
     0
  9
$USERI4
 70
     0
  9
$USERI5
 70
     0
  9
$USERR1
 40
0.0
  9
$USERR2
 40
0.0
  9
$USERR3
 40
0.0
  9
$USERR4
 40
0.0
  9
$USERR5
 40
0.0
  9
$WORLDVIEW
 70
     1
  9
$SHADEDGE
 70
     3
  9
$SHADEDIF
 70
    70
  9
$TILEMODE
 70
     1
  9
$MAXACTVP
 70
    64
  9
$PINSBASE
 10
0.0
 20
0.0
 30
0.0
  9
$PLIMCHECK
 70
     0
  9
$PEXTMIN
 10
1.000000000000000E+20
 20
1.000000000000000E+20
 30
1.000000000000000E+20
  9
$PEXTMAX
 10
-1.000000000000000E+20
 20
-1.000000000000000E+20
 30
-1.000000000000000E+20
  9
$PLIMMIN
 10
0.0
 20
0.0
  9
$PLIMMAX
 10
420.0
 20
297.0
  9
$UNITMODE
 70
     0
  9
$VISRETAIN
 70
     1
  9
$PLINEGEN
 70
     0
  9
$PSLTSCALE
 70
     1
  9
$TREEDEPTH
 70
  3020
  9
$CMLSTYLE
  2
Standard
  9
$CMLJUST
 70
     0
  9
$CMLSCALE
 40
20.0
  9
$PROXYGRAPHICS
 70
     1
  9
$MEASUREMENT
 70
     1
  9
$CELWEIGHT
370
    -1
  9
$ENDCAPS
280
     0
  9
$JOINSTYLE
280
     0
  9
$LWDISPLAY
290
     0
  9
$INSUNITS
 70
     4
  9
$HYPERLINKBASE
  1

  9
$STYLESHEET
  1

  9
$XEDIT
290
     1
  9
$CEPSNTYPE
380
     0
  9
$PSTYLEMODE
290
     1
  9
$FINGERPRINTGUID
  2
{4e365f12-18ba-4238-aec0-c5b5818ad1cb}
  9
$VERSIONGUID
  2
{FAEB1C32-E019-11D5-929B-00C0DF256EC4}
  9
$EXTNAMES
290
     1
  9
$PSVPSCALE
 40
0.0
  9
$OLESTARTUP
290
     0
  9
$SORTENTS
280
   127
  9
$INDEXCTL
280
     0
  9
$HIDETEXT
280
     1
  9
$XCLIPFRAME
280
     2
  9
$HALOGAP
280
     0
  9
$OBSCOLOR
 70
   257
  9
$OBSLTYPE
280
     0
  9
$INTERSECTIONDISPLAY
280
     0
  9
$INTERSECTIONCOLOR
 70
   257
  9
$DIMASSOC
280
     2
  9
$PROJECTNAME
  1

  9
$CAMERADISPLAY
290
     0
  9
$LENSLENGTH
 40
50.0
  9
$CAMERAHEIGHT
 40
0.0
  9
$STEPSPERSEC
 40
2.0
  9
$STEPSIZE
 40
6.0
  9
$3DDWFPREC
 40
2.0
  9
$PSOLWIDTH
 40
5.0
  9
$PSOLHEIGHT
 40
80.0
  9
$LOFTANG1
 40
1.570796326794897
  9
$LOFTANG2
 40
1.570796326794897
  9
$LOFTMAG1
 40
0.0
  9
$LOFTMAG2
 40
0.0
  9
$LOFTPARAM
 70
     7
  9
$LOFTNORMALS
280
     1
  9
$LATITUDE
 40
37.795
  9
$LONGITUDE
 40
-122.394
  9
$NORTHDIRECTION
 40
0.0
  9
$TIMEZONE
 70
 -8000
  9
$LIGHTGLYPHDISPLAY
280
     1
  9
$TILEMODELIGHTSYNCH
280
     1
  9
$CMATERIAL
347
44
  9
$SOLIDHIST
280
     0
  9
$SHOWHIST
280
     1
  9
$DWFFRAME
280
     2
  9
$DGNFRAME
280
     2
  9
$REALWORLDSCALE
290
     1
  9
$INTERFERECOLOR
 62
   256
  9
$CSHADOW
280
     0
  9
$SHADOWPLANELOCATION
 40
0.0
  0
ENDSEC
  0
SECTION
  2
CLASSES
  0
CLASS
  1
ACDBDICTIONARYWDFLT
  2
AcDbDictionaryWithDefault
  3
ObjectDBX Classes
 90
        0
 91
        3
280
     0
281
     0
  0
CLASS
  1
VISUALSTYLE
  2
AcDbVisualStyle
  3
ObjectDBX Classes
 90
     4095
 91
        3
280
     0
281
     0
  0
CLASS
  1
MATERIAL
  2
AcDbMaterial
  3
ObjectDBX Classes
 90
     1153
 91
        3
280
     0
281
     0
  0
CLASS
  1
SCALE
  2
AcDbScale
  3
ObjectDBX Classes
 90
     1153
 91
        3
280
     0
281
     0
  0
CLASS
  1
TABLESTYLE
  2
AcDbTableStyle
  3
ObjectDBX Classes
 90
     4095
 91
        3
280
     0
281
     0
  0
CLASS
  1
MLEADERSTYLE
  2
AcDbMLeaderStyle
  3
ACDB_MLEADERSTYLE_CLASS
 90
     4095
 91
        3
280
     0
281
     0
  0
CLASS
  1
SUN
  2
AcDbSun
  3
SCENEOE
 90
     1153
 91
        3
280
     0
281
     0
  0
CLASS
  1
DIMASSOC
  2
AcDbDimAssoc
  3
"AcDbDimAssoc|Product Desc:     AcDim ARX App For Dimension|Company:          Autodesk, Inc.|WEB Address:      www.autodesk.com"
 90
        0
 91
        3
280
     0
281
     0
  0
CLASS
  1
DICTIONARYVAR
  2
AcDbDictionaryVar
  3
ObjectDBX Classes
 90
        0
 91
        3
280
     0
281
     0
  0
CLASS
  1
CELLSTYLEMAP
  2
AcDbCellStyleMap
  3
ObjectDBX Classes
 90
     1152
 91
        3
280
     0
281
     0
  0
ENDSEC
  0
SECTION
  2
TABLES
  0
TABLE
  2
VPORT
  5
8
330
0
100
AcDbSymbolTable
 70
     1
  0
VPORT
  5
29
330
8
100
AcDbSymbolTableRecord
100
AcDbViewportTableRecord
  2
*Active
 70
     0
 10
0.0
 20
0.0
 11
1.0
 21
1.0
 12
0.0000009101763627
 22
0.0000002107780674
 13
0.0
 23
0.0
 14
10.0
 24
10.0
 15
10.0
 25
10.0
 16
0.0
 26
0.0
 36
1.0
 17
0.0
 27
0.0
 37
0.0
 40
8.500000040380147
 41
6.470588204858821
 42
50.0
 43
0.0
 44
0.0
 50
0.0
 51
0.0
 71
     0
 72
   100
 73
     1
 74
     3
 75
     0
 76
     0
 77
     0
 78
     0
281
     0
 65
     1
110
0.0
120
0.0
130
0.0
111
1.0
121
0.0
131
0.0
112
0.0
122
1.0
132
0.0
 79
     0
146
0.0
348
2F
 60
     3
 61
     5
292
     1
282
     1
141
0.0
142
0.0
 63
   250
361
6D
  0
ENDTAB
  0
TABLE
  2
LTYPE
  5
5
330
0
100
AcDbSymbolTable
 70
     2
  0
LTYPE
  5
14
330
5
100
AcDbSymbolTableRecord
100
AcDbLinetypeTableRecord
  2
ByBlock
 70
     0
  3

 72
    65
 73
     0
 40
0.0
  0
LTYPE
  5
15
330
5
100
AcDbSymbolTableRecord
100
AcDbLinetypeTableRecord
  2
ByLayer
 70
     0
  3

 72
    65
 73
     0
 40
0.0
  0
LTYPE
  5
16
330
5
100
AcDbSymbolTableRecord
100
AcDbLinetypeTableRecord
  2
Continuous
 70
     0
  3
Solid line
 72
    65
 73
     0
 40
0.0
  0
LTYPE
  5
78
330
5
100
AcDbSymbolTableRecord
100
AcDbLinetypeTableRecord
  2
HIDDEN
 70
     0
  3
- - - - - - - - - - - - - - - - - - - - -
 72
    65
 73
     2
 40
9.524999999999999
 49
6.35
 74
     0
 49
-3.175
 74
     0
  0
ENDTAB
  0
TABLE
  2
LAYER
  5
2
330
0
100
AcDbSymbolTable
 70
     3
  0
LAYER
  5
10
330
2
100
AcDbSymbolTableRecord
100
AcDbLayerTableRecord
  2
0
 70
     0
 62
     7
  6
Continuous
370
    70
390
F
347
46
348
0
  0
LAYER
  5
76
330
2
100
AcDbSymbolTableRecord
100
AcDbLayerTableRecord
  2
Hidden
 70
     0
 62
     7
  6
Continuous
370
    70
390
F
347
46
348
0
  0
LAYER
  5
9E
330
2
100
AcDbSymbolTableRecord
100
AcDbLayerTableRecord
  2
Defpoints
 70
     0
 62
     7
  6
Continuous
290
     0
370
    -3
390
F
347
46
348
0
  0
ENDTAB
  0
TABLE
  2
STYLE
  5
3
330
0
100
AcDbSymbolTable
 70
     2
  0
STYLE
  5
11
330
3
100
AcDbSymbolTableRecord
100
AcDbTextStyleTableRecord
  2
Standard
 70
     0
 40
0.0
 41
1.0
 50
0.0
 71
     0
 42
2.5
  3
txt
  4

  0
STYLE
  5
9B
330
3
100
AcDbSymbolTableRecord
100
AcDbTextStyleTableRecord
  2
SpaceClaim ASME CB
 70
     0
 40
0.0
 41
1.0
 50
0.0
 71
     0
 42
2.5
  3
SpaceClaim ASME.ttf
  4

1001
ACAD
1000
SpaceClaim ASME CB
1071
        0
  0
ENDTAB
  0
TABLE
  2
VIEW
  5
6
330
0
100
AcDbSymbolTable
 70
     0
  0
ENDTAB
  0
TABLE
  2
UCS
  5
7
330
0
100
AcDbSymbolTable
 70
     0
  0
ENDTAB
  0
TABLE
  2
APPID
  5
9
330
0
100
AcDbSymbolTable
 70
     1
  0
APPID
  5
12
330
9
100
AcDbSymbolTableRecord
100
AcDbRegAppTableRecord
  2
ACAD
 70
     0
  0
ENDTAB
  0
TABLE
  2
DIMSTYLE
  5
A
330
0
100
AcDbSymbolTable
 70
     2
100
AcDbDimStyleTable
  0
DIMSTYLE
105
27
330
A
100
AcDbSymbolTableRecord
100
AcDbDimStyleTableRecord
  2
ISO-25
 70
     0
 41
2.5
 42
0.625
 43
3.75
 44
1.25
 73
     0
 74
     0
 77
     1
 78
     8
140
2.5
141
2.5
143
0.03937007874016
147
0.625
171
     3
172
     1
178
     0
271
     2
272
     2
274
     3
278
    44
283
     0
284
     8
340
11
  0
DIMSTYLE
105
9C
102
{ACAD_REACTORS
330
9A
330
AD
330
BC
330
CB
330
DA
330
E9
330
F9
330
109
330
118
330
127
330
136
330
146
330
156
102
}
330
A
100
AcDbSymbolTableRecord
100
AcDbDimStyleTableRecord
  2
SpaceClaim ASME CB
 70
     0
178
     0
340
9B
  0
ENDTAB
  0
TABLE
  2
BLOCK_RECORD
  5
1
330
0
100
AcDbSymbolTable
 70
    14
  0
BLOCK_RECORD
  5
1F
330
1
100
AcDbSymbolTableRecord
100
AcDbBlockTableRecord
  2
*Model_Space
340
22
 70
     0
280
     1
281
     0
  0
BLOCK_RECORD
  5
1B
330
1
100
AcDbSymbolTableRecord
100
AcDbBlockTableRecord
  2
*Paper_Space
340
1E
 70
     0
280
     1
281
     0
  0
BLOCK_RECORD
  5
23
330
1
100
AcDbSymbolTableRecord
100
AcDbBlockTableRecord
  2
*Paper_Space0
340
26
 70
     0
280
     1
281
     0
  0
BLOCK_RECORD
  5
9F
330
1
100
AcDbSymbolTableRecord
100
AcDbBlockTableRecord
  2
*D1
340
0
 70
     0
280
     1
281
     0
  0
BLOCK_RECORD
  5
AF
330
1
100
AcDbSymbolTableRecord
100
AcDbBlockTableRecord
  2
*D2
340
0
 70
     0
280
     1
281
     0
  0
BLOCK_RECORD
  5
BE
330
1
100
AcDbSymbolTableRecord
100
AcDbBlockTableRecord
  2
*D3
340
0
 70
     0
280
     1
281
     0
  0
BLOCK_RECORD
  5
CD
330
1
100
AcDbSymbolTableRecord
100
AcDbBlockTableRecord
  2
*D4
340
0
 70
     0
280
     1
281
     0
  0
BLOCK_RECORD
  5
DC
330
1
100
AcDbSymbolTableRecord
100
AcDbBlockTableRecord
  2
*D5
340
0
 70
     0
280
     1
281
     0
  0
BLOCK_RECORD
  5
EB
330
1
100
AcDbSymbolTableRecord
100
AcDbBlockTableRecord
  2
*D6
340
0
 70
     0
280
     1
281
     0
  0
BLOCK_RECORD
  5
FB
330
1
100
AcDbSymbolTableRecord
100
AcDbBlockTableRecord
  2
*D7
340
0
 70
     0
280
     1
281
     0
  0
BLOCK_RECORD
  5
10B
330
1
100
AcDbSymbolTableRecord
100
AcDbBlockTableRecord
  2
*D8
340
0
 70
     0
280
     1
281
     0
  0
BLOCK_RECORD
  5
11A
330
1
100
AcDbSymbolTableRecord
100
AcDbBlockTableRecord
  2
*D9
340
0
 70
     0
280
     1
281
     0
  0
BLOCK_RECORD
  5
129
330
1
100
AcDbSymbolTableRecord
100
AcDbBlockTableRecord
  2
*D10
340
0
 70
     0
280
     1
281
     0
  0
BLOCK_RECORD
  5
138
330
1
100
AcDbSymbolTableRecord
100
AcDbBlockTableRecord
  2
*D11
340
0
 70
     0
280
     1
281
     0
  0
BLOCK_RECORD
  5
148
330
1
100
AcDbSymbolTableRecord
100
AcDbBlockTableRecord
  2
*D12
340
0
 70
     0
280
     1
281
     0
  0
BLOCK_RECORD
  5
158
330
1
100
AcDbSymbolTableRecord
100
AcDbBlockTableRecord
  2
*D13
340
0
 70
     0
280
     1
281
     0
  0
ENDTAB
  0
ENDSEC
  0
SECTION
  2
BLOCKS
  0
BLOCK
  5
20
330
1F
100
AcDbEntity
  8
0
100
AcDbBlockBegin
  2
*Model_Space
 70
     0
 10
0.0
 20
0.0
 30
0.0
  3
*Model_Space
  1

  0
ENDBLK
  5
21
330
1F
100
AcDbEntity
  8
0
100
AcDbBlockEnd
  0
BLOCK
  5
1C
330
1B
100
AcDbEntity
 67
     1
  8
0
100
AcDbBlockBegin
  2
*Paper_Space
 70
     0
 10
0.0
 20
0.0
 30
0.0
  3
*Paper_Space
  1

  0
ENDBLK
  5
1D
330
1B
100
AcDbEntity
 67
     1
  8
0
100
AcDbBlockEnd
  0
BLOCK
  5
24
330
23
100
AcDbEntity
  8
0
100
AcDbBlockBegin
  2
*Paper_Space0
 70
     0
 10
0.0
 20
0.0
 30
0.0
  3
*Paper_Space0
  1

  0
ENDBLK
  5
25
330
23
100
AcDbEntity
  8
0
100
AcDbBlockEnd
  0
BLOCK
  5
A0
330
9F
100
AcDbEntity
  8
0
100
AcDbBlockBegin
  2
*D1
 70
     1
 10
0.0
 20
0.0
 30
0.0
  3
*D1
  1

  0
LINE
  5
A2
330
9F
100
AcDbEntity
  8
0
 62
     7
370
    -2
100
AcDbLine
 10
-6.692713717192534
 20
11.16594698691693
 30
0.0
 11
-7.942713717192534
 21
11.16594698691693
 31
0.0
  0
LINE
  5
A3
330
9F
100
AcDbEntity
  8
0
 62
     7
370
    -2
100
AcDbLine
 10
-7.942713717192534
 20
11.16594698691693
 30
0.0
 11
-7.942713717192494
 21
4.250000190588149
 31
0.0
  0
LINE
  5
A4
330
9F
100
AcDbEntity
  8
0
 62
     7
370
    -2
100
AcDbLine
 10
-10.24299149219249
 20
4.250000190588135
 30
0.0
 11
-7.762713717192494
 21
4.25000019058815
 31
0.0
  0
LINE
  5
A5
330
9F
100
AcDbEntity
  8
0
 62
     7
370
    -2
100
AcDbLine
 10
-10.24299149219247
 20
0.7500001905880489
 30
0.0
 11
-7.762713717192474
 21
0.7500001905880638
 31
0.0
  0
LINE
  5
A6
330
9F
100
AcDbEntity
  8
0
 62
     7
370
    -2
100
AcDbLine
 10
-7.942713717192487
 20
3.000000190588149
 30
0.0
 11
-7.942713717192481
 21
2.000000190588063
 31
0.0
  0
SOLID
  5
A7
330
9F
100
AcDbEntity
  8
0
 62
     7
100
AcDbTrace
 10
-7.734380383859154
 20
3.00000019058815
 30
0.0
 11
-8.15104705052582
 21
3.000000190588147
 31
0.0
 12
-7.942713717192494
 22
4.250000190588149
 32
0.0
 13
-7.942713717192494
 23
4.250000190588149
 33
0.0
  0
SOLID
  5
A8
330
9F
100
AcDbEntity
  8
0
 62
     7
100
AcDbTrace
 10
-8.151047050525815
 20
2.000000190588061
 30
0.0
 11
-7.734380383859148
 21
2.000000190588064
 31
0.0
 12
-7.942713717192474
 22
0.7500001905880627
 32
0.0
 13
-7.942713717192474
 23
0.7500001905880627
 33
0.0
  0
MTEXT
  5
A9
330
9F
100
AcDbEntity
  8
0
 62
     7
370
    35
100
AcDbMText
 10
-3.715213717192534
 20
11.16594698691693
 30
0.0
 40
1.75
 41
0.0
 46
0.0
 71
     5
 72
     1
  1
\A1;{\fSpaceClaim ASME CB|b0|i0;3,5mm}
  7
SpaceClaim ASME CB
 73
     1
 44
1.0
  0
POINT
  5
AA
330
9F
100
AcDbEntity
  8
Defpoints
 62
     0
100
AcDbPoint
 10
-10.30549149219249
 20
4.250000190588135
 30
0.0
  0
POINT
  5
AB
330
9F
100
AcDbEntity
  8
Defpoints
 62
     0
100
AcDbPoint
 10
-10.30549149219247
 20
0.7500001905880486
 30
0.0
  0
POINT
  5
AC
330
9F
100
AcDbEntity
  8
Defpoints
 62
     0
100
AcDbPoint
 10
-7.942713717192474
 20
0.7500001905880624
 30
0.0
  0
ENDBLK
  5
A1
330
9F
100
AcDbEntity
  8
0
100
AcDbBlockEnd
  0
BLOCK
  5
B0
330
AF
100
AcDbEntity
  8
0
100
AcDbBlockBegin
  2
*D2
 70
     1
 10
0.0
 20
0.0
 30
0.0
  3
*D2
  1

  0
LINE
  5
B2
330
AF
100
AcDbEntity
  8
0
 62
     7
370
    -2
100
AcDbLine
 10
27.56250090847158
 20
4.250000190588354
 30
0.0
 11
39.82313276551666
 21
4.250000190588425
 31
0.0
  0
LINE
  5
B3
330
AF
100
AcDbEntity
  8
0
 62
     7
370
    -2
100
AcDbLine
 10
27.562500911468
 20
-4.24999980941174
 30
0.0
 11
39.82313276551671
 21
-4.249999809411669
 31
0.0
  0
LINE
  5
B4
330
AF
100
AcDbEntity
  8
0
 62
     7
370
    -2
100
AcDbLine
 10
39.64313276551667
 20
3.000000190588424
 30
0.0
 11
39.64313276551668
 21
1.581000190588378
 31
0.0
  0
LINE
  5
B5
330
AF
100
AcDbEntity
  8
0
 62
     7
370
    -2
100
AcDbLine
 10
39.6431327655167
 20
-2.99999980941167
 30
0.0
 11
39.64313276551669
 21
-0.7059998094116224
 31
0.0
  0
SOLID
  5
B6
330
AF
100
AcDbEntity
  8
0
 62
     7
100
AcDbTrace
 10
39.85146609885
 20
3.000000190588425
 30
0.0
 11
39.43479943218333
 21
3.000000190588423
 31
0.0
 12
39.64313276551666
 22
4.250000190588424
 32
0.0
 13
39.64313276551666
 23
4.250000190588424
 33
0.0
  0
SOLID
  5
B7
330
AF
100
AcDbEntity
  8
0
 62
     7
100
AcDbTrace
 10
39.43479943218337
 20
-2.999999809411671
 30
0.0
 11
39.85146609885004
 21
-2.999999809411669
 31
0.0
 12
39.64313276551671
 22
-4.24999980941167
 32
0.0
 13
39.64313276551671
 23
-4.24999980941167
 33
0.0
  0
MTEXT
  5
B8
330
AF
100
AcDbEntity
  8
0
 62
     7
370
    35
100
AcDbMText
 10
39.64313276551668
 20
0.4375001905883779
 30
0.0
 40
1.75
 41
0.0
 46
0.0
 71
     5
 72
     1
  1
\A1;{\fSpaceClaim ASME CB|b0|i0;8,5mm}
  7
SpaceClaim ASME CB
 73
     1
 44
1.0
  0
POINT
  5
B9
330
AF
100
AcDbEntity
  8
Defpoints
 62
     0
100
AcDbPoint
 10
27.50000090847158
 20
4.250000190588354
 30
0.0
  0
POINT
  5
BA
330
AF
100
AcDbEntity
  8
Defpoints
 62
     0
100
AcDbPoint
 10
27.500000911468
 20
-4.24999980941174
 30
0.0
  0
POINT
  5
BB
330
AF
100
AcDbEntity
  8
Defpoints
 62
     0
100
AcDbPoint
 10
39.64313276551671
 20
-4.24999980941167
 30
0.0
  0
ENDBLK
  5
B1
330
AF
100
AcDbEntity
  8
0
100
AcDbBlockEnd
  0
BLOCK
  5
BF
330
BE
100
AcDbEntity
  8
0
100
AcDbBlockBegin
  2
*D3
 70
     1
 10
0.0
 20
0.0
 30
0.0
  3
*D3
  1

  0
LINE
  5
C1
330
BE
100
AcDbEntity
  8
0
 62
     7
370
    -2
100
AcDbLine
 10
27.50000091149003
 20
-4.312499809411848
 30
0.0
 11
27.50000091402811
 21
-11.51234180924783
 31
0.0
  0
LINE
  5
C2
330
BE
100
AcDbEntity
  8
0
 62
     7
370
    -2
100
AcDbLine
 10
-27.49999908748308
 20
-4.312499809411952
 30
0.0
 11
-27.499999084945
 21
-11.5123418286364
 31
0.0
  0
LINE
  5
C3
330
BE
100
AcDbEntity
  8
0
 62
     7
370
    -2
100
AcDbLine
 10
26.25000091396466
 20
-11.33234180968848
 30
0.0
 11
3.502856696169431
 21
-11.33234181770729
 31
0.0
  0
LINE
  5
C4
330
BE
100
AcDbEntity
  8
0
 62
     7
370
    -2
100
AcDbLine
 10
-26.24999908500845
 20
-11.33234182819575
 30
0.0
 11
-1.927143303830569
 21
-11.33234181962147
 31
0.0
  0
SOLID
  5
C5
330
BE
100
AcDbEntity
  8
0
 62
     7
100
AcDbTrace
 10
26.2500009140381
 20
-11.54067514302182
 30
0.0
 11
26.25000091389122
 21
-11.12400847635515
 31
0.0
 12
27.50000091396466
 22
-11.33234180924783
 32
0.0
 13
27.50000091396466
 23
-11.33234180924783
 33
0.0
  0
SOLID
  5
C6
330
BE
100
AcDbEntity
  8
0
 62
     7
100
AcDbTrace
 10
-26.24999908508189
 20
-11.12400849486242
 30
0.0
 11
-26.24999908493501
 21
-11.54067516152909
 31
0.0
 12
-27.49999908500845
 22
-11.3323418286364
 32
0.0
 13
-27.49999908500845
 23
-11.3323418286364
 33
0.0
  0
MTEXT
  5
C7
330
BE
100
AcDbEntity
  8
0
 62
     7
370
    35
100
AcDbMText
 10
0.7878566961694289
 20
-11.33234181866438
 30
0.0
 40
1.75
 41
0.0
 46
0.0
 71
     5
 72
     1
  1
\A1;{\fSpaceClaim ASME CB|b0|i0;55mm}
  7
SpaceClaim ASME CB
 73
     1
 44
1.0
  0
POINT
  5
C8
330
BE
100
AcDbEntity
  8
Defpoints
 62
     0
100
AcDbPoint
 10
27.500000911468
 20
-4.249999809411848
 30
0.0
  0
POINT
  5
C9
330
BE
100
AcDbEntity
  8
Defpoints
 62
     0
100
AcDbPoint
 10
-27.49999908750511
 20
-4.249999809411952
 30
0.0
  0
POINT
  5
CA
330
BE
100
AcDbEntity
  8
Defpoints
 62
     0
100
AcDbPoint
 10
-27.49999908500845
 20
-11.3323418286364
 30
0.0
  0
ENDBLK
  5
C0
330
BE
100
AcDbEntity
  8
0
100
AcDbBlockEnd
  0
BLOCK
  5
CE
330
CD
100
AcDbEntity
  8
0
100
AcDbBlockBegin
  2
*D4
 70
     1
 10
0.0
 20
0.0
 30
0.0
  3
*D4
  1

  0
LINE
  5
D0
330
CD
100
AcDbEntity
  8
0
 62
     7
370
    -2
100
AcDbLine
 10
27.500000911468
 20
-4.312499809411853
 30
0.0
 11
27.50000091146802
 21
-16.89885954098247
 31
0.0
  0
LINE
  5
D1
330
CD
100
AcDbEntity
  8
0
 62
     7
370
    -2
100
AcDbLine
 10
-27.49999909111525
 20
-4.312499809411953
 30
0.0
 11
-27.49999909111522
 21
-16.89885954098257
 31
0.0
  0
LINE
  5
D2
330
CD
100
AcDbEntity
  8
0
 62
     7
370
    -2
100
AcDbLine
 10
26.25000091146802
 20
-16.71885954098247
 30
0.0
 11
-1.640375210603654
 21
-16.71885954098252
 31
0.0
  0
LINE
  5
D3
330
CD
100
AcDbEntity
  8
0
 62
     7
370
    -2
100
AcDbLine
 10
-26.24999909111522
 20
-16.71885954098257
 30
0.0
 11
-7.070375210603654
 21
-16.71885954098253
 31
0.0
  0
SOLID
  5
D4
330
CD
100
AcDbEntity
  8
0
 62
     7
100
AcDbTrace
 10
26.25000091146802
 20
-16.9271928743158
 30
0.0
 11
26.25000091146802
 21
-16.51052620764914
 31
0.0
 12
27.50000091146802
 22
-16.71885954098247
 32
0.0
 13
27.50000091146802
 23
-16.71885954098247
 33
0.0
  0
SOLID
  5
D5
330
CD
100
AcDbEntity
  8
0
 62
     7
100
AcDbTrace
 10
-26.24999909111522
 20
-16.51052620764924
 30
0.0
 11
-26.24999909111522
 21
-16.9271928743159
 31
0.0
 12
-27.49999909111522
 22
-16.71885954098257
 32
0.0
 13
-27.49999909111522
 23
-16.71885954098257
 33
0.0
  0
MTEXT
  5
D6
330
CD
100
AcDbEntity
  8
0
 62
     7
370
    35
100
AcDbMText
 10
-4.355375210603651
 20
-16.71885954098253
 30
0.0
 40
1.75
 41
0.0
 46
0.0
 71
     5
 72
     1
  1
\A1;{\fSpaceClaim ASME CB|b0|i0;55mm}
  7
SpaceClaim ASME CB
 73
     1
 44
1.0
  0
POINT
  5
D7
330
CD
100
AcDbEntity
  8
Defpoints
 62
     0
100
AcDbPoint
 10
27.500000911468
 20
-4.249999809411853
 30
0.0
  0
POINT
  5
D8
330
CD
100
AcDbEntity
  8
Defpoints
 62
     0
100
AcDbPoint
 10
-27.49999909111525
 20
-4.249999809411953
 30
0.0
  0
POINT
  5
D9
330
CD
100
AcDbEntity
  8
Defpoints
 62
     0
100
AcDbPoint
 10
-27.49999909111522
 20
-16.71885954098257
 30
0.0
  0
ENDBLK
  5
CF
330
CD
100
AcDbEntity
  8
0
100
AcDbBlockEnd
  0
BLOCK
  5
DD
330
DC
100
AcDbEntity
  8
0
100
AcDbBlockBegin
  2
*D5
 70
     1
 10
0.0
 20
0.0
 30
0.0
  3
*D5
  1

  0
LINE
  5
DF
330
DC
100
AcDbEntity
  8
0
 62
     7
370
    -2
100
AcDbLine
 10
-27.56249909111525
 20
-4.249999809380891
 30
0.0
 11
-35.61959606850693
 21
-4.249999805377108
 31
0.0
  0
LINE
  5
E0
330
DC
100
AcDbEntity
  8
0
 62
     7
370
    -2
100
AcDbLine
 10
-27.56249908689137
 20
4.250000190619092
 30
0.0
 11
-35.61959606428306
 21
4.250000194622876
 31
0.0
  0
LINE
  5
E1
330
DC
100
AcDbEntity
  8
0
 62
     7
370
    -2
100
AcDbLine
 10
-35.43959606788577
 20
-2.999999805466555
 30
0.0
 11
-35.43959606674582
 21
-0.7059998054665626
 31
0.0
  0
LINE
  5
E2
330
DC
100
AcDbEntity
  8
0
 62
     7
370
    -2
100
AcDbLine
 10
-35.43959606490422
 20
3.000000194533429
 30
0.0
 11
-35.43959606560935
 21
1.581000194533438
 31
0.0
  0
SOLID
  5
E3
330
DC
100
AcDbEntity
  8
0
 62
     7
100
AcDbTrace
 10
-35.64792940121911
 20
-2.999999805363029
 30
0.0
 11
-35.23126273455244
 21
-2.999999805570081
 31
0.0
 12
-35.43959606850693
 22
-4.249999805466555
 32
0.0
 13
-35.43959606850693
 23
-4.249999805466555
 33
0.0
  0
SOLID
  5
E4
330
DC
100
AcDbEntity
  8
0
 62
     7
100
AcDbTrace
 10
-35.23126273157088
 20
3.000000194429903
 30
0.0
 11
-35.64792939823755
 21
3.000000194636955
 31
0.0
 12
-35.43959606428306
 22
4.250000194533429
 32
0.0
 13
-35.43959606428306
 23
4.250000194533429
 33
0.0
  0
MTEXT
  5
E5
330
DC
100
AcDbEntity
  8
0
 62
     7
370
    35
100
AcDbMText
 10
-35.43959606617759
 20
0.4375001945334376
 30
0.0
 40
1.75
 41
0.0
 46
0.0
 71
     5
 72
     1
  1
\A1;{\fSpaceClaim ASME CB|b0|i0;8,5mm}
  7
SpaceClaim ASME CB
 73
     1
 44
1.0
  0
POINT
  5
E6
330
DC
100
AcDbEntity
  8
Defpoints
 62
     0
100
AcDbPoint
 10
-27.49999909111525
 20
-4.249999809411949
 30
0.0
  0
POINT
  5
E7
330
DC
100
AcDbEntity
  8
Defpoints
 62
     0
100
AcDbPoint
 10
-27.49999908689137
 20
4.250000190588034
 30
0.0
  0
POINT
  5
E8
330
DC
100
AcDbEntity
  8
Defpoints
 62
     0
100
AcDbPoint
 10
-35.43959606428306
 20
4.250000194533428
 30
0.0
  0
ENDBLK
  5
DE
330
DC
100
AcDbEntity
  8
0
100
AcDbBlockEnd
  0
BLOCK
  5
EC
330
EB
100
AcDbEntity
  8
0
100
AcDbBlockBegin
  2
*D6
 70
     1
 10
0.0
 20
0.0
 30
0.0
  3
*D6
  1

  0
LINE
  5
EE
330
EB
100
AcDbEntity
  8
0
 62
     7
370
    -2
100
AcDbLine
 10
-31.83257774036494
 20
15.29909275492129
 30
0.0
 11
-30.58257774036494
 21
15.29909275492129
 31
0.0
  0
LINE
  5
EF
330
EB
100
AcDbEntity
  8
0
 62
     7
370
    -2
100
AcDbLine
 10
-30.58257774036494
 20
15.29909275492129
 30
0.0
 11
-27.49999908140078
 21
15.29909275338948
 31
0.0
  0
LINE
  5
F0
330
EB
100
AcDbEntity
  8
0
 62
     7
370
    -2
100
AcDbLine
 10
-27.49999908686031
 20
4.312500190588034
 30
0.0
 11
-27.49999908131134
 21
15.47909275338948
 31
0.0
  0
LINE
  5
F1
330
EB
100
AcDbEntity
  8
0
 62
     7
370
    -2
100
AcDbLine
 10
-23.99999908852656
 20
0.0624999470585982
 30
0.0
 11
-23.99999908086565
 21
15.47909275165024
 31
0.0
  0
LINE
  5
F2
330
EB
100
AcDbEntity
  8
0
 62
     7
370
    -2
100
AcDbLine
 10
-26.24999908140078
 20
15.29909275276832
 30
0.0
 11
-25.2499990809551
 21
15.29909275227139
 31
0.0
  0
SOLID
  5
F3
330
EB
100
AcDbEntity
  8
0
 62
     7
100
AcDbTrace
 10
-26.24999908129726
 20
15.50742608610165
 30
0.0
 11
-26.24999908150431
 21
15.09075941943498
 31
0.0
 12
-27.49999908140078
 22
15.29909275338948
 32
0.0
 13
-27.49999908140078
 23
15.29909275338948
 33
0.0
  0
SOLID
  5
F4
330
EB
100
AcDbEntity
  8
0
 62
     7
100
AcDbTrace
 10
-25.24999908105862
 20
15.09075941893806
 30
0.0
 11
-25.24999908085157
 21
15.50742608560473
 31
0.0
 12
-23.9999990809551
 22
15.29909275165024
 32
0.0
 13
-23.9999990809551
 23
15.29909275165024
 33
0.0
  0
MTEXT
  5
F5
330
EB
100
AcDbEntity
  8
0
 62
     7
370
    35
100
AcDbMText
 10
-34.81007774036494
 20
15.29909275492129
 30
0.0
 40
1.75
 41
0.0
 46
0.0
 71
     5
 72
     1
  1
\A1;{\fSpaceClaim ASME CB|b0|i0;3,5mm}
  7
SpaceClaim ASME CB
 73
     1
 44
1.0
  0
POINT
  5
F6
330
EB
100
AcDbEntity
  8
Defpoints
 62
     0
100
AcDbPoint
 10
-27.49999908689137
 20
4.250000190588034
 30
0.0
  0
POINT
  5
F7
330
EB
100
AcDbEntity
  8
Defpoints
 62
     0
100
AcDbPoint
 10
-23.99999908855762
 20
-0.0000000529414018
 30
0.0
  0
POINT
  5
F8
330
EB
100
AcDbEntity
  8
Defpoints
 62
     0
100
AcDbPoint
 10
-23.9999990809551
 20
15.29909275165024
 30
0.0
  0
ENDBLK
  5
ED
330
EB
100
AcDbEntity
  8
0
100
AcDbBlockEnd
  0
BLOCK
  5
FC
330
FB
100
AcDbEntity
  8
0
100
AcDbBlockBegin
  2
*D7
 70
     1
 10
0.0
 20
0.0
 30
0.0
  3
*D7
  1

  0
LINE
  5
FE
330
FB
100
AcDbEntity
  8
0
 62
     7
370
    -2
100
AcDbLine
 10
31.2693871461017
 20
17.9346250464472
 30
0.0
 11
30.0193871461017
 21
17.9346250464472
 31
0.0
  0
LINE
  5
FF
330
FB
100
AcDbEntity
  8
0
 62
     7
370
    -2
100
AcDbLine
 10
30.0193871461017
 20
17.9346250464472
 30
0.0
 11
27.50000090364749
 21
17.93462504555907
 31
0.0
  0
LINE
  5
100
330
FB
100
AcDbEntity
  8
0
 62
     7
370
    -2
100
AcDbLine
 10
24.0000009098323
 20
0.0624977658821931
 30
0.0
 11
24.00000090346858
 21
18.11462504432525
 31
0.0
  0
LINE
  5
101
330
FB
100
AcDbEntity
  8
0
 62
     7
370
    -2
100
AcDbLine
 10
27.50000090844955
 20
4.312500190588356
 30
0.0
 11
27.50000090358404
 21
18.11462504555907
 31
0.0
  0
LINE
  5
102
330
FB
100
AcDbEntity
  8
0
 62
     7
370
    -2
100
AcDbLine
 10
25.25000090353204
 20
17.9346250447659
 30
0.0
 11
26.25000090364749
 21
17.93462504511842
 31
0.0
  0
SOLID
  5
103
330
FB
100
AcDbEntity
  8
0
 62
     7
100
AcDbTrace
 10
25.2500009034586
 20
18.14295837809923
 30
0.0
 11
25.25000090360548
 21
17.72629171143257
 31
0.0
 12
24.00000090353204
 22
17.93462504432525
 32
0.0
 13
24.00000090353204
 23
17.93462504432525
 33
0.0
  0
SOLID
  5
104
330
FB
100
AcDbEntity
  8
0
 62
     7
100
AcDbTrace
 10
26.25000090372093
 20
17.72629171178508
 30
0.0
 11
26.25000090357405
 21
18.14295837845175
 31
0.0
 12
27.50000090364749
 22
17.93462504555907
 32
0.0
 13
27.50000090364749
 23
17.93462504555907
 33
0.0
  0
MTEXT
  5
105
330
FB
100
AcDbEntity
  8
0
 62
     7
370
    35
100
AcDbMText
 10
34.2468871461017
 20
17.9346250464472
 30
0.0
 40
1.75
 41
0.0
 46
0.0
 71
     5
 72
     1
  1
\A1;{\fSpaceClaim ASME CB|b0|i0;3,5mm}
  7
SpaceClaim ASME CB
 73
     1
 44
1.0
  0
POINT
  5
106
330
FB
100
AcDbEntity
  8
Defpoints
 62
     0
100
AcDbPoint
 10
24.00000090985434
 20
-0.0000022341178069
 30
0.0
  0
POINT
  5
107
330
FB
100
AcDbEntity
  8
Defpoints
 62
     0
100
AcDbPoint
 10
27.50000090847158
 20
4.250000190588356
 30
0.0
  0
POINT
  5
108
330
FB
100
AcDbEntity
  8
Defpoints
 62
     0
100
AcDbPoint
 10
27.50000090364749
 20
17.93462504555907
 30
0.0
  0
ENDBLK
  5
FD
330
FB
100
AcDbEntity
  8
0
100
AcDbBlockEnd
  0
BLOCK
  5
10C
330
10B
100
AcDbEntity
  8
0
100
AcDbBlockBegin
  2
*D8
 70
     1
 10
0.0
 20
0.0
 30
0.0
  3
*D8
  1

  0
LINE
  5
10E
330
10B
100
AcDbEntity
  8
0
 62
     7
370
    -2
100
AcDbLine
 10
15.00000091382381
 20
0.0625001909028806
 30
0.0
 11
15.00000091382381
 21
18.07378940283182
 31
0.0
  0
LINE
  5
10F
330
10B
100
AcDbEntity
  8
0
 62
     7
370
    -2
100
AcDbLine
 10
24.00000090985434
 20
0.0624977658821931
 30
0.0
 11
24.00000090985434
 21
18.07378940283182
 31
0.0
  0
LINE
  5
110
330
10B
100
AcDbEntity
  8
0
 62
     7
370
    -2
100
AcDbLine
 10
16.25000091382381
 20
17.89378940283182
 30
0.0
 11
17.50627069518359
 21
17.89378940283182
 31
0.0
  0
LINE
  5
111
330
10B
100
AcDbEntity
  8
0
 62
     7
370
    -2
100
AcDbLine
 10
22.75000090985434
 20
17.89378940283182
 30
0.0
 11
21.33558279493515
 21
17.89378940283182
 31
0.0
  0
SOLID
  5
112
330
10B
100
AcDbEntity
  8
0
 62
     7
100
AcDbTrace
 10
16.25000091382381
 20
18.10212273616516
 30
0.0
 11
16.25000091382381
 21
17.68545606949849
 31
0.0
 12
15.00000091382381
 22
17.89378940283182
 32
0.0
 13
15.00000091382381
 23
17.89378940283182
 33
0.0
  0
SOLID
  5
113
330
10B
100
AcDbEntity
  8
0
 62
     7
100
AcDbTrace
 10
22.75000090985434
 20
17.68545606949849
 30
0.0
 11
22.75000090985434
 21
18.10212273616516
 31
0.0
 12
24.00000090985434
 22
17.89378940283182
 32
0.0
 13
24.00000090985434
 23
17.89378940283182
 33
0.0
  0
MTEXT
  5
114
330
10B
100
AcDbEntity
  8
0
 62
     7
370
    35
100
AcDbMText
 10
19.42092674505937
 20
17.89378940283182
 30
0.0
 40
1.75
 41
0.0
 46
0.0
 71
     5
 72
     1
  1
\A1;{\H1.58665743467459;\fSpaceClaim ASME CB|b0|i0;9mm}
  7
SpaceClaim ASME CB
 73
     1
 44
1.0
  0
POINT
  5
115
330
10B
100
AcDbEntity
  8
Defpoints
 62
     0
100
AcDbPoint
 10
15.00000091382381
 20
0.0000001909028806
 30
0.0
  0
POINT
  5
116
330
10B
100
AcDbEntity
  8
Defpoints
 62
     0
100
AcDbPoint
 10
24.00000090985434
 20
-0.0000022341178069
 30
0.0
  0
POINT
  5
117
330
10B
100
AcDbEntity
  8
Defpoints
 62
     0
100
AcDbPoint
 10
24.00000090985434
 20
17.89378940283182
 30
0.0
  0
ENDBLK
  5
10D
330
10B
100
AcDbEntity
  8
0
100
AcDbBlockEnd
  0
BLOCK
  5
11B
330
11A
100
AcDbEntity
  8
0
100
AcDbBlockBegin
  2
*D9
 70
     1
 10
0.0
 20
0.0
 30
0.0
  3
*D9
  1

  0
LINE
  5
11D
330
11A
100
AcDbEntity
  8
0
 62
     7
370
    -2
100
AcDbLine
 10
-23.99999908855762
 20
0.0624999470585982
 30
0.0
 11
-23.99999908855762
 21
15.47909275316129
 31
0.0
  0
LINE
  5
11E
330
11A
100
AcDbEntity
  8
0
 62
     7
370
    -2
100
AcDbLine
 10
-14.99999908617619
 20
0.0625001909027065
 30
0.0
 11
-14.99999908617619
 21
15.47909275316129
 31
0.0
  0
LINE
  5
11F
330
11A
100
AcDbEntity
  8
0
 62
     7
370
    -2
100
AcDbLine
 10
-22.74999908855762
 20
15.29909275316129
 30
0.0
 11
-20.79517087650261
 21
15.29909275316129
 31
0.0
  0
LINE
  5
120
330
11A
100
AcDbEntity
  8
0
 62
     7
370
    -2
100
AcDbLine
 10
-16.24999908617619
 20
15.29909275316129
 30
0.0
 11
-16.59017087650261
 21
15.29909275316129
 31
0.0
  0
SOLID
  5
121
330
11A
100
AcDbEntity
  8
0
 62
     7
100
AcDbTrace
 10
-22.74999908855762
 20
15.50742608649463
 30
0.0
 11
-22.74999908855762
 21
15.09075941982796
 31
0.0
 12
-23.99999908855762
 22
15.29909275316129
 32
0.0
 13
-23.99999908855762
 23
15.29909275316129
 33
0.0
  0
SOLID
  5
122
330
11A
100
AcDbEntity
  8
0
 62
     7
100
AcDbTrace
 10
-16.24999908617619
 20
15.09075941982796
 30
0.0
 11
-16.24999908617619
 21
15.50742608649463
 31
0.0
 12
-14.99999908617619
 22
15.29909275316129
 32
0.0
 13
-14.99999908617619
 23
15.29909275316129
 33
0.0
  0
MTEXT
  5
123
330
11A
100
AcDbEntity
  8
0
 62
     7
370
    35
100
AcDbMText
 10
-18.69267087650261
 20
15.29909275316129
 30
0.0
 40
1.75
 41
0.0
 46
0.0
 71
     5
 72
     1
  1
\A1;{\fSpaceClaim ASME CB|b0|i0;9mm}
  7
SpaceClaim ASME CB
 73
     1
 44
1.0
  0
POINT
  5
124
330
11A
100
AcDbEntity
  8
Defpoints
 62
     0
100
AcDbPoint
 10
-23.99999908855762
 20
-0.0000000529414018
 30
0.0
  0
POINT
  5
125
330
11A
100
AcDbEntity
  8
Defpoints
 62
     0
100
AcDbPoint
 10
-14.99999908617619
 20
0.0000001909027065
 30
0.0
  0
POINT
  5
126
330
11A
100
AcDbEntity
  8
Defpoints
 62
     0
100
AcDbPoint
 10
-14.99999908617619
 20
15.29909275316129
 30
0.0
  0
ENDBLK
  5
11C
330
11A
100
AcDbEntity
  8
0
100
AcDbBlockEnd
  0
BLOCK
  5
12A
330
129
100
AcDbEntity
  8
0
100
AcDbBlockBegin
  2
*D10
 70
     1
 10
0.0
 20
0.0
 30
0.0
  3
*D10
  1

  0
LINE
  5
12C
330
129
100
AcDbEntity
  8
0
 62
     7
370
    -2
100
AcDbLine
 10
15.00000091382381
 20
0.0625001909028806
 30
0.0
 11
15.00000091382372
 21
15.47909275316149
 31
0.0
  0
LINE
  5
12D
330
129
100
AcDbEntity
  8
0
 62
     7
370
    -2
100
AcDbLine
 10
-14.99999908617619
 20
0.0625001909027065
 30
0.0
 11
-14.99999908617628
 21
15.47909275316131
 31
0.0
  0
LINE
  5
12E
330
129
100
AcDbEntity
  8
0
 62
     7
370
    -2
100
AcDbLine
 10
13.75000091382372
 20
15.29909275316148
 30
0.0
 11
2.715000913823719
 21
15.29909275316142
 31
0.0
  0
LINE
  5
12F
330
129
100
AcDbEntity
  8
0
 62
     7
370
    -2
100
AcDbLine
 10
-13.74999908617628
 20
15.29909275316132
 30
0.0
 11
-2.714999086176281
 21
15.29909275316139
 31
0.0
  0
SOLID
  5
130
330
129
100
AcDbEntity
  8
0
 62
     7
100
AcDbTrace
 10
13.75000091382372
 20
15.09075941982815
 30
0.0
 11
13.75000091382372
 21
15.50742608649482
 31
0.0
 12
15.00000091382372
 22
15.29909275316149
 32
0.0
 13
15.00000091382372
 23
15.29909275316149
 33
0.0
  0
SOLID
  5
131
330
129
100
AcDbEntity
  8
0
 62
     7
100
AcDbTrace
 10
-13.74999908617628
 20
15.50742608649465
 30
0.0
 11
-13.74999908617628
 21
15.09075941982799
 31
0.0
 12
-14.99999908617628
 22
15.29909275316131
 32
0.0
 13
-14.99999908617628
 23
15.29909275316131
 33
0.0
  0
MTEXT
  5
132
330
129
100
AcDbEntity
  8
0
 62
     7
370
    35
100
AcDbMText
 10
0.0000009138237189
 20
15.2990927531614
 30
0.0
 40
1.75
 41
0.0
 46
0.0
 71
     5
 72
     1
  1
\A1;{\fSpaceClaim ASME CB|b0|i0;30mm}
  7
SpaceClaim ASME CB
 73
     1
 44
1.0
  0
POINT
  5
133
330
129
100
AcDbEntity
  8
Defpoints
 62
     0
100
AcDbPoint
 10
15.00000091382381
 20
0.0000001909028806
 30
0.0
  0
POINT
  5
134
330
129
100
AcDbEntity
  8
Defpoints
 62
     0
100
AcDbPoint
 10
-14.99999908617619
 20
0.0000001909027065
 30
0.0
  0
POINT
  5
135
330
129
100
AcDbEntity
  8
Defpoints
 62
     0
100
AcDbPoint
 10
-14.99999908617628
 20
15.29909275316131
 30
0.0
  0
ENDBLK
  5
12B
330
129
100
AcDbEntity
  8
0
100
AcDbBlockEnd
  0
BLOCK
  5
139
330
138
100
AcDbEntity
  8
0
100
AcDbBlockBegin
  2
*D11
 70
     1
 10
0.0
 20
0.0
 30
0.0
  3
*D11
  1

  0
LINE
  5
13B
330
138
100
AcDbEntity
  8
0
 62
     7
370
    -2
100
AcDbLine
 10
3.008055493151649
 20
-9.128526541389052
 30
0.0
 11
4.258055493151649
 21
-9.128526541389052
 31
0.0
  0
LINE
  5
13C
330
138
100
AcDbEntity
  8
0
 62
     7
370
    -2
100
AcDbLine
 10
4.258055493151649
 20
-9.128526541389052
 30
0.0
 11
4.25805549315164
 21
-4.249999809411896
 31
0.0
  0
LINE
  5
13D
330
138
100
AcDbEntity
  8
0
 62
     7
370
    -2
100
AcDbLine
 10
-14.93749908617619
 20
0.0000001909027066
 30
0.0
 11
4.438055493151632
 21
0.0000001909027428
 31
0.0
  0
LINE
  5
13E
330
138
100
AcDbEntity
  8
0
 62
     7
370
    -2
100
AcDbLine
 10
-7.726597281848359
 20
-4.249999809411917
 30
0.0
 11
4.43805549315164
 21
-4.249999809411896
 31
0.0
  0
LINE
  5
13F
330
138
100
AcDbEntity
  8
0
 62
     7
370
    -2
100
AcDbLine
 10
4.258055493151635
 20
-1.249999809097257
 30
0.0
 11
4.258055493151637
 21
-2.999999809411896
 31
0.0
  0
SOLID
  5
140
330
138
100
AcDbEntity
  8
0
 62
     7
100
AcDbTrace
 10
4.466388826484968
 20
-1.249999809097257
 30
0.0
 11
4.049722159818302
 21
-1.249999809097258
 31
0.0
 12
4.258055493151632
 22
0.0000001909027425
 32
0.0
 13
4.258055493151632
 23
0.0000001909027425
 33
0.0
  0
SOLID
  5
141
330
138
100
AcDbEntity
  8
0
 62
     7
100
AcDbTrace
 10
4.049722159818304
 20
-2.999999809411896
 30
0.0
 11
4.46638882648497
 21
-2.999999809411895
 31
0.0
 12
4.25805549315164
 22
-4.249999809411896
 32
0.0
 13
4.25805549315164
 23
-4.249999809411896
 33
0.0
  0
MTEXT
  5
142
330
138
100
AcDbEntity
  8
0
 62
     7
370
    35
100
AcDbMText
 10
-0.5863195068483511
 20
-9.128526541389052
 30
0.0
 40
1.75
 41
0.0
 46
0.0
 71
     5
 72
     1
  1
\A1;{\fSpaceClaim ASME CB|b0|i0;4,25mm}
  7
SpaceClaim ASME CB
 73
     1
 44
1.0
  0
POINT
  5
143
330
138
100
AcDbEntity
  8
Defpoints
 62
     0
100
AcDbPoint
 10
-14.99999908617619
 20
0.0000001909027065
 30
0.0
  0
POINT
  5
144
330
138
100
AcDbEntity
  8
Defpoints
 62
     0
100
AcDbPoint
 10
-7.789097281848359
 20
-4.249999809411917
 30
0.0
  0
POINT
  5
145
330
138
100
AcDbEntity
  8
Defpoints
 62
     0
100
AcDbPoint
 10
4.25805549315164
 20
-4.249999809411895
 30
0.0
  0
ENDBLK
  5
13A
330
138
100
AcDbEntity
  8
0
100
AcDbBlockEnd
  0
BLOCK
  5
149
330
148
100
AcDbEntity
  8
0
100
AcDbBlockBegin
  2
*D12
 70
     1
 10
0.0
 20
0.0
 30
0.0
  3
*D12
  1

  0
LINE
  5
14B
330
148
100
AcDbEntity
  8
0
 62
     7
370
    -2
100
AcDbLine
 10
-4.180694506848416
 20
8.672611564800173
 30
0.0
 11
-5.430694506848416
 21
8.672611564800173
 31
0.0
  0
LINE
  5
14C
330
148
100
AcDbEntity
  8
0
 62
     7
370
    -2
100
AcDbLine
 10
-5.430694506848416
 20
8.672611564800173
 30
0.0
 11
-5.430694506848392
 21
4.250000190588164
 31
0.0
  0
LINE
  5
14D
330
148
100
AcDbEntity
  8
0
 62
     7
370
    -2
100
AcDbLine
 10
-14.93749908617619
 20
0.0000001909027069
 30
0.0
 11
-5.250694506848368
 21
0.0000001909027631
 31
0.0
  0
LINE
  5
14E
330
148
100
AcDbEntity
  8
0
 62
     7
370
    -2
100
AcDbLine
 10
-7.726597281848391
 20
4.25000019058815
 30
0.0
 11
-5.250694506848392
 21
4.250000190588165
 31
0.0
  0
LINE
  5
14F
330
148
100
AcDbEntity
  8
0
 62
     7
370
    -2
100
AcDbLine
 10
-5.430694506848375
 20
1.250000190902762
 30
0.0
 11
-5.430694506848385
 21
3.000000190588164
 31
0.0
  0
SOLID
  5
150
330
148
100
AcDbEntity
  8
0
 62
     7
100
AcDbTrace
 10
-5.639027840181708
 20
1.250000190902761
 30
0.0
 11
-5.222361173515042
 21
1.250000190902763
 31
0.0
 12
-5.430694506848368
 22
0.000000190902762
 32
0.0
 13
-5.430694506848368
 23
0.000000190902762
 33
0.0
  0
SOLID
  5
151
330
148
100
AcDbEntity
  8
0
 62
     7
100
AcDbTrace
 10
-5.222361173515051
 20
3.000000190588165
 30
0.0
 11
-5.639027840181718
 21
3.000000190588163
 31
0.0
 12
-5.430694506848392
 22
4.250000190588164
 32
0.0
 13
-5.430694506848392
 23
4.250000190588164
 33
0.0
  0
MTEXT
  5
152
330
148
100
AcDbEntity
  8
0
 62
     7
370
    35
100
AcDbMText
 10
-0.5863195068484163
 20
8.672611564800173
 30
0.0
 40
1.75
 41
0.0
 46
0.0
 71
     5
 72
     1
  1
\A1;{\fSpaceClaim ASME CB|b0|i0;4,25mm}
  7
SpaceClaim ASME CB
 73
     1
 44
1.0
  0
POINT
  5
153
330
148
100
AcDbEntity
  8
Defpoints
 62
     0
100
AcDbPoint
 10
-14.99999908617619
 20
0.0000001909027065
 30
0.0
  0
POINT
  5
154
330
148
100
AcDbEntity
  8
Defpoints
 62
     0
100
AcDbPoint
 10
-7.789097281848391
 20
4.25000019058815
 30
0.0
  0
POINT
  5
155
330
148
100
AcDbEntity
  8
Defpoints
 62
     0
100
AcDbPoint
 10
-5.430694506848392
 20
4.250000190588163
 30
0.0
  0
ENDBLK
  5
14A
330
148
100
AcDbEntity
  8
0
100
AcDbBlockEnd
  0
BLOCK
  5
159
330
158
100
AcDbEntity
  8
0
100
AcDbBlockBegin
  2
*D13
 70
     1
 10
0.0
 20
0.0
 30
0.0
  3
*D13
  1

  0
LINE
  5
15B
330
158
100
AcDbEntity
  8
0
 62
     7
370
    -2
100
AcDbLine
 10
14.35962379890059
 20
-11.8393597555295
 30
0.0
 11
18.44034754857942
 21
-11.8393597555295
 31
0.0
  0
LINE
  5
15C
330
158
100
AcDbEntity
  8
0
 62
     7
370
    -2
100
AcDbLine
 10
18.44034754857942
 20
-11.8393597555295
 30
0.0
 11
24.00000090985434
 21
-0.0000022341177983
 31
0.0
  0
LINE
  5
15D
330
158
100
AcDbEntity
  8
0
 62
     7
370
    -2
100
AcDbLine
 10
24.00000090985433
 20
-0.0000022341178154
 30
0.0
 11
23.46867873795068
 21
-1.131460032554679
 31
0.0
  0
LINE
  5
15E
330
158
100
AcDbEntity
  8
0
 62
     7
370
    -2
100
AcDbLine
 10
24.53132308175798
 20
1.131455564319048
 30
0.0
 11
25.59396742556526
 21
3.394371161192774
 31
0.0
  0
MTEXT
  5
15F
330
158
100
AcDbEntity
  8
0
 62
     7
370
    35
100
AcDbMText
 10
10.59462379890059
 20
-11.8393597555295
 30
0.0
 40
1.75
 41
0.0
 46
0.0
 71
     5
 72
     1
  1
\A1;{\fSpaceClaim ASME CB|b0|i0;%%c2,5mm}
  7
SpaceClaim ASME CB
 73
     1
 44
1.0
  0
LINE
  5
160
330
158
100
AcDbEntity
  8
0
 62
     7
370
    -2
100
AcDbLine
 10
24.53132308175798
 20
1.131455564319048
 30
0.0
 11
23.46867873795069
 21
-1.131460032554662
 31
0.0
  0
SOLID
  5
161
330
158
100
AcDbEntity
  8
0
 62
     7
100
AcDbTrace
 10
24.18857720959381
 20
-0.0885559294350896
 30
0.0
 11
23.81142461011485
 21
0.0885514611994588
 31
0.0
 12
24.53132308175798
 22
1.131455564319048
 32
0.0
 13
24.53132308175798
 23
1.131455564319048
 33
0.0
  0
SOLID
  5
162
330
158
100
AcDbEntity
  8
0
 62
     7
100
AcDbTrace
 10
23.81142461011486
 20
0.0885514611994759
 30
0.0
 11
24.18857720959382
 21
-0.0885559294350725
 31
0.0
 12
23.46867873795069
 22
-1.131460032554662
 32
0.0
 13
23.46867873795069
 23
-1.131460032554662
 33
0.0
  0
POINT
  5
163
330
158
100
AcDbEntity
  8
Defpoints
 62
     0
100
AcDbPoint
 10
23.46867873795069
 20
-1.131460032554662
 30
0.0
  0
POINT
  5
164
330
158
100
AcDbEntity
  8
Defpoints
 62
     0
100
AcDbPoint
 10
24.53132308175798
 20
1.131455564319048
 30
0.0
  0
ENDBLK
  5
15A
330
158
100
AcDbEntity
  8
0
100
AcDbBlockEnd
  0
ENDSEC
  0
SECTION
  2
ENTITIES
  0
CIRCLE
  5
6E
330
1F
100
AcDbEntity
  8
0
 62
     7
370
    -3
100
AcDbCircle
 10
15.00000091382381
 20
0.0000001909028806
 30
0.0
 40
1.25
  0
CIRCLE
  5
6F
330
1F
100
AcDbEntity
  8
0
 62
     7
370
    -3
100
AcDbCircle
 10
-14.99999908617619
 20
0.0000001909027065
 30
0.0
 40
1.25
  0
CIRCLE
  5
70
330
1F
100
AcDbEntity
  8
0
 62
     7
370
    -3
100
AcDbCircle
 10
23.99999908855762
 20
-0.0000000529414018
 30
0.0000000000002022
 40
1.250000000000001
210
-8.424048609652741E-15
220
1.090193367909260E-19
230
-1.0
  0
CIRCLE
  5
71
102
{ACAD_REACTORS
330
165
102
}
330
1F
100
AcDbEntity
  8
0
 62
     7
370
    -3
100
AcDbCircle
 10
-24.00000090985434
 20
-0.0000022341178069
 30
-0.0000000000002022
 40
1.24999999999999
210
-8.424048609596252E-15
220
1.090193367909260E-19
230
-1.0
  0
LINE
  5
72
330
1F
100
AcDbEntity
  8
0
 62
     7
370
    -3
100
AcDbLine
 10
27.500000911468
 20
-4.249999809411853
 30
0.0
 11
-27.49999909111525
 21
-4.249999809411953
 31
0.0
  0
LINE
  5
73
330
1F
100
AcDbEntity
  8
0
 62
     7
370
    -3
100
AcDbLine
 10
27.500000911468
 20
-4.249999809411846
 30
0.0
 11
27.50000090847159
 21
4.250000190588356
 31
0.0
  0
LINE
  5
74
330
1F
100
AcDbEntity
  8
0
 62
     7
370
    -3
100
AcDbLine
 10
27.50000090847159
 20
4.250000190588354
 30
0.0
 11
-27.49999908689138
 21
4.250000190588035
 31
0.0
  0
LINE
  5
75
330
1F
100
AcDbEntity
  8
0
 62
     7
370
    -3
100
AcDbLine
 10
-27.49999909111525
 20
-4.249999809411949
 30
0.0
 11
-27.49999908689138
 21
4.250000190588034
 31
0.0
  0
LINE
  5
77
330
1F
100
AcDbEntity
  8
Hidden
  6
HIDDEN
370
    -3
100
AcDbLine
 10
6.500000913823777
 20
0.7500001811422785
 30
0.0
 11
6.500000913823806
 21
-4.249999809411857
 31
0.0
  0
LINE
  5
79
330
1F
100
AcDbEntity
  8
Hidden
  6
HIDDEN
370
    -3
100
AcDbLine
 10
9.500000625848738
 20
0.7500001811422959
 30
0.0
 11
9.500000625848768
 21
-4.249999765306656
 31
0.0
  0
LINE
  5
7A
330
1F
100
AcDbEntity
  8
Hidden
  6
HIDDEN
370
    -3
100
AcDbLine
 10
6.500000913823776
 20
0.7500001811422785
 30
0.0
 11
6.500000913823805
 21
-4.249999809411857
 31
0.0
  0
LINE
  5
7B
330
1F
100
AcDbEntity
  8
Hidden
  6
HIDDEN
370
    -3
100
AcDbLine
 10
9.500000625848791
 20
0.7500001811422959
 30
0.0
 11
9.500000625848818
 21
-4.249999765306656
 31
0.0
  0
LINE
  5
7C
330
1F
100
AcDbEntity
  8
Hidden
  6
HIDDEN
370
    -3
100
AcDbLine
 10
-9.499999086176224
 20
0.7500001811421856
 30
0.0
 11
-9.499999086176196
 21
-4.249999809411952
 31
0.0
  0
LINE
  5
7D
330
1F
100
AcDbEntity
  8
Hidden
  6
HIDDEN
370
    -3
100
AcDbLine
 10
-6.499999202787855
 20
0.750000181142203
 30
0.0
 11
-6.499999202787825
 21
-4.249999765306749
 31
0.0
  0
LINE
  5
7E
330
1F
100
AcDbEntity
  8
Hidden
  6
HIDDEN
370
    -3
100
AcDbLine
 10
-9.499999086176224
 20
0.7500001811421856
 30
0.0
 11
-9.499999086176196
 21
-4.249999809411952
 31
0.0
  0
LINE
  5
7F
330
1F
100
AcDbEntity
  8
Hidden
  6
HIDDEN
370
    -3
100
AcDbLine
 10
-6.499999202787906
 20
0.750000181142203
 30
0.0
 11
-6.499999202787877
 21
-4.249999765306749
 31
0.0
  0
LINE
  5
80
330
1F
100
AcDbEntity
  8
Hidden
  6
HIDDEN
370
    -3
100
AcDbLine
 10
4.750000778585693
 20
0.7500001811422683
 30
0.0
 11
4.750000778585674
 21
4.250000230968026
 31
0.0
  0
LINE
  5
81
330
1F
100
AcDbEntity
  8
Hidden
  6
HIDDEN
370
    -3
100
AcDbLine
 10
11.25000137835741
 20
4.250000230968063
 30
0.0
 11
11.25000137835743
 21
0.7500001811423058
 31
0.0
  0
LINE
  5
82
330
1F
100
AcDbEntity
  8
Hidden
  6
HIDDEN
370
    -3
100
AcDbLine
 10
4.750000778585642
 20
0.7500001811422683
 30
0.0
 11
4.750000778585623
 21
4.250000230968026
 31
0.0
  0
LINE
  5
83
330
1F
100
AcDbEntity
  8
Hidden
  6
HIDDEN
370
    -3
100
AcDbLine
 10
11.25000137835736
 20
4.250000230968063
 30
0.0
 11
11.25000137835738
 21
0.7500001811423058
 31
0.0
  0
LINE
  5
84
330
1F
100
AcDbEntity
  8
Hidden
  6
HIDDEN
370
    -3
100
AcDbLine
 10
-11.24999951571224
 20
0.7500001811421755
 30
0.0
 11
-11.24999951571226
 21
4.250000230967934
 31
0.0
  0
LINE
  5
85
330
1F
100
AcDbEntity
  8
Hidden
  6
HIDDEN
370
    -3
100
AcDbLine
 10
-4.749998915940521
 20
4.250000230967971
 30
0.0
 11
-4.749998915940502
 21
0.750000181142213
 31
0.0
  0
LINE
  5
86
330
1F
100
AcDbEntity
  8
Hidden
  6
HIDDEN
370
    -3
100
AcDbLine
 10
-11.24999951571229
 20
0.7500001811421755
 30
0.0
 11
-11.24999951571231
 21
4.250000230967934
 31
0.0
  0
LINE
  5
87
330
1F
100
AcDbEntity
  8
Hidden
  6
HIDDEN
370
    -3
100
AcDbLine
 10
-4.749998915940574
 20
4.250000230967971
 30
0.0
 11
-4.749998915940553
 21
0.750000181142213
 31
0.0
  0
LINE
  5
88
330
1F
100
AcDbEntity
  8
Hidden
  6
HIDDEN
370
    -3
100
AcDbLine
 10
-21.34999819099903
 20
4.250000230967874
 30
0.0
 11
-21.34999819099898
 21
-4.249999765306836
 31
0.0
  0
LINE
  5
89
330
1F
100
AcDbEntity
  8
Hidden
  6
HIDDEN
370
    -3
100
AcDbLine
 10
-24.64999817311762
 20
1.067707780748463
 30
0.0
 11
-24.64999817311764
 21
4.250000230967856
 31
0.0
  0
LINE
  5
8A
330
1F
100
AcDbEntity
  8
Hidden
  6
HIDDEN
370
    -3
100
AcDbLine
 10
-24.64999817311759
 20
-4.249999765306854
 30
0.0
 11
-24.64999817311761
 21
-1.067707897164071
 31
0.0
  0
LINE
  5
8B
330
1F
100
AcDbEntity
  8
Hidden
  6
HIDDEN
370
    -3
100
AcDbLine
 10
1.650000922381873
 20
4.250000230968008
 30
0.0
 11
1.650000922381923
 21
-4.249999765306701
 31
0.0
  0
LINE
  5
8C
330
1F
100
AcDbEntity
  8
Hidden
  6
HIDDEN
370
    -3
100
AcDbLine
 10
-1.649999059736684
 20
-4.249999765306721
 30
0.0
 11
-1.649999059736734
 21
4.250000230967989
 31
0.0
  0
LINE
  5
8D
330
1F
100
AcDbEntity
  8
Hidden
  6
HIDDEN
370
    -3
100
AcDbLine
 10
1.650000922381832
 20
4.250000230968008
 30
0.0
 11
1.650000922381882
 21
-4.249999765306701
 31
0.0
  0
LINE
  5
8E
330
1F
100
AcDbEntity
  8
Hidden
  6
HIDDEN
370
    -3
100
AcDbLine
 10
-1.649999059736725
 20
-4.249999765306721
 30
0.0
 11
-1.649999059736774
 21
4.250000230967989
 31
0.0
  0
LINE
  5
8F
330
1F
100
AcDbEntity
  8
Hidden
  6
HIDDEN
370
    -3
100
AcDbLine
 10
-21.34999819099908
 20
4.250000230967874
 30
0.0
 11
-21.34999819099903
 21
-4.249999765306836
 31
0.0
  0
LINE
  5
90
330
1F
100
AcDbEntity
  8
Hidden
  6
HIDDEN
370
    -3
100
AcDbLine
 10
-24.64999817311767
 20
1.067707780748463
 30
0.0
 11
-24.64999817311768
 21
4.250000230967856
 31
0.0
  0
LINE
  5
91
330
1F
100
AcDbEntity
  8
Hidden
  6
HIDDEN
370
    -3
100
AcDbLine
 10
-24.64999817311763
 20
-4.249999765306854
 30
0.0
 11
-24.64999817311765
 21
-1.067707897164071
 31
0.0
  0
LINE
  5
92
330
1F
100
AcDbEntity
  8
Hidden
  6
HIDDEN
370
    -3
100
AcDbLine
 10
24.65381100773811
 20
4.250000230968142
 30
0.0
 11
24.65381100773813
 21
1.06537691317513
 31
0.0
  0
LINE
  5
93
330
1F
100
AcDbEntity
  8
Hidden
  6
HIDDEN
370
    -3
100
AcDbLine
 10
21.35381102561955
 20
-4.249999765306587
 30
0.0
 11
21.3538110256195
 21
4.250000230968123
 31
0.0
  0
LINE
  5
94
330
1F
100
AcDbEntity
  8
Hidden
  6
HIDDEN
370
    -3
100
AcDbLine
 10
24.65381100773814
 20
-1.065381453372395
 30
0.0
 11
24.65381100773816
 21
-4.249999765306568
 31
0.0
  0
LINE
  5
95
330
1F
100
AcDbEntity
  8
Hidden
  6
HIDDEN
370
    -3
100
AcDbLine
 10
24.65381100773807
 20
4.250000230968142
 30
0.0
 11
24.65381100773808
 21
1.06537691317513
 31
0.0
  0
LINE
  5
96
330
1F
100
AcDbEntity
  8
Hidden
  6
HIDDEN
370
    -3
100
AcDbLine
 10
21.35381102561951
 20
-4.249999765306587
 30
0.0
 11
21.35381102561946
 21
4.250000230968123
 31
0.0
  0
LINE
  5
97
330
1F
100
AcDbEntity
  8
Hidden
  6
HIDDEN
370
    -3
100
AcDbLine
 10
24.6538110077381
 20
-1.065381453372395
 30
0.0
 11
24.65381100773812
 21
-4.249999765306568
 31
0.0
  0
LINE
  5
98
330
1F
100
AcDbEntity
  8
Hidden
  6
HIDDEN
370
    -3
100
AcDbLine
 10
-4.749999086176222
 20
0.7500001905880809
 30
0.0
 11
-11.24999908617623
 21
0.7500001905880432
 31
0.0
  0
LINE
  5
99
330
1F
100
AcDbEntity
  8
Hidden
  6
HIDDEN
370
    -3
100
AcDbLine
 10
11.25000091382378
 20
0.7500001905881737
 30
0.0
 11
4.750000913823774
 21
0.750000190588136
 31
0.0
  0
DIMENSION
  5
9A
102
{ACAD_XDICTIONARY
360
9D
102
}
330
1F
100
AcDbEntity
  8
0
 62
     7
370
    35
100
AcDbDimension
280
     0
  2
*D1
 10
-7.942713717192474
 20
0.7500001905880627
 30
7.500000000000111
 11
-3.715213717192534
 21
11.16594698691693
 31
7.500000000000111
 70
   160
  1
{\fSpaceClaim ASME CB|b0|i0;<>}
 71
     5
 42
3.500000000000086
 73
     0
 74
     0
 75
     0
  3
SpaceClaim ASME CB
100
AcDbAlignedDimension
 13
-10.30549149219249
 23
4.250000190588135
 33
7.500000000000111
 14
-10.30549149219247
 24
0.7500001905880486
 34
7.500000000000111
 50
-89.99999999999967
100
AcDbRotatedDimension
1001
ACAD
1000
DSTYLE
1002
{
1070
   144
1040
1.0
1070
     4
1000

1070
   273
1070
     2
1070
   277
1070
     2
1070
   284
1070
     8
1070
   285
1070
     0
1070
    78
1070
     8
1070
   171
1070
     3
1070
   271
1070
     2
1070
   274
1070
     3
1070
   272
1070
     2
1070
   278
1070
    44
1070
    74
1070
     1
1070
   174
1070
     1
1070
    77
1070
     0
1070
   170
1070
     0
1070
    41
1040
1.25
1070
   344
1005
0
1070
   343
1005
0
1070
   173
1070
     1
1070
   140
1040
1.75
1070
   178
1070
     7
1070
   177
1070
     7
1070
   176
1070
     7
1070
   179
1070
     1
1070
   143
1040
0.0393700787401575
1070
   286
1070
     8
1070
     3
1000
mm
1070
    73
1070
     1
1002
}
  0
DIMENSION
  5
AD
102
{ACAD_XDICTIONARY
360
AE
102
}
330
1F
100
AcDbEntity
  8
0
 62
     7
370
    35
100
AcDbDimension
280
     0
  2
*D2
 10
39.64313276551671
 20
-4.24999980941167
 30
7.500000000000109
 11
39.64313276551668
 21
0.4375001905883779
 31
7.500000000000109
 70
   160
  1
{\fSpaceClaim ASME CB|b0|i0;<>}
 71
     5
 42
8.500000000000094
 73
     0
 74
     0
 75
     0
  3
SpaceClaim ASME CB
100
AcDbAlignedDimension
 13
27.50000090847158
 23
4.250000190588354
 33
7.50000000000011
 14
27.500000911468
 24
-4.24999980941174
 34
7.500000000000111
 50
-89.99999999999967
100
AcDbRotatedDimension
1001
ACAD
1000
DSTYLE
1002
{
1070
   144
1040
1.0
1070
     4
1000

1070
   273
1070
     2
1070
   277
1070
     2
1070
   284
1070
     8
1070
   285
1070
     0
1070
    78
1070
     8
1070
   171
1070
     3
1070
   271
1070
     2
1070
   274
1070
     3
1070
   272
1070
     2
1070
   278
1070
    44
1070
    74
1070
     1
1070
   174
1070
     1
1070
    77
1070
     0
1070
   170
1070
     0
1070
    41
1040
1.25
1070
   344
1005
0
1070
   343
1005
0
1070
   173
1070
     1
1070
   140
1040
1.75
1070
   178
1070
     7
1070
   177
1070
     7
1070
   176
1070
     7
1070
   179
1070
     1
1070
   143
1040
0.0393700787401575
1070
   286
1070
     8
1070
     3
1000
mm
1070
    73
1070
     1
1002
}
  0
DIMENSION
  5
BC
102
{ACAD_XDICTIONARY
360
BD
102
}
330
1F
100
AcDbEntity
  8
0
 62
     7
370
    35
100
AcDbDimension
280
     0
  2
*D3
 10
-27.49999908500845
 20
-11.3323418286364
 30
7.50000000000011
 11
0.7878566961694289
 21
-11.33234181866438
 31
7.50000000000011
 70
   160
  1
{\fSpaceClaim ASME CB|b0|i0;<>}
 71
     5
 42
54.99999999897311
 73
     0
 74
     0
 75
     0
  3
SpaceClaim ASME CB
100
AcDbAlignedDimension
 13
27.500000911468
 23
-4.249999809411848
 33
7.50000000000011
 14
-27.49999908750511
 24
-4.249999809411952
 34
7.500000000000111
 50
-179.9999999798021
100
AcDbRotatedDimension
1001
ACAD
1000
DSTYLE
1002
{
1070
   144
1040
1.0
1070
     4
1000

1070
   273
1070
     2
1070
   277
1070
     2
1070
   284
1070
     8
1070
   285
1070
     0
1070
    78
1070
     8
1070
   171
1070
     3
1070
   271
1070
     2
1070
   274
1070
     3
1070
   272
1070
     2
1070
   278
1070
    44
1070
    74
1070
     1
1070
   174
1070
     1
1070
    77
1070
     0
1070
   170
1070
     0
1070
    41
1040
1.25
1070
   344
1005
0
1070
   343
1005
0
1070
   173
1070
     1
1070
   140
1040
1.75
1070
   178
1070
     7
1070
   177
1070
     7
1070
   176
1070
     7
1070
   179
1070
     1
1070
   143
1040
0.0393700787401575
1070
   286
1070
     8
1070
     3
1000
mm
1070
    73
1070
     1
1002
}
  0
DIMENSION
  5
CB
102
{ACAD_XDICTIONARY
360
CC
102
}
330
1F
100
AcDbEntity
  8
0
 62
     7
370
    35
100
AcDbDimension
280
     0
  2
*D4
 10
-27.49999909111522
 20
-16.71885954098257
 30
12.00000000000011
 11
-4.355375210603651
 21
-16.71885954098253
 31
12.00000000000011
 70
   160
  1
{\fSpaceClaim ASME CB|b0|i0;<>}
 71
     5
 42
55.00000000258325
 73
     0
 74
     0
 75
     0
  3
SpaceClaim ASME CB
100
AcDbAlignedDimension
 13
27.500000911468
 23
-4.249999809411853
 33
12.00000000000011
 14
-27.49999909111525
 24
-4.249999809411953
 34
12.00000000000011
 50
-179.9999999999999
100
AcDbRotatedDimension
1001
ACAD
1000
DSTYLE
1002
{
1070
   144
1040
1.0
1070
     4
1000

1070
   273
1070
     2
1070
   277
1070
     2
1070
   284
1070
     8
1070
   285
1070
     0
1070
    78
1070
     8
1070
   171
1070
     3
1070
   271
1070
     2
1070
   274
1070
     3
1070
   272
1070
     2
1070
   278
1070
    44
1070
    74
1070
     1
1070
   174
1070
     1
1070
    77
1070
     0
1070
   170
1070
     0
1070
    41
1040
1.25
1070
   344
1005
0
1070
   343
1005
0
1070
   173
1070
     1
1070
   140
1040
1.75
1070
   178
1070
     7
1070
   177
1070
     7
1070
   176
1070
     7
1070
   179
1070
     1
1070
   143
1040
0.0393700787401575
1070
   286
1070
     8
1070
     3
1000
mm
1070
    73
1070
     1
1002
}
  0
DIMENSION
  5
DA
102
{ACAD_XDICTIONARY
360
DB
102
}
330
1F
100
AcDbEntity
  8
0
 62
     7
370
    35
100
AcDbDimension
280
     0
  2
*D5
 10
-35.43959606428306
 20
4.250000194533429
 30
12.00000000000011
 11
-35.43959606617759
 21
0.4375001945334376
 31
12.00000000000011
 70
   160
  1
{\fSpaceClaim ASME CB|b0|i0;<>}
 71
     5
 42
8.499999999999982
 73
     0
 74
     0
 75
     0
  3
SpaceClaim ASME CB
100
AcDbAlignedDimension
 13
-27.49999909111525
 23
-4.249999809411949
 33
12.00000000000011
 14
-27.49999908689137
 24
4.250000190588034
 34
12.00000000000011
 50
89.99999997152823
100
AcDbRotatedDimension
1001
ACAD
1000
DSTYLE
1002
{
1070
   144
1040
1.0
1070
     4
1000

1070
   273
1070
     2
1070
   277
1070
     2
1070
   284
1070
     8
1070
   285
1070
     0
1070
    78
1070
     8
1070
   171
1070
     3
1070
   271
1070
     2
1070
   274
1070
     3
1070
   272
1070
     2
1070
   278
1070
    44
1070
    74
1070
     1
1070
   174
1070
     1
1070
    77
1070
     0
1070
   170
1070
     0
1070
    41
1040
1.25
1070
   344
1005
0
1070
   343
1005
0
1070
   173
1070
     1
1070
   140
1040
1.75
1070
   178
1070
     7
1070
   177
1070
     7
1070
   176
1070
     7
1070
   179
1070
     1
1070
   143
1040
0.0393700787401575
1070
   286
1070
     8
1070
     3
1000
mm
1070
    73
1070
     1
1002
}
  0
DIMENSION
  5
E9
102
{ACAD_XDICTIONARY
360
EA
102
}
330
1F
100
AcDbEntity
  8
0
 62
     7
370
    35
100
AcDbDimension
280
     0
  2
*D6
 10
-23.9999990809551
 20
15.29909275165024
 30
12.00000000000011
 11
-34.81007774036494
 21
15.29909275492129
 31
12.00000000000011
 70
   160
  1
{\fSpaceClaim ASME CB|b0|i0;<>}
 71
     5
 42
3.500000000445686
 73
     0
 74
     0
 75
     0
  3
SpaceClaim ASME CB
100
AcDbAlignedDimension
 13
-27.49999908689137
 23
4.250000190588034
 33
12.00000000000011
 14
-23.99999908855762
 24
-0.0000000529414018
 34
12.00000000000011
 50
-0.0000000284717825
100
AcDbRotatedDimension
1001
ACAD
1000
DSTYLE
1002
{
1070
   144
1040
1.0
1070
     4
1000

1070
   273
1070
     2
1070
   277
1070
     2
1070
   284
1070
     8
1070
   285
1070
     0
1070
    78
1070
     8
1070
   171
1070
     3
1070
   271
1070
     2
1070
   274
1070
     3
1070
   272
1070
     2
1070
   278
1070
    44
1070
    74
1070
     1
1070
   174
1070
     1
1070
    77
1070
     0
1070
   170
1070
     0
1070
    41
1040
1.25
1070
   344
1005
0
1070
   343
1005
0
1070
   173
1070
     1
1070
   140
1040
1.75
1070
   178
1070
     7
1070
   177
1070
     7
1070
   176
1070
     7
1070
   179
1070
     1
1070
   143
1040
0.0393700787401575
1070
   286
1070
     8
1070
     3
1000
mm
1070
    73
1070
     1
1002
}
  0
DIMENSION
  5
F9
102
{ACAD_XDICTIONARY
360
FA
102
}
330
1F
100
AcDbEntity
  8
0
 62
     7
370
    35
100
AcDbDimension
280
     0
  2
*D7
 10
27.50000090364749
 20
17.93462504555907
 30
12.00000000000011
 11
34.2468871461017
 21
17.9346250464472
 31
12.00000000000011
 70
   160
  1
{\fSpaceClaim ASME CB|b0|i0;<>}
 71
     5
 42
3.500000000115456
 73
     0
 74
     0
 75
     0
  3
SpaceClaim ASME CB
100
AcDbAlignedDimension
 13
24.00000090985434
 23
-0.0000022341178069
 33
12.00000000000011
 14
27.50000090847158
 24
4.250000190588356
 34
12.00000000000011
 50
0.0000000201978604
100
AcDbRotatedDimension
1001
ACAD
1000
DSTYLE
1002
{
1070
   144
1040
1.0
1070
     4
1000

1070
   273
1070
     2
1070
   277
1070
     2
1070
   284
1070
     8
1070
   285
1070
     0
1070
    78
1070
     8
1070
   171
1070
     3
1070
   271
1070
     2
1070
   274
1070
     3
1070
   272
1070
     2
1070
   278
1070
    44
1070
    74
1070
     1
1070
   174
1070
     1
1070
    77
1070
     0
1070
   170
1070
     0
1070
    41
1040
1.25
1070
   344
1005
0
1070
   343
1005
0
1070
   173
1070
     1
1070
   140
1040
1.75
1070
   178
1070
     7
1070
   177
1070
     7
1070
   176
1070
     7
1070
   179
1070
     1
1070
   143
1040
0.0393700787401575
1070
   286
1070
     8
1070
     3
1000
mm
1070
    73
1070
     1
1002
}
  0
DIMENSION
  5
109
102
{ACAD_XDICTIONARY
360
10A
102
}
330
1F
100
AcDbEntity
  8
0
 62
     7
370
    35
100
AcDbDimension
280
     0
  2
*D8
 10
24.00000090985434
 20
17.89378940283182
 30
12.00000000000011
 11
19.42092674505937
 21
17.89378940283182
 31
12.00000000000011
 70
   160
  1
{\H1.58665743467459;\fSpaceClaim ASME CB|b0|i0;<>}
 71
     5
 42
8.999999996030528
 73
     0
 74
     0
 75
     0
  3
SpaceClaim ASME CB
100
AcDbAlignedDimension
 13
15.00000091382381
 23
0.0000001909028806
 33
12.00000000000011
 14
24.00000090985434
 24
-0.0000022341178069
 34
12.00000000000011
 50
0.0000000000003326
100
AcDbRotatedDimension
1001
ACAD
1000
DSTYLE
1002
{
1070
   144
1040
1.0
1070
     4
1000

1070
   273
1070
     2
1070
   277
1070
     2
1070
   284
1070
     8
1070
   285
1070
     0
1070
    78
1070
     8
1070
   171
1070
     3
1070
   271
1070
     2
1070
   274
1070
     3
1070
   272
1070
     2
1070
   278
1070
    44
1070
    74
1070
     1
1070
   174
1070
     1
1070
    77
1070
     0
1070
   170
1070
     0
1070
    41
1040
1.25
1070
   344
1005
0
1070
   343
1005
0
1070
   173
1070
     1
1070
   140
1040
1.75
1070
   178
1070
     7
1070
   177
1070
     7
1070
   176
1070
     7
1070
   179
1070
     1
1070
   143
1040
0.0393700787401575
1070
   286
1070
     8
1070
     3
1000
mm
1070
    73
1070
     1
1002
}
  0
DIMENSION
  5
118
102
{ACAD_XDICTIONARY
360
119
102
}
330
1F
100
AcDbEntity
  8
0
 62
     7
370
    35
100
AcDbDimension
280
     0
  2
*D9
 10
-14.99999908617619
 20
15.29909275316129
 30
12.00000000000011
 11
-18.69267087650261
 21
15.29909275316129
 31
12.00000000000011
 70
   160
  1
{\fSpaceClaim ASME CB|b0|i0;<>}
 71
     5
 42
9.000000002381432
 73
     0
 74
     0
 75
     0
  3
SpaceClaim ASME CB
100
AcDbAlignedDimension
 13
-23.99999908855762
 23
-0.0000000529414018
 33
12.00000000000011
 14
-14.99999908617619
 24
0.0000001909027065
 34
12.00000000000011
 50
0.0000000000003326
100
AcDbRotatedDimension
1001
ACAD
1000
DSTYLE
1002
{
1070
   144
1040
1.0
1070
     4
1000

1070
   273
1070
     2
1070
   277
1070
     2
1070
   284
1070
     8
1070
   285
1070
     0
1070
    78
1070
     8
1070
   171
1070
     3
1070
   271
1070
     2
1070
   274
1070
     3
1070
   272
1070
     2
1070
   278
1070
    44
1070
    74
1070
     1
1070
   174
1070
     1
1070
    77
1070
     0
1070
   170
1070
     0
1070
    41
1040
1.25
1070
   344
1005
0
1070
   343
1005
0
1070
   173
1070
     1
1070
   140
1040
1.75
1070
   178
1070
     7
1070
   177
1070
     7
1070
   176
1070
     7
1070
   179
1070
     1
1070
   143
1040
0.0393700787401575
1070
   286
1070
     8
1070
     3
1000
mm
1070
    73
1070
     1
1002
}
  0
DIMENSION
  5
127
102
{ACAD_XDICTIONARY
360
128
102
}
330
1F
100
AcDbEntity
  8
0
 62
     7
370
    35
100
AcDbDimension
280
     0
  2
*D10
 10
-14.99999908617628
 20
15.29909275316131
 30
12.00000000000011
 11
0.0000009138237189
 21
15.2990927531614
 31
12.00000000000011
 70
   160
  1
{\fSpaceClaim ASME CB|b0|i0;<>}
 71
     5
 42
30.0
 73
     0
 74
     0
 75
     0
  3
SpaceClaim ASME CB
100
AcDbAlignedDimension
 13
15.00000091382381
 23
0.0000001909028806
 33
12.00000000000011
 14
-14.99999908617619
 24
0.0000001909027065
 34
12.00000000000011
 50
-179.9999999999997
100
AcDbRotatedDimension
1001
ACAD
1000
DSTYLE
1002
{
1070
   144
1040
1.0
1070
     4
1000

1070
   273
1070
     2
1070
   277
1070
     2
1070
   284
1070
     8
1070
   285
1070
     0
1070
    78
1070
     8
1070
   171
1070
     3
1070
   271
1070
     2
1070
   274
1070
     3
1070
   272
1070
     2
1070
   278
1070
    44
1070
    74
1070
     1
1070
   174
1070
     1
1070
    77
1070
     0
1070
   170
1070
     0
1070
    41
1040
1.25
1070
   344
1005
0
1070
   343
1005
0
1070
   173
1070
     1
1070
   140
1040
1.75
1070
   178
1070
     7
1070
   177
1070
     7
1070
   176
1070
     7
1070
   179
1070
     1
1070
   143
1040
0.0393700787401575
1070
   286
1070
     8
1070
     3
1000
mm
1070
    73
1070
     1
1002
}
  0
DIMENSION
  5
136
102
{ACAD_XDICTIONARY
360
137
102
}
330
1F
100
AcDbEntity
  8
0
 62
     7
370
    35
100
AcDbDimension
280
     0
  2
*D11
 10
4.25805549315164
 20
-4.249999809411896
 30
12.00000000000011
 11
-0.5863195068483511
 21
-9.128526541389052
 31
12.00000000000011
 70
   160
  1
{\fSpaceClaim ASME CB|b0|i0;<>}
 71
     5
 42
4.250000000314636
 73
     0
 74
     0
 75
     0
  3
SpaceClaim ASME CB
100
AcDbAlignedDimension
 13
-14.99999908617619
 23
0.0000001909027065
 33
12.00000000000011
 14
-7.789097281848359
 24
-4.249999809411917
 34
12.00000000000011
 50
-89.9999999999999
100
AcDbRotatedDimension
1001
ACAD
1000
DSTYLE
1002
{
1070
   144
1040
1.0
1070
     4
1000

1070
   273
1070
     2
1070
   277
1070
     2
1070
   284
1070
     8
1070
   285
1070
     0
1070
    78
1070
     8
1070
   171
1070
     3
1070
   271
1070
     2
1070
   274
1070
     3
1070
   272
1070
     2
1070
   278
1070
    44
1070
    74
1070
     1
1070
   174
1070
     1
1070
    77
1070
     0
1070
   170
1070
     0
1070
    41
1040
1.25
1070
   344
1005
0
1070
   343
1005
0
1070
   173
1070
     1
1070
   140
1040
1.75
1070
   178
1070
     7
1070
   177
1070
     7
1070
   176
1070
     7
1070
   179
1070
     1
1070
   143
1040
0.0393700787401575
1070
   286
1070
     8
1070
     3
1000
mm
1070
    73
1070
     1
1002
}
  0
DIMENSION
  5
146
102
{ACAD_XDICTIONARY
360
147
102
}
330
1F
100
AcDbEntity
  8
0
 62
     7
370
    35
100
AcDbDimension
280
     0
  2
*D12
 10
-5.430694506848392
 20
4.250000190588164
 30
12.00000000000011
 11
-0.5863195068484163
 21
8.672611564800173
 31
12.00000000000011
 70
   160
  1
{\fSpaceClaim ASME CB|b0|i0;<>}
 71
     5
 42
4.249999999685403
 73
     0
 74
     0
 75
     0
  3
SpaceClaim ASME CB
100
AcDbAlignedDimension
 13
-14.99999908617619
 23
0.0000001909027065
 33
12.00000000000011
 14
-7.789097281848391
 24
4.25000019058815
 34
12.00000000000011
 50
90.00000000000034
100
AcDbRotatedDimension
1001
ACAD
1000
DSTYLE
1002
{
1070
   144
1040
1.0
1070
     4
1000

1070
   273
1070
     2
1070
   277
1070
     2
1070
   284
1070
     8
1070
   285
1070
     0
1070
    78
1070
     8
1070
   171
1070
     3
1070
   271
1070
     2
1070
   274
1070
     3
1070
   272
1070
     2
1070
   278
1070
    44
1070
    74
1070
     1
1070
   174
1070
     1
1070
    77
1070
     0
1070
   170
1070
     0
1070
    41
1040
1.25
1070
   344
1005
0
1070
   343
1005
0
1070
   173
1070
     1
1070
   140
1040
1.75
1070
   178
1070
     7
1070
   177
1070
     7
1070
   176
1070
     7
1070
   179
1070
     1
1070
   143
1040
0.0393700787401575
1070
   286
1070
     8
1070
     3
1000
mm
1070
    73
1070
     1
1002
}
  0
DIMENSION
  5
156
102
{ACAD_REACTORS
330
165
102
}
102
{ACAD_XDICTIONARY
360
157
102
}
330
1F
100
AcDbEntity
  8
0
 62
     7
370
    35
100
AcDbDimension
280
     0
  2
*D13
 10
24.53132308175798
 20
1.131455564319048
 30
12.00000000000011
 11
10.59462379890059
 21
-11.8393597555295
 31
12.00000000000011
 70
   163
  1
{\fSpaceClaim ASME CB|b0|i0;<>}
 71
     5
 42
2.499999999999981
 73
     0
 74
     1
 75
     1
  3
SpaceClaim ASME CB
100
AcDbDiametricDimension
 15
23.46867873795069
 25
-1.131460032554662
 35
12.00000000000011
 40
0.0
1001
ACAD
1000
DSTYLE
1002
{
1070
   144
1040
1.0
1070
     4
1000

1070
   273
1070
     2
1070
   277
1070
     2
1070
   284
1070
     8
1070
   285
1070
     0
1070
    78
1070
     8
1070
   171
1070
     3
1070
   271
1070
     2
1070
   274
1070
     3
1070
   272
1070
     2
1070
   278
1070
    44
1070
    74
1070
     1
1070
   174
1070
     1
1070
    77
1070
     0
1070
   170
1070
     0
1070
    41
1040
1.25
1070
   344
1005
0
1070
   343
1005
0
1070
   173
1070
     1
1070
   140
1040
1.75
1070
   178
1070
     7
1070
   177
1070
     7
1070
   176
1070
     7
1070
   172
1070
     1
1070
   141
1040
0.0
1070
   179
1070
     1
1070
   143
1040
0.0393700787401575
1070
   286
1070
     8
1070
     3
1000
mm
1070
    73
1070
     1
1002
}
  0
ENDSEC
  0
SECTION
  2
OBJECTS
  0
DICTIONARY
  5
C
330
0
100
AcDbDictionary
281
     1
  3
ACAD_DETAILVIEWSTYLE
350
16D
  3
ACAD_GROUP
350
D
  3
ACAD_LAYOUT
350
1A
  3
ACAD_MATERIAL
350
43
  3
ACAD_MLEADERSTYLE
350
6B
  3
ACAD_MLINESTYLE
350
17
  3
ACAD_PLOTSETTINGS
350
19
  3
ACAD_PLOTSTYLENAME
350
E
  3
ACAD_SCALELIST
350
47
  3
ACAD_SECTIONVIEWSTYLE
350
16E
  3
ACAD_TABLESTYLE
350
69
  3
ACAD_VISUALSTYLE
350
2A
  3
ACDB_RECOMPOSE_DATA
350
16A
  3
AcDbVariableDictionary
350
166
  0
SUN
  5
6D
330
29
100
AcDbSun
 90
        1
290
     0
 63
     7
421
 16777215
 40
1.0
291
     1
 91
  2455826
 92
 54000000
292
     0
 70
     2
 71
   256
280
     1
  0
DICTIONARY
  5
9D
330
9A
100
AcDbDictionary
280
     1
281
     1
  0
DICTIONARY
  5
AE
330
AD
100
AcDbDictionary
280
     1
281
     1
  0
DICTIONARY
  5
BD
330
BC
100
AcDbDictionary
280
     1
281
     1
  0
DICTIONARY
  5
CC
330
CB
100
AcDbDictionary
280
     1
281
     1
  0
DICTIONARY
  5
DB
330
DA
100
AcDbDictionary
280
     1
281
     1
  0
DICTIONARY
  5
EA
330
E9
100
AcDbDictionary
280
     1
281
     1
  0
DICTIONARY
  5
FA
330
F9
100
AcDbDictionary
280
     1
281
     1
  0
DICTIONARY
  5
10A
330
109
100
AcDbDictionary
280
     1
281
     1
  0
DICTIONARY
  5
119
330
118
100
AcDbDictionary
280
     1
281
     1
  0
DICTIONARY
  5
128
330
127
100
AcDbDictionary
280
     1
281
     1
  0
DICTIONARY
  5
137
330
136
100
AcDbDictionary
280
     1
281
     1
  0
DICTIONARY
  5
147
330
146
100
AcDbDictionary
280
     1
281
     1
  0
DICTIONARY
  5
157
330
156
100
AcDbDictionary
280
     1
281
     1
  3
ACAD_DIMASSOC
360
165
  0
DICTIONARY
  5
16D
102
{ACAD_REACTORS
330
C
102
}
330
C
100
AcDbDictionary
281
     1
  0
DICTIONARY
  5
D
102
{ACAD_REACTORS
330
C
102
}
330
C
100
AcDbDictionary
281
     1
  0
DICTIONARY
  5
1A
102
{ACAD_REACTORS
330
C
102
}
330
C
100
AcDbDictionary
281
     1
  3
Layout1
350
1E
  3
Layout2
350
26
  3
Model
350
22
  0
DICTIONARY
  5
43
102
{ACAD_REACTORS
330
C
102
}
330
C
100
AcDbDictionary
281
     1
  3
ByBlock
350
45
  3
ByLayer
350
44
  3
Global
350
46
  0
DICTIONARY
  5
6B
102
{ACAD_REACTORS
330
C
102
}
330
C
100
AcDbDictionary
281
     1
  3
Standard
350
6C
  0
DICTIONARY
  5
17
102
{ACAD_REACTORS
330
C
102
}
330
C
100
AcDbDictionary
281
     1
  3
Standard
350
18
  0
DICTIONARY
  5
19
102
{ACAD_REACTORS
330
C
102
}
330
C
100
AcDbDictionary
281
     1
  0
ACDBDICTIONARYWDFLT
  5
E
102
{ACAD_REACTORS
330
C
102
}
330
C
100
AcDbDictionary
281
     1
  3
Normal
350
F
100
AcDbDictionaryWithDefault
340
F
  0
DICTIONARY
  5
47
102
{ACAD_REACTORS
330
C
102
}
330
C
100
AcDbDictionary
281
     1
  3
A0
350
48
  3
A1
350
49
  3
A2
350
4A
  3
A3
350
4B
  3
A4
350
4C
  3
A5
350
4D
  3
A6
350
4E
  3
A7
350
4F
  3
A8
350
50
  3
A9
350
51
  3
B0
350
52
  3
B1
350
53
  3
B2
350
54
  3
B3
350
55
  3
B4
350
56
  3
B5
350
57
  3
B6
350
58
  3
B7
350
59
  3
B8
350
5A
  3
B9
350
5B
  3
C0
350
5C
  3
C1
350
5D
  3
C2
350
5E
  3
C3
350
5F
  3
C4
350
60
  3
C5
350
61
  3
C6
350
62
  3
C7
350
63
  3
C8
350
64
  3
C9
350
65
  3
D0
350
66
  3
D1
350
67
  3
D2
350
68
  0
DICTIONARY
  5
16E
102
{ACAD_REACTORS
330
C
102
}
330
C
100
AcDbDictionary
281
     1
  0
DICTIONARY
  5
69
102
{ACAD_REACTORS
330
C
102
}
330
C
100
AcDbDictionary
281
     1
  3
Standard
350
6A
  0
DICTIONARY
  5
2A
102
{ACAD_REACTORS
330
C
102
}
330
C
100
AcDbDictionary
281
     1
  3
2dWireframe
350
2F
  3
Basic
350
32
  3
Brighten
350
36
  3
ColorChange
350
3A
  3
Conceptual
350
34
  3
Dim
350
35
  3
EdgeColorOff
350
3D
  3
Facepattern
350
39
  3
Flat
350
2B
  3
FlatWithEdges
350
2C
  3
Gouraud
350
2D
  3
GouraudWithEdges
350
2E
  3
Hidden
350
31
  3
JitterOff
350
3B
  3
Linepattern
350
38
  3
OverhangOff
350
3C
  3
Realistic
350
33
  3
Shaded
350
42
  3
Shaded with edges
350
41
  3
Shades of Gray
350
3E
  3
Sketchy
350
3F
  3
Thicken
350
37
  3
Wireframe
350
30
  3
X-Ray
350
40
  0
XRECORD
  5
16A
102
{ACAD_REACTORS
330
C
102
}
330
C
100
AcDbXrecord
280
     1
 90
        1
330
6A
  0
DICTIONARY
  5
166
102
{ACAD_REACTORS
330
C
102
}
330
C
100
AcDbDictionary
281
     1
  3
CANNOSCALE
350
167
  3
CENTEREXE
350
16F
  3
CENTERLTYPEFILE
350
170
  3
CMLEADERSTYLE
350
16C
  3
CTABLESTYLE
350
16B
  0
DIMASSOC
  5
165
102
{ACAD_REACTORS
330
157
102
}
330
157
100
AcDbDimAssoc
330
156
 90
        2
 70
     0
 71
     0
  1
AcDbOsnapPointRef
 72
    13
331
71
 73
     2
 91
        0
 40
0.0
 10
24.00000090985434
 20
-0.0000022341178069
 30
0.0
 75
     0
  0
LAYOUT
  5
1E
102
{ACAD_REACTORS
330
1A
102
}
330
1A
100
AcDbPlotSettings
  1

  2
none_device
  4

  6

 40
0.0
 41
0.0
 42
0.0
 43
0.0
 44
0.0
 45
0.0
 46
0.0
 47
0.0
 48
0.0
 49
0.0
140
0.0
141
0.0
142
1.0
143
1.0
 70
   688
 72
     1
 73
     0
 74
     5
  7

 75
    16
 76
     0
 77
     2
 78
   300
147
1.0
148
0.0
149
0.0
100
AcDbLayout
  1
Layout1
 70
     1
 71
     1
 10
0.0
 20
0.0
 11
420.0
 21
297.0
 12
0.0
 22
0.0
 32
0.0
 14
1.000000000000000E+20
 24
1.000000000000000E+20
 34
1.000000000000000E+20
 15
-1.000000000000000E+20
 25
-1.000000000000000E+20
 35
-1.000000000000000E+20
146
0.0
 13
0.0
 23
0.0
 33
0.0
 16
1.0
 26
0.0
 36
0.0
 17
0.0
 27
1.0
 37
0.0
 76
     0
330
1B
  0
LAYOUT
  5
26
102
{ACAD_REACTORS
330
1A
102
}
330
1A
100
AcDbPlotSettings
  1

  2
none_device
  4

  6

 40
0.0
 41
0.0
 42
0.0
 43
0.0
 44
0.0
 45
0.0
 46
0.0
 47
0.0
 48
0.0
 49
0.0
140
0.0
141
0.0
142
1.0
143
1.0
 70
   688
 72
     1
 73
     0
 74
     5
  7

 75
    16
 76
     0
 77
     2
 78
   300
147
1.0
148
0.0
149
0.0
100
AcDbLayout
  1
Layout2
 70
     1
 71
     2
 10
0.0
 20
0.0
 11
0.0
 21
0.0
 12
0.0
 22
0.0
 32
0.0
 14
0.0
 24
0.0
 34
0.0
 15
0.0
 25
0.0
 35
0.0
146
0.0
 13
0.0
 23
0.0
 33
0.0
 16
1.0
 26
0.0
 36
0.0
 17
0.0
 27
1.0
 37
0.0
 76
     0
330
23
  0
LAYOUT
  5
22
102
{ACAD_REACTORS
330
1A
102
}
330
1A
100
AcDbPlotSettings
  1

  2
none_device
  4
Letter_(8.50_x_11.00_Inches)
  6

 40
6.35
 41
6.35
 42
6.35000508
 43
6.35000508
 44
215.9
 45
279.4
 46
0.0
 47
0.0
 48
0.0
 49
0.0
140
0.0
141
0.0
142
1.0
143
1.0
 70
  1712
 72
     1
 73
     0
 74
     0
  7

 75
     0
 76
     0
 77
     2
 78
   300
147
1.0
148
0.0
149
0.0
100
AcDbLayout
  1
Model
 70
     1
 71
     0
 10
0.0
 20
0.0
 11
420.0
 21
297.0
 12
0.0
 22
0.0
 32
0.0
 14
-27.49999909111527
 24
-4.249999809412007
 34
0.0619136457872125
 15
27.500000911468
 25
4.250000230968142
 35
0.0619136457874009
146
0.0
 13
0.0
 23
0.0
 33
0.0
 16
1.0
 26
0.0
 36
0.0
 17
0.0
 27
1.0
 37
0.0
 76
     0
330
1F
331
29
  0
MATERIAL
  5
45
102
{ACAD_REACTORS
330
43
102
}
330
43
100
AcDbMaterial
  1
ByBlock
 72
     1
 94
      127
  0
MATERIAL
  5
44
102
{ACAD_REACTORS
330
43
102
}
330
43
100
AcDbMaterial
  1
ByLayer
 72
     1
 94
      127
  0
MATERIAL
  5
46
102
{ACAD_REACTORS
330
43
102
}
330
43
100
AcDbMaterial
  1
Global
 72
     1
 94
      127
  0
MLEADERSTYLE
  5
6C
102
{ACAD_REACTORS
330
6B
102
}
330
6B
100
AcDbMLeaderStyle
179
     2
170
     2
171
     1
172
     0
 90
        2
 40
0.0
 41
0.0
173
     1
 91
-1056964608
340
14
 92
       -2
290
     1
 42
2.0
291
     1
 43
8.0
  3
Standard
341
0
 44
4.0
300

342
11
174
     1
178
     6
175
     1
176
     0
 93
-1056964608
 45
4.0
292
     0
297
     0
 46
4.0
343
0
 94
-1056964608
 47
1.0
 49
1.0
140
1.0
293
     1
141
0.0
294
     1
177
     0
142
1.0
295
     0
296
     0
143
3.75
271
     0
272
     9
273
     9
298
     0
  0
MLINESTYLE
  5
18
102
{ACAD_REACTORS
330
17
102
}
330
17
100
AcDbMlineStyle
  2
Standard
 70
     0
  3

 62
   256
 51
90.0
 52
90.0
 71
     2
 49
0.5
 62
   256
  6
BYLAYER
 49
-0.5
 62
   256
  6
BYLAYER
  0
ACDBPLACEHOLDER
  5
F
102
{ACAD_REACTORS
330
E
102
}
330
E
  0
SCALE
  5
48
102
{ACAD_REACTORS
330
47
102
}
330
47
100
AcDbScale
 70
     0
300
1:1
140
1.0
141
1.0
290
     1
  0
SCALE
  5
49
102
{ACAD_REACTORS
330
47
102
}
330
47
100
AcDbScale
 70
     0
300
1:2
140
1.0
141
2.0
290
     0
  0
SCALE
  5
4A
102
{ACAD_REACTORS
330
47
102
}
330
47
100
AcDbScale
 70
     0
300
1:4
140
1.0
141
4.0
290
     0
  0
SCALE
  5
4B
102
{ACAD_REACTORS
330
47
102
}
330
47
100
AcDbScale
 70
     0
300
1:5
140
1.0
141
5.0
290
     0
  0
SCALE
  5
4C
102
{ACAD_REACTORS
330
47
102
}
330
47
100
AcDbScale
 70
     0
300
1:8
140
1.0
141
8.0
290
     0
  0
SCALE
  5
4D
102
{ACAD_REACTORS
330
47
102
}
330
47
100
AcDbScale
 70
     0
300
1:10
140
1.0
141
10.0
290
     0
  0
SCALE
  5
4E
102
{ACAD_REACTORS
330
47
102
}
330
47
100
AcDbScale
 70
     0
300
1:16
140
1.0
141
16.0
290
     0
  0
SCALE
  5
4F
102
{ACAD_REACTORS
330
47
102
}
330
47
100
AcDbScale
 70
     0
300
1:20
140
1.0
141
20.0
290
     0
  0
SCALE
  5
50
102
{ACAD_REACTORS
330
47
102
}
330
47
100
AcDbScale
 70
     0
300
1:30
140
1.0
141
30.0
290
     0
  0
SCALE
  5
51
102
{ACAD_REACTORS
330
47
102
}
330
47
100
AcDbScale
 70
     0
300
1:40
140
1.0
141
40.0
290
     0
  0
SCALE
  5
52
102
{ACAD_REACTORS
330
47
102
}
330
47
100
AcDbScale
 70
     0
300
1:50
140
1.0
141
50.0
290
     0
  0
SCALE
  5
53
102
{ACAD_REACTORS
330
47
102
}
330
47
100
AcDbScale
 70
     0
300
1:100
140
1.0
141
100.0
290
     0
  0
SCALE
  5
54
102
{ACAD_REACTORS
330
47
102
}
330
47
100
AcDbScale
 70
     0
300
2:1
140
2.0
141
1.0
290
     0
  0
SCALE
  5
55
102
{ACAD_REACTORS
330
47
102
}
330
47
100
AcDbScale
 70
     0
300
4:1
140
4.0
141
1.0
290
     0
  0
SCALE
  5
56
102
{ACAD_REACTORS
330
47
102
}
330
47
100
AcDbScale
 70
     0
300
8:1
140
8.0
141
1.0
290
     0
  0
SCALE
  5
57
102
{ACAD_REACTORS
330
47
102
}
330
47
100
AcDbScale
 70
     0
300
10:1
140
10.0
141
1.0
290
     0
  0
SCALE
  5
58
102
{ACAD_REACTORS
330
47
102
}
330
47
100
AcDbScale
 70
     0
300
100:1
140
100.0
141
1.0
290
     0
  0
SCALE
  5
59
102
{ACAD_REACTORS
330
47
102
}
330
47
100
AcDbScale
 70
     0
300
1/128" = 1'-0"
140
0.0078125
141
12.0
290
     0
  0
SCALE
  5
5A
102
{ACAD_REACTORS
330
47
102
}
330
47
100
AcDbScale
 70
     0
300
1/64" = 1'-0"
140
0.015625
141
12.0
290
     0
  0
SCALE
  5
5B
102
{ACAD_REACTORS
330
47
102
}
330
47
100
AcDbScale
 70
     0
300
1/32" = 1'-0"
140
0.03125
141
12.0
290
     0
  0
SCALE
  5
5C
102
{ACAD_REACTORS
330
47
102
}
330
47
100
AcDbScale
 70
     0
300
1/16" = 1'-0"
140
0.0625
141
12.0
290
     0
  0
SCALE
  5
5D
102
{ACAD_REACTORS
330
47
102
}
330
47
100
AcDbScale
 70
     0
300
3/32" = 1'-0"
140
0.09375
141
12.0
290
     0
  0
SCALE
  5
5E
102
{ACAD_REACTORS
330
47
102
}
330
47
100
AcDbScale
 70
     0
300
1/8" = 1'-0"
140
0.125
141
12.0
290
     0
  0
SCALE
  5
5F
102
{ACAD_REACTORS
330
47
102
}
330
47
100
AcDbScale
 70
     0
300
3/16" = 1'-0"
140
0.1875
141
12.0
290
     0
  0
SCALE
  5
60
102
{ACAD_REACTORS
330
47
102
}
330
47
100
AcDbScale
 70
     0
300
1/4" = 1'-0"
140
0.25
141
12.0
290
     0
  0
SCALE
  5
61
102
{ACAD_REACTORS
330
47
102
}
330
47
100
AcDbScale
 70
     0
300
3/8" = 1'-0"
140
0.375
141
12.0
290
     0
  0
SCALE
  5
62
102
{ACAD_REACTORS
330
47
102
}
330
47
100
AcDbScale
 70
     0
300
1/2" = 1'-0"
140
0.5
141
12.0
290
     0
  0
SCALE
  5
63
102
{ACAD_REACTORS
330
47
102
}
330
47
100
AcDbScale
 70
     0
300
3/4" = 1'-0"
140
0.75
141
12.0
290
     0
  0
SCALE
  5
64
102
{ACAD_REACTORS
330
47
102
}
330
47
100
AcDbScale
 70
     0
300
1" = 1'-0"
140
1.0
141
12.0
290
     0
  0
SCALE
  5
65
102
{ACAD_REACTORS
330
47
102
}
330
47
100
AcDbScale
 70
     0
300
1-1/2" = 1'-0"
140
1.5
141
12.0
290
     0
  0
SCALE
  5
66
102
{ACAD_REACTORS
330
47
102
}
330
47
100
AcDbScale
 70
     0
300
3" = 1'-0"
140
3.0
141
12.0
290
     0
  0
SCALE
  5
67
102
{ACAD_REACTORS
330
47
102
}
330
47
100
AcDbScale
 70
     0
300
6" = 1'-0"
140
6.0
141
12.0
290
     0
  0
SCALE
  5
68
102
{ACAD_REACTORS
330
47
102
}
330
47
100
AcDbScale
 70
     0
300
1'-0" = 1'-0"
140
12.0
141
12.0
290
     0
  0
TABLESTYLE
  5
6A
102
{ACAD_REACTORS
330
69
102
}
102
{ACAD_XDICTIONARY
360
168
102
}
330
69
100
AcDbTableStyle
  3
Standard
 70
     0
 71
     0
 40
0.06
 41
0.06
280
     0
281
     0
  7
Standard
140
4.5
170
     2
 62
     0
 63
   257
283
     0
 90
        4
 91
        0
  1

274
    -2
284
     1
 64
     0
275
    -2
285
     1
 65
     0
276
    -2
286
     1
 66
     0
277
    -2
287
     1
 67
     0
278
    -2
288
     1
 68
     0
279
    -2
289
     1
 69
     0
  7
Standard
140
6.0
170
     5
 62
     0
 63
   257
283
     0
 90
        4
 91
        0
  1

274
    -2
284
     1
 64
     0
275
    -2
285
     1
 65
     0
276
    -2
286
     1
 66
     0
277
    -2
287
     1
 67
     0
278
    -2
288
     1
 68
     0
279
    -2
289
     1
 69
     0
  7
Standard
140
4.5
170
     5
 62
     0
 63
   257
283
     0
 90
        4
 91
        0
  1

274
    -2
284
     1
 64
     0
275
    -2
285
     1
 65
     0
276
    -2
286
     1
 66
     0
277
    -2
287
     1
 67
     0
278
    -2
288
     1
 68
     0
279
    -2
289
     1
 69
     0
  0
VISUALSTYLE
  5
2F
102
{ACAD_REACTORS
330
2A
102
}
330
2A
100
AcDbVisualStyle
  2
2dWireframe
 70
     4
177
     3
291
     0
 70
    58
 90
        0
176
     1
 90
        2
176
     1
 90
        0
176
     1
 90
        0
176
     1
 40
0.6
176
     1
 40
30.0
176
     1
 62
     7
420
 16777215
176
     1
 90
        1
176
     1
 90
        4
176
     1
 62
     7
176
     1
 62
   257
176
     1
 90
        1
176
     1
 90
        1
176
     1
 40
1.0
176
     1
 90
        0
176
     1
 62
   257
176
     1
 40
1.0
176
     1
 90
        1
176
     1
 90
        6
176
     1
 90
        2
176
     1
 62
     7
176
     1
 90
        5
176
     1
 90
        0
176
     1
 90
        0
176
     1
290
     0
176
     1
 90
        1
176
     1
 40
0.0
176
     1
 90
        0
176
     1
290
     1
176
     1
290
     1
176
     1
290
     0
176
     1
290
     0
176
     1
290
     0
176
     1
290
     0
176
     1
290
     0
176
     1
290
     0
176
     1
290
     0
176
     1
 90
       50
176
     1
 40
0.0
176
     1
 40
1.0
176
     1
 90
        0
176
     1
 62
    18
420
        0
176
     1
 90
       50
176
     1
 90
        3
176
     1
 62
     5
420
      255
176
     1
290
     0
176
     1
 90
       50
176
     1
 90
       50
176
     1
 90
       50
176
     1
290
     0
176
     1
 90
       50
176
     1
 62
   256
176
     0
 40
1.0
176
     0
 90
        2
176
     1
  1
strokes_ogs.tif
176
     1
290
     0
176
     1
 40
1.0
176
     1
 40
1.0
176
     1
  0
VISUALSTYLE
  5
32
102
{ACAD_REACTORS
330
2A
102
}
330
2A
100
AcDbVisualStyle
  2
Basic
 70
     7
177
     3
291
     1
 70
    58
 90
        1
176
     1
 90
        0
176
     1
 90
        1
176
     1
 90
        0
176
     1
 40
0.6
176
     1
 40
30.0
176
     1
 62
     7
420
 16777215
176
     1
 90
        0
176
     1
 90
        4
176
     1
 62
     7
176
     1
 62
   257
176
     1
 90
        1
176
     1
 90
        1
176
     1
 40
1.0
176
     1
 90
        8
176
     1
 62
     7
176
     1
 40
1.0
176
     1
 90
        1
176
     1
 90
        6
176
     1
 90
        2
176
     1
 62
     7
176
     1
 90
        5
176
     1
 90
        0
176
     1
 90
        0
176
     1
290
     0
176
     1
 90
        1
176
     1
 40
0.0
176
     1
 90
        0
176
     1
290
     0
176
     1
290
     1
176
     1
290
     1
176
     1
290
     0
176
     1
290
     0
176
     1
290
     0
176
     1
290
     0
176
     1
290
     0
176
     1
290
     0
176
     1
 90
       50
176
     1
 40
0.0
176
     1
 40
1.0
176
     1
 90
        0
176
     1
 62
    18
420
        0
176
     1
 90
       50
176
     1
 90
        3
176
     1
 62
     5
420
      255
176
     1
290
     0
176
     1
 90
       50
176
     1
 90
       50
176
     1
 90
       50
176
     1
290
     0
176
     1
 90
       50
176
     1
 62
   256
176
     0
 40
1.0
176
     0
 90
        2
176
     1
  1
strokes_ogs.tif
176
     1
290
     0
176
     1
 40
1.0
176
     1
 40
1.0
176
     1
  0
VISUALSTYLE
  5
36
102
{ACAD_REACTORS
330
2A
102
}
330
2A
100
AcDbVisualStyle
  2
Brighten
 70
    12
177
     3
291
     1
 70
    58
 90
        2
176
     1
 90
        2
176
     1
 90
        0
176
     1
 90
        0
176
     1
 40
0.6
176
     1
 40
30.0
176
     1
 62
     7
420
 16777215
176
     1
 90
        1
176
     1
 90
        4
176
     1
 62
     7
176
     1
 62
   257
176
     1
 90
        1
176
     1
 90
        1
176
     1
 40
1.0
176
     1
 90
        8
176
     1
 62
     7
176
     1
 40
1.0
176
     1
 90
        1
176
     1
 90
        6
176
     1
 90
        2
176
     1
 62
     7
176
     1
 90
        5
176
     1
 90
        0
176
     1
 90
        0
176
     1
290
     0
176
     1
 90
        1
176
     1
 40
50.0
176
     1
 90
        0
176
     1
290
     0
176
     1
290
     1
176
     1
290
     1
176
     1
290
     0
176
     1
290
     0
176
     1
290
     0
176
     1
290
     0
176
     1
290
     0
176
     1
290
     0
176
     1
 90
       50
176
     1
 40
0.0
176
     1
 40
1.0
176
     1
 90
        0
176
     1
 62
    18
420
        0
176
     1
 90
       50
176
     1
 90
        3
176
     1
 62
     5
420
      255
176
     1
290
     0
176
     1
 90
       50
176
     1
 90
       50
176
     1
 90
       50
176
     1
290
     0
176
     1
 90
       50
176
     1
 62
   256
176
     0
 40
1.0
176
     0
 90
        2
176
     1
  1
strokes_ogs.tif
176
     1
290
     0
176
     1
 40
1.0
176
     1
 40
1.0
176
     1
  0
VISUALSTYLE
  5
3A
102
{ACAD_REACTORS
330
2A
102
}
330
2A
100
AcDbVisualStyle
  2
ColorChange
 70
    16
177
     3
291
     1
 70
    58
 90
        2
176
     1
 90
        2
176
     1
 90
        3
176
     1
 90
        0
176
     1
 40
0.6
176
     1
 40
30.0
176
     1
 62
     8
420
  8421504
176
     1
 90
        1
176
     1
 90
        4
176
     1
 62
     7
176
     1
 62
   257
176
     1
 90
        1
176
     1
 90
        1
176
     1
 40
1.0
176
     1
 90
        8
176
     1
 62
     8
420
  8421504
176
     1
 40
1.0
176
     1
 90
        1
176
     1
 90
        6
176
     1
 90
        2
176
     1
 62
     7
176
     1
 90
        5
176
     1
 90
        0
176
     1
 90
        0
176
     1
290
     0
176
     1
 90
        1
176
     1
 40
0.0
176
     1
 90
        0
176
     1
290
     0
176
     1
290
     1
176
     1
290
     1
176
     1
290
     0
176
     1
290
     0
176
     1
290
     0
176
     1
290
     0
176
     1
290
     0
176
     1
290
     0
176
     1
 90
       50
176
     1
 40
0.0
176
     1
 40
1.0
176
     1
 90
        0
176
     1
 62
    18
420
        0
176
     1
 90
       50
176
     1
 90
        3
176
     1
 62
     5
420
      255
176
     1
290
     0
176
     1
 90
       50
176
     1
 90
       50
176
     1
 90
       50
176
     1
290
     0
176
     1
 90
       50
176
     1
 62
   256
176
     0
 40
1.0
176
     0
 90
        2
176
     1
  1
strokes_ogs.tif
176
     1
290
     0
176
     1
 40
1.0
176
     1
 40
1.0
176
     1
  0
VISUALSTYLE
  5
34
102
{ACAD_REACTORS
330
2A
102
}
330
2A
100
AcDbVisualStyle
  2
Conceptual
 70
     9
177
     3
291
     0
 70
    58
 90
        3
176
     1
 90
        2
176
     1
 90
        0
176
     1
 90
        0
176
     1
 40
0.6
176
     1
 40
30.0
176
     1
 62
     7
420
 16777215
176
     1
 90
        2
176
     1
 90
        2
176
     1
 62
     7
176
     1
 62
   257
176
     1
 90
        1
176
     1
 90
        1
176
     1
 40
179.0
176
     1
 90
        8
176
     1
 62
     7
176
     1
 40
1.0
176
     1
 90
        1
176
     1
 90
        6
176
     1
 90
        2
176
     1
 62
     7
176
     1
 90
        3
176
     1
 90
        0
176
     1
 90
        0
176
     1
290
     0
176
     1
 90
        1
176
     1
 40
0.0
176
     1
 90
        0
176
     1
290
     0
176
     1
290
     1
176
     1
290
     1
176
     1
290
     0
176
     1
290
     0
176
     1
290
     0
176
     1
290
     0
176
     1
290
     0
176
     1
290
     0
176
     1
 90
       50
176
     1
 40
0.0
176
     1
 40
1.0
176
     1
 90
        0
176
     1
 62
    18
420
        0
176
     1
 90
       50
176
     1
 90
        3
176
     1
 62
     5
420
      255
176
     1
290
     0
176
     1
 90
       50
176
     1
 90
       50
176
     1
 90
       50
176
     1
290
     0
176
     1
 90
       50
176
     1
 62
   256
176
     0
 40
1.0
176
     0
 90
        2
176
     1
  1
strokes_ogs.tif
176
     1
290
     0
176
     1
 40
1.0
176
     1
 40
1.0
176
     1
  0
VISUALSTYLE
  5
35
102
{ACAD_REACTORS
330
2A
102
}
330
2A
100
AcDbVisualStyle
  2
Dim
 70
    11
177
     3
291
     1
 70
    58
 90
        2
176
     1
 90
        2
176
     1
 90
        0
176
     1
 90
        0
176
     1
 40
0.6
176
     1
 40
30.0
176
     1
 62
     7
420
 16777215
176
     1
 90
        1
176
     1
 90
        4
176
     1
 62
     7
176
     1
 62
   257
176
     1
 90
        1
176
     1
 90
        1
176
     1
 40
1.0
176
     1
 90
        8
176
     1
 62
     7
176
     1
 40
1.0
176
     1
 90
        1
176
     1
 90
        6
176
     1
 90
        2
176
     1
 62
     7
176
     1
 90
        5
176
     1
 90
        0
176
     1
 90
        0
176
     1
290
     0
176
     1
 90
        1
176
     1
 40
-50.0
176
     1
 90
        0
176
     1
290
     0
176
     1
290
     1
176
     1
290
     1
176
     1
290
     0
176
     1
290
     0
176
     1
290
     0
176
     1
290
     0
176
     1
290
     0
176
     1
290
     0
176
     1
 90
       50
176
     1
 40
0.0
176
     1
 40
1.0
176
     1
 90
        0
176
     1
 62
    18
420
        0
176
     1
 90
       50
176
     1
 90
        3
176
     1
 62
     5
420
      255
176
     1
290
     0
176
     1
 90
       50
176
     1
 90
       50
176
     1
 90
       50
176
     1
290
     0
176
     1
 90
       50
176
     1
 62
   256
176
     0
 40
1.0
176
     0
 90
        2
176
     1
  1
strokes_ogs.tif
176
     1
290
     0
176
     1
 40
1.0
176
     1
 40
1.0
176
     1
  0
VISUALSTYLE
  5
3D
102
{ACAD_REACTORS
330
2A
102
}
330
2A
100
AcDbVisualStyle
  2
EdgeColorOff
 70
    22
177
     3
291
     1
 70
    58
 90
        2
176
     0
 90
        2
176
     0
 90
        0
176
     0
 90
        0
176
     0
 40
0.6
176
     0
 40
30.0
176
     0
 62
     7
420
 16777215
176
     0
 90
        1
176
     0
 90
        4
176
     0
 62
     7
176
     0
 62
   257
176
     0
 90
        1
176
     0
 90
        1
176
     0
 40
1.0
176
     0
 90
        8
176
     2
 62
     7
176
     0
 40
1.0
176
     0
 90
        1
176
     0
 90
        6
176
     0
 90
        2
176
     0
 62
     7
176
     0
 90
        5
176
     0
 90
        0
176
     0
 90
        0
176
     0
290
     0
176
     0
 90
        1
176
     0
 40
0.0
176
     0
 90
        0
176
     0
290
     0
176
     0
290
     1
176
     0
290
     1
176
     0
290
     0
176
     0
290
     0
176
     0
290
     0
176
     0
290
     0
176
     0
290
     0
176
     0
290
     0
176
     0
 90
       50
176
     0
 40
0.0
176
     0
 40
1.0
176
     0
 90
        0
176
     0
 62
    18
420
        0
176
     0
 90
       50
176
     0
 90
        3
176
     0
 62
     5
420
      255
176
     0
290
     0
176
     0
 90
       50
176
     0
 90
       50
176
     0
 90
       50
176
     0
290
     0
176
     0
 90
       50
176
     0
 62
   256
176
     0
 40
1.0
176
     0
 90
        2
176
     0
  1
strokes_ogs.tif
176
     0
290
     0
176
     0
 40
1.0
176
     0
 40
1.0
176
     0
  0
VISUALSTYLE
  5
39
102
{ACAD_REACTORS
330
2A
102
}
330
2A
100
AcDbVisualStyle
  2
Facepattern
 70
    15
177
     3
291
     1
 70
    58
 90
        2
176
     1
 90
        2
176
     1
 90
        0
176
     1
 90
        0
176
     1
 40
0.6
176
     1
 40
30.0
176
     1
 62
     7
420
 16777215
176
     1
 90
        1
176
     1
 90
        4
176
     1
 62
     7
176
     1
 62
   257
176
     1
 90
        1
176
     1
 90
        1
176
     1
 40
1.0
176
     1
 90
        8
176
     1
 62
     7
176
     1
 40
1.0
176
     1
 90
        1
176
     1
 90
        6
176
     1
 90
        2
176
     1
 62
     7
176
     1
 90
        5
176
     1
 90
        0
176
     1
 90
        0
176
     1
290
     0
176
     1
 90
        1
176
     1
 40
0.0
176
     1
 90
        0
176
     1
290
     0
176
     1
290
     1
176
     1
290
     1
176
     1
290
     0
176
     1
290
     0
176
     1
290
     0
176
     1
290
     0
176
     1
290
     0
176
     1
290
     0
176
     1
 90
       50
176
     1
 40
0.0
176
     1
 40
1.0
176
     1
 90
        0
176
     1
 62
    18
420
        0
176
     1
 90
       50
176
     1
 90
        3
176
     1
 62
     5
420
      255
176
     1
290
     0
176
     1
 90
       50
176
     1
 90
       50
176
     1
 90
       50
176
     1
290
     0
176
     1
 90
       50
176
     1
 62
   256
176
     0
 40
1.0
176
     0
 90
        2
176
     1
  1
strokes_ogs.tif
176
     1
290
     0
176
     1
 40
1.0
176
     1
 40
1.0
176
     1
  0
VISUALSTYLE
  5
2B
102
{ACAD_REACTORS
330
2A
102
}
330
2A
100
AcDbVisualStyle
  2
Flat
 70
     0
177
     3
291
     1
 70
    58
 90
        2
176
     1
 90
        1
176
     1
 90
        1
176
     1
 90
        2
176
     1
 40
0.6
176
     1
 40
30.0
176
     1
 62
     7
420
 16777215
176
     1
 90
        0
176
     1
 90
        0
176
     1
 62
     7
176
     1
 62
   257
176
     1
 90
        1
176
     1
 90
        1
176
     1
 40
1.0
176
     1
 90
        8
176
     1
 62
     7
176
     1
 40
1.0
176
     1
 90
        1
176
     1
 90
        6
176
     1
 90
        2
176
     1
 62
     7
176
     1
 90
        5
176
     1
 90
        0
176
     1
 90
        0
176
     1
290
     0
176
     1
 90
       13
176
     1
 40
0.0
176
     1
 90
        0
176
     1
290
     0
176
     1
290
     1
176
     1
290
     1
176
     1
290
     0
176
     1
290
     0
176
     1
290
     0
176
     1
290
     0
176
     1
290
     0
176
     1
290
     0
176
     1
 90
       50
176
     1
 40
0.0
176
     1
 40
1.0
176
     1
 90
        0
176
     1
 62
    18
420
        0
176
     1
 90
       50
176
     1
 90
        3
176
     1
 62
     5
420
      255
176
     1
290
     0
176
     1
 90
       50
176
     1
 90
       50
176
     1
 90
       50
176
     1
290
     0
176
     1
 90
       50
176
     1
 62
   256
176
     0
 40
1.0
176
     0
 90
        2
176
     1
  1
strokes_ogs.tif
176
     1
290
     0
176
     1
 40
1.0
176
     1
 40
1.0
176
     1
  0
VISUALSTYLE
  5
2C
102
{ACAD_REACTORS
330
2A
102
}
330
2A
100
AcDbVisualStyle
  2
FlatWithEdges
 70
     1
177
     3
291
     1
 70
    58
 90
        2
176
     1
 90
        1
176
     1
 90
        1
176
     1
 90
        2
176
     1
 40
0.6
176
     1
 40
30.0
176
     1
 62
     7
420
 16777215
176
     1
 90
        1
176
     1
 90
        0
176
     1
 62
     7
176
     1
 62
   257
176
     1
 90
        1
176
     1
 90
        1
176
     1
 40
1.0
176
     1
 90
        0
176
     1
 62
   257
176
     1
 40
1.0
176
     1
 90
        1
176
     1
 90
        6
176
     1
 90
        2
176
     1
 62
     7
176
     1
 90
        5
176
     1
 90
        0
176
     1
 90
        0
176
     1
290
     0
176
     1
 90
       13
176
     1
 40
0.0
176
     1
 90
        0
176
     1
290
     0
176
     1
290
     1
176
     1
290
     1
176
     1
290
     0
176
     1
290
     0
176
     1
290
     0
176
     1
290
     0
176
     1
290
     0
176
     1
290
     0
176
     1
 90
       50
176
     1
 40
0.0
176
     1
 40
1.0
176
     1
 90
        0
176
     1
 62
    18
420
        0
176
     1
 90
       50
176
     1
 90
        3
176
     1
 62
     5
420
      255
176
     1
290
     0
176
     1
 90
       50
176
     1
 90
       50
176
     1
 90
       50
176
     1
290
     0
176
     1
 90
       50
176
     1
 62
   256
176
     0
 40
1.0
176
     0
 90
        2
176
     1
  1
strokes_ogs.tif
176
     1
290
     0
176
     1
 40
1.0
176
     1
 40
1.0
176
     1
  0
VISUALSTYLE
  5
2D
102
{ACAD_REACTORS
330
2A
102
}
330
2A
100
AcDbVisualStyle
  2
Gouraud
 70
     2
177
     3
291
     1
 70
    58
 90
        2
176
     1
 90
        2
176
     1
 90
        1
176
     1
 90
        2
176
     1
 40
0.6
176
     1
 40
30.0
176
     1
 62
     7
420
 16777215
176
     1
 90
        0
176
     1
 90
        0
176
     1
 62
     7
176
     1
 62
   257
176
     1
 90
        1
176
     1
 90
        1
176
     1
 40
1.0
176
     1
 90
        0
176
     1
 62
     7
176
     1
 40
1.0
176
     1
 90
        1
176
     1
 90
        6
176
     1
 90
        2
176
     1
 62
     7
176
     1
 90
        5
176
     1
 90
        0
176
     1
 90
        0
176
     1
290
     0
176
     1
 90
       13
176
     1
 40
0.0
176
     1
 90
        0
176
     1
290
     0
176
     1
290
     1
176
     1
290
     1
176
     1
290
     0
176
     1
290
     0
176
     1
290
     0
176
     1
290
     0
176
     1
290
     0
176
     1
290
     0
176
     1
 90
       50
176
     1
 40
0.0
176
     1
 40
1.0
176
     1
 90
        0
176
     1
 62
    18
420
        0
176
     1
 90
       50
176
     1
 90
        3
176
     1
 62
     5
420
      255
176
     1
290
     0
176
     1
 90
       50
176
     1
 90
       50
176
     1
 90
       50
176
     1
290
     0
176
     1
 90
       50
176
     1
 62
   256
176
     0
 40
1.0
176
     0
 90
        2
176
     1
  1
strokes_ogs.tif
176
     1
290
     0
176
     1
 40
1.0
176
     1
 40
1.0
176
     1
  0
VISUALSTYLE
  5
2E
102
{ACAD_REACTORS
330
2A
102
}
330
2A
100
AcDbVisualStyle
  2
GouraudWithEdges
 70
     3
177
     3
291
     1
 70
    58
 90
        2
176
     1
 90
        2
176
     1
 90
        1
176
     1
 90
        2
176
     1
 40
0.6
176
     1
 40
30.0
176
     1
 62
     7
420
 16777215
176
     1
 90
        1
176
     1
 90
        0
176
     1
 62
     7
176
     1
 62
   257
176
     1
 90
        1
176
     1
 90
        1
176
     1
 40
1.0
176
     1
 90
        0
176
     1
 62
   257
176
     1
 40
1.0
176
     1
 90
        1
176
     1
 90
        6
176
     1
 90
        2
176
     1
 62
     7
176
     1
 90
        5
176
     1
 90
        0
176
     1
 90
        0
176
     1
290
     0
176
     1
 90
       13
176
     1
 40
0.0
176
     1
 90
        0
176
     1
290
     0
176
     1
290
     1
176
     1
290
     1
176
     1
290
     0
176
     1
290
     0
176
     1
290
     0
176
     1
290
     0
176
     1
290
     0
176
     1
290
     0
176
     1
 90
       50
176
     1
 40
0.0
176
     1
 40
1.0
176
     1
 90
        0
176
     1
 62
    18
420
        0
176
     1
 90
       50
176
     1
 90
        3
176
     1
 62
     5
420
      255
176
     1
290
     0
176
     1
 90
       50
176
     1
 90
       50
176
     1
 90
       50
176
     1
290
     0
176
     1
 90
       50
176
     1
 62
   256
176
     0
 40
1.0
176
     0
 90
        2
176
     1
  1
strokes_ogs.tif
176
     1
290
     0
176
     1
 40
1.0
176
     1
 40
1.0
176
     1
  0
VISUALSTYLE
  5
31
102
{ACAD_REACTORS
330
2A
102
}
330
2A
100
AcDbVisualStyle
  2
Hidden
 70
     6
177
     3
291
     0
 70
    58
 90
        1
176
     1
 90
        2
176
     1
 90
        2
176
     1
 90
        0
176
     1
 40
0.6
176
     1
 40
30.0
176
     1
 62
     7
420
 16777215
176
     1
 90
        2
176
     1
 90
        2
176
     1
 62
     7
176
     1
 62
   257
176
     1
 90
        2
176
     1
 90
        1
176
     1
 40
40.0
176
     1
 90
        0
176
     1
 62
   257
176
     1
 40
1.0
176
     1
 90
        1
176
     1
 90
        6
176
     1
 90
        2
176
     1
 62
     7
176
     1
 90
        3
176
     1
 90
        0
176
     1
 90
        0
176
     1
290
     0
176
     1
 90
        1
176
     1
 40
0.0
176
     1
 90
        0
176
     1
290
     0
176
     1
290
     1
176
     1
290
     1
176
     1
290
     0
176
     1
290
     0
176
     1
290
     0
176
     1
290
     0
176
     1
290
     0
176
     1
290
     0
176
     1
 90
       50
176
     1
 40
0.0
176
     1
 40
1.0
176
     1
 90
        0
176
     1
 62
    18
420
        0
176
     1
 90
       50
176
     1
 90
        3
176
     1
 62
     5
420
      255
176
     1
290
     0
176
     1
 90
       50
176
     1
 90
       50
176
     1
 90
       50
176
     1
290
     0
176
     1
 90
       50
176
     1
 62
   256
176
     0
 40
1.0
176
     0
 90
        2
176
     1
  1
strokes_ogs.tif
176
     1
290
     0
176
     1
 40
1.0
176
     1
 40
1.0
176
     1
  0
VISUALSTYLE
  5
3B
102
{ACAD_REACTORS
330
2A
102
}
330
2A
100
AcDbVisualStyle
  2
JitterOff
 70
    20
177
     3
291
     1
 70
    58
 90
        2
176
     0
 90
        2
176
     0
 90
        0
176
     0
 90
        0
176
     0
 40
0.6
176
     0
 40
30.0
176
     0
 62
     7
420
 16777215
176
     0
 90
        1
176
     0
 90
        4
176
     0
 62
     7
176
     0
 62
   257
176
     0
 90
        1
176
     0
 90
        1
176
     0
 40
1.0
176
     0
 90
       10
176
     2
 62
     7
176
     0
 40
1.0
176
     0
 90
        1
176
     0
 90
        6
176
     0
 90
        2
176
     0
 62
     7
176
     0
 90
        5
176
     0
 90
        0
176
     0
 90
        0
176
     0
290
     0
176
     0
 90
        1
176
     0
 40
0.0
176
     0
 90
        0
176
     0
290
     0
176
     0
290
     1
176
     0
290
     1
176
     0
290
     0
176
     0
290
     0
176
     0
290
     0
176
     0
290
     0
176
     0
290
     0
176
     0
290
     0
176
     0
 90
       50
176
     0
 40
0.0
176
     0
 40
1.0
176
     0
 90
        0
176
     0
 62
    18
420
        0
176
     0
 90
       50
176
     0
 90
        3
176
     0
 62
     5
420
      255
176
     0
290
     0
176
     0
 90
       50
176
     0
 90
       50
176
     0
 90
       50
176
     0
290
     0
176
     0
 90
       50
176
     0
 62
   256
176
     0
 40
1.0
176
     0
 90
        2
176
     0
  1
strokes_ogs.tif
176
     0
290
     0
176
     0
 40
1.0
176
     0
 40
1.0
176
     0
  0
VISUALSTYLE
  5
38
102
{ACAD_REACTORS
330
2A
102
}
330
2A
100
AcDbVisualStyle
  2
Linepattern
 70
    14
177
     3
291
     1
 70
    58
 90
        2
176
     1
 90
        2
176
     1
 90
        0
176
     1
 90
        0
176
     1
 40
0.6
176
     1
 40
30.0
176
     1
 62
     7
420
 16777215
176
     1
 90
        1
176
     1
 90
        4
176
     1
 62
     7
176
     1
 62
   257
176
     1
 90
        7
176
     1
 90
        7
176
     1
 40
1.0
176
     1
 90
        8
176
     1
 62
     7
176
     1
 40
1.0
176
     1
 90
        1
176
     1
 90
        6
176
     1
 90
        2
176
     1
 62
     7
176
     1
 90
        5
176
     1
 90
        0
176
     1
 90
        0
176
     1
290
     0
176
     1
 90
        1
176
     1
 40
0.0
176
     1
 90
        0
176
     1
290
     0
176
     1
290
     1
176
     1
290
     1
176
     1
290
     0
176
     1
290
     0
176
     1
290
     0
176
     1
290
     0
176
     1
290
     0
176
     1
290
     0
176
     1
 90
       50
176
     1
 40
0.0
176
     1
 40
1.0
176
     1
 90
        0
176
     1
 62
    18
420
        0
176
     1
 90
       50
176
     1
 90
        3
176
     1
 62
     5
420
      255
176
     1
290
     0
176
     1
 90
       50
176
     1
 90
       50
176
     1
 90
       50
176
     1
290
     0
176
     1
 90
       50
176
     1
 62
   256
176
     0
 40
1.0
176
     0
 90
        2
176
     1
  1
strokes_ogs.tif
176
     1
290
     0
176
     1
 40
1.0
176
     1
 40
1.0
176
     1
  0
VISUALSTYLE
  5
3C
102
{ACAD_REACTORS
330
2A
102
}
330
2A
100
AcDbVisualStyle
  2
OverhangOff
 70
    21
177
     3
291
     1
 70
    58
 90
        2
176
     0
 90
        2
176
     0
 90
        0
176
     0
 90
        0
176
     0
 40
0.6
176
     0
 40
30.0
176
     0
 62
     7
420
 16777215
176
     0
 90
        1
176
     0
 90
        4
176
     0
 62
     7
176
     0
 62
   257
176
     0
 90
        1
176
     0
 90
        1
176
     0
 40
1.0
176
     0
 90
        9
176
     2
 62
     7
176
     0
 40
1.0
176
     0
 90
        1
176
     0
 90
        6
176
     0
 90
        2
176
     0
 62
     7
176
     0
 90
        5
176
     0
 90
        0
176
     0
 90
        0
176
     0
290
     0
176
     0
 90
        1
176
     0
 40
0.0
176
     0
 90
        0
176
     0
290
     0
176
     0
290
     1
176
     0
290
     1
176
     0
290
     0
176
     0
290
     0
176
     0
290
     0
176
     0
290
     0
176
     0
290
     0
176
     0
290
     0
176
     0
 90
       50
176
     0
 40
0.0
176
     0
 40
1.0
176
     0
 90
        0
176
     0
 62
    18
420
        0
176
     0
 90
       50
176
     0
 90
        3
176
     0
 62
     5
420
      255
176
     0
290
     0
176
     0
 90
       50
176
     0
 90
       50
176
     0
 90
       50
176
     0
290
     0
176
     0
 90
       50
176
     0
 62
   256
176
     0
 40
1.0
176
     0
 90
        2
176
     0
  1
strokes_ogs.tif
176
     0
290
     0
176
     0
 40
1.0
176
     0
 40
1.0
176
     0
  0
VISUALSTYLE
  5
33
102
{ACAD_REACTORS
330
2A
102
}
330
2A
100
AcDbVisualStyle
  2
Realistic
 70
     8
177
     3
291
     0
 70
    58
 90
        2
176
     1
 90
        3
176
     1
 90
        0
176
     1
 90
        2
176
     1
 40
0.6
176
     1
 40
30.0
176
     1
 62
     7
420
 16777215
176
     1
 90
        0
176
     1
 90
        0
176
     1
 62
     7
176
     1
 62
   257
176
     1
 90
        1
176
     1
 90
        1
176
     1
 40
1.0
176
     1
 90
        8
176
     1
 62
   257
176
     1
 40
1.0
176
     1
 90
        1
176
     1
 90
        6
176
     1
 90
        2
176
     1
 62
     7
176
     1
 90
        3
176
     1
 90
        0
176
     1
 90
        0
176
     1
290
     0
176
     1
 90
       13
176
     1
 40
0.0
176
     1
 90
        0
176
     1
290
     0
176
     1
290
     1
176
     1
290
     1
176
     1
290
     0
176
     1
290
     0
176
     1
290
     0
176
     1
290
     0
176
     1
290
     0
176
     1
290
     0
176
     1
 90
       50
176
     1
 40
0.0
176
     1
 40
1.0
176
     1
 90
        0
176
     1
 62
    18
420
        0
176
     1
 90
       50
176
     1
 90
        3
176
     1
 62
     5
420
      255
176
     1
290
     0
176
     1
 90
       50
176
     1
 90
       50
176
     1
 90
       50
176
     1
290
     0
176
     1
 90
       50
176
     1
 62
   256
176
     0
 40
1.0
176
     0
 90
        2
176
     1
  1
strokes_ogs.tif
176
     1
290
     0
176
     1
 40
1.0
176
     1
 40
1.0
176
     1
  0
VISUALSTYLE
  5
42
102
{ACAD_REACTORS
330
2A
102
}
330
2A
100
AcDbVisualStyle
  2
Shaded
 70
    27
177
     3
291
     0
 70
    58
 90
        2
176
     1
 90
        2
176
     1
 90
        1
176
     1
 90
        2
176
     1
 40
0.6
176
     1
 40
30.0
176
     1
 62
     7
420
 16777215
176
     1
 90
        0
176
     1
 90
        4
176
     1
 62
     7
176
     1
 62
   257
176
     1
 90
        1
176
     1
 90
        1
176
     1
 40
1.0
176
     1
 90
        8
176
     1
 62
   257
176
     1
 40
1.0
176
     1
 90
        1
176
     1
 90
        6
176
     1
 90
        2
176
     1
 62
     8
420
  7895160
176
     1
 90
        3
176
     1
 90
        0
176
     1
 90
        0
176
     1
290
     0
176
     1
 90
        5
176
     1
 40
0.0
176
     1
 90
        0
176
     1
290
     0
176
     1
290
     1
176
     1
290
     1
176
     1
290
     0
176
     1
290
     0
176
     1
290
     0
176
     1
290
     0
176
     1
290
     0
176
     1
290
     0
176
     1
 90
       50
176
     1
 40
0.0
176
     1
 40
1.0
176
     1
 90
        0
176
     1
 62
    18
420
        0
176
     1
 90
       50
176
     1
 90
        3
176
     1
 62
     5
420
      255
176
     1
290
     0
176
     1
 90
       50
176
     1
 90
       50
176
     1
 90
       50
176
     1
290
     0
176
     1
 90
       50
176
     1
 62
   256
176
     0
 40
1.0
176
     0
 90
        2
176
     1
  1
strokes_ogs.tif
176
     1
290
     0
176
     1
 40
1.0
176
     1
 40
1.0
176
     1
  0
VISUALSTYLE
  5
41
102
{ACAD_REACTORS
330
2A
102
}
330
2A
100
AcDbVisualStyle
  2
Shaded with edges
 70
    26
177
     3
291
     0
 70
    58
 90
        2
176
     1
 90
        2
176
     1
 90
        1
176
     1
 90
        2
176
     1
 40
0.6
176
     1
 40
30.0
176
     1
 62
     7
420
 16777215
176
     1
 90
        1
176
     1
 90
       10
176
     1
 62
     7
176
     1
 62
   257
176
     1
 90
        2
176
     1
 90
        1
176
     1
 40
1.0
176
     1
 90
        8
176
     1
 62
   257
176
     1
 40
1.0
176
     1
 90
        1
176
     1
 90
        6
176
     1
 90
        2
176
     1
 62
     7
176
     1
 90
        3
176
     1
 90
        0
176
     1
 90
        0
176
     1
290
     0
176
     1
 90
        5
176
     1
 40
0.0
176
     1
 90
        0
176
     1
290
     0
176
     1
290
     1
176
     1
290
     1
176
     1
290
     0
176
     1
290
     0
176
     1
290
     0
176
     1
290
     0
176
     1
290
     0
176
     1
290
     0
176
     1
 90
       50
176
     1
 40
0.0
176
     1
 40
1.0
176
     1
 90
        0
176
     1
 62
    18
420
        0
176
     1
 90
       50
176
     1
 90
        3
176
     1
 62
     5
420
      255
176
     1
290
     0
176
     1
 90
       50
176
     1
 90
       50
176
     1
 90
       50
176
     1
290
     0
176
     1
 90
       50
176
     1
 62
   256
176
     0
 40
1.0
176
     0
 90
        2
176
     1
  1
strokes_ogs.tif
176
     1
290
     0
176
     1
 40
1.0
176
     1
 40
1.0
176
     1
  0
VISUALSTYLE
  5
3E
102
{ACAD_REACTORS
330
2A
102
}
330
2A
100
AcDbVisualStyle
  2
Shades of Gray
 70
    23
177
     3
291
     0
 70
    58
 90
        2
176
     1
 90
        2
176
     1
 90
        3
176
     1
 90
        0
176
     1
 40
0.6
176
     1
 40
30.0
176
     1
 62
     7
420
 16777215
176
     1
 90
        2
176
     1
 90
        2
176
     1
 62
     7
176
     1
 62
     7
176
     1
 90
        1
176
     1
 90
        1
176
     1
 40
40.0
176
     1
 90
        8
176
     1
 62
     7
176
     1
 40
1.0
176
     1
 90
        1
176
     1
 90
        6
176
     1
 90
        2
176
     1
 62
     7
176
     1
 90
        3
176
     1
 90
        0
176
     1
 90
        0
176
     1
290
     0
176
     1
 90
        1
176
     1
 40
0.0
176
     1
 90
        0
176
     1
290
     0
176
     1
290
     1
176
     1
290
     1
176
     1
290
     0
176
     1
290
     0
176
     1
290
     0
176
     1
290
     0
176
     1
290
     0
176
     1
290
     0
176
     1
 90
       50
176
     1
 40
0.0
176
     1
 40
1.0
176
     1
 90
        0
176
     1
 62
    18
420
        0
176
     1
 90
       50
176
     1
 90
        3
176
     1
 62
     5
420
      255
176
     1
290
     0
176
     1
 90
       50
176
     1
 90
       50
176
     1
 90
       50
176
     1
290
     0
176
     1
 90
       50
176
     1
 62
   256
176
     0
 40
1.0
176
     0
 90
        2
176
     1
  1
strokes_ogs.tif
176
     1
290
     0
176
     1
 40
1.0
176
     1
 40
1.0
176
     1
  0
VISUALSTYLE
  5
3F
102
{ACAD_REACTORS
330
2A
102
}
330
2A
100
AcDbVisualStyle
  2
Sketchy
 70
    24
177
     3
291
     0
 70
    58
 90
        1
176
     1
 90
        2
176
     1
 90
        2
176
     1
 90
        0
176
     1
 40
0.6
176
     1
 40
30.0
176
     1
 62
     7
420
 16777215
176
     1
 90
        2
176
     1
 90
        2
176
     1
 62
     7
176
     1
 62
     7
176
     1
 90
        1
176
     1
 90
        1
176
     1
 40
40.0
176
     1
 90
       11
176
     1
 62
     7
176
     1
 40
1.0
176
     1
 90
        1
176
     1
 90
        6
176
     1
 90
        2
176
     1
 62
     7
176
     1
 90
        6
176
     1
 90
        0
176
     1
 90
        0
176
     1
290
     0
176
     1
 90
        1
176
     1
 40
0.0
176
     1
 90
        0
176
     1
290
     0
176
     1
290
     1
176
     1
290
     1
176
     1
290
     0
176
     1
290
     0
176
     1
290
     0
176
     1
290
     0
176
     1
290
     0
176
     1
290
     0
176
     1
 90
       50
176
     1
 40
0.0
176
     1
 40
1.0
176
     1
 90
        0
176
     1
 62
    18
420
        0
176
     1
 90
       50
176
     1
 90
        3
176
     1
 62
     5
420
      255
176
     1
290
     0
176
     1
 90
       50
176
     1
 90
       50
176
     1
 90
       50
176
     1
290
     0
176
     1
 90
       50
176
     1
 62
   256
176
     0
 40
1.0
176
     0
 90
        2
176
     1
  1
strokes_ogs.tif
176
     1
290
     0
176
     1
 40
1.0
176
     1
 40
1.0
176
     1
  0
VISUALSTYLE
  5
37
102
{ACAD_REACTORS
330
2A
102
}
330
2A
100
AcDbVisualStyle
  2
Thicken
 70
    13
177
     3
291
     1
 70
    58
 90
        2
176
     1
 90
        2
176
     1
 90
        0
176
     1
 90
        0
176
     1
 40
0.6
176
     1
 40
30.0
176
     1
 62
     7
420
 16777215
176
     1
 90
        1
176
     1
 90
        4
176
     1
 62
     7
176
     1
 62
   257
176
     1
 90
        1
176
     1
 90
        1
176
     1
 40
1.0
176
     1
 90
       12
176
     1
 62
     7
176
     1
 40
1.0
176
     1
 90
        1
176
     1
 90
        6
176
     1
 90
        2
176
     1
 62
     7
176
     1
 90
        5
176
     1
 90
        0
176
     1
 90
        0
176
     1
290
     0
176
     1
 90
        1
176
     1
 40
0.0
176
     1
 90
        0
176
     1
290
     0
176
     1
290
     1
176
     1
290
     1
176
     1
290
     0
176
     1
290
     0
176
     1
290
     0
176
     1
290
     0
176
     1
290
     0
176
     1
290
     0
176
     1
 90
       50
176
     1
 40
0.0
176
     1
 40
1.0
176
     1
 90
        0
176
     1
 62
    18
420
        0
176
     1
 90
       50
176
     1
 90
        3
176
     1
 62
     5
420
      255
176
     1
290
     0
176
     1
 90
       50
176
     1
 90
       50
176
     1
 90
       50
176
     1
290
     0
176
     1
 90
       50
176
     1
 62
   256
176
     0
 40
1.0
176
     0
 90
        2
176
     1
  1
strokes_ogs.tif
176
     1
290
     0
176
     1
 40
1.0
176
     1
 40
1.0
176
     1
  0
VISUALSTYLE
  5
30
102
{ACAD_REACTORS
330
2A
102
}
330
2A
100
AcDbVisualStyle
  2
Wireframe
 70
     5
177
     3
291
     0
 70
    58
 90
        0
176
     1
 90
        2
176
     1
 90
        0
176
     1
 90
        0
176
     1
 40
0.6
176
     1
 40
30.0
176
     1
 62
     7
420
 16777215
176
     1
 90
        1
176
     1
 90
        4
176
     1
 62
     7
176
     1
 62
   257
176
     1
 90
        1
176
     1
 90
        1
176
     1
 40
1.0
176
     1
 90
        0
176
     1
 62
   257
176
     1
 40
1.0
176
     1
 90
        1
176
     1
 90
        6
176
     1
 90
        2
176
     1
 62
     7
176
     1
 90
        3
176
     1
 90
        0
176
     1
 90
        0
176
     1
290
     0
176
     1
 90
        1
176
     1
 40
0.0
176
     1
 90
        0
176
     1
290
     0
176
     1
290
     1
176
     1
290
     1
176
     1
290
     0
176
     1
290
     0
176
     1
290
     0
176
     1
290
     0
176
     1
290
     0
176
     1
290
     0
176
     1
 90
       50
176
     1
 40
0.0
176
     1
 40
1.0
176
     1
 90
        0
176
     1
 62
    18
420
        0
176
     1
 90
       50
176
     1
 90
        3
176
     1
 62
     5
420
      255
176
     1
290
     0
176
     1
 90
       50
176
     1
 90
       50
176
     1
 90
       50
176
     1
290
     0
176
     1
 90
       50
176
     1
 62
   256
176
     0
 40
1.0
176
     0
 90
        2
176
     1
  1
strokes_ogs.tif
176
     1
290
     0
176
     1
 40
1.0
176
     1
 40
1.0
176
     1
  0
VISUALSTYLE
  5
40
102
{ACAD_REACTORS
330
2A
102
}
330
2A
100
AcDbVisualStyle
  2
X-Ray
 70
    25
177
     3
291
     0
 70
    58
 90
        2
176
     1
 90
        2
176
     1
 90
        1
176
     1
 90
        1
176
     1
 40
0.5
176
     1
 40
30.0
176
     1
 62
     7
420
 16777215
176
     1
 90
        1
176
     1
 90
        0
176
     1
 62
     7
176
     1
 62
   257
176
     1
 90
        1
176
     1
 90
        1
176
     1
 40
1.0
176
     1
 90
        8
176
     1
 62
     7
176
     1
 40
1.0
176
     1
 90
        1
176
     1
 90
        6
176
     1
 90
        2
176
     1
 62
     7
176
     1
 90
        3
176
     1
 90
        0
176
     1
 90
        0
176
     1
290
     0
176
     1
 90
       13
176
     1
 40
0.0
176
     1
 90
        0
176
     1
290
     0
176
     1
290
     1
176
     1
290
     1
176
     1
290
     0
176
     1
290
     0
176
     1
290
     0
176
     1
290
     0
176
     1
290
     0
176
     1
290
     0
176
     1
 90
       50
176
     1
 40
0.0
176
     1
 40
1.0
176
     1
 90
        0
176
     1
 62
    18
420
        0
176
     1
 90
       50
176
     1
 90
        3
176
     1
 62
     5
420
      255
176
     1
290
     0
176
     1
 90
       50
176
     1
 90
       50
176
     1
 90
       50
176
     1
290
     0
176
     1
 90
       50
176
     1
 62
   256
176
     0
 40
1.0
176
     0
 90
        2
176
     1
  1
strokes_ogs.tif
176
     1
290
     0
176
     1
 40
1.0
176
     1
 40
1.0
176
     1
  0
DICTIONARYVAR
  5
167
102
{ACAD_REACTORS
330
166
102
}
330
166
100
DictionaryVariables
280
     0
  1
1:1
  0
DICTIONARYVAR
  5
16F
102
{ACAD_REACTORS
330
166
102
}
330
166
100
DictionaryVariables
280
     0
  1
3.500000
  0
DICTIONARYVAR
  5
170
102
{ACAD_REACTORS
330
166
102
}
330
166
100
DictionaryVariables
280
     0
  1
acadiso.lin
  0
DICTIONARYVAR
  5
16C
102
{ACAD_REACTORS
330
166
102
}
330
166
100
DictionaryVariables
280
     0
  1
Standard
  0
DICTIONARYVAR
  5
16B
102
{ACAD_REACTORS
330
166
102
}
330
166
100
DictionaryVariables
280
     0
  1
Standard
  0
DICTIONARY
  5
168
330
6A
100
AcDbDictionary
280
     1
281
     1
  3
ACAD_ROUNDTRIP_2008_TABLESTYLE_CELLSTYLEMAP
360
169
  0
CELLSTYLEMAP
  5
169
102
{ACAD_REACTORS
330
168
102
}
330
168
100
AcDbCellStyleMap
 90
        3
300
CELLSTYLE
  1
TABLEFORMAT_BEGIN
 90
        5
170
     1
 91
        0
 92
    32768
 62
   257
 93
        1
300
CONTENTFORMAT
  1
CONTENTFORMAT_BEGIN
 90
        0
 91
        0
 92
        4
 93
        0
300

 40
0.0
140
1.0
 94
        5
 62
     0
340
11
144
6.0
309
CONTENTFORMAT_END
171
     1
301
MARGIN
  1
CELLMARGIN_BEGIN
 40
1.5
 40
1.5
 40
1.5
 40
1.5
 40
1.5
 40
1.5
309
CELLMARGIN_END
 94
        6
 95
        1
302
GRIDFORMAT
  1
GRIDFORMAT_BEGIN
 90
        0
 91
        1
 62
     0
 92
       -2
340
14
 93
        0
 40
0.045
309
GRIDFORMAT_END
 95
        2
302
GRIDFORMAT
  1
GRIDFORMAT_BEGIN
 90
        0
 91
        1
 62
     0
 92
       -2
340
14
 93
        0
 40
0.045
309
GRIDFORMAT_END
 95
        4
302
GRIDFORMAT
  1
GRIDFORMAT_BEGIN
 90
        0
 91
        1
 62
     0
 92
       -2
340
14
 93
        0
 40
0.045
309
GRIDFORMAT_END
 95
        8
302
GRIDFORMAT
  1
GRIDFORMAT_BEGIN
 90
        0
 91
        1
 62
     0
 92
       -2
340
14
 93
        0
 40
0.045
309
GRIDFORMAT_END
 95
       16
302
GRIDFORMAT
  1
GRIDFORMAT_BEGIN
 90
        0
 91
        1
 62
     0
 92
       -2
340
14
 93
        0
 40
0.045
309
GRIDFORMAT_END
 95
       32
302
GRIDFORMAT
  1
GRIDFORMAT_BEGIN
 90
        0
 91
        1
 62
     0
 92
       -2
340
14
 93
        0
 40
0.045
309
GRIDFORMAT_END
309
TABLEFORMAT_END
  1
CELLSTYLE_BEGIN
 90
        1
 91
        1
300
_TITLE
309
CELLSTYLE_END
300
CELLSTYLE
  1
TABLEFORMAT_BEGIN
 90
        5
170
     1
 91
        0
 92
        0
 62
   257
 93
        1
300
CONTENTFORMAT
  1
CONTENTFORMAT_BEGIN
 90
        0
 91
        0
 92
        4
 93
        0
300

 40
0.0
140
1.0
 94
        5
 62
     0
340
11
144
4.5
309
CONTENTFORMAT_END
171
     1
301
MARGIN
  1
CELLMARGIN_BEGIN
 40
1.5
 40
1.5
 40
1.5
 40
1.5
 40
1.5
 40
1.5
309
CELLMARGIN_END
 94
        6
 95
        1
302
GRIDFORMAT
  1
GRIDFORMAT_BEGIN
 90
        0
 91
        1
 62
     0
 92
       -2
340
14
 93
        0
 40
0.045
309
GRIDFORMAT_END
 95
        2
302
GRIDFORMAT
  1
GRIDFORMAT_BEGIN
 90
        0
 91
        1
 62
     0
 92
       -2
340
14
 93
        0
 40
0.045
309
GRIDFORMAT_END
 95
        4
302
GRIDFORMAT
  1
GRIDFORMAT_BEGIN
 90
        0
 91
        1
 62
     0
 92
       -2
340
14
 93
        0
 40
0.045
309
GRIDFORMAT_END
 95
        8
302
GRIDFORMAT
  1
GRIDFORMAT_BEGIN
 90
        0
 91
        1
 62
     0
 92
       -2
340
14
 93
        0
 40
0.045
309
GRIDFORMAT_END
 95
       16
302
GRIDFORMAT
  1
GRIDFORMAT_BEGIN
 90
        0
 91
        1
 62
     0
 92
       -2
340
14
 93
        0
 40
0.045
309
GRIDFORMAT_END
 95
       32
302
GRIDFORMAT
  1
GRIDFORMAT_BEGIN
 90
        0
 91
        1
 62
     0
 92
       -2
340
14
 93
        0
 40
0.045
309
GRIDFORMAT_END
309
TABLEFORMAT_END
  1
CELLSTYLE_BEGIN
 90
        2
 91
        1
300
_HEADER
309
CELLSTYLE_END
300
CELLSTYLE
  1
TABLEFORMAT_BEGIN
 90
        5
170
     1
 91
        0
 92
        0
 62
   257
 93
        1
300
CONTENTFORMAT
  1
CONTENTFORMAT_BEGIN
 90
        0
 91
        0
 92
        4
 93
        0
300

 40
0.0
140
1.0
 94
        2
 62
     0
340
11
144
4.5
309
CONTENTFORMAT_END
171
     1
301
MARGIN
  1
CELLMARGIN_BEGIN
 40
1.5
 40
1.5
 40
1.5
 40
1.5
 40
1.5
 40
1.5
309
CELLMARGIN_END
 94
        6
 95
        1
302
GRIDFORMAT
  1
GRIDFORMAT_BEGIN
 90
        0
 91
        1
 62
     0
 92
       -2
340
14
 93
        0
 40
0.045
309
GRIDFORMAT_END
 95
        2
302
GRIDFORMAT
  1
GRIDFORMAT_BEGIN
 90
        0
 91
        1
 62
     0
 92
       -2
340
14
 93
        0
 40
0.045
309
GRIDFORMAT_END
 95
        4
302
GRIDFORMAT
  1
GRIDFORMAT_BEGIN
 90
        0
 91
        1
 62
     0
 92
       -2
340
14
 93
        0
 40
0.045
309
GRIDFORMAT_END
 95
        8
302
GRIDFORMAT
  1
GRIDFORMAT_BEGIN
 90
        0
 91
        1
 62
     0
 92
       -2
340
14
 93
        0
 40
0.045
309
GRIDFORMAT_END
 95
       16
302
GRIDFORMAT
  1
GRIDFORMAT_BEGIN
 90
        0
 91
        1
 62
     0
 92
       -2
340
14
 93
        0
 40
0.045
309
GRIDFORMAT_END
 95
       32
302
GRIDFORMAT
  1
GRIDFORMAT_BEGIN
 90
        0
 91
        1
 62
     0
 92
       -2
340
14
 93
        0
 40
0.045
309
GRIDFORMAT_END
309
TABLEFORMAT_END
  1
CELLSTYLE_BEGIN
 90
        3
 91
        2
300
_DATA
309
CELLSTYLE_END
  0
ENDSEC
  0
EOF
