  0
SECTION
  2
HEADER
  9
$ACADVER
  1
AC1015
  9
$ACADMAINTVER
 70
     6
  9
$DWGCODEPAGE
  3
ANSI_1252
  9
$INSBASE
 10
0.0
 20
0.0
 30
0.0
  9
$EXTMIN
 10
0.0
 20
0.0
 30
0.0
  9
$EXTMAX
 10
594.0
 20
420.0
 30
0.0
  9
$LIMMIN
 10
0.0
 20
0.0
  9
$LIMMAX
 10
594.0
 20
420.0
  9
$ORTHOMODE
 70
     0
  9
$REGENMODE
 70
     1
  9
$FILLMODE
 70
     1
  9
$QTEXTMODE
 70
     0
  9
$MIRRTEXT
 70
     1
  9
$LTSCALE
 40
1.0
  9
$ATTMODE
 70
     1
  9
$TEXTSIZE
 40
3.5
  9
$TRACEWID
 40
1.0
  9
$TEXTSTYLE
  7
Standard
  9
$CLAYER
  8
0
  9
$CELTYPE
  6
ByLayer
  9
$CECOLOR
 62
   256
  9
$CELTSCALE
 40
1.0
  9
$DISPSILH
 70
     0
  9
$DIMSCALE
 40
1.0
  9
$DIMASZ
 40
3.302
  9
$DIMEXO
 40
1.0
  9
$DIMDLI
 40
3.75
  9
$DIMRND
 40
0.0
  9
$DIMDLE
 40
0.0
  9
$DIMEXE
 40
1.0
  9
$DIMTP
 40
0.0
  9
$DIMTM
 40
0.0
  9
$DIMTXT
 40
3.5
  9
$DIMCEN
 40
2.5
  9
$DIMTSZ
 40
0.0
  9
$DIMTOL
 70
     0
  9
$DIMLIM
 70
     0
  9
$DIMTIH
 70
     1
  9
$DIMTOH
 70
     1
  9
$DIMSE1
 70
     0
  9
$DIMSE2
 70
     0
  9
$DIMTAD
 70
     1
  9
$DIMZIN
 70
     0
  9
$DIMBLK
  1

  9
$DIMASO
 70
     1
  9
$DIMSHO
 70
     1
  9
$DIMPOST
  1

  9
$DIMAPOST
  1

  9
$DIMALT
 70
     0
  9
$DIMALTD
 70
     3
  9
$DIMALTF
 40
0.0393700787
  9
$DIMLFAC
 40
1.0
  9
$DIMTOFL
 70
     1
  9
$DIMTVP
 40
0.0
  9
$DIMTIX
 70
     0
  9
$DIMSOXD
 70
     0
  9
$DIMSAH
 70
     0
  9
$DIMBLK1
  1

  9
$DIMBLK2
  1

  9
$DIMSTYLE
  2
ISO-25
  9
$DIMCLRD
 70
     0
  9
$DIMCLRE
 70
     0
  9
$DIMCLRT
 70
     0
  9
$DIMTFAC
 40
1.0
  9
$DIMGAP
 40
1.524
  9
$DIMJUST
 70
     0
  9
$DIMSD1
 70
     0
  9
$DIMSD2
 70
     0
  9
$DIMTOLJ
 70
     0
  9
$DIMTZIN
 70
     0
  9
$DIMALTZ
 70
     0
  9
$DIMALTTZ
 70
     0
  9
$DIMUPT
 70
     0
  9
$DIMDEC
 70
     2
  9
$DIMTDEC
 70
     2
  9
$DIMALTU
 70
     2
  9
$DIMALTTD
 70
     3
  9
$DIMTXSTY
  7
Standard
  9
$DIMAUNIT
 70
     0
  9
$DIMADEC
 70
     2
  9
$DIMALTRND
 40
0.0
  9
$DIMAZIN
 70
     0
  9
$DIMDSEP
 70
    44
  9
$DIMATFIT
 70
     3
  9
$DIMFRAC
 70
     0
  9
$DIMLDRBLK
  1

  9
$DIMLUNIT
 70
     2
  9
$DIMLWD
 70
    -2
  9
$DIMLWE
 70
    -2
  9
$DIMTMOVE
 70
     0
  9
$LUNITS
 70
     2
  9
$LUPREC
 70
     2
  9
$SKETCHINC
 40
1.0
  9
$FILLETRAD
 40
10.0
  9
$AUNITS
 70
     0
  9
$AUPREC
 70
     2
  9
$MENU
  1
.
  9
$ELEVATION
 40
0.0
  9
$PELEVATION
 40
0.0
  9
$THICKNESS
 40
0.0
  9
$LIMCHECK
 70
     0
  9
$CHAMFERA
 40
0.0
  9
$CHAMFERB
 40
0.0
  9
$CHAMFERC
 40
0.0
  9
$CHAMFERD
 40
0.0
  9
$SKPOLY
 70
     0
  9
$TDCREATE
 40
2459396.007741053
  9
$TDUCREATE
 40
2459395.92440772
  9
$TDUPDATE
 40
2459396.007752755
  9
$TDUUPDATE
 40
2459395.924419421
  9
$TDINDWG
 40
0.0000000116
  9
$TDUSRTIMER
 40
0.0000000116
  9
$USRTIMER
 70
     1
  9
$ANGBASE
 50
0.0
  9
$ANGDIR
 70
     0
  9
$PDMODE
 70
     0
  9
$PDSIZE
 40
-1.0
  9
$PLINEWID
 40
0.0
  9
$SPLFRAME
 70
     0
  9
$SPLINETYPE
 70
     6
  9
$SPLINESEGS
 70
     8
  9
$HANDSEED
  5
4BB
  9
$SURFTAB1
 70
     6
  9
$SURFTAB2
 70
     6
  9
$SURFTYPE
 70
     6
  9
$SURFU
 70
     6
  9
$SURFV
 70
     6
  9
$UCSBASE
  2

  9
$UCSNAME
  2

  9
$UCSORG
 10
0.0
 20
0.0
 30
0.0
  9
$UCSXDIR
 10
1.0
 20
0.0
 30
0.0
  9
$UCSYDIR
 10
0.0
 20
1.0
 30
0.0
  9
$UCSORTHOREF
  2

  9
$UCSORTHOVIEW
 70
     0
  9
$UCSORGTOP
 10
0.0
 20
0.0
 30
0.0
  9
$UCSORGBOTTOM
 10
0.0
 20
0.0
 30
0.0
  9
$UCSORGLEFT
 10
0.0
 20
0.0
 30
0.0
  9
$UCSORGRIGHT
 10
0.0
 20
0.0
 30
0.0
  9
$UCSORGFRONT
 10
0.0
 20
0.0
 30
0.0
  9
$UCSORGBACK
 10
0.0
 20
0.0
 30
0.0
  9
$PUCSBASE
  2

  9
$PUCSNAME
  2

  9
$PUCSORG
 10
0.0
 20
0.0
 30
0.0
  9
$PUCSXDIR
 10
1.0
 20
0.0
 30
0.0
  9
$PUCSYDIR
 10
0.0
 20
1.0
 30
0.0
  9
$PUCSORTHOREF
  2

  9
$PUCSORTHOVIEW
 70
     0
  9
$PUCSORGTOP
 10
0.0
 20
0.0
 30
0.0
  9
$PUCSORGBOTTOM
 10
0.0
 20
0.0
 30
0.0
  9
$PUCSORGLEFT
 10
0.0
 20
0.0
 30
0.0
  9
$PUCSORGRIGHT
 10
0.0
 20
0.0
 30
0.0
  9
$PUCSORGFRONT
 10
0.0
 20
0.0
 30
0.0
  9
$PUCSORGBACK
 10
0.0
 20
0.0
 30
0.0
  9
$USERI1
 70
     0
  9
$USERI2
 70
     0
  9
$USERI3
 70
     0
  9
$USERI4
 70
     0
  9
$USERI5
 70
     0
  9
$USERR1
 40
0.0
  9
$USERR2
 40
0.0
  9
$USERR3
 40
0.0
  9
$USERR4
 40
0.0
  9
$USERR5
 40
0.0
  9
$WORLDVIEW
 70
     1
  9
$SHADEDGE
 70
     3
  9
$SHADEDIF
 70
    70
  9
$TILEMODE
 70
     1
  9
$MAXACTVP
 70
    64
  9
$PINSBASE
 10
0.0
 20
0.0
 30
0.0
  9
$PLIMCHECK
 70
     0
  9
$PEXTMIN
 10
1.0000000000E+20
 20
1.0000000000E+20
 30
1.0000000000E+20
  9
$PEXTMAX
 10
-1.0000000000E+20
 20
-1.0000000000E+20
 30
-1.0000000000E+20
  9
$PLIMMIN
 10
0.0
 20
0.0
  9
$PLIMMAX
 10
420.0
 20
297.0
  9
$UNITMODE
 70
     0
  9
$VISRETAIN
 70
     1
  9
$PLINEGEN
 70
     0
  9
$PSLTSCALE
 70
     1
  9
$TREEDEPTH
 70
  3020
  9
$CMLSTYLE
  2
Standard
  9
$CMLJUST
 70
     0
  9
$CMLSCALE
 40
20.0
  9
$PROXYGRAPHICS
 70
     1
  9
$MEASUREMENT
 70
     1
  9
$CELWEIGHT
370
    -1
  9
$ENDCAPS
280
     0
  9
$JOINSTYLE
280
     0
  9
$LWDISPLAY
290
     1
  9
$INSUNITS
 70
     4
  9
$HYPERLINKBASE
  1

  9
$STYLESHEET
  1

  9
$XEDIT
290
     1
  9
$CEPSNTYPE
380
     0
  9
$PSTYLEMODE
290
     1
  9
$FINGERPRINTGUID
  2
{A44A40F9-2882-4E28-8615-5ACFF26C9DD5}
  9
$VERSIONGUID
  2
{FAEB1C32-E019-11D5-929B-00C0DF256EC4}
  9
$EXTNAMES
290
     1
  9
$PSVPSCALE
 40
0.0
  9
$OLESTARTUP
290
     0
  0
ENDSEC
  0
SECTION
  2
CLASSES
  0
CLASS
  1
ACDBDICTIONARYWDFLT
  2
AcDbDictionaryWithDefault
  3
ObjectDBX Classes
 90
        0
280
     0
281
     0
  0
CLASS
  1
VISUALSTYLE
  2
AcDbVisualStyle
  3
ObjectDBX Classes
 90
     4095
280
     0
281
     0
  0
CLASS
  1
MATERIAL
  2
AcDbMaterial
  3
ObjectDBX Classes
 90
     1153
280
     0
281
     0
  0
CLASS
  1
SCALE
  2
AcDbScale
  3
ObjectDBX Classes
 90
     1153
280
     0
281
     0
  0
CLASS
  1
TABLESTYLE
  2
AcDbTableStyle
  3
ObjectDBX Classes
 90
     4095
280
     0
281
     0
  0
CLASS
  1
MLEADERSTYLE
  2
AcDbMLeaderStyle
  3
ACDB_MLEADERSTYLE_CLASS
 90
     4095
280
     0
281
     0
  0
CLASS
  1
SUN
  2
AcDbSun
  3
SCENEOE
 90
     1153
280
     0
281
     0
  0
CLASS
  1
ACDBPLACEHOLDER
  2
AcDbPlaceHolder
  3
ObjectDBX Classes
 90
        0
280
     0
281
     0
  0
CLASS
  1
LAYOUT
  2
AcDbLayout
  3
ObjectDBX Classes
 90
        0
280
     0
281
     0
  0
ENDSEC
  0
SECTION
  2
TABLES
  0
TABLE
  2
VPORT
  5
8
330
0
100
AcDbSymbolTable
 70
     1
  0
VPORT
  5
29
330
8
100
AcDbSymbolTableRecord
100
AcDbViewportTableRecord
  2
*Active
 70
     0
 10
0.0
 20
0.0
 11
1.0
 21
1.0
 12
297.0
 22
210.0
 13
0.0
 23
0.0
 14
10.0
 24
10.0
 15
10.0
 25
10.0
 16
0.0
 26
0.0
 36
1.0
 17
0.0
 27
0.0
 37
0.0
 40
420.0
 41
1.4142857143
 42
50.0
 43
0.0
 44
0.0
 50
0.0
 51
0.0
 71
     0
 72
  2000
 73
     1
 74
     3
 75
     0
 76
     0
 77
     0
 78
     0
281
     0
 65
     1
110
0.0
120
0.0
130
0.0
111
1.0
121
0.0
131
0.0
112
0.0
122
1.0
132
0.0
 79
     0
146
0.0
  0
ENDTAB
  0
TABLE
  2
LTYPE
  5
5
330
0
100
AcDbSymbolTable
 70
     6
  0
LTYPE
  5
14
330
5
100
AcDbSymbolTableRecord
100
AcDbLinetypeTableRecord
  2
ByBlock
 70
     0
  3

 72
    65
 73
     0
 40
0.0
  0
LTYPE
  5
15
330
5
100
AcDbSymbolTableRecord
100
AcDbLinetypeTableRecord
  2
ByLayer
 70
     0
  3

 72
    65
 73
     0
 40
0.0
  0
LTYPE
  5
16
330
5
100
AcDbSymbolTableRecord
100
AcDbLinetypeTableRecord
  2
Continuous
 70
     0
  3
Solid line
 72
    65
 73
     0
 40
0.0
  0
LTYPE
  5
6E
330
5
100
AcDbSymbolTableRecord
100
AcDbLinetypeTableRecord
  2
HIDDEN
 70
     0
  3
Hidden __ __ __ __ __ __ __ __ __ __ __ __ __ __
 72
    65
 73
     2
 40
1.905
 49
1.27
 74
     0
 49
-0.635
 74
     0
  0
LTYPE
  5
6F
330
5
100
AcDbSymbolTableRecord
100
AcDbLinetypeTableRecord
  2
PHANTOM
 70
     0
  3
Phantom ______  __  __  ______  __  __  ______
 72
    65
 73
     6
 40
12.7
 49
6.35
 74
     0
 49
-1.27
 74
     0
 49
1.27
 74
     0
 49
-1.27
 74
     0
 49
1.27
 74
     0
 49
-1.27
 74
     0
  0
LTYPE
  5
70
330
5
100
AcDbSymbolTableRecord
100
AcDbLinetypeTableRecord
  2
CENTER
 70
     0
  3
Center ____ _ ____ _ ____ _ ____ _ ____ _ ____
 72
    65
 73
     4
 40
10.16
 49
6.35
 74
     0
 49
-1.27
 74
     0
 49
1.27
 74
     0
 49
-1.27
 74
     0
  0
LTYPE
  5
71
330
5
100
AcDbSymbolTableRecord
100
AcDbLinetypeTableRecord
  2
CENTERX2
 70
     0
  3
Center (2x) ________  __  ________  __  _____
 72
    65
 73
     4
 40
20.32
 49
12.7
 74
     0
 49
-2.54
 74
     0
 49
2.54
 74
     0
 49
-2.54
 74
     0
  0
LTYPE
  5
72
330
5
100
AcDbSymbolTableRecord
100
AcDbLinetypeTableRecord
  2
DOT2
 70
     0
  3
Dot (.5x) ........................................
 72
    65
 73
     2
 40
0.635
 49
0.0
 74
     0
 49
-0.635
 74
     0
  0
ENDTAB
  0
TABLE
  2
LAYER
  5
2
330
0
100
AcDbSymbolTable
 70
     2
  0
LAYER
  5
10
330
2
100
AcDbSymbolTableRecord
100
AcDbLayerTableRecord
  2
0
 70
     0
 62
     7
  6
Continuous
370
    -3
390
F
  0
LAYER
  5
73
330
2
100
AcDbSymbolTableRecord
100
AcDbLayerTableRecord
  2
FORMAT
 70
     0
 62
     7
  6
Continuous
370
    -3
390
F
  0
ENDTAB
  0
TABLE
  2
STYLE
  5
3
330
0
100
AcDbSymbolTable
 70
     2
  0
STYLE
  5
11
330
3
100
AcDbSymbolTableRecord
100
AcDbTextStyleTableRecord
  2
Standard
 70
     0
 40
0.0
 41
1.0
 50
0.0
 71
     0
 42
3.5
  3
txt
  4

  0
STYLE
  5
BD
330
3
100
AcDbSymbolTableRecord
100
AcDbTextStyleTableRecord
  2
SLDTEXTSTYLE0
 70
     0
 40
0.0
 41
0.75
 50
0.0
 71
     0
 42
3.5
  3
TXT
  4

  0
ENDTAB
  0
TABLE
  2
VIEW
  5
6
330
0
100
AcDbSymbolTable
 70
     0
  0
ENDTAB
  0
TABLE
  2
UCS
  5
7
330
0
100
AcDbSymbolTable
 70
     0
  0
ENDTAB
  0
TABLE
  2
APPID
  5
9
330
0
100
AcDbSymbolTable
 70
     1
  0
APPID
  5
12
330
9
100
AcDbSymbolTableRecord
100
AcDbRegAppTableRecord
  2
ACAD
 70
     0
  0
ENDTAB
  0
TABLE
  2
DIMSTYLE
  5
A
330
0
100
AcDbSymbolTable
 70
     9
100
AcDbDimStyleTable
  0
DIMSTYLE
105
27
330
A
100
AcDbSymbolTableRecord
100
AcDbDimStyleTableRecord
  2
ISO-25
 70
     0
 41
2.5
 42
0.625
 43
3.75
 44
1.25
 73
     0
 74
     0
 77
     1
 78
     8
140
2.5
141
2.5
143
0.0393700787
147
0.625
171
     3
172
     1
178
     0
271
     2
272
     2
274
     3
278
    44
283
     0
284
     8
340
11
  0
DIMSTYLE
105
135
102
{ACAD_REACTORS
330
134
330
19E
330
25E
330
26A
330
42F
330
470
330
47A
330
490
330
499
102
}
330
A
100
AcDbSymbolTableRecord
100
AcDbDimStyleTableRecord
  2
SLDDIMSTYLE0
 70
     0
 41
3.302
 44
0.0
 45
0.000000001
 73
     0
 74
     0
 77
     1
 78
    12
 79
     3
140
3.5
147
0.875
173
     1
178
     0
271
     2
272
     2
276
     2
284
    12
340
BD
  0
DIMSTYLE
105
140
102
{ACAD_REACTORS
330
13F
330
187
102
}
330
A
100
AcDbSymbolTableRecord
100
AcDbDimStyleTableRecord
  2
SLDDIMSTYLE1
 70
     0
 41
3.302
 44
0.0
 73
     0
 74
     0
 77
     1
 78
    12
 79
     3
140
3.5
147
0.875
173
     1
178
     0
179
     2
272
     2
276
     2
284
    12
340
BD
  0
DIMSTYLE
105
14D
102
{ACAD_REACTORS
330
14C
330
162
330
16F
330
17B
330
1A8
330
232
330
240
330
252
330
418
330
484
102
}
330
A
100
AcDbSymbolTableRecord
100
AcDbDimStyleTableRecord
  2
SLDDIMSTYLE2
 70
     0
 41
3.302
 44
0.0
 45
0.000000001
 73
     0
 74
     0
 77
     1
 78
    12
 79
     3
140
3.5
147
0.875
172
     1
173
     1
178
     0
271
     2
272
     2
276
     2
284
    12
289
     0
340
BD
  0
DIMSTYLE
105
15A
102
{ACAD_REACTORS
330
159
330
24A
102
}
330
A
100
AcDbSymbolTableRecord
100
AcDbDimStyleTableRecord
  2
SLDDIMSTYLE3
 70
     0
 41
3.302
 44
0.0
 45
0.000000001
 73
     0
 74
     0
 77
     1
 78
    12
 79
     3
140
3.5
141
0.0
147
0.875
173
     1
178
     0
271
     2
272
     2
276
     2
284
    12
340
BD
  0
DIMSTYLE
105
192
102
{ACAD_REACTORS
330
191
102
}
330
A
100
AcDbSymbolTableRecord
100
AcDbDimStyleTableRecord
  2
SLDDIMSTYLE4
 70
     0
 41
3.302
 44
0.0
 45
0.000000001
 73
     0
 74
     0
 77
     1
 78
    12
 79
     3
140
3.5
141
0.0
147
0.875
172
     1
173
     1
178
     0
271
     2
272
     2
276
     2
284
    12
340
BD
341
193
343
193
  0
DIMSTYLE
105
275
102
{ACAD_REACTORS
330
274
102
}
330
A
100
AcDbSymbolTableRecord
100
AcDbDimStyleTableRecord
  2
SLDDIMSTYLE5
 70
     0
 41
3.302
 44
0.0
 45
0.000000001
 47
0.03
 71
     1
 73
     0
 74
     0
 77
     1
 78
    12
 79
     3
140
3.5
147
0.875
173
     1
178
     0
271
     2
272
     2
276
     2
284
     8
340
BD
  0
DIMSTYLE
105
288
102
{ACAD_REACTORS
330
287
102
}
330
A
100
AcDbSymbolTableRecord
100
AcDbDimStyleTableRecord
  2
SLDDIMSTYLE6
 70
     0
 41
3.302
 44
0.0
 45
0.000000001
 47
0.021
 71
     1
 73
     0
 74
     0
 77
     1
 78
    12
 79
     3
140
3.5
147
0.875
172
     1
173
     1
178
     0
271
     2
272
     2
276
     2
284
     8
289
     0
340
BD
  0
DIMSTYLE
105
425
102
{ACAD_REACTORS
330
424
102
}
330
A
100
AcDbSymbolTableRecord
100
AcDbDimStyleTableRecord
  2
SLDDIMSTYLE7
 70
     0
 41
3.302
 44
0.0
 73
     0
 74
     0
 77
     1
 78
    12
 79
     3
140
3.5
147
0.875
173
     1
178
     0
179
     2
272
     2
276
     2
284
    12
340
BD
  0
ENDTAB
  0
TABLE
  2
BLOCK_RECORD
  5
1
330
0
100
AcDbSymbolTable
 70
    38
  0
BLOCK_RECORD
  5
1F
330
1
100
AcDbSymbolTableRecord
100
AcDbBlockTableRecord
  2
*Model_Space
340
22
  0
BLOCK_RECORD
  5
1B
330
1
100
AcDbSymbolTableRecord
100
AcDbBlockTableRecord
  2
*Paper_Space
340
1E
  0
BLOCK_RECORD
  5
23
330
1
100
AcDbSymbolTableRecord
100
AcDbBlockTableRecord
  2
*Paper_Space0
340
26
  0
BLOCK_RECORD
  5
C1
330
1
100
AcDbSymbolTableRecord
100
AcDbBlockTableRecord
  2
SW_NOTE_0
340
0
102
{BLKREFS
331
CA
102
}
  0
BLOCK_RECORD
  5
DA
330
1
100
AcDbSymbolTableRecord
100
AcDbBlockTableRecord
  2
SW_NOTE_1
340
0
102
{BLKREFS
331
DF
102
}
  0
BLOCK_RECORD
  5
136
330
1
100
AcDbSymbolTableRecord
100
AcDbBlockTableRecord
  2
_D
340
0
  0
BLOCK_RECORD
  5
141
330
1
100
AcDbSymbolTableRecord
100
AcDbBlockTableRecord
  2
_D_1
340
0
  0
BLOCK_RECORD
  5
14E
330
1
100
AcDbSymbolTableRecord
100
AcDbBlockTableRecord
  2
_D_2
340
0
  0
BLOCK_RECORD
  5
15B
330
1
100
AcDbSymbolTableRecord
100
AcDbBlockTableRecord
  2
_D_3
340
0
  0
BLOCK_RECORD
  5
163
330
1
100
AcDbSymbolTableRecord
100
AcDbBlockTableRecord
  2
_D_4
340
0
  0
BLOCK_RECORD
  5
170
330
1
100
AcDbSymbolTableRecord
100
AcDbBlockTableRecord
  2
_D_5
340
0
  0
BLOCK_RECORD
  5
17C
330
1
100
AcDbSymbolTableRecord
100
AcDbBlockTableRecord
  2
_D_6
340
0
  0
BLOCK_RECORD
  5
188
330
1
100
AcDbSymbolTableRecord
100
AcDbBlockTableRecord
  2
_D_7
340
0
  0
BLOCK_RECORD
  5
193
330
1
100
AcDbSymbolTableRecord
100
AcDbBlockTableRecord
  2
_NONE
340
0
  0
BLOCK_RECORD
  5
196
330
1
100
AcDbSymbolTableRecord
100
AcDbBlockTableRecord
  2
_D_8
340
0
  0
BLOCK_RECORD
  5
19F
330
1
100
AcDbSymbolTableRecord
100
AcDbBlockTableRecord
  2
_D_9
340
0
  0
BLOCK_RECORD
  5
1A9
330
1
100
AcDbSymbolTableRecord
100
AcDbBlockTableRecord
  2
_D_10
340
0
  0
BLOCK_RECORD
  5
1B2
330
1
100
AcDbSymbolTableRecord
100
AcDbBlockTableRecord
  2
SW_CENTERMARKSYMBOL_0
340
0
102
{BLKREFS
331
1BD
102
}
  0
BLOCK_RECORD
  5
1BE
330
1
100
AcDbSymbolTableRecord
100
AcDbBlockTableRecord
  2
SW_CENTERMARKSYMBOL_1
340
0
102
{BLKREFS
331
1C9
102
}
  0
BLOCK_RECORD
  5
233
330
1
100
AcDbSymbolTableRecord
100
AcDbBlockTableRecord
  2
_D_11
340
0
  0
BLOCK_RECORD
  5
241
330
1
100
AcDbSymbolTableRecord
100
AcDbBlockTableRecord
  2
_D_12
340
0
  0
BLOCK_RECORD
  5
24B
330
1
100
AcDbSymbolTableRecord
100
AcDbBlockTableRecord
  2
_D_13
340
0
  0
BLOCK_RECORD
  5
253
330
1
100
AcDbSymbolTableRecord
100
AcDbBlockTableRecord
  2
_D_14
340
0
  0
BLOCK_RECORD
  5
25F
330
1
100
AcDbSymbolTableRecord
100
AcDbBlockTableRecord
  2
_D_15
340
0
  0
BLOCK_RECORD
  5
26B
330
1
100
AcDbSymbolTableRecord
100
AcDbBlockTableRecord
  2
_D_16
340
0
  0
BLOCK_RECORD
  5
276
330
1
100
AcDbSymbolTableRecord
100
AcDbBlockTableRecord
  2
_D_17
340
0
  0
BLOCK_RECORD
  5
289
330
1
100
AcDbSymbolTableRecord
100
AcDbBlockTableRecord
  2
_D_18
340
0
  0
BLOCK_RECORD
  5
2BA
330
1
100
AcDbSymbolTableRecord
100
AcDbBlockTableRecord
  2
SW_CENTERMARKSYMBOL_2
340
0
102
{BLKREFS
331
2C5
102
}
  0
BLOCK_RECORD
  5
376
330
1
100
AcDbSymbolTableRecord
100
AcDbBlockTableRecord
  2
SW_CENTERMARKSYMBOL_3
340
0
102
{BLKREFS
331
381
102
}
  0
BLOCK_RECORD
  5
382
330
1
100
AcDbSymbolTableRecord
100
AcDbBlockTableRecord
  2
SW_CENTERMARKSYMBOL_4
340
0
102
{BLKREFS
331
38D
102
}
  0
BLOCK_RECORD
  5
419
330
1
100
AcDbSymbolTableRecord
100
AcDbBlockTableRecord
  2
_D_19
340
0
  0
BLOCK_RECORD
  5
426
330
1
100
AcDbSymbolTableRecord
100
AcDbBlockTableRecord
  2
_D_20
340
0
  0
BLOCK_RECORD
  5
430
330
1
100
AcDbSymbolTableRecord
100
AcDbBlockTableRecord
  2
_D_21
340
0
  0
BLOCK_RECORD
  5
471
330
1
100
AcDbSymbolTableRecord
100
AcDbBlockTableRecord
  2
_D_22
340
0
  0
BLOCK_RECORD
  5
47B
330
1
100
AcDbSymbolTableRecord
100
AcDbBlockTableRecord
  2
_D_23
340
0
  0
BLOCK_RECORD
  5
485
330
1
100
AcDbSymbolTableRecord
100
AcDbBlockTableRecord
  2
_D_24
340
0
  0
BLOCK_RECORD
  5
491
330
1
100
AcDbSymbolTableRecord
100
AcDbBlockTableRecord
  2
_D_25
340
0
  0
BLOCK_RECORD
  5
49A
330
1
100
AcDbSymbolTableRecord
100
AcDbBlockTableRecord
  2
_D_26
340
0
  0
BLOCK_RECORD
  5
4A3
330
1
100
AcDbSymbolTableRecord
100
AcDbBlockTableRecord
  2
SW_CENTERMARKSYMBOL_5
340
0
102
{BLKREFS
331
4AE
102
}
  0
BLOCK_RECORD
  5
4AF
330
1
100
AcDbSymbolTableRecord
100
AcDbBlockTableRecord
  2
SW_CENTERMARKSYMBOL_6
340
0
102
{BLKREFS
331
4BA
102
}
  0
ENDTAB
  0
ENDSEC
  0
SECTION
  2
BLOCKS
  0
BLOCK
  5
20
330
1F
100
AcDbEntity
  8
0
100
AcDbBlockBegin
  2
*Model_Space
 70
     0
 10
0.0
 20
0.0
 30
0.0
  3
*Model_Space
  1

  0
ENDBLK
  5
21
330
1F
100
AcDbEntity
  8
0
100
AcDbBlockEnd
  0
BLOCK
  5
1C
330
1B
100
AcDbEntity
 67
     1
  8
0
100
AcDbBlockBegin
  2
*Paper_Space
 70
     0
 10
0.0
 20
0.0
 30
0.0
  3
*Paper_Space
  1

  0
ENDBLK
  5
1D
330
1B
100
AcDbEntity
 67
     1
  8
0
100
AcDbBlockEnd
  0
BLOCK
  5
24
330
23
100
AcDbEntity
  8
0
100
AcDbBlockBegin
  2
*Paper_Space0
 70
     0
 10
0.0
 20
0.0
 30
0.0
  3
*Paper_Space0
  1

  0
ENDBLK
  5
25
330
23
100
AcDbEntity
  8
0
100
AcDbBlockEnd
  0
BLOCK
  5
C2
330
C1
100
AcDbEntity
  8
0
100
AcDbBlockBegin
  2
SW_NOTE_0
 70
     0
 10
0.0
 20
0.0
 30
0.0
  3
SW_NOTE_0
  1

  0
MTEXT
  5
C4
330
C1
100
AcDbEntity
  8
0
  6
Continuous
 62
     0
370
     0
100
AcDbMText
 10
0.0
 20
1.9336016097
 30
0.0
 40
1.5
 41
0.0
 71
     1
 72
     1
  1
SAUF INDICATION CONTRAIRE:
  7
SLDTEXTSTYLE0
 73
     1
 44
1.0
  0
MTEXT
  5
C5
330
C1
100
AcDbEntity
  8
0
  6
Continuous
 62
     0
370
     0
100
AcDbMText
 10
0.0
 20
-0.5663983345
 30
0.0
 40
1.5
 41
0.0
 71
     1
 72
     1
  1
LES COTES SONT EN MILLIMETRES
  7
SLDTEXTSTYLE0
 73
     1
 44
1.0
  0
MTEXT
  5
C6
330
C1
100
AcDbEntity
  8
0
  6
Continuous
 62
     0
370
     0
100
AcDbMText
 10
0.0
 20
-3.0663982786
 30
0.0
 40
1.5
 41
0.0
 71
     1
 72
     1
  1
ETAT DE SURFACE:
  7
SLDTEXTSTYLE0
 73
     1
 44
1.0
  0
MTEXT
  5
C7
330
C1
100
AcDbEntity
  8
0
  6
Continuous
 62
     0
370
     0
100
AcDbMText
 10
0.0
 20
-5.5663982227
 30
0.0
 40
1.5
 41
0.0
 71
     1
 72
     1
  1
TOLERANCES:
  7
SLDTEXTSTYLE0
 73
     1
 44
1.0
  0
MTEXT
  5
C8
330
C1
100
AcDbEntity
  8
0
  6
Continuous
 62
     0
370
     0
100
AcDbMText
 10
1.6875
 20
-8.0663981668
 30
0.0
 40
1.5
 41
0.0
 71
     1
 72
     1
  1
LINEAIRES:
  7
SLDTEXTSTYLE0
 73
     1
 44
1.0
  0
MTEXT
  5
C9
330
C1
100
AcDbEntity
  8
0
  6
Continuous
 62
     0
370
     0
100
AcDbMText
 10
1.6875
 20
-10.5663981109
 30
0.0
 40
1.5
 41
0.0
 71
     1
 72
     1
  1
ANGULAIRES:
  7
SLDTEXTSTYLE0
 73
     1
 44
1.0
  0
ENDBLK
  5
C3
330
C1
100
AcDbEntity
  8
0
100
AcDbBlockEnd
  0
BLOCK
  5
DB
330
DA
100
AcDbEntity
  8
0
100
AcDbBlockBegin
  2
SW_NOTE_1
 70
     0
 10
0.0
 20
0.0
 30
0.0
  3
SW_NOTE_1
  1

  0
MTEXT
  5
DD
330
DA
100
AcDbEntity
  8
0
  6
Continuous
 62
     0
370
     0
100
AcDbMText
 10
0.0
 20
1.9336016097
 30
0.0
 40
1.5
 41
0.0
 71
     1
 72
     1
  1
CASSER LES
  7
SLDTEXTSTYLE0
 73
     1
 44
1.0
  0
MTEXT
  5
DE
330
DA
100
AcDbEntity
  8
0
  6
Continuous
 62
     0
370
     0
100
AcDbMText
 10
0.0
 20
-0.5663983345
 30
0.0
 40
1.5
 41
0.0
 71
     1
 72
     1
  1
ANGLES VIFS
  7
SLDTEXTSTYLE0
 73
     1
 44
1.0
  0
ENDBLK
  5
DC
330
DA
100
AcDbEntity
  8
0
100
AcDbBlockEnd
  0
BLOCK
  5
137
330
136
100
AcDbEntity
  8
0
100
AcDbBlockBegin
  2
_D
 70
     0
 10
0.0
 20
0.0
 30
0.0
  3
_D
  1

  0
SOLID
  5
139
330
136
100
AcDbEntity
  8
0
  6
Continuous
 62
     7
370
    18
100
AcDbTrace
 10
153.6897723121
 20
290.9516073803
 30
0.0
 11
153.1817723121
 21
287.6496073803
 31
0.0
 12
154.1977723121
 22
287.6496073803
 32
0.0
 13
154.1977723121
 23
287.6496073803
 33
0.0
  0
SOLID
  5
13A
330
136
100
AcDbEntity
  8
0
  6
Continuous
 62
     7
370
    18
100
AcDbTrace
 10
153.6897723121
 20
250.9516073803
 30
0.0
 11
154.1977723121
 21
254.2536073803
 31
0.0
 12
153.1817723121
 22
254.2536073803
 32
0.0
 13
153.1817723121
 23
254.2536073803
 33
0.0
  0
LINE
  5
13B
330
136
100
AcDbEntity
  8
0
  6
Continuous
 62
     7
370
    18
100
AcDbLine
 10
177.9116473166
 20
290.9516073803
 30
0.0
 11
152.6897723121
 21
290.9516073803
 31
0.0
  0
LINE
  5
13C
330
136
100
AcDbEntity
  8
0
  6
Continuous
 62
     7
370
    18
100
AcDbLine
 10
177.9116473166
 20
250.9516073803
 30
0.0
 11
152.6897723121
 21
250.9516073803
 31
0.0
  0
LINE
  5
13D
330
136
100
AcDbEntity
  8
0
  6
Continuous
 62
     7
370
    18
100
AcDbLine
 10
153.6897723121
 20
290.9516073803
 30
0.0
 11
153.6897723121
 21
250.9516073803
 31
0.0
  0
MTEXT
  5
13E
330
136
100
AcDbEntity
  8
0
  6
Continuous
 62
     7
370
    18
100
AcDbMText
 10
149.1780353975
 20
269.9423216293
 30
0.0
 40
3.5
 41
0.0
 71
     1
 72
     1
  1
40
  7
SLDTEXTSTYLE0
 11
-7.932373437343760E-15
 21
1.0
 31
0.0
 73
     1
 44
1.0
  0
ENDBLK
  5
138
330
136
100
AcDbEntity
  8
0
100
AcDbBlockEnd
  0
BLOCK
  5
142
330
141
100
AcDbEntity
  8
0
100
AcDbBlockBegin
  2
_D_1
 70
     0
 10
0.0
 20
0.0
 30
0.0
  3
_D_1
  1

  0
ARC
  5
144
330
141
100
AcDbEntity
  8
0
  6
Continuous
 62
     7
370
    18
100
AcDbCircle
 10
178.9116473166
 20
290.9516073803
 30
0.0
 40
50.87706142575794
100
AcDbArc
 50
270.0
 51
271.0
  0
ARC
  5
145
330
141
100
AcDbEntity
  8
0
  6
Continuous
 62
     7
370
    18
100
AcDbCircle
 10
178.9116473166
 20
290.9516073803
 30
0.0
 40
50.87706142575796
100
AcDbArc
 50
262.8607881918
 51
270.0
  0
ARC
  5
146
330
141
100
AcDbEntity
  8
0
  6
Continuous
 62
     7
370
    18
100
AcDbCircle
 10
178.9116473166
 20
290.9516073803
 30
0.0
 40
50.87706142575794
100
AcDbArc
 50
271.0
 51
283.1597926024
  0
SOLID
  5
147
330
141
100
AcDbEntity
  8
0
  6
Continuous
 62
     7
370
    18
100
AcDbTrace
 10
178.9116473166
 20
240.0745459545
 30
0.0
 11
175.6278399126
 21
240.6892629087
 31
0.0
 12
175.5949218642
 22
239.6737963154
 32
0.0
 13
175.5949218642
 23
239.6737963154
 33
0.0
  0
SOLID
  5
148
330
141
100
AcDbEntity
  8
0
  6
Continuous
 62
     7
370
    18
100
AcDbTrace
 10
179.7995744709
 20
240.0822947774
 30
0.0
 11
183.1227888156
 21
239.739491015
 31
0.0
 12
183.072153445
 22
240.7542284487
 32
0.0
 13
183.072153445
 23
240.7542284487
 33
0.0
  0
LINE
  5
149
330
141
100
AcDbEntity
  8
0
  6
Continuous
 62
     7
370
    18
100
AcDbLine
 10
178.9116473166
 20
289.9516073803
 30
0.0
 11
178.9116473166
 21
239.0745459545
 31
0.0
  0
LINE
  5
14A
330
141
100
AcDbEntity
  8
0
  6
Continuous
 62
     7
370
    18
100
AcDbLine
 10
178.929099723
 20
289.9517596851
 30
0.0
 11
179.8170268774
 21
239.0824470822
 31
0.0
  0
MTEXT
  5
14B
330
141
100
AcDbEntity
  8
0
  6
Continuous
 62
     7
370
    18
100
AcDbMText
 10
185.2956453499
 20
244.9739530885
 30
0.0
 40
3.5
 41
0.0
 71
     1
 72
     1
  1
1°
  7
SLDTEXTSTYLE0
 11
0.9827611618835328
 21
0.184879687076024
 31
0.0
 73
     1
 44
1.0
  0
ENDBLK
  5
143
330
141
100
AcDbEntity
  8
0
100
AcDbBlockEnd
  0
BLOCK
  5
14F
330
14E
100
AcDbEntity
  8
0
100
AcDbBlockBegin
  2
_D_2
 70
     0
 10
0.0
 20
0.0
 30
0.0
  3
_D_2
  1

  0
SOLID
  5
151
330
14E
100
AcDbEntity
  8
0
  6
Continuous
 62
     7
370
    18
100
AcDbTrace
 10
245.457478438
 20
366.4516073803
 30
0.0
 11
245.965478438
 21
369.7536073803
 31
0.0
 12
244.949478438
 22
369.7536073803
 32
0.0
 13
244.949478438
 23
369.7536073803
 33
0.0
  0
SOLID
  5
152
330
14E
100
AcDbEntity
  8
0
  6
Continuous
 62
     7
370
    18
100
AcDbTrace
 10
245.457478438
 20
360.9516073803
 30
0.0
 11
244.949478438
 21
357.6496073803
 31
0.0
 12
245.965478438
 22
357.6496073803
 32
0.0
 13
245.965478438
 23
357.6496073803
 33
0.0
  0
LINE
  5
153
330
14E
100
AcDbEntity
  8
0
  6
Continuous
 62
     7
370
    18
100
AcDbLine
 10
230.0116473166
 20
366.4516073803
 30
0.0
 11
246.457478438
 21
366.4516073803
 31
0.0
  0
LINE
  5
154
330
14E
100
AcDbEntity
  8
0
  6
Continuous
 62
     7
370
    18
100
AcDbLine
 10
230.0116473166
 20
360.9516073803
 30
0.0
 11
246.457478438
 21
360.9516073803
 31
0.0
  0
LINE
  5
155
330
14E
100
AcDbEntity
  8
0
  6
Continuous
 62
     7
370
    18
100
AcDbLine
 10
245.457478438
 20
366.4516073803
 30
0.0
 11
245.457478438
 21
381.0273019107
 31
0.0
  0
LINE
  5
156
330
14E
100
AcDbEntity
  8
0
  6
Continuous
 62
     7
370
    18
100
AcDbLine
 10
245.457478438
 20
366.4516073803
 30
0.0
 11
245.457478438
 21
360.9516073803
 31
0.0
  0
LINE
  5
157
330
14E
100
AcDbEntity
  8
0
  6
Continuous
 62
     7
370
    18
100
AcDbLine
 10
245.457478438
 20
360.9516073803
 30
0.0
 11
245.457478438
 21
354.6016073803
 31
0.0
  0
MTEXT
  5
158
330
14E
100
AcDbEntity
  8
0
  6
Continuous
 62
     7
370
    18
100
AcDbMText
 10
240.9457415235
 20
371.9759128498
 30
0.0
 40
3.5
 41
0.0
 71
     1
 72
     1
  1
5,50
  7
SLDTEXTSTYLE0
 11
-7.044195017643634E-15
 21
1.0
 31
0.0
 73
     1
 44
1.0
  0
ENDBLK
  5
150
330
14E
100
AcDbEntity
  8
0
100
AcDbBlockEnd
  0
BLOCK
  5
15C
330
15B
100
AcDbEntity
  8
0
100
AcDbBlockBegin
  2
_D_3
 70
     0
 10
0.0
 20
0.0
 30
0.0
  3
_D_3
  1

  0
SOLID
  5
15E
330
15B
100
AcDbEntity
  8
0
  6
Continuous
 62
     7
370
    18
100
AcDbTrace
 10
228.0116473166
 20
361.2195565727
 30
0.0
 11
229.2227064115
 21
358.1059406894
 31
0.0
 12
230.1025882217
 22
358.6139406894
 32
0.0
 13
230.1025882217
 23
358.6139406894
 33
0.0
  0
LINE
  5
15F
330
15B
100
AcDbEntity
  8
0
  6
Continuous
 62
     7
370
    18
100
AcDbLine
 10
228.0116473166
 20
361.2195565727
 30
0.0
 11
235.461185548
 21
348.316577863
 31
0.0
  0
LINE
  5
160
330
15B
100
AcDbEntity
  8
0
  6
Continuous
 62
     7
370
    18
100
AcDbLine
 10
228.0116473166
 20
361.2195565727
 30
0.0
 11
227.0116473166
 21
362.9516073803
 31
0.0
  0
MTEXT
  5
161
330
15B
100
AcDbEntity
  8
0
  6
Continuous
 62
     7
370
    18
100
AcDbMText
 10
236.6151190889
 20
355.2414391935
 30
0.0
 40
3.5
 41
0.0
 71
     1
 72
     1
  1
R2
  7
SLDTEXTSTYLE0
 11
0.5000000000000101
 21
-0.8660254037844328
 31
0.0
 73
     1
 44
1.0
  0
ENDBLK
  5
15D
330
15B
100
AcDbEntity
  8
0
100
AcDbBlockEnd
  0
BLOCK
  5
164
330
163
100
AcDbEntity
  8
0
100
AcDbBlockBegin
  2
_D_4
 70
     0
 10
0.0
 20
0.0
 30
0.0
  3
_D_4
  1

  0
SOLID
  5
166
330
163
100
AcDbEntity
  8
0
  6
Continuous
 62
     7
370
    18
100
AcDbTrace
 10
178.9116473166
 20
222.9516073803
 30
0.0
 11
175.6096473166
 21
223.4596073803
 31
0.0
 12
175.6096473166
 22
222.4436073803
 32
0.0
 13
175.6096473166
 23
222.4436073803
 33
0.0
  0
SOLID
  5
167
330
163
100
AcDbEntity
  8
0
  6
Continuous
 62
     7
370
    18
100
AcDbTrace
 10
227.1116473166
 20
222.9516073803
 30
0.0
 11
230.4136473166
 21
222.4436073803
 31
0.0
 12
230.4136473166
 22
223.4596073803
 32
0.0
 13
230.4136473166
 23
223.4596073803
 33
0.0
  0
LINE
  5
168
330
163
100
AcDbEntity
  8
0
  6
Continuous
 62
     7
370
    18
100
AcDbLine
 10
178.9116473166
 20
249.9516073803
 30
0.0
 11
178.9116473166
 21
221.9516073803
 31
0.0
  0
LINE
  5
169
330
163
100
AcDbEntity
  8
0
  6
Continuous
 62
     7
370
    18
100
AcDbLine
 10
227.1116473166
 20
249.9516073803
 30
0.0
 11
227.1116473166
 21
221.9516073803
 31
0.0
  0
LINE
  5
16A
330
163
100
AcDbEntity
  8
0
  6
Continuous
 62
     7
370
    18
100
AcDbLine
 10
178.9116473166
 20
222.9516073803
 30
0.0
 11
172.5616473166
 21
222.9516073803
 31
0.0
  0
LINE
  5
16B
330
163
100
AcDbEntity
  8
0
  6
Continuous
 62
     7
370
    18
100
AcDbLine
 10
178.9116473166
 20
222.9516073803
 30
0.0
 11
227.1116473166
 21
222.9516073803
 31
0.0
  0
LINE
  5
16C
330
163
100
AcDbEntity
  8
0
  6
Continuous
 62
     7
370
    18
100
AcDbLine
 10
227.1116473166
 20
222.9516073803
 30
0.0
 11
233.4616473166
 21
222.9516073803
 31
0.0
  0
MTEXT
  5
16D
330
163
100
AcDbEntity
  8
0
  6
Continuous
 62
     7
370
    18
100
AcDbMText
 10
193.7278956057
 20
227.4633444695
 30
0.0
 40
3.5
 41
0.0
 71
     1
 72
     1
  1
%%c
  7
SLDTEXTSTYLE0
 73
     1
 44
1.0
  0
MTEXT
  5
16E
330
163
100
AcDbEntity
  8
0
  6
Continuous
 62
     7
370
    18
100
AcDbMText
 10
199.0063330041
 20
227.5168166461
 30
0.0
 40
3.5
 41
0.0
 71
     1
 72
     1
  1
48,20
  7
SLDTEXTSTYLE0
 73
     1
 44
1.0
  0
ENDBLK
  5
165
330
163
100
AcDbEntity
  8
0
100
AcDbBlockEnd
  0
BLOCK
  5
171
330
170
100
AcDbEntity
  8
0
100
AcDbBlockBegin
  2
_D_5
 70
     0
 10
0.0
 20
0.0
 30
0.0
  3
_D_5
  1

  0
SOLID
  5
173
330
170
100
AcDbEntity
  8
0
  6
Continuous
 62
     7
370
    18
100
AcDbTrace
 10
265.7897973121
 20
250.9516073803
 30
0.0
 11
265.2817973121
 21
247.6496073803
 31
0.0
 12
266.2977973121
 22
247.6496073803
 32
0.0
 13
266.2977973121
 23
247.6496073803
 33
0.0
  0
SOLID
  5
174
330
170
100
AcDbEntity
  8
0
  6
Continuous
 62
     7
370
    18
100
AcDbTrace
 10
265.7897973121
 20
340.9516073803
 30
0.0
 11
266.2977973121
 21
344.2536073803
 31
0.0
 12
265.2817973121
 22
344.2536073803
 32
0.0
 13
265.2817973121
 23
344.2536073803
 33
0.0
  0
LINE
  5
175
330
170
100
AcDbEntity
  8
0
  6
Continuous
 62
     7
370
    18
100
AcDbLine
 10
228.1116473166
 20
250.9516073803
 30
0.0
 11
266.7897973121
 21
250.9516073803
 31
0.0
  0
LINE
  5
176
330
170
100
AcDbEntity
  8
0
  6
Continuous
 62
     7
370
    18
100
AcDbLine
 10
228.1116473166
 20
340.9516073803
 30
0.0
 11
266.7897973121
 21
340.9516073803
 31
0.0
  0
LINE
  5
177
330
170
100
AcDbEntity
  8
0
  6
Continuous
 62
     7
370
    18
100
AcDbLine
 10
265.7897973121
 20
250.9516073803
 30
0.0
 11
265.7897973121
 21
244.6016073803
 31
0.0
  0
LINE
  5
178
330
170
100
AcDbEntity
  8
0
  6
Continuous
 62
     7
370
    18
100
AcDbLine
 10
265.7897973121
 20
250.9516073803
 30
0.0
 11
265.7897973121
 21
340.9516073803
 31
0.0
  0
LINE
  5
179
330
170
100
AcDbEntity
  8
0
  6
Continuous
 62
     7
370
    18
100
AcDbLine
 10
265.7897973121
 20
340.9516073803
 30
0.0
 11
265.7897973121
 21
347.3016073803
 31
0.0
  0
MTEXT
  5
17A
330
170
100
AcDbEntity
  8
0
  6
Continuous
 62
     7
370
    18
100
AcDbMText
 10
261.2780603975
 20
288.8546891801
 30
0.0
 40
3.5
 41
0.0
 71
     1
 72
     1
  1
90
  7
SLDTEXTSTYLE0
 11
6.123233995736766E-17
 21
1.0
 31
0.0
 73
     1
 44
1.0
  0
ENDBLK
  5
172
330
170
100
AcDbEntity
  8
0
100
AcDbBlockEnd
  0
BLOCK
  5
17D
330
17C
100
AcDbEntity
  8
0
100
AcDbBlockBegin
  2
_D_6
 70
     0
 10
0.0
 20
0.0
 30
0.0
  3
_D_6
  1

  0
SOLID
  5
17F
330
17C
100
AcDbEntity
  8
0
  6
Continuous
 62
     7
370
    18
100
AcDbTrace
 10
226.1116473166
 20
321.1104217393
 30
0.0
 11
222.8096473166
 21
321.6184217393
 31
0.0
 12
222.8096473166
 22
320.6024217393
 32
0.0
 13
222.8096473166
 23
320.6024217393
 33
0.0
  0
SOLID
  5
180
330
17C
100
AcDbEntity
  8
0
  6
Continuous
 62
     7
370
    18
100
AcDbTrace
 10
227.1116473166
 20
321.1104217393
 30
0.0
 11
230.4136473166
 21
320.6024217393
 31
0.0
 12
230.4136473166
 22
321.6184217393
 32
0.0
 13
230.4136473166
 23
321.6184217393
 33
0.0
  0
LINE
  5
181
330
17C
100
AcDbEntity
  8
0
  6
Continuous
 62
     7
370
    18
100
AcDbLine
 10
226.1116473166
 20
339.9516073803
 30
0.0
 11
226.1116473166
 21
320.1104217393
 31
0.0
  0
LINE
  5
182
330
17C
100
AcDbEntity
  8
0
  6
Continuous
 62
     7
370
    18
100
AcDbLine
 10
227.1116473166
 20
339.9516073803
 30
0.0
 11
227.1116473166
 21
320.1104217393
 31
0.0
  0
LINE
  5
183
330
17C
100
AcDbEntity
  8
0
  6
Continuous
 62
     7
370
    18
100
AcDbLine
 10
226.1116473166
 20
321.1104217393
 30
0.0
 11
219.7616473166
 21
321.1104217393
 31
0.0
  0
LINE
  5
184
330
17C
100
AcDbEntity
  8
0
  6
Continuous
 62
     7
370
    18
100
AcDbLine
 10
226.1116473166
 20
321.1104217393
 30
0.0
 11
227.1116473166
 21
321.1104217393
 31
0.0
  0
LINE
  5
185
330
17C
100
AcDbEntity
  8
0
  6
Continuous
 62
     7
370
    18
100
AcDbLine
 10
227.1116473166
 20
321.1104217393
 30
0.0
 11
238.6767881747
 21
321.1104217393
 31
0.0
  0
MTEXT
  5
186
330
17C
100
AcDbEntity
  8
0
  6
Continuous
 62
     7
370
    18
100
AcDbMText
 10
236.0906769812
 20
325.6221586539
 30
0.0
 40
3.5
 41
0.0
 71
     1
 72
     1
  1
1
  7
SLDTEXTSTYLE0
 73
     1
 44
1.0
  0
ENDBLK
  5
17E
330
17C
100
AcDbEntity
  8
0
100
AcDbBlockEnd
  0
BLOCK
  5
189
330
188
100
AcDbEntity
  8
0
100
AcDbBlockBegin
  2
_D_7
 70
     0
 10
0.0
 20
0.0
 30
0.0
  3
_D_7
  1

  0
ARC
  5
18B
330
188
100
AcDbEntity
  8
0
  6
Continuous
 62
     7
370
    18
100
AcDbCircle
 10
226.1116473166
 20
340.9516073803
 30
0.0
 40
25.20530048518168
100
AcDbArc
 50
315.0
 51
0.0
  0
SOLID
  5
18C
330
188
100
AcDbEntity
  8
0
  6
Continuous
 62
     7
370
    18
100
AcDbTrace
 10
243.9344862115
 20
323.1287684853
 30
0.0
 11
246.4942649424
 21
325.2755802723
 31
0.0
 12
245.7306092039
 22
325.945718999
 32
0.0
 13
245.7306092039
 23
325.945718999
 33
0.0
  0
SOLID
  5
18D
330
188
100
AcDbEntity
  8
0
  6
Continuous
 62
     7
370
    18
100
AcDbTrace
 10
251.3169478018
 20
340.9516073803
 30
0.0
 11
250.5951137391
 21
337.689671822
 31
0.0
 12
251.6089595283
 22
337.6235453088
 32
0.0
 13
251.6089595283
 23
337.6235453088
 33
0.0
  0
LINE
  5
18E
330
188
100
AcDbEntity
  8
0
  6
Continuous
 62
     7
370
    18
100
AcDbLine
 10
226.8187540978
 20
340.2445005991
 30
0.0
 11
244.6415929927
 21
322.4216617042
 31
0.0
  0
LINE
  5
18F
330
188
100
AcDbEntity
  8
0
  6
Continuous
 62
     7
370
    18
100
AcDbLine
 10
227.1116473166
 20
340.9516073803
 30
0.0
 11
252.3169478018
 21
340.9516073803
 31
0.0
  0
MTEXT
  5
190
330
188
100
AcDbEntity
  8
0
  6
Continuous
 62
     7
370
    18
100
AcDbMText
 10
243.9971559894
 20
329.9644038093
 30
0.0
 40
3.5
 41
0.0
 71
     1
 72
     1
  1
45°
  7
SLDTEXTSTYLE0
 11
0.3731583874914367
 21
0.9277676529416138
 31
0.0
 73
     1
 44
1.0
  0
ENDBLK
  5
18A
330
188
100
AcDbEntity
  8
0
100
AcDbBlockEnd
  0
BLOCK
  5
194
330
193
100
AcDbEntity
  8
0
100
AcDbBlockBegin
  2
_NONE
 70
     0
 10
0.0
 20
0.0
 30
0.0
  3
_NONE
  1

  0
ENDBLK
  5
195
330
193
100
AcDbEntity
  8
0
100
AcDbBlockEnd
  0
BLOCK
  5
197
330
196
100
AcDbEntity
  8
0
100
AcDbBlockBegin
  2
_D_8
 70
     0
 10
0.0
 20
0.0
 30
0.0
  3
_D_8
  1

  0
SOLID
  5
199
330
196
100
AcDbEntity
  8
0
  6
Continuous
 62
     7
370
    18
100
AcDbTrace
 10
189.2701084539
 20
316.8266073803
 30
0.0
 11
186.1564925706
 21
315.6155482854
 31
0.0
 12
186.6644925706
 22
314.7356664751
 32
0.0
 13
186.6644925706
 23
314.7356664751
 33
0.0
  0
LINE
  5
19A
330
196
100
AcDbEntity
  8
0
  6
Continuous
 62
     7
370
    18
100
AcDbLine
 10
189.2701084539
 20
316.8266073803
 30
0.0
 11
156.8975062612
 21
298.1362767899
 31
0.0
  0
LINE
  5
19B
330
196
100
AcDbEntity
  8
0
  6
Continuous
 62
     7
370
    18
100
AcDbLine
 10
189.2701084539
 20
316.8266073803
 30
0.0
 11
194.8992735785
 21
320.0766073803
 31
0.0
  0
MTEXT
  5
19C
330
196
100
AcDbEntity
  8
0
  6
Continuous
 62
     7
370
    18
100
AcDbMText
 10
154.6465039058
 20
302.0351272374
 30
0.0
 40
3.5
 41
0.0
 71
     1
 72
     1
  1
%%c
  7
SLDTEXTSTYLE0
 11
0.8660254037844387
 21
0.4999999999999998
 31
0.0
 73
     1
 44
1.0
  0
MTEXT
  5
19D
330
196
100
AcDbEntity
  8
0
  6
Continuous
 62
     7
370
    18
100
AcDbMText
 10
159.1910286967
 20
304.7206542
 30
0.0
 40
3.5
 41
0.0
 71
     1
 72
     1
  1
6,50
  7
SLDTEXTSTYLE0
 11
0.8660254037844387
 21
0.4999999999999998
 31
0.0
 73
     1
 44
1.0
  0
ENDBLK
  5
198
330
196
100
AcDbEntity
  8
0
100
AcDbBlockEnd
  0
BLOCK
  5
1A0
330
19F
100
AcDbEntity
  8
0
100
AcDbBlockBegin
  2
_D_9
 70
     0
 10
0.0
 20
0.0
 30
0.0
  3
_D_9
  1

  0
SOLID
  5
1A2
330
19F
100
AcDbEntity
  8
0
  6
Continuous
 62
     7
370
    18
100
AcDbTrace
 10
158.6249611102
 20
318.4516073803
 30
0.0
 11
159.1329611102
 21
321.7536073803
 31
0.0
 12
158.1169611102
 22
321.7536073803
 32
0.0
 13
158.1169611102
 23
321.7536073803
 33
0.0
  0
SOLID
  5
1A3
330
19F
100
AcDbEntity
  8
0
  6
Continuous
 62
     7
370
    18
100
AcDbTrace
 10
158.6249611102
 20
348.4516073803
 30
0.0
 11
158.1169611102
 21
345.1496073803
 31
0.0
 12
159.1329611102
 22
345.1496073803
 32
0.0
 13
159.1329611102
 23
345.1496073803
 33
0.0
  0
LINE
  5
1A4
330
19F
100
AcDbEntity
  8
0
  6
Continuous
 62
     7
370
    18
100
AcDbLine
 10
185.3346910162
 20
318.4516073803
 30
0.0
 11
157.6249611102
 21
318.4516073803
 31
0.0
  0
LINE
  5
1A5
330
19F
100
AcDbEntity
  8
0
  6
Continuous
 62
     7
370
    18
100
AcDbLine
 10
185.3346910162
 20
348.4516073803
 30
0.0
 11
157.6249611102
 21
348.4516073803
 31
0.0
  0
LINE
  5
1A6
330
19F
100
AcDbEntity
  8
0
  6
Continuous
 62
     7
370
    18
100
AcDbLine
 10
158.6249611102
 20
318.4516073803
 30
0.0
 11
158.6249611102
 21
348.4516073803
 31
0.0
  0
MTEXT
  5
1A7
330
19F
100
AcDbEntity
  8
0
  6
Continuous
 62
     7
370
    18
100
AcDbMText
 10
154.1132241956
 20
331.2205428417
 30
0.0
 40
3.5
 41
0.0
 71
     1
 72
     1
  1
30
  7
SLDTEXTSTYLE0
 11
-1.608122649676637E-16
 21
1.0
 31
0.0
 73
     1
 44
1.0
  0
ENDBLK
  5
1A1
330
19F
100
AcDbEntity
  8
0
100
AcDbBlockEnd
  0
BLOCK
  5
1AA
330
1A9
100
AcDbEntity
  8
0
100
AcDbBlockBegin
  2
_D_10
 70
     0
 10
0.0
 20
0.0
 30
0.0
  3
_D_10
  1

  0
SOLID
  5
1AC
330
1A9
100
AcDbEntity
  8
0
  6
Continuous
 62
     7
370
    18
100
AcDbTrace
 10
158.6300439772
 20
348.4516073803
 30
0.0
 11
159.1380439772
 21
351.7536073803
 31
0.0
 12
158.1220439772
 22
351.7536073803
 32
0.0
 13
158.1220439772
 23
351.7536073803
 33
0.0
  0
SOLID
  5
1AD
330
1A9
100
AcDbEntity
  8
0
  6
Continuous
 62
     7
370
    18
100
AcDbTrace
 10
158.6300439772
 20
366.4516073803
 30
0.0
 11
158.1220439772
 21
363.1496073803
 31
0.0
 12
159.1380439772
 22
363.1496073803
 32
0.0
 13
159.1380439772
 23
363.1496073803
 33
0.0
  0
LINE
  5
1AE
330
1A9
100
AcDbEntity
  8
0
  6
Continuous
 62
     7
370
    18
100
AcDbLine
 10
185.3346910162
 20
348.4516073803
 30
0.0
 11
157.6300439772
 21
348.4516073803
 31
0.0
  0
LINE
  5
1AF
330
1A9
100
AcDbEntity
  8
0
  6
Continuous
 62
     7
370
    18
100
AcDbLine
 10
181.0846910162
 20
366.4516073803
 30
0.0
 11
157.6300439772
 21
366.4516073803
 31
0.0
  0
LINE
  5
1B0
330
1A9
100
AcDbEntity
  8
0
  6
Continuous
 62
     7
370
    18
100
AcDbLine
 10
158.6300439772
 20
348.4516073803
 30
0.0
 11
158.6300439772
 21
366.4516073803
 31
0.0
  0
MTEXT
  5
1B1
330
1A9
100
AcDbEntity
  8
0
  6
Continuous
 62
     7
370
    18
100
AcDbMText
 10
154.1183070626
 20
355.0778574748
 30
0.0
 40
3.5
 41
0.0
 71
     1
 72
     1
  1
18
  7
SLDTEXTSTYLE0
 11
6.123233995736766E-17
 21
1.0
 31
0.0
 73
     1
 44
1.0
  0
ENDBLK
  5
1AB
330
1A9
100
AcDbEntity
  8
0
100
AcDbBlockEnd
  0
BLOCK
  5
1B3
330
1B2
100
AcDbEntity
  8
0
100
AcDbBlockBegin
  2
SW_CENTERMARKSYMBOL_0
 70
     0
 10
0.0
 20
0.0
 30
0.0
  3
SW_CENTERMARKSYMBOL_0
  1

  0
LINE
  5
1B5
330
1B2
100
AcDbEntity
  8
0
  6
Continuous
 62
     0
370
     0
100
AcDbLine
 10
0.0
 20
0.0
 30
0.0
 11
0.0
 21
2.5
 31
0.0
  0
LINE
  5
1B6
330
1B2
100
AcDbEntity
  8
0
  6
Continuous
 62
     0
370
     0
100
AcDbLine
 10
0.0
 20
0.0
 30
0.0
 11
-2.5
 21
0.0
 31
0.0
  0
LINE
  5
1B7
330
1B2
100
AcDbEntity
  8
0
  6
Continuous
 62
     0
370
     0
100
AcDbLine
 10
0.0
 20
0.0
 30
0.0
 11
0.0
 21
-2.5
 31
0.0
  0
LINE
  5
1B8
330
1B2
100
AcDbEntity
  8
0
  6
Continuous
 62
     0
370
     0
100
AcDbLine
 10
0.0
 20
0.0
 30
0.0
 11
2.5
 21
0.0
 31
0.0
  0
LINE
  5
1B9
330
1B2
100
AcDbEntity
  8
0
  6
Continuous
 62
     0
370
     0
100
AcDbLine
 10
0.0
 20
5.0
 30
0.0
 11
0.0
 21
5.75
 31
0.0
  0
LINE
  5
1BA
330
1B2
100
AcDbEntity
  8
0
  6
Continuous
 62
     0
370
     0
100
AcDbLine
 10
-5.0
 20
0.0
 30
0.0
 11
-5.75
 21
0.0
 31
0.0
  0
LINE
  5
1BB
330
1B2
100
AcDbEntity
  8
0
  6
Continuous
 62
     0
370
     0
100
AcDbLine
 10
0.0
 20
-5.0
 30
0.0
 11
0.0
 21
-5.75
 31
0.0
  0
LINE
  5
1BC
330
1B2
100
AcDbEntity
  8
0
  6
Continuous
 62
     0
370
     0
100
AcDbLine
 10
5.0
 20
0.0
 30
0.0
 11
5.75
 21
0.0
 31
0.0
  0
ENDBLK
  5
1B4
330
1B2
100
AcDbEntity
  8
0
100
AcDbBlockEnd
  0
BLOCK
  5
1BF
330
1BE
100
AcDbEntity
  8
0
100
AcDbBlockBegin
  2
SW_CENTERMARKSYMBOL_1
 70
     0
 10
0.0
 20
0.0
 30
0.0
  3
SW_CENTERMARKSYMBOL_1
  1

  0
LINE
  5
1C1
330
1BE
100
AcDbEntity
  8
0
  6
Continuous
 62
     0
370
     0
100
AcDbLine
 10
0.0
 20
0.0
 30
0.0
 11
0.0
 21
2.5
 31
0.0
  0
LINE
  5
1C2
330
1BE
100
AcDbEntity
  8
0
  6
Continuous
 62
     0
370
     0
100
AcDbLine
 10
0.0
 20
0.0
 30
0.0
 11
-2.5
 21
0.0
 31
0.0
  0
LINE
  5
1C3
330
1BE
100
AcDbEntity
  8
0
  6
Continuous
 62
     0
370
     0
100
AcDbLine
 10
0.0
 20
0.0
 30
0.0
 11
0.0
 21
-2.5
 31
0.0
  0
LINE
  5
1C4
330
1BE
100
AcDbEntity
  8
0
  6
Continuous
 62
     0
370
     0
100
AcDbLine
 10
0.0
 20
0.0
 30
0.0
 11
2.5
 21
0.0
 31
0.0
  0
LINE
  5
1C5
330
1BE
100
AcDbEntity
  8
0
  6
Continuous
 62
     0
370
     0
100
AcDbLine
 10
0.0
 20
5.0
 30
0.0
 11
0.0
 21
5.75
 31
0.0
  0
LINE
  5
1C6
330
1BE
100
AcDbEntity
  8
0
  6
Continuous
 62
     0
370
     0
100
AcDbLine
 10
-5.0
 20
0.0
 30
0.0
 11
-5.75
 21
0.0
 31
0.0
  0
LINE
  5
1C7
330
1BE
100
AcDbEntity
  8
0
  6
Continuous
 62
     0
370
     0
100
AcDbLine
 10
0.0
 20
-5.0
 30
0.0
 11
0.0
 21
-5.75
 31
0.0
  0
LINE
  5
1C8
330
1BE
100
AcDbEntity
  8
0
  6
Continuous
 62
     0
370
     0
100
AcDbLine
 10
5.0
 20
0.0
 30
0.0
 11
5.75
 21
0.0
 31
0.0
  0
ENDBLK
  5
1C0
330
1BE
100
AcDbEntity
  8
0
100
AcDbBlockEnd
  0
BLOCK
  5
234
330
233
100
AcDbEntity
  8
0
100
AcDbBlockBegin
  2
_D_11
 70
     0
 10
0.0
 20
0.0
 30
0.0
  3
_D_11
  1

  0
SOLID
  5
236
330
233
100
AcDbEntity
  8
0
  6
Continuous
 62
     7
370
    18
100
AcDbTrace
 10
354.5655842743
 20
376.1544891672
 30
0.0
 11
357.8675842743
 21
375.6464891672
 31
0.0
 12
357.8675842743
 22
376.6624891672
 32
0.0
 13
357.8675842743
 23
376.6624891672
 33
0.0
  0
SOLID
  5
237
330
233
100
AcDbEntity
  8
0
  6
Continuous
 62
     7
370
    18
100
AcDbTrace
 10
343.0655842743
 20
376.1544891672
 30
0.0
 11
339.7635842743
 21
376.6624891672
 31
0.0
 12
339.7635842743
 22
375.6464891672
 32
0.0
 13
339.7635842743
 23
375.6464891672
 33
0.0
  0
LINE
  5
238
330
233
100
AcDbEntity
  8
0
  6
Continuous
 62
     7
370
    18
100
AcDbLine
 10
354.5655842743
 20
367.4516073803
 30
0.0
 11
354.5655842743
 21
377.1544891672
 31
0.0
  0
LINE
  5
239
330
233
100
AcDbEntity
  8
0
  6
Continuous
 62
     7
370
    18
100
AcDbLine
 10
343.0655842743
 20
367.4516073803
 30
0.0
 11
343.0655842743
 21
377.1544891672
 31
0.0
  0
LINE
  5
23A
330
233
100
AcDbEntity
  8
0
  6
Continuous
 62
     7
370
    18
100
AcDbLine
 10
354.5655842743
 20
376.1544891672
 30
0.0
 11
360.9155842743
 21
376.1544891672
 31
0.0
  0
LINE
  5
23B
330
233
100
AcDbEntity
  8
0
  6
Continuous
 62
     7
370
    18
100
AcDbLine
 10
354.5655842743
 20
376.1544891672
 30
0.0
 11
343.0655842743
 21
376.1544891672
 31
0.0
  0
LINE
  5
23C
330
233
100
AcDbEntity
  8
0
  6
Continuous
 62
     7
370
    18
100
AcDbLine
 10
343.0655842743
 20
376.1544891672
 30
0.0
 11
336.7155842743
 21
376.1544891672
 31
0.0
  0
MTEXT
  5
23D
330
233
100
AcDbEntity
  8
0
  6
Continuous
 62
     7
370
    18
100
AcDbMText
 10
339.7260382715
 20
380.6662260818
 30
0.0
 40
3.5
 41
0.0
 71
     1
 72
     1
  1
=
  7
SLDTEXTSTYLE0
 73
     1
 44
1.0
  0
MTEXT
  5
23E
330
233
100
AcDbEntity
  8
0
  6
Continuous
 62
     7
370
    18
100
AcDbMText
 10
342.5552048664
 20
380.6662260818
 30
0.0
 40
3.5
 41
0.0
 71
     1
 72
     1
  1
11,50
  7
SLDTEXTSTYLE0
 73
     1
 44
1.0
  0
MTEXT
  5
23F
330
233
100
AcDbEntity
  8
0
  6
Continuous
 62
     7
370
    18
100
AcDbMText
 10
354.192704888
 20
380.6662260818
 30
0.0
 40
3.5
 41
0.0
 71
     1
 72
     1
  1
=
  7
SLDTEXTSTYLE0
 73
     1
 44
1.0
  0
ENDBLK
  5
235
330
233
100
AcDbEntity
  8
0
100
AcDbBlockEnd
  0
BLOCK
  5
242
330
241
100
AcDbEntity
  8
0
100
AcDbBlockBegin
  2
_D_12
 70
     0
 10
0.0
 20
0.0
 30
0.0
  3
_D_12
  1

  0
SOLID
  5
244
330
241
100
AcDbEntity
  8
0
  6
Continuous
 62
     7
370
    18
100
AcDbTrace
 10
313.9585982447
 20
323.9516073803
 30
0.0
 11
313.4505982447
 21
320.6496073803
 31
0.0
 12
314.4665982447
 22
320.6496073803
 32
0.0
 13
314.4665982447
 23
320.6496073803
 33
0.0
  0
SOLID
  5
245
330
241
100
AcDbEntity
  8
0
  6
Continuous
 62
     7
370
    18
100
AcDbTrace
 10
313.9585982447
 20
305.9516073803
 30
0.0
 11
314.4665982447
 21
309.2536073803
 31
0.0
 12
313.4505982447
 22
309.2536073803
 32
0.0
 13
313.4505982447
 23
309.2536073803
 33
0.0
  0
LINE
  5
246
330
241
100
AcDbEntity
  8
0
  6
Continuous
 62
     7
370
    18
100
AcDbLine
 10
342.0655842743
 20
323.9516073803
 30
0.0
 11
312.9585982447
 21
323.9516073803
 31
0.0
  0
LINE
  5
247
330
241
100
AcDbEntity
  8
0
  6
Continuous
 62
     7
370
    18
100
AcDbLine
 10
336.0655842743
 20
305.9516073803
 30
0.0
 11
312.9585982447
 21
305.9516073803
 31
0.0
  0
LINE
  5
248
330
241
100
AcDbEntity
  8
0
  6
Continuous
 62
     7
370
    18
100
AcDbLine
 10
313.9585982447
 20
323.9516073803
 30
0.0
 11
313.9585982447
 21
305.9516073803
 31
0.0
  0
MTEXT
  5
249
330
241
100
AcDbEntity
  8
0
  6
Continuous
 62
     7
370
    18
100
AcDbMText
 10
309.4468613301
 20
315.2171821786
 30
0.0
 40
3.5
 41
0.0
 71
     1
 72
     1
  1
18
  7
SLDTEXTSTYLE0
 11
-7.044195017643634E-15
 21
1.0
 31
0.0
 73
     1
 44
1.0
  0
ENDBLK
  5
243
330
241
100
AcDbEntity
  8
0
100
AcDbBlockEnd
  0
BLOCK
  5
24C
330
24B
100
AcDbEntity
  8
0
100
AcDbBlockBegin
  2
_D_13
 70
     0
 10
0.0
 20
0.0
 30
0.0
  3
_D_13
  1

  0
SOLID
  5
24E
330
24B
100
AcDbEntity
  8
0
  6
Continuous
 62
     7
370
    18
100
AcDbTrace
 10
360.2976350819
 20
306.4516073803
 30
0.0
 11
362.9032509652
 21
304.3606664751
 31
0.0
 12
363.4112509652
 22
305.2405482854
 32
0.0
 13
363.4112509652
 23
305.2405482854
 33
0.0
  0
LINE
  5
24F
330
24B
100
AcDbEntity
  8
0
  6
Continuous
 62
     7
370
    18
100
AcDbLine
 10
360.2976350819
 20
306.4516073803
 30
0.0
 11
387.3347001247
 21
290.8417505997
 31
0.0
  0
LINE
  5
250
330
24B
100
AcDbEntity
  8
0
  6
Continuous
 62
     7
370
    18
100
AcDbLine
 10
360.2976350819
 20
306.4516073803
 30
0.0
 11
358.5655842743
 21
307.4516073803
 31
0.0
  0
MTEXT
  5
251
330
24B
100
AcDbEntity
  8
0
  6
Continuous
 62
     7
370
    18
100
AcDbMText
 10
384.8909137701
 20
297.4492665896
 30
0.0
 40
3.5
 41
0.0
 71
     1
 72
     1
  1
R2
  7
SLDTEXTSTYLE0
 11
0.8660254037844459
 21
-0.4999999999999873
 31
0.0
 73
     1
 44
1.0
  0
ENDBLK
  5
24D
330
24B
100
AcDbEntity
  8
0
100
AcDbBlockEnd
  0
BLOCK
  5
254
330
253
100
AcDbEntity
  8
0
100
AcDbBlockBegin
  2
_D_14
 70
     0
 10
0.0
 20
0.0
 30
0.0
  3
_D_14
  1

  0
SOLID
  5
256
330
253
100
AcDbEntity
  8
0
  6
Continuous
 62
     7
370
    18
100
AcDbTrace
 10
313.952600833
 20
366.4516073803
 30
0.0
 11
314.460600833
 21
369.7536073803
 31
0.0
 12
313.444600833
 22
369.7536073803
 32
0.0
 13
313.444600833
 23
369.7536073803
 33
0.0
  0
SOLID
  5
257
330
253
100
AcDbEntity
  8
0
  6
Continuous
 62
     7
370
    18
100
AcDbTrace
 10
313.952600833
 20
323.9516073803
 30
0.0
 11
313.444600833
 21
320.6496073803
 31
0.0
 12
314.460600833
 22
320.6496073803
 32
0.0
 13
314.460600833
 23
320.6496073803
 33
0.0
  0
LINE
  5
258
330
253
100
AcDbEntity
  8
0
  6
Continuous
 62
     7
370
    18
100
AcDbLine
 10
323.8155842743
 20
366.4516073803
 30
0.0
 11
312.952600833
 21
366.4516073803
 31
0.0
  0
LINE
  5
259
330
253
100
AcDbEntity
  8
0
  6
Continuous
 62
     7
370
    18
100
AcDbLine
 10
344.0655842743
 20
323.9516073803
 30
0.0
 11
312.952600833
 21
323.9516073803
 31
0.0
  0
LINE
  5
25A
330
253
100
AcDbEntity
  8
0
  6
Continuous
 62
     7
370
    18
100
AcDbLine
 10
313.952600833
 20
366.4516073803
 30
0.0
 11
313.952600833
 21
372.8016073803
 31
0.0
  0
LINE
  5
25B
330
253
100
AcDbEntity
  8
0
  6
Continuous
 62
     7
370
    18
100
AcDbLine
 10
313.952600833
 20
366.4516073803
 30
0.0
 11
313.952600833
 21
323.9516073803
 31
0.0
  0
LINE
  5
25C
330
253
100
AcDbEntity
  8
0
  6
Continuous
 62
     7
370
    18
100
AcDbLine
 10
313.952600833
 20
323.9516073803
 30
0.0
 11
313.952600833
 21
317.6016073803
 31
0.0
  0
MTEXT
  5
25D
330
253
100
AcDbEntity
  8
0
  6
Continuous
 62
     7
370
    18
100
AcDbMText
 10
309.4408639184
 20
337.4332386113
 30
0.0
 40
3.5
 41
0.0
 71
     1
 72
     1
  1
42,50
  7
SLDTEXTSTYLE0
 11
-7.044195017643634E-15
 21
1.0
 31
0.0
 73
     1
 44
1.0
  0
ENDBLK
  5
255
330
253
100
AcDbEntity
  8
0
100
AcDbBlockEnd
  0
BLOCK
  5
260
330
25F
100
AcDbEntity
  8
0
100
AcDbBlockBegin
  2
_D_15
 70
     0
 10
0.0
 20
0.0
 30
0.0
  3
_D_15
  1

  0
SOLID
  5
262
330
25F
100
AcDbEntity
  8
0
  6
Continuous
 62
     7
370
    18
100
AcDbTrace
 10
332.0655842743
 20
400.5016073803
 30
0.0
 11
335.3675842743
 21
399.9936073803
 31
0.0
 12
335.3675842743
 22
401.0096073803
 32
0.0
 13
335.3675842743
 23
401.0096073803
 33
0.0
  0
SOLID
  5
263
330
25F
100
AcDbEntity
  8
0
  6
Continuous
 62
     7
370
    18
100
AcDbTrace
 10
365.5655842743
 20
400.5016073803
 30
0.0
 11
362.2635842743
 21
401.0096073803
 31
0.0
 12
362.2635842743
 22
399.9936073803
 32
0.0
 13
362.2635842743
 23
399.9936073803
 33
0.0
  0
LINE
  5
264
330
25F
100
AcDbEntity
  8
0
  6
Continuous
 62
     7
370
    18
100
AcDbLine
 10
332.0655842743
 20
340.9516073803
 30
0.0
 11
332.0655842743
 21
401.5016073803
 31
0.0
  0
LINE
  5
265
330
25F
100
AcDbEntity
  8
0
  6
Continuous
 62
     7
370
    18
100
AcDbLine
 10
365.5655842743
 20
340.9516073803
 30
0.0
 11
365.5655842743
 21
401.5016073803
 31
0.0
  0
LINE
  5
266
330
25F
100
AcDbEntity
  8
0
  6
Continuous
 62
     7
370
    18
100
AcDbLine
 10
332.0655842743
 20
400.5016073803
 30
0.0
 11
365.5655842743
 21
400.5016073803
 31
0.0
  0
MTEXT
  5
267
330
25F
100
AcDbEntity
  8
0
  6
Continuous
 62
     7
370
    18
100
AcDbMText
 10
340.5836006636
 20
405.0133442948
 30
0.0
 40
3.5
 41
0.0
 71
     1
 72
     1
  1
=
  7
SLDTEXTSTYLE0
 73
     1
 44
1.0
  0
MTEXT
  5
268
330
25F
100
AcDbEntity
  8
0
  6
Continuous
 62
     7
370
    18
100
AcDbMText
 10
343.4127672585
 20
405.0133442948
 30
0.0
 40
3.5
 41
0.0
 71
     1
 72
     1
  1
33,50
  7
SLDTEXTSTYLE0
 73
     1
 44
1.0
  0
MTEXT
  5
269
330
25F
100
AcDbEntity
  8
0
  6
Continuous
 62
     7
370
    18
100
AcDbMText
 10
355.0502672801
 20
405.0133442948
 30
0.0
 40
3.5
 41
0.0
 71
     1
 72
     1
  1
=
  7
SLDTEXTSTYLE0
 73
     1
 44
1.0
  0
ENDBLK
  5
261
330
25F
100
AcDbEntity
  8
0
100
AcDbBlockEnd
  0
BLOCK
  5
26C
330
26B
100
AcDbEntity
  8
0
100
AcDbBlockBegin
  2
_D_16
 70
     0
 10
0.0
 20
0.0
 30
0.0
  3
_D_16
  1

  0
SOLID
  5
26E
330
26B
100
AcDbEntity
  8
0
  6
Continuous
 62
     7
370
    18
100
AcDbTrace
 10
365.5655842743
 20
327.2367204491
 30
0.0
 11
368.8675842743
 21
326.7287204491
 31
0.0
 12
368.8675842743
 22
327.7447204491
 32
0.0
 13
368.8675842743
 23
327.7447204491
 33
0.0
  0
SOLID
  5
26F
330
26B
100
AcDbEntity
  8
0
  6
Continuous
 62
     7
370
    18
100
AcDbTrace
 10
372.9155842743
 20
327.2367204491
 30
0.0
 11
369.6135842743
 21
327.7447204491
 31
0.0
 12
369.6135842743
 22
326.7287204491
 32
0.0
 13
369.6135842743
 23
326.7287204491
 33
0.0
  0
LINE
  5
270
330
26B
100
AcDbEntity
  8
0
  6
Continuous
 62
     7
370
    18
100
AcDbLine
 10
372.9155842743
 20
306.4516073803
 30
0.0
 11
372.9155842743
 21
328.2367204491
 31
0.0
  0
LINE
  5
271
330
26B
100
AcDbEntity
  8
0
  6
Continuous
 62
     7
370
    18
100
AcDbLine
 10
365.5655842743
 20
327.2367204491
 30
0.0
 11
372.9155842743
 21
327.2367204491
 31
0.0
  0
LINE
  5
272
330
26B
100
AcDbEntity
  8
0
  6
Continuous
 62
     7
370
    18
100
AcDbLine
 10
372.9155842743
 20
327.2367204491
 30
0.0
 11
385.1221524524
 21
327.2367204491
 31
0.0
  0
MTEXT
  5
273
330
26B
100
AcDbEntity
  8
0
  6
Continuous
 62
     7
370
    18
100
AcDbMText
 10
376.0707633915
 20
331.7484573637
 30
0.0
 40
3.5
 41
0.0
 71
     1
 72
     1
  1
7,35
  7
SLDTEXTSTYLE0
 73
     1
 44
1.0
  0
ENDBLK
  5
26D
330
26B
100
AcDbEntity
  8
0
100
AcDbBlockEnd
  0
BLOCK
  5
277
330
276
100
AcDbEntity
  8
0
100
AcDbBlockBegin
  2
_D_17
 70
     0
 10
0.0
 20
0.0
 30
0.0
  3
_D_17
  1

  0
SOLID
  5
279
330
276
100
AcDbEntity
  8
0
  6
Continuous
 62
     7
370
    18
100
AcDbTrace
 10
401.0659954839
 20
305.4516073803
 30
0.0
 11
401.5739954839
 21
308.7536073803
 31
0.0
 12
400.5579954839
 22
308.7536073803
 32
0.0
 13
400.5579954839
 23
308.7536073803
 33
0.0
  0
SOLID
  5
27A
330
276
100
AcDbEntity
  8
0
  6
Continuous
 62
     7
370
    18
100
AcDbTrace
 10
401.0659954839
 20
360.9516073803
 30
0.0
 11
400.5579954839
 21
357.6496073803
 31
0.0
 12
401.5739954839
 22
357.6496073803
 32
0.0
 13
401.5739954839
 23
357.6496073803
 33
0.0
  0
LINE
  5
27B
330
276
100
AcDbEntity
  8
0
  6
Continuous
 62
     7
370
    18
100
AcDbLine
 10
361.7685127858
 20
305.4516073803
 30
0.0
 11
402.0659954839
 21
305.4516073803
 31
0.0
  0
LINE
  5
27C
330
276
100
AcDbEntity
  8
0
  6
Continuous
 62
     7
370
    18
100
AcDbLine
 10
361.5655842743
 20
360.9516073803
 30
0.0
 11
402.0659954839
 21
360.9516073803
 31
0.0
  0
LINE
  5
27D
330
276
100
AcDbEntity
  8
0
  6
Continuous
 62
     7
370
    18
100
AcDbLine
 10
401.0659954839
 20
305.4516073803
 30
0.0
 11
401.0659954839
 21
360.9516073803
 31
0.0
  0
MTEXT
  5
27E
330
276
100
AcDbEntity
  8
0
  6
Continuous
 62
     7
370
    18
100
AcDbMText
 10
396.5007862181
 20
314.3181723316
 30
0.0
 40
3.5
 41
0.0
 71
     1
 72
     1
  1
55,50
  7
SLDTEXTSTYLE0
 11
6.123233995736766E-17
 21
1.0
 31
0.0
 73
     1
 44
1.0
  0
MTEXT
  5
27F
330
276
100
AcDbEntity
  8
0
  6
Continuous
 62
     7
370
    18
100
AcDbMText
 10
396.5007862181
 20
327.2681728188
 30
0.0
 40
3.5
 41
0.0
 71
     1
 72
     1
  1

  7
SLDTEXTSTYLE0
 11
6.123233995736766E-17
 21
1.0
 31
0.0
 73
     1
 44
1.0
  0
MTEXT
  5
280
330
276
100
AcDbEntity
  8
0
  6
Continuous
 62
     7
370
    18
100
AcDbMText
 10
392.0285638643
 20
327.248728532
 30
0.0
 40
3.5
 41
0.0
 71
     1
 72
     1
  1
H7
  7
SLDTEXTSTYLE0
 11
6.123233995736766E-17
 21
1.0
 31
0.0
 73
     1
 44
1.0
  0
MTEXT
  5
281
330
276
100
AcDbEntity
  8
0
  6
Continuous
 62
     7
370
    18
100
AcDbMText
 10
396.5542583947
 20
330.802200718
 30
0.0
 40
3.5
 41
0.0
 71
     1
 72
     1
  1

  7
SLDTEXTSTYLE0
 11
6.123233995736766E-17
 21
1.0
 31
0.0
 73
     1
 44
1.0
  0
MTEXT
  5
282
330
276
100
AcDbEntity
  8
0
  6
Continuous
 62
     7
370
    18
100
AcDbMText
 10
396.5007862181
 20
334.3362285007
 30
0.0
 40
3.5
 41
0.0
 71
     1
 72
     1
  1

  7
SLDTEXTSTYLE0
 11
6.123233995736766E-17
 21
1.0
 31
0.0
 73
     1
 44
1.0
  0
MTEXT
  5
283
330
276
100
AcDbEntity
  8
0
  6
Continuous
 62
     7
370
    18
100
AcDbMText
 10
392.0285638643
 20
334.3167842139
 30
0.0
 40
3.5
 41
0.0
 71
     1
 72
     1
  1
+
  7
SLDTEXTSTYLE0
 11
6.123233995736766E-17
 21
1.0
 31
0.0
 73
     1
 44
1.0
  0
MTEXT
  5
284
330
276
100
AcDbEntity
  8
0
  6
Continuous
 62
     7
370
    18
100
AcDbMText
 10
396.5542583947
 20
336.397339713
 30
0.0
 40
3.5
 41
0.0
 71
     1
 72
     1
  1

  7
SLDTEXTSTYLE0
 11
6.123233995736766E-17
 21
1.0
 31
0.0
 73
     1
 44
1.0
  0
MTEXT
  5
285
330
276
100
AcDbEntity
  8
0
  6
Continuous
 62
     7
370
    18
100
AcDbMText
 10
392.0285638643
 20
337.1459503431
 30
0.0
 40
3.5
 41
0.0
 71
     1
 72
     1
  1
0,03
  7
SLDTEXTSTYLE0
 11
6.123233995736766E-17
 21
1.0
 31
0.0
 73
     1
 44
1.0
  0
MTEXT
  5
286
330
276
100
AcDbEntity
  8
0
  6
Continuous
 62
     7
370
    18
100
AcDbMText
 10
396.5542583947
 20
337.1459503431
 30
0.0
 40
3.5
 41
0.0
 71
     1
 72
     1
  1
0
  7
SLDTEXTSTYLE0
 11
6.123233995736766E-17
 21
1.0
 31
0.0
 73
     1
 44
1.0
  0
ENDBLK
  5
278
330
276
100
AcDbEntity
  8
0
100
AcDbBlockEnd
  0
BLOCK
  5
28A
330
289
100
AcDbEntity
  8
0
100
AcDbBlockBegin
  2
_D_18
 70
     0
 10
0.0
 20
0.0
 30
0.0
  3
_D_18
  1

  0
SOLID
  5
28C
330
289
100
AcDbEntity
  8
0
  6
Continuous
 62
     7
370
    18
100
AcDbTrace
 10
360.5655842743
 20
383.4650039353
 30
0.0
 11
363.8675842743
 21
382.9570039353
 31
0.0
 12
363.8675842743
 22
383.9730039353
 32
0.0
 13
363.8675842743
 23
383.9730039353
 33
0.0
  0
SOLID
  5
28D
330
289
100
AcDbEntity
  8
0
  6
Continuous
 62
     7
370
    18
100
AcDbTrace
 10
337.0655842743
 20
383.4650039353
 30
0.0
 11
333.7635842743
 21
383.9730039353
 31
0.0
 12
333.7635842743
 22
382.9570039353
 32
0.0
 13
333.7635842743
 23
382.9570039353
 33
0.0
  0
LINE
  5
28E
330
289
100
AcDbEntity
  8
0
  6
Continuous
 62
     7
370
    18
100
AcDbLine
 10
360.5655842743
 20
359.9516073803
 30
0.0
 11
360.5655842743
 21
384.4650039353
 31
0.0
  0
LINE
  5
28F
330
289
100
AcDbEntity
  8
0
  6
Continuous
 62
     7
370
    18
100
AcDbLine
 10
337.0655842743
 20
359.9516073803
 30
0.0
 11
337.0655842743
 21
384.4650039353
 31
0.0
  0
LINE
  5
290
330
289
100
AcDbEntity
  8
0
  6
Continuous
 62
     7
370
    18
100
AcDbLine
 10
360.5655842743
 20
383.4650039353
 30
0.0
 11
366.9155842743
 21
383.4650039353
 31
0.0
  0
LINE
  5
291
330
289
100
AcDbEntity
  8
0
  6
Continuous
 62
     7
370
    18
100
AcDbLine
 10
360.5655842743
 20
383.4650039353
 30
0.0
 11
337.0655842743
 21
383.4650039353
 31
0.0
  0
LINE
  5
292
330
289
100
AcDbEntity
  8
0
  6
Continuous
 62
     7
370
    18
100
AcDbLine
 10
337.0655842743
 20
383.4650039353
 30
0.0
 11
330.7155842743
 21
383.4650039353
 31
0.0
  0
MTEXT
  5
293
330
289
100
AcDbEntity
  8
0
  6
Continuous
 62
     7
370
    18
100
AcDbMText
 10
330.4749055301
 20
388.0302132011
 30
0.0
 40
3.5
 41
0.0
 71
     1
 72
     1
  1
=
  7
SLDTEXTSTYLE0
 73
     1
 44
1.0
  0
MTEXT
  5
294
330
289
100
AcDbEntity
  8
0
  6
Continuous
 62
     7
370
    18
100
AcDbMText
 10
333.304072125
 20
388.0302132011
 30
0.0
 40
3.5
 41
0.0
 71
     1
 72
     1
  1
23,50
  7
SLDTEXTSTYLE0
 73
     1
 44
1.0
  0
MTEXT
  5
295
330
289
100
AcDbEntity
  8
0
  6
Continuous
 62
     7
370
    18
100
AcDbMText
 10
346.2540721466
 20
388.0302132011
 30
0.0
 40
3.5
 41
0.0
 71
     1
 72
     1
  1

  7
SLDTEXTSTYLE0
 73
     1
 44
1.0
  0
MTEXT
  5
296
330
289
100
AcDbEntity
  8
0
  6
Continuous
 62
     7
370
    18
100
AcDbMText
 10
346.2346287911
 20
392.5024355549
 30
0.0
 40
3.5
 41
0.0
 71
     1
 72
     1
  1
H7
  7
SLDTEXTSTYLE0
 73
     1
 44
1.0
  0
MTEXT
  5
297
330
289
100
AcDbEntity
  8
0
  6
Continuous
 62
     7
370
    18
100
AcDbMText
 10
349.7881009771
 20
387.9767410245
 30
0.0
 40
3.5
 41
0.0
 71
     1
 72
     1
  1

  7
SLDTEXTSTYLE0
 73
     1
 44
1.0
  0
MTEXT
  5
298
330
289
100
AcDbEntity
  8
0
  6
Continuous
 62
     7
370
    18
100
AcDbMText
 10
353.3221278285
 20
388.0302132011
 30
0.0
 40
3.5
 41
0.0
 71
     1
 72
     1
  1

  7
SLDTEXTSTYLE0
 73
     1
 44
1.0
  0
MTEXT
  5
299
330
289
100
AcDbEntity
  8
0
  6
Continuous
 62
     7
370
    18
100
AcDbMText
 10
353.3026835417
 20
392.5024355549
 30
0.0
 40
3.5
 41
0.0
 71
     1
 72
     1
  1
+
  7
SLDTEXTSTYLE0
 73
     1
 44
1.0
  0
MTEXT
  5
29A
330
289
100
AcDbEntity
  8
0
  6
Continuous
 62
     7
370
    18
100
AcDbMText
 10
355.3832390407
 20
387.9767410245
 30
0.0
 40
3.5
 41
0.0
 71
     1
 72
     1
  1

  7
SLDTEXTSTYLE0
 73
     1
 44
1.0
  0
MTEXT
  5
29B
330
289
100
AcDbEntity
  8
0
  6
Continuous
 62
     7
370
    18
100
AcDbMText
 10
356.1318496709
 20
392.5024355549
 30
0.0
 40
3.5
 41
0.0
 71
     1
 72
     1
  1
0,02
  7
SLDTEXTSTYLE0
 73
     1
 44
1.0
  0
MTEXT
  5
29C
330
289
100
AcDbEntity
  8
0
  6
Continuous
 62
     7
370
    18
100
AcDbMText
 10
356.1318496709
 20
387.9767410245
 30
0.0
 40
3.5
 41
0.0
 71
     1
 72
     1
  1
0
  7
SLDTEXTSTYLE0
 73
     1
 44
1.0
  0
MTEXT
  5
29D
330
289
100
AcDbEntity
  8
0
  6
Continuous
 62
     7
370
    18
100
AcDbMText
 10
365.1832378005
 20
388.0302132011
 30
0.0
 40
3.5
 41
0.0
 71
     1
 72
     1
  1
=
  7
SLDTEXTSTYLE0
 73
     1
 44
1.0
  0
ENDBLK
  5
28B
330
289
100
AcDbEntity
  8
0
100
AcDbBlockEnd
  0
BLOCK
  5
2BB
330
2BA
100
AcDbEntity
  8
0
100
AcDbBlockBegin
  2
SW_CENTERMARKSYMBOL_2
 70
     0
 10
0.0
 20
0.0
 30
0.0
  3
SW_CENTERMARKSYMBOL_2
  1

  0
LINE
  5
2BD
330
2BA
100
AcDbEntity
  8
0
  6
Continuous
 62
     0
370
     0
100
AcDbLine
 10
0.0
 20
0.0
 30
0.0
 11
0.0
 21
2.5
 31
0.0
  0
LINE
  5
2BE
330
2BA
100
AcDbEntity
  8
0
  6
Continuous
 62
     0
370
     0
100
AcDbLine
 10
0.0
 20
0.0
 30
0.0
 11
-2.5
 21
0.0
 31
0.0
  0
LINE
  5
2BF
330
2BA
100
AcDbEntity
  8
0
  6
Continuous
 62
     0
370
     0
100
AcDbLine
 10
0.0
 20
0.0
 30
0.0
 11
0.0
 21
-2.5
 31
0.0
  0
LINE
  5
2C0
330
2BA
100
AcDbEntity
  8
0
  6
Continuous
 62
     0
370
     0
100
AcDbLine
 10
0.0
 20
0.0
 30
0.0
 11
2.5
 21
0.0
 31
0.0
  0
LINE
  5
2C1
330
2BA
100
AcDbEntity
  8
0
  6
Continuous
 62
     0
370
     0
100
AcDbLine
 10
0.0
 20
5.0
 30
0.0
 11
0.0
 21
28.5
 31
0.0
  0
LINE
  5
2C2
330
2BA
100
AcDbEntity
  8
0
  6
Continuous
 62
     0
370
     0
100
AcDbLine
 10
-5.0
 20
0.0
 30
0.0
 11
-28.5
 21
0.0
 31
0.0
  0
LINE
  5
2C3
330
2BA
100
AcDbEntity
  8
0
  6
Continuous
 62
     0
370
     0
100
AcDbLine
 10
0.0
 20
-5.0
 30
0.0
 11
0.0
 21
-28.5
 31
0.0
  0
LINE
  5
2C4
330
2BA
100
AcDbEntity
  8
0
  6
Continuous
 62
     0
370
     0
100
AcDbLine
 10
5.0
 20
0.0
 30
0.0
 11
28.5
 21
0.0
 31
0.0
  0
ENDBLK
  5
2BC
330
2BA
100
AcDbEntity
  8
0
100
AcDbBlockEnd
  0
BLOCK
  5
377
330
376
100
AcDbEntity
  8
0
100
AcDbBlockBegin
  2
SW_CENTERMARKSYMBOL_3
 70
     0
 10
0.0
 20
0.0
 30
0.0
  3
SW_CENTERMARKSYMBOL_3
  1

  0
LINE
  5
379
330
376
100
AcDbEntity
  8
0
  6
Continuous
 62
     0
370
     0
100
AcDbLine
 10
0.0
 20
0.0
 30
0.0
 11
0.0
 21
2.5
 31
0.0
  0
LINE
  5
37A
330
376
100
AcDbEntity
  8
0
  6
Continuous
 62
     0
370
     0
100
AcDbLine
 10
0.0
 20
0.0
 30
0.0
 11
-2.5
 21
0.0
 31
0.0
  0
LINE
  5
37B
330
376
100
AcDbEntity
  8
0
  6
Continuous
 62
     0
370
     0
100
AcDbLine
 10
0.0
 20
0.0
 30
0.0
 11
0.0
 21
-2.5
 31
0.0
  0
LINE
  5
37C
330
376
100
AcDbEntity
  8
0
  6
Continuous
 62
     0
370
     0
100
AcDbLine
 10
0.0
 20
0.0
 30
0.0
 11
2.5
 21
0.0
 31
0.0
  0
LINE
  5
37D
330
376
100
AcDbEntity
  8
0
  6
Continuous
 62
     0
370
     0
100
AcDbLine
 10
0.0
 20
5.0
 30
0.0
 11
0.0
 21
5.75
 31
0.0
  0
LINE
  5
37E
330
376
100
AcDbEntity
  8
0
  6
Continuous
 62
     0
370
     0
100
AcDbLine
 10
-5.0
 20
0.0
 30
0.0
 11
-5.75
 21
0.0
 31
0.0
  0
LINE
  5
37F
330
376
100
AcDbEntity
  8
0
  6
Continuous
 62
     0
370
     0
100
AcDbLine
 10
0.0
 20
-5.0
 30
0.0
 11
0.0
 21
-5.75
 31
0.0
  0
LINE
  5
380
330
376
100
AcDbEntity
  8
0
  6
Continuous
 62
     0
370
     0
100
AcDbLine
 10
5.0
 20
0.0
 30
0.0
 11
5.75
 21
0.0
 31
0.0
  0
ENDBLK
  5
378
330
376
100
AcDbEntity
  8
0
100
AcDbBlockEnd
  0
BLOCK
  5
383
330
382
100
AcDbEntity
  8
0
100
AcDbBlockBegin
  2
SW_CENTERMARKSYMBOL_4
 70
     0
 10
0.0
 20
0.0
 30
0.0
  3
SW_CENTERMARKSYMBOL_4
  1

  0
LINE
  5
385
330
382
100
AcDbEntity
  8
0
  6
Continuous
 62
     0
370
     0
100
AcDbLine
 10
0.0
 20
0.0
 30
0.0
 11
0.0
 21
2.5
 31
0.0
  0
LINE
  5
386
330
382
100
AcDbEntity
  8
0
  6
Continuous
 62
     0
370
     0
100
AcDbLine
 10
0.0
 20
0.0
 30
0.0
 11
-2.5
 21
0.0
 31
0.0
  0
LINE
  5
387
330
382
100
AcDbEntity
  8
0
  6
Continuous
 62
     0
370
     0
100
AcDbLine
 10
0.0
 20
0.0
 30
0.0
 11
0.0
 21
-2.5
 31
0.0
  0
LINE
  5
388
330
382
100
AcDbEntity
  8
0
  6
Continuous
 62
     0
370
     0
100
AcDbLine
 10
0.0
 20
0.0
 30
0.0
 11
2.5
 21
0.0
 31
0.0
  0
LINE
  5
389
330
382
100
AcDbEntity
  8
0
  6
Continuous
 62
     0
370
     0
100
AcDbLine
 10
0.0
 20
5.0
 30
0.0
 11
0.0
 21
5.75
 31
0.0
  0
LINE
  5
38A
330
382
100
AcDbEntity
  8
0
  6
Continuous
 62
     0
370
     0
100
AcDbLine
 10
-5.0
 20
0.0
 30
0.0
 11
-5.75
 21
0.0
 31
0.0
  0
LINE
  5
38B
330
382
100
AcDbEntity
  8
0
  6
Continuous
 62
     0
370
     0
100
AcDbLine
 10
0.0
 20
-5.0
 30
0.0
 11
0.0
 21
-5.75
 31
0.0
  0
LINE
  5
38C
330
382
100
AcDbEntity
  8
0
  6
Continuous
 62
     0
370
     0
100
AcDbLine
 10
5.0
 20
0.0
 30
0.0
 11
5.75
 21
0.0
 31
0.0
  0
ENDBLK
  5
384
330
382
100
AcDbEntity
  8
0
100
AcDbBlockEnd
  0
BLOCK
  5
41A
330
419
100
AcDbEntity
  8
0
100
AcDbBlockBegin
  2
_D_19
 70
     0
 10
0.0
 20
0.0
 30
0.0
  3
_D_19
  1

  0
SOLID
  5
41C
330
419
100
AcDbEntity
  8
0
  6
Continuous
 62
     7
370
    18
100
AcDbTrace
 10
53.63988893
 20
382.6071240914
 30
0.0
 11
50.33788893
 21
383.1151240914
 31
0.0
 12
50.33788893
 22
382.0991240914
 32
0.0
 13
50.33788893
 23
382.0991240914
 33
0.0
  0
SOLID
  5
41D
330
419
100
AcDbEntity
  8
0
  6
Continuous
 62
     7
370
    18
100
AcDbTrace
 10
56.63988893
 20
382.6071240914
 30
0.0
 11
59.94188893
 21
382.0991240914
 31
0.0
 12
59.94188893
 22
383.1151240914
 32
0.0
 13
59.94188893
 23
383.1151240914
 33
0.0
  0
LINE
  5
41E
330
419
100
AcDbEntity
  8
0
  6
Continuous
 62
     7
370
    18
100
AcDbLine
 10
53.63988893
 20
355.7016073803
 30
0.0
 11
53.63988893
 21
383.6071240914
 31
0.0
  0
LINE
  5
41F
330
419
100
AcDbEntity
  8
0
  6
Continuous
 62
     7
370
    18
100
AcDbLine
 10
56.63988893
 20
352.7016073803
 30
0.0
 11
56.63988893
 21
383.6071240914
 31
0.0
  0
LINE
  5
420
330
419
100
AcDbEntity
  8
0
  6
Continuous
 62
     7
370
    18
100
AcDbLine
 10
53.63988893
 20
382.6071240914
 30
0.0
 11
39.9249459078
 21
382.6071240914
 31
0.0
  0
LINE
  5
421
330
419
100
AcDbEntity
  8
0
  6
Continuous
 62
     7
370
    18
100
AcDbLine
 10
53.63988893
 20
382.6071240914
 30
0.0
 11
56.63988893
 21
382.6071240914
 31
0.0
  0
LINE
  5
422
330
419
100
AcDbEntity
  8
0
  6
Continuous
 62
     7
370
    18
100
AcDbLine
 10
56.63988893
 20
382.6071240914
 30
0.0
 11
62.98988893
 21
382.6071240914
 31
0.0
  0
MTEXT
  5
423
330
419
100
AcDbEntity
  8
0
  6
Continuous
 62
     7
370
    18
100
AcDbMText
 10
39.9249459078
 20
387.118861006
 30
0.0
 40
3.5
 41
0.0
 71
     1
 72
     1
  1
3
  7
SLDTEXTSTYLE0
 73
     1
 44
1.0
  0
ENDBLK
  5
41B
330
419
100
AcDbEntity
  8
0
100
AcDbBlockEnd
  0
BLOCK
  5
427
330
426
100
AcDbEntity
  8
0
100
AcDbBlockBegin
  2
_D_20
 70
     0
 10
0.0
 20
0.0
 30
0.0
  3
_D_20
  1

  0
ARC
  5
429
330
426
100
AcDbEntity
  8
0
  6
Continuous
 62
     7
370
    18
100
AcDbCircle
 10
56.63988893
 20
351.7016073803
 30
0.0
 40
27.98738271858574
100
AcDbArc
 50
135.0
 51
180.0
  0
SOLID
  5
42A
330
426
100
AcDbEntity
  8
0
  6
Continuous
 62
     7
370
    18
100
AcDbTrace
 10
36.849820822
 20
371.4916754882
 30
0.0
 11
34.2763299399
 21
369.3613204288
 31
0.0
 12
35.0356732355
 22
368.6862991259
 32
0.0
 13
35.0356732355
 23
368.6862991259
 33
0.0
  0
SOLID
  5
42B
330
426
100
AcDbEntity
  8
0
  6
Continuous
 62
     7
370
    18
100
AcDbTrace
 10
28.6525062114
 20
351.7016073803
 30
0.0
 11
29.3534108005
 21
354.9681040903
 31
0.0
 12
28.3391618662
 22
355.0277287432
 32
0.0
 13
28.3391618662
 23
355.0277287432
 33
0.0
  0
LINE
  5
42C
330
426
100
AcDbEntity
  8
0
  6
Continuous
 62
     7
370
    18
100
AcDbLine
 10
52.9327821488
 20
355.4087141614
 30
0.0
 11
36.1427140408
 21
372.1987822694
 31
0.0
  0
LINE
  5
42D
330
426
100
AcDbEntity
  8
0
  6
Continuous
 62
     7
370
    18
100
AcDbLine
 10
55.63988893
 20
351.7016073803
 30
0.0
 11
27.6525062114
 21
351.7016073803
 31
0.0
  0
MTEXT
  5
42E
330
426
100
AcDbEntity
  8
0
  6
Continuous
 62
     7
370
    18
100
AcDbMText
 10
25.8882336606
 20
362.7883095349
 30
0.0
 40
3.5
 41
0.0
 71
     1
 72
     1
  1
45°
  7
SLDTEXTSTYLE0
 11
0.438467054495948
 21
0.8987472626504336
 31
0.0
 73
     1
 44
1.0
  0
ENDBLK
  5
428
330
426
100
AcDbEntity
  8
0
100
AcDbBlockEnd
  0
BLOCK
  5
431
330
430
100
AcDbEntity
  8
0
100
AcDbBlockBegin
  2
_D_21
 70
     0
 10
0.0
 20
0.0
 30
0.0
  3
_D_21
  1

  0
SOLID
  5
433
330
430
100
AcDbEntity
  8
0
  6
Continuous
 62
     7
370
    18
100
AcDbTrace
 10
115.6545591911
 20
250.9516073803
 30
0.0
 11
116.1625591911
 21
254.2536073803
 31
0.0
 12
115.1465591911
 22
254.2536073803
 32
0.0
 13
115.1465591911
 23
254.2536073803
 33
0.0
  0
SOLID
  5
434
330
430
100
AcDbEntity
  8
0
  6
Continuous
 62
     7
370
    18
100
AcDbTrace
 10
115.6545591911
 20
295.9516073803
 30
0.0
 11
115.1465591911
 21
292.6496073803
 31
0.0
 12
116.1625591911
 22
292.6496073803
 32
0.0
 13
116.1625591911
 23
292.6496073803
 33
0.0
  0
LINE
  5
435
330
430
100
AcDbEntity
  8
0
  6
Continuous
 62
     7
370
    18
100
AcDbLine
 10
91.38988893
 20
250.9516073803
 30
0.0
 11
116.6545591911
 21
250.9516073803
 31
0.0
  0
LINE
  5
436
330
430
100
AcDbEntity
  8
0
  6
Continuous
 62
     7
370
    18
100
AcDbLine
 10
88.1410568298
 20
295.9516073803
 30
0.0
 11
116.6545591911
 21
295.9516073803
 31
0.0
  0
LINE
  5
437
330
430
100
AcDbEntity
  8
0
  6
Continuous
 62
     7
370
    18
100
AcDbLine
 10
115.6545591911
 20
250.9516073803
 30
0.0
 11
115.6545591911
 21
295.9516073803
 31
0.0
  0
MTEXT
  5
438
330
430
100
AcDbEntity
  8
0
  6
Continuous
 62
     7
370
    18
100
AcDbMText
 10
111.1428222765
 20
275.8515308993
 30
0.0
 40
3.5
 41
0.0
 71
     1
 72
     1
  1
45
  7
SLDTEXTSTYLE0
 11
6.123233995736766E-17
 21
1.0
 31
0.0
 73
     1
 44
1.0
  0
ENDBLK
  5
432
330
430
100
AcDbEntity
  8
0
100
AcDbBlockEnd
  0
BLOCK
  5
472
330
471
100
AcDbEntity
  8
0
100
AcDbBlockBegin
  2
_D_22
 70
     0
 10
0.0
 20
0.0
 30
0.0
  3
_D_22
  1

  0
SOLID
  5
474
330
471
100
AcDbEntity
  8
0
  6
Continuous
 62
     7
370
    18
100
AcDbTrace
 10
144.9116473166
 20
139.1978199502
 30
0.0
 11
144.4036473166
 21
135.8958199502
 31
0.0
 12
145.4196473166
 22
135.8958199502
 32
0.0
 13
145.4196473166
 23
135.8958199502
 33
0.0
  0
SOLID
  5
475
330
471
100
AcDbEntity
  8
0
  6
Continuous
 62
     7
370
    18
100
AcDbTrace
 10
144.9116473166
 20
94.1978199502
 30
0.0
 11
145.4196473166
 21
97.4998199502
 31
0.0
 12
144.4036473166
 22
97.4998199502
 32
0.0
 13
144.4036473166
 23
97.4998199502
 33
0.0
  0
LINE
  5
476
330
471
100
AcDbEntity
  8
0
  6
Continuous
 62
     7
370
    18
100
AcDbLine
 10
182.0116473166
 20
139.1978199502
 30
0.0
 11
143.9116473166
 21
139.1978199502
 31
0.0
  0
LINE
  5
477
330
471
100
AcDbEntity
  8
0
  6
Continuous
 62
     7
370
    18
100
AcDbLine
 10
182.0116473166
 20
94.1978199502
 30
0.0
 11
143.9116473166
 21
94.1978199502
 31
0.0
  0
LINE
  5
478
330
471
100
AcDbEntity
  8
0
  6
Continuous
 62
     7
370
    18
100
AcDbLine
 10
144.9116473166
 20
139.1978199502
 30
0.0
 11
144.9116473166
 21
94.1978199502
 31
0.0
  0
MTEXT
  5
479
330
471
100
AcDbEntity
  8
0
  6
Continuous
 62
     7
370
    18
100
AcDbMText
 10
140.399910402
 20
110.0234340879
 30
0.0
 40
3.5
 41
0.0
 71
     1
 72
     1
  1
45
  7
SLDTEXTSTYLE0
 11
-7.044195017643634E-15
 21
1.0
 31
0.0
 73
     1
 44
1.0
  0
ENDBLK
  5
473
330
471
100
AcDbEntity
  8
0
100
AcDbBlockEnd
  0
BLOCK
  5
47C
330
47B
100
AcDbEntity
  8
0
100
AcDbBlockBegin
  2
_D_23
 70
     0
 10
0.0
 20
0.0
 30
0.0
  3
_D_23
  1

  0
SOLID
  5
47E
330
47B
100
AcDbEntity
  8
0
  6
Continuous
 62
     7
370
    18
100
AcDbTrace
 10
183.0116473166
 20
133.5330902006
 30
0.0
 11
186.3136473166
 21
133.0250902006
 31
0.0
 12
186.3136473166
 22
134.0410902006
 32
0.0
 13
186.3136473166
 23
134.0410902006
 33
0.0
  0
SOLID
  5
47F
330
47B
100
AcDbEntity
  8
0
  6
Continuous
 62
     7
370
    18
100
AcDbTrace
 10
223.0116473166
 20
133.5330902006
 30
0.0
 11
219.7096473166
 21
134.0410902006
 31
0.0
 12
219.7096473166
 22
133.0250902006
 32
0.0
 13
219.7096473166
 23
133.0250902006
 33
0.0
  0
LINE
  5
480
330
47B
100
AcDbEntity
  8
0
  6
Continuous
 62
     7
370
    18
100
AcDbLine
 10
183.0116473166
 20
133.5330902006
 30
0.0
 11
223.0116473166
 21
133.5330902006
 31
0.0
  0
LINE
  5
481
330
47B
100
AcDbEntity
  8
0
  6
Continuous
 62
     7
370
    18
100
AcDbLine
 10
223.0116473166
 20
133.5330902006
 30
0.0
 11
274.2370024421
 21
133.5330902006
 31
0.0
  0
MTEXT
  5
482
330
47B
100
AcDbEntity
  8
0
  6
Continuous
 62
     7
370
    18
100
AcDbMText
 10
263.7863421911
 20
138.0448272898
 30
0.0
 40
3.5
 41
0.0
 71
     1
 72
     1
  1
%%c
  7
SLDTEXTSTYLE0
 73
     1
 44
1.0
  0
MTEXT
  5
483
330
47B
100
AcDbEntity
  8
0
  6
Continuous
 62
     7
370
    18
100
AcDbMText
 10
269.0647795894
 20
138.0982994664
 30
0.0
 40
3.5
 41
0.0
 71
     1
 72
     1
  1
40
  7
SLDTEXTSTYLE0
 73
     1
 44
1.0
  0
ENDBLK
  5
47D
330
47B
100
AcDbEntity
  8
0
100
AcDbBlockEnd
  0
BLOCK
  5
486
330
485
100
AcDbEntity
  8
0
100
AcDbBlockBegin
  2
_D_24
 70
     0
 10
0.0
 20
0.0
 30
0.0
  3
_D_24
  1

  0
SOLID
  5
488
330
485
100
AcDbEntity
  8
0
  6
Continuous
 62
     7
370
    18
100
AcDbTrace
 10
120.9116473166
 20
139.1978199502
 30
0.0
 11
121.4196473166
 21
142.4998199502
 31
0.0
 12
120.4036473166
 22
142.4998199502
 32
0.0
 13
120.4036473166
 23
142.4998199502
 33
0.0
  0
SOLID
  5
489
330
485
100
AcDbEntity
  8
0
  6
Continuous
 62
     7
370
    18
100
AcDbTrace
 10
120.9116473166
 20
23.6978199502
 30
0.0
 11
120.4036473166
 21
20.3958199502
 31
0.0
 12
121.4196473166
 22
20.3958199502
 32
0.0
 13
121.4196473166
 23
20.3958199502
 33
0.0
  0
LINE
  5
48A
330
485
100
AcDbEntity
  8
0
  6
Continuous
 62
     7
370
    18
100
AcDbLine
 10
182.0116473166
 20
139.1978199502
 30
0.0
 11
119.9116473166
 21
139.1978199502
 31
0.0
  0
LINE
  5
48B
330
485
100
AcDbEntity
  8
0
  6
Continuous
 62
     7
370
    18
100
AcDbLine
 10
181.0846910162
 20
23.6978199502
 30
0.0
 11
119.9116473166
 21
23.6978199502
 31
0.0
  0
LINE
  5
48C
330
485
100
AcDbEntity
  8
0
  6
Continuous
 62
     7
370
    18
100
AcDbLine
 10
120.9116473166
 20
139.1978199502
 30
0.0
 11
120.9116473166
 21
145.5478199502
 31
0.0
  0
LINE
  5
48D
330
485
100
AcDbEntity
  8
0
  6
Continuous
 62
     7
370
    18
100
AcDbLine
 10
120.9116473166
 20
139.1978199502
 30
0.0
 11
120.9116473166
 21
23.6978199502
 31
0.0
  0
LINE
  5
48E
330
485
100
AcDbEntity
  8
0
  6
Continuous
 62
     7
370
    18
100
AcDbLine
 10
120.9116473166
 20
23.6978199502
 30
0.0
 11
120.9116473166
 21
17.3478199502
 31
0.0
  0
MTEXT
  5
48F
330
485
100
AcDbEntity
  8
0
  6
Continuous
 62
     7
370
    18
100
AcDbMText
 10
116.399910402
 20
83.0106939235
 30
0.0
 40
3.5
 41
0.0
 71
     1
 72
     1
  1
115,50
  7
SLDTEXTSTYLE0
 11
-7.044195017643634E-15
 21
1.0
 31
0.0
 73
     1
 44
1.0
  0
ENDBLK
  5
487
330
485
100
AcDbEntity
  8
0
100
AcDbBlockEnd
  0
BLOCK
  5
492
330
491
100
AcDbEntity
  8
0
100
AcDbBlockBegin
  2
_D_25
 70
     0
 10
0.0
 20
0.0
 30
0.0
  3
_D_25
  1

  0
SOLID
  5
494
330
491
100
AcDbEntity
  8
0
  6
Continuous
 62
     7
370
    18
100
AcDbTrace
 10
182.0846910162
 20
76.6266824944
 30
0.0
 11
185.3866910162
 21
76.1186824944
 31
0.0
 12
185.3866910162
 22
77.1346824944
 32
0.0
 13
185.3866910162
 23
77.1346824944
 33
0.0
  0
SOLID
  5
495
330
491
100
AcDbEntity
  8
0
  6
Continuous
 62
     7
370
    18
100
AcDbTrace
 10
202.0846910162
 20
76.6266824944
 30
0.0
 11
198.7826910162
 21
77.1346824944
 31
0.0
 12
198.7826910162
 22
76.1186824944
 32
0.0
 13
198.7826910162
 23
76.1186824944
 33
0.0
  0
LINE
  5
496
330
491
100
AcDbEntity
  8
0
  6
Continuous
 62
     7
370
    18
100
AcDbLine
 10
182.0846910162
 20
76.6266824944
 30
0.0
 11
148.3255361231
 21
76.6266824944
 31
0.0
  0
LINE
  5
497
330
491
100
AcDbEntity
  8
0
  6
Continuous
 62
     7
370
    18
100
AcDbLine
 10
182.0846910162
 20
76.6266824944
 30
0.0
 11
202.0846910162
 21
76.6266824944
 31
0.0
  0
MTEXT
  5
498
330
491
100
AcDbEntity
  8
0
  6
Continuous
 62
     7
370
    18
100
AcDbMText
 10
148.3255361231
 20
81.138419409
 30
0.0
 40
3.5
 41
0.0
 71
     1
 72
     1
  1
20
  7
SLDTEXTSTYLE0
 73
     1
 44
1.0
  0
ENDBLK
  5
493
330
491
100
AcDbEntity
  8
0
100
AcDbBlockEnd
  0
BLOCK
  5
49B
330
49A
100
AcDbEntity
  8
0
100
AcDbBlockBegin
  2
_D_26
 70
     0
 10
0.0
 20
0.0
 30
0.0
  3
_D_26
  1

  0
SOLID
  5
49D
330
49A
100
AcDbEntity
  8
0
  6
Continuous
 62
     7
370
    18
100
AcDbTrace
 10
219.5308875778
 20
55.5097474191
 30
0.0
 11
216.2288875778
 21
56.0177474191
 31
0.0
 12
216.2288875778
 22
55.0017474191
 32
0.0
 13
216.2288875778
 23
55.0017474191
 33
0.0
  0
SOLID
  5
49E
330
49A
100
AcDbEntity
  8
0
  6
Continuous
 62
     7
370
    18
100
AcDbTrace
 10
182.0846910162
 20
55.5097474191
 30
0.0
 11
185.3866910162
 21
55.0017474191
 31
0.0
 12
185.3866910162
 22
56.0177474191
 32
0.0
 13
185.3866910162
 23
56.0177474191
 33
0.0
  0
LINE
  5
49F
330
49A
100
AcDbEntity
  8
0
  6
Continuous
 62
     7
370
    18
100
AcDbLine
 10
219.5308875778
 20
55.5097474191
 30
0.0
 11
182.0846910162
 21
55.5097474191
 31
0.0
  0
LINE
  5
4A0
330
49A
100
AcDbEntity
  8
0
  6
Continuous
 62
     7
370
    18
100
AcDbLine
 10
182.0846910162
 20
55.5097474191
 30
0.0
 11
145.092897073
 21
55.5097474191
 31
0.0
  0
MTEXT
  5
4A1
330
49A
100
AcDbEntity
  8
0
  6
Continuous
 62
     7
370
    18
100
AcDbMText
 10
145.092897073
 20
60.0214843337
 30
0.0
 40
3.5
 41
0.0
 71
     1
 72
     1
  1
37,45
  7
SLDTEXTSTYLE0
 73
     1
 44
1.0
  0
ENDBLK
  5
49C
330
49A
100
AcDbEntity
  8
0
100
AcDbBlockEnd
  0
BLOCK
  5
4A4
330
4A3
100
AcDbEntity
  8
0
100
AcDbBlockBegin
  2
SW_CENTERMARKSYMBOL_5
 70
     0
 10
0.0
 20
0.0
 30
0.0
  3
SW_CENTERMARKSYMBOL_5
  1

  0
LINE
  5
4A6
330
4A3
100
AcDbEntity
  8
0
  6
Continuous
 62
     0
370
     0
100
AcDbLine
 10
0.0
 20
0.0
 30
0.0
 11
0.0
 21
2.5
 31
0.0
  0
LINE
  5
4A7
330
4A3
100
AcDbEntity
  8
0
  6
Continuous
 62
     0
370
     0
100
AcDbLine
 10
0.0
 20
0.0
 30
0.0
 11
-2.5
 21
0.0
 31
0.0
  0
LINE
  5
4A8
330
4A3
100
AcDbEntity
  8
0
  6
Continuous
 62
     0
370
     0
100
AcDbLine
 10
0.0
 20
0.0
 30
0.0
 11
0.0
 21
-2.5
 31
0.0
  0
LINE
  5
4A9
330
4A3
100
AcDbEntity
  8
0
  6
Continuous
 62
     0
370
     0
100
AcDbLine
 10
0.0
 20
0.0
 30
0.0
 11
2.5
 21
0.0
 31
0.0
  0
LINE
  5
4AA
330
4A3
100
AcDbEntity
  8
0
  6
Continuous
 62
     0
370
     0
100
AcDbLine
 10
0.0
 20
5.0
 30
0.0
 11
0.0
 21
5.75
 31
0.0
  0
LINE
  5
4AB
330
4A3
100
AcDbEntity
  8
0
  6
Continuous
 62
     0
370
     0
100
AcDbLine
 10
-5.0
 20
0.0
 30
0.0
 11
-5.75
 21
0.0
 31
0.0
  0
LINE
  5
4AC
330
4A3
100
AcDbEntity
  8
0
  6
Continuous
 62
     0
370
     0
100
AcDbLine
 10
0.0
 20
-5.0
 30
0.0
 11
0.0
 21
-5.75
 31
0.0
  0
LINE
  5
4AD
330
4A3
100
AcDbEntity
  8
0
  6
Continuous
 62
     0
370
     0
100
AcDbLine
 10
5.0
 20
0.0
 30
0.0
 11
5.75
 21
0.0
 31
0.0
  0
ENDBLK
  5
4A5
330
4A3
100
AcDbEntity
  8
0
100
AcDbBlockEnd
  0
BLOCK
  5
4B0
330
4AF
100
AcDbEntity
  8
0
100
AcDbBlockBegin
  2
SW_CENTERMARKSYMBOL_6
 70
     0
 10
0.0
 20
0.0
 30
0.0
  3
SW_CENTERMARKSYMBOL_6
  1

  0
LINE
  5
4B2
330
4AF
100
AcDbEntity
  8
0
  6
Continuous
 62
     0
370
     0
100
AcDbLine
 10
0.0
 20
0.0
 30
0.0
 11
0.0
 21
2.5
 31
0.0
  0
LINE
  5
4B3
330
4AF
100
AcDbEntity
  8
0
  6
Continuous
 62
     0
370
     0
100
AcDbLine
 10
0.0
 20
0.0
 30
0.0
 11
-2.5
 21
0.0
 31
0.0
  0
LINE
  5
4B4
330
4AF
100
AcDbEntity
  8
0
  6
Continuous
 62
     0
370
     0
100
AcDbLine
 10
0.0
 20
0.0
 30
0.0
 11
0.0
 21
-2.5
 31
0.0
  0
LINE
  5
4B5
330
4AF
100
AcDbEntity
  8
0
  6
Continuous
 62
     0
370
     0
100
AcDbLine
 10
0.0
 20
0.0
 30
0.0
 11
2.5
 21
0.0
 31
0.0
  0
LINE
  5
4B6
330
4AF
100
AcDbEntity
  8
0
  6
Continuous
 62
     0
370
     0
100
AcDbLine
 10
0.0
 20
5.0
 30
0.0
 11
0.0
 21
5.75
 31
0.0
  0
LINE
  5
4B7
330
4AF
100
AcDbEntity
  8
0
  6
Continuous
 62
     0
370
     0
100
AcDbLine
 10
-5.0
 20
0.0
 30
0.0
 11
-5.75
 21
0.0
 31
0.0
  0
LINE
  5
4B8
330
4AF
100
AcDbEntity
  8
0
  6
Continuous
 62
     0
370
     0
100
AcDbLine
 10
0.0
 20
-5.0
 30
0.0
 11
0.0
 21
-5.75
 31
0.0
  0
LINE
  5
4B9
330
4AF
100
AcDbEntity
  8
0
  6
Continuous
 62
     0
370
     0
100
AcDbLine
 10
5.0
 20
0.0
 30
0.0
 11
5.75
 21
0.0
 31
0.0
  0
ENDBLK
  5
4B1
330
4AF
100
AcDbEntity
  8
0
100
AcDbBlockEnd
  0
ENDSEC
  0
SECTION
  2
ENTITIES
  0
LINE
  5
74
330
1F
100
AcDbEntity
  8
0
  6
Continuous
 62
     7
370
    18
100
AcDbLine
 10
506.045423658
 20
63.8110104148
 30
0.0
 11
506.045423658
 21
61.8816780612
 31
0.0
  0
LINE
  5
75
330
1F
100
AcDbEntity
  8
0
  6
Continuous
 62
     7
370
    18
100
AcDbLine
 10
506.045423658
 20
61.8816780612
 30
0.0
 11
509.4217552768
 21
60.7416180341
 31
0.0
  0
LINE
  5
76
330
1F
100
AcDbEntity
  8
0
  6
Continuous
 62
     7
370
    18
100
AcDbLine
 10
509.4217552768
 20
60.7416180341
 30
0.0
 11
509.4217552768
 21
64.7756765916
 31
0.0
  0
LINE
  5
77
330
1F
100
AcDbEntity
  8
0
  6
Continuous
 62
     7
370
    18
100
AcDbLine
 10
509.4217552768
 20
64.7756765916
 30
0.0
 11
506.045423658
 21
63.8110104148
 31
0.0
  0
LINE
  5
78
330
1F
100
AcDbEntity
  8
0
  6
CENTERX2
 62
     7
370
    18
100
AcDbLine
 10
504.37918208
 20
62.7586473129
 30
0.0
 11
510.7372091542
 21
62.7586473129
 31
0.0
  0
LINE
  5
79
330
1F
100
AcDbEntity
  8
0
  6
CENTERX2
 62
     7
370
    18
100
AcDbLine
 10
512.9734807459
 20
62.7586473129
 30
0.0
 11
518.3668416434
 21
62.7586473129
 31
0.0
  0
LINE
  5
7A
330
1F
100
AcDbEntity
  8
0
  6
CENTERX2
 62
     7
370
    18
100
AcDbLine
 10
515.6701611947
 20
65.3457066052
 30
0.0
 11
515.6701611947
 21
60.1715880206
 31
0.0
  0
LINE
  5
7B
330
1F
100
AcDbEntity
  8
0
  6
Continuous
 62
     7
370
    50
100
AcDbLine
 10
521.7623326247
 20
59.7972409843
 30
0.0
 11
521.7623326247
 21
66.1722409843
 31
0.0
  0
LINE
  5
7C
330
1F
100
AcDbEntity
  8
0
  6
Continuous
 62
     7
370
    35
100
AcDbLine
 10
20.0
 20
60.0
 30
0.0
 11
15.0
 21
60.0
 31
0.0
  0
LINE
  5
7D
330
1F
100
AcDbEntity
  8
0
  6
Continuous
 62
     7
370
    35
100
AcDbLine
 10
584.0
 20
60.0
 30
0.0
 11
589.0
 21
60.0
 31
0.0
  0
LINE
  5
7E
330
1F
100
AcDbEntity
  8
0
  6
Continuous
 62
     7
370
    35
100
AcDbLine
 10
20.0
 20
110.0
 30
0.0
 11
15.0
 21
110.0
 31
0.0
  0
LINE
  5
7F
330
1F
100
AcDbEntity
  8
0
  6
Continuous
 62
     7
370
    35
100
AcDbLine
 10
584.0
 20
110.0
 30
0.0
 11
589.0
 21
110.0
 31
0.0
  0
LINE
  5
80
330
1F
100
AcDbEntity
  8
0
  6
Continuous
 62
     7
370
    35
100
AcDbLine
 10
20.0
 20
160.0
 30
0.0
 11
15.0
 21
160.0
 31
0.0
  0
LINE
  5
81
330
1F
100
AcDbEntity
  8
0
  6
Continuous
 62
     7
370
    35
100
AcDbLine
 10
584.0
 20
160.0
 30
0.0
 11
589.0
 21
160.0
 31
0.0
  0
LINE
  5
82
330
1F
100
AcDbEntity
  8
0
  6
Continuous
 62
     7
370
    35
100
AcDbLine
 10
20.0
 20
210.0
 30
0.0
 11
15.0
 21
210.0
 31
0.0
  0
LINE
  5
83
330
1F
100
AcDbEntity
  8
0
  6
Continuous
 62
     7
370
    35
100
AcDbLine
 10
584.0
 20
210.0
 30
0.0
 11
589.0
 21
210.0
 31
0.0
  0
LINE
  5
84
330
1F
100
AcDbEntity
  8
0
  6
Continuous
 62
     7
370
    35
100
AcDbLine
 10
20.0
 20
260.0
 30
0.0
 11
15.0
 21
260.0
 31
0.0
  0
LINE
  5
85
330
1F
100
AcDbEntity
  8
0
  6
Continuous
 62
     7
370
    35
100
AcDbLine
 10
584.0
 20
260.0
 30
0.0
 11
589.0
 21
260.0
 31
0.0
  0
LINE
  5
86
330
1F
100
AcDbEntity
  8
0
  6
Continuous
 62
     7
370
    35
100
AcDbLine
 10
20.0
 20
310.0
 30
0.0
 11
15.0
 21
310.0
 31
0.0
  0
LINE
  5
87
330
1F
100
AcDbEntity
  8
0
  6
Continuous
 62
     7
370
    35
100
AcDbLine
 10
584.0
 20
310.0
 30
0.0
 11
589.0
 21
310.0
 31
0.0
  0
LINE
  5
88
330
1F
100
AcDbEntity
  8
0
  6
Continuous
 62
     7
370
    35
100
AcDbLine
 10
20.0
 20
360.0
 30
0.0
 11
15.0
 21
360.0
 31
0.0
  0
LINE
  5
89
330
1F
100
AcDbEntity
  8
0
  6
Continuous
 62
     7
370
    35
100
AcDbLine
 10
584.0
 20
360.0
 30
0.0
 11
589.0
 21
360.0
 31
0.0
  0
LINE
  5
8A
330
1F
100
AcDbEntity
  8
0
  6
Continuous
 62
     7
370
    35
100
AcDbLine
 10
52.0
 20
410.0
 30
0.0
 11
52.0
 21
415.0
 31
0.0
  0
LINE
  5
8B
330
1F
100
AcDbEntity
  8
0
  6
Continuous
 62
     7
370
    35
100
AcDbLine
 10
52.0
 20
10.0
 30
0.0
 11
52.0
 21
5.0
 31
0.0
  0
LINE
  5
8C
330
1F
100
AcDbEntity
  8
0
  6
Continuous
 62
     7
370
    35
100
AcDbLine
 10
102.0
 20
410.0
 30
0.0
 11
102.0
 21
415.0
 31
0.0
  0
LINE
  5
8D
330
1F
100
AcDbEntity
  8
0
  6
Continuous
 62
     7
370
    50
100
AcDbLine
 10
457.9256896205
 20
15.2176620386
 30
0.0
 11
583.3256896205
 21
15.1104259912
 31
0.0
  0
LINE
  5
8E
330
1F
100
AcDbEntity
  8
0
  6
Continuous
 62
     7
370
    50
100
AcDbLine
 10
583.3256896205
 20
49.1104259912
 30
0.0
 11
457.9256896205
 21
49.1104259912
 31
0.0
  0
LINE
  5
8F
330
1F
100
AcDbEntity
  8
0
  6
Continuous
 62
     7
370
    50
100
AcDbLine
 10
457.9256896205
 20
66.1104259912
 30
0.0
 11
583.3256896205
 21
66.1104259912
 31
0.0
  0
LINE
  5
90
330
1F
100
AcDbEntity
  8
0
  6
Continuous
 62
     7
370
    50
100
AcDbLine
 10
457.9256896205
 20
10.8604259912
 30
0.0
 11
457.9256896205
 21
27.8604259912
 31
0.0
  0
LINE
  5
91
330
1F
100
AcDbEntity
  8
0
  6
Continuous
 62
     7
370
    50
100
AcDbLine
 10
502.1256896205
 20
43.8789075439
 30
0.0
 11
457.9256896205
 21
43.8789075439
 31
0.0
  0
LINE
  5
92
330
1F
100
AcDbEntity
  8
0
  6
Continuous
 62
     7
370
    50
100
AcDbLine
 10
457.9256896205
 20
27.8604259912
 30
0.0
 11
457.9256896205
 21
66.1104259912
 31
0.0
  0
LINE
  5
93
330
1F
100
AcDbEntity
  8
0
  6
Continuous
 62
     7
370
    50
100
AcDbLine
 10
489.3259692552
 20
66.1104259912
 30
0.0
 11
489.3259692552
 21
49.1104259912
 31
0.0
  0
LINE
  5
94
330
1F
100
AcDbEntity
  8
0
  6
Continuous
 62
     7
370
    50
100
AcDbLine
 10
457.9256896205
 20
27.8604259912
 30
0.0
 11
583.3256896205
 21
27.8604259912
 31
0.0
  0
LINE
  5
95
330
1F
100
AcDbEntity
  8
0
  6
Continuous
 62
     7
370
    50
100
AcDbLine
 10
502.1256896205
 20
66.1104259912
 30
0.0
 11
502.1256896205
 21
10.8604259912
 31
0.0
  0
LINE
  5
96
330
1F
100
AcDbEntity
  8
0
  6
Continuous
 62
     7
370
    50
100
AcDbLine
 10
546.3256896205
 20
10.8604259912
 30
0.0
 11
546.3256896205
 21
15.1104259912
 31
0.0
  0
LINE
  5
97
330
1F
100
AcDbEntity
  8
0
  6
Continuous
 62
     7
370
    50
100
AcDbLine
 10
554.1256896205
 20
59.7354259912
 30
0.0
 11
554.1256896205
 21
66.1104259912
 31
0.0
  0
LINE
  5
98
330
1F
100
AcDbEntity
  8
0
  6
Continuous
 62
     7
370
    50
100
AcDbLine
 10
570.3256896205
 20
15.1104259912
 30
0.0
 11
570.3256896205
 21
27.8604259912
 31
0.0
  0
LINE
  5
99
330
1F
100
AcDbEntity
  8
0
  6
Continuous
 62
     7
370
    50
100
AcDbLine
 10
583.3256896205
 20
59.7354259912
 30
0.0
 11
502.1256896205
 21
59.7354259912
 31
0.0
  0
LINE
  5
9A
330
1F
100
AcDbEntity
  8
0
  6
Continuous
 62
     7
370
    50
100
AcDbLine
 10
583.3256896205
 20
19.3604259912
 30
0.0
 11
570.3256896205
 21
19.3604259912
 31
0.0
  0
LINE
  5
9B
330
1F
100
AcDbEntity
  8
0
  6
Continuous
 62
     7
370
    50
100
AcDbLine
 10
516.0476902944
 20
10.9676620386
 30
0.0
 11
516.0476902944
 21
15.2176620386
 31
0.0
  0
LINE
  5
9C
330
1F
100
AcDbEntity
  8
0
  6
Continuous
 62
     7
370
    35
100
AcDbLine
 10
102.0
 20
10.0
 30
0.0
 11
102.0
 21
5.0
 31
0.0
  0
LINE
  5
9D
330
1F
100
AcDbEntity
  8
0
  6
Continuous
 62
     7
370
    35
100
AcDbLine
 10
152.0
 20
410.0
 30
0.0
 11
152.0
 21
415.0
 31
0.0
  0
LINE
  5
9E
330
1F
100
AcDbEntity
  8
0
  6
Continuous
 62
     7
370
    35
100
AcDbLine
 10
152.0
 20
10.0
 30
0.0
 11
152.0
 21
5.0
 31
0.0
  0
LINE
  5
9F
330
1F
100
AcDbEntity
  8
0
  6
Continuous
 62
     7
370
    35
100
AcDbLine
 10
202.0
 20
410.0
 30
0.0
 11
202.0
 21
415.0
 31
0.0
  0
LINE
  5
A0
330
1F
100
AcDbEntity
  8
0
  6
Continuous
 62
     7
370
    35
100
AcDbLine
 10
202.0
 20
10.0
 30
0.0
 11
202.0
 21
5.0
 31
0.0
  0
LINE
  5
A1
330
1F
100
AcDbEntity
  8
0
  6
Continuous
 62
     7
370
    35
100
AcDbLine
 10
252.0
 20
410.0
 30
0.0
 11
252.0
 21
415.0
 31
0.0
  0
LINE
  5
A2
330
1F
100
AcDbEntity
  8
0
  6
Continuous
 62
     7
370
    35
100
AcDbLine
 10
252.0
 20
10.0
 30
0.0
 11
252.0
 21
5.0
 31
0.0
  0
LINE
  5
A3
330
1F
100
AcDbEntity
  8
0
  6
Continuous
 62
     7
370
    35
100
AcDbLine
 10
302.0
 20
410.0
 30
0.0
 11
302.0
 21
415.0
 31
0.0
  0
LINE
  5
A4
330
1F
100
AcDbEntity
  8
0
  6
Continuous
 62
     7
370
    35
100
AcDbLine
 10
302.0
 20
10.0
 30
0.0
 11
302.0
 21
5.0
 31
0.0
  0
LINE
  5
A5
330
1F
100
AcDbEntity
  8
0
  6
Continuous
 62
     7
370
    35
100
AcDbLine
 10
352.0
 20
410.0
 30
0.0
 11
352.0
 21
415.0
 31
0.0
  0
LINE
  5
A6
330
1F
100
AcDbEntity
  8
0
  6
Continuous
 62
     7
370
    35
100
AcDbLine
 10
352.0
 20
10.0
 30
0.0
 11
352.0
 21
5.0
 31
0.0
  0
LINE
  5
A7
330
1F
100
AcDbEntity
  8
0
  6
Continuous
 62
     7
370
    35
100
AcDbLine
 10
402.0
 20
410.0
 30
0.0
 11
402.0
 21
415.0
 31
0.0
  0
LINE
  5
A8
330
1F
100
AcDbEntity
  8
0
  6
Continuous
 62
     7
370
    35
100
AcDbLine
 10
402.0
 20
10.0
 30
0.0
 11
402.0
 21
5.0
 31
0.0
  0
LINE
  5
A9
330
1F
100
AcDbEntity
  8
0
  6
Continuous
 62
     7
370
    35
100
AcDbLine
 10
452.0
 20
410.0
 30
0.0
 11
452.0
 21
415.0
 31
0.0
  0
LINE
  5
AA
330
1F
100
AcDbEntity
  8
0
  6
Continuous
 62
     7
370
    35
100
AcDbLine
 10
452.0
 20
10.0
 30
0.0
 11
452.0
 21
5.0
 31
0.0
  0
LINE
  5
AB
330
1F
100
AcDbEntity
  8
0
  6
Continuous
 62
     7
370
    35
100
AcDbLine
 10
502.0
 20
410.0
 30
0.0
 11
502.0
 21
415.0
 31
0.0
  0
LINE
  5
AC
330
1F
100
AcDbEntity
  8
0
  6
Continuous
 62
     7
370
    35
100
AcDbLine
 10
502.0
 20
10.0
 30
0.0
 11
502.0
 21
5.0
 31
0.0
  0
LINE
  5
AD
330
1F
100
AcDbEntity
  8
0
  6
Continuous
 62
     7
370
    35
100
AcDbLine
 10
552.0
 20
410.0
 30
0.0
 11
552.0
 21
415.0
 31
0.0
  0
LINE
  5
AE
330
1F
100
AcDbEntity
  8
0
  6
Continuous
 62
     7
370
    35
100
AcDbLine
 10
552.0
 20
10.0
 30
0.0
 11
552.0
 21
5.0
 31
0.0
  0
LINE
  5
AF
330
1F
100
AcDbEntity
  8
0
  6
Continuous
 62
     7
370
    70
100
AcDbLine
 10
20.0
 20
10.0
 30
0.0
 11
20.0
 21
410.0
 31
0.0
  0
LINE
  5
B0
330
1F
100
AcDbEntity
  8
0
  6
Continuous
 62
     7
370
    70
100
AcDbLine
 10
20.0
 20
410.0
 30
0.0
 11
584.0
 21
410.0
 31
0.0
  0
LINE
  5
B1
330
1F
100
AcDbEntity
  8
0
  6
Continuous
 62
     7
370
    70
100
AcDbLine
 10
584.0
 20
410.0
 30
0.0
 11
584.0
 21
10.0
 31
0.0
  0
LINE
  5
B2
330
1F
100
AcDbEntity
  8
0
  6
Continuous
 62
     7
370
    70
100
AcDbLine
 10
584.0
 20
10.0
 30
0.0
 11
20.0
 21
10.0
 31
0.0
  0
LINE
  5
B3
330
1F
100
AcDbEntity
  8
0
  6
Continuous
 62
     7
370
    70
100
AcDbLine
 10
15.0
 20
5.0
 30
0.0
 11
15.0
 21
415.0
 31
0.0
  0
LINE
  5
B4
330
1F
100
AcDbEntity
  8
0
  6
Continuous
 62
     7
370
    70
100
AcDbLine
 10
15.0
 20
415.0
 30
0.0
 11
589.0
 21
415.0
 31
0.0
  0
LINE
  5
B5
330
1F
100
AcDbEntity
  8
0
  6
Continuous
 62
     7
370
    70
100
AcDbLine
 10
589.0
 20
415.0
 30
0.0
 11
589.0
 21
5.0
 31
0.0
  0
LINE
  5
B6
330
1F
100
AcDbEntity
  8
0
  6
Continuous
 62
     7
370
    70
100
AcDbLine
 10
589.0
 20
5.0
 30
0.0
 11
15.0
 21
5.0
 31
0.0
  0
LINE
  5
B7
330
1F
100
AcDbEntity
  8
0
  6
Continuous
 62
     7
370
    35
100
AcDbLine
 10
14.999
 20
210.0
 30
0.0
 11
25.001
 21
210.0
 31
0.0
  0
LINE
  5
B8
330
1F
100
AcDbEntity
  8
0
  6
Continuous
 62
     7
370
    35
100
AcDbLine
 10
302.0
 20
415.001
 30
0.0
 11
302.0
 21
404.999
 31
0.0
  0
LINE
  5
B9
330
1F
100
AcDbEntity
  8
0
  6
Continuous
 62
     7
370
    35
100
AcDbLine
 10
589.001
 20
210.0
 30
0.0
 11
578.999
 21
210.0
 31
0.0
  0
LINE
  5
BA
330
1F
100
AcDbEntity
  8
0
  6
Continuous
 62
     7
370
    35
100
AcDbLine
 10
302.0
 20
4.999
 30
0.0
 11
302.0
 21
15.001
 31
0.0
  0
CIRCLE
  5
BB
330
1F
100
AcDbEntity
  8
0
  6
Continuous
 62
     7
370
    18
100
AcDbCircle
 10
515.6701611947
 20
62.7586473129
 30
0.0
 40
2.017029278742118
  0
CIRCLE
  5
BC
330
1F
100
AcDbEntity
  8
0
  6
Continuous
 62
     7
370
    18
100
AcDbCircle
 10
515.6701611947
 20
62.7586473129
 30
0.0
 40
1.118718805257745
  0
MTEXT
  5
BE
330
1F
100
AcDbEntity
  8
0
  6
Continuous
 62
     7
370
     0
100
AcDbMText
 10
503.9507134444
 20
57.7490428135
 30
0.0
 40
1.5
 41
0.0
 71
     1
 72
     1
  1
Entreprise
  7
SLDTEXTSTYLE0
 73
     1
 44
1.0
  0
MTEXT
  5
BF
330
1F
100
AcDbEntity
  8
0
  6
Continuous
 62
     7
370
     0
100
AcDbMText
 10
484.936423133
 20
47.205715583
 30
0.0
 40
2.1166666667
 41
0.0
 71
     1
 72
     1
  1
2
  7
SLDTEXTSTYLE0
 73
     1
 44
1.0
  0
MTEXT
  5
C0
330
1F
100
AcDbEntity
  8
0
  6
Continuous
 62
     7
370
     0
100
AcDbMText
 10
459.7882723419
 20
47.1955634832
 30
0.0
 40
1.5
 41
0.0
 71
     1
 72
     1
  1
Quantité de pièce :
  7
SLDTEXTSTYLE0
 73
     1
 44
1.0
  0
INSERT
  5
CA
330
1F
100
AcDbEntity
  8
0
  6
Continuous
 62
     7
370
     0
100
AcDbBlockReference
  2
SW_NOTE_0
 10
459.2437036703
 20
62.6067534378
 30
0.0
  0
MTEXT
  5
CB
330
1F
100
AcDbEntity
  8
0
  6
Continuous
 62
     7
370
     0
100
AcDbMText
 10
526.0212770611
 20
14.1078227182
 30
0.0
 40
2.1166666667
 41
0.0
 71
     1
 72
     1
  1
06/06/2021
  7
SLDTEXTSTYLE0
 73
     1
 44
1.0
  0
MTEXT
  5
CC
330
1F
100
AcDbEntity
  8
0
  6
Continuous
 62
     7
370
     0
100
AcDbMText
 10
517.4237287036
 20
13.5194715365
 30
0.0
 40
1.5
 41
0.0
 71
     1
 72
     1
  1
DATE :
  7
SLDTEXTSTYLE0
 73
     1
 44
1.0
  0
MTEXT
  5
CD
330
1F
100
AcDbEntity
  8
0
  6
Continuous
 62
     7
370
     0
100
AcDbMText
 10
468.4090989602
 20
14.1584631567
 30
0.0
 40
2.1166666667
 41
0.0
 71
     1
 72
     1
  1
259.44
  7
SLDTEXTSTYLE0
 73
     1
 44
1.0
  0
MTEXT
  5
CE
330
1F
100
AcDbEntity
  8
0
  6
Continuous
 62
     7
370
     0
100
AcDbMText
 10
575.4427206982
 20
63.3638652771
 30
0.0
 40
1.905
 41
0.0
 71
     2
 72
     1
  1
29/06/2021
  7
SLDTEXTSTYLE0
 73
     1
 44
1.0
  0
MTEXT
  5
CF
330
1F
100
AcDbEntity
  8
0
  6
Continuous
 62
     7
370
     0
100
AcDbMText
 10
538.5761842537
 20
24.2262952293
 30
0.0
 40
6.35
 41
0.0
 71
     2
 72
     1
  1
pied modif
  7
SLDTEXTSTYLE0
 73
     1
 44
1.0
  0
MTEXT
  5
D0
330
1F
100
AcDbEntity
  8
0
  6
Continuous
 62
     7
370
     0
100
AcDbMText
 10
459.2156524897
 20
13.5686961656
 30
0.0
 40
1.4986
 41
0.0
 71
     1
 72
     1
  1
MASSE:
  7
SLDTEXTSTYLE0
 73
     1
 44
1.0
  0
MTEXT
  5
D1
330
1F
100
AcDbEntity
  8
0
  6
Continuous
 62
     7
370
     0
100
AcDbMText
 10
480.6839524418
 20
22.1049500698
 30
0.0
 40
2.38125
 41
0.0
 71
     2
 72
     1
  1
Aluminium
  7
SLDTEXTSTYLE0
 73
     1
 44
1.0
  0
MTEXT
  5
D2
330
1F
100
AcDbEntity
  8
0
  6
Continuous
 62
     7
370
     0
100
AcDbMText
 10
574.4689977962
 20
25.025772831
 30
0.0
 40
2.9104166667
 41
0.0
 71
     1
 72
     1
  1
A2
  7
SLDTEXTSTYLE0
 73
     1
 44
1.0
  0
MTEXT
  5
D3
330
1F
100
AcDbEntity
  8
0
  6
Continuous
 62
     7
370
     0
100
AcDbMText
 10
548.0761357894
 20
13.5194715365
 30
0.0
 40
1.5
 41
0.0
 71
     1
 72
     1
  1
FEUILLE: 1 sur 1
  7
SLDTEXTSTYLE0
 73
     1
 44
1.0
  0
MTEXT
  5
D4
330
1F
100
AcDbEntity
  8
0
  6
Continuous
 62
     7
370
     0
100
AcDbMText
 10
503.671807479
 20
13.5194715365
 30
0.0
 40
1.5
 41
0.0
 71
     1
 72
     1
  1
ECHELLE:1:1
  7
SLDTEXTSTYLE0
 73
     1
 44
1.0
  0
MTEXT
  5
D5
330
1F
100
AcDbEntity
  8
0
  6
Continuous
 62
     7
370
     0
100
AcDbMText
 10
503.2285784929
 20
26.6054405513
 30
0.0
 40
1.5
 41
0.0
 71
     1
 72
     1
  1
No. DE PLAN
  7
SLDTEXTSTYLE0
 73
     1
 44
1.0
  0
MTEXT
  5
D6
330
1F
100
AcDbEntity
  8
0
  6
Continuous
 62
     7
370
     0
100
AcDbMText
 10
503.6261376405
 20
47.1955634832
 30
0.0
 40
1.5
 41
0.0
 71
     1
 72
     1
  1
TITRE:
  7
SLDTEXTSTYLE0
 73
     1
 44
1.0
  0
MTEXT
  5
D7
330
1F
100
AcDbEntity
  8
0
  6
Continuous
 62
     7
370
     0
100
AcDbMText
 10
556.9254230609
 20
62.9542929425
 30
0.0
 40
1.5
 41
0.0
 71
     1
 72
     1
  1
REVISION
  7
SLDTEXTSTYLE0
 73
     1
 44
1.0
  0
MTEXT
  5
D8
330
1F
100
AcDbEntity
  8
0
  6
Continuous
 62
     7
370
     0
100
AcDbMText
 10
524.7010337186
 20
62.9542929425
 30
0.0
 40
1.5
 41
0.0
 71
     1
 72
     1
  1
NE PAS CHANGER L'ECHELLE
  7
SLDTEXTSTYLE0
 73
     1
 44
1.0
  0
MTEXT
  5
D9
330
1F
100
AcDbEntity
  8
0
  6
Continuous
 62
     7
370
     0
100
AcDbMText
 10
459.2437036703
 20
26.6054405513
 30
0.0
 40
1.5
 41
0.0
 71
     1
 72
     1
  1
MATERIAU:
  7
SLDTEXTSTYLE0
 73
     1
 44
1.0
  0
INSERT
  5
DF
330
1F
100
AcDbEntity
  8
0
  6
Continuous
 62
     7
370
     0
100
AcDbBlockReference
  2
SW_NOTE_1
 10
490.0565064879
 20
60.8154410921
 30
0.0
  0
MTEXT
  5
E0
330
1F
100
AcDbEntity
  8
0
  6
Continuous
 62
     7
370
     0
100
AcDbMText
 10
460.1865425142
 20
42.302662402
 30
0.0
 40
1.5
 41
0.0
 71
     1
 72
     1
  1
FINITION:
  7
SLDTEXTSTYLE0
 73
     1
 44
1.0
  0
MTEXT
  5
E1
330
1F
100
AcDbEntity
  8
0
  6
Continuous
 62
     7
370
     0
100
AcDbMText
 10
17.3396881428
 20
37.56015409
 30
0.0
 40
3.96875
 41
0.0
 71
     2
 72
     1
  1
A
  7
SLDTEXTSTYLE0
 73
     1
 44
1.0
  0
MTEXT
  5
E2
330
1F
100
AcDbEntity
  8
0
  6
Continuous
 62
     7
370
     0
100
AcDbMText
 10
586.3396881428
 20
37.56015409
 30
0.0
 40
3.96875
 41
0.0
 71
     2
 72
     1
  1
A
  7
SLDTEXTSTYLE0
 73
     1
 44
1.0
  0
MTEXT
  5
E3
330
1F
100
AcDbEntity
  8
0
  6
Continuous
 62
     7
370
     0
100
AcDbMText
 10
17.4706018241
 20
87.56015409
 30
0.0
 40
3.96875
 41
0.0
 71
     2
 72
     1
  1
B
  7
SLDTEXTSTYLE0
 73
     1
 44
1.0
  0
MTEXT
  5
E4
330
1F
100
AcDbEntity
  8
0
  6
Continuous
 62
     7
370
     0
100
AcDbMText
 10
586.4706018241
 20
87.56015409
 30
0.0
 40
3.96875
 41
0.0
 71
     2
 72
     1
  1
B
  7
SLDTEXTSTYLE0
 73
     1
 44
1.0
  0
MTEXT
  5
E5
330
1F
100
AcDbEntity
  8
0
  6
Continuous
 62
     7
370
     0
100
AcDbMText
 10
17.458658902
 20
137.56015409
 30
0.0
 40
3.96875
 41
0.0
 71
     2
 72
     1
  1
C
  7
SLDTEXTSTYLE0
 73
     1
 44
1.0
  0
MTEXT
  5
E6
330
1F
100
AcDbEntity
  8
0
  6
Continuous
 62
     7
370
     0
100
AcDbMText
 10
586.458658902
 20
137.56015409
 30
0.0
 40
3.96875
 41
0.0
 71
     2
 72
     1
  1
C
  7
SLDTEXTSTYLE0
 73
     1
 44
1.0
  0
MTEXT
  5
E7
330
1F
100
AcDbEntity
  8
0
  6
Continuous
 62
     7
370
     0
100
AcDbMText
 10
17.4526872821
 20
187.56015409
 30
0.0
 40
3.96875
 41
0.0
 71
     2
 72
     1
  1
D
  7
SLDTEXTSTYLE0
 73
     1
 44
1.0
  0
MTEXT
  5
E8
330
1F
100
AcDbEntity
  8
0
  6
Continuous
 62
     7
370
     0
100
AcDbMText
 10
586.4526872821
 20
187.56015409
 30
0.0
 40
3.96875
 41
0.0
 71
     2
 72
     1
  1
D
  7
SLDTEXTSTYLE0
 73
     1
 44
1.0
  0
MTEXT
  5
E9
330
1F
100
AcDbEntity
  8
0
  6
Continuous
 62
     7
370
     0
100
AcDbMText
 10
17.5078089051
 20
237.56015409
 30
0.0
 40
3.96875
 41
0.0
 71
     2
 72
     1
  1
E
  7
SLDTEXTSTYLE0
 73
     1
 44
1.0
  0
MTEXT
  5
EA
330
1F
100
AcDbEntity
  8
0
  6
Continuous
 62
     7
370
     0
100
AcDbMText
 10
586.5078089051
 20
237.56015409
 30
0.0
 40
3.96875
 41
0.0
 71
     2
 72
     1
  1
E
  7
SLDTEXTSTYLE0
 73
     1
 44
1.0
  0
MTEXT
  5
EB
330
1F
100
AcDbEntity
  8
0
  6
Continuous
 62
     7
370
     0
100
AcDbMText
 10
17.4577402091
 20
287.56015409
 30
0.0
 40
3.96875
 41
0.0
 71
     2
 72
     1
  1
F
  7
SLDTEXTSTYLE0
 73
     1
 44
1.0
  0
MTEXT
  5
EC
330
1F
100
AcDbEntity
  8
0
  6
Continuous
 62
     7
370
     0
100
AcDbMText
 10
586.4577402091
 20
287.56015409
 30
0.0
 40
3.96875
 41
0.0
 71
     2
 72
     1
  1
F
  7
SLDTEXTSTYLE0
 73
     1
 44
1.0
  0
MTEXT
  5
ED
330
1F
100
AcDbEntity
  8
0
  6
Continuous
 62
     7
370
     0
100
AcDbMText
 10
17.4866788853
 20
337.56015409
 30
0.0
 40
3.96875
 41
0.0
 71
     2
 72
     1
  1
G
  7
SLDTEXTSTYLE0
 73
     1
 44
1.0
  0
MTEXT
  5
EE
330
1F
100
AcDbEntity
  8
0
  6
Continuous
 62
     7
370
     0
100
AcDbMText
 10
586.4866788853
 20
337.56015409
 30
0.0
 40
3.96875
 41
0.0
 71
     2
 72
     1
  1
G
  7
SLDTEXTSTYLE0
 73
     1
 44
1.0
  0
MTEXT
  5
EF
330
1F
100
AcDbEntity
  8
0
  6
Continuous
 62
     7
370
     0
100
AcDbMText
 10
17.4903537836
 20
387.56015409
 30
0.0
 40
3.96875
 41
0.0
 71
     2
 72
     1
  1
H
  7
SLDTEXTSTYLE0
 73
     1
 44
1.0
  0
MTEXT
  5
F0
330
1F
100
AcDbEntity
  8
0
  6
Continuous
 62
     7
370
     0
100
AcDbMText
 10
586.4903537836
 20
387.56015409
 30
0.0
 40
3.96875
 41
0.0
 71
     2
 72
     1
  1
H
  7
SLDTEXTSTYLE0
 73
     1
 44
1.0
  0
MTEXT
  5
F1
330
1F
100
AcDbEntity
  8
0
  6
Continuous
 62
     7
370
     0
100
AcDbMText
 10
35.9200738929
 20
10.06015409
 30
0.0
 40
3.96875
 41
0.0
 71
     2
 72
     1
  1
12
  7
SLDTEXTSTYLE0
 73
     1
 44
1.0
  0
MTEXT
  5
F2
330
1F
100
AcDbEntity
  8
0
  6
Continuous
 62
     7
370
     0
100
AcDbMText
 10
35.9200738929
 20
415.06015409
 30
0.0
 40
3.96875
 41
0.0
 71
     2
 72
     1
  1
12
  7
SLDTEXTSTYLE0
 73
     1
 44
1.0
  0
MTEXT
  5
F3
330
1F
100
AcDbEntity
  8
0
  6
Continuous
 62
     7
370
     0
100
AcDbMText
 10
76.9200738929
 20
10.06015409
 30
0.0
 40
3.96875
 41
0.0
 71
     2
 72
     1
  1
11
  7
SLDTEXTSTYLE0
 73
     1
 44
1.0
  0
MTEXT
  5
F4
330
1F
100
AcDbEntity
  8
0
  6
Continuous
 62
     7
370
     0
100
AcDbMText
 10
76.9200738929
 20
415.06015409
 30
0.0
 40
3.96875
 41
0.0
 71
     2
 72
     1
  1
11
  7
SLDTEXTSTYLE0
 73
     1
 44
1.0
  0
MTEXT
  5
F5
330
1F
100
AcDbEntity
  8
0
  6
Continuous
 62
     7
370
     0
100
AcDbMText
 10
126.9200738929
 20
10.06015409
 30
0.0
 40
3.96875
 41
0.0
 71
     2
 72
     1
  1
10
  7
SLDTEXTSTYLE0
 73
     1
 44
1.0
  0
MTEXT
  5
F6
330
1F
100
AcDbEntity
  8
0
  6
Continuous
 62
     7
370
     0
100
AcDbMText
 10
126.9200738929
 20
415.06015409
 30
0.0
 40
3.96875
 41
0.0
 71
     2
 72
     1
  1
10
  7
SLDTEXTSTYLE0
 73
     1
 44
1.0
  0
MTEXT
  5
F7
330
1F
100
AcDbEntity
  8
0
  6
Continuous
 62
     7
370
     0
100
AcDbMText
 10
176.9600369465
 20
10.06015409
 30
0.0
 40
3.96875
 41
0.0
 71
     2
 72
     1
  1
9
  7
SLDTEXTSTYLE0
 73
     1
 44
1.0
  0
MTEXT
  5
F8
330
1F
100
AcDbEntity
  8
0
  6
Continuous
 62
     7
370
     0
100
AcDbMText
 10
176.9600369465
 20
415.06015409
 30
0.0
 40
3.96875
 41
0.0
 71
     2
 72
     1
  1
9
  7
SLDTEXTSTYLE0
 73
     1
 44
1.0
  0
MTEXT
  5
F9
330
1F
100
AcDbEntity
  8
0
  6
Continuous
 62
     7
370
     0
100
AcDbMText
 10
226.9600369465
 20
10.06015409
 30
0.0
 40
3.96875
 41
0.0
 71
     2
 72
     1
  1
8
  7
SLDTEXTSTYLE0
 73
     1
 44
1.0
  0
MTEXT
  5
FA
330
1F
100
AcDbEntity
  8
0
  6
Continuous
 62
     7
370
     0
100
AcDbMText
 10
226.9600369465
 20
415.06015409
 30
0.0
 40
3.96875
 41
0.0
 71
     2
 72
     1
  1
8
  7
SLDTEXTSTYLE0
 73
     1
 44
1.0
  0
MTEXT
  5
FB
330
1F
100
AcDbEntity
  8
0
  6
Continuous
 62
     7
370
     0
100
AcDbMText
 10
276.9600369465
 20
10.06015409
 30
0.0
 40
3.96875
 41
0.0
 71
     2
 72
     1
  1
7
  7
SLDTEXTSTYLE0
 73
     1
 44
1.0
  0
MTEXT
  5
FC
330
1F
100
AcDbEntity
  8
0
  6
Continuous
 62
     7
370
     0
100
AcDbMText
 10
276.9600369465
 20
415.06015409
 30
0.0
 40
3.96875
 41
0.0
 71
     2
 72
     1
  1
7
  7
SLDTEXTSTYLE0
 73
     1
 44
1.0
  0
MTEXT
  5
FD
330
1F
100
AcDbEntity
  8
0
  6
Continuous
 62
     7
370
     0
100
AcDbMText
 10
326.9600369465
 20
10.06015409
 30
0.0
 40
3.96875
 41
0.0
 71
     2
 72
     1
  1
6
  7
SLDTEXTSTYLE0
 73
     1
 44
1.0
  0
MTEXT
  5
FE
330
1F
100
AcDbEntity
  8
0
  6
Continuous
 62
     7
370
     0
100
AcDbMText
 10
326.9600369465
 20
415.06015409
 30
0.0
 40
3.96875
 41
0.0
 71
     2
 72
     1
  1
6
  7
SLDTEXTSTYLE0
 73
     1
 44
1.0
  0
MTEXT
  5
FF
330
1F
100
AcDbEntity
  8
0
  6
Continuous
 62
     7
370
     0
100
AcDbMText
 10
376.9600369465
 20
10.06015409
 30
0.0
 40
3.96875
 41
0.0
 71
     2
 72
     1
  1
5
  7
SLDTEXTSTYLE0
 73
     1
 44
1.0
  0
MTEXT
  5
100
330
1F
100
AcDbEntity
  8
0
  6
Continuous
 62
     7
370
     0
100
AcDbMText
 10
376.9600369465
 20
415.06015409
 30
0.0
 40
3.96875
 41
0.0
 71
     2
 72
     1
  1
5
  7
SLDTEXTSTYLE0
 73
     1
 44
1.0
  0
MTEXT
  5
101
330
1F
100
AcDbEntity
  8
0
  6
Continuous
 62
     7
370
     0
100
AcDbMText
 10
426.9600369465
 20
10.06015409
 30
0.0
 40
3.96875
 41
0.0
 71
     2
 72
     1
  1
4
  7
SLDTEXTSTYLE0
 73
     1
 44
1.0
  0
MTEXT
  5
102
330
1F
100
AcDbEntity
  8
0
  6
Continuous
 62
     7
370
     0
100
AcDbMText
 10
426.9600369465
 20
415.06015409
 30
0.0
 40
3.96875
 41
0.0
 71
     2
 72
     1
  1
4
  7
SLDTEXTSTYLE0
 73
     1
 44
1.0
  0
MTEXT
  5
103
330
1F
100
AcDbEntity
  8
0
  6
Continuous
 62
     7
370
     0
100
AcDbMText
 10
476.9600369465
 20
10.06015409
 30
0.0
 40
3.96875
 41
0.0
 71
     2
 72
     1
  1
3
  7
SLDTEXTSTYLE0
 73
     1
 44
1.0
  0
MTEXT
  5
104
330
1F
100
AcDbEntity
  8
0
  6
Continuous
 62
     7
370
     0
100
AcDbMText
 10
476.9600369465
 20
415.06015409
 30
0.0
 40
3.96875
 41
0.0
 71
     2
 72
     1
  1
3
  7
SLDTEXTSTYLE0
 73
     1
 44
1.0
  0
MTEXT
  5
105
330
1F
100
AcDbEntity
  8
0
  6
Continuous
 62
     7
370
     0
100
AcDbMText
 10
526.9600369465
 20
10.06015409
 30
0.0
 40
3.96875
 41
0.0
 71
     2
 72
     1
  1
2
  7
SLDTEXTSTYLE0
 73
     1
 44
1.0
  0
MTEXT
  5
106
330
1F
100
AcDbEntity
  8
0
  6
Continuous
 62
     7
370
     0
100
AcDbMText
 10
526.9600369465
 20
415.06015409
 30
0.0
 40
3.96875
 41
0.0
 71
     2
 72
     1
  1
2
  7
SLDTEXTSTYLE0
 73
     1
 44
1.0
  0
MTEXT
  5
107
330
1F
100
AcDbEntity
  8
0
  6
Continuous
 62
     7
370
     0
100
AcDbMText
 10
567.9600369465
 20
10.06015409
 30
0.0
 40
3.96875
 41
0.0
 71
     2
 72
     1
  1
1
  7
SLDTEXTSTYLE0
 73
     1
 44
1.0
  0
MTEXT
  5
108
330
1F
100
AcDbEntity
  8
0
  6
Continuous
 62
     7
370
     0
100
AcDbMText
 10
567.9600369465
 20
415.06015409
 30
0.0
 40
3.96875
 41
0.0
 71
     2
 72
     1
  1
1
  7
SLDTEXTSTYLE0
 73
     1
 44
1.0
  0
ARC
  5
109
330
1F
100
AcDbEntity
  8
0
  6
Continuous
 62
     7
370
    25
100
AcDbCircle
 10
227.0116473166
 20
362.9516073803
 30
0.0
 40
2.0
100
AcDbArc
 50
270.0
 51
0.0
  0
LINE
  5
10A
330
1F
100
AcDbEntity
  8
0
  6
Continuous
 62
     7
370
    25
100
AcDbLine
 10
229.0116473166
 20
362.9516073803
 30
0.0
 11
229.0116473166
 21
364.4516073803
 31
0.0
  0
ARC
  5
10B
330
1F
100
AcDbEntity
  8
0
  6
Continuous
 62
     7
370
    25
100
AcDbCircle
 10
227.0116473166
 20
364.4516073803
 30
0.0
 40
2.0
100
AcDbArc
 50
0.0
 51
90.0
  0
LINE
  5
10C
330
1F
100
AcDbEntity
  8
0
  6
Continuous
 62
     7
370
    25
100
AcDbLine
 10
227.1116473166
 20
290.9516073802
 30
0.0
 11
227.1116473166
 21
339.9516073803
 31
0.0
  0
LINE
  5
10D
330
1F
100
AcDbEntity
  8
0
  6
Continuous
 62
     7
370
    25
100
AcDbLine
 10
178.9116473166
 20
305.4516073803
 30
0.0
 11
178.9116473166
 21
290.9516073802
 31
0.0
  0
LINE
  5
10E
330
1F
100
AcDbEntity
  8
0
  6
Continuous
 62
     7
370
    25
100
AcDbLine
 10
178.9116473166
 20
290.9516073802
 30
0.0
 11
179.6098499137
 21
250.9516073803
 31
0.0
  0
LINE
  5
10F
330
1F
100
AcDbEntity
  8
0
  6
Continuous
 62
     7
370
    25
100
AcDbLine
 10
226.4134447195
 20
250.9516073803
 30
0.0
 11
227.1116473166
 21
290.9516073802
 31
0.0
  0
LINE
  5
110
330
1F
100
AcDbEntity
  8
0
  6
Continuous
 62
     7
370
    25
100
AcDbLine
 10
225.7616473166
 20
340.9516073803
 30
0.0
 11
225.7616473166
 21
360.9516073803
 31
0.0
  0
LINE
  5
111
330
1F
100
AcDbEntity
  8
0
  6
Continuous
 62
     7
370
    25
100
AcDbLine
 10
227.1116473166
 20
339.9516073803
 30
0.0
 11
226.1116473166
 21
340.9516073803
 31
0.0
  0
LINE
  5
112
330
1F
100
AcDbEntity
  8
0
  6
Continuous
 62
     7
370
    25
100
AcDbLine
 10
227.0116473166
 20
360.9516073803
 30
0.0
 11
182.0846910162
 21
360.9516073803
 31
0.0
  0
SPLINE
  5
113
330
1F
100
AcDbEntity
  8
0
  6
Continuous
 62
     7
370
    25
100
AcDbSpline
210
0.0
220
0.0
230
1.0
 70
     8
 71
     3
 72
    16
 73
    12
 74
     0
 42
0.000000001
 43
0.00000001
 40
0.0
 40
0.0
 40
0.0
 40
0.0
 40
0.2499999999999998
 40
0.2499999999999998
 40
0.4999999999999997
 40
0.4999999999999997
 40
0.7499999999999996
 40
0.7499999999999996
 40
0.8749999999999998
 40
0.8749999999999998
 40
1.0
 40
1.0
 40
1.0
 40
1.0
 10
182.0846910161646
 20
360.951607380256
 30
0.0
 10
181.8025651614113
 20
360.951607380256
 30
0.0
 10
181.5277479661578
 20
360.9954770790711
 30
0.0
 10
180.9937806965667
 20
361.1772572342285
 30
0.0
 10
180.7493284059409
 20
361.3102028630585
 30
0.0
 10
180.3149739303233
 20
361.6697280638106
 30
0.0
 10
180.1373741030689
 20
361.8870471605961
 30
0.0
 10
179.9482449197102
 20
362.2663162474112
 30
0.0
 10
179.900420806436
 20
362.3973060105122
 30
0.0
 10
179.8353128009512
 20
362.6684497097102
 30
0.0
 10
179.8181676294041
 20
362.8099060200435
 30
0.0
 10
179.8181676294041
 20
362.951607380256
 30
0.0
  0
LINE
  5
114
330
1F
100
AcDbEntity
  8
0
  6
Continuous
 62
     7
370
    25
100
AcDbLine
 10
179.8181676294
 20
364.4516073803
 30
0.0
 11
179.8181676294
 21
362.9516073803
 31
0.0
  0
SPLINE
  5
115
330
1F
100
AcDbEntity
  8
0
  6
Continuous
 62
     7
370
    25
100
AcDbSpline
210
0.0
220
0.0
230
1.0
 70
     8
 71
     3
 72
    18
 73
    14
 74
     0
 42
0.000000001
 43
0.00000001
 40
0.0
 40
0.0
 40
0.0
 40
0.0
 40
0.1250000000000001
 40
0.1250000000000001
 40
0.2500000000000002
 40
0.2500000000000002
 40
0.5000000000000001
 40
0.5000000000000001
 40
0.6250000000000001
 40
0.6250000000000001
 40
0.75
 40
0.75
 40
1.0
 40
1.0
 40
1.0
 40
1.0
 10
179.8181676294041
 20
364.451607380256
 30
0.0
 10
179.8181676294041
 20
364.5928649745773
 30
0.0
 10
179.834750749988
 20
364.7312268390975
 30
0.0
 10
179.8993143475889
 20
365.0024679896185
 30
0.0
 10
179.9481664995784
 20
365.1363543761958
 30
0.0
 10
180.1344266388101
 20
365.511021095342
 30
0.0
 10
180.3153885922103
 20
365.7334290158205
 30
0.0
 10
180.6377891635277
 20
366.0008862049799
 30
0.0
 10
180.7553580088642
 20
366.0804740356558
 30
0.0
 10
180.9997708915362
 20
366.2153166045468
 30
0.0
 10
181.1273910406699
 20
366.2714062730118
 30
0.0
 10
181.5257928423699
 20
366.4071451409636
 30
0.0
 10
181.8030685137395
 20
366.451607380256
 30
0.0
 10
182.0846910161646
 20
366.451607380256
 30
0.0
  0
LINE
  5
116
330
1F
100
AcDbEntity
  8
0
  6
Continuous
 62
     7
370
    25
100
AcDbLine
 10
182.0846910162
 20
366.4516073803
 30
0.0
 11
227.0116473166
 21
366.4516073803
 31
0.0
  0
LINE
  5
117
330
1F
100
AcDbEntity
  8
0
  6
Continuous
 62
     7
370
    25
100
AcDbLine
 10
178.9116473166
 20
305.4516073803
 30
0.0
 11
182.0846910162
 21
305.4516073803
 31
0.0
  0
LINE
  5
118
330
1F
100
AcDbEntity
  8
0
  6
Continuous
 62
     7
370
    25
100
AcDbLine
 10
182.0846910162
 20
339.9516073803
 30
0.0
 11
182.0846910162
 21
305.4516073803
 31
0.0
  0
LINE
  5
119
330
1F
100
AcDbEntity
  8
0
  6
Continuous
 62
     7
370
    25
100
AcDbLine
 10
182.0846910162
 20
339.9516073803
 30
0.0
 11
185.6839960043
 21
339.9516073803
 31
0.0
  0
LINE
  5
11A
330
1F
100
AcDbEntity
  8
0
  6
Continuous
 62
     7
370
    25
100
AcDbLine
 10
185.6839960043
 20
339.9516073803
 30
0.0
 11
185.6839960043
 21
305.4516073803
 31
0.0
  0
LINE
  5
11B
330
1F
100
AcDbEntity
  8
0
  6
Continuous
 62
     7
370
    25
100
AcDbLine
 10
220.3392986289
 20
305.4516073803
 30
0.0
 11
220.3392986289
 21
339.9516073803
 31
0.0
  0
LINE
  5
11C
330
1F
100
AcDbEntity
  8
0
  6
Continuous
 62
     7
370
    25
100
AcDbLine
 10
227.1116473166
 20
339.9516073803
 30
0.0
 11
220.3392986289
 21
339.9516073803
 31
0.0
  0
LINE
  5
11D
330
1F
100
AcDbEntity
  8
0
  6
Continuous
 62
     7
370
    25
100
AcDbLine
 10
185.6839960043
 20
305.4516073803
 30
0.0
 11
220.3392986289
 21
305.4516073803
 31
0.0
  0
LINE
  5
11E
330
1F
100
AcDbEntity
  8
0
  6
Continuous
 62
     7
370
    25
100
AcDbLine
 10
226.4134447195
 20
250.9516073803
 30
0.0
 11
179.6098499137
 21
250.9516073803
 31
0.0
  0
CIRCLE
  5
11F
330
1F
100
AcDbEntity
  8
0
  6
Continuous
 62
     7
370
    25
100
AcDbCircle
 10
192.0846910162
 20
348.4516073803
 30
0.0
 40
3.250000000000057
  0
ARC
  5
120
330
1F
100
AcDbEntity
  8
0
  6
Continuous
 62
     7
370
    25
100
AcDbCircle
 10
192.0846910162
 20
348.4516073803
 30
0.0
 40
6.25000000000002
100
AcDbArc
 50
224.3686269017
 51
135.6313730983
  0
SPLINE
  5
121
330
1F
100
AcDbEntity
  8
0
  6
Continuous
 62
     7
370
    25
100
AcDbSpline
210
0.0
220
0.0
230
1.0
 70
     8
 71
     3
 72
    19
 73
    15
 74
     0
 42
0.000000001
 43
0.00000001
 40
0.0
 40
0.0
 40
0.0
 40
0.0
 40
0.2500000000000003
 40
0.2500000000000003
 40
0.3750000000000003
 40
0.3750000000000003
 40
0.5000000000000002
 40
0.6250000000000001
 40
0.6250000000000001
 40
0.7500000000000001
 40
0.7500000000000001
 40
0.875
 40
0.875
 40
1.0
 40
1.0
 40
1.0
 40
1.0
 10
187.6168429982513
 20
344.0811572788559
 30
0.0
 10
187.3312666317647
 20
344.7484470581476
 30
0.0
 10
187.1079972836201
 20
345.4436202161786
 30
0.0
 10
186.8755118969518
 20
346.5382557292796
 30
0.0
 10
186.8151512515563
 20
346.9130961210021
 30
0.0
 10
186.7336477865613
 20
347.6778568386167
 30
0.0
 10
186.6928630894087
 20
348.4420548572414
 30
0.0
 10
186.7322690350894
 20
349.2051315871446
 30
0.0
 10
186.8120222094522
 20
349.9676505410289
 30
0.0
 10
186.8720708905276
 20
350.3459396714196
 30
0.0
 10
187.0269301033791
 20
351.0805907443832
 30
0.0
 10
187.1219844543655
 20
351.4396160330703
 30
0.0
 10
187.3452256535939
 20
352.1428912301721
 30
0.0
 10
187.4737868566779
 20
352.4877864692778
 30
0.0
 10
187.6168429982513
 20
352.8220574816561
 30
0.0
  0
LINE
  5
122
330
1F
100
AcDbEntity
  8
0
  6
Continuous
 62
     7
370
    25
100
AcDbLine
 10
183.5308875778
 20
358.9516073803
 30
0.0
 11
183.5308875778
 21
340.9516073803
 31
0.0
  0
SPLINE
  5
123
330
1F
100
AcDbEntity
  8
0
  6
Continuous
 62
     7
370
    25
100
AcDbSpline
210
0.0
220
0.0
230
1.0
 70
     8
 71
     3
 72
    18
 73
    14
 74
     0
 42
0.000000001
 43
0.00000001
 40
0.0
 40
0.0
 40
0.0
 40
0.0
 40
0.2500000000000006
 40
0.2500000000000006
 40
0.5000000000000011
 40
0.5000000000000011
 40
0.6250000000000008
 40
0.6250000000000008
 40
0.7500000000000006
 40
0.7500000000000006
 40
0.8750000000000002
 40
0.8750000000000002
 40
1.0
 40
1.0
 40
1.0
 40
1.0
 10
182.4568425254975
 20
360.951607380256
 30
0.0
 10
182.5776320711962
 20
360.951607380256
 30
0.0
 10
182.6998164370401
 20
360.9046385255299
 30
0.0
 10
182.9448140480158
 20
360.7179860314081
 30
0.0
 10
183.0611201327786
 20
360.5833555930667
 30
0.0
 10
183.2204988501676
 20
360.3141819581487
 30
0.0
 10
183.2692837467008
 20
360.2158772597783
 30
0.0
 10
183.3571278131352
 20
360.001531112605
 30
0.0
 10
183.3964653011549
 20
359.8845190460711
 30
0.0
 10
183.4618415671577
 20
359.634070444501
 30
0.0
 10
183.4870823757515
 20
359.5041024788526
 30
0.0
 10
183.5216438057883
 20
359.234362001873
 30
0.0
 10
183.5308875778138
 20
359.0931389651188
 30
0.0
 10
183.5308875778138
 20
358.951607380256
 30
0.0
  0
LINE
  5
124
330
1F
100
AcDbEntity
  8
0
  6
Continuous
 62
     7
370
    25
100
AcDbLine
 10
187.6168429983
 20
360.9516073803
 30
0.0
 11
187.6168429983
 21
352.8220574817
 31
0.0
  0
LINE
  5
125
330
1F
100
AcDbEntity
  8
0
  6
Continuous
 62
     7
370
    25
100
AcDbLine
 10
187.6168429983
 20
344.0811572789
 30
0.0
 11
187.6168429983
 21
340.9516073803
 31
0.0
  0
LINE
  5
126
330
1F
100
AcDbEntity
  8
0
  6
Continuous
 62
     7
370
    25
100
AcDbLine
 10
218.4064516349
 20
340.9516073803
 30
0.0
 11
218.4064516349
 21
360.9516073803
 31
0.0
  0
LINE
  5
127
330
1F
100
AcDbEntity
  8
0
  6
Continuous
 62
     7
370
    25
100
AcDbLine
 10
218.9191141168
 20
340.9516073803
 30
0.0
 11
218.4064516349
 21
340.9516073803
 31
0.0
  0
SPLINE
  5
128
330
1F
100
AcDbEntity
  8
0
  6
Continuous
 62
     7
370
    25
100
AcDbSpline
210
0.0
220
0.0
230
1.0
 70
     8
 71
     3
 72
     8
 73
     4
 74
     0
 42
0.000000001
 43
0.00000001
 40
0.0
 40
0.0
 40
0.0
 40
0.0
 40
1.0
 40
1.0
 40
1.0
 40
1.0
 10
220.3392986288732
 20
339.951607380256
 30
0.0
 10
219.8692101325238
 20
340.2895961582915
 30
0.0
 10
219.3960083669034
 20
340.6232013434337
 30
0.0
 10
218.9191141168087
 20
340.951607380256
 30
0.0
  0
SPLINE
  5
129
330
1F
100
AcDbEntity
  8
0
  6
Continuous
 62
     7
370
    25
100
AcDbSpline
210
0.0
220
0.0
230
1.0
 70
     8
 71
     3
 72
     8
 73
     4
 74
     0
 42
0.000000001
 43
0.00000001
 40
0.0
 40
0.0
 40
0.0
 40
0.0
 40
1.0
 40
1.0
 40
1.0
 40
1.0
 10
187.1041805163753
 20
340.951607380256
 30
0.0
 10
186.6268747517239
 20
340.6229179601372
 30
0.0
 10
186.1537018812556
 20
340.2893210588878
 30
0.0
 10
185.6839960043108
 20
339.951607380256
 30
0.0
  0
LINE
  5
12A
330
1F
100
AcDbEntity
  8
0
  6
Continuous
 62
     7
370
    25
100
AcDbLine
 10
187.6168429983
 20
340.9516073803
 30
0.0
 11
187.1041805164
 21
340.9516073803
 31
0.0
  0
CIRCLE
  5
12B
330
1F
100
AcDbEntity
  8
0
  6
Continuous
 62
     7
370
    25
100
AcDbCircle
 10
192.0846910162
 20
318.4516073803
 30
0.0
 40
6.250000000000028
  0
SPLINE
  5
12C
330
1F
100
AcDbEntity
  8
0
  6
Continuous
 62
     7
370
    25
100
AcDbSpline
210
0.0
220
0.0
230
1.0
 70
    24
 71
     3
 72
     8
 73
     4
 74
     0
 42
0.000000001
 43
0.00000001
 40
0.000011356065236
 40
0.000011356065236
 40
0.000011356065236
 40
0.000011356065236
 40
0.0002375859924565
 40
0.0002375859924565
 40
0.0002375859924565
 40
0.0002375859924565
 10
182.0846910161646
 20
340.051607380256
 30
0.0
 10
182.0846910161646
 20
340.0184485991352
 30
0.0
 10
182.0846910161646
 20
339.9851138822769
 30
0.0
 10
182.0846910161646
 20
339.951607380256
 30
0.0
  0
SPLINE
  5
12D
330
1F
100
AcDbEntity
  8
0
  6
Continuous
 62
     7
370
    25
100
AcDbSpline
210
0.0
220
0.0
230
1.0
 70
     8
 71
     3
 72
     8
 73
     4
 74
     0
 42
0.000000001
 43
0.00000001
 40
0.0
 40
0.0
 40
0.0
 40
0.0
 40
1.0
 40
1.0
 40
1.0
 40
1.0
 10
183.1232713145149
 20
340.951607380256
 30
0.0
 10
182.7761799410253
 20
340.6527725861851
 30
0.0
 10
182.4300245580717
 20
340.3527232111127
 30
0.0
 10
182.0846910161646
 20
340.051607380256
 30
0.0
  0
LINE
  5
12E
330
1F
100
AcDbEntity
  8
0
  6
Continuous
 62
     7
370
    25
100
AcDbLine
 10
183.1232713145
 20
340.9516073803
 30
0.0
 11
187.1041805164
 21
340.9516073803
 31
0.0
  0
CIRCLE
  5
12F
330
1F
100
AcDbEntity
  8
0
  6
Continuous
 62
     7
370
    25
100
AcDbCircle
 10
192.0846910162
 20
318.4516073803
 30
0.0
 40
3.249999999999943
  0
LINE
  5
130
330
1F
100
AcDbEntity
  8
0
  6
Continuous
 62
     7
370
    25
100
AcDbLine
 10
218.9191141168
 20
340.9516073803
 30
0.0
 11
226.1116473166
 21
340.9516073803
 31
0.0
  0
LINE
  5
131
330
1F
100
AcDbEntity
  8
0
  6
Continuous
 62
     8
370
    25
100
AcDbLine
 10
179.8181676294
 20
362.9516073803
 30
0.0
 11
229.0116473166
 21
362.9516073803
 31
0.0
  0
LINE
  5
132
330
1F
100
AcDbEntity
  8
0
  6
Continuous
 62
     8
370
    25
100
AcDbLine
 10
229.0116473166
 20
364.4516073803
 30
0.0
 11
179.8181676294
 21
364.4516073803
 31
0.0
  0
LINE
  5
133
330
1F
100
AcDbEntity
  8
0
  6
Continuous
 62
     8
370
    25
100
AcDbLine
 10
178.9116473166
 20
290.9516073802
 30
0.0
 11
227.1116473166
 21
290.9516073802
 31
0.0
  0
DIMENSION
  5
134
330
1F
100
AcDbEntity
  8
0
  6
Continuous
 62
     7
370
    18
100
AcDbDimension
  2
_D
 10
150.9116473166
 20
250.9516073803
 30
0.0
 11
150.9116473166
 21
272.5284328229
 31
0.0
 70
   160
  1
<>
 71
     2
 42
-1.0
  3
SLDDIMSTYLE0
100
AcDbAlignedDimension
 13
178.9116473166
 23
290.9516073803
 33
0.0
 14
178.9116473166
 24
250.9516073803
 34
0.0
 50
90.0
100
AcDbRotatedDimension
  0
DIMENSION
  5
13F
330
1F
100
AcDbEntity
  8
0
  6
Continuous
 62
     7
370
    18
100
AcDbDimension
  2
_D_1
 10
178.9116473166
 20
290.9516073803
 30
0.0
 11
188.3177825123
 21
240.9516073803
 31
0.0
 70
   162
  1
<>
 71
     1
 42
-1.0
  3
SLDDIMSTYLE1
100
AcDb2LineAngularDimension
 13
178.7371232522
 23
300.9500843318
 33
0.0
 14
178.9116473166
 24
290.9516073803
 34
0.0
 15
178.9116473166
 25
300.9516073803
 35
0.0
 16
179.3556277992
 26
240.0764831971
 36
0.0
  0
DIMENSION
  5
14C
330
1F
100
AcDbEntity
  8
0
  6
Continuous
 62
     7
370
    18
100
AcDbDimension
  2
_D_2
 10
242.6793534425
 20
360.9516073803
 30
0.0
 11
242.6793534425
 21
376.5016073803
 31
0.0
 70
   160
  1
<>
 71
     2
 42
-1.0
  3
SLDDIMSTYLE2
100
AcDbAlignedDimension
 13
229.0116473166
 23
366.4516073803
 33
0.0
 14
229.0116473166
 24
360.9516073803
 34
0.0
 50
90.0
100
AcDbRotatedDimension
  0
DIMENSION
  5
159
330
1F
100
AcDbEntity
  8
0
  6
Continuous
 62
     7
370
    18
100
AcDbDimension
  2
_D_3
 10
227.0116473166
 20
362.9516073803
 30
0.0
 11
234.2361078971
 21
350.438501918
 31
0.0
 70
   164
  1
<>
 71
     1
 42
-1.0
  3
SLDDIMSTYLE3
100
AcDbRadialDimension
 15
228.0116473166
 25
361.2195565727
 35
0.0
 40
0.0
  0
DIMENSION
  5
162
330
1F
100
AcDbEntity
  8
0
  6
Continuous
 62
     7
370
    18
100
AcDbDimension
  2
_D_4
 10
227.1116473166
 20
222.9516073803
 30
0.0
 11
202.1858645485
 21
222.9516073803
 31
0.0
 70
   160
  1
%%c<>
 71
     2
 42
-1.0
  3
SLDDIMSTYLE2
100
AcDbAlignedDimension
 13
178.9116473166
 23
250.9516073803
 33
0.0
 14
227.1116473166
 24
250.9516073803
 34
0.0
100
AcDbRotatedDimension
  0
DIMENSION
  5
16F
330
1F
100
AcDbEntity
  8
0
  6
Continuous
 62
     7
370
    18
100
AcDbDimension
  2
_D_5
 10
263.0116723166
 20
340.9516073803
 30
0.0
 11
263.0116723166
 21
291.4408003737
 31
0.0
 70
   160
  1
<>
 71
     2
 42
-1.0
  3
SLDDIMSTYLE2
100
AcDbAlignedDimension
 13
227.1116473166
 23
250.9516073803
 33
0.0
 14
227.1116473166
 24
340.9516073803
 34
0.0
 50
90.0
100
AcDbRotatedDimension
  0
DIMENSION
  5
17B
330
1F
100
AcDbEntity
  8
0
  6
Continuous
 62
     7
370
    18
100
AcDbDimension
  2
_D_6
 10
227.1116473166
 20
323.8885467348
 30
0.0
 11
237.3837325779
 21
323.8885467348
 31
0.0
 70
   160
  1
<>
 71
     2
 42
-1.0
  3
SLDDIMSTYLE2
100
AcDbAlignedDimension
 13
226.1116473166
 23
340.9516073803
 33
0.0
 14
227.1116473166
 24
340.9516073803
 34
0.0
100
AcDbRotatedDimension
  0
DIMENSION
  5
187
330
1F
100
AcDbEntity
  8
0
  6
Continuous
 62
     7
370
    18
100
AcDbDimension
  2
_D_7
 10
226.1116473166
 20
340.9516073803
 30
0.0
 11
249.4963097894
 21
331.546038095
 31
0.0
 70
   162
  1
<>
 71
     1
 42
-1.0
  3
SLDDIMSTYLE1
100
AcDb2LineAngularDimension
 13
219.0405795047
 23
348.0226751921
 33
0.0
 14
226.1116473166
 24
340.9516073803
 34
0.0
 15
216.1116473166
 25
340.9516073803
 35
0.0
 16
249.3983085456
 26
331.3059564768
 36
0.0
  0
DIMENSION
  5
191
330
1F
100
AcDbEntity
  8
0
  6
Continuous
 62
     7
370
    18
100
AcDbDimension
  2
_D_8
 10
194.8992735785
 20
320.0766073803
 30
0.0
 11
163.0016002566
 21
301.6604813279
 31
0.0
 70
   163
  1
<>
 71
     1
 42
-1.0
  3
SLDDIMSTYLE4
100
AcDbDiametricDimension
 15
189.2701084539
 25
316.8266073803
 35
0.0
 40
0.0
  0
DIMENSION
  5
19E
330
1F
100
AcDbEntity
  8
0
  6
Continuous
 62
     7
370
    18
100
AcDbDimension
  2
_D_9
 10
155.8468361147
 20
348.4516073803
 30
0.0
 11
155.8468361147
 21
333.8066540352
 31
0.0
 70
   160
  1
<>
 71
     2
 42
-1.0
  3
SLDDIMSTYLE0
100
AcDbAlignedDimension
 13
192.0846910162
 23
318.4516073803
 33
0.0
 14
192.0846910162
 24
348.4516073803
 34
0.0
 50
90.0
100
AcDbRotatedDimension
  0
DIMENSION
  5
1A8
330
1F
100
AcDbEntity
  8
0
  6
Continuous
 62
     7
370
    18
100
AcDbDimension
  2
_D_10
 10
158.6300439772
 20
366.4516073803
 30
0.0
 11
158.6300439772
 21
357.6639686683
 31
0.0
 70
   160
  1
<>
 71
     2
 42
-1.0
  3
SLDDIMSTYLE2
100
AcDbAlignedDimension
 13
186.3346910162
 23
348.4516073803
 33
0.0
 14
182.0846910162
 24
366.4516073803
 34
0.0
 50
90.0
100
AcDbRotatedDimension
  0
INSERT
  5
1BD
330
1F
100
AcDbEntity
  8
0
  6
Continuous
 62
     7
370
     0
100
AcDbBlockReference
  2
SW_CENTERMARKSYMBOL_0
 10
192.0846910162
 20
318.4516073803
 30
0.0
  0
INSERT
  5
1C9
330
1F
100
AcDbEntity
  8
0
  6
Continuous
 62
     7
370
     0
100
AcDbBlockReference
  2
SW_CENTERMARKSYMBOL_1
 10
192.0846910162
 20
348.4516073803
 30
0.0
  0
LINE
  5
1CA
330
1F
100
AcDbEntity
  8
0
  6
CENTERX2
 62
     7
370
    18
100
AcDbLine
 10
203.0116473166
 20
381.2073810403
 30
0.0
 11
203.0116473166
 21
230.0368220408
 31
0.0
  0
LINE
  5
1CB
330
1F
100
AcDbEntity
  8
0
  6
Continuous
 62
     7
370
    25
100
AcDbLine
 10
372.9155842743
 20
290.9516073802
 30
0.0
 11
372.9155842743
 21
305.4516073803
 31
0.0
  0
LINE
  5
1CC
330
1F
100
AcDbEntity
  8
0
  6
Continuous
 62
     7
370
    25
100
AcDbLine
 10
324.7155842743
 20
305.4516073803
 30
0.0
 11
324.7155842743
 21
290.9516073802
 31
0.0
  0
LINE
  5
1CD
330
1F
100
AcDbEntity
  8
0
  6
Continuous
 62
     7
370
    25
100
AcDbLine
 10
324.7155842743
 20
290.9516073802
 30
0.0
 11
325.4137868714
 21
250.9516073803
 31
0.0
  0
LINE
  5
1CE
330
1F
100
AcDbEntity
  8
0
  6
Continuous
 62
     7
370
    25
100
AcDbLine
 10
372.2173816772
 20
250.9516073803
 30
0.0
 11
372.9155842743
 21
290.9516073802
 31
0.0
  0
ARC
  5
1CF
330
1F
100
AcDbEntity
  8
0
  6
Continuous
 62
     7
370
    25
100
AcDbCircle
 10
372.8155842743
 20
364.4516073803
 30
0.0
 40
2.0
100
AcDbArc
 50
0.0
 51
90.0
  0
ARC
  5
1D0
330
1F
100
AcDbEntity
  8
0
  6
Continuous
 62
     7
370
    25
100
AcDbCircle
 10
324.8155842743
 20
364.4516073803
 30
0.0
 40
2.0
100
AcDbArc
 50
90.0
 51
180.0
  0
ARC
  5
1D1
330
1F
100
AcDbEntity
  8
0
  6
Continuous
 62
     7
370
    25
100
AcDbCircle
 10
372.8155842743
 20
362.9516073803
 30
0.0
 40
2.0
100
AcDbArc
 50
270.0
 51
0.0
  0
ARC
  5
1D2
330
1F
100
AcDbEntity
  8
0
  6
Continuous
 62
     7
370
    25
100
AcDbCircle
 10
324.8155842743
 20
362.9516073803
 30
0.0
 40
2.0
100
AcDbArc
 50
180.0
 51
270.0
  0
LINE
  5
1D3
330
1F
100
AcDbEntity
  8
0
  6
Continuous
 62
     7
370
    25
100
AcDbLine
 10
322.8155842743
 20
364.4516073803
 30
0.0
 11
322.8155842743
 21
362.9516073803
 31
0.0
  0
LINE
  5
1D4
330
1F
100
AcDbEntity
  8
0
  6
Continuous
 62
     7
370
    25
100
AcDbLine
 10
374.8155842743
 20
362.9516073803
 30
0.0
 11
374.8155842743
 21
364.4516073803
 31
0.0
  0
LINE
  5
1D5
330
1F
100
AcDbEntity
  8
0
  6
Continuous
 62
     7
370
    25
100
AcDbLine
 10
332.0655842743
 20
339.9516073803
 30
0.0
 11
336.8626557629
 21
339.9516073803
 31
0.0
  0
LINE
  5
1D6
330
1F
100
AcDbEntity
  8
0
  6
Continuous
 62
     7
370
    25
100
AcDbLine
 10
336.8626557629
 20
305.4516073803
 30
0.0
 11
336.8626557629
 21
339.9516073803
 31
0.0
  0
LINE
  5
1D7
330
1F
100
AcDbEntity
  8
0
  6
Continuous
 62
     7
370
    25
100
AcDbLine
 10
336.8626557629
 20
305.4516073803
 30
0.0
 11
360.7685127858
 21
305.4516073803
 31
0.0
  0
LINE
  5
1D8
330
1F
100
AcDbEntity
  8
0
  6
Continuous
 62
     7
370
    25
100
AcDbLine
 10
360.7685127858
 20
339.9516073803
 30
0.0
 11
360.7685127858
 21
305.4516073803
 31
0.0
  0
LINE
  5
1D9
330
1F
100
AcDbEntity
  8
0
  6
Continuous
 62
     7
370
    25
100
AcDbLine
 10
360.7685127858
 20
339.9516073803
 30
0.0
 11
365.5655842743
 21
339.9516073803
 31
0.0
  0
LINE
  5
1DA
330
1F
100
AcDbEntity
  8
0
  6
Continuous
 62
     7
370
    25
100
AcDbLine
 10
365.5655842743
 20
339.9516073803
 30
0.0
 11
365.5655842743
 21
305.4516073803
 31
0.0
  0
LINE
  5
1DB
330
1F
100
AcDbEntity
  8
0
  6
Continuous
 62
     7
370
    25
100
AcDbLine
 10
365.5655842743
 20
305.4516073803
 30
0.0
 11
372.9155842743
 21
305.4516073803
 31
0.0
  0
LINE
  5
1DC
330
1F
100
AcDbEntity
  8
0
  6
Continuous
 62
     7
370
    25
100
AcDbLine
 10
324.7155842743
 20
305.4516073803
 30
0.0
 11
332.0655842743
 21
305.4516073803
 31
0.0
  0
LINE
  5
1DD
330
1F
100
AcDbEntity
  8
0
  6
Continuous
 62
     7
370
    25
100
AcDbLine
 10
332.0655842743
 20
305.4516073803
 30
0.0
 11
332.0655842743
 21
339.9516073803
 31
0.0
  0
LINE
  5
1DE
330
1F
100
AcDbEntity
  8
0
  6
Continuous
 62
     7
370
    25
100
AcDbLine
 10
372.2173816772
 20
250.9516073803
 30
0.0
 11
325.4137868714
 21
250.9516073803
 31
0.0
  0
SPLINE
  5
1DF
330
1F
100
AcDbEntity
  8
0
  6
Continuous
 62
     7
370
    25
100
AcDbSpline
210
0.0
220
0.0
230
1.0
 70
    24
 71
     3
 72
    18
 73
    14
 74
     0
 42
0.000000001
 43
0.00000001
 40
0.0
 40
0.0
 40
0.0
 40
0.0
 40
0.1250000000000001
 40
0.1250000000000001
 40
0.2500000000000002
 40
0.2500000000000002
 40
0.5000000000000001
 40
0.5000000000000001
 40
0.6250000000000001
 40
0.6250000000000001
 40
0.75
 40
0.75
 40
1.0
 40
1.0
 40
1.0
 40
1.0
 10
360.5655842743112
 20
364.451607380256
 30
0.0
 10
360.5655842743112
 20
364.5928649745773
 30
0.0
 10
360.5655842743112
 20
364.7312268390975
 30
0.0
 10
360.5655842743112
 20
365.0024679896185
 30
0.0
 10
360.5655842743112
 20
365.1363543761958
 30
0.0
 10
360.5655842743112
 20
365.511021095342
 30
0.0
 10
360.5655842743112
 20
365.7334290158205
 30
0.0
 10
360.5655842743112
 20
366.0008862049799
 30
0.0
 10
360.5655842743112
 20
366.0804740356558
 30
0.0
 10
360.5655842743112
 20
366.2153166045468
 30
0.0
 10
360.5655842743112
 20
366.2714062730118
 30
0.0
 10
360.5655842743112
 20
366.4071451409636
 30
0.0
 10
360.5655842743112
 20
366.451607380256
 30
0.0
 10
360.5655842743112
 20
366.451607380256
 30
0.0
  0
LINE
  5
1E0
330
1F
100
AcDbEntity
  8
0
  6
Continuous
 62
     7
370
    25
100
AcDbLine
 10
360.5655842743
 20
366.4516073803
 30
0.0
 11
372.8155842743
 21
366.4516073803
 31
0.0
  0
LINE
  5
1E1
330
1F
100
AcDbEntity
  8
0
  6
Continuous
 62
     7
370
    25
100
AcDbLine
 10
324.8155842743
 20
366.4516073803
 30
0.0
 11
337.0655842743
 21
366.4516073803
 31
0.0
  0
SPLINE
  5
1E2
330
1F
100
AcDbEntity
  8
0
  6
Continuous
 62
     7
370
    25
100
AcDbSpline
210
0.0
220
0.0
230
1.0
 70
    24
 71
     3
 72
    18
 73
    14
 74
     0
 42
0.000000001
 43
0.00000001
 40
0.0
 40
0.0
 40
0.0
 40
0.0
 40
0.25
 40
0.25
 40
0.3749999999999999
 40
0.3749999999999999
 40
0.4999999999999999
 40
0.4999999999999999
 40
0.7499999999999998
 40
0.7499999999999998
 40
0.8749999999999999
 40
0.8749999999999999
 40
1.0
 40
1.0
 40
1.0
 40
1.0
 10
337.0655842743112
 20
366.451607380256
 30
0.0
 10
337.0655842743112
 20
366.451607380256
 30
0.0
 10
337.0655842743112
 20
366.4071451409636
 30
0.0
 10
337.0655842743112
 20
366.2714062730118
 30
0.0
 10
337.0655842743112
 20
366.2153166045468
 30
0.0
 10
337.0655842743112
 20
366.0804740356558
 30
0.0
 10
337.0655842743112
 20
366.0008862049799
 30
0.0
 10
337.0655842743112
 20
365.7334290158205
 30
0.0
 10
337.0655842743112
 20
365.511021095342
 30
0.0
 10
337.0655842743112
 20
365.1363543761958
 30
0.0
 10
337.0655842743112
 20
365.0024679896185
 30
0.0
 10
337.0655842743112
 20
364.7312268390975
 30
0.0
 10
337.0655842743112
 20
364.5928649745773
 30
0.0
 10
337.0655842743112
 20
364.451607380256
 30
0.0
  0
LINE
  5
1E3
330
1F
100
AcDbEntity
  8
0
  6
Continuous
 62
     7
370
    25
100
AcDbLine
 10
337.0655842743
 20
360.9516073803
 30
0.0
 11
324.8155842743
 21
360.9516073803
 31
0.0
  0
LINE
  5
1E4
330
1F
100
AcDbEntity
  8
0
  6
Continuous
 62
     7
370
    25
100
AcDbLine
 10
372.8155842743
 20
360.9516073803
 30
0.0
 11
360.5655842743
 21
360.9516073803
 31
0.0
  0
SPLINE
  5
1E5
330
1F
100
AcDbEntity
  8
0
  6
Continuous
 62
     7
370
    25
100
AcDbSpline
210
0.0
220
0.0
230
1.0
 70
    24
 71
     3
 72
    16
 73
    12
 74
     0
 42
0.000000001
 43
0.00000001
 40
0.0
 40
0.0
 40
0.0
 40
0.0
 40
0.2499999999999998
 40
0.2499999999999998
 40
0.4999999999999997
 40
0.4999999999999997
 40
0.7499999999999996
 40
0.7499999999999996
 40
0.8749999999999998
 40
0.8749999999999998
 40
1.0
 40
1.0
 40
1.0
 40
1.0
 10
360.5655842743112
 20
360.951607380256
 30
0.0
 10
360.5655842743112
 20
360.951607380256
 30
0.0
 10
360.5655842743112
 20
360.9954770790711
 30
0.0
 10
360.5655842743112
 20
361.1772572342285
 30
0.0
 10
360.5655842743112
 20
361.3102028630585
 30
0.0
 10
360.5655842743112
 20
361.6697280638106
 30
0.0
 10
360.5655842743112
 20
361.8870471605961
 30
0.0
 10
360.5655842743112
 20
362.2663162474112
 30
0.0
 10
360.5655842743112
 20
362.3973060105122
 30
0.0
 10
360.5655842743112
 20
362.6684497097102
 30
0.0
 10
360.5655842743112
 20
362.8099060200435
 30
0.0
 10
360.5655842743112
 20
362.951607380256
 30
0.0
  0
SPLINE
  5
1E6
330
1F
100
AcDbEntity
  8
0
  6
Continuous
 62
     7
370
    25
100
AcDbSpline
210
0.0
220
0.0
230
1.0
 70
    24
 71
     3
 72
    16
 73
    12
 74
     0
 42
0.000000001
 43
0.00000001
 40
0.0
 40
0.0
 40
0.0
 40
0.0
 40
0.1250000000000002
 40
0.1250000000000002
 40
0.2500000000000004
 40
0.2500000000000004
 40
0.5000000000000003
 40
0.5000000000000003
 40
0.7500000000000002
 40
0.7500000000000002
 40
1.0
 40
1.0
 40
1.0
 40
1.0
 10
337.0655842743112
 20
362.951607380256
 30
0.0
 10
337.0655842743112
 20
362.8099060200435
 30
0.0
 10
337.0655842743112
 20
362.6684497097102
 30
0.0
 10
337.0655842743112
 20
362.3973060105122
 30
0.0
 10
337.0655842743112
 20
362.2663162474112
 30
0.0
 10
337.0655842743112
 20
361.8870471605961
 30
0.0
 10
337.0655842743112
 20
361.6697280638106
 30
0.0
 10
337.0655842743112
 20
361.3102028630585
 30
0.0
 10
337.0655842743112
 20
361.1772572342285
 30
0.0
 10
337.0655842743112
 20
360.9954770790711
 30
0.0
 10
337.0655842743112
 20
360.951607380256
 30
0.0
 10
337.0655842743112
 20
360.951607380256
 30
0.0
  0
LINE
  5
1E7
330
1F
100
AcDbEntity
  8
0
  6
Continuous
 62
     7
370
    25
100
AcDbLine
 10
360.5655842743
 20
364.4516073803
 30
0.0
 11
360.5655842743
 21
362.9516073803
 31
0.0
  0
LINE
  5
1E8
330
1F
100
AcDbEntity
  8
0
  6
Continuous
 62
     7
370
    25
100
AcDbLine
 10
337.0655842743
 20
362.9516073803
 30
0.0
 11
337.0655842743
 21
364.4516073803
 31
0.0
  0
SPLINE
  5
1E9
330
1F
100
AcDbEntity
  8
0
  6
Continuous
 62
     7
370
    25
100
AcDbSpline
210
0.0
220
0.0
230
1.0
 70
    24
 71
     3
 72
    18
 73
    14
 74
     0
 42
0.000000001
 43
0.00000001
 40
0.0
 40
0.0
 40
0.0
 40
0.0
 40
0.1250000000000001
 40
0.1250000000000001
 40
0.2500000000000002
 40
0.2500000000000002
 40
0.5000000000000001
 40
0.5000000000000001
 40
0.6250000000000001
 40
0.6250000000000001
 40
0.75
 40
0.75
 40
1.0
 40
1.0
 40
1.0
 40
1.0
 10
343.0655842743112
 20
364.451607380256
 30
0.0
 10
343.0655842743112
 20
364.5928649745773
 30
0.0
 10
343.0655842743112
 20
364.7312268390975
 30
0.0
 10
343.0655842743112
 20
365.0024679896185
 30
0.0
 10
343.0655842743112
 20
365.1363543761958
 30
0.0
 10
343.0655842743112
 20
365.511021095342
 30
0.0
 10
343.0655842743112
 20
365.7334290158205
 30
0.0
 10
343.0655842743112
 20
366.0008862049799
 30
0.0
 10
343.0655842743112
 20
366.0804740356558
 30
0.0
 10
343.0655842743112
 20
366.2153166045468
 30
0.0
 10
343.0655842743112
 20
366.2714062730118
 30
0.0
 10
343.0655842743112
 20
366.4071451409636
 30
0.0
 10
343.0655842743112
 20
366.451607380256
 30
0.0
 10
343.0655842743112
 20
366.451607380256
 30
0.0
  0
LINE
  5
1EA
330
1F
100
AcDbEntity
  8
0
  6
Continuous
 62
     7
370
    25
100
AcDbLine
 10
337.0655842743
 20
364.4516073803
 30
0.0
 11
343.0655842743
 21
364.4516073803
 31
0.0
  0
LINE
  5
1EB
330
1F
100
AcDbEntity
  8
0
  6
Continuous
 62
     7
370
    25
100
AcDbLine
 10
337.0655842743
 20
366.4516073803
 30
0.0
 11
343.0655842743
 21
366.4516073803
 31
0.0
  0
SPLINE
  5
1EC
330
1F
100
AcDbEntity
  8
0
  6
Continuous
 62
     7
370
    25
100
AcDbSpline
210
0.0
220
0.0
230
1.0
 70
    24
 71
     3
 72
    16
 73
    12
 74
     0
 42
0.000000001
 43
0.00000001
 40
0.0
 40
0.0
 40
0.0
 40
0.0
 40
0.2499999999999998
 40
0.2499999999999998
 40
0.4999999999999997
 40
0.4999999999999997
 40
0.7499999999999996
 40
0.7499999999999996
 40
0.8749999999999998
 40
0.8749999999999998
 40
1.0
 40
1.0
 40
1.0
 40
1.0
 10
343.0655842743112
 20
360.951607380256
 30
0.0
 10
343.0655842743112
 20
360.951607380256
 30
0.0
 10
343.0655842743112
 20
360.9954770790711
 30
0.0
 10
343.0655842743112
 20
361.1772572342285
 30
0.0
 10
343.0655842743112
 20
361.3102028630585
 30
0.0
 10
343.0655842743112
 20
361.6697280638106
 30
0.0
 10
343.0655842743112
 20
361.8870471605961
 30
0.0
 10
343.0655842743112
 20
362.2663162474112
 30
0.0
 10
343.0655842743112
 20
362.3973060105122
 30
0.0
 10
343.0655842743112
 20
362.6684497097102
 30
0.0
 10
343.0655842743112
 20
362.8099060200435
 30
0.0
 10
343.0655842743112
 20
362.951607380256
 30
0.0
  0
LINE
  5
1ED
330
1F
100
AcDbEntity
  8
0
  6
Continuous
 62
     7
370
    25
100
AcDbLine
 10
337.0655842743
 20
360.9516073803
 30
0.0
 11
343.0655842743
 21
360.9516073803
 31
0.0
  0
LINE
  5
1EE
330
1F
100
AcDbEntity
  8
0
  6
Continuous
 62
     7
370
    25
100
AcDbLine
 10
337.0655842743
 20
362.9516073803
 30
0.0
 11
343.0655842743
 21
362.9516073803
 31
0.0
  0
LINE
  5
1EF
330
1F
100
AcDbEntity
  8
0
  6
Continuous
 62
     7
370
    25
100
AcDbLine
 10
343.0655842743
 20
364.4516073803
 30
0.0
 11
343.0655842743
 21
362.9516073803
 31
0.0
  0
LINE
  5
1F0
330
1F
100
AcDbEntity
  8
0
  6
Continuous
 62
     7
370
    25
100
AcDbLine
 10
354.5655842743
 20
362.9516073803
 30
0.0
 11
354.5655842743
 21
364.4516073803
 31
0.0
  0
LINE
  5
1F1
330
1F
100
AcDbEntity
  8
0
  6
Continuous
 62
     7
370
    25
100
AcDbLine
 10
354.5655842743
 20
364.4516073803
 30
0.0
 11
360.5655842743
 21
364.4516073803
 31
0.0
  0
LINE
  5
1F2
330
1F
100
AcDbEntity
  8
0
  6
Continuous
 62
     7
370
    25
100
AcDbLine
 10
354.5655842743
 20
362.9516073803
 30
0.0
 11
360.5655842743
 21
362.9516073803
 31
0.0
  0
LINE
  5
1F3
330
1F
100
AcDbEntity
  8
0
  6
Continuous
 62
     7
370
    25
100
AcDbLine
 10
354.5655842743
 20
360.9516073803
 30
0.0
 11
360.5655842743
 21
360.9516073803
 31
0.0
  0
SPLINE
  5
1F4
330
1F
100
AcDbEntity
  8
0
  6
Continuous
 62
     7
370
    25
100
AcDbSpline
210
0.0
220
0.0
230
1.0
 70
    24
 71
     3
 72
    16
 73
    12
 74
     0
 42
0.000000001
 43
0.00000001
 40
0.0
 40
0.0
 40
0.0
 40
0.0
 40
0.2499999999999998
 40
0.2499999999999998
 40
0.4999999999999997
 40
0.4999999999999997
 40
0.7499999999999996
 40
0.7499999999999996
 40
0.8749999999999998
 40
0.8749999999999998
 40
1.0
 40
1.0
 40
1.0
 40
1.0
 10
354.5655842743112
 20
360.951607380256
 30
0.0
 10
354.5655842743112
 20
360.951607380256
 30
0.0
 10
354.5655842743112
 20
360.9954770790711
 30
0.0
 10
354.5655842743112
 20
361.1772572342285
 30
0.0
 10
354.5655842743112
 20
361.3102028630585
 30
0.0
 10
354.5655842743112
 20
361.6697280638106
 30
0.0
 10
354.5655842743112
 20
361.8870471605961
 30
0.0
 10
354.5655842743112
 20
362.2663162474112
 30
0.0
 10
354.5655842743112
 20
362.3973060105122
 30
0.0
 10
354.5655842743112
 20
362.6684497097102
 30
0.0
 10
354.5655842743112
 20
362.8099060200435
 30
0.0
 10
354.5655842743112
 20
362.951607380256
 30
0.0
  0
SPLINE
  5
1F5
330
1F
100
AcDbEntity
  8
0
  6
Continuous
 62
     7
370
    25
100
AcDbSpline
210
0.0
220
0.0
230
1.0
 70
    24
 71
     3
 72
    18
 73
    14
 74
     0
 42
0.000000001
 43
0.00000001
 40
0.0
 40
0.0
 40
0.0
 40
0.0
 40
0.1250000000000001
 40
0.1250000000000001
 40
0.2500000000000002
 40
0.2500000000000002
 40
0.5000000000000001
 40
0.5000000000000001
 40
0.6250000000000001
 40
0.6250000000000001
 40
0.75
 40
0.75
 40
1.0
 40
1.0
 40
1.0
 40
1.0
 10
354.5655842743112
 20
364.451607380256
 30
0.0
 10
354.5655842743112
 20
364.5928649745773
 30
0.0
 10
354.5655842743112
 20
364.7312268390975
 30
0.0
 10
354.5655842743112
 20
365.0024679896185
 30
0.0
 10
354.5655842743112
 20
365.1363543761958
 30
0.0
 10
354.5655842743112
 20
365.511021095342
 30
0.0
 10
354.5655842743112
 20
365.7334290158205
 30
0.0
 10
354.5655842743112
 20
366.0008862049799
 30
0.0
 10
354.5655842743112
 20
366.0804740356558
 30
0.0
 10
354.5655842743112
 20
366.2153166045468
 30
0.0
 10
354.5655842743112
 20
366.2714062730118
 30
0.0
 10
354.5655842743112
 20
366.4071451409636
 30
0.0
 10
354.5655842743112
 20
366.451607380256
 30
0.0
 10
354.5655842743112
 20
366.451607380256
 30
0.0
  0
LINE
  5
1F6
330
1F
100
AcDbEntity
  8
0
  6
Continuous
 62
     7
370
    25
100
AcDbLine
 10
354.5655842743
 20
366.4516073803
 30
0.0
 11
360.5655842743
 21
366.4516073803
 31
0.0
  0
SPLINE
  5
1F7
330
1F
100
AcDbEntity
  8
0
  6
Continuous
 62
     7
370
    25
100
AcDbSpline
210
0.0
220
0.0
230
1.0
 70
     8
 71
     3
 72
     8
 73
     4
 74
     0
 42
0.000000001
 43
0.00000001
 40
0.0000004501145511
 40
0.0000004501145511
 40
0.0000004501145511
 40
0.0000004501145511
 40
0.0002266799982131
 40
0.0002266799982131
 40
0.0002266799982131
 40
0.0002266799982131
 10
336.8626557628542
 20
339.951607380256
 30
0.0
 10
336.9302129893474
 20
339.9851138822769
 30
0.0
 10
336.9978557001072
 20
340.0184485991352
 30
0.0
 10
337.0655842743112
 20
340.051607380256
 30
0.0
  0
LINE
  5
1F8
330
1F
100
AcDbEntity
  8
0
  6
Continuous
 62
     7
370
    25
100
AcDbLine
 10
337.0655842743
 20
307.4516073803
 30
0.0
 11
337.0655842743
 21
340.0516073803
 31
0.0
  0
ARC
  5
1F9
330
1F
100
AcDbEntity
  8
0
  6
Continuous
 62
     7
370
    25
100
AcDbCircle
 10
339.0655842743
 20
307.4516073803
 30
0.0
 40
2.0
100
AcDbArc
 50
180.0
 51
270.0
  0
SPLINE
  5
1FA
330
1F
100
AcDbEntity
  8
0
  6
Continuous
 62
     7
370
    25
100
AcDbSpline
210
0.0
220
0.0
230
1.0
 70
    24
 71
     3
 72
     8
 73
     4
 74
     0
 42
0.000000001
 43
0.00000001
 40
0.0
 40
0.0
 40
0.0
 40
0.0
 40
1.0
 40
1.0
 40
1.0
 40
1.0
 10
332.0655842743112
 20
339.951607380256
 30
0.0
 10
332.0655842743112
 20
340.2895955904244
 30
0.0
 10
332.0655842743112
 20
340.6232007594448
 30
0.0
 10
332.0655842743112
 20
340.951607380256
 30
0.0
  0
LINE
  5
1FB
330
1F
100
AcDbEntity
  8
0
  6
Continuous
 62
     7
370
    25
100
AcDbLine
 10
332.0655842743
 20
340.9516073803
 30
0.0
 11
337.0655842743
 21
340.9516073803
 31
0.0
  0
SPLINE
  5
1FC
330
1F
100
AcDbEntity
  8
0
  6
Continuous
 62
     7
370
    25
100
AcDbSpline
210
0.0
220
0.0
230
1.0
 70
    24
 71
     3
 72
     8
 73
     4
 74
     0
 42
0.000000001
 43
0.00000001
 40
0.0
 40
0.0
 40
0.0
 40
0.0
 40
1.0
 40
1.0
 40
1.0
 40
1.0
 10
337.0655842743112
 20
340.051607380256
 30
0.0
 10
337.0655842743112
 20
340.3526898175319
 30
0.0
 10
337.0655842743112
 20
340.6527379712635
 30
0.0
 10
337.0655842743112
 20
340.951607380256
 30
0.0
  0
ARC
  5
1FD
330
1F
100
AcDbEntity
  8
0
  6
Continuous
 62
     7
370
    25
100
AcDbCircle
 10
358.5655842743
 20
307.4516073803
 30
0.0
 40
2.0
100
AcDbArc
 50
270.0
 51
0.0
  0
LINE
  5
1FE
330
1F
100
AcDbEntity
  8
0
  6
Continuous
 62
     7
370
    25
100
AcDbLine
 10
360.5655842743
 20
340.0516073803
 30
0.0
 11
360.5655842743
 21
307.4516073803
 31
0.0
  0
SPLINE
  5
1FF
330
1F
100
AcDbEntity
  8
0
  6
Continuous
 62
     7
370
    25
100
AcDbSpline
210
0.0
220
0.0
230
1.0
 70
     8
 71
     3
 72
     8
 73
     4
 74
     0
 42
0.000000001
 43
0.00000001
 40
0.000011356065236
 40
0.000011356065236
 40
0.000011356065236
 40
0.000011356065236
 40
0.0002375859924565
 40
0.0002375859924565
 40
0.0002375859924565
 40
0.0002375859924565
 10
360.5655842743112
 20
340.051607380256
 30
0.0
 10
360.6333128485152
 20
340.0184485991352
 30
0.0
 10
360.700955559275
 20
339.9851138822769
 30
0.0
 10
360.7685127857682
 20
339.951607380256
 30
0.0
  0
SPLINE
  5
200
330
1F
100
AcDbEntity
  8
0
  6
Continuous
 62
     7
370
    25
100
AcDbSpline
210
0.0
220
0.0
230
1.0
 70
    24
 71
     3
 72
     8
 73
     4
 74
     0
 42
0.000000001
 43
0.00000001
 40
0.0
 40
0.0
 40
0.0
 40
0.0
 40
1.0
 40
1.0
 40
1.0
 40
1.0
 10
365.5655842743112
 20
340.951607380256
 30
0.0
 10
365.5655842743112
 20
340.6229179601372
 30
0.0
 10
365.5655842743112
 20
340.2893210588878
 30
0.0
 10
365.5655842743112
 20
339.951607380256
 30
0.0
  0
LINE
  5
201
330
1F
100
AcDbEntity
  8
0
  6
Continuous
 62
     7
370
    25
100
AcDbLine
 10
360.5655842743
 20
340.9516073803
 30
0.0
 11
365.5655842743
 21
340.9516073803
 31
0.0
  0
SPLINE
  5
202
330
1F
100
AcDbEntity
  8
0
  6
Continuous
 62
     7
370
    25
100
AcDbSpline
210
0.0
220
0.0
230
1.0
 70
    24
 71
     3
 72
     8
 73
     4
 74
     0
 42
0.000000001
 43
0.00000001
 40
0.0
 40
0.0
 40
0.0
 40
0.0
 40
1.0
 40
1.0
 40
1.0
 40
1.0
 10
360.5655842743112
 20
340.951607380256
 30
0.0
 10
360.5655842743112
 20
340.6527725861851
 30
0.0
 10
360.5655842743112
 20
340.3527232111127
 30
0.0
 10
360.5655842743112
 20
340.051607380256
 30
0.0
  0
SPLINE
  5
203
330
1F
100
AcDbEntity
  8
0
  6
Continuous
 62
     7
370
    25
100
AcDbSpline
210
0.0
220
0.0
230
1.0
 70
     8
 71
     3
 72
    18
 73
    14
 74
     0
 42
0.000000001
 43
0.00000001
 40
0.0
 40
0.0
 40
0.0
 40
0.0
 40
0.2500000000000006
 40
0.2500000000000006
 40
0.5000000000000011
 40
0.5000000000000011
 40
0.6250000000000008
 40
0.6250000000000008
 40
0.7500000000000006
 40
0.7500000000000006
 40
0.8750000000000002
 40
0.8750000000000002
 40
1.0
 40
1.0
 40
1.0
 40
1.0
 10
358.5655842743112
 20
360.951607380256
 30
0.0
 10
358.8202309956077
 20
360.951607380256
 30
0.0
 10
359.0655921278419
 20
360.9046385255299
 30
0.0
 10
359.5373069553044
 20
360.7179860314081
 30
0.0
 10
359.7511306810387
 20
360.5833555930667
 30
0.0
 10
360.0354213903923
 20
360.3141819581487
 30
0.0
 10
360.1208613040445
 20
360.2158772597783
 30
0.0
 10
360.2728994542746
 20
360.001531112605
 30
0.0
 10
360.3399609956455
 20
359.8845190460711
 30
0.0
 10
360.4505195759511
 20
359.634070444501
 30
0.0
 10
360.4926982920936
 20
359.5041024788526
 30
0.0
 10
360.5502930931208
 20
359.234362001873
 30
0.0
 10
360.5655842743112
 20
359.0931389651188
 30
0.0
 10
360.5655842743112
 20
358.951607380256
 30
0.0
  0
LINE
  5
204
330
1F
100
AcDbEntity
  8
0
  6
Continuous
 62
     7
370
    25
100
AcDbLine
 10
365.5655842743
 20
360.9516073803
 30
0.0
 11
365.5655842743
 21
352.8220574817
 31
0.0
  0
SPLINE
  5
205
330
1F
100
AcDbEntity
  8
0
  6
Continuous
 62
     7
370
    25
100
AcDbSpline
210
0.0
220
0.0
230
1.0
 70
     8
 71
     3
 72
    19
 73
    15
 74
     0
 42
0.000000001
 43
0.00000001
 40
0.0
 40
0.0
 40
0.0
 40
0.0
 40
0.2500000000000003
 40
0.2500000000000003
 40
0.3750000000000003
 40
0.3750000000000003
 40
0.5000000000000002
 40
0.6250000000000001
 40
0.6250000000000001
 40
0.7500000000000001
 40
0.7500000000000001
 40
0.875
 40
0.875
 40
1.0
 40
1.0
 40
1.0
 40
1.0
 10
365.5655842743112
 20
344.0811572788559
 30
0.0
 10
365.3031130934154
 20
344.7484470581476
 30
0.0
 10
365.0847051121093
 20
345.4436202161786
 30
0.0
 10
364.8530280550565
 20
346.5382557292796
 30
0.0
 10
364.7917978522088
 20
346.9130961210021
 30
0.0
 10
364.7087468410138
 20
347.6778568386167
 30
0.0
 10
364.6667085601676
 20
348.4420548572414
 30
0.0
 10
364.7073300860753
 20
349.2051315871446
 30
0.0
 10
364.7886205719631
 20
349.9676505410289
 30
0.0
 10
364.8495646610417
 20
350.3459396714196
 30
0.0
 10
365.0039526253355
 20
351.0805907443832
 30
0.0
 10
365.0976332892729
 20
351.4396160330703
 30
0.0
 10
365.3125457605358
 20
352.1428912301721
 30
0.0
 10
365.4341024052928
 20
352.4877864692778
 30
0.0
 10
365.5655842743112
 20
352.8220574816561
 30
0.0
  0
LINE
  5
206
330
1F
100
AcDbEntity
  8
0
  6
Continuous
 62
     7
370
    25
100
AcDbLine
 10
365.5655842743
 20
344.0811572789
 30
0.0
 11
365.5655842743
 21
340.9516073803
 31
0.0
  0
LINE
  5
207
330
1F
100
AcDbEntity
  8
0
  6
Continuous
 62
     7
370
    25
100
AcDbLine
 10
360.5655842743
 20
358.9516073803
 30
0.0
 11
360.5655842743
 21
340.9516073803
 31
0.0
  0
SPLINE
  5
208
330
1F
100
AcDbEntity
  8
0
  6
Continuous
 62
     7
370
    25
100
AcDbSpline
210
0.0
220
0.0
230
1.0
 70
     8
 71
     3
 72
    18
 73
    14
 74
     0
 42
0.000000001
 43
0.00000001
 40
0.0
 40
0.0
 40
0.0
 40
0.0
 40
0.125
 40
0.125
 40
0.2500000000000001
 40
0.2500000000000001
 40
0.5000000000000001
 40
0.5000000000000001
 40
0.6250000000000004
 40
0.6250000000000004
 40
0.7500000000000009
 40
0.7500000000000009
 40
1.0
 40
1.0
 40
1.0
 40
1.0
 10
337.0655842743112
 20
358.951607380256
 30
0.0
 10
337.0655842743112
 20
359.092670664564
 30
0.0
 10
337.080337807137
 20
359.2306717888511
 30
0.0
 10
337.1375523694878
 20
359.5009464864145
 30
0.0
 10
337.1807417009393
 20
359.6340405501854
 30
0.0
 10
337.3445783338875
 20
360.0058961378018
 30
0.0
 10
337.5024914302159
 20
360.2257938001457
 30
0.0
 10
337.783962389533
 20
360.4924344024854
 30
0.0
 10
337.8864950025934
 20
360.5720368004165
 30
0.0
 10
338.1003406531711
 20
360.7078385063467
 30
0.0
 10
338.2124171466839
 20
360.764894958971
 30
0.0
 10
338.5642309129568
 20
360.9041105864512
 30
0.0
 10
338.8114237935051
 20
360.951607380256
 30
0.0
 10
339.0655842743112
 20
360.951607380256
 30
0.0
  0
LINE
  5
209
330
1F
100
AcDbEntity
  8
0
  6
Continuous
 62
     7
370
    25
100
AcDbLine
 10
332.0655842743
 20
340.9516073803
 30
0.0
 11
332.0655842743
 21
344.0811572789
 31
0.0
  0
SPLINE
  5
20A
330
1F
100
AcDbEntity
  8
0
  6
Continuous
 62
     7
370
    25
100
AcDbSpline
210
0.0
220
0.0
230
1.0
 70
     8
 71
     3
 72
    19
 73
    15
 74
     0
 42
0.000000001
 43
0.00000001
 40
0.0
 40
0.0
 40
0.0
 40
0.0
 40
0.2499999999999992
 40
0.2499999999999992
 40
0.3749999999999993
 40
0.3749999999999993
 40
0.4999999999999994
 40
0.6249999999999996
 40
0.6249999999999996
 40
0.7499999999999997
 40
0.7499999999999997
 40
0.8749999999999999
 40
0.8749999999999999
 40
1.0
 40
1.0
 40
1.0
 40
1.0
 10
332.0655842743112
 20
352.8220574816561
 30
0.0
 10
332.328055455207
 20
352.1547677023644
 30
0.0
 10
332.5464634365131
 20
351.4595945443334
 30
0.0
 10
332.7781404935659
 20
350.3649590312323
 30
0.0
 10
332.8393706964135
 20
349.9901186395099
 30
0.0
 10
332.9224217076086
 20
349.2253579218953
 30
0.0
 10
332.9644603836832
 20
348.461159903985
 30
0.0
 10
332.9238384625472
 20
347.6980831733674
 30
0.0
 10
332.8425479766593
 20
346.935564219483
 30
0.0
 10
332.7816038875807
 20
346.5572750890924
 30
0.0
 10
332.6272159232869
 20
345.8226240161287
 30
0.0
 10
332.5335352593495
 20
345.4635987274416
 30
0.0
 10
332.3186227880865
 20
344.7603235303399
 30
0.0
 10
332.1970661433297
 20
344.4154282912342
 30
0.0
 10
332.0655842743112
 20
344.0811572788559
 30
0.0
  0
LINE
  5
20B
330
1F
100
AcDbEntity
  8
0
  6
Continuous
 62
     7
370
    25
100
AcDbLine
 10
332.0655842743
 20
352.8220574817
 30
0.0
 11
332.0655842743
 21
360.9516073803
 31
0.0
  0
LINE
  5
20C
330
1F
100
AcDbEntity
  8
0
  6
Continuous
 62
     7
370
    25
100
AcDbLine
 10
337.0655842743
 20
340.9516073803
 30
0.0
 11
337.0655842743
 21
358.9516073803
 31
0.0
  0
LINE
  5
20D
330
1F
100
AcDbEntity
  8
0
  6
Continuous
 62
     7
370
    25
100
AcDbLine
 10
332.0655842743
 20
344.0484302024
 30
0.0
 11
332.0655842743
 21
352.8348243827
 31
0.0
  0
LINE
  5
20E
330
1F
100
AcDbEntity
  8
0
  6
Continuous
 62
     7
370
    25
100
AcDbLine
 10
365.5655842743
 20
352.8220574817
 30
0.0
 11
365.5655842743
 21
344.0683903778
 31
0.0
  0
LINE
  5
20F
330
1F
100
AcDbEntity
  8
0
  6
Continuous
 62
     7
370
    25
100
AcDbLine
 10
339.0655842743
 20
307.4516073803
 30
0.0
 11
339.0655842743
 21
305.4516073803
 31
0.0
  0
LINE
  5
210
330
1F
100
AcDbEntity
  8
0
  6
Continuous
 62
     7
370
    25
100
AcDbLine
 10
339.0655842743
 20
307.4516073803
 30
0.0
 11
337.0655842743
 21
307.4516073803
 31
0.0
  0
LINE
  5
211
330
1F
100
AcDbEntity
  8
0
  6
Continuous
 62
     7
370
    25
100
AcDbLine
 10
339.0655842743
 20
358.9516073803
 30
0.0
 11
339.0655842743
 21
307.4516073803
 31
0.0
  0
LINE
  5
212
330
1F
100
AcDbEntity
  8
0
  6
Continuous
 62
     7
370
    25
100
AcDbLine
 10
339.0655842743
 20
358.9516073803
 30
0.0
 11
337.0655842743
 21
358.9516073803
 31
0.0
  0
LINE
  5
213
330
1F
100
AcDbEntity
  8
0
  6
Continuous
 62
     7
370
    25
100
AcDbLine
 10
339.0655842743
 20
358.9516073803
 30
0.0
 11
339.0655842743
 21
360.9516073803
 31
0.0
  0
LINE
  5
214
330
1F
100
AcDbEntity
  8
0
  6
Continuous
 62
     7
370
    25
100
AcDbLine
 10
343.0655842743
 20
358.9516073803
 30
0.0
 11
339.0655842743
 21
358.9516073803
 31
0.0
  0
LINE
  5
215
330
1F
100
AcDbEntity
  8
0
  6
Continuous
 62
     7
370
    25
100
AcDbLine
 10
343.0655842743
 20
360.9516073803
 30
0.0
 11
343.0655842743
 21
358.9516073803
 31
0.0
  0
LINE
  5
216
330
1F
100
AcDbEntity
  8
0
  6
Continuous
 62
     7
370
    25
100
AcDbLine
 10
339.0655842743
 20
307.4516073803
 30
0.0
 11
358.5655842743
 21
307.4516073803
 31
0.0
  0
LINE
  5
217
330
1F
100
AcDbEntity
  8
0
  6
Continuous
 62
     7
370
    25
100
AcDbLine
 10
358.5655842743
 20
307.4516073803
 30
0.0
 11
358.5655842743
 21
305.4516073803
 31
0.0
  0
LINE
  5
218
330
1F
100
AcDbEntity
  8
0
  6
Continuous
 62
     7
370
    25
100
AcDbLine
 10
358.5655842743
 20
360.9516073803
 30
0.0
 11
358.5655842743
 21
358.9516073803
 31
0.0
  0
LINE
  5
219
330
1F
100
AcDbEntity
  8
0
  6
Continuous
 62
     7
370
    25
100
AcDbLine
 10
358.5655842743
 20
358.9516073803
 30
0.0
 11
354.5655842743
 21
358.9516073803
 31
0.0
  0
LINE
  5
21A
330
1F
100
AcDbEntity
  8
0
  6
Continuous
 62
     7
370
    25
100
AcDbLine
 10
354.5655842743
 20
358.9516073803
 30
0.0
 11
354.5655842743
 21
360.9516073803
 31
0.0
  0
LINE
  5
21B
330
1F
100
AcDbEntity
  8
0
  6
Continuous
 62
     7
370
    25
100
AcDbLine
 10
360.5655842743
 20
358.9516073803
 30
0.0
 11
358.5655842743
 21
358.9516073803
 31
0.0
  0
LINE
  5
21C
330
1F
100
AcDbEntity
  8
0
  6
Continuous
 62
     7
370
    25
100
AcDbLine
 10
358.5655842743
 20
307.4516073803
 30
0.0
 11
360.5655842743
 21
307.4516073803
 31
0.0
  0
LINE
  5
21D
330
1F
100
AcDbEntity
  8
0
  6
Continuous
 62
     7
370
    25
100
AcDbLine
 10
358.5655842743
 20
307.4516073803
 30
0.0
 11
358.5655842743
 21
358.9516073803
 31
0.0
  0
ARC
  5
21E
330
1F
100
AcDbEntity
  8
0
  6
Continuous
 62
     7
370
    25
100
AcDbCircle
 10
345.0655842743
 20
325.9516073803
 30
0.0
 40
2.0
100
AcDbArc
 50
180.0
 51
270.0
  0
LINE
  5
21F
330
1F
100
AcDbEntity
  8
0
  6
Continuous
 62
     7
370
    25
100
AcDbLine
 10
345.0655842743
 20
323.9516073803
 30
0.0
 11
352.5655842743
 21
323.9516073803
 31
0.0
  0
ARC
  5
220
330
1F
100
AcDbEntity
  8
0
  6
Continuous
 62
     7
370
    25
100
AcDbCircle
 10
352.5655842743
 20
325.9516073803
 30
0.0
 40
2.0
100
AcDbArc
 50
270.0
 51
0.0
  0
LINE
  5
221
330
1F
100
AcDbEntity
  8
0
  6
Continuous
 62
     7
370
    25
100
AcDbLine
 10
354.5655842743
 20
325.9516073803
 30
0.0
 11
354.5655842743
 21
358.9516073803
 31
0.0
  0
LINE
  5
222
330
1F
100
AcDbEntity
  8
0
  6
Continuous
 62
     7
370
    25
100
AcDbLine
 10
343.0655842743
 20
358.9516073803
 30
0.0
 11
343.0655842743
 21
325.9516073803
 31
0.0
  0
LINE
  5
223
330
1F
100
AcDbEntity
  8
0
  6
Continuous
 62
     7
370
    25
100
AcDbLine
 10
345.0655842743
 20
325.9516073803
 30
0.0
 11
345.0655842743
 21
323.9516073803
 31
0.0
  0
LINE
  5
224
330
1F
100
AcDbEntity
  8
0
  6
Continuous
 62
     7
370
    25
100
AcDbLine
 10
345.0655842743
 20
325.9516073803
 30
0.0
 11
343.0655842743
 21
325.9516073803
 31
0.0
  0
LINE
  5
225
330
1F
100
AcDbEntity
  8
0
  6
Continuous
 62
     7
370
    25
100
AcDbLine
 10
345.0655842743
 20
366.4516073803
 30
0.0
 11
345.0655842743
 21
325.9516073803
 31
0.0
  0
LINE
  5
226
330
1F
100
AcDbEntity
  8
0
  6
Continuous
 62
     7
370
    25
100
AcDbLine
 10
343.0655842743
 20
366.4516073803
 30
0.0
 11
345.0655842743
 21
366.4516073803
 31
0.0
  0
LINE
  5
227
330
1F
100
AcDbEntity
  8
0
  6
Continuous
 62
     7
370
    25
100
AcDbLine
 10
345.0655842743
 20
325.9516073803
 30
0.0
 11
352.5655842743
 21
325.9516073803
 31
0.0
  0
LINE
  5
228
330
1F
100
AcDbEntity
  8
0
  6
Continuous
 62
     7
370
    25
100
AcDbLine
 10
352.5655842743
 20
323.9516073803
 30
0.0
 11
352.5655842743
 21
325.9516073803
 31
0.0
  0
LINE
  5
229
330
1F
100
AcDbEntity
  8
0
  6
Continuous
 62
     7
370
    25
100
AcDbLine
 10
354.5655842743
 20
325.9516073803
 30
0.0
 11
352.5655842743
 21
325.9516073803
 31
0.0
  0
LINE
  5
22A
330
1F
100
AcDbEntity
  8
0
  6
Continuous
 62
     7
370
    25
100
AcDbLine
 10
352.5655842743
 20
325.9516073803
 30
0.0
 11
352.5655842743
 21
366.4516073803
 31
0.0
  0
LINE
  5
22B
330
1F
100
AcDbEntity
  8
0
  6
Continuous
 62
     7
370
    25
100
AcDbLine
 10
352.5655842743
 20
366.4516073803
 30
0.0
 11
354.5655842743
 21
366.4516073803
 31
0.0
  0
LINE
  5
22C
330
1F
100
AcDbEntity
  8
0
  6
Continuous
 62
     7
370
    25
100
AcDbLine
 10
352.5655842743
 20
366.4516073803
 30
0.0
 11
345.0655842743
 21
366.4516073803
 31
0.0
  0
LINE
  5
22D
330
1F
100
AcDbEntity
  8
0
  6
Continuous
 62
     8
370
    25
100
AcDbLine
 10
324.7155842743
 20
290.9516073802
 30
0.0
 11
372.9155842743
 21
290.9516073802
 31
0.0
  0
LINE
  5
22E
330
1F
100
AcDbEntity
  8
0
  6
Continuous
 62
     8
370
    25
100
AcDbLine
 10
337.0655842743
 20
364.4516073803
 30
0.0
 11
322.8155842743
 21
364.4516073803
 31
0.0
  0
LINE
  5
22F
330
1F
100
AcDbEntity
  8
0
  6
Continuous
 62
     8
370
    25
100
AcDbLine
 10
374.8155842743
 20
364.4516073803
 30
0.0
 11
360.5655842743
 21
364.4516073803
 31
0.0
  0
LINE
  5
230
330
1F
100
AcDbEntity
  8
0
  6
Continuous
 62
     8
370
    25
100
AcDbLine
 10
360.5655842743
 20
362.9516073803
 30
0.0
 11
374.8155842743
 21
362.9516073803
 31
0.0
  0
LINE
  5
231
330
1F
100
AcDbEntity
  8
0
  6
Continuous
 62
     8
370
    25
100
AcDbLine
 10
322.8155842743
 20
362.9516073803
 30
0.0
 11
337.0655842743
 21
362.9516073803
 31
0.0
  0
DIMENSION
  5
232
330
1F
100
AcDbEntity
  8
0
  6
Continuous
 62
     7
370
    18
100
AcDbDimension
  2
_D_11
 10
343.0655842743
 20
378.9326141628
 30
0.0
 11
348.37395511
 21
378.9326141628
 31
0.0
 70
   160
  1
=<>=
 71
     2
 42
-1.0
  3
SLDDIMSTYLE2
100
AcDbAlignedDimension
 13
354.5655842743
 23
366.4516073803
 33
0.0
 14
343.0655842743
 24
366.4516073803
 34
0.0
100
AcDbRotatedDimension
  0
DIMENSION
  5
240
330
1F
100
AcDbEntity
  8
0
  6
Continuous
 62
     7
370
    18
100
AcDbDimension
  2
_D_12
 10
311.1804732491
 20
305.9516073803
 30
0.0
 11
311.1804732491
 21
317.8032933721
 31
0.0
 70
   160
  1
<>
 71
     2
 42
-1.0
  3
SLDDIMSTYLE2
100
AcDbAlignedDimension
 13
343.0655842743
 23
323.9516073803
 33
0.0
 14
337.0655842743
 24
305.9516073803
 34
0.0
 50
90.0
100
AcDbRotatedDimension
  0
DIMENSION
  5
24A
330
1F
100
AcDbEntity
  8
0
  6
Continuous
 62
     7
370
    18
100
AcDbDimension
  2
_D_13
 10
358.5655842743
 20
307.4516073803
 30
0.0
 11
385.0961437039
 21
292.1341975253
 31
0.0
 70
   164
  1
<>
 71
     1
 42
-1.0
  3
SLDDIMSTYLE3
100
AcDbRadialDimension
 15
360.2976350819
 25
306.4516073803
 35
0.0
 40
0.0
  0
DIMENSION
  5
252
330
1F
100
AcDbEntity
  8
0
  6
Continuous
 62
     7
370
    18
100
AcDbDimension
  2
_D_14
 10
313.952600833
 20
323.9516073803
 30
0.0
 11
313.952600833
 21
343.251988855
 31
0.0
 70
   160
  1
<>
 71
     2
 42
-1.0
  3
SLDDIMSTYLE2
100
AcDbAlignedDimension
 13
324.8155842743
 23
366.4516073803
 33
0.0
 14
345.0655842743
 24
323.9516073803
 34
0.0
 50
90.0
100
AcDbRotatedDimension
  0
DIMENSION
  5
25E
330
1F
100
AcDbEntity
  8
0
  6
Continuous
 62
     7
370
    18
100
AcDbDimension
  2
_D_15
 10
365.5655842743
 20
400.5016073803
 30
0.0
 11
349.2315175021
 21
400.5016073803
 31
0.0
 70
   160
  1
=<>=
 71
     2
 42
-1.0
  3
SLDDIMSTYLE0
100
AcDbAlignedDimension
 13
332.0655842743
 23
339.9516073803
 33
0.0
 14
365.5655842743
 24
339.9516073803
 34
0.0
100
AcDbRotatedDimension
  0
DIMENSION
  5
26A
330
1F
100
AcDbEntity
  8
0
  6
Continuous
 62
     7
370
    18
100
AcDbDimension
  2
_D_16
 10
372.9155842743
 20
327.2367204491
 30
0.0
 11
380.596457922
 21
327.2367204491
 31
0.0
 70
   160
  1
<>
 71
     2
 42
-1.0
  3
SLDDIMSTYLE0
100
AcDbAlignedDimension
 13
365.5655842743
 23
339.9516073803
 33
0.0
 14
372.9155842743
 24
305.4516073803
 34
0.0
100
AcDbRotatedDimension
  0
DIMENSION
  5
274
330
1F
100
AcDbEntity
  8
0
  6
Continuous
 62
     7
370
    18
100
AcDbDimension
  2
_D_17
 10
401.0659954839
 20
360.9516073803
 30
0.0
 11
401.0659954839
 21
330.2577563335
 31
0.0
 70
   160
  1
<>\SH7^ ;
 71
     2
 42
-1.0
  3
SLDDIMSTYLE5
100
AcDbAlignedDimension
 13
360.7685127858
 23
305.4516073803
 33
0.0
 14
360.5655842743
 24
360.9516073803
 34
0.0
 50
90.0
100
AcDbRotatedDimension
  0
DIMENSION
  5
287
330
1F
100
AcDbEntity
  8
0
  6
Continuous
 62
     7
370
    18
100
AcDbDimension
  2
_D_18
 10
337.0655842743
 20
383.4650039353
 30
0.0
 11
349.2436556612
 21
383.4650039353
 31
0.0
 70
   160
  1
=<>\SH7^ ;=
 71
     2
 42
-1.0
  3
SLDDIMSTYLE6
100
AcDbAlignedDimension
 13
360.5655842743
 23
358.9516073803
 33
0.0
 14
337.0655842743
 24
358.9516073803
 34
0.0
100
AcDbRotatedDimension
  0
LINE
  5
29E
330
1F
100
AcDbEntity
  8
0
  6
CENTERX2
 62
     7
370
    18
100
AcDbLine
 10
348.8155842743
 20
374.3681580762
 30
0.0
 11
348.8155842743
 21
233.6020623875
 31
0.0
  0
ARC
  5
29F
330
1F
100
AcDbEntity
  8
0
  6
Continuous
 62
     7
370
    25
100
AcDbCircle
 10
203.0116473166
 20
185.1651001932
 30
0.0
 40
26.0
100
AcDbArc
 50
206.8671336685
 51
153.1328663315
  0
SPLINE
  5
2A0
330
1F
100
AcDbEntity
  8
0
  6
Continuous
 62
     7
370
    25
100
AcDbSpline
210
0.0
220
0.0
230
1.0
 70
    24
 71
     3
 72
    18
 73
    14
 74
     0
 42
0.000000001
 43
0.00000001
 40
0.0
 40
0.0
 40
0.0
 40
0.0
 40
0.1250000000000001
 40
0.1250000000000001
 40
0.2500000000000002
 40
0.2500000000000002
 40
0.5000000000000001
 40
0.5000000000000001
 40
0.6250000000000001
 40
0.6250000000000001
 40
0.75
 40
0.75
 40
1.0
 40
1.0
 40
1.0
 40
1.0
 10
179.8181676294041
 20
173.4151001932281
 30
0.0
 10
179.8181676294041
 20
173.4151001932281
 30
0.0
 10
179.834750749988
 20
173.4151001932281
 30
0.0
 10
179.8993143475889
 20
173.4151001932281
 30
0.0
 10
179.9481664995784
 20
173.4151001932281
 30
0.0
 10
180.1344266388101
 20
173.4151001932281
 30
0.0
 10
180.3153885922103
 20
173.4151001932281
 30
0.0
 10
180.6377891635277
 20
173.4151001932281
 30
0.0
 10
180.7553580088642
 20
173.4151001932281
 30
0.0
 10
180.9997708915362
 20
173.4151001932281
 30
0.0
 10
181.1273910406699
 20
173.4151001932281
 30
0.0
 10
181.5257928423699
 20
173.4151001932281
 30
0.0
 10
181.8030685137395
 20
173.4151001932281
 30
0.0
 10
182.0846910161646
 20
173.4151001932281
 30
0.0
  0
ARC
  5
2A1
330
1F
100
AcDbEntity
  8
0
  6
Continuous
 62
     7
370
    25
100
AcDbCircle
 10
203.0116473166
 20
185.1651001932
 30
0.0
 40
24.0
100
AcDbArc
 50
209.3131989642
 51
150.6868010358
  0
SPLINE
  5
2A2
330
1F
100
AcDbEntity
  8
0
  6
Continuous
 62
     7
370
    25
100
AcDbSpline
210
0.0
220
0.0
230
1.0
 70
    24
 71
     3
 72
    18
 73
    14
 74
     0
 42
0.000000001
 43
0.00000001
 40
0.0
 40
0.0
 40
0.0
 40
0.0
 40
0.25
 40
0.25
 40
0.3749999999999999
 40
0.3749999999999999
 40
0.4999999999999999
 40
0.4999999999999999
 40
0.7499999999999998
 40
0.7499999999999998
 40
0.8749999999999999
 40
0.8749999999999999
 40
1.0
 40
1.0
 40
1.0
 40
1.0
 10
182.0846910161646
 20
196.9151001932282
 30
0.0
 10
181.8030685137395
 20
196.9151001932282
 30
0.0
 10
181.52579284237
 20
196.9151001932282
 30
0.0
 10
181.1273910406699
 20
196.9151001932282
 30
0.0
 10
180.9997708915362
 20
196.9151001932282
 30
0.0
 10
180.7553580088642
 20
196.9151001932282
 30
0.0
 10
180.6377891635277
 20
196.9151001932282
 30
0.0
 10
180.3153885922103
 20
196.9151001932282
 30
0.0
 10
180.1344266388101
 20
196.9151001932282
 30
0.0
 10
179.9481664995784
 20
196.9151001932282
 30
0.0
 10
179.8993143475889
 20
196.9151001932282
 30
0.0
 10
179.834750749988
 20
196.9151001932282
 30
0.0
 10
179.8181676294041
 20
196.9151001932282
 30
0.0
 10
179.8181676294041
 20
196.9151001932282
 30
0.0
  0
LINE
  5
2A3
330
1F
100
AcDbEntity
  8
0
  6
Continuous
 62
     7
370
    25
100
AcDbLine
 10
182.0846910162
 20
179.4151001932
 30
0.0
 11
182.0846910162
 21
173.4151001932
 31
0.0
  0
LINE
  5
2A4
330
1F
100
AcDbEntity
  8
0
  6
Continuous
 62
     7
370
    25
100
AcDbLine
 10
217.5308875778
 20
179.4151001932
 30
0.0
 11
182.0846910162
 21
179.4151001932
 31
0.0
  0
ARC
  5
2A5
330
1F
100
AcDbEntity
  8
0
  6
Continuous
 62
     7
370
    25
100
AcDbCircle
 10
217.5308875778
 20
181.4151001932
 30
0.0
 40
2.0
100
AcDbArc
 50
270.0
 51
0.0
  0
LINE
  5
2A6
330
1F
100
AcDbEntity
  8
0
  6
Continuous
 62
     7
370
    25
100
AcDbLine
 10
219.5308875778
 20
181.4151001932
 30
0.0
 11
219.5308875778
 21
188.9151001932
 31
0.0
  0
ARC
  5
2A7
330
1F
100
AcDbEntity
  8
0
  6
Continuous
 62
     7
370
    25
100
AcDbCircle
 10
217.5308875778
 20
188.9151001932
 30
0.0
 40
2.0
100
AcDbArc
 50
0.0
 51
90.0
  0
LINE
  5
2A8
330
1F
100
AcDbEntity
  8
0
  6
Continuous
 62
     7
370
    25
100
AcDbLine
 10
217.5308875778
 20
190.9151001932
 30
0.0
 11
182.0846910162
 21
190.9151001932
 31
0.0
  0
LINE
  5
2A9
330
1F
100
AcDbEntity
  8
0
  6
Continuous
 62
     7
370
    25
100
AcDbLine
 10
182.0846910162
 20
196.9151001932
 30
0.0
 11
182.0846910162
 21
190.9151001932
 31
0.0
  0
SPLINE
  5
2AA
330
1F
100
AcDbEntity
  8
0
  6
Continuous
 62
     7
370
    25
100
AcDbSpline
210
0.0
220
0.0
230
1.0
 70
    24
 71
     3
 72
    18
 73
    14
 74
     0
 42
0.000000001
 43
0.00000001
 40
0.0
 40
0.0
 40
0.0
 40
0.0
 40
0.1250000000000001
 40
0.1250000000000001
 40
0.2500000000000002
 40
0.2500000000000002
 40
0.5000000000000001
 40
0.5000000000000001
 40
0.6250000000000001
 40
0.6250000000000001
 40
0.75
 40
0.75
 40
1.0
 40
1.0
 40
1.0
 40
1.0
 10
179.8181676294041
 20
190.9151001932282
 30
0.0
 10
179.8181676294041
 20
190.9151001932282
 30
0.0
 10
179.834750749988
 20
190.9151001932282
 30
0.0
 10
179.8993143475889
 20
190.9151001932282
 30
0.0
 10
179.9481664995784
 20
190.9151001932282
 30
0.0
 10
180.1344266388101
 20
190.9151001932282
 30
0.0
 10
180.3153885922103
 20
190.9151001932282
 30
0.0
 10
180.6377891635277
 20
190.9151001932282
 30
0.0
 10
180.7553580088642
 20
190.9151001932282
 30
0.0
 10
180.9997708915362
 20
190.9151001932282
 30
0.0
 10
181.1273910406699
 20
190.9151001932282
 30
0.0
 10
181.52579284237
 20
190.9151001932282
 30
0.0
 10
181.8030685137395
 20
190.9151001932282
 30
0.0
 10
182.0846910161646
 20
190.9151001932282
 30
0.0
  0
LINE
  5
2AB
330
1F
100
AcDbEntity
  8
0
  6
Continuous
 62
     7
370
    25
100
AcDbLine
 10
179.8181676294
 20
196.9151001932
 30
0.0
 11
179.8181676294
 21
190.9151001932
 31
0.0
  0
LINE
  5
2AC
330
1F
100
AcDbEntity
  8
0
  6
Continuous
 62
     7
370
    25
100
AcDbLine
 10
179.8181676294
 20
179.4151001932
 30
0.0
 11
179.8181676294
 21
173.4151001932
 31
0.0
  0
SPLINE
  5
2AD
330
1F
100
AcDbEntity
  8
0
  6
Continuous
 62
     7
370
    25
100
AcDbSpline
210
0.0
220
0.0
230
1.0
 70
    24
 71
     3
 72
    18
 73
    14
 74
     0
 42
0.000000001
 43
0.00000001
 40
0.0
 40
0.0
 40
0.0
 40
0.0
 40
0.1250000000000001
 40
0.1250000000000001
 40
0.2500000000000002
 40
0.2500000000000002
 40
0.5000000000000001
 40
0.5000000000000001
 40
0.6250000000000001
 40
0.6250000000000001
 40
0.75
 40
0.75
 40
1.0
 40
1.0
 40
1.0
 40
1.0
 10
179.8181676294041
 20
179.4151001932281
 30
0.0
 10
179.8181676294041
 20
179.4151001932281
 30
0.0
 10
179.834750749988
 20
179.4151001932281
 30
0.0
 10
179.8993143475889
 20
179.4151001932281
 30
0.0
 10
179.9481664995784
 20
179.4151001932281
 30
0.0
 10
180.1344266388101
 20
179.4151001932281
 30
0.0
 10
180.3153885922103
 20
179.4151001932281
 30
0.0
 10
180.6377891635277
 20
179.4151001932281
 30
0.0
 10
180.7553580088642
 20
179.4151001932281
 30
0.0
 10
180.9997708915362
 20
179.4151001932281
 30
0.0
 10
181.1273910406699
 20
179.4151001932281
 30
0.0
 10
181.5257928423699
 20
179.4151001932281
 30
0.0
 10
181.8030685137395
 20
179.4151001932281
 30
0.0
 10
182.0846910161646
 20
179.4151001932281
 30
0.0
  0
LINE
  5
2AE
330
1F
100
AcDbEntity
  8
0
  6
Continuous
 62
     7
370
    25
100
AcDbLine
 10
217.5308875778
 20
190.9151001932
 30
0.0
 11
217.5308875778
 21
188.9151001932
 31
0.0
  0
LINE
  5
2AF
330
1F
100
AcDbEntity
  8
0
  6
Continuous
 62
     7
370
    25
100
AcDbLine
 10
217.5308875778
 20
188.9151001932
 30
0.0
 11
202.0846910162
 21
188.9151001932
 31
0.0
  0
LINE
  5
2B0
330
1F
100
AcDbEntity
  8
0
  6
Continuous
 62
     7
370
    25
100
AcDbLine
 10
202.0846910162
 20
188.9151001932
 30
0.0
 11
202.0846910162
 21
190.9151001932
 31
0.0
  0
LINE
  5
2B1
330
1F
100
AcDbEntity
  8
0
  6
Continuous
 62
     7
370
    25
100
AcDbLine
 10
219.5308875778
 20
188.9151001932
 30
0.0
 11
217.5308875778
 21
188.9151001932
 31
0.0
  0
LINE
  5
2B2
330
1F
100
AcDbEntity
  8
0
  6
Continuous
 62
     7
370
    25
100
AcDbLine
 10
217.5308875778
 20
181.4151001932
 30
0.0
 11
219.5308875778
 21
181.4151001932
 31
0.0
  0
LINE
  5
2B3
330
1F
100
AcDbEntity
  8
0
  6
Continuous
 62
     7
370
    25
100
AcDbLine
 10
217.5308875778
 20
181.4151001932
 30
0.0
 11
217.5308875778
 21
188.9151001932
 31
0.0
  0
LINE
  5
2B4
330
1F
100
AcDbEntity
  8
0
  6
Continuous
 62
     7
370
    25
100
AcDbLine
 10
217.5308875778
 20
181.4151001932
 30
0.0
 11
217.5308875778
 21
179.4151001932
 31
0.0
  0
LINE
  5
2B5
330
1F
100
AcDbEntity
  8
0
  6
Continuous
 62
     7
370
    25
100
AcDbLine
 10
202.0846910162
 20
181.4151001932
 30
0.0
 11
217.5308875778
 21
181.4151001932
 31
0.0
  0
LINE
  5
2B6
330
1F
100
AcDbEntity
  8
0
  6
Continuous
 62
     7
370
    25
100
AcDbLine
 10
202.0846910162
 20
179.4151001932
 30
0.0
 11
202.0846910162
 21
181.4151001932
 31
0.0
  0
LINE
  5
2B7
330
1F
100
AcDbEntity
  8
0
  6
Continuous
 62
     7
370
    25
100
AcDbLine
 10
202.0846910162
 20
188.9151001932
 30
0.0
 11
202.0846910162
 21
181.4151001932
 31
0.0
  0
ARC
  5
2B8
330
1F
100
AcDbEntity
  8
0
  6
Continuous
 62
     7
370
    25
100
AcDbCircle
 10
203.0116473166
 20
185.1651001932
 30
0.0
 40
24.1
100
AcDbArc
 50
164.235191639
 51
195.764808361
  0
LINE
  5
2B9
330
1F
100
AcDbEntity
  8
0
  6
Continuous
 62
     8
370
    25
100
AcDbLine
 10
200.0846910162
 20
179.4151001932
 30
0.0
 11
200.0846910162
 21
190.9151001932
 31
0.0
  0
INSERT
  5
2C5
330
1F
100
AcDbEntity
  8
0
  6
Continuous
 62
     7
370
     0
100
AcDbBlockReference
  2
SW_CENTERMARKSYMBOL_2
 10
203.0116473166
 20
185.1651001932
 30
0.0
  0
LINE
  5
2C6
330
1F
100
AcDbEntity
  8
0
  6
PHANTOM
 62
     7
370
    35
100
AcDbLine
 10
235.0236753166
 20
185.1651001932
 30
0.0
 11
172.8996443166
 21
185.1651001932
 31
0.0
  0
LINE
  5
2C7
330
1F
100
AcDbEntity
  8
0
  6
Continuous
 62
     7
370
    35
100
AcDbLine
 10
233.0236753166
 20
197.8651001932
 30
0.0
 11
233.0236753166
 21
185.1651001932
 31
0.0
  0
SOLID
  5
2C8
330
1F
100
AcDbEntity
  8
0
  6
Continuous
 62
     7
370
    35
100
AcDbTrace
 10
233.0236753166
 20
185.1651001932
 30
0.0
 11
234.0396753166
 21
191.5151001932
 31
0.0
 12
232.0076753166
 22
191.5151001932
 32
0.0
 13
232.0076753166
 23
191.5151001932
 33
0.0
  0
LINE
  5
2C9
330
1F
100
AcDbEntity
  8
0
  6
Continuous
 62
     7
370
    35
100
AcDbLine
 10
174.8996443166
 20
197.8651001932
 30
0.0
 11
174.8996443166
 21
185.1651001932
 31
0.0
  0
SOLID
  5
2CA
330
1F
100
AcDbEntity
  8
0
  6
Continuous
 62
     7
370
    35
100
AcDbTrace
 10
174.8996443166
 20
185.1651001932
 30
0.0
 11
175.9156443166
 21
191.5151001932
 31
0.0
 12
173.8836443166
 22
191.5151001932
 32
0.0
 13
173.8836443166
 23
191.5151001932
 33
0.0
  0
MTEXT
  5
2CB
330
1F
100
AcDbEntity
  8
0
  6
Continuous
 62
     7
100
AcDbMText
 10
234.0941508284
 20
197.8651001932
 30
0.0
 40
3.5
 41
0.0
 71
     1
 72
     1
  1
B
  7
SLDTEXTSTYLE0
 73
     1
 44
1.0
  0
MTEXT
  5
2CC
330
1F
100
AcDbEntity
  8
0
  6
Continuous
 62
     7
100
AcDbMText
 10
171.1529800251
 20
197.8651001932
 30
0.0
 40
3.5
 41
0.0
 71
     1
 72
     1
  1
B
  7
SLDTEXTSTYLE0
 73
     1
 44
1.0
  0
SPLINE
  5
2CD
330
1F
100
AcDbEntity
  8
0
  6
Continuous
 62
     7
370
    25
100
AcDbSpline
210
0.0
220
0.0
230
1.0
 70
     8
 71
     3
 72
    63
 73
    59
 74
     0
 42
0.000000001
 43
0.00000001
 40
0.0
 40
0.0
 40
0.0
 40
0.0
 40
0.0050121936762346
 40
0.0222626872743176
 40
0.0395126423614404
 40
0.0568096898182469
 40
0.074200431498601
 40
0.091722367791243
 40
0.1094008565169985
 40
0.1272474166754701
 40
0.1452597648040618
 40
0.1634236937711004
 40
0.1817164445860417
 40
0.2001107930746424
 40
0.2185789244266292
 40
0.2370953808195947
 40
0.2556387914057855
 40
0.2741919521553731
 40
0.2927401612307268
 40
0.3112763681438773
 40
0.3297964225421506
 40
0.3482983595213285
 40
0.3667817997434176
 40
0.385247479435227
 40
0.4036968987209249
 40
0.4221320677176992
 40
0.4405553287666228
 40
0.4589692356221664
 40
0.4773764739317178
 40
0.4957798107231203
 40
0.5141820634078788
 40
0.5325858521984794
 40
0.5509933223055073
 40
0.5694073518473053
 40
0.5878308143954695
 40
0.6062665551644064
 40
0.6247173519031808
 40
0.6431858517066397
 40
0.6616744725694153
 40
0.6801852551070625
 40
0.6987196458434041
 40
0.7172781894423554
 40
0.7358601047760263
 40
0.754462721910217
 40
0.7730807696172516
 40
0.7917040491712801
 40
0.8103156162589796
 40
0.828895633366702
 40
0.8474190178065087
 40
0.8658564310358283
 40
0.8841766674568489
 40
0.9023504765975257
 40
0.9203552948904016
 40
0.9381798223617094
 40
0.9558272203964795
 40
0.9733160968430459
 40
0.9906791628413065
 40
1.0
 40
1.0
 40
1.0
 40
1.0
 10
378.8436836160068
 20
161.5614654524331
 30
0.0
 10
378.8463797217337
 20
161.6501630295305
 30
0.0
 10
378.8583550288614
 20
162.0441315288467
 30
0.0
 10
378.7948830785772
 20
162.7430644104355
 30
0.0
 10
378.6518864647099
 20
163.6526811878428
 30
0.0
 10
378.4199210472117
 20
164.5536595020452
 30
0.0
 10
378.1075838600364
 20
165.4438461696406
 30
0.0
 10
377.7131504690813
 20
166.3211753389854
 30
0.0
 10
377.2376694971969
 20
167.1833531998776
 30
0.0
 10
376.6816619395544
 20
168.0278148047678
 30
0.0
 10
376.0462555175426
 20
168.8517152449711
 30
0.0
 10
375.3330718029572
 20
169.652005222451
 30
0.0
 10
374.5443588795474
 20
170.4255569903645
 30
0.0
 10
373.6829469372241
 20
171.1693088218255
 30
0.0
 10
372.7521586998436
 20
171.8803903799318
 30
0.0
 10
371.7556800767711
 20
172.5562050280437
 30
0.0
 10
370.6974454815247
 20
173.1944569141354
 30
0.0
 10
369.5815824193107
 20
173.7931245660079
 30
0.0
 10
368.4122817144614
 20
174.350478060278
 30
0.0
 10
367.1937481816374
 20
174.8650374598673
 30
0.0
 10
365.9301375639224
 20
175.3355416656995
 30
0.0
 10
364.6256402471518
 20
175.7608774558013
 30
0.0
 10
363.2844883228883
 20
176.1400601806938
 30
0.0
 10
361.9109619406387
 20
176.4722220436856
 30
0.0
 10
360.5093929910292
 20
176.7566061190947
 30
0.0
 10
359.0841654331431
 20
176.9925642936466
 30
0.0
 10
357.6397122937989
 20
177.1795576103999
 30
0.0
 10
356.1805097179414
 20
177.3171578490297
 30
0.0
 10
354.7110685912096
 20
177.4050494958621
 30
0.0
 10
353.2359242860705
 20
177.4430315137654
 30
0.0
 10
351.7596311769659
 20
177.4310185654785
 30
0.0
 10
350.2867632827238
 20
177.3690430285546
 30
0.0
 10
348.8218813273474
 20
177.2572564245745
 30
0.0
 10
347.3695128146859
 20
177.0959265831614
 30
0.0
 10
345.9341267084916
 20
176.8854309992705
 30
0.0
 10
344.5201412980596
 20
176.6262537038934
 30
0.0
 10
343.1319142538781
 20
176.3189804947257
 30
0.0
 10
341.7737347188901
 20
175.964293653411
 30
0.0
 10
340.4498181044847
 20
175.5629666725504
 30
0.0
 10
339.1643042974985
 20
175.1158598082978
 30
0.0
 10
337.9212599719312
 20
174.6239176801852
 30
0.0
 10
336.7246855435517
 20
174.0881706734601
 30
0.0
 10
335.5785268772275
 20
173.5097425402063
 30
0.0
 10
334.4866909730395
 20
172.8898672478046
 30
0.0
 10
333.4530907410513
 20
172.2299360797245
 30
0.0
 10
332.4816920127058
 20
171.5315788691491
 30
0.0
 10
331.5764544034382
 20
170.7967115798115
 30
0.0
 10
330.7412742542719
 20
170.0275935830927
 30
0.0
 10
329.9798866468795
 20
169.22686192432
 30
0.0
 10
329.2957929822873
 20
168.3976043230359
 30
0.0
 10
328.6920948414249
 20
167.5433542520946
 30
0.0
 10
328.1713767999446
 20
166.6680178636086
 30
0.0
 10
327.7353989272767
 20
165.7757326491893
 30
0.0
 10
327.3856768282204
 20
164.8706767705859
 30
0.0
 10
327.1211649565064
 20
163.9568844969695
 30
0.0
 10
326.9470500783736
 20
163.0380588749037
 30
0.0
 10
326.8588900805091
 20
162.2581458110768
 30
0.0
 10
326.8618767043095
 20
161.7857426067035
 30
0.0
 10
326.8629199487679
 20
161.6207295156536
 30
0.0
  0
LINE
  5
2CE
330
1F
100
AcDbEntity
  8
0
  6
Continuous
 62
     7
370
    25
100
AcDbLine
 10
326.852380479
 20
161.5814807608
 30
0.0
 11
326.852380479
 21
160.356669543
 31
0.0
  0
LINE
  5
2CF
330
1F
100
AcDbEntity
  8
0
  6
Continuous
 62
     7
370
    25
100
AcDbLine
 10
378.852380479
 20
160.356669543
 30
0.0
 11
378.852380479
 21
161.5814807608
 31
0.0
  0
SPLINE
  5
2D0
330
1F
100
AcDbEntity
  8
0
  6
Continuous
 62
     7
370
    25
100
AcDbSpline
210
0.0
220
0.0
230
1.0
 70
     8
 71
     3
 72
    14
 73
    10
 74
     0
 42
0.000000001
 43
0.00000001
 40
0.0
 40
0.0
 40
0.0
 40
0.0
 40
0.0693271293130531
 40
0.2390445117330222
 40
0.4088084688668258
 40
0.5791087809710798
 40
0.7503928441726445
 40
0.9230133569930712
 40
1.0
 40
1.0
 40
1.0
 40
1.0
 10
326.8625538991973
 20
160.3473864422849
 30
0.0
 10
326.8601686160604
 20
160.2226676270583
 30
0.0
 10
326.8519440025726
 20
159.7926289310218
 30
0.0
 10
326.9260037770549
 20
159.058280834776
 30
0.0
 10
327.0825703395209
 20
158.1498419864799
 30
0.0
 10
327.3257729037558
 20
157.2500858850644
 30
0.0
 10
327.6536640767355
 20
156.3627207641836
 30
0.0
 10
327.9741068231447
 20
155.6485440860953
 30
0.0
 10
328.2107972288383
 20
155.2394082471015
 30
0.0
 10
328.2837999426663
 20
155.1132179755383
 30
0.0
  0
SPLINE
  5
2D1
330
1F
100
AcDbEntity
  8
0
  6
Continuous
 62
     7
370
    25
100
AcDbSpline
210
0.0
220
0.0
230
1.0
 70
     8
 71
     3
 72
    40
 73
    36
 74
     0
 42
0.000000001
 43
0.00000001
 40
0.0
 40
0.0
 40
0.0
 40
0.0
 40
0.0215891213054194
 40
0.0525724474531321
 40
0.0835393836898016
 40
0.1144944188702968
 40
0.1454421894905772
 40
0.1763874230155449
 40
0.2073347590706427
 40
0.2382875612723915
 40
0.2692506682045879
 40
0.3002289153212828
 40
0.3312270976952246
 40
0.3622499089902709
 40
0.3933018423469634
 40
0.4243870351286021
 40
0.4555090339541628
 40
0.4866704497910782
 40
0.5178724660026669
 40
0.5491141574230701
 40
0.5803915805502651
 40
0.6116966125966999
 40
0.6430141860563185
 40
0.6743162900860294
 40
0.705570914692526
 40
0.7367371477819531
 40
0.7677665320928427
 40
0.7986067073421007
 40
0.8292075069496143
 40
0.8595287820631354
 40
0.8895482718935619
 40
0.9192674433975976
 40
0.9487137488816162
 40
0.9779389195903467
 40
0.9999999999999999
 40
0.9999999999999999
 40
0.9999999999999999
 40
0.9999999999999999
 10
345.4198547666958
 20
145.1552151923989
 30
0.0
 10
345.7488290082503
 20
145.0967988194642
 30
0.0
 10
346.5499260414682
 20
144.9545470041604
 30
0.0
 10
347.8480554410264
 20
144.7845896084661
 30
0.0
 10
349.3046454547591
 20
144.6381580213865
 30
0.0
 10
350.7730249445295
 20
144.5431771246186
 30
0.0
 10
352.2475546700279
 20
144.4976058154763
 30
0.0
 10
353.7239816455121
 20
144.5021519483734
 30
0.0
 10
355.1976516507178
 20
144.5566389997506
 30
0.0
 10
356.6640223132624
 20
144.6609766433429
 30
0.0
 10
358.1185517777832
 20
144.814902204387
 30
0.0
 10
359.5567659679598
 20
145.0180576369914
 30
0.0
 10
360.9742379154976
 20
145.2699737542547
 30
0.0
 10
362.3666004137522
 20
145.570079906025
 30
0.0
 10
363.7295536145788
 20
145.9177078670424
 30
0.0
 10
365.0588708585404
 20
146.312097515807
 30
0.0
 10
366.3504009774125
 20
146.7524013754496
 30
0.0
 10
367.6000666506806
 20
147.237687444017
 30
0.0
 10
368.8038581651584
 20
147.7669384913282
 30
0.0
 10
369.9578223991689
 20
148.3390455676712
 30
0.0
 10
371.0580476318974
 20
148.9527927575018
 30
0.0
 10
372.1006309530922
 20
149.6068201511926
 30
0.0
 10
373.0816068355879
 20
150.299534488658
 30
0.0
 10
373.997013112152
 20
151.0290675533574
 30
0.0
 10
374.8429344089006
 20
151.7932099709038
 30
0.0
 10
375.6156111269287
 20
152.5893893163311
 30
0.0
 10
376.3114980886697
 20
153.4145865627756
 30
0.0
 10
376.9274220587211
 20
154.2653321832553
 30
0.0
 10
377.4607152958479
 20
155.1377683583905
 30
0.0
 10
377.909473070348
 20
156.0277810737269
 30
0.0
 10
378.2721984372651
 20
156.9311852612671
 30
0.0
 10
378.5493557537218
 20
157.8439148947972
 30
0.0
 10
378.737454010883
 20
158.7622060254756
 30
0.0
 10
378.8412191949891
 20
159.6090486191913
 30
0.0
 10
378.8436075682845
 20
160.1490321631435
 30
0.0
 10
378.8446349410047
 20
160.3813092378612
 30
0.0
  0
LINE
  5
2D2
330
1F
100
AcDbEntity
  8
0
  6
Continuous
 62
     7
370
    25
100
AcDbLine
 10
340.9177839964
 20
147.6894505006
 30
0.0
 11
345.1605511998
 21
145.2401531288
 31
0.0
  0
LINE
  5
2D3
330
1F
100
AcDbEntity
  8
0
  6
Continuous
 62
     7
370
    25
100
AcDbLine
 10
376.952380479
 20
101.5657310871
 30
0.0
 11
376.952380479
 21
113.4055728595
 31
0.0
  0
LINE
  5
2D4
330
1F
100
AcDbEntity
  8
0
  6
Continuous
 62
     7
370
    25
100
AcDbLine
 10
328.752380479
 20
113.4055728595
 30
0.0
 11
328.752380479
 21
101.5657310871
 31
0.0
  0
LINE
  5
2D5
330
1F
100
AcDbEntity
  8
0
  6
Continuous
 62
     7
370
    25
100
AcDbLine
 10
328.5432908902
 20
154.8330933141
 30
0.0
 11
332.7860560127
 21
152.3837971436
 31
0.0
  0
LINE
  5
2D6
330
1F
100
AcDbEntity
  8
0
  6
Continuous
 62
     7
370
    25
100
AcDbLine
 10
330.102380479
 20
146.8432606816
 30
0.0
 11
330.102380479
 21
142.3927716815
 31
0.0
  0
LINE
  5
2D7
330
1F
100
AcDbEntity
  8
0
  6
Continuous
 62
     7
370
    25
100
AcDbLine
 10
330.102380479
 20
153.9330500524
 30
0.0
 11
330.102380479
 21
150.2571789762
 31
0.0
  0
LINE
  5
2D8
330
1F
100
AcDbEntity
  8
0
  6
Continuous
 62
     7
370
    25
100
AcDbLine
 10
375.602380479
 20
142.3927716815
 30
0.0
 11
375.602380479
 21
152.5939088575
 31
0.0
  0
LINE
  5
2D9
330
1F
100
AcDbEntity
  8
0
  6
Continuous
 62
     7
370
    25
100
AcDbLine
 10
328.754215645
 20
101.3940409918
 30
0.0
 11
329.4523650754
 21
68.7373825609
 31
0.0
  0
LINE
  5
2DA
330
1F
100
AcDbEntity
  8
0
  6
Continuous
 62
     7
370
    25
100
AcDbLine
 10
376.2523958826
 20
68.7373825609
 30
0.0
 11
376.950545313
 21
101.3940409918
 31
0.0
  0
LINE
  5
2DB
330
1F
100
AcDbEntity
  8
0
  6
Continuous
 62
     7
370
    25
100
AcDbLine
 10
326.852380479
 20
161.5814807608
 30
0.0
 11
326.8524475004
 21
161.6155608208
 31
0.0
  0
SPLINE
  5
2DC
330
1F
100
AcDbEntity
  8
0
  6
Continuous
 62
     7
370
    25
100
AcDbSpline
210
0.0
220
0.0
230
1.0
 70
     8
 71
     3
 72
    18
 73
    14
 74
     0
 42
0.000000001
 43
0.00000001
 40
0.0
 40
0.0
 40
0.0
 40
0.0
 40
0.1250000000000001
 40
0.1250000000000001
 40
0.2500000000000002
 40
0.2500000000000002
 40
0.5000000000000001
 40
0.5000000000000001
 40
0.6250000000000001
 40
0.6250000000000001
 40
0.75
 40
0.75
 40
1.0
 40
1.0
 40
1.0
 40
1.0
 10
344.7606183918115
 20
147.317410624813
 30
0.0
 10
344.7606183918115
 20
147.4327532155652
 30
0.0
 10
344.7723444288296
 20
147.5525006218365
 30
0.0
 10
344.817997786511
 20
147.8003352135048
 30
0.0
 10
344.8525414744583
 20
147.9296005588831
 30
0.0
 10
344.9842472819738
 20
148.3115633702103
 30
0.0
 10
345.1122067063598
 20
148.5670379175112
 30
0.0
 10
345.3401783365968
 20
148.917032848732
 30
0.0
 10
345.4233120643905
 20
149.0300116401235
 30
0.0
 10
345.5961380711373
 20
149.2398864308262
 30
0.0
 10
345.6863791440057
 20
149.3377809967454
 30
0.0
 10
345.9680917596247
 20
149.6112465535236
 30
0.0
 10
346.1641552671082
 20
149.7607368401523
 30
0.0
 10
346.3632924483077
 20
149.8756962878781
 30
0.0
  0
LWPOLYLINE
  5
2DD
330
1F
100
AcDbEntity
  8
0
  6
Continuous
 62
     7
370
    25
100
AcDbPolyline
 90
       85
 70
   128
 43
0.0
 10
346.3632924483
 20
149.8756962879
 10
347.8219363274
 20
149.6674187707
 10
349.3002985759
 20
149.5122434398
 10
350.7925842994
 20
149.4107785526
 10
352.292944026
 20
149.3634218318
 10
353.7954966355
 20
149.3703589066
 10
355.2943524119
 20
149.4315625849
 10
356.7836361299
 20
149.5467929603
 10
358.2575100851
 20
149.7155983519
 10
359.7101969762
 20
149.9373170751
 10
361.1360025513
 20
150.2110800354
 10
362.5293379278
 20
150.5358141349
 10
363.8847415003
 20
150.9102464786
 10
365.1969003485
 20
151.332909364
 10
366.4606710632
 20
151.8021460344
 10
367.6710999072
 20
152.3161171724
 10
368.8234422334
 20
152.8728081107
 10
369.9131810823
 20
153.4700367282
 10
370.9360448881
 20
154.1054620041
 10
371.8880242224
 20
154.776593194
 10
372.76538751
 20
155.4807995934
 10
373.5646956562
 20
156.2153208491
 10
374.2828155276
 20
156.9772777797
 10
374.9169322329
 20
157.7636836613
 10
375.4645601571
 20
158.5714559346
 10
375.9235527046
 20
159.3974282883
 10
376.2921107131
 20
160.2383630704
 10
376.5687895066
 20
161.090963979
 10
376.7525045576
 20
161.9518889831
 10
376.8425357385
 20
162.8177634231
 10
376.8385301446
 20
163.6851932383
 10
376.7405034769
 20
164.5507782716
 10
376.5488399811
 20
165.4111255966
 10
376.2642909411
 20
166.2628628181
 10
375.8879717341
 20
167.1026512907
 10
375.4213574587
 20
167.9271992058
 10
374.8662771529
 20
168.7332744948
 10
374.2249066241
 20
169.5177174983
 10
373.4997599209
 20
170.2774533512
 10
372.6936794784
 20
171.0095040357
 10
371.8098249762
 20
171.7110000545
 10
370.8516609533
 20
172.3791916788
 10
369.8229432275
 20
173.0114597264
 10
368.7277041736
 20
173.6053258287
 10
367.5702369171
 20
174.1584621454
 10
366.3550785062
 20
174.6687004887
 10
365.0869921271
 20
175.1340408231
 10
363.7709484335
 20
175.5526591043
 10
362.4121060625
 20
175.9229144295
 10
361.0157914136
 20
176.2433554693
 10
359.5874777707
 20
176.5127261567
 10
358.1327638472
 20
176.7299706108
 10
356.6573518409
 20
176.8942372751
 10
355.1670250817
 20
177.004882256
 10
353.6676253629
 20
177.0614718467
 10
352.1650300415
 20
177.0637842269
 10
350.6651290011
 20
177.0118103324
 10
349.173801564
 20
176.905753891
 10
347.6968934457
 20
176.7460306233
 10
346.2401938408
 20
176.5332666138
 10
344.8094127303
 20
176.2682958562
 10
343.4101585
 20
175.9521569847
 10
342.047915956
 20
175.5860892027
 10
340.728024826
 20
175.1715274252
 10
339.4556588284
 20
174.7100966542
 10
338.235805392
 20
174.2036056093
 10
337.0732461067
 20
173.6540396374
 10
335.9725379805
 20
173.0635529312
 10
334.9379955764
 20
172.4344600843
 10
333.973674101
 20
171.7692270193
 10
333.0833535081
 20
171.0704613213
 10
332.2705236825
 20
170.3409020168
 10
331.5383707601
 20
169.5834088375
 10
330.889764639
 20
168.8009510101
 10
330.3272477299
 20
167.9965956185
 10
329.8530249904
 20
167.1734955801
 10
329.468955282
 20
166.3348772884
 10
329.1765440839
 20
165.4840279649
 10
328.9769375914
 20
164.6242827746
 10
328.8709182234
 20
163.7590117528
 10
328.8589015554
 20
162.8916065946
 10
328.9409346904
 20
162.0254673607
 10
329.1166960744
 20
161.1639891496
 10
329.3854967567
 20
160.3105487895
 10
329.7462830904
 20
159.4684916018
  0
SPLINE
  5
2DE
330
1F
100
AcDbEntity
  8
0
  6
Continuous
 62
     7
370
    25
100
AcDbSpline
210
0.0
220
0.0
230
1.0
 70
     8
 71
     3
 72
    18
 73
    14
 74
     0
 42
0.000000001
 43
0.00000001
 40
0.0
 40
0.0
 40
0.0
 40
0.0
 40
0.25
 40
0.25
 40
0.3749999999999999
 40
0.3749999999999999
 40
0.4999999999999999
 40
0.4999999999999999
 40
0.7499999999999998
 40
0.7499999999999998
 40
0.8749999999999999
 40
0.8749999999999999
 40
1.0
 40
1.0
 40
1.0
 40
1.0
 10
329.7462830904238
 20
159.4684916017949
 30
0.0
 10
329.5471459092243
 20
159.3535321540691
 30
0.0
 10
329.3510824017408
 20
159.2040418674405
 30
0.0
 10
329.0693697861218
 20
158.9305763106623
 30
0.0
 10
328.9791287132534
 20
158.832681744743
 30
0.0
 10
328.8063027065066
 20
158.6228069540404
 30
0.0
 10
328.7231689787129
 20
158.5098281626489
 30
0.0
 10
328.4951973484759
 20
158.1598332314281
 30
0.0
 10
328.3672379240899
 20
157.9043586841271
 30
0.0
 10
328.2355321165744
 20
157.5223958727999
 30
0.0
 10
328.2009884286271
 20
157.3931305274216
 30
0.0
 10
328.1553350709457
 20
157.1452959357534
 30
0.0
 10
328.1436090339276
 20
157.025548529482
 30
0.0
 10
328.1436090339276
 20
156.9102059387298
 30
0.0
  0
LINE
  5
2DF
330
1F
100
AcDbEntity
  8
0
  6
Continuous
 62
     7
370
    25
100
AcDbLine
 10
344.7606183918
 20
147.3174106248
 30
0.0
 11
344.7606183918
 21
146.092599407
 31
0.0
  0
LINE
  5
2E0
330
1F
100
AcDbEntity
  8
0
  6
Continuous
 62
     7
370
    25
100
AcDbLine
 10
328.1436090339
 20
155.6853947209
 30
0.0
 11
328.1436090339
 21
156.9102059387
 31
0.0
  0
SPLINE
  5
2E1
330
1F
100
AcDbEntity
  8
0
  6
Continuous
 62
     7
370
    25
100
AcDbSpline
210
0.0
220
0.0
230
1.0
 70
     8
 71
     3
 72
    12
 73
     8
 74
     0
 42
0.000000001
 43
0.00000001
 40
0.0
 40
0.0
 40
0.0
 40
0.0
 40
0.1323450644706329
 40
0.3609097274192665
 40
0.5805952496201663
 40
0.7929881417526309
 40
1.0
 40
1.0
 40
1.0
 40
1.0
 10
345.4237332192577
 20
145.1806904795119
 30
0.0
 10
345.3692758010284
 20
145.1802061621502
 30
0.0
 10
345.220768472495
 20
145.1788854113712
 30
0.0
 10
345.0431180577158
 20
145.3122178615208
 30
0.0
 10
344.8806911810789
 20
145.5101020895014
 30
0.0
 10
344.7798395272142
 20
145.7733850265948
 30
0.0
 10
344.7669703992495
 20
145.9871086502681
 30
0.0
 10
344.7606183918115
 20
146.0925994069844
 30
0.0
  0
SPLINE
  5
2E2
330
1F
100
AcDbEntity
  8
0
  6
Continuous
 62
     7
370
    25
100
AcDbSpline
210
0.0
220
0.0
230
1.0
 70
     8
 71
     3
 72
    11
 73
     7
 74
     0
 42
0.000000001
 43
0.00000001
 40
0.0
 40
0.0
 40
0.0
 40
0.0
 40
0.2706233352943639
 40
0.5482606801848319
 40
0.8354053335053969
 40
1.0
 40
1.0
 40
1.0
 40
1.0
 10
328.1436090339275
 20
155.6853947209012
 30
0.0
 10
328.1496381203559
 20
155.5798489079674
 30
0.0
 10
328.1618525549408
 20
155.3660217480633
 30
0.0
 10
328.2640444223139
 20
155.1077408679959
 30
0.0
 10
328.393692249926
 20
154.9255746488654
 30
0.0
 10
328.5077159682064
 20
154.8652450367563
 30
0.0
 10
328.5492613795966
 20
154.8432634824632
 30
0.0
  0
LINE
  5
2E3
330
1F
100
AcDbEntity
  8
0
  6
Continuous
 62
     7
370
    25
100
AcDbLine
 10
342.1206517612
 20
152.3249206233
 30
0.0
 11
346.3632924483
 21
149.8756962879
 31
0.0
  0
LINE
  5
2E4
330
1F
100
AcDbEntity
  8
0
  6
Continuous
 62
     7
370
    25
100
AcDbLine
 10
367.1848977172
 20
166.7942018264
 30
0.0
 11
342.1206517612
 21
152.3249206233
 31
0.0
  0
ARC
  5
2E5
330
1F
100
AcDbEntity
  8
0
  6
Continuous
 62
     7
370
    25
100
AcDbCircle
 10
366.8750436636
 20
167.6106099383
 30
0.0
 40
0.873230633668551
100
AcDbArc
 50
290.7834207995
 51
69.2165792005
  0
LINE
  5
2E6
330
1F
100
AcDbEntity
  8
0
  6
Continuous
 62
     7
370
    25
100
AcDbLine
 10
367.1848977172
 20
168.4270180501
 30
0.0
 11
361.8815968583
 21
171.4885484694
 31
0.0
  0
ARC
  5
2E7
330
1F
100
AcDbEntity
  8
0
  6
Continuous
 62
     7
370
    25
100
AcDbCircle
 10
360.4673832959
 20
168.7591262995
 30
0.0
 40
3.074043815823468
100
AcDbArc
 50
62.6096722366
 51
117.3903277634
  0
LINE
  5
2E8
330
1F
100
AcDbEntity
  8
0
  6
Continuous
 62
     7
370
    25
100
AcDbLine
 10
359.0531697336
 20
171.4885484694
 30
0.0
 11
333.9889237775
 21
157.0192672663
 31
0.0
  0
LINE
  5
2E9
330
1F
100
AcDbEntity
  8
0
  6
Continuous
 62
     7
370
    25
100
AcDbLine
 10
329.7462830904
 20
159.4684916018
 30
0.0
 11
333.9889237775
 21
157.0192672663
 31
0.0
  0
LINE
  5
2EA
330
1F
100
AcDbEntity
  8
0
  6
Continuous
 62
     7
370
    25
100
AcDbLine
 10
340.5179777047
 20
149.7666349603
 30
0.0
 11
344.7606183918
 21
147.3174106248
 31
0.0
  0
SPLINE
  5
2EB
330
1F
100
AcDbEntity
  8
0
  6
Continuous
 62
     7
370
    25
100
AcDbSpline
210
0.0
220
0.0
230
1.0
 70
     8
 71
     3
 72
    18
 73
    14
 74
     0
 42
0.000000001
 43
0.00000001
 40
0.0
 40
0.0
 40
0.0
 40
0.0
 40
0.1250000000000001
 40
0.1250000000000001
 40
0.2500000000000002
 40
0.2500000000000002
 40
0.5000000000000001
 40
0.5000000000000001
 40
0.6250000000000001
 40
0.6250000000000001
 40
0.75
 40
0.75
 40
1.0
 40
1.0
 40
1.0
 40
1.0
 10
340.5179777046922
 20
149.7666349602812
 30
0.0
 10
340.5179777046922
 20
149.8819775510333
 30
0.0
 10
340.5297037417103
 20
150.0017249573047
 30
0.0
 10
340.5753570993917
 20
150.2495595489729
 30
0.0
 10
340.609900787339
 20
150.3788248943512
 30
0.0
 10
340.7416065948545
 20
150.7607877056784
 30
0.0
 10
340.8695660192405
 20
151.0162622529793
 30
0.0
 10
341.0975376494775
 20
151.3662571842002
 30
0.0
 10
341.1806713772712
 20
151.4792359755916
 30
0.0
 10
341.3534973840179
 20
151.6891107662943
 30
0.0
 10
341.4437384568864
 20
151.7870053322136
 30
0.0
 10
341.7254510725054
 20
152.0604708889918
 30
0.0
 10
341.9215145799889
 20
152.2099611756204
 30
0.0
 10
342.1206517611885
 20
152.3249206233462
 30
0.0
  0
LINE
  5
2EC
330
1F
100
AcDbEntity
  8
0
  6
Continuous
 62
     7
370
    25
100
AcDbLine
 10
340.5179777047
 20
148.5418237425
 30
0.0
 11
340.5179777047
 21
149.7666349603
 31
0.0
  0
LINE
  5
2ED
330
1F
100
AcDbEntity
  8
0
  6
Continuous
 62
     7
370
    25
100
AcDbLine
 10
340.5179777047
 20
148.5418237425
 30
0.0
 11
344.7606183918
 21
146.092599407
 31
0.0
  0
ARC
  5
2EE
330
1F
100
AcDbEntity
  8
0
  6
Continuous
 62
     7
370
    25
100
AcDbCircle
 10
352.84359601
 20
168.1200837891
 30
0.0
 40
38.86098598263455
100
AcDbArc
 50
261.9266156727
 51
271.4259480844
  0
LINE
  5
2EF
330
1F
100
AcDbEntity
  8
0
  6
Continuous
 62
     7
370
    25
100
AcDbLine
 10
347.385907844
 20
144.3419835008
 30
0.0
 11
347.385907844
 21
129.6442488869
 31
0.0
  0
SPLINE
  5
2F0
330
1F
100
AcDbEntity
  8
0
  6
Continuous
 62
     7
370
    25
100
AcDbSpline
210
0.0
220
0.0
230
1.0
 70
     8
 71
     3
 72
     9
 73
     5
 74
     0
 42
0.000000001
 43
0.00000001
 40
0.0
 40
0.0
 40
0.0
 40
0.0
 40
0.7197617359639755
 40
1.0
 40
1.0
 40
1.0
 40
1.0
 10
347.2409624592431
 20
144.873823809813
 30
0.0
 10
347.2995734535713
 20
144.746362497085
 30
0.0
 10
347.3810045597271
 20
144.5692742936434
 30
0.0
 10
347.384834537622
 20
144.3917364093424
 30
0.0
 10
347.3859078439785
 20
144.3419835008453
 30
0.0
  0
LINE
  5
2F1
330
1F
100
AcDbEntity
  8
0
  6
Continuous
 62
     7
370
    25
100
AcDbLine
 10
353.8106485353
 20
144.5136978372
 30
0.0
 11
353.8106485353
 21
138.9638391455
 31
0.0
  0
SPLINE
  5
2F2
330
1F
100
AcDbEntity
  8
0
  6
Continuous
 62
     7
370
    25
100
AcDbSpline
210
0.0
220
0.0
230
1.0
 70
     8
 71
     3
 72
    19
 73
    15
 74
     0
 42
0.000000001
 43
0.00000001
 40
0.0
 40
0.0
 40
0.0
 40
0.0
 40
0.2500000000000003
 40
0.2500000000000003
 40
0.3750000000000003
 40
0.3750000000000003
 40
0.5000000000000002
 40
0.6250000000000001
 40
0.6250000000000001
 40
0.7500000000000001
 40
0.7500000000000001
 40
0.875
 40
0.875
 40
1.0
 40
1.0
 40
1.0
 40
1.0
 10
353.8106485353285
 20
131.8265373972802
 30
0.0
 10
353.4231203981618
 20
132.3619751049555
 30
0.0
 10
353.1108073634109
 20
132.9276279301545
 30
0.0
 10
352.7825949518836
 20
133.8211125373135
 30
0.0
 10
352.6966172385606
 20
134.1275399719769
 30
0.0
 10
352.580259652572
 20
134.7526300238718
 30
0.0
 10
352.521694963191
 20
135.3771406123893
 30
0.0
 10
352.5782829310323
 20
135.9997277001766
 30
0.0
 10
352.6921579952627
 20
136.6217280090599
 30
0.0
 10
352.7777128035131
 20
136.930251013538
 30
0.0
 10
352.9963835795354
 20
137.5303159626811
 30
0.0
 10
353.1298393884354
 20
137.8240355080181
 30
0.0
 10
353.4396608200415
 20
138.4016882289748
 30
0.0
 10
353.6165208463456
 20
138.6861685566487
 30
0.0
 10
353.8106485353285
 20
138.9638391454871
 30
0.0
  0
LINE
  5
2F3
330
1F
100
AcDbEntity
  8
0
  6
Continuous
 62
     7
370
    25
100
AcDbLine
 10
353.8106485353
 20
131.8265373973
 30
0.0
 11
353.8106485353
 21
129.2711321822
 31
0.0
  0
SPLINE
  5
2F4
330
1F
100
AcDbEntity
  8
0
  6
Continuous
 62
     7
370
    25
100
AcDbSpline
210
0.0
220
0.0
230
1.0
 70
     8
 71
     3
 72
    10
 73
     6
 74
     0
 42
0.000000001
 43
0.00000001
 40
0.0
 40
0.0
 40
0.0
 40
0.0
 40
0.0007535817861283
 40
0.499868210647325
 40
1.0
 40
1.0
 40
1.0
 40
1.0
 10
340.9178518487338
 20
147.689594478176
 30
0.0
 10
340.9176426237937
 20
147.6896542406594
 30
0.0
 10
340.7788588867281
 20
147.7292960767178
 30
0.0
 10
340.5882828301596
 20
147.988081119443
 30
0.0
 10
340.5414286445705
 20
148.357117650628
 30
0.0
 10
340.5179777046919
 20
148.5418237424526
 30
0.0
  0
LINE
  5
2F5
330
1F
100
AcDbEntity
  8
0
  6
Continuous
 62
     7
370
    25
100
AcDbLine
 10
375.5821895924
 20
141.8395753077
 30
0.0
 11
375.5821895924
 21
152.5730958925
 31
0.0
  0
LINE
  5
2F6
330
1F
100
AcDbEntity
  8
0
  6
Continuous
 62
     7
370
    25
100
AcDbLine
 10
375.9446967098
 20
142.0488462121
 30
0.0
 11
375.5821895924
 21
141.8395753077
 31
0.0
  0
SPLINE
  5
2F7
330
1F
100
AcDbEntity
  8
0
  6
Continuous
 62
     7
370
    25
100
AcDbSpline
210
0.0
220
0.0
230
1.0
 70
     8
 71
     3
 72
     8
 73
     4
 74
     0
 42
0.000000001
 43
0.00000001
 40
0.0
 40
0.0
 40
0.0
 40
0.0
 40
1.0
 40
1.0
 40
1.0
 40
1.0
 10
376.9489188088172
 20
141.812030478154
 30
0.0
 10
376.6165160452908
 20
141.8961200785323
 30
0.0
 10
376.2819118679511
 20
141.975359447267
 30
0.0
 10
375.9446967098003
 20
142.0488462120726
 30
0.0
  0
LINE
  5
2F8
330
1F
100
AcDbEntity
  8
0
  6
Continuous
 62
     7
370
    25
100
AcDbLine
 10
376.9489188088
 20
113.6413724681
 30
0.0
 11
376.9489188088
 21
141.8120304782
 31
0.0
  0
LINE
  5
2F9
330
1F
100
AcDbEntity
  8
0
  6
Continuous
 62
     7
370
    25
100
AcDbLine
 10
376.9489188088
 20
113.6413724681
 30
0.0
 11
352.4439193189
 21
99.4949373779
 31
0.0
  0
LINE
  5
2FA
330
1F
100
AcDbEntity
  8
0
  6
Continuous
 62
     7
370
    25
100
AcDbLine
 10
352.4439193189
 20
127.665595388
 30
0.0
 11
352.4439193189
 21
99.4949373779
 31
0.0
  0
SPLINE
  5
2FB
330
1F
100
AcDbEntity
  8
0
  6
Continuous
 62
     7
370
    25
100
AcDbSpline
210
0.0
220
0.0
230
1.0
 70
     8
 71
     3
 72
     8
 73
     4
 74
     0
 42
0.000000001
 43
0.00000001
 40
0.0
 40
0.0
 40
0.0
 40
0.0
 40
1.0
 40
1.0
 40
1.0
 40
1.0
 10
353.4481414179342
 20
129.0618612778252
 30
0.0
 10
353.1106352750497
 20
128.5986348028226
 30
0.0
 10
352.776051529668
 20
128.1330882333614
 30
0.0
 10
352.4439193189172
 20
127.6655953879722
 30
0.0
  0
LINE
  5
2FC
330
1F
100
AcDbEntity
  8
0
  6
Continuous
 62
     7
370
    25
100
AcDbLine
 10
353.8106485353
 20
129.2711321822
 30
0.0
 11
353.4481414179
 21
129.0618612778
 31
0.0
  0
LWPOLYLINE
  5
2FD
330
1F
100
AcDbEntity
  8
0
  6
Continuous
 62
     7
370
    25
100
AcDbPolyline
 90
       39
 70
   128
 43
0.0
 10
353.8106485353
 20
138.9638391455
 10
354.2191719952
 20
139.6253654888
 10
354.6703389429
 20
140.2495865062
 10
355.1571550945
 20
140.8268251166
 10
355.6720735086
 20
141.3481325908
 10
356.2071115844
 20
141.8054272806
 10
356.753974813
 20
142.1916199056
 10
357.3041853641
 20
142.5007234562
 10
357.8492135152
 20
142.7279460076
 10
358.3806098846
 20
142.8697650076
 10
358.8901364195
 20
142.9239818858
 10
359.3698941075
 20
142.8897561368
 10
359.8124454321
 20
142.7676183503
 10
360.2109296743
 20
142.5594619861
 10
360.5591692717
 20
142.2685140196
 10
360.8517655871
 20
141.899284916
 10
361.0841826017
 20
141.4574987055
 10
361.2528172354
 20
140.9500042457
 10
361.3550552042
 20
140.3846690466
 10
361.3893115485
 20
139.7702573029
 10
361.3550552042
 20
139.116294026
 10
361.2528172354
 20
138.4329173807
 10
361.0841826017
 20
137.7307215172
 10
360.8517655871
 20
137.0205923335
 10
360.5591692717
 20
136.3135387149
 10
360.2109296743
 20
135.6205218676
 10
359.8124454321
 20
134.9522853903
 10
359.3698941075
 20
134.3191887205
 10
358.8901364195
 20
133.7310465354
 10
358.3806098846
 20
133.1969765984
 10
357.8492135152
 20
132.7252584099
 10
357.3041853641
 20
132.3232048525
 10
356.753974813
 20
131.9970488226
 10
356.2071115844
 20
131.7518466036
 10
355.6720735086
 20
131.5913994801
 10
355.1571550945
 20
131.5181948079
 10
354.6703389429
 20
131.5333674535
 10
354.2191719952
 20
131.6366822009
 10
353.8106485353
 20
131.8265373973
  0
LWPOLYLINE
  5
2FE
330
1F
100
AcDbEntity
  8
0
  6
Continuous
 62
     7
370
    25
100
AcDbPolyline
 90
       52
 70
   128
 43
0.0
 10
352.5504767837
 20
110.1714822475
 10
352.583973715
 20
110.8179652682
 10
352.6839567296
 20
111.4933229991
 10
352.8489101869
 20
112.1873177052
 10
353.0763335606
 20
112.8894291343
 10
353.3627793442
 20
113.5890139928
 10
353.7039053116
 20
114.2754672873
 10
354.0945403409
 20
114.9383830857
 10
354.5287628032
 20
115.5677122601
 10
354.9999903286
 20
116.1539148219
 10
355.5010795882
 20
116.6881045376
 10
356.0244345795
 20
117.1621836358
 10
356.5621217744
 20
117.5689655605
 10
357.1059903832
 20
117.9022839124
 10
357.647795912
 20
118.1570859251
 10
358.1793251414
 20
118.3295090599
 10
358.69252063
 20
118.4169395576
 10
359.1796028573
 20
118.4180520611
 10
359.6331881534
 20
118.3328297061
 10
360.0464006274
 20
118.1625643764
 10
360.4129763995
 20
117.909837121
 10
360.7273585546
 20
117.5784790275
 10
360.9847813797
 20
117.1735131467
 10
361.1813426072
 20
116.7010783486
 10
361.3140625693
 20
116.1683362632
 10
361.3809293666
 20
115.5833627174
 10
361.3809293666
 20
114.955025314
 10
361.3140625693
 20
114.2928490074
 10
361.1813426072
 20
113.6068717155
 10
360.9847813797
 20
112.9074921548
 10
360.7273585546
 20
112.2053122065
 10
360.4129763995
 20
111.5109762028
 10
360.0464006274
 20
110.8350095699
 10
359.6331881534
 20
110.1876592728
 10
359.1796028573
 20
109.5787384821
 10
358.69252063
 20
109.0174778164
 10
358.1793251414
 20
108.5123854152
 10
357.647795912
 20
108.0711179645
 10
357.1059903832
 20
107.700364629
 10
356.5621217744
 20
107.4057456513
 10
356.0244345795
 20
107.1917271548
 10
355.5010795882
 20
107.0615534419
 10
354.9999903286
 20
107.0171978132
 10
354.5287628032
 20
107.0593326549
 10
354.0945403409
 20
107.1873192457
 10
353.7039053116
 20
107.3992174395
 10
353.3627793442
 20
107.6918150755
 10
353.0763335606
 20
108.0606766718
 10
352.8489101869
 20
108.5002106628
 10
352.6839567296
 20
109.003754161
 10
352.583973715
 20
109.5636739604
 10
352.5504767837
 20
110.1714822475
  0
LWPOLYLINE
  5
2FF
330
1F
100
AcDbEntity
  8
0
  6
Continuous
 62
     7
370
    25
100
AcDbPolyline
 90
       18
 70
   128
 43
0.0
 10
354.8485738225
 20
135.7898364826
 10
355.2369541073
 20
136.0522155364
 10
355.6141613984
 20
136.3833901981
 10
355.9693441288
 20
136.7738331757
 10
356.2922843381
 20
137.2123121355
 10
356.5736916244
 20
137.6862128363
 10
356.8054704125
 20
138.1819020177
 10
356.9809528486
 20
138.6851196044
 10
357.0950906225
 20
139.1813889428
 10
357.1446001983
 20
139.6564332674
 10
357.1280572757
 20
140.096586418
 10
357.0459377643
 20
140.4891859898
 10
356.9006040931
 20
140.822937608
 10
356.6962372471
 20
141.0882398461
 10
356.4387164884
 20
141.2774604418
 10
356.1354502204
 20
141.385155863
 10
355.7951628614
 20
141.4082279087
 10
355.7319705488
 20
141.4034247567
  0
LWPOLYLINE
  5
300
330
1F
100
AcDbEntity
  8
0
  6
Continuous
 62
     7
370
    25
100
AcDbPolyline
 90
        9
 70
   128
 43
0.0
 10
352.6441795267
 20
136.4209652735
 10
352.7161947965
 20
136.223127186
 10
352.8916772326
 20
135.9225173073
 10
353.1234560207
 20
135.6944342185
 10
353.404863307
 20
135.5454394546
 10
353.7278035163
 20
135.4798193239
 10
354.0829862467
 20
135.499461598
 10
354.4601935378
 20
135.6038012044
 10
354.8485738225
 20
135.7898364826
  0
LWPOLYLINE
  5
301
330
1F
100
AcDbEntity
  8
0
  6
Continuous
 62
     7
370
    25
100
AcDbPolyline
 90
        3
 70
   128
 43
0.0
 10
328.752380479
 20
101.5657310871
 10
328.7531091339
 20
101.4575444836
 10
328.754215645
 20
101.3940409918
  0
LINE
  5
302
330
1F
100
AcDbEntity
  8
0
  6
Continuous
 62
     7
370
    25
100
AcDbLine
 10
376.950545313
 20
101.3940409918
 30
0.0
 11
376.952380479
 21
101.5657310871
 31
0.0
  0
ARC
  5
303
330
1F
100
AcDbEntity
  8
0
  6
Continuous
 62
     7
370
    25
100
AcDbCircle
 10
337.3339767264
 20
141.6418008497
 30
0.0
 40
8.583426847918863
100
AcDbArc
 50
182.0121048964
 51
205.7483357392
  0
LINE
  5
304
330
1F
100
AcDbEntity
  8
0
  6
Continuous
 62
     7
370
    25
100
AcDbLine
 10
329.6027909639
 20
109.7423383182
 30
0.0
 11
329.6027909639
 21
137.9129963283
 31
0.0
  0
LWPOLYLINE
  5
305
330
1F
100
AcDbEntity
  8
0
  6
Continuous
 62
     7
370
    25
100
AcDbPolyline
 90
       17
 70
   128
 43
0.0
 10
329.6027909639
 20
109.7423383182
 10
330.0630366018
 20
108.879997808
 10
330.619146626
 20
108.03669433
 10
331.2687817349
 20
107.2159752778
 10
332.0092092097
 20
106.4212930425
 10
332.8373144092
 20
105.6559904901
 10
333.7496138722
 20
104.9232868998
 10
334.7422699706
 20
104.2262644218
 10
335.8111070524
 20
103.5678551121
 10
336.951629007
 20
102.9508285985
 10
338.1590381783
 20
102.3777804306
 10
339.4282555459
 20
101.8511211608
 10
340.7539420906
 20
101.3730662048
 10
342.1305212533
 20
100.945626522
 10
343.5522023926
 20
100.5706001563
 10
345.0130051436
 20
100.2495646727
 10
346.5067845749
 20
99.9838705214
  0
LINE
  5
306
330
1F
100
AcDbEntity
  8
0
  6
Continuous
 62
     7
370
    25
100
AcDbLine
 10
346.5067845749
 20
128.1545285315
 30
0.0
 11
346.5067845749
 21
99.9838705214
 31
0.0
  0
ARC
  5
307
330
1F
100
AcDbEntity
  8
0
  6
Continuous
 62
     7
370
    25
100
AcDbCircle
 10
352.8145277352
 20
168.4578072963
 30
0.0
 40
40.79389541305924
100
AcDbArc
 50
261.1049702269
 51
269.4794664742
  0
LWPOLYLINE
  5
308
330
1F
100
AcDbEntity
  8
0
  6
Continuous
 62
     7
370
    25
100
AcDbPolyline
 90
       26
 70
   128
 43
0.0
 10
352.4439193189
 20
99.4949373779
 10
353.9904025243
 20
99.5084588985
 10
355.5321986037
 20
99.5792179066
 10
357.0629574235
 20
99.7069229699
 10
358.5763743083
 20
99.8910481145
 10
360.0662160088
 20
100.1308349918
 10
361.5263463733
 20
100.425296001
 10
362.9507516214
 20
100.7732183573
 10
364.3335651122
 20
101.1731690869
 10
365.669091507
 20
101.6235009287
 10
366.9518302267
 20
102.122359119
 10
368.1764981066
 20
102.6676890304
 10
369.3380511561
 20
103.2572446345
 10
370.4317053331
 20
103.8885977521
 10
371.4529562479
 20
104.5591480546
 10
372.3975977153
 20
105.266133773
 10
373.2617390781
 20
106.0066430737
 10
374.0418212319
 20
106.7776260506
 10
374.7346312835
 20
107.5759072869
 10
375.3373157839
 20
108.3981989337
 10
375.8473924805
 20
109.2411142512
 10
376.2627605409
 20
110.1011815578
 10
376.5817092052
 20
110.9748585287
 10
376.8029248323
 20
111.8585467855
 10
376.9254963102
 20
112.7486067167
 10
376.9489188088
 20
113.6413724681
  0
ARC
  5
309
330
1F
100
AcDbEntity
  8
0
  6
Continuous
 62
     7
370
    25
100
AcDbCircle
 10
368.0858514395
 20
141.4575902377
 30
0.0
 40
8.870151694180937
100
AcDbArc
 50
2.2900778636
 51
32.0704611264
  0
LINE
  5
30A
330
1F
100
AcDbEntity
  8
0
  6
Continuous
 62
     7
370
    25
100
AcDbLine
 10
335.140059819
 20
122.8400101652
 30
0.0
 11
334.576422302
 21
122.4746755928
 31
0.0
  0
LINE
  5
30B
330
1F
100
AcDbEntity
  8
0
  6
Continuous
 62
     7
370
    25
100
AcDbLine
 10
328.7558421492
 20
113.6413724681
 30
0.0
 11
328.7558421492
 21
113.1697732509
 31
0.0
  0
LINE
  5
30C
330
1F
100
AcDbEntity
  8
0
  6
Continuous
 62
     7
370
    25
100
AcDbLine
 10
328.7558421492
 20
113.1697732509
 30
0.0
 11
328.7558421492
 21
141.340431261
 31
0.0
  0
SPLINE
  5
30D
330
1F
100
AcDbEntity
  8
0
  6
Continuous
 62
     7
370
    25
100
AcDbSpline
210
0.0
220
0.0
230
1.0
 70
     8
 71
     3
 72
    18
 73
    14
 74
     0
 42
0.000000001
 43
0.00000001
 40
0.0
 40
0.0
 40
0.0
 40
0.0
 40
0.1250000000000001
 40
0.1250000000000001
 40
0.2500000000000002
 40
0.2500000000000002
 40
0.5000000000000001
 40
0.5000000000000001
 40
0.6250000000000001
 40
0.6250000000000001
 40
0.75
 40
0.75
 40
1.0
 40
1.0
 40
1.0
 40
1.0
 10
332.3862497210469
 20
154.4609816032617
 30
0.0
 10
332.3862497210469
 20
154.5763241940138
 30
0.0
 10
332.397975758065
 20
154.6960716002853
 30
0.0
 10
332.4436291157464
 20
154.9439061919535
 30
0.0
 10
332.4781728036937
 20
155.0731715373318
 30
0.0
 10
332.6098786112092
 20
155.455134348659
 30
0.0
 10
332.7378380355952
 20
155.7106088959599
 30
0.0
 10
332.9658096658322
 20
156.0606038271808
 30
0.0
 10
333.0489433936259
 20
156.1735826185722
 30
0.0
 10
333.2217694003726
 20
156.3834574092749
 30
0.0
 10
333.3120104732411
 20
156.4813519751941
 30
0.0
 10
333.5937230888601
 20
156.7548175319723
 30
0.0
 10
333.7897865963436
 20
156.904307818601
 30
0.0
 10
333.9889237775431
 20
157.0192672663268
 30
0.0
  0
LINE
  5
30E
330
1F
100
AcDbEntity
  8
0
  6
Continuous
 62
     7
370
    25
100
AcDbLine
 10
328.1436090339
 20
156.9102059387
 30
0.0
 11
332.386249721
 21
154.4609816033
 31
0.0
  0
LINE
  5
30F
330
1F
100
AcDbEntity
  8
0
  6
Continuous
 62
     7
370
    25
100
AcDbLine
 10
348.1310594013
 20
159.0592922954
 30
0.0
 11
348.1310594013
 21
155.7946550986
 31
0.0
  0
ARC
  5
310
330
1F
100
AcDbEntity
  8
0
  6
Continuous
 62
     7
370
    25
100
AcDbCircle
 10
347.2689106664
 20
159.1991466892
 30
0.0
 40
0.8734183948570523
100
AcDbArc
 50
350.7859630095
 51
129.2032852357
  0
SPLINE
  5
311
330
1F
100
AcDbEntity
  8
0
  6
Continuous
 62
     7
370
    25
100
AcDbSpline
210
0.0
220
0.0
230
1.0
 70
     8
 71
     3
 72
    16
 73
    12
 74
     0
 42
0.000000001
 43
0.00000001
 40
0.0
 40
0.0
 40
0.0
 40
0.0
 40
0.2499999999999998
 40
0.2499999999999998
 40
0.4999999999999997
 40
0.4999999999999997
 40
0.7499999999999996
 40
0.7499999999999996
 40
0.8749999999999998
 40
0.8749999999999998
 40
1.0
 40
1.0
 40
1.0
 40
1.0
 10
333.9889237775431
 20
152.5282928009552
 30
0.0
 10
333.789430672499
 20
152.4131278827674
 30
0.0
 10
333.5951055701486
 20
152.3367677885185
 30
0.0
 10
333.217533692889
 20
152.2672310988245
 30
0.0
 10
333.044679820511
 20
152.2760002140156
 30
0.0
 10
332.737544825363
 20
152.3922619546808
 30
0.0
 10
332.6119627831739
 20
152.4972148965939
 30
0.0
 10
332.4782282551007
 20
152.7297002849268
 30
0.0
 10
332.4444115003002
 20
152.8171367754292
 30
0.0
 10
332.3983731881124
 20
153.0119593197988
 30
0.0
 10
332.3862497210469
 20
153.1204654417199
 30
0.0
 10
332.3862497210469
 20
153.2361703854331
 30
0.0
  0
LINE
  5
312
330
1F
100
AcDbEntity
  8
0
  6
Continuous
 62
     7
370
    25
100
AcDbLine
 10
332.386249721
 20
154.4609816033
 30
0.0
 11
332.386249721
 21
153.2361703854
 31
0.0
  0
LINE
  5
313
330
1F
100
AcDbEntity
  8
0
  6
Continuous
 62
     7
370
    25
100
AcDbLine
 10
333.9889237775
 20
152.528292801
 30
0.0
 11
346.7168458389
 21
159.8759658074
 31
0.0
  0
LINE
  5
314
330
1F
100
AcDbEntity
  8
0
  6
Continuous
 62
     7
370
    25
100
AcDbLine
 10
328.1436090339
 20
155.6853947209
 30
0.0
 11
332.386249721
 21
153.2361703854
 31
0.0
  0
ARC
  5
315
330
1F
100
AcDbEntity
  8
0
  6
Continuous
 62
     7
370
    25
100
AcDbCircle
 10
351.320702596
 20
140.4893246286
 30
0.0
 40
4.387177310501748
100
AcDbArc
 50
288.0282316066
 51
10.7708693192
  0
SPLINE
  5
316
330
1F
100
AcDbEntity
  8
0
  6
Continuous
 62
     7
370
    25
100
AcDbSpline
210
0.0
220
0.0
230
1.0
 70
     8
 71
     3
 72
     8
 73
     4
 74
     0
 42
0.000000001
 43
0.00000001
 40
0.000011356065236
 40
0.000011356065236
 40
0.000011356065236
 40
0.000011356065236
 40
0.0002375859924565
 40
0.0002375859924565
 40
0.0002375859924565
 40
0.0002375859924565
 10
346.3632924483077
 20
128.3190188540943
 30
0.0
 10
346.4111837824075
 20
128.2642962773456
 30
0.0
 10
346.4590144018836
 20
128.2094650916932
 30
0.0
 10
346.5067845748551
 20
128.1545285314689
 30
0.0
  0
ARC
  5
317
330
1F
100
AcDbEntity
  8
0
  6
Continuous
 62
     7
370
    25
100
AcDbCircle
 10
352.8372956155
 20
168.4168481014
 30
0.0
 40
39.35972713930804
100
AcDbArc
 50
261.6149678357
 51
270.8892412133
  0
SPLINE
  5
318
330
1F
100
AcDbEntity
  8
0
  6
Continuous
 62
     7
370
    25
100
AcDbSpline
210
0.0
220
0.0
230
1.0
 70
     8
 71
     3
 72
     8
 73
     4
 74
     0
 42
0.000000001
 43
0.00000001
 40
0.0
 40
0.0
 40
0.0
 40
0.0
 40
1.0
 40
1.0
 40
1.0
 40
1.0
 10
347.0976796200779
 20
129.4778582749677
 30
0.0
 10
346.8522489561921
 20
129.092163363167
 30
0.0
 10
346.6074801375614
 20
128.7058587715424
 30
0.0
 10
346.3632924483077
 20
128.3190188540943
 30
0.0
  0
LINE
  5
319
330
1F
100
AcDbEntity
  8
0
  6
Continuous
 62
     7
370
    25
100
AcDbLine
 10
347.385907844
 20
129.6442488869
 30
0.0
 11
347.0976796201
 21
129.477858275
 31
0.0
  0
LINE
  5
31A
330
1F
100
AcDbEntity
  8
0
  6
Continuous
 62
     7
370
    25
100
AcDbLine
 10
346.5067845749
 20
99.9838705214
 30
0.0
 11
344.9490788859
 21
100.8831148747
 31
0.0
  0
ARC
  5
31B
330
1F
100
AcDbEntity
  8
0
  6
Continuous
 62
     7
370
    25
100
AcDbCircle
 10
345.5011437135
 20
101.5599339928
 30
0.0
 40
0.8734183948569764
100
AcDbArc
 50
230.7967147643
 51
9.2140369905
  0
LINE
  5
31C
330
1F
100
AcDbEntity
  8
0
  6
Continuous
 62
     7
370
    25
100
AcDbLine
 10
346.3632924483
 20
128.3190188541
 30
0.0
 11
346.3632924483
 21
101.6997883866
 31
0.0
  0
LINE
  5
31D
330
1F
100
AcDbEntity
  8
0
  6
Continuous
 62
     7
370
    25
100
AcDbLine
 10
330.7688984861
 20
139.2370442008
 30
0.0
 11
330.7688984861
 21
153.5482773971
 31
0.0
  0
ARC
  5
31E
330
1F
100
AcDbEntity
  8
0
  6
Continuous
 62
     7
370
    25
100
AcDbCircle
 10
338.1108422968
 20
142.435979759
 30
0.0
 40
8.00857837725703
100
AcDbArc
 50
180.3091250881
 51
203.5430890876
  0
SPLINE
  5
31F
330
1F
100
AcDbEntity
  8
0
  6
Continuous
 62
     7
370
    25
100
AcDbSpline
210
0.0
220
0.0
230
1.0
 70
     8
 71
     3
 72
    12
 73
     8
 74
     0
 42
0.000000001
 43
0.00000001
 40
0.0
 40
0.0
 40
0.0
 40
0.0
 40
0.0150664264870482
 40
0.2178062514624018
 40
0.5225594568002521
 40
0.8363866621191691
 40
1.0
 40
1.0
 40
1.0
 40
1.0
 10
330.1024863660608
 20
150.2571786754085
 30
0.0
 10
330.1024519083759
 20
150.2368359290213
 30
0.0
 10
330.1019537743832
 20
149.9427530993048
 30
0.0
 10
330.1038065635088
 20
149.2678368990988
 30
0.0
 10
330.1050299307501
 20
148.2682974902492
 30
0.0
 10
330.1028849744807
 20
147.4089412555579
 30
0.0
 10
330.1029497166086
 20
146.9876369611394
 30
0.0
 10
330.1029719029851
 20
146.8432608647749
 30
0.0
  0
LINE
  5
320
330
1F
100
AcDbEntity
  8
0
  6
Continuous
 62
     7
370
    25
100
AcDbLine
 10
329.7462830904
 20
111.2925837005
 30
0.0
 11
329.7462830904
 21
137.911814168
 31
0.0
  0
SPLINE
  5
321
330
1F
100
AcDbEntity
  8
0
  6
Continuous
 62
     7
370
    25
100
AcDbSpline
210
0.0
220
0.0
230
1.0
 70
     8
 71
     3
 72
     8
 73
     4
 74
     0
 42
0.000000001
 43
0.00000001
 40
0.0
 40
0.0
 40
0.0
 40
0.0
 40
1.0
 40
1.0
 40
1.0
 40
1.0
 10
329.7462830904238
 20
137.9118141680111
 30
0.0
 10
329.9904436993964
 20
138.2986111851241
 30
0.0
 10
330.2352111693456
 20
138.6849140008969
 30
0.0
 10
330.480670262194
 20
139.0706535888845
 30
0.0
  0
LINE
  5
322
330
1F
100
AcDbEntity
  8
0
  6
Continuous
 62
     7
370
    25
100
AcDbLine
 10
330.4806702622
 20
139.0706535889
 30
0.0
 11
330.7688984861
 21
139.2370442008
 31
0.0
  0
LINE
  5
323
330
1F
100
AcDbEntity
  8
0
  6
Continuous
 62
     7
370
    25
100
AcDbLine
 10
329.7462830904
 20
111.2925837005
 30
0.0
 11
342.4742051518
 21
118.6402567069
 31
0.0
  0
LWPOLYLINE
  5
324
330
1F
100
AcDbEntity
  8
0
  6
Continuous
 62
     7
370
    25
100
AcDbPolyline
 90
       38
 70
   128
 43
0.0
 10
339.1154479411
 20
150.1794607287
 10
339.0823919073
 20
149.7118906687
 10
338.9841747677
 20
149.2196060637
 10
338.8236220506
 20
148.7167690455
 10
338.6053525654
 20
148.2178453197
 10
338.3356455278
 20
147.7371880134
 10
338.0222599181
 20
147.2886247622
 10
337.6742112698
 20
146.8850599141
 10
337.3015123088
 20
146.5381032951
 10
336.9148849057
 20
146.2577362153
 10
336.5254516268
 20
146.0520243253
 10
336.1444157587
 20
145.9268855814
 10
335.7827390094
 20
145.8859199977
 10
335.4508261606
 20
145.9303060792
 10
335.1582257406
 20
146.0587669193
 10
334.9133553307
 20
146.2676069335
 10
334.7232594068
 20
146.5508181748
 10
334.5934066825
 20
146.9002531714
 10
334.5275327843
 20
147.3058593147
 10
334.5275327843
 20
147.7559680544
 10
334.5934066825
 20
148.2376305817
 10
334.7232594068
 20
148.7369903425
 10
334.9133553307
 20
149.2396816658
 10
335.1582257406
 20
149.7312430373
 10
335.4508261606
 20
150.1975331315
 10
335.7827390094
 20
150.6251376312
 10
336.1444157587
 20
151.0017551337
 10
336.5254516268
 20
151.3165510389
 10
336.9148849057
 20
151.5604692419
 10
337.3015123088
 20
151.7264926602
 10
337.6742112698
 20
151.8098451021
 10
338.0222599181
 20
151.8081286697
 10
338.3356455278
 20
151.7213927417
 10
338.6053525654
 20
151.5521325528
 10
338.8236220506
 20
151.3052174105
 10
338.9841747677
 20
150.9877506138
 10
339.0823919073
 20
150.6088651044
 10
339.1154479411
 20
150.1794607287
  0
LWPOLYLINE
  5
325
330
1F
100
AcDbEntity
  8
0
  6
Continuous
 62
     7
370
    25
100
AcDbPolyline
 90
       38
 70
   128
 43
0.0
 10
339.1154479411
 20
125.6832363721
 10
339.0823919073
 20
125.2156663121
 10
338.9841747677
 20
124.7233817071
 10
338.8236220506
 20
124.220544689
 10
338.6053525654
 20
123.7216209631
 10
338.3356455278
 20
123.2409636568
 10
338.0222599181
 20
122.7924004056
 10
337.6742112698
 20
122.3888355575
 10
337.3015123088
 20
122.0418789385
 10
336.9148849057
 20
121.7615118587
 10
336.5254516268
 20
121.5557999687
 10
336.1444157587
 20
121.4306612249
 10
335.7827390094
 20
121.3896956411
 10
335.4508261606
 20
121.4340817226
 10
335.1582257406
 20
121.5625425627
 10
334.9133553307
 20
121.7713825769
 10
334.7232594068
 20
122.0545938182
 10
334.5934066825
 20
122.4040288148
 10
334.5275327843
 20
122.8096349581
 10
334.5275327843
 20
123.2597436979
 10
334.5934066825
 20
123.7414062251
 10
334.7232594068
 20
124.240765986
 10
334.9133553307
 20
124.7434573092
 10
335.1582257406
 20
125.2350186807
 10
335.4508261606
 20
125.7013087749
 10
335.7827390094
 20
126.1289132747
 10
336.1444157587
 20
126.5055307771
 10
336.5254516268
 20
126.8203266823
 10
336.9148849057
 20
127.0642448854
 10
337.3015123088
 20
127.2302683036
 10
337.6742112698
 20
127.3136207455
 10
338.0222599181
 20
127.3119043132
 10
338.3356455278
 20
127.2251683852
 10
338.6053525654
 20
127.0559081963
 10
338.8236220506
 20
126.8089930539
 10
338.9841747677
 20
126.4915262572
 10
339.0823919073
 20
126.1126407478
 10
339.1154479411
 20
125.6832363721
  0
LINE
  5
326
330
1F
100
AcDbEntity
  8
0
  6
Continuous
 62
     7
370
    25
100
AcDbLine
 10
375.602380479
 20
142.3927716815
 30
0.0
 11
375.5821895924
 21
141.8395753077
 31
0.0
  0
LWPOLYLINE
  5
327
330
1F
100
AcDbEntity
  8
0
  6
Continuous
 62
     7
370
    25
100
AcDbPolyline
 90
       18
 70
   128
 43
0.0
 10
354.8485738225
 20
111.293612126
 10
355.2369541073
 20
111.5559911798
 10
355.6141613984
 20
111.8871658415
 10
355.9693441288
 20
112.2776088191
 10
356.2922843381
 20
112.7160877789
 10
356.5736916244
 20
113.1899884797
 10
356.8054704125
 20
113.6856776611
 10
356.9809528486
 20
114.1888952479
 10
357.0950906225
 20
114.6851645862
 10
357.1446001983
 20
115.1602089108
 10
357.1280572757
 20
115.6003620614
 10
357.0459377643
 20
115.9929616332
 10
356.9006040931
 20
116.3267132514
 10
356.6962372471
 20
116.5920154895
 10
356.4387164884
 20
116.7812360852
 10
356.1354502204
 20
116.8889315065
 10
355.7951628614
 20
116.9120035521
 10
355.7319705488
 20
116.9072004001
  0
LWPOLYLINE
  5
328
330
1F
100
AcDbEntity
  8
0
  6
Continuous
 62
     7
370
    25
100
AcDbPolyline
 90
        8
 70
   128
 43
0.0
 10
352.7271943367
 20
111.7022113641
 10
352.8916772326
 20
111.4262929507
 10
353.1234560207
 20
111.1982098619
 10
353.404863307
 20
111.0492150981
 10
353.7278035163
 20
110.9835949674
 10
354.0829862467
 20
111.0032372414
 10
354.4601935378
 20
111.1075768478
 10
354.8485738225
 20
111.293612126
  0
ARC
  5
329
330
1F
100
AcDbEntity
  8
0
  6
Continuous
 62
     7
370
    25
100
AcDbCircle
 10
333.3120335118
 20
150.8763742034
 30
0.0
 40
4.359155452142325
100
AcDbArc
 50
287.8364603625
 51
12.1689161702
  0
ARC
  5
32A
330
1F
100
AcDbEntity
  8
0
  6
Continuous
 62
     7
370
    25
100
AcDbCircle
 10
327.4835400204
 20
154.241091876
 30
0.0
 40
10.30832206239722
100
AcDbArc
 50
313.8211662198
 51
346.1842103129
  0
ARC
  5
32B
330
1F
100
AcDbEntity
  8
0
  6
Continuous
 62
     7
370
    25
100
AcDbCircle
 10
343.8884187142
 20
115.910834537
 30
0.0
 40
3.074043815823442
100
AcDbArc
 50
62.6096722366
 51
117.3903277634
  0
SPLINE
  5
32C
330
1F
100
AcDbEntity
  8
0
  6
Continuous
 62
     7
370
    25
100
AcDbSpline
210
0.0
220
0.0
230
1.0
 70
     8
 71
     3
 72
     8
 73
     4
 74
     0
 42
0.000000001
 43
0.00000001
 40
0.0000004501145511
 40
0.0000004501145511
 40
0.0000004501145511
 40
0.0000004501145511
 40
0.0002266799982131
 40
0.0002266799982131
 40
0.0002266799982131
 40
0.0002266799982131
 10
329.6027909638764
 20
137.9129963282593
 30
0.0
 10
329.650561136848
 20
137.9127786207623
 30
0.0
 10
329.698391756324
 20
137.9123857486449
 30
0.0
 10
329.7462830904238
 20
137.9118141680111
 30
0.0
  0
ARC
  5
32D
330
1F
100
AcDbEntity
  8
0
  6
Continuous
 62
     7
370
    25
100
AcDbCircle
 10
332.8167152932
 20
111.4323054051
 30
0.0
 40
3.07360961514411
100
AcDbArc
 50
182.6054784857
 51
237.39452166
  0
LINE
  5
32E
330
1F
100
AcDbEntity
  8
0
  6
Continuous
 62
     7
370
    25
100
AcDbLine
 10
331.1604966528
 20
108.8430939649
 30
0.0
 11
329.6027909639
 21
109.7423383182
 31
0.0
  0
ARC
  5
32F
330
1F
100
AcDbEntity
  8
0
  6
Continuous
 62
     7
370
    25
100
AcDbCircle
 10
337.8290009434
 20
142.4189022627
 30
0.0
 40
8.075192442400699
100
AcDbArc
 50
177.7445727342
 51
204.4962646183
  0
SPLINE
  5
330
330
1F
100
AcDbEntity
  8
0
  6
Continuous
 62
     7
370
    25
100
AcDbSpline
210
0.0
220
0.0
230
1.0
 70
     8
 71
     3
 72
     8
 73
     4
 74
     0
 42
0.000000001
 43
0.00000001
 40
0.0
 40
0.0
 40
0.0
 40
0.0
 40
1.0
 40
1.0
 40
1.0
 40
1.0
 10
328.7558421491678
 20
141.3404312610025
 30
0.0
 10
329.0882443542125
 20
141.8083041369838
 30
0.0
 10
329.4228484903802
 20
142.2738692287676
 30
0.0
 10
329.7600642481847
 20
142.7366971508555
 30
0.0
  0
ARC
  5
331
330
1F
100
AcDbEntity
  8
0
  6
Continuous
 62
     7
370
    25
100
AcDbCircle
 10
351.2903910067
 20
116.0014649816
 30
0.0
 40
4.415413492124617
100
AcDbArc
 50
289.4146450498
 51
10.5907314829
  0
LINE
  5
332
330
1F
100
AcDbEntity
  8
0
  6
Continuous
 62
     7
370
    25
100
AcDbLine
 10
329.7600642482
 20
142.7366971509
 30
0.0
 11
330.102380479
 21
142.9343121045
 31
0.0
  0
ARC
  5
333
330
1F
100
AcDbEntity
  8
0
  6
Continuous
 62
     7
370
    25
100
AcDbCircle
 10
368.0409239349
 20
142.3806737781
 30
0.0
 40
7.910735339461783
100
AcDbArc
 50
357.5959379182
 51
17.0893812977
  0
LINE
  5
334
330
1F
100
AcDbEntity
  8
0
  6
Continuous
 62
     7
370
    25
100
AcDbLine
 10
343.8884187142
 20
116.1907669713
 30
0.0
 11
331.1604966528
 21
108.8430939649
 31
0.0
  0
LWPOLYLINE
  5
335
330
1F
100
AcDbEntity
  8
0
  6
Continuous
 62
     7
370
    25
100
AcDbPolyline
 90
       51
 70
   128
 43
0.0
 10
376.2523958826
 20
68.7373825609
 10
376.2357696678
 20
68.3683607691
 10
376.1298323117
 20
67.5132834908
 10
375.9301648727
 20
66.6638065342
 10
375.6375713411
 20
65.823350443
 10
375.2532298878
 20
64.9952994374
 10
374.7786881201
 20
64.1829877865
 10
374.2158568504
 20
63.3896863826
 10
373.5670024014
 20
62.6185895705
 10
372.834737481
 20
61.8728022848
 10
372.0220106616
 20
61.1553275478
 10
371.1320945073
 20
60.469054377
 10
370.1685723963
 20
59.8167461523
 10
369.135324092
 20
59.2010294885
 10
368.0365101209
 20
58.6243836595
 10
366.8765550188
 20
58.0891306144
 10
365.6601295155
 20
57.5974256284
 10
364.3921317273
 20
57.1512486239
 10
363.0776674338
 20
56.7523961982
 10
361.7220295186
 20
56.4024743892
 10
360.3306766572
 20
56.1028922086
 10
358.9092113365
 20
55.8548559681
 10
357.4633572957
 20
55.659364422
 10
355.9989364786
 20
55.5172047459
 10
354.5218455911
 20
55.4289493666
 10
353.0380323568
 20
55.3949536573
 10
351.553471568
 20
55.4153545068
 10
350.0741410268
 20
55.490069768
 10
348.6059974754
 20
55.618798589
 10
347.1549526096
 20
55.8010226242
 10
345.726849275
 20
56.0360081217
 10
344.3274379396
 20
56.3228088779
 10
342.962353539
 20
56.6602700475
 10
341.6370927862
 20
57.0470327932
 10
340.3569920387
 20
57.4815397582
 10
339.1272058102
 20
57.9620413361
 10
337.9526860159
 20
58.4866027167
 10
336.8381620324
 20
59.0531116765
 10
335.7881216545
 20
59.6592870839
 10
334.8067930242
 20
60.3026880843
 10
333.8981276054
 20
60.9807239292
 10
333.0657842732
 20
61.6906644074
 10
332.3131145804
 20
62.4296508392
 10
331.6431492621
 20
63.1947075871
 10
331.0585860323
 20
63.9827540375
 10
330.5617787207
 20
64.7906170056
 10
330.1547277951
 20
65.6150435123
 10
329.8390723059
 20
66.452713883
 10
329.6160832862
 20
67.3002551148
 10
329.4866586342
 20
68.1542544583
 10
329.4523650754
 20
68.7373825609
  0
ARC
  5
336
330
1F
100
AcDbEntity
  8
0
  6
Continuous
 62
     7
370
    25
100
AcDbCircle
 10
333.3120335118
 20
126.3801498469
 30
0.0
 40
4.359155452140842
100
AcDbArc
 50
287.8364603625
 51
12.1689161702
  0
ARC
  5
337
330
1F
100
AcDbEntity
  8
0
  6
Continuous
 62
     7
370
    25
100
AcDbCircle
 10
327.4822414509
 20
129.7456171676
 30
0.0
 40
10.30976208761656
100
AcDbArc
 50
313.8234884473
 51
346.1818880854
  0
ARC
  5
338
330
1F
100
AcDbEntity
  8
0
  6
Continuous
 62
     7
370
    25
100
AcDbCircle
 10
342.2322000738
 20
118.7799784115
 30
0.0
 40
3.07360961514413
100
AcDbArc
 50
302.60547834
 51
357.3945215143
  0
ARC
  5
339
330
1F
100
AcDbEntity
  8
0
  6
Continuous
 62
     7
370
    25
100
AcDbCircle
 10
345.5446373545
 20
118.7799784115
 30
0.0
 40
3.073609615143937
100
AcDbArc
 50
182.6054784857
 51
237.39452166
  0
ARC
  5
33A
330
1F
100
AcDbEntity
  8
0
  6
Continuous
 62
     8
370
    25
100
AcDbCircle
 10
336.2486277356
 20
161.664683518
 30
0.0
 40
9.396615625135272
100
AcDbArc
 50
180.5073346956
 51
210.3962730925
  0
LWPOLYLINE
  5
33B
330
1F
100
AcDbEntity
  8
0
  6
Continuous
 62
     8
370
    25
100
AcDbPolyline
 90
       33
 70
   128
 43
0.0
 10
378.8523632487
 20
161.5642009203
 10
378.8439854888
 20
161.2000910059
 10
378.7574656683
 20
160.3001411253
 10
378.5775288281
 20
159.4048119179
 10
378.3048238432
 20
158.517332054
 10
377.9403341222
 20
157.6409018987
 10
377.4853740613
 20
156.7786819701
 10
376.9415843042
 20
155.9337815426
 10
376.3109258257
 20
155.1092474341
 10
375.59567286
 20
154.308053019
 10
374.7984047
 20
153.5330875061
 10
373.9219963958
 20
152.7871455191
 10
372.9696083868
 20
152.0729170194
 10
371.9446751047
 20
151.3929776054
 10
370.8508925889
 20
150.7497792249
 10
369.6922051578
 20
150.1456413326
 10
368.472791185
 20
149.5827425264
 10
367.1970480318
 20
149.0631126908
 10
365.8695761897
 20
148.5886256766
 10
364.4951626904
 20
148.1609925443
 10
363.0787638432
 20
147.7817553931
 10
361.6254873616
 20
147.4522818002
 10
360.140573945
 20
147.1737598892
 10
358.6293783792
 20
146.9471940453
 10
357.0973502269
 20
146.7734012937
 10
355.5500141758
 20
146.6530083531
 10
353.9929501158
 20
146.5864493757
 10
352.4317730171
 20
146.5739643815
 10
350.8721126822
 20
146.6155983932
 10
349.3195934439
 20
146.711201273
 10
347.7798138834
 20
146.860428265
 10
346.2583266407
 20
147.0627412377
 10
344.7606183918
 20
147.3174106248
  0
LWPOLYLINE
  5
33C
330
1F
100
AcDbEntity
  8
0
  6
Continuous
 62
     8
370
    25
100
AcDbPolyline
 90
       33
 70
   128
 43
0.0
 10
344.7606183918
 20
146.092599407
 10
346.2583266407
 20
145.8379300198
 10
347.7798138834
 20
145.6356170472
 10
349.3195934439
 20
145.4863900552
 10
350.8721126822
 20
145.3907871753
 10
352.4317730171
 20
145.3491531637
 10
353.9929501158
 20
145.3616381579
 10
355.5500141758
 20
145.4281971353
 10
357.0973502269
 20
145.5485900759
 10
358.6293783792
 20
145.7223828275
 10
360.140573945
 20
145.9489486714
 10
361.6254873616
 20
146.2274705824
 10
363.0787638432
 20
146.5569441753
 10
364.4951626904
 20
146.9361813265
 10
365.8695761897
 20
147.3638144588
 10
367.1970480318
 20
147.8383014729
 10
368.472791185
 20
148.3579313086
 10
369.6922051578
 20
148.9208301148
 10
370.8508925889
 20
149.5249680071
 10
371.9446751047
 20
150.1681663876
 10
372.9696083868
 20
150.8481058016
 10
373.9219963958
 20
151.5623343013
 10
374.7984047
 20
152.3082762883
 10
375.59567286
 20
153.0832418012
 10
376.3109258257
 20
153.8844362162
 10
376.9415843042
 20
154.7089703248
 10
377.4853740613
 20
155.5538707523
 10
377.9403341222
 20
156.4160906809
 10
378.3048238432
 20
157.2925208362
 10
378.5775288281
 20
158.1800007
 10
378.7574656683
 20
159.0753299075
 10
378.8439854888
 20
159.9752797881
 10
378.852380479
 20
160.356669543
  0
ARC
  5
33D
330
1F
100
AcDbEntity
  8
0
  6
Continuous
 62
     8
370
    25
100
AcDbCircle
 10
336.2486277356
 20
160.4398723002
 30
0.0
 40
9.396615625130508
100
AcDbArc
 50
180.5073346956
 51
210.3962730925
  0
LWPOLYLINE
  5
33E
330
1F
100
AcDbEntity
  8
0
  6
Continuous
 62
     8
370
    25
100
AcDbPolyline
 90
       52
 70
   128
 43
0.0
 10
328.754215645
 20
101.3940409918
 10
328.8113777343
 20
100.5928365084
 10
328.962656304
 20
99.7318924734
 10
329.2063595756
 20
98.8780432037
 10
329.5415447083
 20
98.0345920763
 10
329.9669149362
 20
97.2048022398
 10
330.4808245843
 20
96.3918839898
 10
331.0812854361
 20
95.5989823491
 10
331.7659744253
 20
94.8291649001
 10
332.532242623
 20
94.085409917
 10
333.3771254866
 20
93.3705948433
 10
334.2973543284
 20
92.6874851598
 10
335.2893689617
 20
92.0387236849
 10
336.3493314746
 20
91.4268203509
 10
337.4731410781
 20
90.8541424929
 10
338.6564499712
 20
90.3229056903
 10
339.8946801617
 20
89.835165195
 10
341.1830411774
 20
89.3928079802
 10
342.5165485998
 20
88.9975454402
 10
343.890043348
 20
88.6509067689
 10
345.2982116373
 20
88.3542330439
 10
346.7356055385
 20
88.1086720383
 10
348.1966640535
 20
87.9151737798
 10
349.675734631
 20
87.7744868758
 10
351.1670950341
 20
87.6871556164
 10
352.6649754792
 20
87.6535178693
 10
354.1635809579
 20
87.6737037726
 10
355.6571136566
 20
87.7476352307
 10
357.1397953875
 20
87.8750262173
 10
358.6058899431
 20
88.0553838813
 10
360.0497252883
 20
88.2880104541
 10
361.4657155046
 20
88.5720059486
 10
362.8483824009
 20
88.9062716415
 10
364.1923767078
 20
89.2895143235
 10
365.4924987722
 20
89.7202513034
 10
366.7437186745
 20
90.1968161434
 10
367.9411956879
 20
90.7173651067
 10
369.0802970066
 20
91.2798842905
 10
370.1566156688
 20
91.8821974173
 10
371.1659876066
 20
92.5219742547
 10
372.1045077562
 20
93.1967396304
 10
372.9685451655
 20
93.9038830082
 10
373.7547570415
 20
94.6406685878
 10
374.4601016832
 20
95.4042458889
 10
375.0818502492
 20
96.1916607792
 10
375.6175973152
 20
96.9998669036
 10
376.0652701797
 20
97.8257374694
 10
376.4231368835
 20
98.6660773441
 10
376.6898129098
 20
99.5176354157
 10
376.8642665409
 20
100.3771171717
 10
376.9458228495
 20
101.2411974439
 10
376.950545313
 20
101.3940409918
  0
LINE
  5
33F
330
1F
100
AcDbEntity
  8
0
  6
Continuous
 62
     8
370
    25
100
AcDbLine
 10
359.0531697336
 20
162.0998551835
 30
0.0
 11
359.0531697336
 21
171.4885484694
 31
0.0
  0
LINE
  5
340
330
1F
100
AcDbEntity
  8
0
  6
Continuous
 62
     8
370
    25
100
AcDbLine
 10
345.3026322765
 20
118.6402567069
 30
0.0
 11
346.3632924483
 21
118.0279506231
 31
0.0
  0
LINE
  5
341
330
1F
100
AcDbEntity
  8
0
  6
Continuous
 62
     8
370
    25
100
AcDbLine
 10
353.5106470744
 20
113.9018706235
 30
0.0
 11
354.6662987495
 21
113.234727112
 31
0.0
  0
LINE
  5
342
330
1F
100
AcDbEntity
  8
0
  6
Continuous
 62
     8
370
    25
100
AcDbLine
 10
345.3026322765
 20
159.0595576955
 30
0.0
 11
345.3026322765
 21
154.1618388749
 31
0.0
  0
LINE
  5
343
330
1F
100
AcDbEntity
  8
0
  6
Continuous
 62
     8
370
    25
100
AcDbLine
 10
345.3026322765
 20
145.188243113
 30
0.0
 11
345.3026322765
 21
118.6402567069
 31
0.0
  0
LINE
  5
344
330
1F
100
AcDbEntity
  8
0
  6
Continuous
 62
     8
370
    25
100
AcDbLine
 10
348.1310594013
 20
159.0592922954
 30
0.0
 11
346.7166159707
 21
159.8758331073
 31
0.0
  0
LINE
  5
345
330
1F
100
AcDbEntity
  8
0
  6
Continuous
 62
     8
370
    25
100
AcDbLine
 10
342.4742051518
 20
118.6402567069
 30
0.0
 11
342.4742051518
 21
146.7909476928
 31
0.0
  0
LINE
  5
346
330
1F
100
AcDbEntity
  8
0
  6
Continuous
 62
     8
370
    25
100
AcDbLine
 10
342.4742051518
 20
152.5290226513
 30
0.0
 11
342.4742051518
 21
157.4267414719
 31
0.0
  0
LINE
  5
347
330
1F
100
AcDbEntity
  8
0
  6
Continuous
 62
     8
370
    25
100
AcDbLine
 10
367.1848977172
 20
166.7942018264
 30
0.0
 11
367.1848977172
 21
168.4270180501
 31
0.0
  0
LINE
  5
348
330
1F
100
AcDbEntity
  8
0
  6
Continuous
 62
     8
370
    25
100
AcDbLine
 10
361.8815968583
 20
171.4885484694
 30
0.0
 11
361.8815968583
 21
163.7326714071
 31
0.0
  0
LINE
  5
349
330
1F
100
AcDbEntity
  8
0
  6
Continuous
 62
     8
370
    25
100
AcDbLine
 10
346.3632924483
 20
114.7620527757
 30
0.0
 11
343.8884187142
 21
116.1907669713
 31
0.0
  0
LINE
  5
34A
330
1F
100
AcDbEntity
  8
0
  6
Continuous
 62
     8
370
    25
100
AcDbLine
 10
344.9490788859
 20
100.8831148747
 30
0.0
 11
346.3632924296
 21
101.6995229757
 31
0.0
  0
ARC
  5
34B
330
1F
100
AcDbEntity
  8
0
  6
Continuous
 62
     7
370
    25
100
AcDbCircle
 10
477.8184552252
 20
362.9516073803
 30
0.0
 40
2.000000000000057
100
AcDbArc
 50
180.0
 51
270.0
  0
LINE
  5
34C
330
1F
100
AcDbEntity
  8
0
  6
Continuous
 62
     7
370
    25
100
AcDbLine
 10
475.8184552252
 20
364.4516073803
 30
0.0
 11
475.8184552252
 21
362.9516073803
 31
0.0
  0
ARC
  5
34D
330
1F
100
AcDbEntity
  8
0
  6
Continuous
 62
     7
370
    25
100
AcDbCircle
 10
477.8184552252
 20
364.4516073803
 30
0.0
 40
2.000000000000057
100
AcDbArc
 50
90.0
 51
180.0
  0
LINE
  5
34E
330
1F
100
AcDbEntity
  8
0
  6
Continuous
 62
     7
370
    25
100
AcDbLine
 10
525.9184552252
 20
290.9516073802
 30
0.0
 11
525.9184552252
 21
305.4516073803
 31
0.0
  0
LINE
  5
34F
330
1F
100
AcDbEntity
  8
0
  6
Continuous
 62
     7
370
    25
100
AcDbLine
 10
477.7184552252
 20
339.9516073803
 30
0.0
 11
477.7184552252
 21
290.9516073802
 31
0.0
  0
LINE
  5
350
330
1F
100
AcDbEntity
  8
0
  6
Continuous
 62
     7
370
    25
100
AcDbLine
 10
477.7184552252
 20
290.9516073802
 30
0.0
 11
478.4166578223
 21
250.9516073803
 31
0.0
  0
LINE
  5
351
330
1F
100
AcDbEntity
  8
0
  6
Continuous
 62
     7
370
    25
100
AcDbLine
 10
525.2202526281
 20
250.9516073803
 30
0.0
 11
525.9184552252
 21
290.9516073802
 31
0.0
  0
LINE
  5
352
330
1F
100
AcDbEntity
  8
0
  6
Continuous
 62
     7
370
    25
100
AcDbLine
 10
478.7184552252
 20
340.9516073803
 30
0.0
 11
477.7184552252
 21
339.9516073803
 31
0.0
  0
LINE
  5
353
330
1F
100
AcDbEntity
  8
0
  6
Continuous
 62
     7
370
    25
100
AcDbLine
 10
479.0684552252
 20
360.9516073803
 30
0.0
 11
479.0684552252
 21
340.9516073803
 31
0.0
  0
LINE
  5
354
330
1F
100
AcDbEntity
  8
0
  6
Continuous
 62
     7
370
    25
100
AcDbLine
 10
522.7454115256
 20
360.9516073803
 30
0.0
 11
477.8184552252
 21
360.9516073803
 31
0.0
  0
SPLINE
  5
355
330
1F
100
AcDbEntity
  8
0
  6
Continuous
 62
     7
370
    25
100
AcDbSpline
210
0.0
220
0.0
230
1.0
 70
     8
 71
     3
 72
    16
 73
    12
 74
     0
 42
0.000000001
 43
0.00000001
 40
0.0
 40
0.0
 40
0.0
 40
0.0
 40
0.1250000000000002
 40
0.1250000000000002
 40
0.2500000000000004
 40
0.2500000000000004
 40
0.5000000000000003
 40
0.5000000000000003
 40
0.7500000000000002
 40
0.7500000000000002
 40
1.0
 40
1.0
 40
1.0
 40
1.0
 10
525.0119349124028
 20
362.951607380256
 30
0.0
 10
525.0119349124028
 20
362.8099060200435
 30
0.0
 10
524.9947897408557
 20
362.6684497097102
 30
0.0
 10
524.9296817353709
 20
362.3973060105122
 30
0.0
 10
524.8818576220966
 20
362.2663162474112
 30
0.0
 10
524.6927284387381
 20
361.8870471605961
 30
0.0
 10
524.5151286114836
 20
361.6697280638106
 30
0.0
 10
524.0807741358659
 20
361.3102028630585
 30
0.0
 10
523.8363218452401
 20
361.1772572342285
 30
0.0
 10
523.3023545756491
 20
360.9954770790711
 30
0.0
 10
523.0275373803956
 20
360.951607380256
 30
0.0
 10
522.7454115256423
 20
360.951607380256
 30
0.0
  0
LINE
  5
356
330
1F
100
AcDbEntity
  8
0
  6
Continuous
 62
     7
370
    25
100
AcDbLine
 10
525.0119349124
 20
362.9516073803
 30
0.0
 11
525.0119349124
 21
364.4516073803
 31
0.0
  0
LINE
  5
357
330
1F
100
AcDbEntity
  8
0
  6
Continuous
 62
     7
370
    25
100
AcDbLine
 10
477.8184552252
 20
366.4516073803
 30
0.0
 11
522.7454115256
 21
366.4516073803
 31
0.0
  0
SPLINE
  5
358
330
1F
100
AcDbEntity
  8
0
  6
Continuous
 62
     7
370
    25
100
AcDbSpline
210
0.0
220
0.0
230
1.0
 70
     8
 71
     3
 72
    18
 73
    14
 74
     0
 42
0.000000001
 43
0.00000001
 40
0.0
 40
0.0
 40
0.0
 40
0.0
 40
0.25
 40
0.25
 40
0.3749999999999999
 40
0.3749999999999999
 40
0.4999999999999999
 40
0.4999999999999999
 40
0.7499999999999998
 40
0.7499999999999998
 40
0.8749999999999999
 40
0.8749999999999999
 40
1.0
 40
1.0
 40
1.0
 40
1.0
 10
522.7454115256423
 20
366.451607380256
 30
0.0
 10
523.0270340280674
 20
366.451607380256
 30
0.0
 10
523.304309699437
 20
366.4071451409636
 30
0.0
 10
523.7027115011371
 20
366.2714062730118
 30
0.0
 10
523.8303316502708
 20
366.2153166045468
 30
0.0
 10
524.0747445329428
 20
366.0804740356558
 30
0.0
 10
524.1923133782792
 20
366.0008862049799
 30
0.0
 10
524.5147139495967
 20
365.7334290158205
 30
0.0
 10
524.6956759029969
 20
365.511021095342
 30
0.0
 10
524.8819360422285
 20
365.1363543761958
 30
0.0
 10
524.930788194218
 20
365.0024679896185
 30
0.0
 10
524.9953517918188
 20
364.7312268390975
 30
0.0
 10
525.0119349124028
 20
364.5928649745773
 30
0.0
 10
525.0119349124028
 20
364.451607380256
 30
0.0
  0
LINE
  5
359
330
1F
100
AcDbEntity
  8
0
  6
Continuous
 62
     7
370
    25
100
AcDbLine
 10
519.1461065375
 20
339.9516073803
 30
0.0
 11
522.7454115256
 21
339.9516073803
 31
0.0
  0
LINE
  5
35A
330
1F
100
AcDbEntity
  8
0
  6
Continuous
 62
     7
370
    25
100
AcDbLine
 10
522.7454115256
 20
305.4516073803
 30
0.0
 11
522.7454115256
 21
339.9516073803
 31
0.0
  0
LINE
  5
35B
330
1F
100
AcDbEntity
  8
0
  6
Continuous
 62
     7
370
    25
100
AcDbLine
 10
522.7454115256
 20
305.4516073803
 30
0.0
 11
525.9184552252
 21
305.4516073803
 31
0.0
  0
LINE
  5
35C
330
1F
100
AcDbEntity
  8
0
  6
Continuous
 62
     7
370
    25
100
AcDbLine
 10
484.4908039129
 20
339.9516073803
 30
0.0
 11
477.7184552252
 21
339.9516073803
 31
0.0
  0
LINE
  5
35D
330
1F
100
AcDbEntity
  8
0
  6
Continuous
 62
     7
370
    25
100
AcDbLine
 10
484.4908039129
 20
339.9516073803
 30
0.0
 11
484.4908039129
 21
305.4516073803
 31
0.0
  0
LINE
  5
35E
330
1F
100
AcDbEntity
  8
0
  6
Continuous
 62
     7
370
    25
100
AcDbLine
 10
484.4908039129
 20
305.4516073803
 30
0.0
 11
519.1461065375
 21
305.4516073803
 31
0.0
  0
LINE
  5
35F
330
1F
100
AcDbEntity
  8
0
  6
Continuous
 62
     7
370
    25
100
AcDbLine
 10
519.1461065375
 20
305.4516073803
 30
0.0
 11
519.1461065375
 21
339.9516073803
 31
0.0
  0
LINE
  5
360
330
1F
100
AcDbEntity
  8
0
  6
Continuous
 62
     7
370
    25
100
AcDbLine
 10
525.2202526281
 20
250.9516073803
 30
0.0
 11
478.4166578223
 21
250.9516073803
 31
0.0
  0
CIRCLE
  5
361
330
1F
100
AcDbEntity
  8
0
  6
Continuous
 62
     7
370
    25
100
AcDbCircle
 10
512.7454115256
 20
348.4516073803
 30
0.0
 40
3.249999999999943
  0
ARC
  5
362
330
1F
100
AcDbEntity
  8
0
  6
Continuous
 62
     7
370
    25
100
AcDbCircle
 10
512.7454115256
 20
348.4516073803
 30
0.0
 40
6.24999999999994
100
AcDbArc
 50
44.3686269017
 51
315.6313730983
  0
SPLINE
  5
363
330
1F
100
AcDbEntity
  8
0
  6
Continuous
 62
     7
370
    25
100
AcDbSpline
210
0.0
220
0.0
230
1.0
 70
     8
 71
     3
 72
    19
 73
    15
 74
     0
 42
0.000000001
 43
0.00000001
 40
0.0
 40
0.0
 40
0.0
 40
0.0
 40
0.2499999999999992
 40
0.2499999999999992
 40
0.3749999999999993
 40
0.3749999999999993
 40
0.4999999999999994
 40
0.6249999999999996
 40
0.6249999999999996
 40
0.7499999999999997
 40
0.7499999999999997
 40
0.8749999999999999
 40
0.8749999999999999
 40
1.0
 40
1.0
 40
1.0
 40
1.0
 10
517.2132595435555
 20
352.8220574816561
 30
0.0
 10
517.4988359100422
 20
352.1547677023644
 30
0.0
 10
517.7221052581868
 20
351.4595945443334
 30
0.0
 10
517.9545906448551
 20
350.3649590312323
 30
0.0
 10
518.0149512902506
 20
349.9901186395099
 30
0.0
 10
518.0964547552455
 20
349.2253579218953
 30
0.0
 10
518.1372389458677
 20
348.461159903985
 30
0.0
 10
518.0978335067176
 20
347.6980831733674
 30
0.0
 10
518.0180803323548
 20
346.935564219483
 30
0.0
 10
517.9580316512793
 20
346.5572750890924
 30
0.0
 10
517.8031724384277
 20
345.8226240161287
 30
0.0
 10
517.7081180874413
 20
345.4635987274416
 30
0.0
 10
517.484876888213
 20
344.7603235303399
 30
0.0
 10
517.356315685129
 20
344.4154282912342
 30
0.0
 10
517.2132595435555
 20
344.0811572788559
 30
0.0
  0
SPLINE
  5
364
330
1F
100
AcDbEntity
  8
0
  6
Continuous
 62
     7
370
    25
100
AcDbSpline
210
0.0
220
0.0
230
1.0
 70
     8
 71
     3
 72
    18
 73
    14
 74
     0
 42
0.000000001
 43
0.00000001
 40
0.0
 40
0.0
 40
0.0
 40
0.0
 40
0.125
 40
0.125
 40
0.2500000000000001
 40
0.2500000000000001
 40
0.5000000000000001
 40
0.5000000000000001
 40
0.6250000000000004
 40
0.6250000000000004
 40
0.7500000000000009
 40
0.7500000000000009
 40
1.0
 40
1.0
 40
1.0
 40
1.0
 10
521.2992149639931
 20
358.951607380256
 30
0.0
 10
521.2992149639931
 20
359.092670664564
 30
0.0
 10
521.3081346344352
 20
359.2306717888511
 30
0.0
 10
521.3424707944936
 20
359.5009464864145
 30
0.0
 10
521.3683136340953
 20
359.6340405501854
 30
0.0
 10
521.4652011331876
 20
360.0058961378018
 30
0.0
 10
521.5573181492115
 20
360.2257938001457
 30
0.0
 10
521.7151229964561
 20
360.4924344024854
 30
0.0
 10
521.7717076891441
 20
360.5720368004165
 30
0.0
 10
521.8873572962823
 20
360.7078385063467
 30
0.0
 10
521.9468632401412
 20
360.764894958971
 30
0.0
 10
522.1295877310017
 20
360.9041105864512
 30
0.0
 10
522.2527011147267
 20
360.951607380256
 30
0.0
 10
522.3732600163094
 20
360.951607380256
 30
0.0
  0
LINE
  5
365
330
1F
100
AcDbEntity
  8
0
  6
Continuous
 62
     7
370
    25
100
AcDbLine
 10
521.299214964
 20
340.9516073803
 30
0.0
 11
521.299214964
 21
358.9516073803
 31
0.0
  0
LINE
  5
366
330
1F
100
AcDbEntity
  8
0
  6
Continuous
 62
     7
370
    25
100
AcDbLine
 10
517.2132595436
 20
340.9516073803
 30
0.0
 11
517.2132595436
 21
344.0811572789
 31
0.0
  0
LINE
  5
367
330
1F
100
AcDbEntity
  8
0
  6
Continuous
 62
     7
370
    25
100
AcDbLine
 10
517.2132595436
 20
352.8220574817
 30
0.0
 11
517.2132595436
 21
360.9516073803
 31
0.0
  0
LINE
  5
368
330
1F
100
AcDbEntity
  8
0
  6
Continuous
 62
     7
370
    25
100
AcDbLine
 10
478.7184552252
 20
340.9516073803
 30
0.0
 11
485.910988425
 21
340.9516073803
 31
0.0
  0
SPLINE
  5
369
330
1F
100
AcDbEntity
  8
0
  6
Continuous
 62
     7
370
    25
100
AcDbSpline
210
0.0
220
0.0
230
1.0
 70
     8
 71
     3
 72
     8
 73
     4
 74
     0
 42
0.000000001
 43
0.00000001
 40
0.0
 40
0.0
 40
0.0
 40
0.0
 40
1.0
 40
1.0
 40
1.0
 40
1.0
 10
485.9109884249982
 20
340.951607380256
 30
0.0
 10
485.4336822777933
 20
340.6229176966975
 30
0.0
 10
484.960509434783
 20
340.2893208035778
 30
0.0
 10
484.4908039129337
 20
339.951607380256
 30
0.0
  0
LINE
  5
36A
330
1F
100
AcDbEntity
  8
0
  6
Continuous
 62
     7
370
    25
100
AcDbLine
 10
486.4236509069
 20
360.9516073803
 30
0.0
 11
486.4236509069
 21
340.9516073803
 31
0.0
  0
LINE
  5
36B
330
1F
100
AcDbEntity
  8
0
  6
Continuous
 62
     7
370
    25
100
AcDbLine
 10
517.7259220254
 20
340.9516073803
 30
0.0
 11
517.2132595436
 21
340.9516073803
 31
0.0
  0
SPLINE
  5
36C
330
1F
100
AcDbEntity
  8
0
  6
Continuous
 62
     7
370
    25
100
AcDbSpline
210
0.0
220
0.0
230
1.0
 70
     8
 71
     3
 72
     8
 73
     4
 74
     0
 42
0.000000001
 43
0.00000001
 40
0.0
 40
0.0
 40
0.0
 40
0.0
 40
1.0
 40
1.0
 40
1.0
 40
1.0
 10
519.1461065374962
 20
339.951607380256
 30
0.0
 10
518.6760188309593
 20
340.2895955904244
 30
0.0
 10
518.2028171235646
 20
340.6232007594448
 30
0.0
 10
517.7259220254317
 20
340.951607380256
 30
0.0
  0
CIRCLE
  5
36D
330
1F
100
AcDbEntity
  8
0
  6
Continuous
 62
     7
370
    25
100
AcDbCircle
 10
512.7454115256
 20
318.4516073803
 30
0.0
 40
6.250000000000057
  0
LINE
  5
36E
330
1F
100
AcDbEntity
  8
0
  6
Continuous
 62
     7
370
    25
100
AcDbLine
 10
486.4236509069
 20
340.9516073803
 30
0.0
 11
485.910988425
 21
340.9516073803
 31
0.0
  0
CIRCLE
  5
36F
330
1F
100
AcDbEntity
  8
0
  6
Continuous
 62
     7
370
    25
100
AcDbCircle
 10
512.7454115256
 20
318.4516073803
 30
0.0
 40
3.250000000000057
  0
SPLINE
  5
370
330
1F
100
AcDbEntity
  8
0
  6
Continuous
 62
     7
370
    25
100
AcDbSpline
210
0.0
220
0.0
230
1.0
 70
     8
 71
     3
 72
     8
 73
     4
 74
     0
 42
0.000000001
 43
0.00000001
 40
0.0
 40
0.0
 40
0.0
 40
0.0
 40
1.0
 40
1.0
 40
1.0
 40
1.0
 10
522.7454115256423
 20
340.051607380256
 30
0.0
 10
522.400116281036
 20
340.3526898175319
 30
0.0
 10
522.0539628054061
 20
340.6527379712635
 30
0.0
 10
521.706831227292
 20
340.951607380256
 30
0.0
  0
SPLINE
  5
371
330
1F
100
AcDbEntity
  8
0
  6
Continuous
 62
     7
370
    25
100
AcDbSpline
210
0.0
220
0.0
230
1.0
 70
    24
 71
     3
 72
     8
 73
     4
 74
     0
 42
0.000000001
 43
0.00000001
 40
0.0000004501145511
 40
0.0000004501145511
 40
0.0000004501145511
 40
0.0000004501145511
 40
0.0002266799982131
 40
0.0002266799982131
 40
0.0002266799982131
 40
0.0002266799982131
 10
522.7454115256423
 20
339.951607380256
 30
0.0
 10
522.7454115256423
 20
339.9851138822769
 30
0.0
 10
522.7454115256423
 20
340.0184485991352
 30
0.0
 10
522.7454115256423
 20
340.051607380256
 30
0.0
  0
LINE
  5
372
330
1F
100
AcDbEntity
  8
0
  6
Continuous
 62
     7
370
    25
100
AcDbLine
 10
517.7259220254
 20
340.9516073803
 30
0.0
 11
521.7068312273
 21
340.9516073803
 31
0.0
  0
LINE
  5
373
330
1F
100
AcDbEntity
  8
0
  6
Continuous
 62
     8
370
    25
100
AcDbLine
 10
475.8184552252
 20
362.9516073803
 30
0.0
 11
525.0119349124
 21
362.9516073803
 31
0.0
  0
LINE
  5
374
330
1F
100
AcDbEntity
  8
0
  6
Continuous
 62
     8
370
    25
100
AcDbLine
 10
525.0119349124
 20
364.4516073803
 30
0.0
 11
475.8184552252
 21
364.4516073803
 31
0.0
  0
LINE
  5
375
330
1F
100
AcDbEntity
  8
0
  6
Continuous
 62
     8
370
    25
100
AcDbLine
 10
477.7184552252
 20
290.9516073802
 30
0.0
 11
525.9184552252
 21
290.9516073802
 31
0.0
  0
INSERT
  5
381
330
1F
100
AcDbEntity
  8
0
  6
Continuous
 62
     7
370
     0
100
AcDbBlockReference
  2
SW_CENTERMARKSYMBOL_3
 10
512.7454115256
 20
318.4516073803
 30
0.0
  0
INSERT
  5
38D
330
1F
100
AcDbEntity
  8
0
  6
Continuous
 62
     7
370
     0
100
AcDbBlockReference
  2
SW_CENTERMARKSYMBOL_4
 10
512.7454115256
 20
348.4516073803
 30
0.0
  0
LINE
  5
38E
330
1F
100
AcDbEntity
  8
0
  6
PHANTOM
 62
     7
370
    35
100
AcDbLine
 10
512.7454115256
 20
380.3676073803
 30
0.0
 11
512.7454115256
 21
237.0856073803
 31
0.0
  0
LINE
  5
38F
330
1F
100
AcDbEntity
  8
0
  6
Continuous
 62
     7
370
    35
100
AcDbLine
 10
525.4454115256
 20
378.3676073803
 30
0.0
 11
512.7454115256
 21
378.3676073803
 31
0.0
  0
SOLID
  5
390
330
1F
100
AcDbEntity
  8
0
  6
Continuous
 62
     7
370
    35
100
AcDbTrace
 10
512.7454115256
 20
378.3676073803
 30
0.0
 11
519.0954115256
 21
377.3516073803
 31
0.0
 12
519.0954115256
 22
379.3836073803
 32
0.0
 13
519.0954115256
 23
379.3836073803
 33
0.0
  0
LINE
  5
391
330
1F
100
AcDbEntity
  8
0
  6
Continuous
 62
     7
370
    35
100
AcDbLine
 10
525.4454115256
 20
239.0856073803
 30
0.0
 11
512.7454115256
 21
239.0856073803
 31
0.0
  0
SOLID
  5
392
330
1F
100
AcDbEntity
  8
0
  6
Continuous
 62
     7
370
    35
100
AcDbTrace
 10
512.7454115256
 20
239.0856073803
 30
0.0
 11
519.0954115256
 21
238.0696073803
 31
0.0
 12
519.0954115256
 22
240.1016073803
 32
0.0
 13
519.0954115256
 23
240.1016073803
 33
0.0
  0
MTEXT
  5
393
330
1F
100
AcDbEntity
  8
0
  6
Continuous
 62
     7
100
AcDbMText
 10
521.9948362055
 20
383.9192755933
 30
0.0
 40
3.5
 41
0.0
 71
     1
 72
     1
  1
A
  7
SLDTEXTSTYLE0
 73
     1
 44
1.0
  0
MTEXT
  5
394
330
1F
100
AcDbEntity
  8
0
  6
Continuous
 62
     7
100
AcDbMText
 10
521.9948362055
 20
237.2369018653
 30
0.0
 40
3.5
 41
0.0
 71
     1
 72
     1
  1
A
  7
SLDTEXTSTYLE0
 73
     1
 44
1.0
  0
LINE
  5
395
330
1F
100
AcDbEntity
  8
0
  6
CENTERX2
 62
     7
370
    18
100
AcDbLine
 10
501.8184552252
 20
237.3717008047
 30
0.0
 11
501.8184552252
 21
377.3793347854
 31
0.0
  0
LINE
  5
396
330
1F
100
AcDbEntity
  8
0
  6
Continuous
 62
     7
370
    25
100
AcDbLine
 10
44.38988893
 20
364.4516073803
 30
0.0
 11
44.38988893
 21
362.9516073803
 31
0.0
  0
LINE
  5
397
330
1F
100
AcDbEntity
  8
0
  6
Continuous
 62
     7
370
    25
100
AcDbLine
 10
96.38988893
 20
362.9516073803
 30
0.0
 11
96.38988893
 21
364.4516073803
 31
0.0
  0
ARC
  5
398
330
1F
100
AcDbEntity
  8
0
  6
Continuous
 62
     7
370
    25
100
AcDbCircle
 10
94.38988893
 20
364.4516073803
 30
0.0
 40
2.0
100
AcDbArc
 50
0.0
 51
90.0
  0
ARC
  5
399
330
1F
100
AcDbEntity
  8
0
  6
Continuous
 62
     7
370
    25
100
AcDbCircle
 10
46.38988893
 20
364.4516073803
 30
0.0
 40
2.000000000000007
100
AcDbArc
 50
90.0
 51
180.0
  0
ARC
  5
39A
330
1F
100
AcDbEntity
  8
0
  6
Continuous
 62
     7
370
    25
100
AcDbCircle
 10
94.38988893
 20
362.9516073803
 30
0.0
 40
2.0
100
AcDbArc
 50
270.0
 51
0.0
  0
ARC
  5
39B
330
1F
100
AcDbEntity
  8
0
  6
Continuous
 62
     7
370
    25
100
AcDbCircle
 10
46.38988893
 20
362.9516073803
 30
0.0
 40
2.000000000000007
100
AcDbArc
 50
180.0
 51
270.0
  0
LINE
  5
39C
330
1F
100
AcDbEntity
  8
0
  6
Continuous
 62
     7
370
    25
100
AcDbLine
 10
46.28988893
 20
290.9516073802
 30
0.0
 11
46.9880915271
 21
250.9516073803
 31
0.0
  0
LINE
  5
39D
330
1F
100
AcDbEntity
  8
0
  6
Continuous
 62
     7
370
    25
100
AcDbLine
 10
93.7916863329
 20
250.9516073803
 30
0.0
 11
94.48988893
 21
290.9516073802
 31
0.0
  0
LINE
  5
39E
330
1F
100
AcDbEntity
  8
0
  6
Continuous
 62
     7
370
    25
100
AcDbLine
 10
94.48988893
 20
290.9516073802
 30
0.0
 11
94.48988893
 21
305.4516073803
 31
0.0
  0
LINE
  5
39F
330
1F
100
AcDbEntity
  8
0
  6
Continuous
 62
     7
370
    25
100
AcDbLine
 10
46.28988893
 20
305.4516073803
 30
0.0
 11
46.28988893
 21
290.9516073802
 31
0.0
  0
LINE
  5
3A0
330
1F
100
AcDbEntity
  8
0
  6
Continuous
 62
     7
370
    25
100
AcDbLine
 10
46.7974828211
 20
364.4516073803
 30
0.0
 11
46.7974828211
 21
362.9516073803
 31
0.0
  0
LINE
  5
3A1
330
1F
100
AcDbEntity
  8
0
  6
Continuous
 62
     7
370
    25
100
AcDbLine
 10
93.9822950389
 20
362.9516073803
 30
0.0
 11
93.9822950389
 21
364.4516073803
 31
0.0
  0
SPLINE
  5
3A2
330
1F
100
AcDbEntity
  8
0
  6
Continuous
 62
     7
370
    25
100
AcDbSpline
210
0.0
220
0.0
230
1.0
 70
     8
 71
     3
 72
    18
 73
    14
 74
     0
 42
0.000000001
 43
0.00000001
 40
0.0
 40
0.0
 40
0.0
 40
0.0
 40
0.25
 40
0.25
 40
0.5
 40
0.5
 40
0.625
 40
0.625
 40
0.75
 40
0.75
 40
0.875
 40
0.875
 40
1.0
 40
1.0
 40
1.0
 40
1.0
 10
91.75812765031917
 20
366.451607380256
 30
0.0
 10
92.03673485643559
 20
366.451607380256
 30
0.0
 10
92.30945257524792
 20
366.4066986414697
 30
0.0
 10
92.83610368701439
 20
366.2220334624986
 30
0.0
 10
93.07678271914061
 20
366.0870990596552
 30
0.0
 10
93.3958444269389
 20
365.8152230920727
 30
0.0
 10
93.49149700799393
 20
365.7157980116927
 30
0.0
 10
93.66112475778442
 20
365.4991223909191
 30
0.0
 10
93.73580974894763
 20
365.3803855035262
 30
0.0
 10
93.85708860848709
 20
365.1299079758434
 30
0.0
 10
93.90323349197159
 20
364.9999730004356
 30
0.0
 10
93.96602441808602
 20
364.7305454687966
 30
0.0
 10
93.98229503892725
 20
364.5898857888123
 30
0.0
 10
93.98229503892725
 20
364.451607380256
 30
0.0
  0
LINE
  5
3A3
330
1F
100
AcDbEntity
  8
0
  6
Continuous
 62
     7
370
    25
100
AcDbLine
 10
91.7581276503
 20
366.4516073803
 30
0.0
 11
94.38988893
 21
366.4516073803
 31
0.0
  0
LINE
  5
3A4
330
1F
100
AcDbEntity
  8
0
  6
Continuous
 62
     7
370
    25
100
AcDbLine
 10
46.38988893
 20
366.4516073803
 30
0.0
 11
49.0216502097
 21
366.4516073803
 31
0.0
  0
SPLINE
  5
3A5
330
1F
100
AcDbEntity
  8
0
  6
Continuous
 62
     7
370
    25
100
AcDbSpline
210
0.0
220
0.0
230
1.0
 70
     8
 71
     3
 72
    18
 73
    14
 74
     0
 42
0.000000001
 43
0.00000001
 40
0.0
 40
0.0
 40
0.0
 40
0.0
 40
0.2499999999999998
 40
0.2499999999999998
 40
0.3749999999999998
 40
0.3749999999999998
 40
0.4999999999999999
 40
0.4999999999999999
 40
0.7499999999999999
 40
0.7499999999999999
 40
0.875
 40
0.875
 40
1.0
 40
1.0
 40
1.0
 40
1.0
 10
46.79748282107276
 20
364.451607380256
 30
0.0
 10
46.79748282107276
 20
364.7279150333684
 30
0.0
 10
46.86256371442815
 20
365.0055778587448
 30
0.0
 10
47.04341227658313
 20
365.3793136967025
 30
0.0
 10
47.11817071824155
 20
365.4986835148089
 30
0.0
 10
47.29070748335411
 20
365.7187183803441
 30
0.0
 10
47.38696283676922
 20
365.8179566796726
 30
0.0
 10
47.70105825660681
 20
366.0851412031973
 30
0.0
 10
47.9477547049314
 20
366.2235952997352
 30
0.0
 10
48.33813278912933
 20
366.3602807063727
 30
0.0
 10
48.47395240988489
 20
366.3949038284812
 30
0.0
 10
48.74654462226002
 20
366.4403865420826
 30
0.0
 10
48.88368584809353
 20
366.451607380256
 30
0.0
 10
49.02165020968083
 20
366.451607380256
 30
0.0
  0
SPLINE
  5
3A6
330
1F
100
AcDbEntity
  8
0
  6
Continuous
 62
     7
370
    25
100
AcDbSpline
210
0.0
220
0.0
230
1.0
 70
     8
 71
     3
 72
    20
 73
    16
 74
     0
 42
0.000000001
 43
0.00000001
 40
0.0
 40
0.0
 40
0.0
 40
0.0
 40
0.1250000000000005
 40
0.1250000000000005
 40
0.2500000000000014
 40
0.2500000000000014
 40
0.5000000000000024
 40
0.5000000000000024
 40
0.6250000000000018
 40
0.6250000000000018
 40
0.7500000000000012
 40
0.7500000000000012
 40
0.8750000000000006
 40
0.8750000000000006
 40
1.0
 40
1.0
 40
1.0
 40
1.0
 10
93.98229503892725
 20
362.951607380256
 30
0.0
 10
93.98229503892723
 20
362.81228626615
 30
0.0
 10
93.96623018959735
 20
362.6742054983497
 30
0.0
 10
93.90391636789303
 20
362.4055278505834
 30
0.0
 10
93.85678074199234
 20
362.27270841423
 30
0.0
 10
93.67607976104588
 20
361.8993939229538
 30
0.0
 10
93.50004235518314
 20
361.6768904681348
 30
0.0
 10
93.18495412873523
 20
361.4082346321581
 30
0.0
 10
93.06974317127705
 20
361.3279684534241
 30
0.0
 10
92.8290055220543
 20
361.1913987421093
 30
0.0
 10
92.70335130132997
 20
361.1346256277054
 30
0.0
 10
92.44198145344376
 20
361.0429934248436
 30
0.0
 10
92.30620632079767
 20
361.0084146747056
 30
0.0
 10
92.03424934210412
 20
360.9629577705715
 30
0.0
 10
91.89688148874954
 20
360.951607380256
 30
0.0
 10
91.75812765031917
 20
360.951607380256
 30
0.0
  0
SPLINE
  5
3A7
330
1F
100
AcDbEntity
  8
0
  6
Continuous
 62
     7
370
    25
100
AcDbSpline
210
0.0
220
0.0
230
1.0
 70
     8
 71
     3
 72
    14
 73
    10
 74
     0
 42
0.000000001
 43
0.00000001
 40
0.0
 40
0.0
 40
0.0
 40
0.0
 40
0.25
 40
0.25
 40
0.5
 40
0.5
 40
0.75
 40
0.75
 40
1.0
 40
1.0
 40
1.0
 40
1.0
 10
49.02165020968083
 20
360.951607380256
 30
0.0
 10
48.74249572852474
 20
360.951607380256
 30
0.0
 10
48.47094536196069
 20
360.9963617204724
 30
0.0
 10
47.9440081159432
 20
361.1810012925397
 30
0.0
 10
47.70372801025203
 20
361.3156518456643
 30
0.0
 10
47.2782614488801
 20
361.6778758233701
 30
0.0
 10
47.1057137670692
 20
361.8956625638416
 30
0.0
 10
46.86186568580254
 20
362.3985704297451
 30
0.0
 10
46.79748282107268
 20
362.674876746365
 30
0.0
 10
46.79748282107268
 20
362.951607380256
 30
0.0
  0
LINE
  5
3A8
330
1F
100
AcDbEntity
  8
0
  6
Continuous
 62
     7
370
    25
100
AcDbLine
 10
49.0216502097
 20
360.9516073803
 30
0.0
 11
46.38988893
 21
360.9516073803
 31
0.0
  0
LINE
  5
3A9
330
1F
100
AcDbEntity
  8
0
  6
Continuous
 62
     7
370
    25
100
AcDbLine
 10
94.38988893
 20
360.9516073803
 30
0.0
 11
91.7581276503
 21
360.9516073803
 31
0.0
  0
LWPOLYLINE
  5
3AA
330
1F
100
AcDbEntity
  8
0
  6
Continuous
 62
     7
370
    25
100
AcDbPolyline
 90
        3
 70
   128
 43
0.0
 10
91.870383012
 20
290.9516073802
 10
91.7710980544
 20
285.8842437189
 10
91.0839882748
 20
250.9516073803
  0
LWPOLYLINE
  5
3AB
330
1F
100
AcDbEntity
  8
0
  6
Continuous
 62
     7
370
    25
100
AcDbPolyline
 90
        3
 70
   128
 43
0.0
 10
49.6957895852
 20
250.9516073803
 10
49.0086798056
 20
285.8842437189
 10
48.909394848
 20
290.9516073802
  0
LINE
  5
3AC
330
1F
100
AcDbEntity
  8
0
  6
Continuous
 62
     7
370
    25
100
AcDbLine
 10
49.6957895852
 20
250.9516073803
 30
0.0
 11
46.9880915271
 21
250.9516073803
 31
0.0
  0
LINE
  5
3AD
330
1F
100
AcDbEntity
  8
0
  6
Continuous
 62
     7
370
    25
100
AcDbLine
 10
93.7916863329
 20
250.9516073803
 30
0.0
 11
91.0839882748
 21
250.9516073803
 31
0.0
  0
LINE
  5
3AE
330
1F
100
AcDbEntity
  8
0
  6
Continuous
 62
     7
370
    25
100
AcDbLine
 10
91.870383012
 20
305.4516073803
 30
0.0
 11
91.870383012
 21
290.9516073802
 31
0.0
  0
LINE
  5
3AF
330
1F
100
AcDbEntity
  8
0
  6
Continuous
 62
     7
370
    25
100
AcDbLine
 10
91.870383012
 20
305.4516073803
 30
0.0
 11
94.48988893
 21
305.4516073803
 31
0.0
  0
LINE
  5
3B0
330
1F
100
AcDbEntity
  8
0
  6
Continuous
 62
     7
370
    25
100
AcDbLine
 10
46.28988893
 20
305.4516073803
 30
0.0
 11
48.909394848
 21
305.4516073803
 31
0.0
  0
LINE
  5
3B1
330
1F
100
AcDbEntity
  8
0
  6
Continuous
 62
     7
370
    25
100
AcDbLine
 10
48.909394848
 20
290.9516073802
 30
0.0
 11
48.909394848
 21
305.4516073803
 31
0.0
  0
LINE
  5
3B2
330
1F
100
AcDbEntity
  8
0
  6
Continuous
 62
     7
370
    25
100
AcDbLine
 10
48.909394848
 20
305.4516073803
 30
0.0
 11
53.63988893
 21
305.4516073803
 31
0.0
  0
LINE
  5
3B3
330
1F
100
AcDbEntity
  8
0
  6
Continuous
 62
     7
370
    25
100
AcDbLine
 10
53.63988893
 20
305.4516073803
 30
0.0
 11
53.63988893
 21
312.2016073803
 31
0.0
  0
LINE
  5
3B4
330
1F
100
AcDbEntity
  8
0
  6
Continuous
 62
     7
370
    25
100
AcDbLine
 10
53.63988893
 20
312.2016073803
 30
0.0
 11
56.63988893
 21
315.2016073803
 31
0.0
  0
LINE
  5
3B5
330
1F
100
AcDbEntity
  8
0
  6
Continuous
 62
     7
370
    25
100
AcDbLine
 10
56.63988893
 20
315.2016073803
 30
0.0
 11
58.63988893
 21
315.2016073803
 31
0.0
  0
LINE
  5
3B6
330
1F
100
AcDbEntity
  8
0
  6
Continuous
 62
     7
370
    25
100
AcDbLine
 10
58.63988893
 20
307.4516073803
 30
0.0
 11
58.63988893
 21
315.2016073803
 31
0.0
  0
ARC
  5
3B7
330
1F
100
AcDbEntity
  8
0
  6
Continuous
 62
     7
370
    25
100
AcDbCircle
 10
60.63988893
 20
307.4516073803
 30
0.0
 40
2.0
100
AcDbArc
 50
180.0
 51
270.0
  0
LINE
  5
3B8
330
1F
100
AcDbEntity
  8
0
  6
Continuous
 62
     7
370
    25
100
AcDbLine
 10
60.63988893
 20
305.4516073803
 30
0.0
 11
80.13988893
 21
305.4516073803
 31
0.0
  0
ARC
  5
3B9
330
1F
100
AcDbEntity
  8
0
  6
Continuous
 62
     7
370
    25
100
AcDbCircle
 10
80.13988893
 20
307.4516073803
 30
0.0
 40
2.0
100
AcDbArc
 50
270.0
 51
0.0
  0
LINE
  5
3BA
330
1F
100
AcDbEntity
  8
0
  6
Continuous
 62
     7
370
    25
100
AcDbLine
 10
82.13988893
 20
315.2016073803
 30
0.0
 11
82.13988893
 21
307.4516073803
 31
0.0
  0
LINE
  5
3BB
330
1F
100
AcDbEntity
  8
0
  6
Continuous
 62
     7
370
    25
100
AcDbLine
 10
82.13988893
 20
315.2016073803
 30
0.0
 11
84.13988893
 21
315.2016073803
 31
0.0
  0
LINE
  5
3BC
330
1F
100
AcDbEntity
  8
0
  6
Continuous
 62
     7
370
    25
100
AcDbLine
 10
84.13988893
 20
315.2016073803
 30
0.0
 11
87.13988893
 21
312.2016073803
 31
0.0
  0
LINE
  5
3BD
330
1F
100
AcDbEntity
  8
0
  6
Continuous
 62
     7
370
    25
100
AcDbLine
 10
87.13988893
 20
312.2016073803
 30
0.0
 11
87.13988893
 21
305.4516073803
 31
0.0
  0
LINE
  5
3BE
330
1F
100
AcDbEntity
  8
0
  6
Continuous
 62
     7
370
    25
100
AcDbLine
 10
87.13988893
 20
305.4516073803
 30
0.0
 11
91.870383012
 21
305.4516073803
 31
0.0
  0
LINE
  5
3BF
330
1F
100
AcDbEntity
  8
0
  6
Continuous
 62
     7
370
    25
100
AcDbLine
 10
87.1410568298
 20
250.9516073803
 30
0.0
 11
87.1410568298
 21
295.9516073803
 31
0.0
  0
LINE
  5
3C0
330
1F
100
AcDbEntity
  8
0
  6
Continuous
 62
     7
370
    25
100
AcDbLine
 10
87.1410568298
 20
295.9516073803
 30
0.0
 11
53.6387210302
 21
295.9516073803
 31
0.0
  0
LINE
  5
3C1
330
1F
100
AcDbEntity
  8
0
  6
Continuous
 62
     7
370
    25
100
AcDbLine
 10
53.6387210302
 20
295.9516073803
 30
0.0
 11
53.6387210302
 21
250.9516073803
 31
0.0
  0
LINE
  5
3C2
330
1F
100
AcDbEntity
  8
0
  6
Continuous
 62
     7
370
    25
100
AcDbLine
 10
53.6387210302
 20
250.9516073803
 30
0.0
 11
49.6957895852
 21
250.9516073803
 31
0.0
  0
LINE
  5
3C3
330
1F
100
AcDbEntity
  8
0
  6
Continuous
 62
     7
370
    25
100
AcDbLine
 10
91.0839882748
 20
250.9516073803
 30
0.0
 11
87.1410568298
 21
250.9516073803
 31
0.0
  0
LINE
  5
3C4
330
1F
100
AcDbEntity
  8
0
  6
Continuous
 62
     7
370
    25
100
AcDbLine
 10
53.6387210302
 20
250.9516073803
 30
0.0
 11
87.1410568298
 21
250.9516073803
 31
0.0
  0
LINE
  5
3C5
330
1F
100
AcDbEntity
  8
0
  6
Continuous
 62
     7
370
    25
100
AcDbLine
 10
87.13988893
 20
360.9516073803
 30
0.0
 11
87.13988893
 21
354.7016073803
 31
0.0
  0
LINE
  5
3C6
330
1F
100
AcDbEntity
  8
0
  6
Continuous
 62
     7
370
    25
100
AcDbLine
 10
87.13988893
 20
354.7016073803
 30
0.0
 11
84.13988893
 21
351.7016073803
 31
0.0
  0
LINE
  5
3C7
330
1F
100
AcDbEntity
  8
0
  6
Continuous
 62
     7
370
    25
100
AcDbLine
 10
84.13988893
 20
351.7016073803
 30
0.0
 11
82.13988893
 21
351.7016073803
 31
0.0
  0
LINE
  5
3C8
330
1F
100
AcDbEntity
  8
0
  6
Continuous
 62
     7
370
    25
100
AcDbLine
 10
82.13988893
 20
358.9516073803
 30
0.0
 11
82.13988893
 21
351.7016073803
 31
0.0
  0
ARC
  5
3C9
330
1F
100
AcDbEntity
  8
0
  6
Continuous
 62
     7
370
    25
100
AcDbCircle
 10
80.13988893
 20
358.9516073803
 30
0.0
 40
2.0
100
AcDbArc
 50
0.0
 51
90.0
  0
LINE
  5
3CA
330
1F
100
AcDbEntity
  8
0
  6
Continuous
 62
     7
370
    25
100
AcDbLine
 10
80.13988893
 20
360.9516073803
 30
0.0
 11
76.13988893
 21
360.9516073803
 31
0.0
  0
LINE
  5
3CB
330
1F
100
AcDbEntity
  8
0
  6
Continuous
 62
     7
370
    25
100
AcDbLine
 10
76.13988893
 20
366.4516073803
 30
0.0
 11
76.13988893
 21
360.9516073803
 31
0.0
  0
LINE
  5
3CC
330
1F
100
AcDbEntity
  8
0
  6
Continuous
 62
     7
370
    25
100
AcDbLine
 10
91.7581276503
 20
366.4516073803
 30
0.0
 11
76.13988893
 21
366.4516073803
 31
0.0
  0
LINE
  5
3CD
330
1F
100
AcDbEntity
  8
0
  6
Continuous
 62
     7
370
    25
100
AcDbLine
 10
91.7581276503
 20
360.9516073803
 30
0.0
 11
87.13988893
 21
360.9516073803
 31
0.0
  0
LINE
  5
3CE
330
1F
100
AcDbEntity
  8
0
  6
Continuous
 62
     7
370
    25
100
AcDbLine
 10
84.13988893
 20
345.2016073803
 30
0.0
 11
87.13988893
 21
342.2016073803
 31
0.0
  0
LINE
  5
3CF
330
1F
100
AcDbEntity
  8
0
  6
Continuous
 62
     7
370
    25
100
AcDbLine
 10
87.13988893
 20
324.7016073803
 30
0.0
 11
84.13988893
 21
321.7016073803
 31
0.0
  0
LINE
  5
3D0
330
1F
100
AcDbEntity
  8
0
  6
Continuous
 62
     7
370
    25
100
AcDbLine
 10
84.13988893
 20
321.7016073803
 30
0.0
 11
82.13988893
 21
321.7016073803
 31
0.0
  0
LINE
  5
3D1
330
1F
100
AcDbEntity
  8
0
  6
Continuous
 62
     7
370
    25
100
AcDbLine
 10
82.13988893
 20
345.2016073803
 30
0.0
 11
82.13988893
 21
321.7016073803
 31
0.0
  0
LINE
  5
3D2
330
1F
100
AcDbEntity
  8
0
  6
Continuous
 62
     7
370
    25
100
AcDbLine
 10
82.13988893
 20
345.2016073803
 30
0.0
 11
84.13988893
 21
345.2016073803
 31
0.0
  0
LINE
  5
3D3
330
1F
100
AcDbEntity
  8
0
  6
Continuous
 62
     7
370
    25
100
AcDbLine
 10
87.13988893
 20
342.2016073803
 30
0.0
 11
87.13988893
 21
324.7016073803
 31
0.0
  0
LINE
  5
3D4
330
1F
100
AcDbEntity
  8
0
  6
Continuous
 62
     7
370
    25
100
AcDbLine
 10
82.13988893
 20
315.2016073803
 30
0.0
 11
82.13988893
 21
321.7016073803
 31
0.0
  0
LINE
  5
3D5
330
1F
100
AcDbEntity
  8
0
  6
Continuous
 62
     7
370
    25
100
AcDbLine
 10
84.13988893
 20
315.2016073803
 30
0.0
 11
84.13988893
 21
321.7016073803
 31
0.0
  0
LINE
  5
3D6
330
1F
100
AcDbEntity
  8
0
  6
Continuous
 62
     7
370
    25
100
AcDbLine
 10
84.13988893
 20
345.2016073803
 30
0.0
 11
84.13988893
 21
351.7016073803
 31
0.0
  0
LINE
  5
3D7
330
1F
100
AcDbEntity
  8
0
  6
Continuous
 62
     7
370
    25
100
AcDbLine
 10
82.13988893
 20
345.2016073803
 30
0.0
 11
82.13988893
 21
351.7016073803
 31
0.0
  0
LINE
  5
3D8
330
1F
100
AcDbEntity
  8
0
  6
Continuous
 62
     7
370
    25
100
AcDbLine
 10
87.13988893
 20
354.7016073803
 30
0.0
 11
87.13988893
 21
342.2016073803
 31
0.0
  0
LINE
  5
3D9
330
1F
100
AcDbEntity
  8
0
  6
Continuous
 62
     7
370
    25
100
AcDbLine
 10
87.13988893
 20
324.7016073803
 30
0.0
 11
87.13988893
 21
312.2016073803
 31
0.0
  0
LINE
  5
3DA
330
1F
100
AcDbEntity
  8
0
  6
Continuous
 62
     7
370
    25
100
AcDbLine
 10
64.63988893
 20
360.9516073803
 30
0.0
 11
64.63988893
 21
366.4516073803
 31
0.0
  0
LINE
  5
3DB
330
1F
100
AcDbEntity
  8
0
  6
Continuous
 62
     7
370
    25
100
AcDbLine
 10
64.63988893
 20
360.9516073803
 30
0.0
 11
60.63988893
 21
360.9516073803
 31
0.0
  0
ARC
  5
3DC
330
1F
100
AcDbEntity
  8
0
  6
Continuous
 62
     7
370
    25
100
AcDbCircle
 10
60.63988893
 20
358.9516073803
 30
0.0
 40
2.0
100
AcDbArc
 50
90.0
 51
180.0
  0
LINE
  5
3DD
330
1F
100
AcDbEntity
  8
0
  6
Continuous
 62
     7
370
    25
100
AcDbLine
 10
58.63988893
 20
351.7016073803
 30
0.0
 11
58.63988893
 21
358.9516073803
 31
0.0
  0
LINE
  5
3DE
330
1F
100
AcDbEntity
  8
0
  6
Continuous
 62
     7
370
    25
100
AcDbLine
 10
58.63988893
 20
351.7016073803
 30
0.0
 11
56.63988893
 21
351.7016073803
 31
0.0
  0
LINE
  5
3DF
330
1F
100
AcDbEntity
  8
0
  6
Continuous
 62
     7
370
    25
100
AcDbLine
 10
56.63988893
 20
351.7016073803
 30
0.0
 11
53.63988893
 21
354.7016073803
 31
0.0
  0
LINE
  5
3E0
330
1F
100
AcDbEntity
  8
0
  6
Continuous
 62
     7
370
    25
100
AcDbLine
 10
53.63988893
 20
354.7016073803
 30
0.0
 11
53.63988893
 21
360.9516073803
 31
0.0
  0
LINE
  5
3E1
330
1F
100
AcDbEntity
  8
0
  6
Continuous
 62
     7
370
    25
100
AcDbLine
 10
64.63988893
 20
366.4516073803
 30
0.0
 11
49.0216502097
 21
366.4516073803
 31
0.0
  0
LINE
  5
3E2
330
1F
100
AcDbEntity
  8
0
  6
Continuous
 62
     7
370
    25
100
AcDbLine
 10
53.63988893
 20
360.9516073803
 30
0.0
 11
49.0216502097
 21
360.9516073803
 31
0.0
  0
LINE
  5
3E3
330
1F
100
AcDbEntity
  8
0
  6
Continuous
 62
     7
370
    25
100
AcDbLine
 10
53.63988893
 20
342.2016073803
 30
0.0
 11
56.63988893
 21
345.2016073803
 31
0.0
  0
LINE
  5
3E4
330
1F
100
AcDbEntity
  8
0
  6
Continuous
 62
     7
370
    25
100
AcDbLine
 10
56.63988893
 20
351.7016073803
 30
0.0
 11
56.63988893
 21
345.2016073803
 31
0.0
  0
LINE
  5
3E5
330
1F
100
AcDbEntity
  8
0
  6
Continuous
 62
     7
370
    25
100
AcDbLine
 10
53.63988893
 20
342.2016073803
 30
0.0
 11
53.63988893
 21
354.7016073803
 31
0.0
  0
LINE
  5
3E6
330
1F
100
AcDbEntity
  8
0
  6
Continuous
 62
     7
370
    25
100
AcDbLine
 10
56.63988893
 20
321.7016073803
 30
0.0
 11
53.63988893
 21
324.7016073803
 31
0.0
  0
LINE
  5
3E7
330
1F
100
AcDbEntity
  8
0
  6
Continuous
 62
     7
370
    25
100
AcDbLine
 10
56.63988893
 20
345.2016073803
 30
0.0
 11
58.63988893
 21
345.2016073803
 31
0.0
  0
LINE
  5
3E8
330
1F
100
AcDbEntity
  8
0
  6
Continuous
 62
     7
370
    25
100
AcDbLine
 10
58.63988893
 20
321.7016073803
 30
0.0
 11
58.63988893
 21
345.2016073803
 31
0.0
  0
LINE
  5
3E9
330
1F
100
AcDbEntity
  8
0
  6
Continuous
 62
     7
370
    25
100
AcDbLine
 10
58.63988893
 20
321.7016073803
 30
0.0
 11
56.63988893
 21
321.7016073803
 31
0.0
  0
LINE
  5
3EA
330
1F
100
AcDbEntity
  8
0
  6
Continuous
 62
     7
370
    25
100
AcDbLine
 10
53.63988893
 20
324.7016073803
 30
0.0
 11
53.63988893
 21
342.2016073803
 31
0.0
  0
LINE
  5
3EB
330
1F
100
AcDbEntity
  8
0
  6
Continuous
 62
     7
370
    25
100
AcDbLine
 10
58.63988893
 20
351.7016073803
 30
0.0
 11
58.63988893
 21
345.2016073803
 31
0.0
  0
LINE
  5
3EC
330
1F
100
AcDbEntity
  8
0
  6
Continuous
 62
     7
370
    25
100
AcDbLine
 10
58.63988893
 20
321.7016073803
 30
0.0
 11
58.63988893
 21
315.2016073803
 31
0.0
  0
LINE
  5
3ED
330
1F
100
AcDbEntity
  8
0
  6
Continuous
 62
     7
370
    25
100
AcDbLine
 10
56.63988893
 20
321.7016073803
 30
0.0
 11
56.63988893
 21
315.2016073803
 31
0.0
  0
LINE
  5
3EE
330
1F
100
AcDbEntity
  8
0
  6
Continuous
 62
     7
370
    25
100
AcDbLine
 10
53.63988893
 20
312.2016073803
 30
0.0
 11
53.63988893
 21
324.7016073803
 31
0.0
  0
LINE
  5
3EF
330
1F
100
AcDbEntity
  8
0
  6
Continuous
 62
     7
370
    25
100
AcDbLine
 10
60.63988893
 20
358.9516073803
 30
0.0
 11
58.63988893
 21
358.9516073803
 31
0.0
  0
LINE
  5
3F0
330
1F
100
AcDbEntity
  8
0
  6
Continuous
 62
     7
370
    25
100
AcDbLine
 10
60.63988893
 20
358.9516073803
 30
0.0
 11
60.63988893
 21
360.9516073803
 31
0.0
  0
LINE
  5
3F1
330
1F
100
AcDbEntity
  8
0
  6
Continuous
 62
     7
370
    25
100
AcDbLine
 10
60.63988893
 20
358.9516073803
 30
0.0
 11
60.63988893
 21
307.4516073803
 31
0.0
  0
LINE
  5
3F2
330
1F
100
AcDbEntity
  8
0
  6
Continuous
 62
     7
370
    25
100
AcDbLine
 10
60.63988893
 20
307.4516073803
 30
0.0
 11
58.63988893
 21
307.4516073803
 31
0.0
  0
LINE
  5
3F3
330
1F
100
AcDbEntity
  8
0
  6
Continuous
 62
     7
370
    25
100
AcDbLine
 10
60.63988893
 20
307.4516073803
 30
0.0
 11
60.63988893
 21
305.4516073803
 31
0.0
  0
LINE
  5
3F4
330
1F
100
AcDbEntity
  8
0
  6
Continuous
 62
     7
370
    25
100
AcDbLine
 10
60.63988893
 20
307.4516073803
 30
0.0
 11
80.13988893
 21
307.4516073803
 31
0.0
  0
LINE
  5
3F5
330
1F
100
AcDbEntity
  8
0
  6
Continuous
 62
     7
370
    25
100
AcDbLine
 10
80.13988893
 20
307.4516073803
 30
0.0
 11
80.13988893
 21
305.4516073803
 31
0.0
  0
LINE
  5
3F6
330
1F
100
AcDbEntity
  8
0
  6
Continuous
 62
     7
370
    25
100
AcDbLine
 10
64.63988893
 20
358.9516073803
 30
0.0
 11
60.63988893
 21
358.9516073803
 31
0.0
  0
LINE
  5
3F7
330
1F
100
AcDbEntity
  8
0
  6
Continuous
 62
     7
370
    25
100
AcDbLine
 10
64.63988893
 20
360.9516073803
 30
0.0
 11
64.63988893
 21
358.9516073803
 31
0.0
  0
LINE
  5
3F8
330
1F
100
AcDbEntity
  8
0
  6
Continuous
 62
     7
370
    25
100
AcDbLine
 10
80.13988893
 20
360.9516073803
 30
0.0
 11
80.13988893
 21
358.9516073803
 31
0.0
  0
LINE
  5
3F9
330
1F
100
AcDbEntity
  8
0
  6
Continuous
 62
     7
370
    25
100
AcDbLine
 10
80.13988893
 20
358.9516073803
 30
0.0
 11
76.13988893
 21
358.9516073803
 31
0.0
  0
LINE
  5
3FA
330
1F
100
AcDbEntity
  8
0
  6
Continuous
 62
     7
370
    25
100
AcDbLine
 10
76.13988893
 20
358.9516073803
 30
0.0
 11
76.13988893
 21
360.9516073803
 31
0.0
  0
LINE
  5
3FB
330
1F
100
AcDbEntity
  8
0
  6
Continuous
 62
     7
370
    25
100
AcDbLine
 10
80.13988893
 20
307.4516073803
 30
0.0
 11
80.13988893
 21
358.9516073803
 31
0.0
  0
LINE
  5
3FC
330
1F
100
AcDbEntity
  8
0
  6
Continuous
 62
     7
370
    25
100
AcDbLine
 10
82.13988893
 20
358.9516073803
 30
0.0
 11
80.13988893
 21
358.9516073803
 31
0.0
  0
LINE
  5
3FD
330
1F
100
AcDbEntity
  8
0
  6
Continuous
 62
     7
370
    25
100
AcDbLine
 10
80.13988893
 20
307.4516073803
 30
0.0
 11
82.13988893
 21
307.4516073803
 31
0.0
  0
ARC
  5
3FE
330
1F
100
AcDbEntity
  8
0
  6
Continuous
 62
     7
370
    25
100
AcDbCircle
 10
66.63988893
 20
325.9516073803
 30
0.0
 40
2.0
100
AcDbArc
 50
180.0
 51
270.0
  0
LINE
  5
3FF
330
1F
100
AcDbEntity
  8
0
  6
Continuous
 62
     7
370
    25
100
AcDbLine
 10
66.63988893
 20
323.9516073803
 30
0.0
 11
74.13988893
 21
323.9516073803
 31
0.0
  0
ARC
  5
400
330
1F
100
AcDbEntity
  8
0
  6
Continuous
 62
     7
370
    25
100
AcDbCircle
 10
74.13988893
 20
325.9516073803
 30
0.0
 40
2.0
100
AcDbArc
 50
270.0
 51
0.0
  0
LINE
  5
401
330
1F
100
AcDbEntity
  8
0
  6
Continuous
 62
     7
370
    25
100
AcDbLine
 10
64.63988893
 20
358.9516073803
 30
0.0
 11
64.63988893
 21
325.9516073803
 31
0.0
  0
LINE
  5
402
330
1F
100
AcDbEntity
  8
0
  6
Continuous
 62
     7
370
    25
100
AcDbLine
 10
76.13988893
 20
325.9516073803
 30
0.0
 11
76.13988893
 21
358.9516073803
 31
0.0
  0
LINE
  5
403
330
1F
100
AcDbEntity
  8
0
  6
Continuous
 62
     7
370
    25
100
AcDbLine
 10
66.63988893
 20
366.4516073803
 30
0.0
 11
66.63988893
 21
325.9516073803
 31
0.0
  0
LINE
  5
404
330
1F
100
AcDbEntity
  8
0
  6
Continuous
 62
     7
370
    25
100
AcDbLine
 10
66.63988893
 20
325.9516073803
 30
0.0
 11
64.63988893
 21
325.9516073803
 31
0.0
  0
LINE
  5
405
330
1F
100
AcDbEntity
  8
0
  6
Continuous
 62
     7
370
    25
100
AcDbLine
 10
64.63988893
 20
366.4516073803
 30
0.0
 11
66.63988893
 21
366.4516073803
 31
0.0
  0
LINE
  5
406
330
1F
100
AcDbEntity
  8
0
  6
Continuous
 62
     7
370
    25
100
AcDbLine
 10
66.63988893
 20
325.9516073803
 30
0.0
 11
66.63988893
 21
323.9516073803
 31
0.0
  0
LINE
  5
407
330
1F
100
AcDbEntity
  8
0
  6
Continuous
 62
     7
370
    25
100
AcDbLine
 10
66.63988893
 20
325.9516073803
 30
0.0
 11
74.13988893
 21
325.9516073803
 31
0.0
  0
LINE
  5
408
330
1F
100
AcDbEntity
  8
0
  6
Continuous
 62
     7
370
    25
100
AcDbLine
 10
74.13988893
 20
323.9516073803
 30
0.0
 11
74.13988893
 21
325.9516073803
 31
0.0
  0
LINE
  5
409
330
1F
100
AcDbEntity
  8
0
  6
Continuous
 62
     7
370
    25
100
AcDbLine
 10
76.13988893
 20
325.9516073803
 30
0.0
 11
74.13988893
 21
325.9516073803
 31
0.0
  0
LINE
  5
40A
330
1F
100
AcDbEntity
  8
0
  6
Continuous
 62
     7
370
    25
100
AcDbLine
 10
74.13988893
 20
325.9516073803
 30
0.0
 11
74.13988893
 21
366.4516073803
 31
0.0
  0
LINE
  5
40B
330
1F
100
AcDbEntity
  8
0
  6
Continuous
 62
     7
370
    25
100
AcDbLine
 10
74.13988893
 20
366.4516073803
 30
0.0
 11
76.13988893
 21
366.4516073803
 31
0.0
  0
LINE
  5
40C
330
1F
100
AcDbEntity
  8
0
  6
Continuous
 62
     7
370
    25
100
AcDbLine
 10
74.13988893
 20
366.4516073803
 30
0.0
 11
66.63988893
 21
366.4516073803
 31
0.0
  0
LINE
  5
40D
330
1F
100
AcDbEntity
  8
0
  6
Continuous
 62
     8
370
    25
100
AcDbLine
 10
46.7974828211
 20
364.4516073803
 30
0.0
 11
44.38988893
 21
364.4516073803
 31
0.0
  0
LINE
  5
40E
330
1F
100
AcDbEntity
  8
0
  6
Continuous
 62
     8
370
    25
100
AcDbLine
 10
96.38988893
 20
364.4516073803
 30
0.0
 11
93.9822950389
 21
364.4516073803
 31
0.0
  0
LINE
  5
40F
330
1F
100
AcDbEntity
  8
0
  6
Continuous
 62
     8
370
    25
100
AcDbLine
 10
93.9822950389
 20
362.9516073803
 30
0.0
 11
96.38988893
 21
362.9516073803
 31
0.0
  0
LINE
  5
410
330
1F
100
AcDbEntity
  8
0
  6
Continuous
 62
     8
370
    25
100
AcDbLine
 10
44.38988893
 20
362.9516073803
 30
0.0
 11
46.7974828211
 21
362.9516073803
 31
0.0
  0
LINE
  5
411
330
1F
100
AcDbEntity
  8
0
  6
Continuous
 62
     8
370
    25
100
AcDbLine
 10
91.870383012
 20
290.9516073802
 30
0.0
 11
94.48988893
 21
290.9516073802
 31
0.0
  0
LINE
  5
412
330
1F
100
AcDbEntity
  8
0
  6
Continuous
 62
     8
370
    25
100
AcDbLine
 10
46.28988893
 20
290.9516073802
 30
0.0
 11
48.909394848
 21
290.9516073802
 31
0.0
  0
HATCH
  5
413
330
1F
100
AcDbEntity
  8
0
  6
Continuous
 62
     7
370
    18
100
AcDbHatch
 10
0.0
 20
0.0
 30
0.0
210
0.0
220
0.0
230
1.0
  2
ANSI31
 70
     0
 71
     0
 91
        1
 92
        0
 93
       12
 72
     4
 94
        3
 73
     1
 74
     0
 95
       23
 96
       19
 40
0.0029990773574144
 40
0.0029990773574144
 40
0.0029990773574144
 40
0.0029990773574144
 40
0.0036949095527456
 40
0.0036949095527456
 40
0.0036949095527456
 40
0.0044059049224216
 40
0.0044059049224216
 40
0.0044059049224216
 40
0.0050588444488747
 40
0.0050588444488747
 40
0.0050588444488747
 40
0.0056787464942501
 40
0.0056787464942501
 40
0.0056787464942501
 40
0.0062989162034458
 40
0.0062989162034458
 40
0.0062989162034458
 40
0.0063348305962782
 40
0.0063348305962782
 40
0.0063348305962782
 40
0.0063348305962782
 10
91.75812765031907
 20
360.951607380256
 42
1.0
 10
91.98800470171163
 20
360.951607380256
 42
1.0
 10
92.22018244024544
 20
360.9835131048927
 42
1.0
 10
92.44113941468477
 20
361.0469281993384
 42
1.0
 10
92.66712608351327
 20
361.1117868261529
 42
1.0
 10
92.88623322304679
 20
361.2112340172818
 42
1.0
 10
93.08213577024117
 20
361.3412294324441
 42
1.0
 10
93.26213605331337
 20
361.4606725528242
 42
1.0
 10
93.42646719557315
 20
361.6087029231269
 42
1.0
 10
93.5616259426599
 20
361.7772225777615
 42
1.0
 10
93.68992849708651
 20
361.9371937422384
 42
1.0
 10
93.79477417422571
 20
362.1194793126952
 42
1.0
 10
93.8663615051341
 20
362.311644796042
 42
1.0
 10
93.93790982367392
 20
362.50370555652
 42
1.0
 10
93.97786471638655
 20
362.7106350388696
 42
1.0
 10
93.98193679520006
 20
362.915549449723
 42
1.0
 10
93.9821756087228
 20
362.9275669804631
 42
1.0
 10
93.98229503892713
 20
362.9395874768875
 42
1.0
 10
93.98229503892713
 20
362.951607380256
 42
1.0
 72
     1
 10
93.98229503892713
 20
362.951607380256
 11
93.98229503892715
 21
364.451607380256
 72
     4
 94
        3
 73
     1
 74
     0
 95
       20
 96
       16
 40
0.007811898983392
 40
0.007811898983392
 40
0.007811898983392
 40
0.007811898983392
 40
0.0080463418387428
 40
0.0080463418387428
 40
0.0080463418387428
 40
0.0087380127788886
 40
0.0087380127788886
 40
0.0087380127788886
 40
0.0095135086376728
 40
0.0095135086376728
 40
0.0095135086376728
 40
0.0103600200844962
 40
0.0103600200844962
 40
0.0103600200844962
 40
0.0111752626612771
 40
0.0111752626612771
 40
0.0111752626612771
 40
0.0111752626612771
 10
93.98229503892713
 20
364.451607380256
 42
1.0
 10
93.98229503892713
 20
364.5290992584509
 42
1.0
 10
93.9773081051312
 20
364.6067485417246
 42
1.0
 10
93.96741494512776
 20
364.6836063101759
 42
1.0
 10
93.93846523165745
 20
364.9085102209442
 42
1.0
 10
93.86552116145218
 20
365.1312592145006
 42
1.0
 10
93.75773665203069
 20
365.3307644889113
 42
1.0
 10
93.63713803305637
 20
365.5539882220912
 42
1.0
 10
93.46893871232889
 20
365.7559289701463
 42
1.0
 10
93.2742942064803
 20
365.9186753319988
 42
1.0
 10
93.06191155546287
 20
366.0962529297994
 42
1.0
 10
92.81087350947428
 20
366.2338820131043
 42
1.0
 10
92.54866071712986
 20
366.3226775379059
 42
1.0
 10
92.2957747081857
 20
366.4083146484314
 42
1.0
 10
92.02512024987729
 20
366.451607380256
 42
1.0
 10
91.75812765031907
 20
366.451607380256
 42
1.0
 72
     1
 10
91.75812765031907
 20
366.451607380256
 11
76.13988893
 21
366.451607380256
 72
     1
 10
76.13988893
 20
366.451607380256
 11
76.13988893
 21
360.951607380256
 72
     1
 10
76.13988893
 20
360.951607380256
 11
80.13988893
 21
360.951607380256
 72
     2
 10
80.13988893
 20
358.951607380256
 40
2.0
 50
270.0000000000008
 51
360.0000000000008
 73
     0
 72
     1
 10
82.13988893
 20
358.951607380256
 11
82.13988893
 21
351.701607380256
 72
     1
 10
82.13988893
 20
351.701607380256
 11
84.13988893
 21
351.701607380256
 72
     1
 10
84.13988893
 20
351.701607380256
 11
87.13988893000001
 21
354.701607380256
 72
     1
 10
87.13988893000001
 20
354.701607380256
 11
87.13988893000001
 21
360.951607380256
 72
     1
 10
87.13988893000001
 20
360.951607380256
 11
91.75812765031907
 21
360.951607380256
 97
        0
 75
     0
 76
     1
 52
0.0
 41
1.0
 77
     0
 78
     1
 53
45.0
 43
0.0
 44
0.0
 45
-2.245064030267288
 46
2.245064030267288
 79
     0
 98
        1
 10
0.0
 20
0.0
  0
HATCH
  5
414
330
1F
100
AcDbEntity
  8
0
  6
Continuous
 62
     7
370
    18
100
AcDbHatch
 10
0.0
 20
0.0
 30
0.0
210
0.0
220
0.0
230
1.0
  2
ANSI31
 70
     0
 71
     0
 91
        1
 92
        0
 93
       12
 72
     4
 94
        3
 73
     1
 74
     0
 95
       20
 96
       16
 40
0.012963027526392
 40
0.012963027526392
 40
0.012963027526392
 40
0.012963027526392
 40
0.0134383272834909
 40
0.0134383272834909
 40
0.0134383272834909
 40
0.0138494019565023
 40
0.0138494019565023
 40
0.0138494019565023
 40
0.0146164591534739
 40
0.0146164591534739
 40
0.0146164591534739
 40
0.0154557950539728
 40
0.0154557950539728
 40
0.0154557950539728
 40
0.0163051191069789
 40
0.0163051191069789
 40
0.0163051191069789
 40
0.0163051191069789
 10
46.79748282107258
 20
362.951607380256
 42
1.0
 10
46.79748282107258
 20
362.7946983781218
 42
1.0
 10
46.81822409255124
 20
362.6365217589189
 42
1.0
 10
46.85836507942329
 20
362.4848341321206
 42
1.0
 10
46.89341924633605
 20
362.3523689437251
 42
1.0
 10
46.94363143607855
 20
362.2231044374187
 42
1.0
 10
47.00669140184804
 20
362.101452222183
 42
1.0
 10
47.12287143241173
 20
361.8773233646463
 42
1.0
 10
47.28672324453576
 20
361.6735283343011
 42
1.0
 10
47.47757792062342
 20
361.5082829504079
 42
1.0
 10
47.6863122992383
 20
361.3275570010471
 42
1.0
 10
47.9343968013244
 20
361.1861182864881
 42
1.0
 10
48.19442768082529
 20
361.0932966764282
 42
1.0
 10
48.45790098099167
 20
360.9992462468168
 42
1.0
 10
48.74189377416826
 20
360.951607380256
 42
1.0
 10
49.02165020968072
 20
360.951607380256
 42
1.0
 72
     1
 10
49.02165020968073
 20
360.951607380256
 11
53.63988893000001
 21
360.951607380256
 72
     1
 10
53.63988893000001
 20
360.951607380256
 11
53.63988893000001
 21
354.701607380256
 72
     1
 10
53.63988893000001
 20
354.701607380256
 11
56.63988892999999
 21
351.701607380256
 72
     1
 10
56.63988892999999
 20
351.701607380256
 11
58.63988893000001
 21
351.701607380256
 72
     1
 10
58.63988893000001
 20
351.701607380256
 11
58.63988893000001
 21
358.951607380256
 72
     2
 10
60.63988893000001
 20
358.951607380256
 40
2.0
 50
180.0
 51
270.0000000000008
 73
     0
 72
     1
 10
60.63988893000001
 20
360.951607380256
 11
64.63988893
 21
360.951607380256
 72
     1
 10
64.63988893
 20
360.951607380256
 11
64.63988893
 21
366.451607380256
 72
     1
 10
64.63988893
 20
366.451607380256
 11
49.02165020968073
 21
366.451607380256
 72
     4
 94
        3
 73
     1
 74
     0
 95
       23
 96
       19
 40
0.0114287836398331
 40
0.0114287836398331
 40
0.0114287836398331
 40
0.0114287836398331
 40
0.0120122057344036
 40
0.0120122057344036
 40
0.0120122057344036
 40
0.0127479658259499
 40
0.0127479658259499
 40
0.0127479658259499
 40
0.0134872802871856
 40
0.0134872802871856
 40
0.0134872802871856
 40
0.0137480428133504
 40
0.0137480428133504
 40
0.0137480428133504
 40
0.0143654774732986
 40
0.0143654774732986
 40
0.0143654774732986
 40
0.0147803809332093
 40
0.0147803809332093
 40
0.0147803809332093
 40
0.0147803809332093
 10
49.02165020968071
 20
366.451607380256
 42
1.0
 10
48.82986871583955
 20
366.451607380256
 42
1.0
 10
48.63677119617278
 20
366.4295091884649
 42
1.0
 10
48.4501246309518
 20
366.3854274340628
 42
1.0
 10
48.21475415953541
 20
366.3298381801047
 42
1.0
 10
47.98482273580964
 20
366.2377289618574
 42
1.0
 10
47.77778451027311
 20
366.1127305733195
 42
1.0
 10
47.57013755200533
 20
365.9873646651594
 42
1.0
 10
47.38019494401443
 20
365.8252089259441
 42
1.0
 10
47.22710137066465
 20
365.6370700729506
 42
1.0
 10
47.17223993405361
 20
365.569650079206
 42
1.0
 10
47.12163821326338
 20
365.4985133659671
 42
1.0
 10
47.07611183274757
 20
365.4244689099918
 42
1.0
 10
46.96947690317791
 20
365.2510370390966
 42
1.0
 10
46.88941655257796
 20
365.0580082810716
 42
1.0
 10
46.84383585353069
 20
364.8595844369376
 42
1.0
 10
46.81319362514508
 20
364.7261913807496
 42
1.0
 10
46.79748282107266
 20
364.5884746648774
 42
1.0
 10
46.79748282107266
 20
364.451607380256
 42
1.0
 72
     1
 10
46.79748282107266
 20
364.451607380256
 11
46.79748282107266
 21
362.951607380256
 97
        0
 75
     0
 76
     1
 52
0.0
 41
1.0
 77
     0
 78
     1
 53
45.0
 43
0.0
 44
0.0
 45
-2.245064030267288
 46
2.245064030267288
 79
     0
 98
        1
 10
0.0
 20
0.0
  0
HATCH
  5
415
330
1F
100
AcDbEntity
  8
0
  6
Continuous
 62
     7
370
    18
100
AcDbHatch
 10
0.0
 20
0.0
 30
0.0
210
0.0
220
0.0
230
1.0
  2
ANSI31
 70
     0
 71
     0
 91
        1
 92
        0
 93
       22
 72
     1
 10
53.63872103016236
 20
250.951607380256
 11
53.63872103016236
 21
295.951607380256
 72
     1
 10
53.63872103016236
 20
295.951607380256
 11
87.14105682983744
 21
295.951607380256
 72
     1
 10
87.14105682983744
 20
295.951607380256
 11
87.14105682983744
 21
250.951607380256
 72
     1
 10
87.14105682983744
 20
250.951607380256
 11
91.08398827482911
 21
250.951607380256
 72
     4
 94
        3
 73
     1
 74
     0
 95
       11
 96
        7
 40
0.1293025989358637
 40
0.1293025989358637
 40
0.1293025989358637
 40
0.1293025989358637
 40
0.1642419909698536
 40
0.1642419909698536
 40
0.1642419909698536
 40
0.1693103269899381
 40
0.1693103269899381
 40
0.1693103269899381
 40
0.1693103269899381
 10
91.08398827482911
 20
250.951607380256
 42
1.0
 10
91.3138325381199
 20
262.5958035785899
 42
1.0
 10
91.5428431790512
 20
274.2400162562069
 42
1.0
 10
91.7710980544047
 20
285.884243718883
 42
1.0
 10
91.80420888841823
 20
287.5733646287227
 42
1.0
 10
91.83730380105361
 20
289.2624858507329
 42
1.0
 10
91.87038301203971
 20
290.951607380164
 42
1.0
 72
     1
 10
91.87038301203971
 20
290.951607380164
 11
91.87038301203974
 21
305.451607380256
 72
     1
 10
91.87038301203974
 20
305.451607380256
 11
87.13988893000003
 21
305.451607380256
 72
     1
 10
87.13988893000003
 20
305.451607380256
 11
87.13988893000001
 21
312.2016073802561
 72
     1
 10
87.13988893000001
 20
312.2016073802561
 11
84.13988893000001
 21
315.201607380256
 72
     1
 10
84.13988893000001
 20
315.201607380256
 11
82.13988893
 21
315.201607380256
 72
     1
 10
82.13988893
 20
315.201607380256
 11
82.13988893
 21
307.451607380256
 72
     2
 10
80.13988893
 20
307.451607380256
 40
2.0
 50
0.0
 51
90.0
 73
     0
 72
     1
 10
80.13988893
 20
305.451607380256
 11
60.63988893000001
 21
305.451607380256
 72
     2
 10
60.63988893000001
 20
307.451607380256
 40
2.0
 50
90.0
 51
180.0
 73
     0
 72
     1
 10
58.63988893000001
 20
307.451607380256
 11
58.63988893000001
 21
315.201607380256
 72
     1
 10
58.63988893000001
 20
315.201607380256
 11
56.63988892999998
 21
315.201607380256
 72
     1
 10
56.63988892999998
 20
315.201607380256
 11
53.63988893000001
 21
312.2016073802561
 72
     1
 10
53.63988893000001
 20
312.2016073802561
 11
53.63988893000001
 21
305.451607380256
 72
     1
 10
53.63988893000001
 20
305.451607380256
 11
48.90939484796009
 21
305.451607380256
 72
     1
 10
48.90939484796009
 20
305.451607380256
 11
48.90939484796008
 21
290.951607380164
 72
     4
 94
        3
 73
     1
 74
     0
 95
       11
 96
        7
 40
0.0421310193107628
 40
0.0421310193107628
 40
0.0421310193107628
 40
0.0421310193107628
 40
0.0471993555106305
 40
0.0471993555106305
 40
0.0471993555106305
 40
0.0821387487839847
 40
0.0821387487839847
 40
0.0821387487839847
 40
0.0821387487839847
 10
48.90939484796008
 20
290.951607380164
 42
1.0
 10
48.94247405894618
 20
289.2624858507329
 42
1.0
 10
48.97556897158156
 20
287.5733646287227
 42
1.0
 10
49.00867980559509
 20
285.884243718883
 42
1.0
 10
49.23693468094859
 20
274.2400162562069
 42
1.0
 10
49.46594532187991
 20
262.5958035785899
 42
1.0
 10
49.69578958517069
 20
250.951607380256
 42
1.0
 72
     1
 10
49.69578958517068
 20
250.951607380256
 11
53.63872103016236
 21
250.951607380256
 97
        0
 75
     0
 76
     1
 52
0.0
 41
1.0
 77
     0
 78
     1
 53
45.0
 43
0.0
 44
0.0
 45
-2.245064030267288
 46
2.245064030267288
 79
     0
 98
        1
 10
0.0
 20
0.0
  0
HATCH
  5
416
330
1F
100
AcDbEntity
  8
0
  6
Continuous
 62
     7
370
    18
100
AcDbHatch
 10
0.0
 20
0.0
 30
0.0
210
0.0
220
0.0
230
1.0
  2
ANSI31
 70
     0
 71
     0
 91
        1
 92
        0
 93
        6
 72
     1
 10
84.13988893
 20
345.201607380256
 11
82.13988893
 21
345.201607380256
 72
     1
 10
82.13988893
 20
345.201607380256
 11
82.13988893
 21
321.701607380256
 72
     1
 10
82.13988893
 20
321.701607380256
 11
84.13988893000001
 21
321.701607380256
 72
     1
 10
84.13988893000001
 20
321.701607380256
 11
87.13988893000001
 21
324.701607380256
 72
     1
 10
87.13988893000001
 20
324.701607380256
 11
87.13988893000001
 21
342.201607380256
 72
     1
 10
87.13988893000001
 20
342.201607380256
 11
84.13988893
 21
345.201607380256
 97
        0
 75
     0
 76
     1
 52
0.0
 41
1.0
 77
     0
 78
     1
 53
45.0
 43
0.0
 44
0.0
 45
-2.245064030267288
 46
2.245064030267288
 79
     0
 98
        1
 10
0.0
 20
0.0
  0
HATCH
  5
417
330
1F
100
AcDbEntity
  8
0
  6
Continuous
 62
     7
370
    18
100
AcDbHatch
 10
0.0
 20
0.0
 30
0.0
210
0.0
220
0.0
230
1.0
  2
ANSI31
 70
     0
 71
     0
 91
        1
 92
        0
 93
        6
 72
     1
 10
56.63988892999998
 20
321.701607380256
 11
58.63988893000001
 21
321.701607380256
 72
     1
 10
58.63988893000001
 20
321.701607380256
 11
58.63988893000001
 21
345.201607380256
 72
     1
 10
58.63988893000001
 20
345.201607380256
 11
56.63988892999999
 21
345.201607380256
 72
     1
 10
56.63988892999999
 20
345.201607380256
 11
53.63988893000001
 21
342.201607380256
 72
     1
 10
53.63988893000001
 20
342.201607380256
 11
53.63988893000001
 21
324.701607380256
 72
     1
 10
53.63988893000001
 20
324.701607380256
 11
56.63988892999998
 21
321.701607380256
 97
        0
 75
     0
 76
     1
 52
0.0
 41
1.0
 77
     0
 78
     1
 53
45.0
 43
0.0
 44
0.0
 45
-2.245064030267288
 46
2.245064030267288
 79
     0
 98
        1
 10
0.0
 20
0.0
  0
DIMENSION
  5
418
330
1F
100
AcDbEntity
  8
0
  6
Continuous
 62
     7
370
    18
100
AcDbDimension
  2
_D_19
 10
56.63988893
 20
382.6071240914
 30
0.0
 11
41.2180015046
 21
382.6071240914
 31
0.0
 70
   160
  1
<>
 71
     2
 42
-1.0
  3
SLDDIMSTYLE2
100
AcDbAlignedDimension
 13
53.63988893
 23
354.7016073803
 33
0.0
 14
56.63988893
 24
351.7016073803
 34
0.0
100
AcDbRotatedDimension
  0
DIMENSION
  5
424
330
1F
100
AcDbEntity
  8
0
  6
Continuous
 62
     7
370
    18
100
AcDbDimension
  2
_D_20
 10
56.63988893
 20
351.7016073803
 30
0.0
 11
31.4863053229
 21
363.9731526439
 31
0.0
 70
   162
  1
<>
 71
     1
 42
-1.0
  3
SLDDIMSTYLE7
100
AcDb2LineAngularDimension
 13
58.63988893
 23
351.7016073803
 33
0.0
 14
56.63988893
 24
351.7016073803
 34
0.0
 15
53.63988893
 25
354.7016073803
 35
0.0
 16
30.7829188677
 26
362.4119150619
 36
0.0
  0
DIMENSION
  5
42F
330
1F
100
AcDbEntity
  8
0
  6
Continuous
 62
     7
370
    18
100
AcDbDimension
  2
_D_21
 10
115.6545591911
 20
295.9516073803
 30
0.0
 11
115.6545591911
 21
278.4376420929
 31
0.0
 70
   160
  1
<>
 71
     2
 42
-1.0
  3
SLDDIMSTYLE0
100
AcDbAlignedDimension
 13
90.38988893
 23
250.9516073803
 33
0.0
 14
87.1410568298
 24
295.9516073803
 34
0.0
 50
90.0
100
AcDbRotatedDimension
  0
MTEXT
  5
439
330
1F
100
AcDbEntity
  8
0
  6
Continuous
 62
     7
370
     0
100
AcDbMText
 10
70.0654097524
 20
237.6220982679
 30
0.0
 40
3.5
 41
0.0
 71
     2
 72
     1
  1
COUPE A-A
  7
SLDTEXTSTYLE0
 73
     1
 44
1.0
  0
LINE
  5
43A
330
1F
100
AcDbEntity
  8
0
  6
CENTERX2
 62
     7
370
    18
100
AcDbLine
 10
70.38988893
 20
381.4450705985
 30
0.0
 11
70.38988893
 21
240.2574730423
 31
0.0
  0
ARC
  5
43B
330
1F
100
AcDbEntity
  8
0
  6
Continuous
 62
     7
370
    25
100
AcDbCircle
 10
227.0116473166
 20
27.1978199502
 30
0.0
 40
2.0
100
AcDbArc
 50
0.0
 51
90.0
  0
ARC
  5
43C
330
1F
100
AcDbEntity
  8
0
  6
Continuous
 62
     7
370
    25
100
AcDbCircle
 10
227.0116473166
 20
25.6978199502
 30
0.0
 40
2.0
100
AcDbArc
 50
270.0
 51
0.0
  0
LINE
  5
43D
330
1F
100
AcDbEntity
  8
0
  6
Continuous
 62
     7
370
    25
100
AcDbLine
 10
229.0116473166
 20
27.1978199502
 30
0.0
 11
229.0116473166
 21
25.6978199502
 31
0.0
  0
LINE
  5
43E
330
1F
100
AcDbEntity
  8
0
  6
Continuous
 62
     7
370
    25
100
AcDbLine
 10
226.1116473166
 20
49.1978199502
 30
0.0
 11
227.1116473166
 21
50.1978199502
 31
0.0
  0
LINE
  5
43F
330
1F
100
AcDbEntity
  8
0
  6
Continuous
 62
     7
370
    25
100
AcDbLine
 10
226.1116473166
 20
49.1978199502
 30
0.0
 11
225.7616473166
 21
49.1978199502
 31
0.0
  0
LINE
  5
440
330
1F
100
AcDbEntity
  8
0
  6
Continuous
 62
     7
370
    25
100
AcDbLine
 10
225.7616473166
 20
49.1978199502
 30
0.0
 11
225.7616473166
 21
29.1978199502
 31
0.0
  0
LINE
  5
441
330
1F
100
AcDbEntity
  8
0
  6
Continuous
 62
     7
370
    25
100
AcDbLine
 10
219.5308875778
 20
23.6978199502
 30
0.0
 11
219.5308875778
 21
64.1978199502
 31
0.0
  0
ARC
  5
442
330
1F
100
AcDbEntity
  8
0
  6
Continuous
 62
     7
370
    25
100
AcDbCircle
 10
217.5308875778
 20
64.1978199502
 30
0.0
 40
2.0
100
AcDbArc
 50
0.0
 51
90.0
  0
LINE
  5
443
330
1F
100
AcDbEntity
  8
0
  6
Continuous
 62
     7
370
    25
100
AcDbLine
 10
217.5308875778
 20
66.1978199502
 30
0.0
 11
202.0846910162
 21
66.1978199502
 31
0.0
  0
LINE
  5
444
330
1F
100
AcDbEntity
  8
0
  6
Continuous
 62
     7
370
    25
100
AcDbLine
 10
202.0846910162
 20
66.1978199502
 30
0.0
 11
202.0846910162
 21
82.6978199502
 31
0.0
  0
ARC
  5
445
330
1F
100
AcDbEntity
  8
0
  6
Continuous
 62
     7
370
    25
100
AcDbCircle
 10
200.0846910162
 20
82.6978199502
 30
0.0
 40
2.0
100
AcDbArc
 50
0.0
 51
90.0
  0
LINE
  5
446
330
1F
100
AcDbEntity
  8
0
  6
Continuous
 62
     7
370
    25
100
AcDbLine
 10
178.9116473166
 20
84.6978199502
 30
0.0
 11
200.0846910162
 21
84.6978199502
 31
0.0
  0
LINE
  5
447
330
1F
100
AcDbEntity
  8
0
  6
Continuous
 62
     7
370
    25
100
AcDbLine
 10
178.9116473166
 20
99.1978199503
 30
0.0
 11
178.9116473166
 21
84.6978199502
 31
0.0
  0
LINE
  5
448
330
1F
100
AcDbEntity
  8
0
  6
Continuous
 62
     7
370
    25
100
AcDbLine
 10
179.6098499137
 20
139.1978199502
 30
0.0
 11
178.9116473166
 21
99.1978199503
 31
0.0
  0
LINE
  5
449
330
1F
100
AcDbEntity
  8
0
  6
Continuous
 62
     7
370
    25
100
AcDbLine
 10
183.0116473166
 20
139.1978199502
 30
0.0
 11
179.6098499137
 21
139.1978199502
 31
0.0
  0
LINE
  5
44A
330
1F
100
AcDbEntity
  8
0
  6
Continuous
 62
     7
370
    25
100
AcDbLine
 10
183.0116473166
 20
94.1978199502
 30
0.0
 11
183.0116473166
 21
139.1978199502
 31
0.0
  0
LINE
  5
44B
330
1F
100
AcDbEntity
  8
0
  6
Continuous
 62
     7
370
    25
100
AcDbLine
 10
223.0116473166
 20
94.1978199502
 30
0.0
 11
183.0116473166
 21
94.1978199502
 31
0.0
  0
LINE
  5
44C
330
1F
100
AcDbEntity
  8
0
  6
Continuous
 62
     7
370
    25
100
AcDbLine
 10
223.0116473166
 20
139.1978199502
 30
0.0
 11
223.0116473166
 21
94.1978199502
 31
0.0
  0
LINE
  5
44D
330
1F
100
AcDbEntity
  8
0
  6
Continuous
 62
     7
370
    25
100
AcDbLine
 10
226.4134447195
 20
139.1978199502
 30
0.0
 11
223.0116473166
 21
139.1978199502
 31
0.0
  0
LINE
  5
44E
330
1F
100
AcDbEntity
  8
0
  6
Continuous
 62
     7
370
    25
100
AcDbLine
 10
227.1116473166
 20
99.1978199503
 30
0.0
 11
226.4134447195
 21
139.1978199502
 31
0.0
  0
LINE
  5
44F
330
1F
100
AcDbEntity
  8
0
  6
Continuous
 62
     7
370
    25
100
AcDbLine
 10
227.1116473166
 20
50.1978199502
 30
0.0
 11
227.1116473166
 21
99.1978199503
 31
0.0
  0
LINE
  5
450
330
1F
100
AcDbEntity
  8
0
  6
Continuous
 62
     7
370
    25
100
AcDbLine
 10
227.0116473166
 20
23.6978199502
 30
0.0
 11
219.5308875778
 21
23.6978199502
 31
0.0
  0
LINE
  5
451
330
1F
100
AcDbEntity
  8
0
  6
Continuous
 62
     7
370
    25
100
AcDbLine
 10
227.0116473166
 20
29.1978199502
 30
0.0
 11
225.7616473166
 21
29.1978199502
 31
0.0
  0
LINE
  5
452
330
1F
100
AcDbEntity
  8
0
  6
Continuous
 62
     7
370
    25
100
AcDbLine
 10
223.0116473166
 20
139.1978199502
 30
0.0
 11
183.0116473166
 21
139.1978199502
 31
0.0
  0
LINE
  5
453
330
1F
100
AcDbEntity
  8
0
  6
Continuous
 62
     7
370
    25
100
AcDbLine
 10
217.5308875778
 20
66.1978199502
 30
0.0
 11
217.5308875778
 21
64.1978199502
 31
0.0
  0
LINE
  5
454
330
1F
100
AcDbEntity
  8
0
  6
Continuous
 62
     7
370
    25
100
AcDbLine
 10
217.5308875778
 20
64.1978199502
 30
0.0
 11
202.0846910162
 21
64.1978199502
 31
0.0
  0
LINE
  5
455
330
1F
100
AcDbEntity
  8
0
  6
Continuous
 62
     7
370
    25
100
AcDbLine
 10
202.0846910162
 20
64.1978199502
 30
0.0
 11
202.0846910162
 21
66.1978199502
 31
0.0
  0
LINE
  5
456
330
1F
100
AcDbEntity
  8
0
  6
Continuous
 62
     7
370
    25
100
AcDbLine
 10
217.5308875778
 20
64.1978199502
 30
0.0
 11
219.5308875778
 21
64.1978199502
 31
0.0
  0
LINE
  5
457
330
1F
100
AcDbEntity
  8
0
  6
Continuous
 62
     7
370
    25
100
AcDbLine
 10
217.5308875778
 20
23.6978199502
 30
0.0
 11
217.5308875778
 21
64.1978199502
 31
0.0
  0
LINE
  5
458
330
1F
100
AcDbEntity
  8
0
  6
Continuous
 62
     7
370
    25
100
AcDbLine
 10
219.5308875778
 20
23.6978199502
 30
0.0
 11
217.5308875778
 21
23.6978199502
 31
0.0
  0
ARC
  5
459
330
1F
100
AcDbEntity
  8
0
  6
Continuous
 62
     7
370
    25
100
AcDbCircle
 10
200.0846910162
 20
31.1978199502
 30
0.0
 40
2.000000000000004
100
AcDbArc
 50
270.0
 51
0.0
  0
LINE
  5
45A
330
1F
100
AcDbEntity
  8
0
  6
Continuous
 62
     7
370
    25
100
AcDbLine
 10
179.8181676294
 20
27.1978199502
 30
0.0
 11
179.8181676294
 21
25.6978199502
 31
0.0
  0
SPLINE
  5
45B
330
1F
100
AcDbEntity
  8
0
  6
Continuous
 62
     7
370
    25
100
AcDbSpline
210
0.0
220
0.0
230
1.0
 70
     8
 71
     3
 72
    16
 73
    12
 74
     0
 42
0.000000001
 43
0.00000001
 40
0.0
 40
0.0
 40
0.0
 40
0.0
 40
0.2499999999999998
 40
0.2499999999999998
 40
0.4999999999999997
 40
0.4999999999999997
 40
0.7499999999999996
 40
0.7499999999999996
 40
0.8749999999999998
 40
0.8749999999999998
 40
1.0
 40
1.0
 40
1.0
 40
1.0
 10
182.0846910161646
 20
29.19781995020983
 30
0.0
 10
181.8025651614113
 20
29.19781995020983
 30
0.0
 10
181.5277479661578
 20
29.15395025139468
 30
0.0
 10
180.9937806965667
 20
28.97217009623724
 30
0.0
 10
180.7493284059409
 20
28.83922446740734
 30
0.0
 10
180.3149739303233
 20
28.47969926665518
 30
0.0
 10
180.1373741030689
 20
28.26238016986973
 30
0.0
 10
179.9482449197102
 20
27.88311108305463
 30
0.0
 10
179.900420806436
 20
27.75212131995357
 30
0.0
 10
179.8353128009512
 20
27.4809776207556
 30
0.0
 10
179.8181676294041
 20
27.33952131042233
 30
0.0
 10
179.8181676294041
 20
27.19781995020984
 30
0.0
  0
SPLINE
  5
45C
330
1F
100
AcDbEntity
  8
0
  6
Continuous
 62
     7
370
    25
100
AcDbSpline
210
0.0
220
0.0
230
1.0
 70
     8
 71
     3
 72
    18
 73
    14
 74
     0
 42
0.000000001
 43
0.00000001
 40
0.0
 40
0.0
 40
0.0
 40
0.0
 40
0.1250000000000001
 40
0.1250000000000001
 40
0.2500000000000002
 40
0.2500000000000002
 40
0.5000000000000001
 40
0.5000000000000001
 40
0.6250000000000001
 40
0.6250000000000001
 40
0.75
 40
0.75
 40
1.0
 40
1.0
 40
1.0
 40
1.0
 10
179.8181676294041
 20
25.69781995020984
 30
0.0
 10
179.8181676294041
 20
25.55656235588854
 30
0.0
 10
179.834750749988
 20
25.41820049136834
 30
0.0
 10
179.8993143475889
 20
25.14695934084731
 30
0.0
 10
179.9481664995784
 20
25.01307295427004
 30
0.0
 10
180.1344266388101
 20
24.6384062351239
 30
0.0
 10
180.3153885922103
 20
24.41599831464534
 30
0.0
 10
180.6377891635277
 20
24.14854112548592
 30
0.0
 10
180.7553580088642
 20
24.06895329481002
 30
0.0
 10
180.9997708915362
 20
23.93411072591909
 30
0.0
 10
181.1273910406699
 20
23.87802105745403
 30
0.0
 10
181.5257928423699
 20
23.74228218950219
 30
0.0
 10
181.8030685137395
 20
23.69781995020984
 30
0.0
 10
182.0846910161646
 20
23.69781995020984
 30
0.0
  0
LINE
  5
45D
330
1F
100
AcDbEntity
  8
0
  6
Continuous
 62
     7
370
    25
100
AcDbLine
 10
202.0846910162
 20
64.1978199502
 30
0.0
 11
202.0846910162
 21
31.1978199502
 31
0.0
  0
LINE
  5
45E
330
1F
100
AcDbEntity
  8
0
  6
Continuous
 62
     7
370
    25
100
AcDbLine
 10
217.5308875778
 20
23.6978199502
 30
0.0
 11
182.0846910162
 21
23.6978199502
 31
0.0
  0
LINE
  5
45F
330
1F
100
AcDbEntity
  8
0
  6
Continuous
 62
     7
370
    25
100
AcDbLine
 10
200.0846910162
 20
29.1978199502
 30
0.0
 11
182.0846910162
 21
29.1978199502
 31
0.0
  0
LINE
  5
460
330
1F
100
AcDbEntity
  8
0
  6
Continuous
 62
     7
370
    25
100
AcDbLine
 10
183.5308875778
 20
31.1978199502
 30
0.0
 11
200.0846910162
 21
31.1978199502
 31
0.0
  0
LINE
  5
461
330
1F
100
AcDbEntity
  8
0
  6
Continuous
 62
     7
370
    25
100
AcDbLine
 10
200.0846910162
 20
31.1978199502
 30
0.0
 11
200.0846910162
 21
29.1978199502
 31
0.0
  0
SPLINE
  5
462
330
1F
100
AcDbEntity
  8
0
  6
Continuous
 62
     7
370
    25
100
AcDbSpline
210
0.0
220
0.0
230
1.0
 70
     8
 71
     3
 72
    18
 73
    14
 74
     0
 42
0.000000001
 43
0.00000001
 40
0.0
 40
0.0
 40
0.0
 40
0.0
 40
0.2500000000000006
 40
0.2500000000000006
 40
0.5000000000000011
 40
0.5000000000000011
 40
0.6250000000000008
 40
0.6250000000000008
 40
0.7500000000000006
 40
0.7500000000000006
 40
0.8750000000000002
 40
0.8750000000000002
 40
1.0
 40
1.0
 40
1.0
 40
1.0
 10
182.4568425254975
 20
29.19781995020983
 30
0.0
 10
182.5776320711962
 20
29.19781995020983
 30
0.0
 10
182.6998164370401
 20
29.24478880493589
 30
0.0
 10
182.9448140480158
 20
29.43144129905774
 30
0.0
 10
183.0611201327786
 20
29.56607173739914
 30
0.0
 10
183.2204988501676
 20
29.83524537231721
 30
0.0
 10
183.2692837467008
 20
29.93355007068756
 30
0.0
 10
183.3571278131352
 20
30.14789621786082
 30
0.0
 10
183.3964653011549
 20
30.26490828439472
 30
0.0
 10
183.4618415671577
 20
30.5153568859648
 30
0.0
 10
183.4870823757515
 20
30.6453248516132
 30
0.0
 10
183.5216438057883
 20
30.91506532859281
 30
0.0
 10
183.5308875778138
 20
31.05628836534698
 30
0.0
 10
183.5308875778138
 20
31.19781995020984
 30
0.0
  0
LINE
  5
463
330
1F
100
AcDbEntity
  8
0
  6
Continuous
 62
     7
370
    25
100
AcDbLine
 10
182.0846910162
 20
82.6978199502
 30
0.0
 11
182.0846910162
 21
84.6978199502
 31
0.0
  0
LINE
  5
464
330
1F
100
AcDbEntity
  8
0
  6
Continuous
 62
     7
370
    25
100
AcDbLine
 10
200.0846910162
 20
82.6978199502
 30
0.0
 11
200.0846910162
 21
84.6978199502
 31
0.0
  0
LINE
  5
465
330
1F
100
AcDbEntity
  8
0
  6
Continuous
 62
     7
370
    25
100
AcDbLine
 10
200.0846910162
 20
82.6978199502
 30
0.0
 11
182.0846910162
 21
82.6978199502
 31
0.0
  0
LINE
  5
466
330
1F
100
AcDbEntity
  8
0
  6
Continuous
 62
     7
370
    25
100
AcDbLine
 10
202.0846910162
 20
82.6978199502
 30
0.0
 11
200.0846910162
 21
82.6978199502
 31
0.0
  0
LINE
  5
467
330
1F
100
AcDbEntity
  8
0
  6
Continuous
 62
     7
370
    25
100
AcDbLine
 10
200.0846910162
 20
31.1978199502
 30
0.0
 11
202.0846910162
 21
31.1978199502
 31
0.0
  0
LINE
  5
468
330
1F
100
AcDbEntity
  8
0
  6
Continuous
 62
     7
370
    25
100
AcDbLine
 10
200.0846910162
 20
31.1978199502
 30
0.0
 11
200.0846910162
 21
82.6978199502
 31
0.0
  0
LINE
  5
469
330
1F
100
AcDbEntity
  8
0
  6
Continuous
 62
     7
370
    25
100
AcDbLine
 10
183.5308875778
 20
49.1978199502
 30
0.0
 11
183.1232713145
 21
49.1978199502
 31
0.0
  0
SPLINE
  5
46A
330
1F
100
AcDbEntity
  8
0
  6
Continuous
 62
     7
370
    25
100
AcDbSpline
210
0.0
220
0.0
230
1.0
 70
     8
 71
     3
 72
     8
 73
     4
 74
     0
 42
0.000000001
 43
0.00000001
 40
0.0
 40
0.0
 40
0.0
 40
0.0
 40
1.0
 40
1.0
 40
1.0
 40
1.0
 10
183.1232713145149
 20
49.19781995020985
 30
0.0
 10
182.7761799410253
 20
49.49665474428075
 30
0.0
 10
182.4300245580717
 20
49.79670411935309
 30
0.0
 10
182.0846910161646
 20
50.09781995020985
 30
0.0
  0
CIRCLE
  5
46B
330
1F
100
AcDbEntity
  8
0
  6
Continuous
 62
     7
370
    25
100
AcDbCircle
 10
192.0846910162
 20
71.6978199502
 30
0.0
 40
3.250000000000028
  0
CIRCLE
  5
46C
330
1F
100
AcDbEntity
  8
0
  6
Continuous
 62
     7
370
    25
100
AcDbCircle
 10
192.0846910162
 20
41.6978199502
 30
0.0
 40
3.250000000000028
  0
LINE
  5
46D
330
1F
100
AcDbEntity
  8
0
  6
Continuous
 62
     7
370
    25
100
AcDbLine
 10
182.0846910162
 20
50.0978199502
 30
0.0
 11
182.0846910162
 21
82.6978199502
 31
0.0
  0
LINE
  5
46E
330
1F
100
AcDbEntity
  8
0
  6
Continuous
 62
     7
370
    25
100
AcDbLine
 10
183.5308875778
 20
31.1978199502
 30
0.0
 11
183.5308875778
 21
49.1978199502
 31
0.0
  0
HATCH
  5
46F
330
1F
100
AcDbEntity
  8
0
  6
Continuous
 62
     7
370
    18
100
AcDbHatch
 10
0.0
 20
0.0
 30
0.0
210
0.0
220
0.0
230
1.0
  2
ANSI31
 70
     0
 71
     0
 91
        1
 92
        0
 93
       23
 72
     1
 10
227.111647316592
 20
50.1978199502099
 11
227.111647316592
 21
99.1978199503019
 72
     1
 10
227.111647316592
 20
99.1978199503019
 11
226.413444719465
 21
139.1978199502099
 72
     1
 10
226.413444719465
 20
139.1978199502099
 11
223.011647316592
 21
139.1978199502099
 72
     1
 10
223.011647316592
 20
139.1978199502099
 11
223.011647316592
 21
94.19781995020983
 72
     1
 10
223.011647316592
 20
94.19781995020983
 11
183.011647316592
 21
94.19781995020983
 72
     1
 10
183.011647316592
 20
94.19781995020983
 11
183.011647316592
 21
139.1978199502099
 72
     1
 10
183.011647316592
 20
139.1978199502099
 11
179.609849913719
 21
139.19781995021
 72
     1
 10
179.609849913719
 20
139.19781995021
 11
178.911647316592
 21
99.1978199503019
 72
     1
 10
178.911647316592
 20
99.1978199503019
 11
178.911647316592
 21
84.69781995020983
 72
     1
 10
178.911647316592
 20
84.69781995020983
 11
200.0846910161646
 21
84.69781995020983
 72
     2
 10
200.0846910161646
 20
82.69781995020983
 40
2.0
 50
270.0000000000008
 51
360.0000000000008
 73
     0
 72
     1
 10
202.0846910161646
 20
82.69781995020983
 11
202.0846910161646
 21
66.19781995020983
 72
     1
 10
202.0846910161646
 20
66.19781995020983
 11
217.5308875778139
 21
66.19781995020983
 72
     2
 10
217.5308875778139
 20
64.19781995020983
 40
2.0
 50
270.0000000000008
 51
360.0000000000008
 73
     0
 72
     1
 10
219.5308875778139
 20
64.19781995020983
 11
219.5308875778139
 21
23.69781995020983
 72
     1
 10
219.5308875778139
 20
23.69781995020984
 11
227.011647316592
 21
23.69781995020984
 72
     2
 10
227.011647316592
 20
25.69781995020984
 40
2.0
 50
270.0000000000008
 51
360.0000000000008
 73
     1
 72
     1
 10
229.011647316592
 20
25.69781995020984
 11
229.011647316592
 21
27.19781995020984
 72
     2
 10
227.011647316592
 20
27.19781995020984
 40
2.0
 50
0.0
 51
90.0
 73
     1
 72
     1
 10
227.011647316592
 20
29.19781995020983
 11
225.761647316592
 21
29.19781995020983
 72
     1
 10
225.761647316592
 20
29.19781995020983
 11
225.761647316592
 21
49.19781995020985
 72
     1
 10
225.761647316592
 20
49.19781995020985
 11
226.111647316592
 21
49.19781995020985
 72
     1
 10
226.111647316592
 20
49.19781995020985
 11
227.111647316592
 21
50.1978199502099
 97
        0
 75
     0
 76
     1
 52
0.0
 41
1.0
 77
     0
 78
     1
 53
45.0
 43
0.0
 44
0.0
 45
-2.245064030267288
 46
2.245064030267288
 79
     0
 98
        1
 10
0.0
 20
0.0
  0
DIMENSION
  5
470
330
1F
100
AcDbEntity
  8
0
  6
Continuous
 62
     7
370
    18
100
AcDbDimension
  2
_D_22
 10
144.9116473166
 20
94.1978199502
 30
0.0
 11
144.9116473166
 21
112.6095452814
 31
0.0
 70
   160
  1
<>
 71
     2
 42
-1.0
  3
SLDDIMSTYLE0
100
AcDbAlignedDimension
 13
183.0116473166
 23
139.1978199502
 33
0.0
 14
183.0116473166
 24
94.1978199502
 34
0.0
 50
90.0
100
AcDbRotatedDimension
  0
DIMENSION
  5
47A
330
1F
100
AcDbEntity
  8
0
  6
Continuous
 62
     7
370
    18
100
AcDbDimension
  2
_D_23
 10
223.0116473166
 20
133.5330902006
 30
0.0
 11
269.0116723166
 21
133.5330902006
 31
0.0
 70
   160
  1
%%c<>
 71
     2
 42
-1.0
  3
SLDDIMSTYLE0
100
AcDbAlignedDimension
 13
183.0116473166
 23
139.1978199502
 33
0.0
 14
223.0116473166
 24
139.1978199502
 34
0.0
100
AcDbRotatedDimension
  0
DIMENSION
  5
484
330
1F
100
AcDbEntity
  8
0
  6
Continuous
 62
     7
370
    18
100
AcDbDimension
  2
_D_24
 10
120.9116473166
 20
23.6978199502
 30
0.0
 11
120.9116473166
 21
90.1224998803
 31
0.0
 70
   160
  1
<>
 71
     2
 42
-1.0
  3
SLDDIMSTYLE2
100
AcDbAlignedDimension
 13
183.0116473166
 23
139.1978199502
 33
0.0
 14
182.0846910162
 24
23.6978199502
 34
0.0
 50
90.0
100
AcDbRotatedDimension
  0
DIMENSION
  5
490
330
1F
100
AcDbEntity
  8
0
  6
Continuous
 62
     7
370
    18
100
AcDbDimension
  2
_D_25
 10
202.0846910162
 20
76.6266824944
 30
0.0
 11
150.9116473166
 21
76.6266824944
 31
0.0
 70
   160
  1
<>
 71
     2
 42
-1.0
  3
SLDDIMSTYLE0
100
AcDbAlignedDimension
 13
182.0846910162
 23
84.6978199502
 33
0.0
 14
202.0846910162
 24
82.6978199502
 34
0.0
100
AcDbRotatedDimension
  0
DIMENSION
  5
499
330
1F
100
AcDbEntity
  8
0
  6
Continuous
 62
     7
370
    18
100
AcDbDimension
  2
_D_26
 10
182.0846910162
 20
55.5097474191
 30
0.0
 11
150.9116473166
 21
55.5097474191
 31
0.0
 70
   160
  1
<>
 71
     2
 42
-1.0
  3
SLDDIMSTYLE0
100
AcDbAlignedDimension
 13
219.5308875778
 23
64.1978199502
 33
0.0
 14
182.0846910162
 24
50.0978199502
 34
0.0
100
AcDbRotatedDimension
  0
MTEXT
  5
4A2
330
1F
100
AcDbEntity
  8
0
  6
Continuous
 62
     7
370
     0
100
AcDbMText
 10
203.8632214195
 20
10.372862509
 30
0.0
 40
3.5
 41
0.0
 71
     2
 72
     1
  1
COUPE B-B
  7
SLDTEXTSTYLE0
 73
     1
 44
1.0
  0
INSERT
  5
4AE
330
1F
100
AcDbEntity
  8
0
  6
Continuous
 62
     7
370
     0
100
AcDbBlockReference
  2
SW_CENTERMARKSYMBOL_5
 10
192.0846910162
 20
71.6978199502
 30
0.0
  0
INSERT
  5
4BA
330
1F
100
AcDbEntity
  8
0
  6
Continuous
 62
     7
370
     0
100
AcDbBlockReference
  2
SW_CENTERMARKSYMBOL_6
 10
192.0846910162
 20
41.6978199502
 30
0.0
  0
ENDSEC
  0
SECTION
  2
OBJECTS
  0
DICTIONARY
  5
C
330
0
100
AcDbDictionary
281
     1
  3
ACAD_GROUP
350
D
  3
ACAD_LAYOUT
350
1A
  3
ACAD_MLINESTYLE
350
17
  3
ACAD_PLOTSETTINGS
350
19
  3
ACAD_PLOTSTYLENAME
350
E
  3
ACAD_SCALELIST
350
47
  0
DICTIONARY
  5
D
102
{ACAD_REACTORS
330
C
102
}
330
C
100
AcDbDictionary
281
     1
  0
DICTIONARY
  5
1A
102
{ACAD_REACTORS
330
C
102
}
330
C
100
AcDbDictionary
281
     1
  3
Layout1
350
1E
  3
Layout2
350
26
  3
Model
350
22
  0
DICTIONARY
  5
17
102
{ACAD_REACTORS
330
C
102
}
330
C
100
AcDbDictionary
281
     1
  3
Standard
350
18
  0
DICTIONARY
  5
19
102
{ACAD_REACTORS
330
C
102
}
330
C
100
AcDbDictionary
281
     1
  0
ACDBDICTIONARYWDFLT
  5
E
102
{ACAD_REACTORS
330
C
102
}
330
C
100
AcDbDictionary
281
     1
  3
Normal
350
F
100
AcDbDictionaryWithDefault
340
F
  0
DICTIONARY
  5
47
102
{ACAD_REACTORS
330
C
102
}
330
C
100
AcDbDictionary
281
     1
  3
A0
350
48
  3
A1
350
49
  3
A2
350
4A
  3
A3
350
4B
  3
A4
350
4C
  3
A5
350
4D
  3
A6
350
4E
  3
A7
350
4F
  3
A8
350
50
  3
A9
350
51
  3
B0
350
52
  3
B1
350
53
  3
B2
350
54
  3
B3
350
55
  3
B4
350
56
  3
B5
350
57
  3
B6
350
58
  3
B7
350
59
  3
B8
350
5A
  3
B9
350
5B
  3
C0
350
5C
  3
C1
350
5D
  3
C2
350
5E
  3
C3
350
5F
  3
C4
350
60
  3
C5
350
61
  3
C6
350
62
  3
C7
350
63
  3
C8
350
64
  3
C9
350
65
  3
D0
350
66
  3
D1
350
67
  3
D2
350
68
  0
LAYOUT
  5
1E
102
{ACAD_REACTORS
330
1A
102
}
330
1A
100
AcDbPlotSettings
  1

  2
none_device
  4

  6

 40
0.0
 41
0.0
 42
0.0
 43
0.0
 44
0.0
 45
0.0
 46
0.0
 47
0.0
 48
0.0
 49
0.0
140
0.0
141
0.0
142
1.0
143
1.0
 70
   688
 72
     1
 73
     0
 74
     5
  7

 75
    16
147
1.0
148
0.0
149
0.0
100
AcDbLayout
  1
Layout1
 70
     1
 71
     1
 10
0.0
 20
0.0
 11
420.0
 21
297.0
 12
0.0
 22
0.0
 32
0.0
 14
1.0000000000E+20
 24
1.0000000000E+20
 34
1.0000000000E+20
 15
-1.0000000000E+20
 25
-1.0000000000E+20
 35
-1.0000000000E+20
146
0.0
 13
0.0
 23
0.0
 33
0.0
 16
1.0
 26
0.0
 36
0.0
 17
0.0
 27
1.0
 37
0.0
 76
     0
330
1B
  0
LAYOUT
  5
26
102
{ACAD_REACTORS
330
1A
102
}
330
1A
100
AcDbPlotSettings
  1

  2
none_device
  4

  6

 40
0.0
 41
0.0
 42
0.0
 43
0.0
 44
0.0
 45
0.0
 46
0.0
 47
0.0
 48
0.0
 49
0.0
140
0.0
141
0.0
142
1.0
143
1.0
 70
   688
 72
     1
 73
     0
 74
     5
  7

 75
    16
147
1.0
148
0.0
149
0.0
100
AcDbLayout
  1
Layout2
 70
     1
 71
     2
 10
0.0
 20
0.0
 11
0.0
 21
0.0
 12
0.0
 22
0.0
 32
0.0
 14
0.0
 24
0.0
 34
0.0
 15
0.0
 25
0.0
 35
0.0
146
0.0
 13
0.0
 23
0.0
 33
0.0
 16
1.0
 26
0.0
 36
0.0
 17
0.0
 27
1.0
 37
0.0
 76
     0
330
23
  0
LAYOUT
  5
22
102
{ACAD_REACTORS
330
1A
102
}
330
1A
100
AcDbPlotSettings
  1

  2
none_device
  4
Letter_(8.50_x_11.00_Inches)
  6

 40
6.35
 41
6.35
 42
6.35000508
 43
6.35000508
 44
215.9
 45
279.4
 46
0.0
 47
0.0
 48
0.0
 49
0.0
140
0.0
141
0.0
142
1.0
143
1.0
 70
  1712
 72
     1
 73
     0
 74
     0
  7

 75
     0
147
1.0
148
0.0
149
0.0
100
AcDbLayout
  1
Model
 70
     1
 71
     0
 10
0.0
 20
0.0
 11
594.0
 21
420.0
 12
0.0
 22
0.0
 32
0.0
 14
0.0
 24
0.0
 34
0.0
 15
594.0
 25
420.0
 35
0.0
146
0.0
 13
0.0
 23
0.0
 33
0.0
 16
1.0
 26
0.0
 36
0.0
 17
0.0
 27
1.0
 37
0.0
 76
     0
330
1F
331
29
  0
MLINESTYLE
  5
18
102
{ACAD_REACTORS
330
17
102
}
330
17
100
AcDbMlineStyle
  2
Standard
 70
     0
  3

 62
   256
 51
90.0
 52
90.0
 71
     2
 49
0.5
 62
   256
  6
BYLAYER
 49
-0.5
 62
   256
  6
BYLAYER
  0
ACDBPLACEHOLDER
  5
F
102
{ACAD_REACTORS
330
E
102
}
330
E
  0
SCALE
  5
48
102
{ACAD_REACTORS
330
47
102
}
330
47
100
AcDbScale
 70
     0
300
1:1
140
1.0
141
1.0
290
     1
  0
SCALE
  5
49
102
{ACAD_REACTORS
330
47
102
}
330
47
100
AcDbScale
 70
     0
300
1:2
140
1.0
141
2.0
290
     0
  0
SCALE
  5
4A
102
{ACAD_REACTORS
330
47
102
}
330
47
100
AcDbScale
 70
     0
300
1:4
140
1.0
141
4.0
290
     0
  0
SCALE
  5
4B
102
{ACAD_REACTORS
330
47
102
}
330
47
100
AcDbScale
 70
     0
300
1:5
140
1.0
141
5.0
290
     0
  0
SCALE
  5
4C
102
{ACAD_REACTORS
330
47
102
}
330
47
100
AcDbScale
 70
     0
300
1:8
140
1.0
141
8.0
290
     0
  0
SCALE
  5
4D
102
{ACAD_REACTORS
330
47
102
}
330
47
100
AcDbScale
 70
     0
300
1:10
140
1.0
141
10.0
290
     0
  0
SCALE
  5
4E
102
{ACAD_REACTORS
330
47
102
}
330
47
100
AcDbScale
 70
     0
300
1:16
140
1.0
141
16.0
290
     0
  0
SCALE
  5
4F
102
{ACAD_REACTORS
330
47
102
}
330
47
100
AcDbScale
 70
     0
300
1:20
140
1.0
141
20.0
290
     0
  0
SCALE
  5
50
102
{ACAD_REACTORS
330
47
102
}
330
47
100
AcDbScale
 70
     0
300
1:30
140
1.0
141
30.0
290
     0
  0
SCALE
  5
51
102
{ACAD_REACTORS
330
47
102
}
330
47
100
AcDbScale
 70
     0
300
1:40
140
1.0
141
40.0
290
     0
  0
SCALE
  5
52
102
{ACAD_REACTORS
330
47
102
}
330
47
100
AcDbScale
 70
     0
300
1:50
140
1.0
141
50.0
290
     0
  0
SCALE
  5
53
102
{ACAD_REACTORS
330
47
102
}
330
47
100
AcDbScale
 70
     0
300
1:100
140
1.0
141
100.0
290
     0
  0
SCALE
  5
54
102
{ACAD_REACTORS
330
47
102
}
330
47
100
AcDbScale
 70
     0
300
2:1
140
2.0
141
1.0
290
     0
  0
SCALE
  5
55
102
{ACAD_REACTORS
330
47
102
}
330
47
100
AcDbScale
 70
     0
300
4:1
140
4.0
141
1.0
290
     0
  0
SCALE
  5
56
102
{ACAD_REACTORS
330
47
102
}
330
47
100
AcDbScale
 70
     0
300
8:1
140
8.0
141
1.0
290
     0
  0
SCALE
  5
57
102
{ACAD_REACTORS
330
47
102
}
330
47
100
AcDbScale
 70
     0
300
10:1
140
10.0
141
1.0
290
     0
  0
SCALE
  5
58
102
{ACAD_REACTORS
330
47
102
}
330
47
100
AcDbScale
 70
     0
300
100:1
140
100.0
141
1.0
290
     0
  0
SCALE
  5
59
102
{ACAD_REACTORS
330
47
102
}
330
47
100
AcDbScale
 70
     0
300
1/128" = 1'-0"
140
0.0078125
141
12.0
290
     0
  0
SCALE
  5
5A
102
{ACAD_REACTORS
330
47
102
}
330
47
100
AcDbScale
 70
     0
300
1/64" = 1'-0"
140
0.015625
141
12.0
290
     0
  0
SCALE
  5
5B
102
{ACAD_REACTORS
330
47
102
}
330
47
100
AcDbScale
 70
     0
300
1/32" = 1'-0"
140
0.03125
141
12.0
290
     0
  0
SCALE
  5
5C
102
{ACAD_REACTORS
330
47
102
}
330
47
100
AcDbScale
 70
     0
300
1/16" = 1'-0"
140
0.0625
141
12.0
290
     0
  0
SCALE
  5
5D
102
{ACAD_REACTORS
330
47
102
}
330
47
100
AcDbScale
 70
     0
300
3/32" = 1'-0"
140
0.09375
141
12.0
290
     0
  0
SCALE
  5
5E
102
{ACAD_REACTORS
330
47
102
}
330
47
100
AcDbScale
 70
     0
300
1/8" = 1'-0"
140
0.125
141
12.0
290
     0
  0
SCALE
  5
5F
102
{ACAD_REACTORS
330
47
102
}
330
47
100
AcDbScale
 70
     0
300
3/16" = 1'-0"
140
0.1875
141
12.0
290
     0
  0
SCALE
  5
60
102
{ACAD_REACTORS
330
47
102
}
330
47
100
AcDbScale
 70
     0
300
1/4" = 1'-0"
140
0.25
141
12.0
290
     0
  0
SCALE
  5
61
102
{ACAD_REACTORS
330
47
102
}
330
47
100
AcDbScale
 70
     0
300
3/8" = 1'-0"
140
0.375
141
12.0
290
     0
  0
SCALE
  5
62
102
{ACAD_REACTORS
330
47
102
}
330
47
100
AcDbScale
 70
     0
300
1/2" = 1'-0"
140
0.5
141
12.0
290
     0
  0
SCALE
  5
63
102
{ACAD_REACTORS
330
47
102
}
330
47
100
AcDbScale
 70
     0
300
3/4" = 1'-0"
140
0.75
141
12.0
290
     0
  0
SCALE
  5
64
102
{ACAD_REACTORS
330
47
102
}
330
47
100
AcDbScale
 70
     0
300
1" = 1'-0"
140
1.0
141
12.0
290
     0
  0
SCALE
  5
65
102
{ACAD_REACTORS
330
47
102
}
330
47
100
AcDbScale
 70
     0
300
1-1/2" = 1'-0"
140
1.5
141
12.0
290
     0
  0
SCALE
  5
66
102
{ACAD_REACTORS
330
47
102
}
330
47
100
AcDbScale
 70
     0
300
3" = 1'-0"
140
3.0
141
12.0
290
     0
  0
SCALE
  5
67
102
{ACAD_REACTORS
330
47
102
}
330
47
100
AcDbScale
 70
     0
300
6" = 1'-0"
140
6.0
141
12.0
290
     0
  0
SCALE
  5
68
102
{ACAD_REACTORS
330
47
102
}
330
47
100
AcDbScale
 70
     0
300
1'-0" = 1'-0"
140
12.0
141
12.0
290
     0
  0
ENDSEC
  0
EOF
