  0
SECTION
  2
HEADER
  9
$ACADVER
  1
AC1015
  9
$ACADMAINTVER
 70
     6
  9
$DWGCODEPAGE
  3
ANSI_1252
  9
$INSBASE
 10
0.0
 20
0.0
 30
0.0
  9
$EXTMIN
 10
0.0
 20
0.0
 30
0.0
  9
$EXTMAX
 10
420.0
 20
297.0
 30
0.0
  9
$LIMMIN
 10
0.0
 20
0.0
  9
$LIMMAX
 10
420.0
 20
297.0
  9
$ORTHOMODE
 70
     0
  9
$REGENMODE
 70
     1
  9
$FILLMODE
 70
     1
  9
$QTEXTMODE
 70
     0
  9
$MIRRTEXT
 70
     1
  9
$LTSCALE
 40
1.0
  9
$ATTMODE
 70
     1
  9
$TEXTSIZE
 40
3.5
  9
$TRACEWID
 40
1.0
  9
$TEXTSTYLE
  7
Standard
  9
$CLAYER
  8
0
  9
$CELTYPE
  6
ByLayer
  9
$CECOLOR
 62
   256
  9
$CELTSCALE
 40
1.0
  9
$DISPSILH
 70
     0
  9
$DIMSCALE
 40
1.0
  9
$DIMASZ
 40
3.302
  9
$DIMEXO
 40
1.0
  9
$DIMDLI
 40
3.75
  9
$DIMRND
 40
0.0
  9
$DIMDLE
 40
0.0
  9
$DIMEXE
 40
1.0
  9
$DIMTP
 40
0.0
  9
$DIMTM
 40
0.0
  9
$DIMTXT
 40
3.5
  9
$DIMCEN
 40
2.5
  9
$DIMTSZ
 40
0.0
  9
$DIMTOL
 70
     0
  9
$DIMLIM
 70
     0
  9
$DIMTIH
 70
     1
  9
$DIMTOH
 70
     1
  9
$DIMSE1
 70
     0
  9
$DIMSE2
 70
     0
  9
$DIMTAD
 70
     1
  9
$DIMZIN
 70
     0
  9
$DIMBLK
  1

  9
$DIMASO
 70
     1
  9
$DIMSHO
 70
     1
  9
$DIMPOST
  1

  9
$DIMAPOST
  1

  9
$DIMALT
 70
     0
  9
$DIMALTD
 70
     3
  9
$DIMALTF
 40
0.0393700787
  9
$DIMLFAC
 40
1.0
  9
$DIMTOFL
 70
     1
  9
$DIMTVP
 40
0.0
  9
$DIMTIX
 70
     0
  9
$DIMSOXD
 70
     0
  9
$DIMSAH
 70
     0
  9
$DIMBLK1
  1

  9
$DIMBLK2
  1

  9
$DIMSTYLE
  2
ISO-25
  9
$DIMCLRD
 70
     0
  9
$DIMCLRE
 70
     0
  9
$DIMCLRT
 70
     0
  9
$DIMTFAC
 40
1.0
  9
$DIMGAP
 40
1.524
  9
$DIMJUST
 70
     0
  9
$DIMSD1
 70
     0
  9
$DIMSD2
 70
     0
  9
$DIMTOLJ
 70
     0
  9
$DIMTZIN
 70
     0
  9
$DIMALTZ
 70
     0
  9
$DIMALTTZ
 70
     0
  9
$DIMUPT
 70
     0
  9
$DIMDEC
 70
     2
  9
$DIMTDEC
 70
     2
  9
$DIMALTU
 70
     2
  9
$DIMALTTD
 70
     3
  9
$DIMTXSTY
  7
Standard
  9
$DIMAUNIT
 70
     0
  9
$DIMADEC
 70
     2
  9
$DIMALTRND
 40
0.0
  9
$DIMAZIN
 70
     0
  9
$DIMDSEP
 70
    44
  9
$DIMATFIT
 70
     3
  9
$DIMFRAC
 70
     0
  9
$DIMLDRBLK
  1

  9
$DIMLUNIT
 70
     2
  9
$DIMLWD
 70
    -2
  9
$DIMLWE
 70
    -2
  9
$DIMTMOVE
 70
     0
  9
$LUNITS
 70
     2
  9
$LUPREC
 70
     2
  9
$SKETCHINC
 40
1.0
  9
$FILLETRAD
 40
10.0
  9
$AUNITS
 70
     0
  9
$AUPREC
 70
     2
  9
$MENU
  1
.
  9
$ELEVATION
 40
0.0
  9
$PELEVATION
 40
0.0
  9
$THICKNESS
 40
0.0
  9
$LIMCHECK
 70
     0
  9
$CHAMFERA
 40
0.0
  9
$CHAMFERB
 40
0.0
  9
$CHAMFERC
 40
0.0
  9
$CHAMFERD
 40
0.0
  9
$SKPOLY
 70
     0
  9
$TDCREATE
 40
2459387.651299815
  9
$TDUCREATE
 40
2459387.567966482
  9
$TDUPDATE
 40
2459387.651308067
  9
$TDUUPDATE
 40
2459387.567974734
  9
$TDINDWG
 40
0.0000000116
  9
$TDUSRTIMER
 40
0.0000000116
  9
$USRTIMER
 70
     1
  9
$ANGBASE
 50
0.0
  9
$ANGDIR
 70
     0
  9
$PDMODE
 70
     0
  9
$PDSIZE
 40
-1.0
  9
$PLINEWID
 40
0.0
  9
$SPLFRAME
 70
     0
  9
$SPLINETYPE
 70
     6
  9
$SPLINESEGS
 70
     8
  9
$HANDSEED
  5
2F0
  9
$SURFTAB1
 70
     6
  9
$SURFTAB2
 70
     6
  9
$SURFTYPE
 70
     6
  9
$SURFU
 70
     6
  9
$SURFV
 70
     6
  9
$UCSBASE
  2

  9
$UCSNAME
  2

  9
$UCSORG
 10
0.0
 20
0.0
 30
0.0
  9
$UCSXDIR
 10
1.0
 20
0.0
 30
0.0
  9
$UCSYDIR
 10
0.0
 20
1.0
 30
0.0
  9
$UCSORTHOREF
  2

  9
$UCSORTHOVIEW
 70
     0
  9
$UCSORGTOP
 10
0.0
 20
0.0
 30
0.0
  9
$UCSORGBOTTOM
 10
0.0
 20
0.0
 30
0.0
  9
$UCSORGLEFT
 10
0.0
 20
0.0
 30
0.0
  9
$UCSORGRIGHT
 10
0.0
 20
0.0
 30
0.0
  9
$UCSORGFRONT
 10
0.0
 20
0.0
 30
0.0
  9
$UCSORGBACK
 10
0.0
 20
0.0
 30
0.0
  9
$PUCSBASE
  2

  9
$PUCSNAME
  2

  9
$PUCSORG
 10
0.0
 20
0.0
 30
0.0
  9
$PUCSXDIR
 10
1.0
 20
0.0
 30
0.0
  9
$PUCSYDIR
 10
0.0
 20
1.0
 30
0.0
  9
$PUCSORTHOREF
  2

  9
$PUCSORTHOVIEW
 70
     0
  9
$PUCSORGTOP
 10
0.0
 20
0.0
 30
0.0
  9
$PUCSORGBOTTOM
 10
0.0
 20
0.0
 30
0.0
  9
$PUCSORGLEFT
 10
0.0
 20
0.0
 30
0.0
  9
$PUCSORGRIGHT
 10
0.0
 20
0.0
 30
0.0
  9
$PUCSORGFRONT
 10
0.0
 20
0.0
 30
0.0
  9
$PUCSORGBACK
 10
0.0
 20
0.0
 30
0.0
  9
$USERI1
 70
     0
  9
$USERI2
 70
     0
  9
$USERI3
 70
     0
  9
$USERI4
 70
     0
  9
$USERI5
 70
     0
  9
$USERR1
 40
0.0
  9
$USERR2
 40
0.0
  9
$USERR3
 40
0.0
  9
$USERR4
 40
0.0
  9
$USERR5
 40
0.0
  9
$WORLDVIEW
 70
     1
  9
$SHADEDGE
 70
     3
  9
$SHADEDIF
 70
    70
  9
$TILEMODE
 70
     1
  9
$MAXACTVP
 70
    64
  9
$PINSBASE
 10
0.0
 20
0.0
 30
0.0
  9
$PLIMCHECK
 70
     0
  9
$PEXTMIN
 10
1.0000000000E+20
 20
1.0000000000E+20
 30
1.0000000000E+20
  9
$PEXTMAX
 10
-1.0000000000E+20
 20
-1.0000000000E+20
 30
-1.0000000000E+20
  9
$PLIMMIN
 10
0.0
 20
0.0
  9
$PLIMMAX
 10
420.0
 20
297.0
  9
$UNITMODE
 70
     0
  9
$VISRETAIN
 70
     1
  9
$PLINEGEN
 70
     0
  9
$PSLTSCALE
 70
     1
  9
$TREEDEPTH
 70
  3020
  9
$CMLSTYLE
  2
Standard
  9
$CMLJUST
 70
     0
  9
$CMLSCALE
 40
20.0
  9
$PROXYGRAPHICS
 70
     1
  9
$MEASUREMENT
 70
     1
  9
$CELWEIGHT
370
    -1
  9
$ENDCAPS
280
     0
  9
$JOINSTYLE
280
     0
  9
$LWDISPLAY
290
     1
  9
$INSUNITS
 70
     4
  9
$HYPERLINKBASE
  1

  9
$STYLESHEET
  1

  9
$XEDIT
290
     1
  9
$CEPSNTYPE
380
     0
  9
$PSTYLEMODE
290
     1
  9
$FINGERPRINTGUID
  2
{97796EB7-74A4-4039-B950-9DD281E91365}
  9
$VERSIONGUID
  2
{FAEB1C32-E019-11D5-929B-00C0DF256EC4}
  9
$EXTNAMES
290
     1
  9
$PSVPSCALE
 40
0.0
  9
$OLESTARTUP
290
     0
  0
ENDSEC
  0
SECTION
  2
CLASSES
  0
CLASS
  1
ACDBDICTIONARYWDFLT
  2
AcDbDictionaryWithDefault
  3
ObjectDBX Classes
 90
        0
280
     0
281
     0
  0
CLASS
  1
VISUALSTYLE
  2
AcDbVisualStyle
  3
ObjectDBX Classes
 90
     4095
280
     0
281
     0
  0
CLASS
  1
MATERIAL
  2
AcDbMaterial
  3
ObjectDBX Classes
 90
     1153
280
     0
281
     0
  0
CLASS
  1
SCALE
  2
AcDbScale
  3
ObjectDBX Classes
 90
     1153
280
     0
281
     0
  0
CLASS
  1
TABLESTYLE
  2
AcDbTableStyle
  3
ObjectDBX Classes
 90
     4095
280
     0
281
     0
  0
CLASS
  1
MLEADERSTYLE
  2
AcDbMLeaderStyle
  3
ACDB_MLEADERSTYLE_CLASS
 90
     4095
280
     0
281
     0
  0
CLASS
  1
SUN
  2
AcDbSun
  3
SCENEOE
 90
     1153
280
     0
281
     0
  0
CLASS
  1
ACDBPLACEHOLDER
  2
AcDbPlaceHolder
  3
ObjectDBX Classes
 90
        0
280
     0
281
     0
  0
CLASS
  1
LAYOUT
  2
AcDbLayout
  3
ObjectDBX Classes
 90
        0
280
     0
281
     0
  0
ENDSEC
  0
SECTION
  2
TABLES
  0
TABLE
  2
VPORT
  5
8
330
0
100
AcDbSymbolTable
 70
     1
  0
VPORT
  5
29
330
8
100
AcDbSymbolTableRecord
100
AcDbViewportTableRecord
  2
*Active
 70
     0
 10
0.0
 20
0.0
 11
1.0
 21
1.0
 12
210.0
 22
148.5
 13
0.0
 23
0.0
 14
10.0
 24
10.0
 15
10.0
 25
10.0
 16
0.0
 26
0.0
 36
1.0
 17
0.0
 27
0.0
 37
0.0
 40
297.0
 41
1.4141414141
 42
50.0
 43
0.0
 44
0.0
 50
0.0
 51
0.0
 71
     0
 72
  2000
 73
     1
 74
     3
 75
     0
 76
     0
 77
     0
 78
     0
281
     0
 65
     1
110
0.0
120
0.0
130
0.0
111
1.0
121
0.0
131
0.0
112
0.0
122
1.0
132
0.0
 79
     0
146
0.0
  0
ENDTAB
  0
TABLE
  2
LTYPE
  5
5
330
0
100
AcDbSymbolTable
 70
     6
  0
LTYPE
  5
14
330
5
100
AcDbSymbolTableRecord
100
AcDbLinetypeTableRecord
  2
ByBlock
 70
     0
  3

 72
    65
 73
     0
 40
0.0
  0
LTYPE
  5
15
330
5
100
AcDbSymbolTableRecord
100
AcDbLinetypeTableRecord
  2
ByLayer
 70
     0
  3

 72
    65
 73
     0
 40
0.0
  0
LTYPE
  5
16
330
5
100
AcDbSymbolTableRecord
100
AcDbLinetypeTableRecord
  2
Continuous
 70
     0
  3
Solid line
 72
    65
 73
     0
 40
0.0
  0
LTYPE
  5
6E
330
5
100
AcDbSymbolTableRecord
100
AcDbLinetypeTableRecord
  2
HIDDEN
 70
     0
  3
Hidden __ __ __ __ __ __ __ __ __ __ __ __ __ __
 72
    65
 73
     2
 40
1.905
 49
1.27
 74
     0
 49
-0.635
 74
     0
  0
LTYPE
  5
6F
330
5
100
AcDbSymbolTableRecord
100
AcDbLinetypeTableRecord
  2
PHANTOM
 70
     0
  3
Phantom ______  __  __  ______  __  __  ______
 72
    65
 73
     6
 40
12.7
 49
6.35
 74
     0
 49
-1.27
 74
     0
 49
1.27
 74
     0
 49
-1.27
 74
     0
 49
1.27
 74
     0
 49
-1.27
 74
     0
  0
LTYPE
  5
70
330
5
100
AcDbSymbolTableRecord
100
AcDbLinetypeTableRecord
  2
CENTER
 70
     0
  3
Center ____ _ ____ _ ____ _ ____ _ ____ _ ____
 72
    65
 73
     4
 40
10.16
 49
6.35
 74
     0
 49
-1.27
 74
     0
 49
1.27
 74
     0
 49
-1.27
 74
     0
  0
LTYPE
  5
71
330
5
100
AcDbSymbolTableRecord
100
AcDbLinetypeTableRecord
  2
CENTERX2
 70
     0
  3
Center (2x) ________  __  ________  __  _____
 72
    65
 73
     4
 40
20.32
 49
12.7
 74
     0
 49
-2.54
 74
     0
 49
2.54
 74
     0
 49
-2.54
 74
     0
  0
LTYPE
  5
72
330
5
100
AcDbSymbolTableRecord
100
AcDbLinetypeTableRecord
  2
DOT2
 70
     0
  3
Dot (.5x) ........................................
 72
    65
 73
     2
 40
0.635
 49
0.0
 74
     0
 49
-0.635
 74
     0
  0
ENDTAB
  0
TABLE
  2
LAYER
  5
2
330
0
100
AcDbSymbolTable
 70
     2
  0
LAYER
  5
10
330
2
100
AcDbSymbolTableRecord
100
AcDbLayerTableRecord
  2
0
 70
     0
 62
     7
  6
Continuous
370
    -3
390
F
  0
LAYER
  5
73
330
2
100
AcDbSymbolTableRecord
100
AcDbLayerTableRecord
  2
FORMAT
 70
     0
 62
     7
  6
Continuous
370
    -3
390
F
  0
ENDTAB
  0
TABLE
  2
STYLE
  5
3
330
0
100
AcDbSymbolTable
 70
     2
  0
STYLE
  5
11
330
3
100
AcDbSymbolTableRecord
100
AcDbTextStyleTableRecord
  2
Standard
 70
     0
 40
0.0
 41
1.0
 50
0.0
 71
     0
 42
3.5
  3
txt
  4

  0
STYLE
  5
B1
330
3
100
AcDbSymbolTableRecord
100
AcDbTextStyleTableRecord
  2
SLDTEXTSTYLE0
 70
     0
 40
0.0
 41
0.75
 50
0.0
 71
     0
 42
3.5
  3
TXT
  4

  0
ENDTAB
  0
TABLE
  2
VIEW
  5
6
330
0
100
AcDbSymbolTable
 70
     0
  0
ENDTAB
  0
TABLE
  2
UCS
  5
7
330
0
100
AcDbSymbolTable
 70
     0
  0
ENDTAB
  0
TABLE
  2
APPID
  5
9
330
0
100
AcDbSymbolTable
 70
     1
  0
APPID
  5
12
330
9
100
AcDbSymbolTableRecord
100
AcDbRegAppTableRecord
  2
ACAD
 70
     0
  0
ENDTAB
  0
TABLE
  2
DIMSTYLE
  5
A
330
0
100
AcDbSymbolTable
 70
     6
100
AcDbDimStyleTable
  0
DIMSTYLE
105
27
330
A
100
AcDbSymbolTableRecord
100
AcDbDimStyleTableRecord
  2
ISO-25
 70
     0
 41
2.5
 42
0.625
 43
3.75
 44
1.25
 73
     0
 74
     0
 77
     1
 78
     8
140
2.5
141
2.5
143
0.0393700787
147
0.625
171
     3
172
     1
178
     0
271
     2
272
     2
274
     3
278
    44
283
     0
284
     8
340
11
  0
DIMSTYLE
105
115
102
{ACAD_REACTORS
330
114
102
}
330
A
100
AcDbSymbolTableRecord
100
AcDbDimStyleTableRecord
  2
SLDDIMSTYLE0
 70
     0
 41
3.302
 44
0.0
 45
0.000000001
 47
-0.01
 48
0.029
 71
     1
 73
     0
 74
     0
 77
     1
 78
    12
 79
     3
140
3.5
147
0.875
172
     1
173
     1
178
     0
271
     2
272
     2
276
     2
284
     8
289
     0
340
B1
  0
DIMSTYLE
105
127
102
{ACAD_REACTORS
330
126
102
}
330
A
100
AcDbSymbolTableRecord
100
AcDbDimStyleTableRecord
  2
SLDDIMSTYLE1
 70
     0
 41
3.302
 44
0.0
 45
0.000000001
 73
     0
 74
     0
 77
     1
 78
    12
 79
     3
140
3.5
147
0.875
173
     1
178
     0
271
     1
272
     1
276
     2
284
    12
340
B1
  0
DIMSTYLE
105
132
102
{ACAD_REACTORS
330
131
330
13E
330
190
330
19C
330
287
330
293
330
29F
330
2AB
102
}
330
A
100
AcDbSymbolTableRecord
100
AcDbDimStyleTableRecord
  2
SLDDIMSTYLE2
 70
     0
 41
3.302
 44
0.0
 45
0.000000001
 73
     0
 74
     0
 77
     1
 78
    12
 79
     3
140
3.5
147
0.875
172
     1
173
     1
178
     0
271
     2
272
     2
276
     2
284
    12
289
     0
340
B1
  0
DIMSTYLE
105
17F
102
{ACAD_REACTORS
330
17E
102
}
330
A
100
AcDbSymbolTableRecord
100
AcDbDimStyleTableRecord
  2
SLDDIMSTYLE3
 70
     0
 41
3.302
 44
0.0
 45
0.000000001
 47
-0.007
 48
0.02
 71
     1
 73
     0
 74
     0
 77
     1
 78
    12
 79
     3
140
3.5
147
0.875
172
     1
173
     1
178
     0
271
     2
272
     2
276
     2
284
     8
289
     0
340
B1
  0
DIMSTYLE
105
2B8
102
{ACAD_REACTORS
330
2B7
330
2C2
102
}
330
A
100
AcDbSymbolTableRecord
100
AcDbDimStyleTableRecord
  2
SLDDIMSTYLE4
 70
     0
 41
3.302
 44
0.0
 45
0.000000001
 73
     0
 74
     0
 77
     1
 78
    12
 79
     3
140
3.5
147
0.875
173
     1
178
     0
271
     2
272
     2
276
     2
284
    12
340
B1
  0
ENDTAB
  0
TABLE
  2
BLOCK_RECORD
  5
1
330
0
100
AcDbSymbolTable
 70
    22
  0
BLOCK_RECORD
  5
1F
330
1
100
AcDbSymbolTableRecord
100
AcDbBlockTableRecord
  2
*Model_Space
340
22
  0
BLOCK_RECORD
  5
1B
330
1
100
AcDbSymbolTableRecord
100
AcDbBlockTableRecord
  2
*Paper_Space
340
1E
  0
BLOCK_RECORD
  5
23
330
1
100
AcDbSymbolTableRecord
100
AcDbBlockTableRecord
  2
*Paper_Space0
340
26
  0
BLOCK_RECORD
  5
CF
330
1
100
AcDbSymbolTableRecord
100
AcDbBlockTableRecord
  2
SW_NOTE_0
340
0
102
{BLKREFS
331
D4
102
}
  0
BLOCK_RECORD
  5
E4
330
1
100
AcDbSymbolTableRecord
100
AcDbBlockTableRecord
  2
SW_NOTE_1
340
0
102
{BLKREFS
331
ED
102
}
  0
BLOCK_RECORD
  5
116
330
1
100
AcDbSymbolTableRecord
100
AcDbBlockTableRecord
  2
_D
340
0
  0
BLOCK_RECORD
  5
128
330
1
100
AcDbSymbolTableRecord
100
AcDbBlockTableRecord
  2
_D_1
340
0
  0
BLOCK_RECORD
  5
133
330
1
100
AcDbSymbolTableRecord
100
AcDbBlockTableRecord
  2
_D_2
340
0
  0
BLOCK_RECORD
  5
13F
330
1
100
AcDbSymbolTableRecord
100
AcDbBlockTableRecord
  2
_D_3
340
0
  0
BLOCK_RECORD
  5
14A
330
1
100
AcDbSymbolTableRecord
100
AcDbBlockTableRecord
  2
SW_CENTERMARKSYMBOL_0
340
0
102
{BLKREFS
331
155
102
}
  0
BLOCK_RECORD
  5
156
330
1
100
AcDbSymbolTableRecord
100
AcDbBlockTableRecord
  2
SW_CENTERMARKSYMBOL_1
340
0
102
{BLKREFS
331
161
102
}
  0
BLOCK_RECORD
  5
162
330
1
100
AcDbSymbolTableRecord
100
AcDbBlockTableRecord
  2
SW_CENTERMARKSYMBOL_2
340
0
102
{BLKREFS
331
16D
102
}
  0
BLOCK_RECORD
  5
180
330
1
100
AcDbSymbolTableRecord
100
AcDbBlockTableRecord
  2
_D_4
340
0
  0
BLOCK_RECORD
  5
191
330
1
100
AcDbSymbolTableRecord
100
AcDbBlockTableRecord
  2
_D_5
340
0
  0
BLOCK_RECORD
  5
19D
330
1
100
AcDbSymbolTableRecord
100
AcDbBlockTableRecord
  2
_D_6
340
0
  0
BLOCK_RECORD
  5
288
330
1
100
AcDbSymbolTableRecord
100
AcDbBlockTableRecord
  2
_D_7
340
0
  0
BLOCK_RECORD
  5
294
330
1
100
AcDbSymbolTableRecord
100
AcDbBlockTableRecord
  2
_D_8
340
0
  0
BLOCK_RECORD
  5
2A0
330
1
100
AcDbSymbolTableRecord
100
AcDbBlockTableRecord
  2
_D_9
340
0
  0
BLOCK_RECORD
  5
2AC
330
1
100
AcDbSymbolTableRecord
100
AcDbBlockTableRecord
  2
_D_10
340
0
  0
BLOCK_RECORD
  5
2B9
330
1
100
AcDbSymbolTableRecord
100
AcDbBlockTableRecord
  2
_D_11
340
0
  0
BLOCK_RECORD
  5
2C3
330
1
100
AcDbSymbolTableRecord
100
AcDbBlockTableRecord
  2
_D_12
340
0
  0
BLOCK_RECORD
  5
2CC
330
1
100
AcDbSymbolTableRecord
100
AcDbBlockTableRecord
  2
SW_CENTERMARKSYMBOL_3
340
0
102
{BLKREFS
331
2D7
102
}
  0
BLOCK_RECORD
  5
2D8
330
1
100
AcDbSymbolTableRecord
100
AcDbBlockTableRecord
  2
SW_CENTERMARKSYMBOL_4
340
0
102
{BLKREFS
331
2E3
102
}
  0
BLOCK_RECORD
  5
2E4
330
1
100
AcDbSymbolTableRecord
100
AcDbBlockTableRecord
  2
SW_CENTERMARKSYMBOL_5
340
0
102
{BLKREFS
331
2EF
102
}
  0
ENDTAB
  0
ENDSEC
  0
SECTION
  2
BLOCKS
  0
BLOCK
  5
20
330
1F
100
AcDbEntity
  8
0
100
AcDbBlockBegin
  2
*Model_Space
 70
     0
 10
0.0
 20
0.0
 30
0.0
  3
*Model_Space
  1

  0
ENDBLK
  5
21
330
1F
100
AcDbEntity
  8
0
100
AcDbBlockEnd
  0
BLOCK
  5
1C
330
1B
100
AcDbEntity
 67
     1
  8
0
100
AcDbBlockBegin
  2
*Paper_Space
 70
     0
 10
0.0
 20
0.0
 30
0.0
  3
*Paper_Space
  1

  0
ENDBLK
  5
1D
330
1B
100
AcDbEntity
 67
     1
  8
0
100
AcDbBlockEnd
  0
BLOCK
  5
24
330
23
100
AcDbEntity
  8
0
100
AcDbBlockBegin
  2
*Paper_Space0
 70
     0
 10
0.0
 20
0.0
 30
0.0
  3
*Paper_Space0
  1

  0
ENDBLK
  5
25
330
23
100
AcDbEntity
  8
0
100
AcDbBlockEnd
  0
BLOCK
  5
D0
330
CF
100
AcDbEntity
  8
0
100
AcDbBlockBegin
  2
SW_NOTE_0
 70
     0
 10
0.0
 20
0.0
 30
0.0
  3
SW_NOTE_0
  1

  0
MTEXT
  5
D2
330
CF
100
AcDbEntity
  8
0
  6
Continuous
 62
     0
370
     0
100
AcDbMText
 10
0.0
 20
1.9336016097
 30
0.0
 40
1.5
 41
0.0
 71
     1
 72
     1
  1
CASSER LES
  7
SLDTEXTSTYLE0
 73
     1
 44
1.0
  0
MTEXT
  5
D3
330
CF
100
AcDbEntity
  8
0
  6
Continuous
 62
     0
370
     0
100
AcDbMText
 10
0.0
 20
-0.5663983345
 30
0.0
 40
1.5
 41
0.0
 71
     1
 72
     1
  1
ANGLES VIFS
  7
SLDTEXTSTYLE0
 73
     1
 44
1.0
  0
ENDBLK
  5
D1
330
CF
100
AcDbEntity
  8
0
100
AcDbBlockEnd
  0
BLOCK
  5
E5
330
E4
100
AcDbEntity
  8
0
100
AcDbBlockBegin
  2
SW_NOTE_1
 70
     0
 10
0.0
 20
0.0
 30
0.0
  3
SW_NOTE_1
  1

  0
MTEXT
  5
E7
330
E4
100
AcDbEntity
  8
0
  6
Continuous
 62
     0
370
     0
100
AcDbMText
 10
0.0
 20
1.9336016097
 30
0.0
 40
1.5
 41
0.0
 71
     1
 72
     1
  1
SAUF INDICATION CONTRAIRE:
  7
SLDTEXTSTYLE0
 73
     1
 44
1.0
  0
MTEXT
  5
E8
330
E4
100
AcDbEntity
  8
0
  6
Continuous
 62
     0
370
     0
100
AcDbMText
 10
0.0
 20
-0.5663983345
 30
0.0
 40
1.5
 41
0.0
 71
     1
 72
     1
  1
LES COTES SONT EN MILLIMETRES
  7
SLDTEXTSTYLE0
 73
     1
 44
1.0
  0
MTEXT
  5
E9
330
E4
100
AcDbEntity
  8
0
  6
Continuous
 62
     0
370
     0
100
AcDbMText
 10
0.0
 20
-3.0663982786
 30
0.0
 40
1.5
 41
0.0
 71
     1
 72
     1
  1
ETAT DE SURFACE:
  7
SLDTEXTSTYLE0
 73
     1
 44
1.0
  0
MTEXT
  5
EA
330
E4
100
AcDbEntity
  8
0
  6
Continuous
 62
     0
370
     0
100
AcDbMText
 10
0.0
 20
-5.5663982227
 30
0.0
 40
1.5
 41
0.0
 71
     1
 72
     1
  1
TOLERANCES:
  7
SLDTEXTSTYLE0
 73
     1
 44
1.0
  0
MTEXT
  5
EB
330
E4
100
AcDbEntity
  8
0
  6
Continuous
 62
     0
370
     0
100
AcDbMText
 10
1.6875
 20
-8.0663981668
 30
0.0
 40
1.5
 41
0.0
 71
     1
 72
     1
  1
LINEAIRES:
  7
SLDTEXTSTYLE0
 73
     1
 44
1.0
  0
MTEXT
  5
EC
330
E4
100
AcDbEntity
  8
0
  6
Continuous
 62
     0
370
     0
100
AcDbMText
 10
1.6875
 20
-10.5663981109
 30
0.0
 40
1.5
 41
0.0
 71
     1
 72
     1
  1
ANGULAIRES:
  7
SLDTEXTSTYLE0
 73
     1
 44
1.0
  0
ENDBLK
  5
E6
330
E4
100
AcDbEntity
  8
0
100
AcDbBlockEnd
  0
BLOCK
  5
117
330
116
100
AcDbEntity
  8
0
100
AcDbBlockBegin
  2
_D
 70
     0
 10
0.0
 20
0.0
 30
0.0
  3
_D
  1

  0
SOLID
  5
119
330
116
100
AcDbEntity
  8
0
  6
Continuous
 62
     7
370
    18
100
AcDbTrace
 10
160.6139340403
 20
198.3333216105
 30
0.0
 11
161.1219340403
 21
201.6353216105
 31
0.0
 12
160.1059340403
 22
201.6353216105
 32
0.0
 13
160.1059340403
 23
201.6353216105
 33
0.0
  0
SOLID
  5
11A
330
116
100
AcDbEntity
  8
0
  6
Continuous
 62
     7
370
    18
100
AcDbTrace
 10
160.6139340403
 20
143.3333216105
 30
0.0
 11
160.1059340403
 21
140.0313216105
 31
0.0
 12
161.1219340403
 22
140.0313216105
 32
0.0
 13
161.1219340403
 23
140.0313216105
 33
0.0
  0
LINE
  5
11B
330
116
100
AcDbEntity
  8
0
  6
Continuous
 62
     7
370
    18
100
AcDbLine
 10
132.8969491317
 20
198.3333216105
 30
0.0
 11
161.6139340403
 21
198.3333216105
 31
0.0
  0
LINE
  5
11C
330
116
100
AcDbEntity
  8
0
  6
Continuous
 62
     7
370
    18
100
AcDbLine
 10
132.8969491317
 20
143.3333216105
 30
0.0
 11
161.6139340403
 21
143.3333216105
 31
0.0
  0
LINE
  5
11D
330
116
100
AcDbEntity
  8
0
  6
Continuous
 62
     7
370
    18
100
AcDbLine
 10
160.6139340403
 20
198.3333216105
 30
0.0
 11
160.6139340403
 21
204.6833216105
 31
0.0
  0
LINE
  5
11E
330
116
100
AcDbEntity
  8
0
  6
Continuous
 62
     7
370
    18
100
AcDbLine
 10
160.6139340403
 20
198.3333216105
 30
0.0
 11
160.6139340403
 21
143.3333216105
 31
0.0
  0
LINE
  5
11F
330
116
100
AcDbEntity
  8
0
  6
Continuous
 62
     7
370
    18
100
AcDbLine
 10
160.6139340403
 20
143.3333216105
 30
0.0
 11
160.6139340403
 21
136.9833216105
 31
0.0
  0
MTEXT
  5
120
330
116
100
AcDbEntity
  8
0
  6
Continuous
 62
     7
370
    18
100
AcDbMText
 10
156.0487247744
 20
159.2058380772
 30
0.0
 40
3.5
 41
0.0
 71
     1
 72
     1
  1
55
  7
SLDTEXTSTYLE0
 11
-7.044195017643634E-15
 21
1.0
 31
0.0
 73
     1
 44
1.0
  0
MTEXT
  5
121
330
116
100
AcDbEntity
  8
0
  6
Continuous
 62
     7
370
    18
100
AcDbMText
 10
156.0487247744
 20
165.6905604642
 30
0.0
 40
3.5
 41
0.0
 71
     1
 72
     1
  1
g6
  7
SLDTEXTSTYLE0
 11
-7.044195017643634E-15
 21
1.0
 31
0.0
 73
     1
 44
1.0
  0
MTEXT
  5
122
330
116
100
AcDbEntity
  8
0
  6
Continuous
 62
     7
370
    18
100
AcDbMText
 10
151.5765024206
 20
172.6905600805
 30
0.0
 40
3.5
 41
0.0
 71
     1
 72
     1
  1
-
  7
SLDTEXTSTYLE0
 11
-7.044195017643634E-15
 21
1.0
 31
0.0
 73
     1
 44
1.0
  0
MTEXT
  5
123
330
116
100
AcDbEntity
  8
0
  6
Continuous
 62
     7
370
    18
100
AcDbMText
 10
156.1021969511
 20
172.6905600805
 30
0.0
 40
3.5
 41
0.0
 71
     1
 72
     1
  1
-
  7
SLDTEXTSTYLE0
 11
-7.044195017643634E-15
 21
1.0
 31
0.0
 73
     1
 44
1.0
  0
MTEXT
  5
124
330
116
100
AcDbEntity
  8
0
  6
Continuous
 62
     7
370
    18
100
AcDbMText
 10
151.5765024206
 20
174.2412550081
 30
0.0
 40
3.5
 41
0.0
 71
     1
 72
     1
  1
0,01
  7
SLDTEXTSTYLE0
 11
-7.044195017643634E-15
 21
1.0
 31
0.0
 73
     1
 44
1.0
  0
MTEXT
  5
125
330
116
100
AcDbEntity
  8
0
  6
Continuous
 62
     7
370
    18
100
AcDbMText
 10
156.1021969511
 20
174.2412550081
 30
0.0
 40
3.5
 41
0.0
 71
     1
 72
     1
  1
0,03
  7
SLDTEXTSTYLE0
 11
-7.044195017643634E-15
 21
1.0
 31
0.0
 73
     1
 44
1.0
  0
ENDBLK
  5
118
330
116
100
AcDbEntity
  8
0
100
AcDbBlockEnd
  0
BLOCK
  5
129
330
128
100
AcDbEntity
  8
0
100
AcDbBlockBegin
  2
_D_1
 70
     0
 10
0.0
 20
0.0
 30
0.0
  3
_D_1
  1

  0
SOLID
  5
12B
330
128
100
AcDbEntity
  8
0
  6
Continuous
 62
     7
370
    18
100
AcDbTrace
 10
134.8969491317
 20
213.8333216105
 30
0.0
 11
131.5949491317
 21
214.3413216105
 31
0.0
 12
131.5949491317
 22
213.3253216105
 32
0.0
 13
131.5949491317
 23
213.3253216105
 33
0.0
  0
SOLID
  5
12C
330
128
100
AcDbEntity
  8
0
  6
Continuous
 62
     7
370
    18
100
AcDbTrace
 10
112.6304257449
 20
213.8333216105
 30
0.0
 11
115.9324257449
 21
213.3253216105
 31
0.0
 12
115.9324257449
 22
214.3413216105
 32
0.0
 13
115.9324257449
 23
214.3413216105
 33
0.0
  0
LINE
  5
12D
330
128
100
AcDbEntity
  8
0
  6
Continuous
 62
     7
370
    18
100
AcDbLine
 10
134.8969491317
 20
196.3333216105
 30
0.0
 11
134.8969491317
 21
214.8333216105
 31
0.0
  0
LINE
  5
12E
330
128
100
AcDbEntity
  8
0
  6
Continuous
 62
     7
370
    18
100
AcDbLine
 10
112.6304257449
 20
202.8333216105
 30
0.0
 11
112.6304257449
 21
214.8333216105
 31
0.0
  0
LINE
  5
12F
330
128
100
AcDbEntity
  8
0
  6
Continuous
 62
     7
370
    18
100
AcDbLine
 10
134.8969491317
 20
213.8333216105
 30
0.0
 11
112.6304257449
 21
213.8333216105
 31
0.0
  0
MTEXT
  5
130
330
128
100
AcDbEntity
  8
0
  6
Continuous
 62
     7
370
    18
100
AcDbMText
 10
117.3118468433
 20
218.3450585251
 30
0.0
 40
3.5
 41
0.0
 71
     1
 72
     1
  1
22,3
  7
SLDTEXTSTYLE0
 73
     1
 44
1.0
  0
ENDBLK
  5
12A
330
128
100
AcDbEntity
  8
0
100
AcDbBlockEnd
  0
BLOCK
  5
134
330
133
100
AcDbEntity
  8
0
100
AcDbBlockBegin
  2
_D_2
 70
     0
 10
0.0
 20
0.0
 30
0.0
  3
_D_2
  1

  0
SOLID
  5
136
330
133
100
AcDbEntity
  8
0
  6
Continuous
 62
     7
370
    18
100
AcDbTrace
 10
134.8969491317
 20
231.8333216105
 30
0.0
 11
138.1989491317
 21
231.3253216105
 31
0.0
 12
138.1989491317
 22
232.3413216105
 32
0.0
 13
138.1989491317
 23
232.3413216105
 33
0.0
  0
SOLID
  5
137
330
133
100
AcDbEntity
  8
0
  6
Continuous
 62
     7
370
    18
100
AcDbTrace
 10
95.3431456933
 20
231.8333216105
 30
0.0
 11
92.0411456933
 21
232.3413216105
 31
0.0
 12
92.0411456933
 22
231.3253216105
 32
0.0
 13
92.0411456933
 23
231.3253216105
 33
0.0
  0
LINE
  5
138
330
133
100
AcDbEntity
  8
0
  6
Continuous
 62
     7
370
    18
100
AcDbLine
 10
134.8969491317
 20
196.3333216105
 30
0.0
 11
134.8969491317
 21
232.8333216105
 31
0.0
  0
LINE
  5
139
330
133
100
AcDbEntity
  8
0
  6
Continuous
 62
     7
370
    18
100
AcDbLine
 10
95.3431456933
 20
198.8176350938
 30
0.0
 11
95.3431456933
 21
232.8333216105
 31
0.0
  0
LINE
  5
13A
330
133
100
AcDbEntity
  8
0
  6
Continuous
 62
     7
370
    18
100
AcDbLine
 10
134.8969491317
 20
231.8333216105
 30
0.0
 11
141.2469491317
 21
231.8333216105
 31
0.0
  0
LINE
  5
13B
330
133
100
AcDbEntity
  8
0
  6
Continuous
 62
     7
370
    18
100
AcDbLine
 10
134.8969491317
 20
231.8333216105
 30
0.0
 11
95.3431456933
 21
231.8333216105
 31
0.0
  0
LINE
  5
13C
330
133
100
AcDbEntity
  8
0
  6
Continuous
 62
     7
370
    18
100
AcDbLine
 10
95.3431456933
 20
231.8333216105
 30
0.0
 11
88.9931456933
 21
231.8333216105
 31
0.0
  0
MTEXT
  5
13D
330
133
100
AcDbEntity
  8
0
  6
Continuous
 62
     7
370
    18
100
AcDbMText
 10
110.6580859746
 20
236.3450585251
 30
0.0
 40
3.5
 41
0.0
 71
     1
 72
     1
  1
39,55
  7
SLDTEXTSTYLE0
 73
     1
 44
1.0
  0
ENDBLK
  5
135
330
133
100
AcDbEntity
  8
0
100
AcDbBlockEnd
  0
BLOCK
  5
140
330
13F
100
AcDbEntity
  8
0
100
AcDbBlockBegin
  2
_D_3
 70
     0
 10
0.0
 20
0.0
 30
0.0
  3
_D_3
  1

  0
SOLID
  5
142
330
13F
100
AcDbEntity
  8
0
  6
Continuous
 62
     7
370
    18
100
AcDbTrace
 10
47.74775506
 20
203.8333216105
 30
0.0
 11
48.25575506
 21
207.1353216105
 31
0.0
 12
47.23975506
 22
207.1353216105
 32
0.0
 13
47.23975506
 23
207.1353216105
 33
0.0
  0
SOLID
  5
143
330
13F
100
AcDbEntity
  8
0
  6
Continuous
 62
     7
370
    18
100
AcDbTrace
 10
47.74775506
 20
143.3333216105
 30
0.0
 11
47.23975506
 21
140.0313216105
 31
0.0
 12
48.25575506
 22
140.0313216105
 32
0.0
 13
48.25575506
 23
140.0313216105
 33
0.0
  0
LINE
  5
144
330
13F
100
AcDbEntity
  8
0
  6
Continuous
 62
     7
370
    18
100
AcDbLine
 10
102.0931456933
 20
203.8333216105
 30
0.0
 11
46.74775506
 21
203.8333216105
 31
0.0
  0
LINE
  5
145
330
13F
100
AcDbEntity
  8
0
  6
Continuous
 62
     7
370
    18
100
AcDbLine
 10
94.3431456933
 20
143.3333216105
 30
0.0
 11
46.74775506
 21
143.3333216105
 31
0.0
  0
LINE
  5
146
330
13F
100
AcDbEntity
  8
0
  6
Continuous
 62
     7
370
    18
100
AcDbLine
 10
47.74775506
 20
203.8333216105
 30
0.0
 11
47.74775506
 21
210.1833216105
 31
0.0
  0
LINE
  5
147
330
13F
100
AcDbEntity
  8
0
  6
Continuous
 62
     7
370
    18
100
AcDbLine
 10
47.74775506
 20
203.8333216105
 30
0.0
 11
47.74775506
 21
143.3333216105
 31
0.0
  0
LINE
  5
148
330
13F
100
AcDbEntity
  8
0
  6
Continuous
 62
     7
370
    18
100
AcDbLine
 10
47.74775506
 20
143.3333216105
 30
0.0
 11
47.74775506
 21
136.9833216105
 31
0.0
  0
MTEXT
  5
149
330
13F
100
AcDbEntity
  8
0
  6
Continuous
 62
     7
370
    18
100
AcDbMText
 10
43.2360181455
 20
171.0759997329
 30
0.0
 40
3.5
 41
0.0
 71
     1
 72
     1
  1
60,50
  7
SLDTEXTSTYLE0
 11
-7.044195017643634E-15
 21
1.0
 31
0.0
 73
     1
 44
1.0
  0
ENDBLK
  5
141
330
13F
100
AcDbEntity
  8
0
100
AcDbBlockEnd
  0
BLOCK
  5
14B
330
14A
100
AcDbEntity
  8
0
100
AcDbBlockBegin
  2
SW_CENTERMARKSYMBOL_0
 70
     0
 10
0.0
 20
0.0
 30
0.0
  3
SW_CENTERMARKSYMBOL_0
  1

  0
LINE
  5
14D
330
14A
100
AcDbEntity
  8
0
  6
Continuous
 62
     0
370
     0
100
AcDbLine
 10
0.0
 20
0.0
 30
0.0
 11
0.0
 21
2.5
 31
0.0
  0
LINE
  5
14E
330
14A
100
AcDbEntity
  8
0
  6
Continuous
 62
     0
370
     0
100
AcDbLine
 10
0.0
 20
0.0
 30
0.0
 11
-2.5
 21
0.0
 31
0.0
  0
LINE
  5
14F
330
14A
100
AcDbEntity
  8
0
  6
Continuous
 62
     0
370
     0
100
AcDbLine
 10
0.0
 20
0.0
 30
0.0
 11
0.0
 21
-2.5
 31
0.0
  0
LINE
  5
150
330
14A
100
AcDbEntity
  8
0
  6
Continuous
 62
     0
370
     0
100
AcDbLine
 10
0.0
 20
0.0
 30
0.0
 11
2.5
 21
0.0
 31
0.0
  0
LINE
  5
151
330
14A
100
AcDbEntity
  8
0
  6
Continuous
 62
     0
370
     0
100
AcDbLine
 10
0.0
 20
2.5
 30
0.0
 11
0.0
 21
5.0
 31
0.0
  0
LINE
  5
152
330
14A
100
AcDbEntity
  8
0
  6
Continuous
 62
     0
370
     0
100
AcDbLine
 10
-2.5
 20
0.0
 30
0.0
 11
-5.0
 21
0.0
 31
0.0
  0
LINE
  5
153
330
14A
100
AcDbEntity
  8
0
  6
Continuous
 62
     0
370
     0
100
AcDbLine
 10
0.0
 20
-2.5
 30
0.0
 11
0.0
 21
-5.0
 31
0.0
  0
LINE
  5
154
330
14A
100
AcDbEntity
  8
0
  6
Continuous
 62
     0
370
     0
100
AcDbLine
 10
2.5
 20
0.0
 30
0.0
 11
5.0
 21
0.0
 31
0.0
  0
ENDBLK
  5
14C
330
14A
100
AcDbEntity
  8
0
100
AcDbBlockEnd
  0
BLOCK
  5
157
330
156
100
AcDbEntity
  8
0
100
AcDbBlockBegin
  2
SW_CENTERMARKSYMBOL_1
 70
     0
 10
0.0
 20
0.0
 30
0.0
  3
SW_CENTERMARKSYMBOL_1
  1

  0
LINE
  5
159
330
156
100
AcDbEntity
  8
0
  6
Continuous
 62
     0
370
     0
100
AcDbLine
 10
0.0
 20
0.0
 30
0.0
 11
0.0
 21
2.5
 31
0.0
  0
LINE
  5
15A
330
156
100
AcDbEntity
  8
0
  6
Continuous
 62
     0
370
     0
100
AcDbLine
 10
0.0
 20
0.0
 30
0.0
 11
-2.5
 21
0.0
 31
0.0
  0
LINE
  5
15B
330
156
100
AcDbEntity
  8
0
  6
Continuous
 62
     0
370
     0
100
AcDbLine
 10
0.0
 20
0.0
 30
0.0
 11
0.0
 21
-2.5
 31
0.0
  0
LINE
  5
15C
330
156
100
AcDbEntity
  8
0
  6
Continuous
 62
     0
370
     0
100
AcDbLine
 10
0.0
 20
0.0
 30
0.0
 11
2.5
 21
0.0
 31
0.0
  0
LINE
  5
15D
330
156
100
AcDbEntity
  8
0
  6
Continuous
 62
     0
370
     0
100
AcDbLine
 10
0.0
 20
2.5
 30
0.0
 11
0.0
 21
5.0
 31
0.0
  0
LINE
  5
15E
330
156
100
AcDbEntity
  8
0
  6
Continuous
 62
     0
370
     0
100
AcDbLine
 10
-2.5
 20
0.0
 30
0.0
 11
-5.0
 21
0.0
 31
0.0
  0
LINE
  5
15F
330
156
100
AcDbEntity
  8
0
  6
Continuous
 62
     0
370
     0
100
AcDbLine
 10
0.0
 20
-2.5
 30
0.0
 11
0.0
 21
-5.0
 31
0.0
  0
LINE
  5
160
330
156
100
AcDbEntity
  8
0
  6
Continuous
 62
     0
370
     0
100
AcDbLine
 10
2.5
 20
0.0
 30
0.0
 11
5.0
 21
0.0
 31
0.0
  0
ENDBLK
  5
158
330
156
100
AcDbEntity
  8
0
100
AcDbBlockEnd
  0
BLOCK
  5
163
330
162
100
AcDbEntity
  8
0
100
AcDbBlockBegin
  2
SW_CENTERMARKSYMBOL_2
 70
     0
 10
0.0
 20
0.0
 30
0.0
  3
SW_CENTERMARKSYMBOL_2
  1

  0
LINE
  5
165
330
162
100
AcDbEntity
  8
0
  6
Continuous
 62
     0
370
     0
100
AcDbLine
 10
0.0
 20
0.0
 30
0.0
 11
0.0
 21
2.5
 31
0.0
  0
LINE
  5
166
330
162
100
AcDbEntity
  8
0
  6
Continuous
 62
     0
370
     0
100
AcDbLine
 10
0.0
 20
0.0
 30
0.0
 11
-2.5
 21
0.0
 31
0.0
  0
LINE
  5
167
330
162
100
AcDbEntity
  8
0
  6
Continuous
 62
     0
370
     0
100
AcDbLine
 10
0.0
 20
0.0
 30
0.0
 11
0.0
 21
-2.5
 31
0.0
  0
LINE
  5
168
330
162
100
AcDbEntity
  8
0
  6
Continuous
 62
     0
370
     0
100
AcDbLine
 10
0.0
 20
0.0
 30
0.0
 11
2.5
 21
0.0
 31
0.0
  0
LINE
  5
169
330
162
100
AcDbEntity
  8
0
  6
Continuous
 62
     0
370
     0
100
AcDbLine
 10
0.0
 20
2.5
 30
0.0
 11
0.0
 21
5.0
 31
0.0
  0
LINE
  5
16A
330
162
100
AcDbEntity
  8
0
  6
Continuous
 62
     0
370
     0
100
AcDbLine
 10
-2.5
 20
0.0
 30
0.0
 11
-5.0
 21
0.0
 31
0.0
  0
LINE
  5
16B
330
162
100
AcDbEntity
  8
0
  6
Continuous
 62
     0
370
     0
100
AcDbLine
 10
0.0
 20
-2.5
 30
0.0
 11
0.0
 21
-5.0
 31
0.0
  0
LINE
  5
16C
330
162
100
AcDbEntity
  8
0
  6
Continuous
 62
     0
370
     0
100
AcDbLine
 10
2.5
 20
0.0
 30
0.0
 11
5.0
 21
0.0
 31
0.0
  0
ENDBLK
  5
164
330
162
100
AcDbEntity
  8
0
100
AcDbBlockEnd
  0
BLOCK
  5
181
330
180
100
AcDbEntity
  8
0
100
AcDbBlockBegin
  2
_D_4
 70
     0
 10
0.0
 20
0.0
 30
0.0
  3
_D_4
  1

  0
SOLID
  5
183
330
180
100
AcDbEntity
  8
0
  6
Continuous
 62
     7
370
    18
100
AcDbTrace
 10
202.0931610577
 20
231.8333216105
 30
0.0
 11
198.7911610577
 21
232.3413216105
 31
0.0
 12
198.7911610577
 22
231.3253216105
 32
0.0
 13
198.7911610577
 23
231.3253216105
 33
0.0
  0
SOLID
  5
184
330
180
100
AcDbEntity
  8
0
  6
Continuous
 62
     7
370
    18
100
AcDbTrace
 10
225.5931610577
 20
231.8333216105
 30
0.0
 11
228.8951610577
 21
231.3253216105
 31
0.0
 12
228.8951610577
 22
232.3413216105
 32
0.0
 13
228.8951610577
 23
232.3413216105
 33
0.0
  0
LINE
  5
185
330
180
100
AcDbEntity
  8
0
  6
Continuous
 62
     7
370
    18
100
AcDbLine
 10
202.0931610577
 20
198.8176350938
 30
0.0
 11
202.0931610577
 21
232.8333216105
 31
0.0
  0
LINE
  5
186
330
180
100
AcDbEntity
  8
0
  6
Continuous
 62
     7
370
    18
100
AcDbLine
 10
225.5931610577
 20
198.8176350938
 30
0.0
 11
225.5931610577
 21
232.8333216105
 31
0.0
  0
LINE
  5
187
330
180
100
AcDbEntity
  8
0
  6
Continuous
 62
     7
370
    18
100
AcDbLine
 10
202.0931610577
 20
231.8333216105
 30
0.0
 11
195.7431610577
 21
231.8333216105
 31
0.0
  0
LINE
  5
188
330
180
100
AcDbEntity
  8
0
  6
Continuous
 62
     7
370
    18
100
AcDbLine
 10
202.0931610577
 20
231.8333216105
 30
0.0
 11
225.5931610577
 21
231.8333216105
 31
0.0
  0
LINE
  5
189
330
180
100
AcDbEntity
  8
0
  6
Continuous
 62
     7
370
    18
100
AcDbLine
 10
225.5931610577
 20
231.8333216105
 30
0.0
 11
268.8792038022
 21
231.8333216105
 31
0.0
  0
MTEXT
  5
18A
330
180
100
AcDbEntity
  8
0
  6
Continuous
 62
     7
370
    18
100
AcDbMText
 10
238.3271183132
 20
236.3985308764
 30
0.0
 40
3.5
 41
0.0
 71
     1
 72
     1
  1
23,50
  7
SLDTEXTSTYLE0
 73
     1
 44
1.0
  0
MTEXT
  5
18B
330
180
100
AcDbEntity
  8
0
  6
Continuous
 62
     7
370
    18
100
AcDbMText
 10
251.2771188004
 20
236.3985308764
 30
0.0
 40
3.5
 41
0.0
 71
     1
 72
     1
  1
g6
  7
SLDTEXTSTYLE0
 73
     1
 44
1.0
  0
MTEXT
  5
18C
330
180
100
AcDbEntity
  8
0
  6
Continuous
 62
     7
370
    18
100
AcDbMText
 10
258.2771188824
 20
240.8707532302
 30
0.0
 40
3.5
 41
0.0
 71
     1
 72
     1
  1
-
  7
SLDTEXTSTYLE0
 73
     1
 44
1.0
  0
MTEXT
  5
18D
330
180
100
AcDbEntity
  8
0
  6
Continuous
 62
     7
370
    18
100
AcDbMText
 10
258.2771188824
 20
236.3450586997
 30
0.0
 40
3.5
 41
0.0
 71
     1
 72
     1
  1
-
  7
SLDTEXTSTYLE0
 73
     1
 44
1.0
  0
MTEXT
  5
18E
330
180
100
AcDbEntity
  8
0
  6
Continuous
 62
     7
370
    18
100
AcDbMText
 10
259.82781381
 20
240.8707532302
 30
0.0
 40
3.5
 41
0.0
 71
     1
 72
     1
  1
0,01
  7
SLDTEXTSTYLE0
 73
     1
 44
1.0
  0
MTEXT
  5
18F
330
180
100
AcDbEntity
  8
0
  6
Continuous
 62
     7
370
    18
100
AcDbMText
 10
259.82781381
 20
236.3450586997
 30
0.0
 40
3.5
 41
0.0
 71
     1
 72
     1
  1
0,02
  7
SLDTEXTSTYLE0
 73
     1
 44
1.0
  0
ENDBLK
  5
182
330
180
100
AcDbEntity
  8
0
100
AcDbBlockEnd
  0
BLOCK
  5
192
330
191
100
AcDbEntity
  8
0
100
AcDbBlockBegin
  2
_D_5
 70
     0
 10
0.0
 20
0.0
 30
0.0
  3
_D_5
  1

  0
SOLID
  5
194
330
191
100
AcDbEntity
  8
0
  6
Continuous
 62
     7
370
    18
100
AcDbTrace
 10
208.0931610577
 20
215.6626012755
 30
0.0
 11
211.3951610577
 21
215.1546012755
 31
0.0
 12
211.3951610577
 22
216.1706012755
 32
0.0
 13
211.3951610577
 23
216.1706012755
 33
0.0
  0
SOLID
  5
195
330
191
100
AcDbEntity
  8
0
  6
Continuous
 62
     7
370
    18
100
AcDbTrace
 10
202.0931610577
 20
215.6626012755
 30
0.0
 11
198.7911610577
 21
216.1706012755
 31
0.0
 12
198.7911610577
 22
215.1546012755
 32
0.0
 13
198.7911610577
 23
215.1546012755
 33
0.0
  0
LINE
  5
196
330
191
100
AcDbEntity
  8
0
  6
Continuous
 62
     7
370
    18
100
AcDbLine
 10
208.0931610577
 20
198.8176350938
 30
0.0
 11
208.0931610577
 21
216.6626012755
 31
0.0
  0
LINE
  5
197
330
191
100
AcDbEntity
  8
0
  6
Continuous
 62
     7
370
    18
100
AcDbLine
 10
202.0931610577
 20
198.8176350938
 30
0.0
 11
202.0931610577
 21
216.6626012755
 31
0.0
  0
LINE
  5
198
330
191
100
AcDbEntity
  8
0
  6
Continuous
 62
     7
370
    18
100
AcDbLine
 10
208.0931610577
 20
215.6626012755
 30
0.0
 11
214.4431610577
 21
215.6626012755
 31
0.0
  0
LINE
  5
199
330
191
100
AcDbEntity
  8
0
  6
Continuous
 62
     7
370
    18
100
AcDbLine
 10
208.0931610577
 20
215.6626012755
 30
0.0
 11
202.0931610577
 21
215.6626012755
 31
0.0
  0
LINE
  5
19A
330
191
100
AcDbEntity
  8
0
  6
Continuous
 62
     7
370
    18
100
AcDbLine
 10
202.0931610577
 20
215.6626012755
 30
0.0
 11
186.9161745725
 21
215.6626012755
 31
0.0
  0
MTEXT
  5
19B
330
191
100
AcDbEntity
  8
0
  6
Continuous
 62
     7
370
    18
100
AcDbMText
 10
186.9161745725
 20
220.17433819
 30
0.0
 40
3.5
 41
0.0
 71
     1
 72
     1
  1
6
  7
SLDTEXTSTYLE0
 73
     1
 44
1.0
  0
ENDBLK
  5
193
330
191
100
AcDbEntity
  8
0
100
AcDbBlockEnd
  0
BLOCK
  5
19E
330
19D
100
AcDbEntity
  8
0
100
AcDbBlockBegin
  2
_D_6
 70
     0
 10
0.0
 20
0.0
 30
0.0
  3
_D_6
  1

  0
SOLID
  5
1A0
330
19D
100
AcDbEntity
  8
0
  6
Continuous
 62
     7
370
    18
100
AcDbTrace
 10
208.0931610577
 20
215.6626012755
 30
0.0
 11
204.7911610577
 21
216.1706012755
 31
0.0
 12
204.7911610577
 22
215.1546012755
 32
0.0
 13
204.7911610577
 23
215.1546012755
 33
0.0
  0
SOLID
  5
1A1
330
19D
100
AcDbEntity
  8
0
  6
Continuous
 62
     7
370
    18
100
AcDbTrace
 10
219.5931610577
 20
215.6626012755
 30
0.0
 11
222.8951610577
 21
215.1546012755
 31
0.0
 12
222.8951610577
 22
216.1706012755
 32
0.0
 13
222.8951610577
 23
216.1706012755
 33
0.0
  0
LINE
  5
1A2
330
19D
100
AcDbEntity
  8
0
  6
Continuous
 62
     7
370
    18
100
AcDbLine
 10
208.0931610577
 20
198.8176350938
 30
0.0
 11
208.0931610577
 21
216.6626012755
 31
0.0
  0
LINE
  5
1A3
330
19D
100
AcDbEntity
  8
0
  6
Continuous
 62
     7
370
    18
100
AcDbLine
 10
219.5931610577
 20
198.8176350938
 30
0.0
 11
219.5931610577
 21
216.6626012755
 31
0.0
  0
LINE
  5
1A4
330
19D
100
AcDbEntity
  8
0
  6
Continuous
 62
     7
370
    18
100
AcDbLine
 10
208.0931610577
 20
215.6626012755
 30
0.0
 11
201.7431610577
 21
215.6626012755
 31
0.0
  0
LINE
  5
1A5
330
19D
100
AcDbEntity
  8
0
  6
Continuous
 62
     7
370
    18
100
AcDbLine
 10
208.0931610577
 20
215.6626012755
 30
0.0
 11
219.5931610577
 21
215.6626012755
 31
0.0
  0
LINE
  5
1A6
330
19D
100
AcDbEntity
  8
0
  6
Continuous
 62
     7
370
    18
100
AcDbLine
 10
219.5931610577
 20
215.6626012755
 30
0.0
 11
225.9431610577
 21
215.6626012755
 31
0.0
  0
MTEXT
  5
1A7
330
19D
100
AcDbEntity
  8
0
  6
Continuous
 62
     7
370
    18
100
AcDbMText
 10
207.7997643884
 20
220.17433819
 30
0.0
 40
3.5
 41
0.0
 71
     1
 72
     1
  1
11,50
  7
SLDTEXTSTYLE0
 73
     1
 44
1.0
  0
ENDBLK
  5
19F
330
19D
100
AcDbEntity
  8
0
100
AcDbBlockEnd
  0
BLOCK
  5
289
330
288
100
AcDbEntity
  8
0
100
AcDbBlockBegin
  2
_D_7
 70
     0
 10
0.0
 20
0.0
 30
0.0
  3
_D_7
  1

  0
SOLID
  5
28B
330
288
100
AcDbEntity
  8
0
  6
Continuous
 62
     7
370
    18
100
AcDbTrace
 10
281.2499985357
 20
127.3333216105
 30
0.0
 11
277.9479985357
 21
127.8413216105
 31
0.0
 12
277.9479985357
 22
126.8253216105
 32
0.0
 13
277.9479985357
 23
126.8253216105
 33
0.0
  0
SOLID
  5
28C
330
288
100
AcDbEntity
  8
0
  6
Continuous
 62
     7
370
    18
100
AcDbTrace
 10
291.2499985357
 20
127.3333216105
 30
0.0
 11
294.5519985357
 21
126.8253216105
 31
0.0
 12
294.5519985357
 22
127.8413216105
 32
0.0
 13
294.5519985357
 23
127.8413216105
 33
0.0
  0
LINE
  5
28D
330
288
100
AcDbEntity
  8
0
  6
Continuous
 62
     7
370
    18
100
AcDbLine
 10
281.2499985357
 20
145.3333216105
 30
0.0
 11
281.2499985357
 21
126.3333216105
 31
0.0
  0
LINE
  5
28E
330
288
100
AcDbEntity
  8
0
  6
Continuous
 62
     7
370
    18
100
AcDbLine
 10
291.2499985357
 20
149.8333216105
 30
0.0
 11
291.2499985357
 21
126.3333216105
 31
0.0
  0
LINE
  5
28F
330
288
100
AcDbEntity
  8
0
  6
Continuous
 62
     7
370
    18
100
AcDbLine
 10
281.2499985357
 20
127.3333216105
 30
0.0
 11
266.3066302973
 21
127.3333216105
 31
0.0
  0
LINE
  5
290
330
288
100
AcDbEntity
  8
0
  6
Continuous
 62
     7
370
    18
100
AcDbLine
 10
281.2499985357
 20
127.3333216105
 30
0.0
 11
291.2499985357
 21
127.3333216105
 31
0.0
  0
LINE
  5
291
330
288
100
AcDbEntity
  8
0
  6
Continuous
 62
     7
370
    18
100
AcDbLine
 10
291.2499985357
 20
127.3333216105
 30
0.0
 11
297.5999985357
 21
127.3333216105
 31
0.0
  0
MTEXT
  5
292
330
288
100
AcDbEntity
  8
0
  6
Continuous
 62
     7
370
    18
100
AcDbMText
 10
266.3066302973
 20
131.8450585251
 30
0.0
 40
3.5
 41
0.0
 71
     1
 72
     1
  1
10
  7
SLDTEXTSTYLE0
 73
     1
 44
1.0
  0
ENDBLK
  5
28A
330
288
100
AcDbEntity
  8
0
100
AcDbBlockEnd
  0
BLOCK
  5
295
330
294
100
AcDbEntity
  8
0
100
AcDbBlockBegin
  2
_D_8
 70
     0
 10
0.0
 20
0.0
 30
0.0
  3
_D_8
  1

  0
SOLID
  5
297
330
294
100
AcDbEntity
  8
0
  6
Continuous
 62
     7
370
    18
100
AcDbTrace
 10
268.8927414908
 20
143.3333216105
 30
0.0
 11
268.3847414908
 21
140.0313216105
 31
0.0
 12
269.4007414908
 22
140.0313216105
 32
0.0
 13
269.4007414908
 23
140.0313216105
 33
0.0
  0
SOLID
  5
298
330
294
100
AcDbEntity
  8
0
  6
Continuous
 62
     7
370
    18
100
AcDbTrace
 10
268.8927414908
 20
155.8333216105
 30
0.0
 11
269.4007414908
 21
159.1353216105
 31
0.0
 12
268.3847414908
 22
159.1353216105
 32
0.0
 13
268.3847414908
 23
159.1353216105
 33
0.0
  0
LINE
  5
299
330
294
100
AcDbEntity
  8
0
  6
Continuous
 62
     7
370
    18
100
AcDbLine
 10
283.2499985357
 20
143.3333216105
 30
0.0
 11
267.8927414908
 21
143.3333216105
 31
0.0
  0
LINE
  5
29A
330
294
100
AcDbEntity
  8
0
  6
Continuous
 62
     7
370
    18
100
AcDbLine
 10
285.2499985357
 20
155.8333216105
 30
0.0
 11
267.8927414908
 21
155.8333216105
 31
0.0
  0
LINE
  5
29B
330
294
100
AcDbEntity
  8
0
  6
Continuous
 62
     7
370
    18
100
AcDbLine
 10
268.8927414908
 20
143.3333216105
 30
0.0
 11
268.8927414908
 21
136.9833216105
 31
0.0
  0
LINE
  5
29C
330
294
100
AcDbEntity
  8
0
  6
Continuous
 62
     7
370
    18
100
AcDbLine
 10
268.8927414908
 20
143.3333216105
 30
0.0
 11
268.8927414908
 21
155.8333216105
 31
0.0
  0
LINE
  5
29D
330
294
100
AcDbEntity
  8
0
  6
Continuous
 62
     7
370
    18
100
AcDbLine
 10
268.8927414908
 20
155.8333216105
 30
0.0
 11
268.8927414908
 21
162.1833216105
 31
0.0
  0
MTEXT
  5
29E
330
294
100
AcDbEntity
  8
0
  6
Continuous
 62
     7
370
    18
100
AcDbMText
 10
264.3810045763
 20
143.7462788138
 30
0.0
 40
3.5
 41
0.0
 71
     1
 72
     1
  1
12,50
  7
SLDTEXTSTYLE0
 11
6.123233995736766E-17
 21
1.0
 31
0.0
 73
     1
 44
1.0
  0
ENDBLK
  5
296
330
294
100
AcDbEntity
  8
0
100
AcDbBlockEnd
  0
BLOCK
  5
2A1
330
2A0
100
AcDbEntity
  8
0
100
AcDbBlockBegin
  2
_D_9
 70
     0
 10
0.0
 20
0.0
 30
0.0
  3
_D_9
  1

  0
SOLID
  5
2A3
330
2A0
100
AcDbEntity
  8
0
  6
Continuous
 62
     7
370
    18
100
AcDbTrace
 10
259.2499985357
 20
143.3333216105
 30
0.0
 11
258.7419985357
 21
140.0313216105
 31
0.0
 12
259.7579985357
 22
140.0313216105
 32
0.0
 13
259.7579985357
 23
140.0313216105
 33
0.0
  0
SOLID
  5
2A4
330
2A0
100
AcDbEntity
  8
0
  6
Continuous
 62
     7
370
    18
100
AcDbTrace
 10
259.2499985357
 20
185.8333216105
 30
0.0
 11
259.7579985357
 21
189.1353216105
 31
0.0
 12
258.7419985357
 22
189.1353216105
 32
0.0
 13
258.7419985357
 23
189.1353216105
 33
0.0
  0
LINE
  5
2A5
330
2A0
100
AcDbEntity
  8
0
  6
Continuous
 62
     7
370
    18
100
AcDbLine
 10
283.2499985357
 20
143.3333216105
 30
0.0
 11
258.2499985357
 21
143.3333216105
 31
0.0
  0
LINE
  5
2A6
330
2A0
100
AcDbEntity
  8
0
  6
Continuous
 62
     7
370
    18
100
AcDbLine
 10
285.2499985357
 20
185.8333216105
 30
0.0
 11
258.2499985357
 21
185.8333216105
 31
0.0
  0
LINE
  5
2A7
330
2A0
100
AcDbEntity
  8
0
  6
Continuous
 62
     7
370
    18
100
AcDbLine
 10
259.2499985357
 20
143.3333216105
 30
0.0
 11
259.2499985357
 21
136.9833216105
 31
0.0
  0
LINE
  5
2A8
330
2A0
100
AcDbEntity
  8
0
  6
Continuous
 62
     7
370
    18
100
AcDbLine
 10
259.2499985357
 20
143.3333216105
 30
0.0
 11
259.2499985357
 21
185.8333216105
 31
0.0
  0
LINE
  5
2A9
330
2A0
100
AcDbEntity
  8
0
  6
Continuous
 62
     7
370
    18
100
AcDbLine
 10
259.2499985357
 20
185.8333216105
 30
0.0
 11
259.2499985357
 21
192.1833216105
 31
0.0
  0
MTEXT
  5
2AA
330
2A0
100
AcDbEntity
  8
0
  6
Continuous
 62
     7
370
    18
100
AcDbMText
 10
254.7382616211
 20
162.8474281902
 30
0.0
 40
3.5
 41
0.0
 71
     1
 72
     1
  1
42,50
  7
SLDTEXTSTYLE0
 11
6.123233995736766E-17
 21
1.0
 31
0.0
 73
     1
 44
1.0
  0
ENDBLK
  5
2A2
330
2A0
100
AcDbEntity
  8
0
100
AcDbBlockEnd
  0
BLOCK
  5
2AD
330
2AC
100
AcDbEntity
  8
0
100
AcDbBlockBegin
  2
_D_10
 70
     0
 10
0.0
 20
0.0
 30
0.0
  3
_D_10
  1

  0
SOLID
  5
2AF
330
2AC
100
AcDbEntity
  8
0
  6
Continuous
 62
     7
370
    18
100
AcDbTrace
 10
281.2499985357
 20
217.2105297795
 30
0.0
 11
277.9479985357
 21
217.7185297795
 31
0.0
 12
277.9479985357
 22
216.7025297795
 32
0.0
 13
277.9479985357
 23
216.7025297795
 33
0.0
  0
SOLID
  5
2B0
330
2AC
100
AcDbEntity
  8
0
  6
Continuous
 62
     7
370
    18
100
AcDbTrace
 10
313.053801974
 20
217.2105297795
 30
0.0
 11
316.355801974
 21
216.7025297795
 31
0.0
 12
316.355801974
 22
217.7185297795
 32
0.0
 13
316.355801974
 23
217.7185297795
 33
0.0
  0
LINE
  5
2B1
330
2AC
100
AcDbEntity
  8
0
  6
Continuous
 62
     7
370
    18
100
AcDbLine
 10
281.2499985357
 20
196.3333216105
 30
0.0
 11
281.2499985357
 21
218.2105297795
 31
0.0
  0
LINE
  5
2B2
330
2AC
100
AcDbEntity
  8
0
  6
Continuous
 62
     7
370
    18
100
AcDbLine
 10
313.053801974
 20
201.8333216105
 30
0.0
 11
313.053801974
 21
218.2105297795
 31
0.0
  0
LINE
  5
2B3
330
2AC
100
AcDbEntity
  8
0
  6
Continuous
 62
     7
370
    18
100
AcDbLine
 10
281.2499985357
 20
217.2105297795
 30
0.0
 11
274.8999985357
 21
217.2105297795
 31
0.0
  0
LINE
  5
2B4
330
2AC
100
AcDbEntity
  8
0
  6
Continuous
 62
     7
370
    18
100
AcDbLine
 10
281.2499985357
 20
217.2105297795
 30
0.0
 11
313.053801974
 21
217.2105297795
 31
0.0
  0
LINE
  5
2B5
330
2AC
100
AcDbEntity
  8
0
  6
Continuous
 62
     7
370
    18
100
AcDbLine
 10
313.053801974
 20
217.2105297795
 30
0.0
 11
319.403801974
 21
217.2105297795
 31
0.0
  0
MTEXT
  5
2B6
330
2AC
100
AcDbEntity
  8
0
  6
Continuous
 62
     7
370
    18
100
AcDbMText
 10
291.1768147076
 20
221.7222666941
 30
0.0
 40
3.5
 41
0.0
 71
     1
 72
     1
  1
31,80
  7
SLDTEXTSTYLE0
 73
     1
 44
1.0
  0
ENDBLK
  5
2AE
330
2AC
100
AcDbEntity
  8
0
100
AcDbBlockEnd
  0
BLOCK
  5
2BA
330
2B9
100
AcDbEntity
  8
0
100
AcDbBlockBegin
  2
_D_11
 70
     0
 10
0.0
 20
0.0
 30
0.0
  3
_D_11
  1

  0
SOLID
  5
2BC
330
2B9
100
AcDbEntity
  8
0
  6
Continuous
 62
     7
370
    18
100
AcDbTrace
 10
354.803801974
 20
143.3333216105
 30
0.0
 11
355.311801974
 21
146.6353216105
 31
0.0
 12
354.295801974
 22
146.6353216105
 32
0.0
 13
354.295801974
 23
146.6353216105
 33
0.0
  0
SOLID
  5
2BD
330
2B9
100
AcDbEntity
  8
0
  6
Continuous
 62
     7
370
    18
100
AcDbTrace
 10
354.803801974
 20
195.8333216105
 30
0.0
 11
354.295801974
 21
192.5313216105
 31
0.0
 12
355.311801974
 22
192.5313216105
 32
0.0
 13
355.311801974
 23
192.5313216105
 33
0.0
  0
LINE
  5
2BE
330
2B9
100
AcDbEntity
  8
0
  6
Continuous
 62
     7
370
    18
100
AcDbLine
 10
321.803801974
 20
143.3333216105
 30
0.0
 11
355.803801974
 21
143.3333216105
 31
0.0
  0
LINE
  5
2BF
330
2B9
100
AcDbEntity
  8
0
  6
Continuous
 62
     7
370
    18
100
AcDbLine
 10
319.053801974
 20
195.8333216105
 30
0.0
 11
355.803801974
 21
195.8333216105
 31
0.0
  0
LINE
  5
2C0
330
2B9
100
AcDbEntity
  8
0
  6
Continuous
 62
     7
370
    18
100
AcDbLine
 10
354.803801974
 20
143.3333216105
 30
0.0
 11
354.803801974
 21
195.8333216105
 31
0.0
  0
MTEXT
  5
2C1
330
2B9
100
AcDbEntity
  8
0
  6
Continuous
 62
     7
370
    18
100
AcDbMText
 10
350.2920650594
 20
164.6318671582
 30
0.0
 40
3.5
 41
0.0
 71
     1
 72
     1
  1
52,50
  7
SLDTEXTSTYLE0
 11
6.123233995736766E-17
 21
1.0
 31
0.0
 73
     1
 44
1.0
  0
ENDBLK
  5
2BB
330
2B9
100
AcDbEntity
  8
0
100
AcDbBlockEnd
  0
BLOCK
  5
2C4
330
2C3
100
AcDbEntity
  8
0
100
AcDbBlockBegin
  2
_D_12
 70
     0
 10
0.0
 20
0.0
 30
0.0
  3
_D_12
  1

  0
SOLID
  5
2C6
330
2C3
100
AcDbEntity
  8
0
  6
Continuous
 62
     7
370
    18
100
AcDbTrace
 10
335.8895635341
 20
143.3333216105
 30
0.0
 11
336.3975635341
 21
146.6353216105
 31
0.0
 12
335.3815635341
 22
146.6353216105
 32
0.0
 13
335.3815635341
 23
146.6353216105
 33
0.0
  0
SOLID
  5
2C7
330
2C3
100
AcDbEntity
  8
0
  6
Continuous
 62
     7
370
    18
100
AcDbTrace
 10
335.8895635341
 20
171.3333216105
 30
0.0
 11
335.3815635341
 21
168.0313216105
 31
0.0
 12
336.3975635341
 22
168.0313216105
 32
0.0
 13
336.3975635341
 23
168.0313216105
 33
0.0
  0
LINE
  5
2C8
330
2C3
100
AcDbEntity
  8
0
  6
Continuous
 62
     7
370
    18
100
AcDbLine
 10
321.803801974
 20
143.3333216105
 30
0.0
 11
336.8895635341
 21
143.3333216105
 31
0.0
  0
LINE
  5
2C9
330
2C3
100
AcDbEntity
  8
0
  6
Continuous
 62
     7
370
    18
100
AcDbLine
 10
314.053801974
 20
171.3333216105
 30
0.0
 11
336.8895635341
 21
171.3333216105
 31
0.0
  0
LINE
  5
2CA
330
2C3
100
AcDbEntity
  8
0
  6
Continuous
 62
     7
370
    18
100
AcDbLine
 10
335.8895635341
 20
143.3333216105
 30
0.0
 11
335.8895635341
 21
171.3333216105
 31
0.0
  0
MTEXT
  5
2CB
330
2C3
100
AcDbEntity
  8
0
  6
Continuous
 62
     7
370
    18
100
AcDbMText
 10
331.3778266195
 20
156.0054470192
 30
0.0
 40
3.5
 41
0.0
 71
     1
 72
     1
  1
28
  7
SLDTEXTSTYLE0
 11
6.123233995736766E-17
 21
1.0
 31
0.0
 73
     1
 44
1.0
  0
ENDBLK
  5
2C5
330
2C3
100
AcDbEntity
  8
0
100
AcDbBlockEnd
  0
BLOCK
  5
2CD
330
2CC
100
AcDbEntity
  8
0
100
AcDbBlockBegin
  2
SW_CENTERMARKSYMBOL_3
 70
     0
 10
0.0
 20
0.0
 30
0.0
  3
SW_CENTERMARKSYMBOL_3
  1

  0
LINE
  5
2CF
330
2CC
100
AcDbEntity
  8
0
  6
Continuous
 62
     0
370
     0
100
AcDbLine
 10
0.0
 20
0.0
 30
0.0
 11
0.0
 21
2.5
 31
0.0
  0
LINE
  5
2D0
330
2CC
100
AcDbEntity
  8
0
  6
Continuous
 62
     0
370
     0
100
AcDbLine
 10
0.0
 20
0.0
 30
0.0
 11
-2.5
 21
0.0
 31
0.0
  0
LINE
  5
2D1
330
2CC
100
AcDbEntity
  8
0
  6
Continuous
 62
     0
370
     0
100
AcDbLine
 10
0.0
 20
0.0
 30
0.0
 11
0.0
 21
-2.5
 31
0.0
  0
LINE
  5
2D2
330
2CC
100
AcDbEntity
  8
0
  6
Continuous
 62
     0
370
     0
100
AcDbLine
 10
0.0
 20
0.0
 30
0.0
 11
2.5
 21
0.0
 31
0.0
  0
LINE
  5
2D3
330
2CC
100
AcDbEntity
  8
0
  6
Continuous
 62
     0
370
     0
100
AcDbLine
 10
0.0
 20
2.5
 30
0.0
 11
0.0
 21
5.0
 31
0.0
  0
LINE
  5
2D4
330
2CC
100
AcDbEntity
  8
0
  6
Continuous
 62
     0
370
     0
100
AcDbLine
 10
-2.5
 20
0.0
 30
0.0
 11
-5.0
 21
0.0
 31
0.0
  0
LINE
  5
2D5
330
2CC
100
AcDbEntity
  8
0
  6
Continuous
 62
     0
370
     0
100
AcDbLine
 10
0.0
 20
-2.5
 30
0.0
 11
0.0
 21
-5.0
 31
0.0
  0
LINE
  5
2D6
330
2CC
100
AcDbEntity
  8
0
  6
Continuous
 62
     0
370
     0
100
AcDbLine
 10
2.5
 20
0.0
 30
0.0
 11
5.0
 21
0.0
 31
0.0
  0
ENDBLK
  5
2CE
330
2CC
100
AcDbEntity
  8
0
100
AcDbBlockEnd
  0
BLOCK
  5
2D9
330
2D8
100
AcDbEntity
  8
0
100
AcDbBlockBegin
  2
SW_CENTERMARKSYMBOL_4
 70
     0
 10
0.0
 20
0.0
 30
0.0
  3
SW_CENTERMARKSYMBOL_4
  1

  0
LINE
  5
2DB
330
2D8
100
AcDbEntity
  8
0
  6
Continuous
 62
     0
370
     0
100
AcDbLine
 10
0.0
 20
0.0
 30
0.0
 11
0.0
 21
2.5
 31
0.0
  0
LINE
  5
2DC
330
2D8
100
AcDbEntity
  8
0
  6
Continuous
 62
     0
370
     0
100
AcDbLine
 10
0.0
 20
0.0
 30
0.0
 11
-2.5
 21
0.0
 31
0.0
  0
LINE
  5
2DD
330
2D8
100
AcDbEntity
  8
0
  6
Continuous
 62
     0
370
     0
100
AcDbLine
 10
0.0
 20
0.0
 30
0.0
 11
0.0
 21
-2.5
 31
0.0
  0
LINE
  5
2DE
330
2D8
100
AcDbEntity
  8
0
  6
Continuous
 62
     0
370
     0
100
AcDbLine
 10
0.0
 20
0.0
 30
0.0
 11
2.5
 21
0.0
 31
0.0
  0
LINE
  5
2DF
330
2D8
100
AcDbEntity
  8
0
  6
Continuous
 62
     0
370
     0
100
AcDbLine
 10
0.0
 20
2.5
 30
0.0
 11
0.0
 21
26.8934251143
 31
0.0
  0
LINE
  5
2E0
330
2D8
100
AcDbEntity
  8
0
  6
Continuous
 62
     0
370
     0
100
AcDbLine
 10
-2.5
 20
0.0
 30
0.0
 11
-5.0
 21
0.0
 31
0.0
  0
LINE
  5
2E1
330
2D8
100
AcDbEntity
  8
0
  6
Continuous
 62
     0
370
     0
100
AcDbLine
 10
0.0
 20
-2.5
 30
0.0
 11
0.0
 21
-5.0
 31
0.0
  0
LINE
  5
2E2
330
2D8
100
AcDbEntity
  8
0
  6
Continuous
 62
     0
370
     0
100
AcDbLine
 10
2.5
 20
0.0
 30
0.0
 11
5.0
 21
0.0
 31
0.0
  0
ENDBLK
  5
2DA
330
2D8
100
AcDbEntity
  8
0
100
AcDbBlockEnd
  0
BLOCK
  5
2E5
330
2E4
100
AcDbEntity
  8
0
100
AcDbBlockBegin
  2
SW_CENTERMARKSYMBOL_5
 70
     0
 10
0.0
 20
0.0
 30
0.0
  3
SW_CENTERMARKSYMBOL_5
  1

  0
LINE
  5
2E7
330
2E4
100
AcDbEntity
  8
0
  6
Continuous
 62
     0
370
     0
100
AcDbLine
 10
0.0
 20
0.0
 30
0.0
 11
0.0
 21
2.5
 31
0.0
  0
LINE
  5
2E8
330
2E4
100
AcDbEntity
  8
0
  6
Continuous
 62
     0
370
     0
100
AcDbLine
 10
0.0
 20
0.0
 30
0.0
 11
-2.5
 21
0.0
 31
0.0
  0
LINE
  5
2E9
330
2E4
100
AcDbEntity
  8
0
  6
Continuous
 62
     0
370
     0
100
AcDbLine
 10
0.0
 20
0.0
 30
0.0
 11
0.0
 21
-2.5
 31
0.0
  0
LINE
  5
2EA
330
2E4
100
AcDbEntity
  8
0
  6
Continuous
 62
     0
370
     0
100
AcDbLine
 10
0.0
 20
0.0
 30
0.0
 11
2.5
 21
0.0
 31
0.0
  0
LINE
  5
2EB
330
2E4
100
AcDbEntity
  8
0
  6
Continuous
 62
     0
370
     0
100
AcDbLine
 10
0.0
 20
2.5
 30
0.0
 11
0.0
 21
5.0
 31
0.0
  0
LINE
  5
2EC
330
2E4
100
AcDbEntity
  8
0
  6
Continuous
 62
     0
370
     0
100
AcDbLine
 10
-2.5
 20
0.0
 30
0.0
 11
-5.0
 21
0.0
 31
0.0
  0
LINE
  5
2ED
330
2E4
100
AcDbEntity
  8
0
  6
Continuous
 62
     0
370
     0
100
AcDbLine
 10
0.0
 20
-2.5
 30
0.0
 11
0.0
 21
-5.0
 31
0.0
  0
LINE
  5
2EE
330
2E4
100
AcDbEntity
  8
0
  6
Continuous
 62
     0
370
     0
100
AcDbLine
 10
2.5
 20
0.0
 30
0.0
 11
5.0
 21
0.0
 31
0.0
  0
ENDBLK
  5
2E6
330
2E4
100
AcDbEntity
  8
0
100
AcDbBlockEnd
  0
ENDSEC
  0
SECTION
  2
ENTITIES
  0
LINE
  5
74
330
1F
100
AcDbEntity
  8
0
  6
Continuous
 62
     7
370
    50
100
AcDbLine
 10
284.6
 20
14.3572360474
 30
0.0
 11
410.0
 21
14.25
 31
0.0
  0
LINE
  5
75
330
1F
100
AcDbEntity
  8
0
  6
Continuous
 62
     7
370
    50
100
AcDbLine
 10
410.0
 20
48.25
 30
0.0
 11
284.6
 21
48.25
 31
0.0
  0
LINE
  5
76
330
1F
100
AcDbEntity
  8
0
  6
Continuous
 62
     7
370
    50
100
AcDbLine
 10
284.6
 20
65.25
 30
0.0
 11
410.0
 21
65.25
 31
0.0
  0
LINE
  5
77
330
1F
100
AcDbEntity
  8
0
  6
Continuous
 62
     7
370
    18
100
AcDbLine
 10
333.1479568663
 20
63.0138449843
 30
0.0
 11
333.1479568663
 21
61.0845126308
 31
0.0
  0
LINE
  5
78
330
1F
100
AcDbEntity
  8
0
  6
Continuous
 62
     7
370
    18
100
AcDbLine
 10
333.1479568663
 20
61.0845126308
 30
0.0
 11
336.5242884851
 21
59.9444526036
 31
0.0
  0
LINE
  5
79
330
1F
100
AcDbEntity
  8
0
  6
Continuous
 62
     7
370
    18
100
AcDbLine
 10
336.5242884851
 20
59.9444526036
 30
0.0
 11
336.5242884851
 21
63.9785111611
 31
0.0
  0
LINE
  5
7A
330
1F
100
AcDbEntity
  8
0
  6
Continuous
 62
     7
370
    18
100
AcDbLine
 10
336.5242884851
 20
63.9785111611
 30
0.0
 11
333.1479568663
 21
63.0138449843
 31
0.0
  0
LINE
  5
7B
330
1F
100
AcDbEntity
  8
0
  6
CENTERX2
 62
     7
370
    18
100
AcDbLine
 10
331.4817152882
 20
61.9614818824
 30
0.0
 11
337.8397423625
 21
61.9614818824
 31
0.0
  0
LINE
  5
7C
330
1F
100
AcDbEntity
  8
0
  6
Continuous
 62
     7
370
    50
100
AcDbLine
 10
284.6
 20
10.0
 30
0.0
 11
284.6
 21
27.0
 31
0.0
  0
LINE
  5
7D
330
1F
100
AcDbEntity
  8
0
  6
Continuous
 62
     7
370
    50
100
AcDbLine
 10
328.8
 20
43.0184815528
 30
0.0
 11
284.6
 21
43.0184815528
 31
0.0
  0
LINE
  5
7E
330
1F
100
AcDbEntity
  8
0
  6
CENTERX2
 62
     7
370
    18
100
AcDbLine
 10
340.0760139542
 20
61.9614818824
 30
0.0
 11
345.4693748517
 21
61.9614818824
 31
0.0
  0
LINE
  5
7F
330
1F
100
AcDbEntity
  8
0
  6
Continuous
 62
     7
370
    50
100
AcDbLine
 10
284.6
 20
27.0
 30
0.0
 11
284.6
 21
65.25
 31
0.0
  0
LINE
  5
80
330
1F
100
AcDbEntity
  8
0
  6
CENTERX2
 62
     7
370
    18
100
AcDbLine
 10
342.7726944029
 20
64.5485411747
 30
0.0
 11
342.7726944029
 21
59.3744225901
 31
0.0
  0
LINE
  5
81
330
1F
100
AcDbEntity
  8
0
  6
Continuous
 62
     7
370
    50
100
AcDbLine
 10
348.8322765487
 20
65.3656734052
 30
0.0
 11
348.8322765487
 21
58.875
 31
0.0
  0
LINE
  5
82
330
1F
100
AcDbEntity
  8
0
  6
Continuous
 62
     7
370
    50
100
AcDbLine
 10
316.0002796347
 20
65.25
 30
0.0
 11
316.0002796347
 21
48.25
 31
0.0
  0
LINE
  5
83
330
1F
100
AcDbEntity
  8
0
  6
Continuous
 62
     7
370
    50
100
AcDbLine
 10
284.6
 20
27.0
 30
0.0
 11
410.0
 21
27.0
 31
0.0
  0
LINE
  5
84
330
1F
100
AcDbEntity
  8
0
  6
Continuous
 62
     7
370
    50
100
AcDbLine
 10
328.8
 20
65.25
 30
0.0
 11
328.8
 21
10.0
 31
0.0
  0
LINE
  5
85
330
1F
100
AcDbEntity
  8
0
  6
Continuous
 62
     7
370
    50
100
AcDbLine
 10
373.0
 20
10.0
 30
0.0
 11
373.0
 21
14.25
 31
0.0
  0
LINE
  5
86
330
1F
100
AcDbEntity
  8
0
  6
Continuous
 62
     7
370
    50
100
AcDbLine
 10
380.8
 20
58.875
 30
0.0
 11
380.8
 21
65.25
 31
0.0
  0
LINE
  5
87
330
1F
100
AcDbEntity
  8
0
  6
Continuous
 62
     7
370
    50
100
AcDbLine
 10
397.0
 20
14.25
 30
0.0
 11
397.0
 21
27.0
 31
0.0
  0
LINE
  5
88
330
1F
100
AcDbEntity
  8
0
  6
Continuous
 62
     7
370
    50
100
AcDbLine
 10
410.0
 20
58.875
 30
0.0
 11
328.8
 21
58.875
 31
0.0
  0
LINE
  5
89
330
1F
100
AcDbEntity
  8
0
  6
Continuous
 62
     7
370
    50
100
AcDbLine
 10
410.0
 20
18.5
 30
0.0
 11
397.0
 21
18.5
 31
0.0
  0
LINE
  5
8A
330
1F
100
AcDbEntity
  8
0
  6
Continuous
 62
     7
370
    50
100
AcDbLine
 10
342.7220006739
 20
10.1072360474
 30
0.0
 11
342.7220006739
 21
14.3572360474
 31
0.0
  0
LINE
  5
8B
330
1F
100
AcDbEntity
  8
0
  6
Continuous
 62
     7
370
    70
100
AcDbLine
 10
20.0
 20
10.0
 30
0.0
 11
20.0
 21
287.0
 31
0.0
  0
LINE
  5
8C
330
1F
100
AcDbEntity
  8
0
  6
Continuous
 62
     7
370
    70
100
AcDbLine
 10
20.0
 20
287.0
 30
0.0
 11
410.0
 21
287.0
 31
0.0
  0
LINE
  5
8D
330
1F
100
AcDbEntity
  8
0
  6
Continuous
 62
     7
370
    70
100
AcDbLine
 10
410.0
 20
287.0
 30
0.0
 11
410.0
 21
10.0
 31
0.0
  0
LINE
  5
8E
330
1F
100
AcDbEntity
  8
0
  6
Continuous
 62
     7
370
    70
100
AcDbLine
 10
410.0
 20
10.0
 30
0.0
 11
20.0
 21
10.0
 31
0.0
  0
LINE
  5
8F
330
1F
100
AcDbEntity
  8
0
  6
Continuous
 62
     7
370
    70
100
AcDbLine
 10
15.0
 20
5.0
 30
0.0
 11
15.0
 21
292.0
 31
0.0
  0
LINE
  5
90
330
1F
100
AcDbEntity
  8
0
  6
Continuous
 62
     7
370
    70
100
AcDbLine
 10
15.0
 20
292.0
 30
0.0
 11
415.0
 21
292.0
 31
0.0
  0
LINE
  5
91
330
1F
100
AcDbEntity
  8
0
  6
Continuous
 62
     7
370
    70
100
AcDbLine
 10
415.0
 20
292.0
 30
0.0
 11
415.0
 21
5.0
 31
0.0
  0
LINE
  5
92
330
1F
100
AcDbEntity
  8
0
  6
Continuous
 62
     7
370
    70
100
AcDbLine
 10
415.0
 20
5.0
 30
0.0
 11
15.0
 21
5.0
 31
0.0
  0
LINE
  5
93
330
1F
100
AcDbEntity
  8
0
  6
Continuous
 62
     7
370
    35
100
AcDbLine
 10
15.0
 20
148.5
 30
0.0
 11
25.0
 21
148.5
 31
0.0
  0
LINE
  5
94
330
1F
100
AcDbEntity
  8
0
  6
Continuous
 62
     7
370
    35
100
AcDbLine
 10
215.0
 20
292.0
 30
0.0
 11
215.0
 21
282.0
 31
0.0
  0
LINE
  5
95
330
1F
100
AcDbEntity
  8
0
  6
Continuous
 62
     7
370
    35
100
AcDbLine
 10
415.0
 20
148.5
 30
0.0
 11
405.0
 21
148.5
 31
0.0
  0
LINE
  5
96
330
1F
100
AcDbEntity
  8
0
  6
Continuous
 62
     7
370
    35
100
AcDbLine
 10
215.0
 20
5.0
 30
0.0
 11
215.0
 21
15.0
 31
0.0
  0
LINE
  5
97
330
1F
100
AcDbEntity
  8
0
  6
Continuous
 62
     7
370
    35
100
AcDbLine
 10
20.0
 20
48.5
 30
0.0
 11
15.0
 21
48.5
 31
0.0
  0
LINE
  5
98
330
1F
100
AcDbEntity
  8
0
  6
Continuous
 62
     7
370
    35
100
AcDbLine
 10
410.0
 20
48.5
 30
0.0
 11
415.0
 21
48.5
 31
0.0
  0
LINE
  5
99
330
1F
100
AcDbEntity
  8
0
  6
Continuous
 62
     7
370
    35
100
AcDbLine
 10
20.0
 20
98.5
 30
0.0
 11
15.0
 21
98.5
 31
0.0
  0
LINE
  5
9A
330
1F
100
AcDbEntity
  8
0
  6
Continuous
 62
     7
370
    35
100
AcDbLine
 10
410.0
 20
98.5
 30
0.0
 11
415.0
 21
98.5
 31
0.0
  0
LINE
  5
9B
330
1F
100
AcDbEntity
  8
0
  6
Continuous
 62
     7
370
    35
100
AcDbLine
 10
20.0
 20
148.5
 30
0.0
 11
15.0
 21
148.5
 31
0.0
  0
LINE
  5
9C
330
1F
100
AcDbEntity
  8
0
  6
Continuous
 62
     7
370
    35
100
AcDbLine
 10
410.0
 20
148.5
 30
0.0
 11
415.0
 21
148.5
 31
0.0
  0
LINE
  5
9D
330
1F
100
AcDbEntity
  8
0
  6
Continuous
 62
     7
370
    35
100
AcDbLine
 10
20.0
 20
198.5
 30
0.0
 11
15.0
 21
198.5
 31
0.0
  0
LINE
  5
9E
330
1F
100
AcDbEntity
  8
0
  6
Continuous
 62
     7
370
    35
100
AcDbLine
 10
410.0
 20
198.5
 30
0.0
 11
415.0
 21
198.5
 31
0.0
  0
LINE
  5
9F
330
1F
100
AcDbEntity
  8
0
  6
Continuous
 62
     7
370
    35
100
AcDbLine
 10
20.0
 20
248.5
 30
0.0
 11
15.0
 21
248.5
 31
0.0
  0
LINE
  5
A0
330
1F
100
AcDbEntity
  8
0
  6
Continuous
 62
     7
370
    35
100
AcDbLine
 10
410.0
 20
248.5
 30
0.0
 11
415.0
 21
248.5
 31
0.0
  0
LINE
  5
A1
330
1F
100
AcDbEntity
  8
0
  6
Continuous
 62
     7
370
    35
100
AcDbLine
 10
65.0
 20
287.0
 30
0.0
 11
65.0
 21
292.0
 31
0.0
  0
LINE
  5
A2
330
1F
100
AcDbEntity
  8
0
  6
Continuous
 62
     7
370
    35
100
AcDbLine
 10
65.0
 20
10.0
 30
0.0
 11
65.0
 21
5.0
 31
0.0
  0
LINE
  5
A3
330
1F
100
AcDbEntity
  8
0
  6
Continuous
 62
     7
370
    35
100
AcDbLine
 10
115.0
 20
287.0
 30
0.0
 11
115.0
 21
292.0
 31
0.0
  0
LINE
  5
A4
330
1F
100
AcDbEntity
  8
0
  6
Continuous
 62
     7
370
    35
100
AcDbLine
 10
115.0
 20
10.0
 30
0.0
 11
115.0
 21
5.0
 31
0.0
  0
LINE
  5
A5
330
1F
100
AcDbEntity
  8
0
  6
Continuous
 62
     7
370
    35
100
AcDbLine
 10
165.0
 20
287.0
 30
0.0
 11
165.0
 21
292.0
 31
0.0
  0
LINE
  5
A6
330
1F
100
AcDbEntity
  8
0
  6
Continuous
 62
     7
370
    35
100
AcDbLine
 10
165.0
 20
10.0
 30
0.0
 11
165.0
 21
5.0
 31
0.0
  0
LINE
  5
A7
330
1F
100
AcDbEntity
  8
0
  6
Continuous
 62
     7
370
    35
100
AcDbLine
 10
215.0
 20
287.0
 30
0.0
 11
215.0
 21
292.0
 31
0.0
  0
LINE
  5
A8
330
1F
100
AcDbEntity
  8
0
  6
Continuous
 62
     7
370
    35
100
AcDbLine
 10
215.0
 20
10.0
 30
0.0
 11
215.0
 21
5.0
 31
0.0
  0
LINE
  5
A9
330
1F
100
AcDbEntity
  8
0
  6
Continuous
 62
     7
370
    35
100
AcDbLine
 10
265.0
 20
287.0
 30
0.0
 11
265.0
 21
292.0
 31
0.0
  0
LINE
  5
AA
330
1F
100
AcDbEntity
  8
0
  6
Continuous
 62
     7
370
    35
100
AcDbLine
 10
265.0
 20
10.0
 30
0.0
 11
265.0
 21
5.0
 31
0.0
  0
LINE
  5
AB
330
1F
100
AcDbEntity
  8
0
  6
Continuous
 62
     7
370
    35
100
AcDbLine
 10
315.0
 20
287.0
 30
0.0
 11
315.0
 21
292.0
 31
0.0
  0
LINE
  5
AC
330
1F
100
AcDbEntity
  8
0
  6
Continuous
 62
     7
370
    35
100
AcDbLine
 10
315.0
 20
10.0
 30
0.0
 11
315.0
 21
5.0
 31
0.0
  0
LINE
  5
AD
330
1F
100
AcDbEntity
  8
0
  6
Continuous
 62
     7
370
    35
100
AcDbLine
 10
365.0
 20
287.0
 30
0.0
 11
365.0
 21
292.0
 31
0.0
  0
LINE
  5
AE
330
1F
100
AcDbEntity
  8
0
  6
Continuous
 62
     7
370
    35
100
AcDbLine
 10
365.0
 20
10.0
 30
0.0
 11
365.0
 21
5.0
 31
0.0
  0
CIRCLE
  5
AF
330
1F
100
AcDbEntity
  8
0
  6
Continuous
 62
     7
370
    18
100
AcDbCircle
 10
342.7726944029
 20
61.9614818824
 30
0.0
 40
2.017029278742181
  0
CIRCLE
  5
B0
330
1F
100
AcDbEntity
  8
0
  6
Continuous
 62
     7
370
    18
100
AcDbCircle
 10
342.7726944029
 20
61.9614818824
 30
0.0
 40
1.11871880525786
  0
MTEXT
  5
B2
330
1F
100
AcDbEntity
  8
0
  6
Continuous
 62
     7
370
     0
100
AcDbMText
 10
17.3396881428
 20
31.7185515259
 30
0.0
 40
3.96875
 41
0.0
 71
     2
 72
     1
  1
A
  7
SLDTEXTSTYLE0
 73
     1
 44
1.0
  0
MTEXT
  5
B3
330
1F
100
AcDbEntity
  8
0
  6
Continuous
 62
     7
370
     0
100
AcDbMText
 10
412.3396881428
 20
31.7185515259
 30
0.0
 40
3.96875
 41
0.0
 71
     2
 72
     1
  1
A
  7
SLDTEXTSTYLE0
 73
     1
 44
1.0
  0
MTEXT
  5
B4
330
1F
100
AcDbEntity
  8
0
  6
Continuous
 62
     7
370
     0
100
AcDbMText
 10
17.4706018241
 20
75.9685515259
 30
0.0
 40
3.96875
 41
0.0
 71
     2
 72
     1
  1
B
  7
SLDTEXTSTYLE0
 73
     1
 44
1.0
  0
MTEXT
  5
B5
330
1F
100
AcDbEntity
  8
0
  6
Continuous
 62
     7
370
     0
100
AcDbMText
 10
412.4706018241
 20
75.9685515259
 30
0.0
 40
3.96875
 41
0.0
 71
     2
 72
     1
  1
B
  7
SLDTEXTSTYLE0
 73
     1
 44
1.0
  0
MTEXT
  5
B6
330
1F
100
AcDbEntity
  8
0
  6
Continuous
 62
     7
370
     0
100
AcDbMText
 10
17.458658902
 20
125.9685515259
 30
0.0
 40
3.96875
 41
0.0
 71
     2
 72
     1
  1
C
  7
SLDTEXTSTYLE0
 73
     1
 44
1.0
  0
MTEXT
  5
B7
330
1F
100
AcDbEntity
  8
0
  6
Continuous
 62
     7
370
     0
100
AcDbMText
 10
412.458658902
 20
125.9685515259
 30
0.0
 40
3.96875
 41
0.0
 71
     2
 72
     1
  1
C
  7
SLDTEXTSTYLE0
 73
     1
 44
1.0
  0
MTEXT
  5
B8
330
1F
100
AcDbEntity
  8
0
  6
Continuous
 62
     7
370
     0
100
AcDbMText
 10
17.4526872821
 20
175.9685515259
 30
0.0
 40
3.96875
 41
0.0
 71
     2
 72
     1
  1
D
  7
SLDTEXTSTYLE0
 73
     1
 44
1.0
  0
MTEXT
  5
B9
330
1F
100
AcDbEntity
  8
0
  6
Continuous
 62
     7
370
     0
100
AcDbMText
 10
412.4526872821
 20
175.9685515259
 30
0.0
 40
3.96875
 41
0.0
 71
     2
 72
     1
  1
D
  7
SLDTEXTSTYLE0
 73
     1
 44
1.0
  0
MTEXT
  5
BA
330
1F
100
AcDbEntity
  8
0
  6
Continuous
 62
     7
370
     0
100
AcDbMText
 10
17.5078089051
 20
225.9685515259
 30
0.0
 40
3.96875
 41
0.0
 71
     2
 72
     1
  1
E
  7
SLDTEXTSTYLE0
 73
     1
 44
1.0
  0
MTEXT
  5
BB
330
1F
100
AcDbEntity
  8
0
  6
Continuous
 62
     7
370
     0
100
AcDbMText
 10
412.5078089051
 20
225.9685515259
 30
0.0
 40
3.96875
 41
0.0
 71
     2
 72
     1
  1
E
  7
SLDTEXTSTYLE0
 73
     1
 44
1.0
  0
MTEXT
  5
BC
330
1F
100
AcDbEntity
  8
0
  6
Continuous
 62
     7
370
     0
100
AcDbMText
 10
17.4577402091
 20
270.2185515259
 30
0.0
 40
3.96875
 41
0.0
 71
     2
 72
     1
  1
F
  7
SLDTEXTSTYLE0
 73
     1
 44
1.0
  0
MTEXT
  5
BD
330
1F
100
AcDbEntity
  8
0
  6
Continuous
 62
     7
370
     0
100
AcDbMText
 10
412.4577402091
 20
270.2185515259
 30
0.0
 40
3.96875
 41
0.0
 71
     2
 72
     1
  1
F
  7
SLDTEXTSTYLE0
 73
     1
 44
1.0
  0
MTEXT
  5
BE
330
1F
100
AcDbEntity
  8
0
  6
Continuous
 62
     7
370
     0
100
AcDbMText
 10
42.4600369465
 20
9.9685515259
 30
0.0
 40
3.96875
 41
0.0
 71
     2
 72
     1
  1
8
  7
SLDTEXTSTYLE0
 73
     1
 44
1.0
  0
MTEXT
  5
BF
330
1F
100
AcDbEntity
  8
0
  6
Continuous
 62
     7
370
     0
100
AcDbMText
 10
42.4600369465
 20
291.9685515259
 30
0.0
 40
3.96875
 41
0.0
 71
     2
 72
     1
  1
8
  7
SLDTEXTSTYLE0
 73
     1
 44
1.0
  0
MTEXT
  5
C0
330
1F
100
AcDbEntity
  8
0
  6
Continuous
 62
     7
370
     0
100
AcDbMText
 10
89.9600369465
 20
9.9685515259
 30
0.0
 40
3.96875
 41
0.0
 71
     2
 72
     1
  1
7
  7
SLDTEXTSTYLE0
 73
     1
 44
1.0
  0
MTEXT
  5
C1
330
1F
100
AcDbEntity
  8
0
  6
Continuous
 62
     7
370
     0
100
AcDbMText
 10
89.9600369465
 20
291.9685515259
 30
0.0
 40
3.96875
 41
0.0
 71
     2
 72
     1
  1
7
  7
SLDTEXTSTYLE0
 73
     1
 44
1.0
  0
MTEXT
  5
C2
330
1F
100
AcDbEntity
  8
0
  6
Continuous
 62
     7
370
     0
100
AcDbMText
 10
139.9600369465
 20
9.9685515259
 30
0.0
 40
3.96875
 41
0.0
 71
     2
 72
     1
  1
6
  7
SLDTEXTSTYLE0
 73
     1
 44
1.0
  0
MTEXT
  5
C3
330
1F
100
AcDbEntity
  8
0
  6
Continuous
 62
     7
370
     0
100
AcDbMText
 10
139.9600369465
 20
291.9685515259
 30
0.0
 40
3.96875
 41
0.0
 71
     2
 72
     1
  1
6
  7
SLDTEXTSTYLE0
 73
     1
 44
1.0
  0
MTEXT
  5
C4
330
1F
100
AcDbEntity
  8
0
  6
Continuous
 62
     7
370
     0
100
AcDbMText
 10
189.9600369465
 20
9.9685515259
 30
0.0
 40
3.96875
 41
0.0
 71
     2
 72
     1
  1
5
  7
SLDTEXTSTYLE0
 73
     1
 44
1.0
  0
MTEXT
  5
C5
330
1F
100
AcDbEntity
  8
0
  6
Continuous
 62
     7
370
     0
100
AcDbMText
 10
189.9600369465
 20
291.9685515259
 30
0.0
 40
3.96875
 41
0.0
 71
     2
 72
     1
  1
5
  7
SLDTEXTSTYLE0
 73
     1
 44
1.0
  0
MTEXT
  5
C6
330
1F
100
AcDbEntity
  8
0
  6
Continuous
 62
     7
370
     0
100
AcDbMText
 10
239.9600369465
 20
9.9685515259
 30
0.0
 40
3.96875
 41
0.0
 71
     2
 72
     1
  1
4
  7
SLDTEXTSTYLE0
 73
     1
 44
1.0
  0
MTEXT
  5
C7
330
1F
100
AcDbEntity
  8
0
  6
Continuous
 62
     7
370
     0
100
AcDbMText
 10
239.9600369465
 20
291.9685515259
 30
0.0
 40
3.96875
 41
0.0
 71
     2
 72
     1
  1
4
  7
SLDTEXTSTYLE0
 73
     1
 44
1.0
  0
MTEXT
  5
C8
330
1F
100
AcDbEntity
  8
0
  6
Continuous
 62
     7
370
     0
100
AcDbMText
 10
289.9600369465
 20
9.9685515259
 30
0.0
 40
3.96875
 41
0.0
 71
     2
 72
     1
  1
3
  7
SLDTEXTSTYLE0
 73
     1
 44
1.0
  0
MTEXT
  5
C9
330
1F
100
AcDbEntity
  8
0
  6
Continuous
 62
     7
370
     0
100
AcDbMText
 10
289.9600369465
 20
291.9685515259
 30
0.0
 40
3.96875
 41
0.0
 71
     2
 72
     1
  1
3
  7
SLDTEXTSTYLE0
 73
     1
 44
1.0
  0
MTEXT
  5
CA
330
1F
100
AcDbEntity
  8
0
  6
Continuous
 62
     7
370
     0
100
AcDbMText
 10
339.9600369465
 20
9.9685515259
 30
0.0
 40
3.96875
 41
0.0
 71
     2
 72
     1
  1
2
  7
SLDTEXTSTYLE0
 73
     1
 44
1.0
  0
MTEXT
  5
CB
330
1F
100
AcDbEntity
  8
0
  6
Continuous
 62
     7
370
     0
100
AcDbMText
 10
339.9600369465
 20
291.9685515259
 30
0.0
 40
3.96875
 41
0.0
 71
     2
 72
     1
  1
2
  7
SLDTEXTSTYLE0
 73
     1
 44
1.0
  0
MTEXT
  5
CC
330
1F
100
AcDbEntity
  8
0
  6
Continuous
 62
     7
370
     0
100
AcDbMText
 10
387.4600369465
 20
9.9685515259
 30
0.0
 40
3.96875
 41
0.0
 71
     2
 72
     1
  1
1
  7
SLDTEXTSTYLE0
 73
     1
 44
1.0
  0
MTEXT
  5
CD
330
1F
100
AcDbEntity
  8
0
  6
Continuous
 62
     7
370
     0
100
AcDbMText
 10
387.4600369465
 20
291.9685515259
 30
0.0
 40
3.96875
 41
0.0
 71
     2
 72
     1
  1
1
  7
SLDTEXTSTYLE0
 73
     1
 44
1.0
  0
MTEXT
  5
CE
330
1F
100
AcDbEntity
  8
0
  6
Continuous
 62
     7
370
     0
100
AcDbMText
 10
286.5887011527
 20
41.68327814
 30
0.0
 40
1.5
 41
0.0
 71
     1
 72
     1
  1
FINITION:
  7
SLDTEXTSTYLE0
 73
     1
 44
1.0
  0
INSERT
  5
D4
330
1F
100
AcDbEntity
  8
0
  6
Continuous
 62
     7
370
     0
100
AcDbBlockReference
  2
SW_NOTE_0
 10
316.4586651263
 20
60.1960568301
 30
0.0
  0
MTEXT
  5
D5
330
1F
100
AcDbEntity
  8
0
  6
Continuous
 62
     7
370
     0
100
AcDbMText
 10
285.6458623088
 20
25.9860562892
 30
0.0
 40
1.5
 41
0.0
 71
     1
 72
     1
  1
MATERIAU:
  7
SLDTEXTSTYLE0
 73
     1
 44
1.0
  0
MTEXT
  5
D6
330
1F
100
AcDbEntity
  8
0
  6
Continuous
 62
     7
370
     0
100
AcDbMText
 10
352.1685522475
 20
62.3349086805
 30
0.0
 40
1.5
 41
0.0
 71
     1
 72
     1
  1
NE PAS CHANGER L'ECHELLE
  7
SLDTEXTSTYLE0
 73
     1
 44
1.0
  0
MTEXT
  5
D7
330
1F
100
AcDbEntity
  8
0
  6
Continuous
 62
     7
370
     0
100
AcDbMText
 10
383.3275816993
 20
62.3349086805
 30
0.0
 40
1.5
 41
0.0
 71
     1
 72
     1
  1
REVISION
  7
SLDTEXTSTYLE0
 73
     1
 44
1.0
  0
MTEXT
  5
D8
330
1F
100
AcDbEntity
  8
0
  6
Continuous
 62
     7
370
     0
100
AcDbMText
 10
330.0282962789
 20
46.5761792212
 30
0.0
 40
1.5
 41
0.0
 71
     1
 72
     1
  1
TITRE:
  7
SLDTEXTSTYLE0
 73
     1
 44
1.0
  0
MTEXT
  5
D9
330
1F
100
AcDbEntity
  8
0
  6
Continuous
 62
     7
370
     0
100
AcDbMText
 10
329.6307371314
 20
25.9860562892
 30
0.0
 40
1.5
 41
0.0
 71
     1
 72
     1
  1
No. DE PLAN
  7
SLDTEXTSTYLE0
 73
     1
 44
1.0
  0
MTEXT
  5
DA
330
1F
100
AcDbEntity
  8
0
  6
Continuous
 62
     7
370
     0
100
AcDbMText
 10
330.0739661175
 20
12.9000872745
 30
0.0
 40
1.5
 41
0.0
 71
     1
 72
     1
  1
ECHELLE:1:1
  7
SLDTEXTSTYLE0
 73
     1
 44
1.0
  0
MTEXT
  5
DB
330
1F
100
AcDbEntity
  8
0
  6
Continuous
 62
     7
370
     0
100
AcDbMText
 10
374.4782944278
 20
12.9000872745
 30
0.0
 40
1.5
 41
0.0
 71
     1
 72
     1
  1
FEUILLE: 1 sur 1
  7
SLDTEXTSTYLE0
 73
     1
 44
1.0
  0
MTEXT
  5
DC
330
1F
100
AcDbEntity
  8
0
  6
Continuous
 62
     7
370
     0
100
AcDbMText
 10
400.8711564346
 20
24.406388569
 30
0.0
 40
2.9104166667
 41
0.0
 71
     1
 72
     1
  1
A3
  7
SLDTEXTSTYLE0
 73
     1
 44
1.0
  0
MTEXT
  5
DD
330
1F
100
AcDbEntity
  8
0
  6
Continuous
 62
     7
370
     0
100
AcDbMText
 10
307.0549679492
 20
21.4855658078
 30
0.0
 40
2.38125
 41
0.0
 71
     2
 72
     1
  1
inox
  7
SLDTEXTSTYLE0
 73
     1
 44
1.0
  0
MTEXT
  5
DE
330
1F
100
AcDbEntity
  8
0
  6
Continuous
 62
     7
370
     0
100
AcDbMText
 10
285.6178111281
 20
12.9493119036
 30
0.0
 40
1.4986
 41
0.0
 71
     1
 72
     1
  1
MASSE:
  7
SLDTEXTSTYLE0
 73
     1
 44
1.0
  0
MTEXT
  5
DF
330
1F
100
AcDbEntity
  8
0
  6
Continuous
 62
     7
370
     0
100
AcDbMText
 10
365.2578082635
 20
23.6069109673
 30
0.0
 40
6.35
 41
0.0
 71
     2
 72
     1
  1
clip pied modif
  7
SLDTEXTSTYLE0
 73
     1
 44
1.0
  0
MTEXT
  5
E0
330
1F
100
AcDbEntity
  8
0
  6
Continuous
 62
     7
370
     0
100
AcDbMText
 10
401.8422334493
 20
62.7444810151
 30
0.0
 40
1.905
 41
0.0
 71
     2
 72
     1
  1
07/06/2021
  7
SLDTEXTSTYLE0
 73
     1
 44
1.0
  0
MTEXT
  5
E1
330
1F
100
AcDbEntity
  8
0
  6
Continuous
 62
     7
370
     0
100
AcDbMText
 10
294.8112575987
 20
13.5390788947
 30
0.0
 40
2.1166666667
 41
0.0
 71
     1
 72
     1
  1
31.00
  7
SLDTEXTSTYLE0
 73
     1
 44
1.0
  0
MTEXT
  5
E2
330
1F
100
AcDbEntity
  8
0
  6
Continuous
 62
     7
370
     0
100
AcDbMText
 10
343.825887342
 20
12.9000872745
 30
0.0
 40
1.5
 41
0.0
 71
     1
 72
     1
  1
DATE :
  7
SLDTEXTSTYLE0
 73
     1
 44
1.0
  0
MTEXT
  5
E3
330
1F
100
AcDbEntity
  8
0
  6
Continuous
 62
     7
370
     0
100
AcDbMText
 10
352.4234356995
 20
13.4884384562
 30
0.0
 40
2.1166666667
 41
0.0
 71
     1
 72
     1
  1
07/06/2021
  7
SLDTEXTSTYLE0
 73
     1
 44
1.0
  0
INSERT
  5
ED
330
1F
100
AcDbEntity
  8
0
  6
Continuous
 62
     7
370
     0
100
AcDbBlockReference
  2
SW_NOTE_1
 10
285.6458623088
 20
61.9873691758
 30
0.0
  0
MTEXT
  5
EE
330
1F
100
AcDbEntity
  8
0
  6
Continuous
 62
     7
370
     0
100
AcDbMText
 10
286.1904309804
 20
46.5761792212
 30
0.0
 40
1.5
 41
0.0
 71
     1
 72
     1
  1
Quantité de pièce :
  7
SLDTEXTSTYLE0
 73
     1
 44
1.0
  0
MTEXT
  5
EF
330
1F
100
AcDbEntity
  8
0
  6
Continuous
 62
     7
370
     0
100
AcDbMText
 10
311.3385817715
 20
46.586331321
 30
0.0
 40
2.1166666667
 41
0.0
 71
     1
 72
     1
  1
4
  7
SLDTEXTSTYLE0
 73
     1
 44
1.0
  0
MTEXT
  5
F0
330
1F
100
AcDbEntity
  8
0
  6
Continuous
 62
     7
370
     0
100
AcDbMText
 10
330.3528720829
 20
57.1296585515
 30
0.0
 40
1.5
 41
0.0
 71
     1
 72
     1
  1
Entreprise
  7
SLDTEXTSTYLE0
 73
     1
 44
1.0
  0
LINE
  5
F1
330
1F
100
AcDbEntity
  8
0
  6
Continuous
 62
     7
370
    25
100
AcDbLine
 10
108.8431456933
 20
146.3333216105
 30
0.0
 11
114.7823394257
 21
146.3333216105
 31
0.0
  0
LINE
  5
F2
330
1F
100
AcDbEntity
  8
0
  6
Continuous
 62
     7
370
    25
100
AcDbLine
 10
108.8431456933
 20
180.3333216105
 30
0.0
 11
108.8431456933
 21
146.3333216105
 31
0.0
  0
ARC
  5
F3
330
1F
100
AcDbEntity
  8
0
  6
Continuous
 62
     7
370
    25
100
AcDbCircle
 10
105.8431456933
 20
180.3333216105
 30
0.0
 40
3.0
100
AcDbArc
 50
0.0
 51
90.0
  0
LINE
  5
F4
330
1F
100
AcDbEntity
  8
0
  6
Continuous
 62
     7
370
    25
100
AcDbLine
 10
105.8431456933
 20
183.3333216105
 30
0.0
 11
100.3431456933
 21
183.3333216105
 31
0.0
  0
ARC
  5
F5
330
1F
100
AcDbEntity
  8
0
  6
Continuous
 62
     7
370
    25
100
AcDbCircle
 10
100.3431456933
 20
180.3333216105
 30
0.0
 40
3.0
100
AcDbArc
 50
90.0
 51
180.0
  0
LINE
  5
F6
330
1F
100
AcDbEntity
  8
0
  6
Continuous
 62
     7
370
    25
100
AcDbLine
 10
97.3431456933
 20
180.3333216105
 30
0.0
 11
97.3431456933
 21
146.3333216105
 31
0.0
  0
LINE
  5
F7
330
1F
100
AcDbEntity
  8
0
  6
Continuous
 62
     7
370
    25
100
AcDbLine
 10
95.3431456933
 20
146.3333216105
 30
0.0
 11
97.3431456933
 21
146.3333216105
 31
0.0
  0
LINE
  5
F8
330
1F
100
AcDbEntity
  8
0
  6
Continuous
 62
     7
370
    25
100
AcDbLine
 10
95.3431456933
 20
197.8176350938
 30
0.0
 11
95.3431456933
 21
146.3333216105
 31
0.0
  0
ARC
  5
F9
330
1F
100
AcDbEntity
  8
0
  6
Continuous
 62
     7
370
    25
100
AcDbCircle
 10
103.0931456933
 20
195.8333216105
 30
0.0
 40
8.000000000000002
100
AcDbArc
 50
90.0
 51
165.6384884371
  0
LINE
  5
FA
330
1F
100
AcDbEntity
  8
0
  6
Continuous
 62
     7
370
    25
100
AcDbLine
 10
103.0931456933
 20
203.8333216105
 30
0.0
 11
110.6304257449
 21
203.8333216105
 31
0.0
  0
ARC
  5
FB
330
1F
100
AcDbEntity
  8
0
  6
Continuous
 62
     7
370
    25
100
AcDbCircle
 10
110.6304257449
 20
201.8333216105
 30
0.0
 40
2.0
100
AcDbArc
 50
0.0
 51
90.0
  0
SPLINE
  5
FC
330
1F
100
AcDbEntity
  8
0
  6
Continuous
 62
     7
370
    25
100
AcDbSpline
210
0.0
220
0.0
230
1.0
 70
     8
 71
     3
 72
    19
 73
    15
 74
     0
 42
0.000000001
 43
0.00000001
 40
0.0
 40
0.0
 40
0.0
 40
0.0
 40
0.0506990994188943
 40
0.1008362804295963
 40
0.1506250852301689
 40
0.2002835505024273
 40
0.2500314267272413
 40
0.3760992806078257
 40
0.4994392486006881
 40
0.6257175790149089
 40
0.7491745242490205
 40
0.8336806054330131
 40
0.916611927984082
 40
0.9999999999999999
 40
0.9999999999999999
 40
0.9999999999999999
 40
0.9999999999999999
 10
114.8969491316808
 20
198.3333216105323
 30
0.0
 10
114.8402630722147
 20
198.3343450418828
 30
0.0
 10
114.7275192275649
 20
198.3363805614847
 30
0.0
 10
114.5597921434028
 20
198.3531305788181
 30
0.0
 10
114.3946442832129
 20
198.3799559310807
 30
0.0
 10
114.2320651978298
 20
198.4178190916285
 30
0.0
 10
113.9908019763834
 20
198.4911417291828
 30
0.0
 10
113.6825164742304
 20
198.625794754909
 30
0.0
 10
113.3335024805912
 20
198.8635390084699
 30
0.0
 10
113.0369707020357
 20
199.1608480199974
 30
0.0
 10
112.833762952054
 20
199.478176910752
 30
0.0
 10
112.7103484661936
 20
199.779954993849
 30
0.0
 10
112.6426105727849
 20
200.0538703943881
 30
0.0
 10
112.6344947834532
 20
200.2400008201865
 30
0.0
 10
112.6304257449203
 20
200.3333216105323
 30
0.0
  0
LINE
  5
FD
330
1F
100
AcDbEntity
  8
0
  6
Continuous
 62
     7
370
    25
100
AcDbLine
 10
131.8969491317
 20
198.3333216105
 30
0.0
 11
114.8969491317
 21
198.3333216105
 31
0.0
  0
LINE
  5
FE
330
1F
100
AcDbEntity
  8
0
  6
Continuous
 62
     7
370
    25
100
AcDbLine
 10
131.8969491317
 20
146.3333216105
 30
0.0
 11
131.8969491317
 21
198.3333216105
 31
0.0
  0
LINE
  5
FF
330
1F
100
AcDbEntity
  8
0
  6
Continuous
 62
     7
370
    25
100
AcDbLine
 10
114.7823394257
 20
146.3333216105
 30
0.0
 11
131.8969491317
 21
146.3333216105
 31
0.0
  0
CIRCLE
  5
100
330
1F
100
AcDbEntity
  8
0
  6
Continuous
 62
     7
370
    25
100
AcDbCircle
 10
103.0931456933
 20
195.8333216105
 30
0.0
 40
2.499999999999986
  0
CIRCLE
  5
101
330
1F
100
AcDbEntity
  8
0
  6
Continuous
 62
     7
370
    25
100
AcDbCircle
 10
124.8969491317
 20
155.8333216105
 30
0.0
 40
2.5
  0
CIRCLE
  5
102
330
1F
100
AcDbEntity
  8
0
  6
Continuous
 62
     7
370
    25
100
AcDbCircle
 10
124.8969491317
 20
185.8333216105
 30
0.0
 40
2.5
  0
LINE
  5
103
330
1F
100
AcDbEntity
  8
0
  6
Continuous
 62
     7
370
    25
100
AcDbLine
 10
112.6304257449
 20
201.8333216105
 30
0.0
 11
112.6304257449
 21
200.3333216105
 31
0.0
  0
SPLINE
  5
104
330
1F
100
AcDbEntity
  8
0
  6
Continuous
 62
     7
370
    25
100
AcDbSpline
210
0.0
220
0.0
230
1.0
 70
     8
 71
     3
 72
    20
 73
    16
 74
     0
 42
0.000000001
 43
0.00000001
 40
0.0
 40
0.0
 40
0.0
 40
0.0
 40
0.1250000000000007
 40
0.1250000000000007
 40
0.2500000000000013
 40
0.2500000000000013
 40
0.5000000000000027
 40
0.5000000000000027
 40
0.625000000000002
 40
0.625000000000002
 40
0.7500000000000013
 40
0.7500000000000013
 40
0.8750000000000007
 40
0.8750000000000007
 40
1.0
 40
1.0
 40
1.0
 40
1.0
 10
114.7823394257483
 20
146.3333216105323
 30
0.0
 10
114.7823394257483
 20
146.1248408949612
 30
0.0
 10
114.7702987357335
 20
145.9207176939574
 30
0.0
 10
114.7240206480652
 20
145.5206374437597
 30
0.0
 10
114.6891779953204
 20
145.3230982999244
 30
0.0
 10
114.5585814958234
 20
144.7692808628832
 30
0.0
 10
114.4344199472665
 20
144.4392040874399
 30
0.0
 10
114.2238264793163
 20
144.0366258321388
 30
0.0
 10
114.1484334338003
 20
143.9156009570318
 30
0.0
 10
113.9950795462152
 20
143.7083139546913
 30
0.0
 10
113.916782808674
 20
143.6210791837964
 30
0.0
 10
113.7580520598735
 20
143.4788686933096
 30
0.0
 10
113.6776434812163
 20
143.4243231969965
 30
0.0
 10
113.520965735003
 20
143.3519213053293
 30
0.0
 10
113.4439683860446
 20
143.3333216105323
 30
0.0
 10
113.3684495249127
 20
143.3333216105323
 30
0.0
  0
LINE
  5
105
330
1F
100
AcDbEntity
  8
0
  6
Continuous
 62
     7
370
    25
100
AcDbLine
 10
131.8969491317
 20
143.3333216105
 30
0.0
 11
131.8969491317
 21
146.3333216105
 31
0.0
  0
LINE
  5
106
330
1F
100
AcDbEntity
  8
0
  6
Continuous
 62
     7
370
    25
100
AcDbLine
 10
131.8969491317
 20
143.3333216105
 30
0.0
 11
113.3684495249
 21
143.3333216105
 31
0.0
  0
ARC
  5
107
330
1F
100
AcDbEntity
  8
0
  6
Continuous
 62
     7
370
    25
100
AcDbCircle
 10
131.8969491317
 20
146.3333216105
 30
0.0
 40
3.0
100
AcDbArc
 50
270.0
 51
0.0
  0
LINE
  5
108
330
1F
100
AcDbEntity
  8
0
  6
Continuous
 62
     7
370
    25
100
AcDbLine
 10
134.8969491317
 20
146.3333216105
 30
0.0
 11
131.8969491317
 21
146.3333216105
 31
0.0
  0
LINE
  5
109
330
1F
100
AcDbEntity
  8
0
  6
Continuous
 62
     7
370
    25
100
AcDbLine
 10
134.8969491317
 20
195.3333216105
 30
0.0
 11
134.8969491317
 21
146.3333216105
 31
0.0
  0
ARC
  5
10A
330
1F
100
AcDbEntity
  8
0
  6
Continuous
 62
     7
370
    25
100
AcDbCircle
 10
131.8969491317
 20
195.3333216105
 30
0.0
 40
3.0
100
AcDbArc
 50
0.0
 51
90.0
  0
LINE
  5
10B
330
1F
100
AcDbEntity
  8
0
  6
Continuous
 62
     7
370
    25
100
AcDbLine
 10
113.3684495249
 20
143.3333216105
 30
0.0
 11
95.3431456933
 21
143.3333216105
 31
0.0
  0
LINE
  5
10C
330
1F
100
AcDbEntity
  8
0
  6
Continuous
 62
     7
370
    25
100
AcDbLine
 10
95.3431456933
 20
143.3333216105
 30
0.0
 11
95.3431456933
 21
146.3333216105
 31
0.0
  0
LINE
  5
10D
330
1F
100
AcDbEntity
  8
0
  6
Continuous
 62
     7
370
    25
100
AcDbLine
 10
97.3431456933
 20
146.3333216105
 30
0.0
 11
97.3431456933
 21
143.3437564248
 31
0.0
  0
LINE
  5
10E
330
1F
100
AcDbEntity
  8
0
  6
Continuous
 62
     7
370
    25
100
AcDbLine
 10
97.3431456933
 20
143.3437564248
 30
0.0
 11
108.8431456933
 21
143.3437564248
 31
0.0
  0
LINE
  5
10F
330
1F
100
AcDbEntity
  8
0
  6
Continuous
 62
     7
370
    25
100
AcDbLine
 10
108.8431456933
 20
143.3437564248
 30
0.0
 11
108.8431456933
 21
146.3333216105
 31
0.0
  0
ARC
  5
110
330
1F
100
AcDbEntity
  8
0
  6
Continuous
 62
     7
370
    25
100
AcDbCircle
 10
103.0931456933
 20
176.3333216105
 30
0.0
 40
2.5
100
AcDbArc
 50
0.0
 51
180.0
  0
LINE
  5
111
330
1F
100
AcDbEntity
  8
0
  6
Continuous
 62
     7
370
    25
100
AcDbLine
 10
100.5931456933
 20
171.3333216105
 30
0.0
 11
100.5931456933
 21
176.3333216105
 31
0.0
  0
LINE
  5
112
330
1F
100
AcDbEntity
  8
0
  6
Continuous
 62
     7
370
    25
100
AcDbLine
 10
105.5931456933
 20
176.3333216105
 30
0.0
 11
105.5931456933
 21
171.3333216105
 31
0.0
  0
ARC
  5
113
330
1F
100
AcDbEntity
  8
0
  6
Continuous
 62
     7
370
    25
100
AcDbCircle
 10
103.0931456933
 20
171.3333216105
 30
0.0
 40
2.5
100
AcDbArc
 50
180.0
 51
0.0
  0
DIMENSION
  5
114
330
1F
100
AcDbEntity
  8
0
  6
Continuous
 62
     7
370
    18
100
AcDbDimension
  2
_D
 10
160.6139340403
 20
143.3333216105
 30
0.0
 11
160.6139340403
 21
171.2492415388
 31
0.0
 70
   160
  1
<>g6
 71
     2
 42
-1.0
  3
SLDDIMSTYLE0
100
AcDbAlignedDimension
 13
131.8969491317
 23
198.3333216105
 33
0.0
 14
131.8969491317
 24
143.3333216105
 34
0.0
 50
90.0
100
AcDbRotatedDimension
  0
DIMENSION
  5
126
330
1F
100
AcDbEntity
  8
0
  6
Continuous
 62
     7
370
    18
100
AcDbDimension
  2
_D_1
 10
112.6304257449
 20
213.8333216105
 30
0.0
 11
121.8375413737
 21
213.8333216105
 31
0.0
 70
   160
  1
<>
 71
     2
 42
-1.0
  3
SLDDIMSTYLE1
100
AcDbAlignedDimension
 13
134.8969491317
 23
195.3333216105
 33
0.0
 14
112.6304257449
 24
201.8333216105
 34
0.0
100
AcDbRotatedDimension
  0
DIMENSION
  5
131
330
1F
100
AcDbEntity
  8
0
  6
Continuous
 62
     7
370
    18
100
AcDbDimension
  2
_D_2
 10
95.3431456933
 20
231.8333216105
 30
0.0
 11
116.4768362182
 21
231.8333216105
 31
0.0
 70
   160
  1
<>
 71
     2
 42
-1.0
  3
SLDDIMSTYLE2
100
AcDbAlignedDimension
 13
134.8969491317
 23
195.3333216105
 33
0.0
 14
95.3431456933
 24
197.8176350938
 34
0.0
100
AcDbRotatedDimension
  0
DIMENSION
  5
13E
330
1F
100
AcDbEntity
  8
0
  6
Continuous
 62
     7
370
    18
100
AcDbDimension
  2
_D_3
 10
47.74775506
 20
143.3333216105
 30
0.0
 11
47.74775506
 21
176.8947499765
 31
0.0
 70
   160
  1
<>
 71
     2
 42
-1.0
  3
SLDDIMSTYLE2
100
AcDbAlignedDimension
 13
103.0931456933
 23
203.8333216105
 33
0.0
 14
95.3431456933
 24
143.3333216105
 34
0.0
 50
90.0
100
AcDbRotatedDimension
  0
INSERT
  5
155
330
1F
100
AcDbEntity
  8
0
  6
Continuous
 62
     7
370
     0
100
AcDbBlockReference
  2
SW_CENTERMARKSYMBOL_0
 10
103.0931456933
 20
195.8333216105
 30
0.0
  0
INSERT
  5
161
330
1F
100
AcDbEntity
  8
0
  6
Continuous
 62
     7
370
     0
100
AcDbBlockReference
  2
SW_CENTERMARKSYMBOL_1
 10
124.8969491317
 20
155.8333216105
 30
0.0
  0
INSERT
  5
16D
330
1F
100
AcDbEntity
  8
0
  6
Continuous
 62
     7
370
     0
100
AcDbBlockReference
  2
SW_CENTERMARKSYMBOL_2
 10
124.8969491317
 20
185.8333216105
 30
0.0
  0
LINE
  5
16E
330
1F
100
AcDbEntity
  8
0
  6
Continuous
 62
     7
370
    25
100
AcDbLine
 10
208.0931610577
 20
197.8176350938
 30
0.0
 11
202.0931610577
 21
197.8176350938
 31
0.0
  0
LINE
  5
16F
330
1F
100
AcDbEntity
  8
0
  6
Continuous
 62
     7
370
    25
100
AcDbLine
 10
208.0931610577
 20
197.8176350938
 30
0.0
 11
208.0931610577
 21
161.3333216105
 31
0.0
  0
LINE
  5
170
330
1F
100
AcDbEntity
  8
0
  6
Continuous
 62
     7
370
    25
100
AcDbLine
 10
208.0931610577
 20
161.3333216105
 30
0.0
 11
219.5931610577
 21
161.3333216105
 31
0.0
  0
LINE
  5
171
330
1F
100
AcDbEntity
  8
0
  6
Continuous
 62
     7
370
    25
100
AcDbLine
 10
219.5931610577
 20
161.3333216105
 30
0.0
 11
219.5931610577
 21
197.8176350938
 31
0.0
  0
LINE
  5
172
330
1F
100
AcDbEntity
  8
0
  6
Continuous
 62
     7
370
    25
100
AcDbLine
 10
225.5931610577
 20
197.8176350938
 30
0.0
 11
219.5931610577
 21
197.8176350938
 31
0.0
  0
LINE
  5
173
330
1F
100
AcDbEntity
  8
0
  6
Continuous
 62
     7
370
    25
100
AcDbLine
 10
225.5931610577
 20
197.8176350938
 30
0.0
 11
225.5931610577
 21
146.3333216105
 31
0.0
  0
ARC
  5
174
330
1F
100
AcDbEntity
  8
0
  6
Continuous
 62
     7
370
    25
100
AcDbCircle
 10
222.5931610577
 20
146.3333216105
 30
0.0
 40
3.0
100
AcDbArc
 50
270.0
 51
0.0
  0
LINE
  5
175
330
1F
100
AcDbEntity
  8
0
  6
Continuous
 62
     7
370
    25
100
AcDbLine
 10
222.5931610577
 20
143.3333216105
 30
0.0
 11
205.0931610577
 21
143.3333216105
 31
0.0
  0
ARC
  5
176
330
1F
100
AcDbEntity
  8
0
  6
Continuous
 62
     7
370
    25
100
AcDbCircle
 10
205.0931610577
 20
146.3333216105
 30
0.0
 40
3.0
100
AcDbArc
 50
180.0
 51
270.0
  0
LINE
  5
177
330
1F
100
AcDbEntity
  8
0
  6
Continuous
 62
     7
370
    25
100
AcDbLine
 10
202.0931610577
 20
197.8176350938
 30
0.0
 11
202.0931610577
 21
146.3333216105
 31
0.0
  0
LINE
  5
178
330
1F
100
AcDbEntity
  8
0
  6
Continuous
 62
     7
370
    25
100
AcDbLine
 10
202.0931610577
 20
203.8333216105
 30
0.0
 11
208.0931610577
 21
203.8333216105
 31
0.0
  0
LINE
  5
179
330
1F
100
AcDbEntity
  8
0
  6
Continuous
 62
     7
370
    25
100
AcDbLine
 10
208.0931610577
 20
203.8333216105
 30
0.0
 11
208.0931610577
 21
197.8176350938
 31
0.0
  0
LINE
  5
17A
330
1F
100
AcDbEntity
  8
0
  6
Continuous
 62
     7
370
    25
100
AcDbLine
 10
202.0931610577
 20
197.8176350938
 30
0.0
 11
202.0931610577
 21
203.8333216105
 31
0.0
  0
LINE
  5
17B
330
1F
100
AcDbEntity
  8
0
  6
Continuous
 62
     7
370
    25
100
AcDbLine
 10
219.5931610577
 20
203.8333216105
 30
0.0
 11
225.5931610577
 21
203.8333216105
 31
0.0
  0
LINE
  5
17C
330
1F
100
AcDbEntity
  8
0
  6
Continuous
 62
     7
370
    25
100
AcDbLine
 10
225.5931610577
 20
203.8333216105
 30
0.0
 11
225.5931610577
 21
197.8176350938
 31
0.0
  0
LINE
  5
17D
330
1F
100
AcDbEntity
  8
0
  6
Continuous
 62
     7
370
    25
100
AcDbLine
 10
219.5931610577
 20
197.8176350938
 30
0.0
 11
219.5931610577
 21
203.8333216105
 31
0.0
  0
DIMENSION
  5
17E
330
1F
100
AcDbEntity
  8
0
  6
Continuous
 62
     7
370
    18
100
AcDbDimension
  2
_D_4
 10
225.5931610577
 20
231.8333216105
 30
0.0
 11
253.6031610577
 21
231.8333216105
 31
0.0
 70
   160
  1
<>g6
 71
     2
 42
-1.0
  3
SLDDIMSTYLE3
100
AcDbAlignedDimension
 13
202.0931610577
 23
197.8176350938
 33
0.0
 14
225.5931610577
 24
197.8176350938
 34
0.0
100
AcDbRotatedDimension
  0
DIMENSION
  5
190
330
1F
100
AcDbEntity
  8
0
  6
Continuous
 62
     7
370
    18
100
AcDbDimension
  2
_D_5
 10
202.0931610577
 20
215.6626012755
 30
0.0
 11
188.2092301693
 21
215.6626012755
 31
0.0
 70
   160
  1
<>
 71
     2
 42
-1.0
  3
SLDDIMSTYLE2
100
AcDbAlignedDimension
 13
208.0931610577
 23
197.8176350938
 33
0.0
 14
202.0931610577
 24
197.8176350938
 34
0.0
100
AcDbRotatedDimension
  0
DIMENSION
  5
19C
330
1F
100
AcDbEntity
  8
0
  6
Continuous
 62
     7
370
    18
100
AcDbDimension
  2
_D_6
 10
219.5931610577
 20
215.6626012755
 30
0.0
 11
213.618514632
 21
215.6626012755
 31
0.0
 70
   160
  1
<>
 71
     2
 42
-1.0
  3
SLDDIMSTYLE2
100
AcDbAlignedDimension
 13
208.0931610577
 23
197.8176350938
 33
0.0
 14
219.5931610577
 24
197.8176350938
 34
0.0
100
AcDbRotatedDimension
  0
LINE
  5
1A8
330
1F
100
AcDbEntity
  8
0
  6
Continuous
 62
     7
370
    25
100
AcDbLine
 10
142.8866908807
 20
79.873463254
 30
0.0
 11
138.6440501936
 21
82.3226875895
 31
0.0
  0
LINE
  5
1A9
330
1F
100
AcDbEntity
  8
0
  6
Continuous
 62
     7
370
    25
100
AcDbLine
 10
130.5123222099
 20
87.0170342325
 30
0.0
 11
126.2696815228
 21
89.4662585679
 31
0.0
  0
LINE
  5
1AA
330
1F
100
AcDbEntity
  8
0
  6
Continuous
 62
     7
370
    25
100
AcDbLine
 10
157.8031547036
 20
42.7290437389
 30
0.0
 11
157.8031547036
 21
84.4716881569
 31
0.0
  0
LINE
  5
1AB
330
1F
100
AcDbEntity
  8
0
  6
Continuous
 62
     7
370
    25
100
AcDbLine
 10
157.8031546936
 20
84.4716881741
 30
0.0
 11
154.1817124589
 21
86.5623022762
 31
0.0
  0
LINE
  5
1AC
330
1F
100
AcDbEntity
  8
0
  6
Continuous
 62
     7
370
    25
100
AcDbLine
 10
140.0015320591
 20
30.7202410841
 30
0.0
 11
143.8699271016
 21
32.9534180076
 31
0.0
  0
LINE
  5
1AD
330
1F
100
AcDbEntity
  8
0
  6
Continuous
 62
     7
370
    25
100
AcDbLine
 10
130.4555905131
 20
25.2094863293
 30
0.0
 11
131.8698040755
 21
26.0258944411
 31
0.0
  0
LINE
  5
1AE
330
1F
100
AcDbEntity
  8
0
  6
Continuous
 62
     7
370
    25
100
AcDbLine
 10
146.0499844753
 20
91.2566489192
 30
0.0
 11
142.4285422406
 21
93.3472630213
 31
0.0
  0
LINE
  5
1AF
330
1F
100
AcDbEntity
  8
0
  6
Continuous
 62
     7
370
    25
100
AcDbLine
 10
143.8699271016
 20
32.9534180076
 30
0.0
 11
156.3030328025
 21
40.1308971518
 31
0.0
  0
ARC
  5
1B0
330
1F
100
AcDbEntity
  8
0
  6
Continuous
 62
     7
370
    25
100
AcDbCircle
 10
154.8031547036
 20
42.7290437389
 30
0.0
 40
3.0
100
AcDbArc
 50
299.9973117337
 51
0.0
  0
LINE
  5
1B1
330
1F
100
AcDbEntity
  8
0
  6
Continuous
 62
     7
370
    25
100
AcDbLine
 10
140.6229743037
 20
32.0937755035
 30
0.0
 11
144.8226184667
 21
34.5181784739
 31
0.0
  0
LINE
  5
1B2
330
1F
100
AcDbEntity
  8
0
  6
Continuous
 62
     7
370
    25
100
AcDbLine
 10
140.6229743037
 20
59.8561631076
 30
0.0
 11
140.6229743037
 21
32.0937755035
 31
0.0
  0
ARC
  5
1B3
330
1F
100
AcDbEntity
  8
0
  6
Continuous
 62
     7
370
    25
100
AcDbCircle
 10
139.323798736
 20
60.0556369594
 30
0.0
 40
1.314399852863509
100
AcDbArc
 50
351.2710416901
 51
128.7182065551
  0
LINE
  5
1B4
330
1F
100
AcDbEntity
  8
0
  6
Continuous
 62
     7
370
    25
100
AcDbLine
 10
138.5016539602
 20
61.0811733755
 30
0.0
 11
134.6125666636
 21
58.836051068
 31
0.0
  0
ARC
  5
1B5
330
1F
100
AcDbEntity
  8
0
  6
Continuous
 62
     7
370
    25
100
AcDbCircle
 10
137.0790410968
 20
54.9625416467
 30
0.0
 40
4.592120574058599
100
AcDbArc
 50
122.4871280433
 51
177.512871811
  0
LINE
  5
1B6
330
1F
100
AcDbEntity
  8
0
  6
Continuous
 62
     7
370
    25
100
AcDbLine
 10
132.4912463201
 20
55.1618164646
 30
0.0
 11
132.4912463201
 21
27.3994288605
 31
0.0
  0
LINE
  5
1B7
330
1F
100
AcDbEntity
  8
0
  6
Continuous
 62
     7
370
    25
100
AcDbLine
 10
131.0770327577
 20
26.5830207487
 30
0.0
 11
132.4912463201
 21
27.3994288605
 31
0.0
  0
LINE
  5
1B8
330
1F
100
AcDbEntity
  8
0
  6
Continuous
 62
     7
370
    25
100
AcDbLine
 10
131.0770327577
 20
68.6220638797
 30
0.0
 11
131.0770327577
 21
26.5830207487
 31
0.0
  0
ARC
  5
1B9
330
1F
100
AcDbEntity
  8
0
  6
Continuous
 62
     7
370
    25
100
AcDbCircle
 10
143.3736275408
 20
66.17485968
 30
0.0
 40
12.53774507854636
100
AcDbArc
 50
122.9344836679
 51
168.7443552076
  0
LINE
  5
1BA
330
1F
100
AcDbEntity
  8
0
  6
Continuous
 62
     7
370
    25
100
AcDbLine
 10
136.5571103119
 20
76.6976988654
 30
0.0
 11
141.8867721481
 21
79.774447153
 31
0.0
  0
ARC
  5
1BB
330
1F
100
AcDbEntity
  8
0
  6
Continuous
 62
     7
370
    25
100
AcDbCircle
 10
142.4345104373
 20
79.0901358742
 30
0.0
 40
0.8765267593144328
100
AcDbArc
 50
351.3146750033
 51
128.674573242
  0
LINE
  5
1BC
330
1F
100
AcDbEntity
  8
0
  6
Continuous
 62
     7
370
    25
100
AcDbLine
 10
143.3009857104
 20
78.9577736411
 30
0.0
 11
143.3009857104
 21
77.7329624232
 31
0.0
  0
SPLINE
  5
1BD
330
1F
100
AcDbEntity
  8
0
  6
Continuous
 62
     7
370
    25
100
AcDbSpline
210
0.0
220
0.0
230
1.0
 70
     8
 71
     3
 72
    19
 73
    15
 74
     0
 42
0.000000001
 43
0.00000001
 40
0.0
 40
0.0
 40
0.0
 40
0.0
 40
0.0506990994188943
 40
0.1008362804295963
 40
0.1506250852301689
 40
0.2002835505024273
 40
0.2500314267272413
 40
0.3760992806078257
 40
0.4994392486006881
 40
0.6257175790149089
 40
0.7491745242490205
 40
0.8336806054330131
 40
0.916611927984082
 40
0.9999999999999999
 40
0.9999999999999999
 40
0.9999999999999999
 40
0.9999999999999999
 10
144.9036597669389
 20
77.02508483876541
 30
0.0
 10
144.8635766698918
 20
77.0027810328436
 30
0.0
 10
144.7838547328028
 20
76.95842062300679
 30
0.0
 10
144.6652537742031
 20
76.90363081971823
 30
0.0
 10
144.5484766023644
 20
76.85812078827918
 30
0.0
 10
144.433515828611
 20
76.82267216207374
 30
0.0
 10
144.2629169686753
 20
76.78405846253527
 30
0.0
 10
144.0449261995614
 20
76.76816476112708
 30
0.0
 10
143.7981360379301
 20
76.8198237191775
 30
0.0
 10
143.5884564064762
 20
76.94154318611815
 30
0.0
 10
143.4447668284745
 20
77.1177049484746
 30
0.0
 10
143.3574996086259
 20
77.3137407757695
 30
0.0
 10
143.3096016848534
 20
77.50975299648542
 30
0.0
 10
143.3038629551822
 20
77.65842318736132
 30
0.0
 10
143.3009857104427
 20
77.73296242324332
 30
0.0
  0
LINE
  5
1BE
330
1F
100
AcDbEntity
  8
0
  6
Continuous
 62
     7
370
    25
100
AcDbLine
 10
156.9244750471
 20
83.9645537893
 30
0.0
 11
144.9036597669
 21
77.0250848388
 31
0.0
  0
LINE
  5
1BF
330
1F
100
AcDbEntity
  8
0
  6
Continuous
 62
     7
370
    25
100
AcDbLine
 10
156.9244750471
 20
41.5044315712
 30
0.0
 11
156.9244750471
 21
83.9645537893
 31
0.0
  0
LINE
  5
1C0
330
1F
100
AcDbEntity
  8
0
  6
Continuous
 62
     7
370
    25
100
AcDbLine
 10
144.8226184667
 20
34.5181784739
 30
0.0
 11
156.9244750471
 21
41.5044315712
 31
0.0
  0
LWPOLYLINE
  5
1C1
330
1F
100
AcDbEntity
  8
0
  6
Continuous
 62
     7
370
    25
100
AcDbPolyline
 90
       44
 70
   128
 43
0.0
 10
134.7893433589
 20
69.1448622306
 10
134.8081818007
 20
68.8585141922
 10
134.8642956172
 20
68.600019567
 10
134.95648884
 20
68.3748877192
 10
135.0827965306
 20
68.1879169431
 10
135.2405266597
 20
68.0430921963
 10
135.4263174837
 20
67.9435001668
 10
135.6362091935
 20
67.8912634858
 10
135.8657283119
 20
67.8874954875
 10
136.1099830372
 20
67.9322764802
 10
136.3637675041
 20
68.0246520348
 10
136.6216727373
 20
68.1626533268
 10
136.8782019345
 20
68.3433390982
 10
137.1278876212
 20
68.5628583454
 10
137.3654081805
 20
68.8165323969
 10
137.5857012741
 20
69.0989546306
 10
137.7840717371
 20
69.404105707
 10
137.9562916475
 20
69.7254818606
 10
138.098690437
 20
70.0562335167
 10
138.2082331224
 20
70.389311278
 10
138.2825849918
 20
70.7176161703
 10
138.3201613641
 20
71.0341509448
 10
138.3201613641
 20
71.3321692123
 10
138.2825849918
 20
71.6053192308
 10
138.2082331224
 20
71.847779282
 10
138.098690437
 20
72.0543817507
 10
137.9562916475
 20
72.2207232642
 10
137.7840717371
 20
72.3432585417
 10
137.5857012741
 20
72.4193759566
 10
137.3654081805
 20
72.4474531983
 10
137.1278876212
 20
72.4268918493
 10
136.8782019345
 20
72.3581301389
 10
136.6216727373
 20
72.2426336036
 10
136.3637675041
 20
72.0828638515
 10
136.1099830372
 20
71.8822260976
 10
135.8657283119
 20
71.6449965872
 10
135.6362091935
 20
71.3762314555
 10
135.4263174837
 20
71.0816589646
 10
135.2405266597
 20
70.7675574158
 10
135.0827965306
 20
70.4406213382
 10
134.95648884
 20
70.1078188067
 10
134.8642956172
 20
69.7762429295
 10
134.8081818007
 20
69.4529606708
 10
134.7893433589
 20
69.1448622306
  0
LWPOLYLINE
  5
1C2
330
1F
100
AcDbEntity
  8
0
  6
Continuous
 62
     7
370
    25
100
AcDbPolyline
 90
       44
 70
   128
 43
0.0
 10
150.2069606258
 20
45.383630753
 10
150.2257990676
 20
45.0972827146
 10
150.2819128841
 20
44.8387880894
 10
150.3741061069
 20
44.6136562416
 10
150.5004137975
 20
44.4266854655
 10
150.6581439267
 20
44.2818607187
 10
150.8439347506
 20
44.1822686892
 10
151.0538264604
 20
44.1300320082
 10
151.2833455788
 20
44.1262640099
 10
151.5276003041
 20
44.1710450026
 10
151.781384771
 20
44.2634205572
 10
152.0392900042
 20
44.4014218492
 10
152.2958192014
 20
44.5821076206
 10
152.5455048881
 20
44.8016268678
 10
152.7830254474
 20
45.0553009193
 10
153.003318541
 20
45.337723153
 10
153.201689004
 20
45.6428742294
 10
153.3739089144
 20
45.964250383
 10
153.5163077039
 20
46.2950020391
 10
153.6258503894
 20
46.6280798004
 10
153.7002022587
 20
46.9563846927
 10
153.737778631
 20
47.2729194672
 10
153.737778631
 20
47.5709377347
 10
153.7002022587
 20
47.8440877532
 10
153.6258503894
 20
48.0865478044
 10
153.5163077039
 20
48.2931502731
 10
153.3739089144
 20
48.4594917866
 10
153.201689004
 20
48.5820270641
 10
153.003318541
 20
48.658144479
 10
152.7830254474
 20
48.6862217207
 10
152.5455048881
 20
48.6656603717
 10
152.2958192014
 20
48.5968986613
 10
152.0392900042
 20
48.481402126
 10
151.781384771
 20
48.3216323739
 10
151.5276003041
 20
48.12099462
 10
151.2833455788
 20
47.8837651096
 10
151.0538264604
 20
47.6149999779
 10
150.8439347506
 20
47.320427487
 10
150.6581439267
 20
47.0063259382
 10
150.5004137975
 20
46.6793898606
 10
150.3741061069
 20
46.3465873291
 10
150.2819128841
 20
46.0150114519
 10
150.2257990676
 20
45.6917291932
 10
150.2069606258
 20
45.383630753
  0
LWPOLYLINE
  5
1C3
330
1F
100
AcDbEntity
  8
0
  6
Continuous
 62
     7
370
    25
100
AcDbPolyline
 90
       44
 70
   128
 43
0.0
 10
150.2069606258
 20
69.8798551095
 10
150.2257990676
 20
69.5935070712
 10
150.2819128841
 20
69.335012446
 10
150.3741061069
 20
69.1098805981
 10
150.5004137975
 20
68.922909822
 10
150.6581439267
 20
68.7780850752
 10
150.8439347506
 20
68.6784930457
 10
151.0538264604
 20
68.6262563648
 10
151.2833455788
 20
68.6224883665
 10
151.5276003041
 20
68.6672693592
 10
151.781384771
 20
68.7596449138
 10
152.0392900042
 20
68.8976462058
 10
152.2958192014
 20
69.0783319771
 10
152.5455048881
 20
69.2978512244
 10
152.7830254474
 20
69.5515252758
 10
153.003318541
 20
69.8339475096
 10
153.201689004
 20
70.1390985859
 10
153.3739089144
 20
70.4604747396
 10
153.5163077039
 20
70.7912263957
 10
153.6258503894
 20
71.124304157
 10
153.7002022587
 20
71.4526090493
 10
153.737778631
 20
71.7691438238
 10
153.737778631
 20
72.0671620913
 10
153.7002022587
 20
72.3403121098
 10
153.6258503894
 20
72.582772161
 10
153.5163077039
 20
72.7893746297
 10
153.3739089144
 20
72.9557161431
 10
153.201689004
 20
73.0782514206
 10
153.003318541
 20
73.1543688356
 10
152.7830254474
 20
73.1824460773
 10
152.5455048881
 20
73.1618847282
 10
152.2958192014
 20
73.0931230178
 10
152.0392900042
 20
72.9776264825
 10
151.781384771
 20
72.8178567305
 10
151.5276003041
 20
72.6172189766
 10
151.2833455788
 20
72.3799894662
 10
151.0538264604
 20
72.1112243345
 10
150.8439347506
 20
71.8166518436
 10
150.6581439267
 20
71.5025502947
 10
150.5004137975
 20
71.1756142172
 10
150.3741061069
 20
70.8428116857
 10
150.2819128841
 20
70.5112358085
 10
150.2257990676
 20
70.1879535497
 10
150.2069606258
 20
69.8798551095
  0
LINE
  5
1C4
330
1F
100
AcDbEntity
  8
0
  6
Continuous
 62
     7
370
    25
100
AcDbLine
 10
132.3144696248
 20
79.1469232009
 30
0.0
 11
136.5571103119
 21
76.6976988654
 31
0.0
  0
LINE
  5
1C5
330
1F
100
AcDbEntity
  8
0
  6
Continuous
 62
     7
370
    25
100
AcDbLine
 10
131.0770327577
 20
68.6220638797
 30
0.0
 11
126.8343920706
 21
71.0712882152
 31
0.0
  0
ARC
  5
1C6
330
1F
100
AcDbEntity
  8
0
  6
Continuous
 62
     7
370
    25
100
AcDbCircle
 10
139.1309868537
 20
68.6240840154
 30
0.0
 40
12.53774507854612
100
AcDbArc
 50
122.9344836679
 51
168.7443552076
  0
LINE
  5
1C7
330
1F
100
AcDbEntity
  8
0
  6
Continuous
 62
     7
370
    25
100
AcDbLine
 10
118.7026640869
 20
75.7656348582
 30
0.0
 11
114.4600233998
 21
78.2148591936
 31
0.0
  0
LINE
  5
1C8
330
1F
100
AcDbEntity
  8
0
  6
Continuous
 62
     7
370
    25
100
AcDbLine
 10
118.7026640869
 20
75.7656348582
 30
0.0
 11
118.7026640869
 21
45.9747039054
 31
0.0
  0
LINE
  5
1C9
330
1F
100
AcDbEntity
  8
0
  6
Continuous
 62
     7
370
    25
100
AcDbLine
 10
118.7026640869
 20
45.9747039054
 30
0.0
 11
126.8343920706
 21
41.2803572624
 31
0.0
  0
ARC
  5
1CA
330
1F
100
AcDbEntity
  8
0
  6
Continuous
 62
     7
370
    25
100
AcDbCircle
 10
129.77785719
 20
26.3835468968
 30
0.0
 40
1.314399852863488
100
AcDbArc
 50
231.2817934449
 51
8.7289583099
  0
LINE
  5
1CB
330
1F
100
AcDbEntity
  8
0
  6
Continuous
 62
     7
370
    25
100
AcDbLine
 10
128.9557124141
 20
25.3580104808
 30
0.0
 11
116.5813437434
 21
32.5015814592
 31
0.0
  0
ARC
  5
1CC
330
1F
100
AcDbEntity
  8
0
  6
Continuous
 62
     7
370
    25
100
AcDbCircle
 10
119.0478181766
 20
36.3750908805
 30
0.0
 40
4.592120574058713
100
AcDbArc
 50
182.487128189
 51
237.5128719567
  0
LINE
  5
1CD
330
1F
100
AcDbEntity
  8
0
  6
Continuous
 62
     7
370
    25
100
AcDbLine
 10
114.4600233998
 20
78.2148591936
 30
0.0
 11
114.4600233998
 21
36.1758160626
 31
0.0
  0
LINE
  5
1CE
330
1F
100
AcDbEntity
  8
0
  6
Continuous
 62
     7
370
    25
100
AcDbLine
 10
126.8343920706
 20
41.2803572624
 30
0.0
 11
126.8343920706
 21
71.0712882152
 31
0.0
  0
LINE
  5
1CF
330
1F
100
AcDbEntity
  8
0
  6
Continuous
 62
     7
370
    25
100
AcDbLine
 10
141.8867721481
 20
79.774447153
 30
0.0
 11
137.644131461
 21
82.2236714885
 31
0.0
  0
LINE
  5
1D0
330
1F
100
AcDbEntity
  8
0
  6
Continuous
 62
     7
370
    25
100
AcDbLine
 10
137.644131461
 20
82.2236714885
 30
0.0
 11
132.3144696248
 21
79.1469232009
 31
0.0
  0
ARC
  5
1D1
330
1F
100
AcDbEntity
  8
0
  6
Continuous
 62
     7
370
    25
100
AcDbCircle
 10
138.2268968912
 20
81.4369586252
 30
0.0
 40
0.9790468201136575
100
AcDbArc
 50
64.7808901013
 51
126.5295683278
  0
LINE
  5
1D2
330
1F
100
AcDbEntity
  8
0
  6
Continuous
 62
     7
370
    25
100
AcDbLine
 10
134.0822365777
 20
54.8531421215
 30
0.0
 11
132.8447997107
 21
54.1387850236
 31
0.0
  0
LINE
  5
1D3
330
1F
100
AcDbEntity
  8
0
  6
Continuous
 62
     7
370
    25
100
AcDbLine
 10
126.8343920706
 20
50.6690505484
 30
0.0
 11
118.7026640869
 21
45.9747039054
 31
0.0
  0
ARC
  5
1D4
330
1F
100
AcDbEntity
  8
0
  6
Continuous
 62
     7
370
    25
100
AcDbCircle
 10
130.99925887
 20
73.3184306584
 30
0.0
 40
12.53774507854619
100
AcDbArc
 50
122.9344836679
 51
168.7443552076
  0
LINE
  5
1D5
330
1F
100
AcDbEntity
  8
0
  6
Continuous
 62
     7
370
    25
100
AcDbLine
 10
129.5124034773
 20
86.9180181315
 30
0.0
 11
124.1827416411
 21
83.8412698439
 31
0.0
  0
ARC
  5
1D6
330
1F
100
AcDbEntity
  8
0
  6
Continuous
 62
     7
370
    25
100
AcDbCircle
 10
130.0601417665
 20
86.2337068526
 30
0.0
 40
0.8765267593144578
100
AcDbArc
 50
351.3146750033
 51
128.674573242
  0
LINE
  5
1D7
330
1F
100
AcDbEntity
  8
0
  6
Continuous
 62
     7
370
    25
100
AcDbLine
 10
130.9266170397
 20
86.1013446195
 30
0.0
 11
130.9266170397
 21
84.8765334017
 31
0.0
  0
SPLINE
  5
1D8
330
1F
100
AcDbEntity
  8
0
  6
Continuous
 62
     7
370
    25
100
AcDbSpline
210
0.0
220
0.0
230
1.0
 70
     8
 71
     3
 72
    16
 73
    12
 74
     0
 42
0.000000001
 43
0.00000001
 40
0.0
 40
0.0
 40
0.0
 40
0.0
 40
0.2499999999999998
 40
0.2499999999999998
 40
0.4999999999999997
 40
0.4999999999999997
 40
0.7499999999999996
 40
0.7499999999999996
 40
0.8749999999999998
 40
0.8749999999999998
 40
1.0
 40
1.0
 40
1.0
 40
1.0
 10
132.5292910961743
 20
84.1686558172141
 30
0.0
 10
132.3297979911302
 20
84.05349089902633
 30
0.0
 10
132.1354728887798
 20
83.97713080477739
 30
0.0
 10
131.7579010115203
 20
83.90759411508336
 30
0.0
 10
131.5850471391422
 20
83.91636323027454
 30
0.0
 10
131.2779121439943
 20
84.03262497093975
 30
0.0
 10
131.1523301018051
 20
84.13757791285279
 30
0.0
 10
131.018595573732
 20
84.37006330118577
 30
0.0
 10
130.9847788189315
 20
84.4574997916881
 30
0.0
 10
130.9387405067437
 20
84.65232233605774
 30
0.0
 10
130.9266170396781
 20
84.7608284579788
 30
0.0
 10
130.9266170396781
 20
84.87653340169201
 30
0.0
  0
LINE
  5
1D9
330
1F
100
AcDbEntity
  8
0
  6
Continuous
 62
     7
370
    25
100
AcDbLine
 10
132.5292910962
 20
84.1686558172
 30
0.0
 11
144.5501063763
 21
91.1081247677
 31
0.0
  0
ARC
  5
1DA
330
1F
100
AcDbEntity
  8
0
  6
Continuous
 62
     7
370
    25
100
AcDbCircle
 10
145.3722620495
 20
90.0826072222
 30
0.0
 40
1.314391945761536
100
AcDbArc
 50
351.2701565399
 51
128.7190917054
  0
LINE
  5
1DB
330
1F
100
AcDbEntity
  8
0
  6
Continuous
 62
     7
370
    25
100
AcDbLine
 10
146.6714267199
 20
89.8831144998
 30
0.0
 11
146.6714267199
 21
82.9440436495
 31
0.0
  0
LWPOLYLINE
  5
1DC
330
1F
100
AcDbEntity
  8
0
  6
Continuous
 62
     7
370
    25
100
AcDbPolyline
 90
       44
 70
   128
 43
0.0
 10
124.1827416411
 20
79.3502953785
 10
123.9253527085
 20
79.1799539733
 10
123.6734495741
 20
78.9697352249
 10
123.4324011159
 20
78.7241195811
 10
123.2073448633
 20
78.4483419129
 10
123.0030774996
 20
78.1482799424
 10
122.8239526289
 20
77.8303289696
 10
122.673787987
 20
77.5012655676
 10
122.5557840725
 20
77.1681031513
 10
122.4724559339
 20
76.8379424994
 10
122.4255795659
 20
76.5178204128
 10
122.4161540568
 20
76.2145597381
 10
122.4443802949
 20
75.9346239501
 10
122.5096566872
 20
75.683979394
 10
122.6105919804
 20
75.4679681234
 10
122.7450349143
 20
75.2911940435
 10
122.9101200709
 20
75.157424787
 10
123.1023289468
 20
75.0695114132
 10
123.3175649436
 20
75.0293276432
 10
123.5512406796
 20
75.0377299242
 10
123.7983757622
 20
75.0945391761
 10
124.0537029361
 20
75.1985446085
 10
124.3117803461
 20
75.347529526
 10
124.5671075201
 20
75.5383185739
 10
124.8142426027
 20
75.7668454147
 10
125.0479183387
 20
76.0282393957
 10
125.2631543354
 20
76.316929358
 10
125.4553632114
 20
76.6267623762
 10
125.620448368
 20
76.9511348975
 10
125.7548913018
 20
77.2831334847
 10
125.8558265951
 20
77.6156821643
 10
125.9211029873
 20
77.9416932387
 10
125.9493292255
 20
78.2542183477
 10
125.9399037164
 20
78.5465965612
 10
125.8930273483
 20
78.8125963452
 10
125.8096992097
 20
79.0465483762
 10
125.6916952952
 20
79.2434663728
 10
125.5415306533
 20
79.3991533698
 10
125.3624057827
 20
79.510291169
 10
125.158138419
 20
79.5745110614
 10
124.9330821664
 20
79.5904443113
 10
124.6920337082
 20
79.5577513292
 10
124.4401305738
 20
79.4771289093
 10
124.1827416411
 20
79.3502953785
  0
LWPOLYLINE
  5
1DD
330
1F
100
AcDbEntity
  8
0
  6
Continuous
 62
     7
370
    25
100
AcDbPolyline
 90
       22
 70
   128
 43
0.0
 10
122.4149746882
 20
56.2831833178
 10
122.4347191844
 20
55.9903338403
 10
122.4935116139
 20
55.7268226464
 10
122.5900386508
 20
55.4985361408
 10
122.7221440406
 20
55.3105738666
 10
122.8868767673
 20
55.1671345906
 10
123.0805569739
 20
55.0714225091
 10
123.2988581646
 20
55.0255756719
 10
123.5369038517
 20
55.0306182215
 10
123.7893764877
 20
55.0864375158
 10
124.0506362513
 20
55.1917866439
 10
124.314847031
 20
55.3443122804
 10
124.5761067945
 20
55.5406072546
 10
124.8285794306
 20
55.7762866612
 10
125.0666251176
 20
56.0460858117
 10
125.2849263084
 20
56.3439778388
 10
125.478606515
 20
56.663308327
 10
125.6433392416
 20
56.9969439607
 10
125.7754446315
 20
57.3374318714
 10
125.8719716683
 20
57.6771661216
 10
125.9307640978
 20
58.0085576097
 10
125.9505085941
 20
58.3242035974
  0
LINE
  5
1DE
330
1F
100
AcDbEntity
  8
0
  6
Continuous
 62
     7
370
    25
100
AcDbLine
 10
125.9505085941
 20
58.3242035974
 30
0.0
 11
125.9505085941
 21
62.4069076568
 31
0.0
  0
LWPOLYLINE
  5
1DF
330
1F
100
AcDbEntity
  8
0
  6
Continuous
 62
     7
370
    25
100
AcDbPolyline
 90
       22
 70
   128
 43
0.0
 10
125.9505085941
 20
62.4069076568
 10
125.9307640978
 20
62.6997571343
 10
125.8719716683
 20
62.9632683282
 10
125.7754446315
 20
63.1915548338
 10
125.6433392416
 20
63.379517108
 10
125.478606515
 20
63.522956384
 10
125.2849263084
 20
63.6186684655
 10
125.0666251176
 20
63.6645153027
 10
124.8285794306
 20
63.6594727531
 10
124.5761067945
 20
63.6036534588
 10
124.314847031
 20
63.4983043307
 10
124.0506362513
 20
63.3457786942
 10
123.7893764877
 20
63.14948372
 10
123.5369038517
 20
62.9138043134
 10
123.2988581646
 20
62.6440051629
 10
123.0805569739
 20
62.3461131358
 10
122.8868767673
 20
62.0267826476
 10
122.7221440406
 20
61.6931470139
 10
122.5900386508
 20
61.3526591032
 10
122.4935116139
 20
61.012924853
 10
122.4347191844
 20
60.6815333649
 10
122.4149746882
 20
60.3658873772
  0
LINE
  5
1E0
330
1F
100
AcDbEntity
  8
0
  6
Continuous
 62
     7
370
    25
100
AcDbLine
 10
122.4149746882
 20
60.3658873772
 30
0.0
 11
122.4149746882
 21
56.2831833178
 31
0.0
  0
ARC
  5
1E1
330
1F
100
AcDbEntity
  8
0
  6
Continuous
 62
     7
370
    25
100
AcDbCircle
 10
126.7566181829
 20
75.7676549939
 30
0.0
 40
12.53774507854631
100
AcDbArc
 50
122.9344836679
 51
168.7443552076
  0
LINE
  5
1E2
330
1F
100
AcDbEntity
  8
0
  6
Continuous
 62
     7
370
    25
100
AcDbLine
 10
119.940100954
 20
86.2904941793
 30
0.0
 11
124.1827416411
 21
83.8412698439
 31
0.0
  0
LINE
  5
1E3
330
1F
100
AcDbEntity
  8
0
  6
Continuous
 62
     7
370
    25
100
AcDbLine
 10
156.9244750471
 20
83.9645537893
 30
0.0
 11
152.68183436
 21
86.4137781247
 31
0.0
  0
LINE
  5
1E4
330
1F
100
AcDbEntity
  8
0
  6
Continuous
 62
     7
370
    25
100
AcDbLine
 10
152.68183436
 20
86.4137781247
 30
0.0
 11
142.1195700123
 21
80.316312705
 31
0.0
  0
LINE
  5
1E5
330
1F
100
AcDbEntity
  8
0
  6
Continuous
 62
     7
370
    25
100
AcDbLine
 10
138.6784306554
 20
60.9787242614
 30
0.0
 11
138.6715857262
 21
61.1714005497
 31
0.0
  0
LINE
  5
1E6
330
1F
100
AcDbEntity
  8
0
  6
Continuous
 62
     7
370
    25
100
AcDbLine
 10
138.6784306554
 20
60.9787242614
 30
0.0
 11
138.6784306554
 21
30.7752346733
 31
0.0
  0
LINE
  5
1E7
330
1F
100
AcDbEntity
  8
0
  6
Continuous
 62
     7
370
    25
100
AcDbLine
 10
132.4838390331
 20
27.1991730483
 30
0.0
 11
138.6784306554
 21
30.7752346733
 31
0.0
  0
LWPOLYLINE
  5
1E8
330
1F
100
AcDbEntity
  8
0
  6
Continuous
 62
     7
370
    25
100
AcDbPolyline
 90
       22
 70
   128
 43
0.0
 10
132.8447997107
 20
54.3448775525
 10
132.8645442069
 20
54.6605235402
 10
132.9233366364
 20
54.9919150283
 10
133.0198636733
 20
55.3316492785
 10
133.1519690631
 20
55.6721371892
 10
133.3167017898
 20
56.0057728229
 10
133.5103819964
 20
56.3251033111
 10
133.7286831871
 20
56.6229953382
 10
133.9667288742
 20
56.8927944887
 10
134.2192015102
 20
57.1284738953
 10
134.4804612738
 20
57.3247688695
 10
134.7446720535
 20
57.477294506
 10
135.005931817
 20
57.5826436341
 10
135.2584044531
 20
57.6384629284
 10
135.4964501401
 20
57.643505478
 10
135.7147513309
 20
57.5976586408
 10
135.9084315375
 20
57.5019465593
 10
136.0731642641
 20
57.3585072833
 10
136.205269654
 20
57.1705450091
 10
136.3017966908
 20
56.9422585035
 10
136.3605891203
 20
56.6787473096
 10
136.3803336166
 20
56.3858978321
  0
LINE
  5
1E9
330
1F
100
AcDbEntity
  8
0
  6
Continuous
 62
     7
370
    25
100
AcDbLine
 10
132.8447997107
 20
50.2621734931
 30
0.0
 11
132.8447997107
 21
54.3448775525
 31
0.0
  0
LWPOLYLINE
  5
1EA
330
1F
100
AcDbEntity
  8
0
  6
Continuous
 62
     7
370
    25
100
AcDbPolyline
 90
       22
 70
   128
 43
0.0
 10
136.3803336166
 20
52.3031937727
 10
136.3605891203
 20
51.987547785
 10
136.3017966908
 20
51.6561562969
 10
136.205269654
 20
51.3164220467
 10
136.0731642641
 20
50.9759341361
 10
135.9084315375
 20
50.6422985023
 10
135.7147513309
 20
50.3229680141
 10
135.4964501401
 20
50.025075987
 10
135.2584044531
 20
49.7552768365
 10
135.005931817
 20
49.5195974299
 10
134.7446720535
 20
49.3233024557
 10
134.4804612738
 20
49.1707768192
 10
134.2192015102
 20
49.0654276911
 10
133.9667288742
 20
49.0096083968
 10
133.7286831871
 20
49.0045658472
 10
133.5103819964
 20
49.0504126844
 10
133.3167017898
 20
49.1461247659
 10
133.1519690631
 20
49.2895640419
 10
133.0198636733
 20
49.4775263161
 10
132.9233366364
 20
49.7058128217
 10
132.8645442069
 20
49.9693240156
 10
132.8447997107
 20
50.2621734931
  0
LINE
  5
1EB
330
1F
100
AcDbEntity
  8
0
  6
Continuous
 62
     7
370
    25
100
AcDbLine
 10
136.3803336166
 20
56.3858978321
 30
0.0
 11
136.3803336166
 21
52.3031937727
 31
0.0
  0
LINE
  5
1EC
330
1F
100
AcDbEntity
  8
0
  6
Continuous
 62
     7
370
    25
100
AcDbLine
 10
129.5124034773
 20
86.9180181315
 30
0.0
 11
125.2697627902
 21
89.3672424669
 31
0.0
  0
LINE
  5
1ED
330
1F
100
AcDbEntity
  8
0
  6
Continuous
 62
     7
370
    25
100
AcDbLine
 10
125.2697627902
 20
89.3672424669
 30
0.0
 11
119.940100954
 21
86.2904941793
 31
0.0
  0
LINE
  5
1EE
330
1F
100
AcDbEntity
  8
0
  6
Continuous
 62
     7
370
    25
100
AcDbLine
 10
140.6229743037
 20
59.8561631076
 30
0.0
 11
138.6784306554
 21
60.9787242614
 31
0.0
  0
ARC
  5
1EF
330
1F
100
AcDbEntity
  8
0
  6
Continuous
 62
     7
370
    25
100
AcDbCircle
 10
125.8525282204
 20
88.5805296036
 30
0.0
 40
0.9790468201138287
100
AcDbArc
 50
64.7808901013
 51
126.5295683278
  0
LWPOLYLINE
  5
1F0
330
1F
100
AcDbEntity
  8
0
  6
Continuous
 62
     7
370
    25
100
AcDbPolyline
 90
       12
 70
   128
 43
0.0
 10
138.6784306554
 20
30.7752346733
 10
138.9617837789
 20
30.6614580387
 10
139.2367371002
 20
30.5961844188
 10
139.4982712673
 20
30.5806054022
 10
139.7416118988
 20
30.6150053884
 10
139.9623167416
 20
30.6987563957
 10
140.1563567651
 20
30.8303295254
 10
140.3201897129
 20
31.0073228722
 10
140.4508247676
 20
31.2265053717
 10
140.5458771485
 20
31.4838757842
 10
140.6036116472
 20
31.7747357388
 10
140.6229743037
 20
32.0937755035
  0
LINE
  5
1F1
330
1F
100
AcDbEntity
  8
0
  6
Continuous
 62
     7
370
    25
100
AcDbLine
 10
134.0822365777
 20
53.6298569544
 30
0.0
 11
136.3803336166
 21
52.3031937727
 31
0.0
  0
ARC
  5
1F2
330
1F
100
AcDbEntity
  8
0
  6
Continuous
 62
     7
370
    25
100
AcDbCircle
 10
130.1663507722
 20
53.8318940768
 30
0.0
 40
3.921094316755926
100
AcDbArc
 50
313.085353338
 51
357.0464870932
  0
LINE
  5
1F3
330
1F
100
AcDbEntity
  8
0
  6
Continuous
 62
     7
370
    25
100
AcDbLine
 10
134.0822365777
 20
57.0065603754
 30
0.0
 11
134.0822365777
 21
53.6298569544
 31
0.0
  0
LWPOLYLINE
  5
1F4
330
1F
100
AcDbEntity
  8
0
  6
Continuous
 62
     7
370
    25
100
AcDbPolyline
 90
        8
 70
   128
 43
0.0
 10
157.8031547036
 20
84.4716881569
 10
157.7842913332
 20
84.460828313
 10
157.7279384401
 20
84.428322314
 10
157.6348046945
 20
84.3745789419
 10
157.5060613073
 20
84.3002740507
 10
157.3433273012
 20
84.2063420675
 10
157.148649151
 20
84.0939642416
 10
156.9244750471
 20
83.9645537893
  0
ARC
  5
1F5
330
1F
100
AcDbEntity
  8
0
  6
Continuous
 62
     7
370
    25
100
AcDbCircle
 10
153.5590173994
 20
85.2030608095
 30
0.0
 40
1.495087456269193
100
AcDbArc
 50
65.3865595238
 51
125.9238989053
  0
LINE
  5
1F6
330
1F
100
AcDbEntity
  8
0
  6
Continuous
 62
     7
370
    25
100
AcDbLine
 10
144.5501063763
 20
91.1081247677
 30
0.0
 11
140.3074656892
 21
93.5573491032
 31
0.0
  0
LINE
  5
1F7
330
1F
100
AcDbEntity
  8
0
  6
Continuous
 62
     7
370
    25
100
AcDbLine
 10
129.7452013416
 20
87.4598836835
 30
0.0
 11
140.3074656892
 21
93.5573491032
 31
0.0
  0
LINE
  5
1F8
330
1F
100
AcDbEntity
  8
0
  6
Continuous
 62
     7
370
    25
100
AcDbLine
 10
123.6524115552
 20
59.6508667791
 30
0.0
 11
125.9505085941
 21
58.3242035974
 31
0.0
  0
ARC
  5
1F9
330
1F
100
AcDbEntity
  8
0
  6
Continuous
 62
     7
370
    25
100
AcDbCircle
 10
119.7534321833
 20
59.8450439701
 30
0.0
 40
3.903811589230529
100
AcDbArc
 50
312.9829325021
 51
357.148907929
  0
LINE
  5
1FA
330
1F
100
AcDbEntity
  8
0
  6
Continuous
 62
     7
370
    25
100
AcDbLine
 10
123.6524115552
 20
59.6508667791
 30
0.0
 11
123.6524115552
 21
63.0275702001
 31
0.0
  0
ARC
  5
1FB
330
1F
100
AcDbEntity
  8
0
  6
Continuous
 62
     7
370
    25
100
AcDbCircle
 10
130.9901546437
 20
27.2512331919
 30
0.0
 40
1.508389265749887
100
AcDbArc
 50
305.6739103298
 51
5.6382700636
  0
ELLIPSE
  5
1FC
330
1F
100
AcDbEntity
  8
0
  6
Continuous
 62
     7
370
    25
100
AcDbEllipse
 10
142.4287860328
 20
89.8831144998
 30
0.0
 11
-2.121406535362581
 21
3.674184841878684
 31
0.0
210
0.0
220
0.0
230
1.0
 40
0.5773346305
 41
5.497827775813205
 42
6.283144675148566
  0
LINE
  5
1FD
330
1F
100
AcDbEntity
  8
0
  6
Continuous
 62
     8
370
    25
100
AcDbLine
 10
143.3009857104
 20
77.9502888781
 30
0.0
 11
144.9036597669
 21
77.0250848388
 31
0.0
  0
LINE
  5
1FE
330
1F
100
AcDbEntity
  8
0
  6
Continuous
 62
     8
370
    25
100
AcDbLine
 10
134.6122793518
 20
57.4065738335
 30
0.0
 11
136.3803336166
 21
56.3858978321
 31
0.0
  0
LINE
  5
1FF
330
1F
100
AcDbEntity
  8
0
  6
Continuous
 62
     8
370
    25
100
AcDbLine
 10
130.9266170397
 20
85.0938598565
 30
0.0
 11
132.5292910962
 21
84.1686558172
 31
0.0
  0
ARC
  5
200
330
1F
100
AcDbEntity
  8
0
  6
Continuous
 62
     8
370
    25
100
AcDbCircle
 10
156.3147941344
 20
42.8694275339
 30
0.0
 40
1.494966485779889
100
AcDbArc
 50
294.0681184713
 51
354.6117405711
  0
LINE
  5
201
330
1F
100
AcDbEntity
  8
0
  6
Continuous
 62
     8
370
    25
100
AcDbLine
 10
124.1824543293
 20
63.4275836582
 30
0.0
 11
125.9505085941
 21
62.4069076568
 31
0.0
  0
SPLINE
  5
202
330
1F
100
AcDbEntity
  8
0
  6
Continuous
 62
     8
370
    25
100
AcDbSpline
210
0.0
220
0.0
230
1.0
 70
     8
 71
     3
 72
    14
 73
    10
 74
     0
 42
0.000000001
 43
0.00000001
 40
0.0
 40
0.0
 40
0.0
 40
0.0
 40
0.1885966785359234
 40
0.2855468201453559
 40
0.3832393210845979
 40
0.5717479050218865
 40
0.7651765587255377
 40
0.9650839697140557
 40
1.0
 40
1.0
 40
1.0
 40
1.0
 10
144.8226184666843
 20
34.51817847389799
 30
0.0
 10
144.815558773467
 20
34.39529155383299
 30
0.0
 10
144.8048699693744
 20
34.2092332969516
 30
0.0
 10
144.7389687405566
 20
33.97404625666493
 30
0.0
 10
144.650546098343
 20
33.74855476246724
 30
0.0
 10
144.496058630647
 20
33.48621189633567
 30
0.0
 10
144.2436036424189
 20
33.21481616152179
 30
0.0
 10
144.0288343601913
 20
33.03665531361735
 30
0.0
 10
143.8884065626778
 20
32.96807183589037
 30
0.0
 10
143.8675262740475
 20
32.95787411980022
 30
0.0
  0
ARC
  5
203
330
1F
100
AcDbEntity
  8
0
  6
Continuous
 62
     8
370
    25
100
AcDbCircle
 10
155.4371438469
 20
41.3500101094
 30
0.0
 40
1.495326080460592
100
AcDbArc
 50
305.3847106268
 51
5.9274697666
  0
LINE
  5
204
330
1F
100
AcDbEntity
  8
0
  6
Continuous
 62
     7
370
    25
100
AcDbLine
 10
253.25631524
 20
44.4323875049
 30
0.0
 11
253.25631524
 21
86.1750319229
 31
0.0
  0
LINE
  5
205
330
1F
100
AcDbEntity
  8
0
  6
Continuous
 62
     7
370
    25
100
AcDbLine
 10
215.636227247
 20
97.6184191708
 30
0.0
 11
211.3935865599
 21
95.1691948353
 31
0.0
  0
LINE
  5
206
330
1F
100
AcDbEntity
  8
0
  6
Continuous
 62
     7
370
    25
100
AcDbLine
 10
228.0105959178
 20
104.7619901492
 30
0.0
 11
223.7679552307
 21
102.3127658138
 31
0.0
  0
ARC
  5
207
330
1F
100
AcDbEntity
  8
0
  6
Continuous
 62
     7
370
    25
100
AcDbCircle
 10
237.8819465692
 20
37.2888165265
 30
0.0
 40
2.999999999999999
100
AcDbArc
 50
240.0026882664
 51
299.9973117337
  0
LINE
  5
208
330
1F
100
AcDbEntity
  8
0
  6
Continuous
 62
     7
370
    25
100
AcDbLine
 10
223.9489627694
 20
41.8681490835
 30
0.0
 11
236.3820684703
 21
34.6906699393
 31
0.0
  0
LINE
  5
209
330
1F
100
AcDbEntity
  8
0
  6
Continuous
 62
     7
370
    25
100
AcDbLine
 10
239.3818246682
 20
34.6906699393
 30
0.0
 11
251.7561933389
 21
41.8342409178
 31
0.0
  0
LINE
  5
20A
330
1F
100
AcDbEntity
  8
0
  6
Continuous
 62
     7
370
    25
100
AcDbLine
 10
220.0805677269
 20
44.101326007
 30
0.0
 11
223.9489627694
 21
41.8681490835
 31
0.0
  0
LINE
  5
20B
330
1F
100
AcDbEntity
  8
0
  6
Continuous
 62
     7
370
    25
100
AcDbLine
 10
210.5346261809
 20
49.6120807618
 30
0.0
 11
211.9488397432
 21
48.79567265
 31
0.0
  0
ARC
  5
20C
330
1F
100
AcDbEntity
  8
0
  6
Continuous
 62
     7
370
    25
100
AcDbCircle
 10
250.25631524
 20
44.4323875049
 30
0.0
 40
3.000000000000004
100
AcDbArc
 50
299.9973117337
 51
0.0
  0
LINE
  5
20D
330
1F
100
AcDbEntity
  8
0
  6
Continuous
 62
     7
370
    25
100
AcDbLine
 10
219.4591254823
 20
45.4748604264
 30
0.0
 11
223.6587696452
 21
43.050457456
 31
0.0
  0
LINE
  5
20E
330
1F
100
AcDbEntity
  8
0
  6
Continuous
 62
     7
370
    25
100
AcDbLine
 10
219.4591254823
 20
73.2372480306
 30
0.0
 11
219.4591254823
 21
45.4748604264
 31
0.0
  0
ARC
  5
20F
330
1F
100
AcDbEntity
  8
0
  6
Continuous
 62
     7
370
    25
100
AcDbCircle
 10
214.8712980208
 20
73.0379543421
 30
0.0
 40
4.592154046952616
100
AcDbArc
 50
2.4873457163
 51
57.5126544293
  0
LINE
  5
210
330
1F
100
AcDbEntity
  8
0
  6
Continuous
 62
     7
370
    25
100
AcDbLine
 10
217.3378051387
 20
76.9114826339
 30
0.0
 11
213.4487178422
 21
79.1566049415
 31
0.0
  0
ARC
  5
211
330
1F
100
AcDbEntity
  8
0
  6
Continuous
 62
     7
370
    25
100
AcDbCircle
 10
212.626562169
 20
78.1310873959
 30
0.0
 40
1.314391945761525
100
AcDbArc
 50
51.2809082946
 51
188.7298434601
  0
LINE
  5
212
330
1F
100
AcDbEntity
  8
0
  6
Continuous
 62
     7
370
    25
100
AcDbLine
 10
211.3273974986
 20
77.9315946735
 30
0.0
 11
211.3273974986
 21
50.1692070694
 31
0.0
  0
LINE
  5
213
330
1F
100
AcDbEntity
  8
0
  6
Continuous
 62
     7
370
    25
100
AcDbLine
 10
209.9131839363
 20
50.9856151812
 30
0.0
 11
211.3273974986
 21
50.1692070694
 31
0.0
  0
LINE
  5
214
330
1F
100
AcDbEntity
  8
0
  6
Continuous
 62
     7
370
    25
100
AcDbLine
 10
209.9131839363
 20
93.0246583123
 30
0.0
 11
209.9131839363
 21
50.9856151812
 31
0.0
  0
LWPOLYLINE
  5
215
330
1F
100
AcDbEntity
  8
0
  6
Continuous
 62
     7
370
    25
100
AcDbPolyline
 90
       17
 70
   128
 43
0.0
 10
215.3932614904
 20
94.7731304314
 10
214.9270506735
 20
95.0200457567
 10
214.4640118801
 20
95.2208362089
 10
214.007295552
 20
95.3741356418
 10
213.5600091136
 20
95.4789010308
 10
213.1251958301
 20
95.534419569
 10
212.7058141013
 20
95.5403135171
 10
212.3047173332
 20
95.4965427736
 10
211.9246345239
 20
95.4034051477
 10
211.5681516956
 20
95.2615343328
 10
211.2376943004
 20
95.0718955952
 10
210.9355107174
 20
94.8357792064
 10
210.6636569551
 20
94.5547916645
 10
210.4239826629
 20
94.2308447635
 10
210.2181185463
 20
93.8661425861
 10
210.0474652716
 20
93.4631665076
 10
209.9131839363
 20
93.0246583123
  0
LINE
  5
216
330
1F
100
AcDbEntity
  8
0
  6
Continuous
 62
     7
370
    25
100
AcDbLine
 10
215.3932614904
 20
94.7731304314
 30
0.0
 11
220.7229233266
 21
91.6963821438
 31
0.0
  0
ARC
  5
217
330
1F
100
AcDbEntity
  8
0
  6
Continuous
 62
     7
370
    25
100
AcDbCircle
 10
219.0796909317
 20
89.114668316
 30
0.0
 40
3.060303741854832
100
AcDbArc
 50
2.476303705
 51
57.5236964406
  0
LINE
  5
218
330
1F
100
AcDbEntity
  8
0
  6
Continuous
 62
     7
370
    25
100
AcDbLine
 10
222.137136889
 20
89.2468924082
 30
0.0
 11
222.137136889
 21
88.0220811903
 31
0.0
  0
SPLINE
  5
219
330
1F
100
AcDbEntity
  8
0
  6
Continuous
 62
     7
370
    25
100
AcDbSpline
210
0.0
220
0.0
230
1.0
 70
     8
 71
     3
 72
    19
 73
    15
 74
     0
 42
0.000000001
 43
0.00000001
 40
0.0
 40
0.0
 40
0.0
 40
0.0
 40
0.0506990994188943
 40
0.1008362804295963
 40
0.1506250852301689
 40
0.2002835505024273
 40
0.2500314267272413
 40
0.3760992806078257
 40
0.4994392486006881
 40
0.6257175790149089
 40
0.7491745242490205
 40
0.8336806054330131
 40
0.916611927984082
 40
0.9999999999999999
 40
0.9999999999999999
 40
0.9999999999999999
 40
0.9999999999999999
 10
223.7398109454996
 20
85.46379552727218
 30
0.0
 10
223.6997278484523
 20
85.48777068012573
 30
0.0
 10
223.6200059113634
 20
85.53545525961914
 30
0.0
 10
223.5014049527638
 20
85.61759920841287
 30
0.0
 10
223.384627780925
 20
85.70691722968301
 30
0.0
 10
223.2696670071715
 20
85.80419948759703
 30
0.0
 10
223.0990681472359
 20
85.96255503913189
 30
0.0
 10
222.881077378122
 20
86.19834812243876
 30
0.0
 10
222.6342872164907
 20
86.53494493603584
 30
0.0
 10
222.4246075850368
 20
86.89875535240243
 30
0.0
 10
222.2809180070351
 20
87.24081757022923
 30
0.0
 10
222.1936507871865
 20
87.53760998489697
 30
0.0
 10
222.145752863414
 20
87.7889239712695
 30
0.0
 10
222.1400141337428
 20
87.94421995838968
 30
0.0
 10
222.1371368890033
 20
88.02208119033726
 30
0.0
  0
LINE
  5
21A
330
1F
100
AcDbEntity
  8
0
  6
Continuous
 62
     7
370
    25
100
AcDbLine
 10
235.7606262257
 20
78.5243265768
 30
0.0
 11
223.7398109455
 21
85.4637955273
 31
0.0
  0
LINE
  5
21B
330
1F
100
AcDbEntity
  8
0
  6
Continuous
 62
     7
370
    25
100
AcDbLine
 10
235.7606262257
 20
36.0642043587
 30
0.0
 11
235.7606262257
 21
78.5243265768
 31
0.0
  0
LINE
  5
21C
330
1F
100
AcDbEntity
  8
0
  6
Continuous
 62
     7
370
    25
100
AcDbLine
 10
223.6587696452
 20
43.050457456
 30
0.0
 11
235.7606262257
 21
36.0642043587
 31
0.0
  0
LWPOLYLINE
  5
21D
330
1F
100
AcDbEntity
  8
0
  6
Continuous
 62
     7
370
    25
100
AcDbPolyline
 90
       44
 70
   128
 43
0.0
 10
213.6254945375
 20
89.2613140761
 10
213.6443329792
 20
88.9532156358
 10
213.7004467958
 20
88.6299333771
 10
213.7926400186
 20
88.2983574999
 10
213.9189477091
 20
87.9655549684
 10
214.0766778383
 20
87.6386188908
 10
214.2624686622
 20
87.324517342
 10
214.4723603721
 20
87.0299448511
 10
214.7018794904
 20
86.7611797194
 10
214.9461342158
 20
86.523950209
 10
215.1999186827
 20
86.3233124551
 10
215.4578239159
 20
86.163542703
 10
215.7143531131
 20
86.0480461677
 10
215.9640387998
 20
85.9792844573
 10
216.2015593591
 20
85.9587231083
 10
216.4218524527
 20
85.98680035
 10
216.6202229157
 20
86.0629177649
 10
216.7924428261
 20
86.1854530425
 10
216.9348416155
 20
86.3517945559
 10
217.044384301
 20
86.5583970246
 10
217.1187361704
 20
86.8008570758
 10
217.1563125426
 20
87.0740070943
 10
217.1563125426
 20
87.3720253618
 10
217.1187361704
 20
87.6885601363
 10
217.044384301
 20
88.0168650286
 10
216.9348416155
 20
88.3499427899
 10
216.7924428261
 20
88.680694446
 10
216.6202229157
 20
89.0020705996
 10
216.4218524527
 20
89.307221676
 10
216.2015593591
 20
89.5896439097
 10
215.9640387998
 20
89.8433179612
 10
215.7143531131
 20
90.0628372084
 10
215.4578239159
 20
90.2435229798
 10
215.1999186827
 20
90.3815242718
 10
214.9461342158
 20
90.4738998264
 10
214.7018794904
 20
90.5186808191
 10
214.4723603721
 20
90.5149128208
 10
214.2624686622
 20
90.4626761398
 10
214.0766778383
 20
90.3630841103
 10
213.9189477091
 20
90.2182593635
 10
213.7926400186
 20
90.0312885875
 10
213.7004467958
 20
89.8061567396
 10
213.6443329792
 20
89.5476621144
 10
213.6254945375
 20
89.2613140761
  0
LWPOLYLINE
  5
21E
330
1F
100
AcDbEntity
  8
0
  6
Continuous
 62
     7
370
    25
100
AcDbPolyline
 90
       44
 70
   128
 43
0.0
 10
229.0431118044
 20
47.6992806028
 10
229.0619502461
 20
47.3911821626
 10
229.1180640627
 20
47.0678999038
 10
229.2102572855
 20
46.7363240266
 10
229.3365649761
 20
46.4035214952
 10
229.4942951052
 20
46.0765854176
 10
229.6800859291
 20
45.7624838687
 10
229.889977639
 20
45.4679113778
 10
230.1194967573
 20
45.1991462461
 10
230.3637514827
 20
44.9619167357
 10
230.6175359496
 20
44.7612789818
 10
230.8754411828
 20
44.6015092298
 10
231.13197038
 20
44.4860126945
 10
231.3816560667
 20
44.4172509841
 10
231.619176626
 20
44.396689635
 10
231.8394697196
 20
44.4247668768
 10
232.0378401826
 20
44.5008842917
 10
232.210060093
 20
44.6234195692
 10
232.3524588824
 20
44.7897610826
 10
232.4620015679
 20
44.9963635514
 10
232.5363534373
 20
45.2388236025
 10
232.5739298096
 20
45.5119736211
 10
232.5739298096
 20
45.8099918885
 10
232.5363534373
 20
46.126526663
 10
232.4620015679
 20
46.4548315553
 10
232.3524588824
 20
46.7879093166
 10
232.210060093
 20
47.1186609728
 10
232.0378401826
 20
47.4400371264
 10
231.8394697196
 20
47.7451882028
 10
231.619176626
 20
48.0276104365
 10
231.3816560667
 20
48.2812844879
 10
231.13197038
 20
48.5008037352
 10
230.8754411828
 20
48.6814895065
 10
230.6175359496
 20
48.8194907985
 10
230.3637514827
 20
48.9118663531
 10
230.1194967573
 20
48.9566473459
 10
229.889977639
 20
48.9528793476
 10
229.6800859291
 20
48.9006426666
 10
229.4942951052
 20
48.8010506371
 10
229.3365649761
 20
48.6562258903
 10
229.2102572855
 20
48.4692551142
 10
229.1180640627
 20
48.2441232663
 10
229.0619502461
 20
47.9856286411
 10
229.0431118044
 20
47.6992806028
  0
LWPOLYLINE
  5
21F
330
1F
100
AcDbEntity
  8
0
  6
Continuous
 62
     7
370
    25
100
AcDbPolyline
 90
       44
 70
   128
 43
0.0
 10
229.0431118044
 20
72.1955049594
 10
229.0619502461
 20
71.8874065191
 10
229.1180640627
 20
71.5641242604
 10
229.2102572855
 20
71.2325483832
 10
229.3365649761
 20
70.8997458517
 10
229.4942951052
 20
70.5728097741
 10
229.6800859291
 20
70.2587082253
 10
229.889977639
 20
69.9641357344
 10
230.1194967573
 20
69.6953706027
 10
230.3637514827
 20
69.4581410923
 10
230.6175359496
 20
69.2575033384
 10
230.8754411828
 20
69.0977335864
 10
231.13197038
 20
68.9822370511
 10
231.3816560667
 20
68.9134753406
 10
231.619176626
 20
68.8929139916
 10
231.8394697196
 20
68.9209912333
 10
232.0378401826
 20
68.9971086483
 10
232.210060093
 20
69.1196439258
 10
232.3524588824
 20
69.2859854392
 10
232.4620015679
 20
69.4925879079
 10
232.5363534373
 20
69.7350479591
 10
232.5739298096
 20
70.0081979776
 10
232.5739298096
 20
70.3062162451
 10
232.5363534373
 20
70.6227510196
 10
232.4620015679
 20
70.9510559119
 10
232.3524588824
 20
71.2841336732
 10
232.210060093
 20
71.6148853293
 10
232.0378401826
 20
71.936261483
 10
231.8394697196
 20
72.2414125593
 10
231.619176626
 20
72.5238347931
 10
231.3816560667
 20
72.7775088445
 10
231.13197038
 20
72.9970280918
 10
230.8754411828
 20
73.1777138631
 10
230.6175359496
 20
73.3157151551
 10
230.3637514827
 20
73.4080907097
 10
230.1194967573
 20
73.4528717024
 10
229.889977639
 20
73.4491037041
 10
229.6800859291
 20
73.3968670232
 10
229.4942951052
 20
73.2972749937
 10
229.3365649761
 20
73.1524502468
 10
229.2102572855
 20
72.9654794708
 10
229.1180640627
 20
72.7403476229
 10
229.0619502461
 20
72.4818529977
 10
229.0431118044
 20
72.1955049594
  0
LINE
  5
220
330
1F
100
AcDbEntity
  8
0
  6
Continuous
 62
     7
370
    25
100
AcDbLine
 10
240.0032669128
 20
76.0747041411
 30
0.0
 11
240.0032669128
 21
36.0642043587
 31
0.0
  0
ARC
  5
221
330
1F
100
AcDbEntity
  8
0
  6
Continuous
 62
     7
370
    25
100
AcDbCircle
 10
237.8819465692
 20
40.1377343103
 30
0.0
 40
4.592781974622897
100
AcDbArc
 50
242.4914255688
 51
297.5085744312
  0
ELLIPSE
  5
222
330
1F
100
AcDbEntity
  8
0
  6
Continuous
 62
     7
370
    25
100
AcDbEllipse
 10
237.8819465692
 20
77.2993163089
 30
0.0
 11
2.999999990893997
 21
-1.732144641780224
 31
0.0
210
0.0
220
0.0
230
1.0
 40
0.0000703729
 41
0.7854387943899932
 42
2.356235123325039
  0
LINE
  5
223
330
1F
100
AcDbEntity
  8
0
  6
Continuous
 62
     7
370
    25
100
AcDbLine
 10
242.1245872563
 20
77.2993163089
 30
0.0
 11
240.0032669128
 21
76.0747041411
 31
0.0
  0
LINE
  5
224
330
1F
100
AcDbEntity
  8
0
  6
Continuous
 62
     7
370
    25
100
AcDbLine
 10
235.7606262257
 20
78.5243265768
 30
0.0
 11
240.0032669128
 21
80.9735509122
 31
0.0
  0
ARC
  5
225
330
1F
100
AcDbEntity
  8
0
  6
Continuous
 62
     7
370
    25
100
AcDbCircle
 10
237.5367597948
 20
77.1000226204
 30
0.0
 40
4.592154046952504
100
AcDbArc
 50
2.4873457163
 51
57.5126544293
  0
LINE
  5
226
330
1F
100
AcDbEntity
  8
0
  6
Continuous
 62
     7
370
    25
100
AcDbLine
 10
227.9824516326
 20
87.9130198627
 30
0.0
 11
223.7398109455
 21
85.4637955273
 31
0.0
  0
LINE
  5
227
330
1F
100
AcDbEntity
  8
0
  6
Continuous
 62
     7
370
    25
100
AcDbLine
 10
240.0032669128
 20
80.9735509122
 30
0.0
 11
227.9824516326
 21
87.9130198627
 31
0.0
  0
LINE
  5
228
330
1F
100
AcDbEntity
  8
0
  6
Continuous
 62
     7
370
    25
100
AcDbLine
 10
240.0032669128
 20
36.0642043587
 30
0.0
 11
252.3776355836
 21
43.2077753372
 31
0.0
  0
LINE
  5
229
330
1F
100
AcDbEntity
  8
0
  6
Continuous
 62
     7
370
    25
100
AcDbLine
 10
250.25631524
 20
54.2312753477
 30
0.0
 11
242.1245872563
 21
49.5369287047
 31
0.0
  0
LINE
  5
22A
330
1F
100
AcDbEntity
  8
0
  6
Continuous
 62
     7
370
    25
100
AcDbLine
 10
250.25631524
 20
81.9936629518
 30
0.0
 11
250.25631524
 21
54.2312753477
 31
0.0
  0
LINE
  5
22B
330
1F
100
AcDbEntity
  8
0
  6
Continuous
 62
     7
370
    25
100
AcDbLine
 10
252.3776355836
 20
83.2182751196
 30
0.0
 11
250.25631524
 21
81.9936629518
 31
0.0
  0
LINE
  5
22C
330
1F
100
AcDbEntity
  8
0
  6
Continuous
 62
     7
370
    25
100
AcDbLine
 10
252.3776355836
 20
43.2077753372
 30
0.0
 11
252.3776355836
 21
83.2182751196
 31
0.0
  0
LINE
  5
22D
330
1F
100
AcDbEntity
  8
0
  6
Continuous
 62
     7
370
    25
100
AcDbLine
 10
242.1245872563
 20
49.5369287047
 30
0.0
 11
242.1245872563
 21
77.2993163089
 31
0.0
  0
LINE
  5
22E
330
1F
100
AcDbEntity
  8
0
  6
Continuous
 62
     7
370
    25
100
AcDbLine
 10
250.25631524
 20
54.2312753477
 30
0.0
 11
242.1245872563
 21
58.9256219907
 31
0.0
  0
LINE
  5
22F
330
1F
100
AcDbEntity
  8
0
  6
Continuous
 62
     7
370
    25
100
AcDbLine
 10
222.287552607
 20
100.1682292907
 30
0.0
 11
222.287552607
 21
95.6915895572
 31
0.0
  0
LWPOLYLINE
  5
230
330
1F
100
AcDbEntity
  8
0
  6
Continuous
 62
     7
370
    25
100
AcDbPolyline
 90
       17
 70
   128
 43
0.0
 10
227.7676301612
 20
101.9167014098
 10
227.3014193443
 20
102.1636167352
 10
226.8383805509
 20
102.3644071873
 10
226.3816642227
 20
102.5177066203
 10
225.9343777843
 20
102.6224720093
 10
225.4995645009
 20
102.6779905474
 10
225.0801827721
 20
102.6838844955
 10
224.679086004
 20
102.640113752
 10
224.2990031946
 20
102.5469761261
 10
223.9425203664
 20
102.4051053113
 10
223.6120629712
 20
102.2154665737
 10
223.3098793881
 20
101.9793501849
 10
223.0380256259
 20
101.6983626429
 10
222.7983513337
 20
101.3744157419
 10
222.592487217
 20
101.0097135646
 10
222.4218339423
 20
100.606737486
 10
222.287552607
 20
100.1682292907
  0
LINE
  5
231
330
1F
100
AcDbEntity
  8
0
  6
Continuous
 62
     7
370
    25
100
AcDbLine
 10
233.0972919974
 20
98.8399531222
 30
0.0
 11
227.7676301612
 21
101.9167014098
 31
0.0
  0
ARC
  5
232
330
1F
100
AcDbEntity
  8
0
  6
Continuous
 62
     7
370
    25
100
AcDbCircle
 10
231.4540596025
 20
96.2582392944
 30
0.0
 40
3.060303741854612
100
AcDbArc
 50
2.476303705
 51
57.5236964406
  0
LINE
  5
233
330
1F
100
AcDbEntity
  8
0
  6
Continuous
 62
     7
370
    25
100
AcDbLine
 10
234.5115055598
 20
96.3904633866
 30
0.0
 11
234.5115055598
 21
95.1656521688
 31
0.0
  0
SPLINE
  5
234
330
1F
100
AcDbEntity
  8
0
  6
Continuous
 62
     7
370
    25
100
AcDbSpline
210
0.0
220
0.0
230
1.0
 70
     8
 71
     3
 72
    16
 73
    12
 74
     0
 42
0.000000001
 43
0.00000001
 40
0.0
 40
0.0
 40
0.0
 40
0.0
 40
0.2499999999999998
 40
0.2499999999999998
 40
0.4999999999999997
 40
0.4999999999999997
 40
0.7499999999999996
 40
0.7499999999999996
 40
0.8749999999999998
 40
0.8749999999999998
 40
1.0
 40
1.0
 40
1.0
 40
1.0
 10
236.1141796162642
 20
92.60736650572088
 30
0.0
 10
235.91468651122
 20
92.72253142390863
 30
0.0
 10
235.7203614088696
 20
92.870534317133
 30
0.0
 10
235.3427895316101
 20
93.23693283778098
 30
0.0
 10
235.1699356592321
 20
93.44527478599265
 30
0.0
 10
234.8628006640841
 20
93.91614704395856
 30
0.0
 10
234.737218621895
 20
94.16609392550045
 30
0.0
 10
234.6034840938218
 20
94.55298591330983
 30
0.0
 10
234.5696673390213
 20
94.67946639783001
 30
0.0
 10
234.5236290268335
 20
94.92744364602198
 30
0.0
 10
234.5115055597679
 20
95.04994722507271
 30
0.0
 10
234.5115055597679
 20
95.16565216878595
 30
0.0
  0
LINE
  5
235
330
1F
100
AcDbEntity
  8
0
  6
Continuous
 62
     7
370
    25
100
AcDbLine
 10
236.1141796163
 20
92.6073665057
 30
0.0
 11
248.1349948964
 21
85.6678975552
 31
0.0
  0
ARC
  5
236
330
1F
100
AcDbEntity
  8
0
  6
Continuous
 62
     7
370
    25
100
AcDbCircle
 10
245.6685204632
 20
81.7943881339
 30
0.0
 40
4.592120574058538
100
AcDbArc
 50
2.487128189
 51
57.5128719567
  0
LWPOLYLINE
  5
237
330
1F
100
AcDbEntity
  8
0
  6
Continuous
 62
     7
370
    25
100
AcDbPolyline
 90
       44
 70
   128
 43
0.0
 10
227.7676301612
 20
97.4257269444
 10
227.5102412286
 20
97.5525604753
 10
227.2583380942
 20
97.6331828952
 10
227.017289636
 20
97.6658758772
 10
226.7922333834
 20
97.6499426273
 10
226.5879660196
 20
97.585722735
 10
226.408841149
 20
97.4745849357
 10
226.2586765071
 20
97.3188979387
 10
226.1406725926
 20
97.1219799422
 10
226.057344454
 20
96.8880279112
 10
226.010468086
 20
96.6220281271
 10
226.0010425769
 20
96.3296499136
 10
226.029268815
 20
96.0171248046
 10
226.0945452073
 20
95.6911137303
 10
226.1954805005
 20
95.3585650506
 10
226.3299234344
 20
95.0265664634
 10
226.495008591
 20
94.7021939422
 10
226.6872174669
 20
94.392360924
 10
226.9024534637
 20
94.1036709617
 10
227.1361291996
 20
93.8422769807
 10
227.3832642822
 20
93.6137501398
 10
227.6385914562
 20
93.4229610919
 10
227.8966688662
 20
93.2739761744
 10
228.1519960402
 20
93.169970742
 10
228.3991311228
 20
93.1131614901
 10
228.6328068588
 20
93.1047592091
 10
228.8480428555
 20
93.1449429792
 10
229.0402517314
 20
93.2328563529
 10
229.2053368881
 20
93.3666256094
 10
229.3397798219
 20
93.5433996893
 10
229.4407151152
 20
93.7594109599
 10
229.5059915074
 20
94.010055516
 10
229.5342177456
 20
94.289991304
 10
229.5247922365
 20
94.5932519788
 10
229.4779158684
 20
94.9133740653
 10
229.3945877298
 20
95.2435347173
 10
229.2765838153
 20
95.5766971335
 10
229.1264191734
 20
95.9057605356
 10
228.9472943028
 20
96.2237115083
 10
228.7430269391
 20
96.5237734788
 10
228.5179706865
 20
96.799551147
 10
228.2769222283
 20
97.0451667908
 10
228.0250190938
 20
97.2553855392
 10
227.7676301612
 20
97.4257269444
  0
LWPOLYLINE
  5
238
330
1F
100
AcDbEntity
  8
0
  6
Continuous
 62
     7
370
    25
100
AcDbPolyline
 90
       27
 70
   128
 43
0.0
 10
243.1852474281
 20
80.3599178277
 10
243.4426363608
 20
80.1895764225
 10
243.6945394952
 20
79.9793576742
 10
243.9355879534
 20
79.7337420303
 10
244.160644206
 20
79.4579643621
 10
244.3649115697
 20
79.1579023916
 10
244.5440364403
 20
78.8399514189
 10
244.6942010822
 20
78.5108880168
 10
244.8122049967
 20
78.1777256006
 10
244.8955331353
 20
77.8475649486
 10
244.9424095034
 20
77.5274428621
 10
244.9518350125
 20
77.2241821874
 10
244.9236087743
 20
76.9442463993
 10
244.8583323821
 20
76.6936018432
 10
244.7573970888
 20
76.4775905726
 10
244.622954155
 20
76.3008164928
 10
244.4578689984
 20
76.1670472362
 10
244.2656601224
 20
76.0791338625
 10
244.0504241257
 20
76.0389500924
 10
243.8167483897
 20
76.0473523734
 10
243.5696133071
 20
76.1041616254
 10
243.3142861331
 20
76.2081670577
 10
243.0562087232
 20
76.3571519752
 10
242.8008815492
 20
76.5479410231
 10
242.5537464666
 20
76.776467864
 10
242.3200707306
 20
77.037861845
 10
242.1245872563
 20
77.2977902581
  0
ARC
  5
239
330
1F
100
AcDbEntity
  8
0
  6
Continuous
 62
     7
370
    25
100
AcDbCircle
 10
242.5008801207
 20
79.5295683691
 30
0.0
 40
1.076029198008429
100
AcDbArc
 50
50.5049289771
 51
180.4345391023
  0
LINE
  5
23A
330
1F
100
AcDbEntity
  8
0
  6
Continuous
 62
     7
370
    25
100
AcDbLine
 10
226.3797775761
 20
91.6961167436
 30
0.0
 11
222.137136889
 21
89.2468924082
 31
0.0
  0
LINE
  5
23B
330
1F
100
AcDbEntity
  8
0
  6
Continuous
 62
     7
370
    25
100
AcDbLine
 10
220.7229233266
 20
91.6963821438
 30
0.0
 11
224.9655640137
 21
94.1456064792
 31
0.0
  0
ARC
  5
23C
330
1F
100
AcDbEntity
  8
0
  6
Continuous
 62
     7
370
    25
100
AcDbCircle
 10
223.3223221763
 20
91.5638871998
 30
0.0
 40
3.060313411068208
100
AcDbArc
 50
2.4763980378
 51
57.5236021078
  0
LINE
  5
23D
330
1F
100
AcDbEntity
  8
0
  6
Continuous
 62
     7
370
    25
100
AcDbLine
 10
248.1349948964
 20
85.6678975552
 30
0.0
 11
252.3776355836
 21
88.1171218907
 31
0.0
  0
ELLIPSE
  5
23E
330
1F
100
AcDbEntity
  8
0
  6
Continuous
 62
     7
370
    25
100
AcDbEllipse
 10
250.25631524
 20
84.4428872873
 30
0.0
 11
2.121406535362581
 21
3.674184841878698
 31
0.0
210
0.0
220
0.0
230
1.0
 40
0.5773346305
 41
4.712429612415754
 42
6.28322593921062
  0
LINE
  5
23F
330
1F
100
AcDbEntity
  8
0
  6
Continuous
 62
     7
370
    25
100
AcDbLine
 10
226.3797775761
 20
90.4713055258
 30
0.0
 11
222.137136889
 21
88.0220811903
 31
0.0
  0
SPLINE
  5
240
330
1F
100
AcDbEntity
  8
0
  6
Continuous
 62
     7
370
    25
100
AcDbSpline
210
0.0
220
0.0
230
1.0
 70
     8
 71
     3
 72
    16
 73
    12
 74
     0
 42
0.000000001
 43
0.00000001
 40
0.0
 40
0.0
 40
0.0
 40
0.0
 40
0.2499999999999998
 40
0.2499999999999998
 40
0.4999999999999997
 40
0.4999999999999997
 40
0.7499999999999996
 40
0.7499999999999996
 40
0.8749999999999998
 40
0.8749999999999998
 40
1.0
 40
1.0
 40
1.0
 40
1.0
 10
227.9824516326188
 20
87.9130198627403
 30
0.0
 10
227.7829585275747
 20
88.02818478092809
 30
0.0
 10
227.5886334252243
 20
88.17618767415243
 30
0.0
 10
227.2110615479648
 20
88.54258619480042
 30
0.0
 10
227.0382076755867
 20
88.75092814301208
 30
0.0
 10
226.7310726804388
 20
89.221800400978
 30
0.0
 10
226.6054906382496
 20
89.47174728251989
 30
0.0
 10
226.4717561101765
 20
89.85863927032925
 30
0.0
 10
226.437939355376
 20
89.98511975484945
 30
0.0
 10
226.3919010431882
 20
90.23309700304142
 30
0.0
 10
226.3797775761226
 20
90.35560058209217
 30
0.0
 10
226.3797775761226
 20
90.47130552580539
 30
0.0
  0
LINE
  5
241
330
1F
100
AcDbEntity
  8
0
  6
Continuous
 62
     7
370
    25
100
AcDbLine
 10
226.3797775761
 20
90.4713055258
 30
0.0
 11
226.3797775761
 21
91.6961167436
 31
0.0
  0
LINE
  5
242
330
1F
100
AcDbEntity
  8
0
  6
Continuous
 62
     7
370
    25
100
AcDbLine
 10
219.6359021776
 20
97.2223547668
 30
0.0
 11
215.3932614904
 21
94.7731304314
 31
0.0
  0
LINE
  5
243
330
1F
100
AcDbEntity
  8
0
  6
Continuous
 62
     7
370
    25
100
AcDbLine
 10
224.9655640137
 20
94.1456064792
 30
0.0
 11
219.6359021776
 21
97.2223547668
 31
0.0
  0
LINE
  5
244
330
1F
100
AcDbEntity
  8
0
  6
Continuous
 62
     7
370
    25
100
AcDbLine
 10
240.3568203034
 20
95.0565908412
 30
0.0
 11
236.1141796163
 21
92.6073665057
 31
0.0
  0
LINE
  5
245
330
1F
100
AcDbEntity
  8
0
  6
Continuous
 62
     7
370
    25
100
AcDbLine
 10
240.3568203034
 20
95.0565908412
 30
0.0
 11
252.3776355836
 21
88.1171218907
 31
0.0
  0
ARC
  5
246
330
1F
100
AcDbEntity
  8
0
  6
Continuous
 62
     7
370
    25
100
AcDbCircle
 10
217.2950208542
 20
93.9763395969
 30
0.0
 40
4.002041960530635
100
AcDbArc
 50
54.2025389242
 51
114.4870026467
  0
LINE
  5
247
330
1F
100
AcDbEntity
  8
0
  6
Continuous
 62
     7
370
    25
100
AcDbLine
 10
238.7541462469
 20
98.8396877221
 30
0.0
 11
234.5115055598
 21
96.3904633866
 31
0.0
  0
LINE
  5
248
330
1F
100
AcDbEntity
  8
0
  6
Continuous
 62
     7
370
    25
100
AcDbLine
 10
233.0972919974
 20
98.8399531222
 30
0.0
 11
237.3399326845
 21
101.2891774577
 31
0.0
  0
ARC
  5
249
330
1F
100
AcDbEntity
  8
0
  6
Continuous
 62
     7
370
    25
100
AcDbCircle
 10
235.6966908471
 20
98.7074581783
 30
0.0
 40
3.060313411067977
100
AcDbArc
 50
2.4763980378
 51
57.5236021078
  0
LINE
  5
24A
330
1F
100
AcDbEntity
  8
0
  6
Continuous
 62
     7
370
    25
100
AcDbLine
 10
238.7541462469
 20
97.6148765043
 30
0.0
 11
234.5115055598
 21
95.1656521688
 31
0.0
  0
SPLINE
  5
24B
330
1F
100
AcDbEntity
  8
0
  6
Continuous
 62
     7
370
    25
100
AcDbSpline
210
0.0
220
0.0
230
1.0
 70
     8
 71
     3
 72
    20
 73
    16
 74
     0
 42
0.000000001
 43
0.00000001
 40
0.0
 40
0.0
 40
0.0
 40
0.0
 40
0.041789109568386
 40
0.0832131199655687
 40
0.1245236470553246
 40
0.1659743733657571
 40
0.2078164314780381
 40
0.2502940137381157
 40
0.373731134132832
 40
0.4999870067969056
 40
0.6235704303998179
 40
0.7498944161789517
 40
0.8327677546877067
 40
0.9157997257046452
 40
1.0
 40
1.0
 40
1.0
 40
1.0
 10
238.7541462468872
 20
97.61487650425408
 30
0.0
 10
238.7548640315162
 20
97.5763031358175
 30
0.0
 10
238.7562933297008
 20
97.49949340313017
 30
0.0
 10
238.7680420138633
 20
97.37967241132388
 30
0.0
 10
238.7868552411614
 20
97.25745023782883
 30
0.0
 10
238.813397035306
 20
97.13245778235927
 30
0.0
 10
238.8474993040042
 20
97.00479382042494
 30
0.0
 10
238.9152606568596
 20
96.79278703008154
 30
0.0
 10
239.0405403288273
 20
96.49364273913972
 30
0.0
 10
239.2501475140433
 20
96.12947769061556
 30
0.0
 10
239.4971476069177
 20
95.79226225988693
 30
0.0
 10
239.739560734359
 20
95.529755612185
 30
0.0
 10
239.9623908723887
 20
95.3293883223036
 30
0.0
 10
240.1579491999646
 20
95.17829752767972
 30
0.0
 10
240.2902219115628
 20
95.09734824362083
 30
0.0
 10
240.3568203033834
 20
95.056590841189
 30
0.0
  0
LINE
  5
24C
330
1F
100
AcDbEntity
  8
0
  6
Continuous
 62
     7
370
    25
100
AcDbLine
 10
238.7541462469
 20
97.6148765043
 30
0.0
 11
238.7541462469
 21
98.8396877221
 31
0.0
  0
LINE
  5
24D
330
1F
100
AcDbEntity
  8
0
  6
Continuous
 62
     7
370
    25
100
AcDbLine
 10
232.0102708483
 20
104.3659257453
 30
0.0
 11
227.7676301612
 21
101.9167014098
 31
0.0
  0
LINE
  5
24E
330
1F
100
AcDbEntity
  8
0
  6
Continuous
 62
     7
370
    25
100
AcDbLine
 10
237.3399326845
 20
101.2891774577
 30
0.0
 11
232.0102708483
 21
104.3659257453
 31
0.0
  0
LINE
  5
24F
330
1F
100
AcDbEntity
  8
0
  6
Continuous
 62
     7
370
    25
100
AcDbLine
 10
213.2787860761
 20
79.2468321156
 30
0.0
 11
213.2719411469
 21
79.0541558273
 31
0.0
  0
LINE
  5
250
330
1F
100
AcDbEntity
  8
0
  6
Continuous
 62
     7
370
    25
100
AcDbLine
 10
213.2719411469
 20
48.8506662392
 30
0.0
 11
219.4665327693
 21
45.2746046142
 31
0.0
  0
LINE
  5
251
330
1F
100
AcDbEntity
  8
0
  6
Continuous
 62
     7
370
    25
100
AcDbLine
 10
213.2719411469
 20
79.0541558273
 30
0.0
 11
213.2719411469
 21
48.8506662392
 31
0.0
  0
LWPOLYLINE
  5
252
330
1F
100
AcDbEntity
  8
0
  6
Continuous
 62
     7
370
    25
100
AcDbPolyline
 90
       22
 70
   128
 43
0.0
 10
215.5700381857
 20
74.461329398
 10
215.589782682
 20
74.7541788755
 10
215.6485751115
 20
75.0176900694
 10
215.7451021484
 20
75.2459765751
 10
215.8772075382
 20
75.4339388492
 10
216.0419402649
 20
75.5773781252
 10
216.2356204715
 20
75.6730902067
 10
216.4539216622
 20
75.7189370439
 10
216.6919673493
 20
75.7138944943
 10
216.9444399853
 20
75.6580752
 10
217.2056997489
 20
75.5527260719
 10
217.4699105285
 20
75.4002004354
 10
217.7311702921
 20
75.2039054612
 10
217.9836429281
 20
74.9682260546
 10
218.2216886152
 20
74.6984269042
 10
218.4399898059
 20
74.400534877
 10
218.6336700125
 20
74.0812043889
 10
218.7984027392
 20
73.7475687551
 10
218.930508129
 20
73.4070808444
 10
219.0270351659
 20
73.0673465942
 10
219.0858275954
 20
72.7359551061
 10
219.1055720917
 20
72.4203091185
  0
LINE
  5
253
330
1F
100
AcDbEntity
  8
0
  6
Continuous
 62
     7
370
    25
100
AcDbLine
 10
215.5700381857
 20
70.3786253386
 30
0.0
 11
215.5700381857
 21
74.461329398
 31
0.0
  0
LWPOLYLINE
  5
254
330
1F
100
AcDbEntity
  8
0
  6
Continuous
 62
     7
370
    25
100
AcDbPolyline
 90
       22
 70
   128
 43
0.0
 10
219.1055720917
 20
68.337605059
 10
219.0858275954
 20
68.0447555816
 10
219.0270351659
 20
67.7812443877
 10
218.930508129
 20
67.552957882
 10
218.7984027392
 20
67.3649956079
 10
218.6336700125
 20
67.2215563318
 10
218.4399898059
 20
67.1258442504
 10
218.2216886152
 20
67.0799974131
 10
217.9836429281
 20
67.0850399628
 10
217.7311702921
 20
67.1408592571
 10
217.4699105285
 20
67.2462083852
 10
217.2056997489
 20
67.3987340217
 10
216.9444399853
 20
67.5950289959
 10
216.6919673493
 20
67.8307084025
 10
216.4539216622
 20
68.1005075529
 10
216.2356204715
 20
68.39839958
 10
216.0419402649
 20
68.7177300682
 10
215.8772075382
 20
69.051365702
 10
215.7451021484
 20
69.3918536126
 10
215.6485751115
 20
69.7315878629
 10
215.589782682
 20
70.0629793509
 10
215.5700381857
 20
70.3786253386
  0
LINE
  5
255
330
1F
100
AcDbEntity
  8
0
  6
Continuous
 62
     7
370
    25
100
AcDbLine
 10
219.1055720917
 20
72.4203091185
 30
0.0
 11
219.1055720917
 21
68.337605059
 31
0.0
  0
ARC
  5
256
330
1F
100
AcDbEntity
  8
0
  6
Continuous
 62
     7
370
    25
100
AcDbCircle
 10
229.6693895249
 20
101.1199105753
 30
0.0
 40
4.002041960530799
100
AcDbArc
 50
54.2025389242
 51
114.4870026467
  0
LINE
  5
257
330
1F
100
AcDbEntity
  8
0
  6
Continuous
 62
     7
370
    25
100
AcDbLine
 10
213.2719411469
 20
79.0541558273
 30
0.0
 11
211.3273974986
 21
77.9315946735
 31
0.0
  0
ARC
  5
258
330
1F
100
AcDbEntity
  8
0
  6
Continuous
 62
     7
370
    25
100
AcDbCircle
 10
212.5955388209
 20
49.9462759318
 30
0.0
 40
1.287587164134083
100
AcDbArc
 50
170.0296412482
 51
301.6901559974
  0
LINE
  5
259
330
1F
100
AcDbEntity
  8
0
  6
Continuous
 62
     7
370
    25
100
AcDbLine
 10
217.8681352246
 20
71.7052885203
 30
0.0
 11
215.5700381857
 21
70.3786253386
 31
0.0
  0
ARC
  5
25A
330
1F
100
AcDbEntity
  8
0
  6
Continuous
 62
     7
370
    25
100
AcDbCircle
 10
221.7671145965
 20
71.8994657114
 30
0.0
 40
3.903811589230247
100
AcDbArc
 50
182.851092071
 51
227.0170674979
  0
LINE
  5
25B
330
1F
100
AcDbEntity
  8
0
  6
Continuous
 62
     7
370
    25
100
AcDbLine
 10
217.8681352246
 20
71.7052885203
 30
0.0
 11
217.8681352246
 21
75.0819919414
 31
0.0
  0
ARC
  5
25C
330
1F
100
AcDbEntity
  8
0
  6
Continuous
 62
     7
370
    25
100
AcDbCircle
 10
220.9602171586
 20
45.3266647578
 30
0.0
 40
1.50838926574989
100
AcDbArc
 50
174.3617299364
 51
234.3260896702
  0
ARC
  5
25D
330
1F
100
AcDbEntity
  8
0
  6
Continuous
 62
     7
370
    25
100
AcDbCircle
 10
211.4005151364
 20
50.8311937195
 30
0.0
 40
1.495326080460505
100
AcDbArc
 50
174.0725302334
 51
234.6152893732
  0
ARC
  5
25E
330
1F
100
AcDbEntity
  8
0
  6
Continuous
 62
     8
370
    25
100
AcDbCircle
 10
251.7679546709
 20
44.5727712999
 30
0.0
 40
1.494966485779828
100
AcDbArc
 50
294.0681184713
 51
354.6117405711
  0
LINE
  5
25F
330
1F
100
AcDbEntity
  8
0
  6
Continuous
 62
     8
370
    25
100
AcDbLine
 10
217.3380924506
 20
75.4820053994
 30
0.0
 11
215.5700381857
 21
74.461329398
 31
0.0
  0
ARC
  5
260
330
1F
100
AcDbEntity
  8
0
  6
Continuous
 62
     8
370
    25
100
AcDbCircle
 10
238.5159357126
 20
35.909782897
 30
0.0
 40
1.495326080460666
100
AcDbArc
 50
305.3847106268
 51
5.9274697666
  0
ARC
  5
261
330
1F
100
AcDbEntity
  8
0
  6
Continuous
 62
     8
370
    25
100
AcDbCircle
 10
237.2479574259
 20
35.909782897
 30
0.0
 40
1.495326080460641
100
AcDbArc
 50
174.0725302334
 51
234.6152893732
  0
SPLINE
  5
262
330
1F
100
AcDbEntity
  8
0
  6
Continuous
 62
     8
370
    25
100
AcDbSpline
210
0.0
220
0.0
230
1.0
 70
     8
 71
     3
 72
    14
 73
    10
 74
     0
 42
0.000000001
 43
0.00000001
 40
0.0
 40
0.0
 40
0.0
 40
0.0
 40
0.1885966785359234
 40
0.2855468201453559
 40
0.3832393210845979
 40
0.5717479050218865
 40
0.7651765587255377
 40
0.9650839697140557
 40
1.0
 40
1.0
 40
1.0
 40
1.0
 10
223.6587696452449
 20
43.05045745602163
 30
0.0
 10
223.6607637825389
 20
42.93049481914603
 30
0.0
 10
223.6637830274569
 20
42.74886410453328
 30
0.0
 10
223.6826044227244
 20
42.54085567364223
 30
0.0
 10
223.7081387911276
 20
42.35166880714959
 30
0.0
 10
223.7533232496166
 20
42.15242522512715
 30
0.0
 10
223.8304662785953
 20
41.98223493016961
 30
0.0
 10
223.897237211948
 20
41.88951171047957
 30
0.0
 10
223.9443572863698
 20
41.87479363473611
 30
0.0
 10
223.9513635968841
 20
41.8726051957301
 30
0.0
  0
ARC
  5
263
330
1F
100
AcDbEntity
  8
0
  6
Continuous
 62
     8
370
    25
100
AcDbCircle
 10
250.8903043834
 20
43.0533538754
 30
0.0
 40
1.495326080460649
100
AcDbArc
 50
305.3847106268
 51
5.9274697666
  0
SPLINE
  5
264
330
1F
100
AcDbEntity
  8
0
  6
Continuous
 62
     7
370
    25
100
AcDbSpline
210
0.0
220
0.0
230
1.0
 70
     8
 71
     3
 72
    20
 73
    16
 74
     0
 42
0.000000001
 43
0.00000001
 40
0.0
 40
0.0
 40
0.0
 40
0.0
 40
0.041789109568386
 40
0.0832131199655687
 40
0.1245236470553246
 40
0.1659743733657571
 40
0.2078164314780381
 40
0.2502940137381157
 40
0.373731134132832
 40
0.4999870067969056
 40
0.6235704303998179
 40
0.7498944161789517
 40
0.8327677546877067
 40
0.9157997257046452
 40
1.0
 40
1.0
 40
1.0
 40
1.0
 10
303.5165219224185
 20
200.3333216105323
 30
0.0
 10
303.5155068216613
 20
200.2865891023283
 30
0.0
 10
303.5134854887839
 20
200.1935323741129
 30
0.0
 10
303.4968703403013
 20
200.0550964023149
 30
0.0
 10
303.4702644191042
 20
199.918714329392
 30
0.0
 10
303.4327286538552
 20
199.7844035855115
 30
0.0
 10
303.3845007629546
 20
199.6521662990355
 30
0.0
 10
303.2886717387418
 20
199.4404328602789
 30
0.0
 10
303.1114995275553
 20
199.1626489792542
 30
0.0
 10
302.8150702034521
 20
198.8648544384368
 30
0.0
 10
302.4657593222017
 20
198.6265009974388
 30
0.0
 10
302.1229353896769
 20
198.4763988516578
 30
0.0
 10
301.8078059863699
 20
198.3885524289556
 30
0.0
 10
301.531244747277
 20
198.3417729238012
 30
0.0
 10
301.344182884603
 20
198.3361518048783
 30
0.0
 10
301.249998535658
 20
198.3333216105323
 30
0.0
  0
LINE
  5
265
330
1F
100
AcDbEntity
  8
0
  6
Continuous
 62
     7
370
    25
100
AcDbLine
 10
303.5165219224
 20
200.3333216105
 30
0.0
 11
303.5165219224
 21
201.8333216105
 31
0.0
  0
ARC
  5
266
330
1F
100
AcDbEntity
  8
0
  6
Continuous
 62
     7
370
    25
100
AcDbCircle
 10
305.5165219224
 20
201.8333216105
 30
0.0
 40
2.0
100
AcDbArc
 50
90.0
 51
180.0
  0
LINE
  5
267
330
1F
100
AcDbEntity
  8
0
  6
Continuous
 62
     7
370
    25
100
AcDbLine
 10
305.5165219224
 20
203.8333216105
 30
0.0
 11
313.053801974
 21
203.8333216105
 31
0.0
  0
ARC
  5
268
330
1F
100
AcDbEntity
  8
0
  6
Continuous
 62
     7
370
    25
100
AcDbCircle
 10
313.053801974
 20
195.8333216105
 30
0.0
 40
8.000000000000057
100
AcDbArc
 50
14.3615115629
 51
90.0
  0
LINE
  5
269
330
1F
100
AcDbEntity
  8
0
  6
Continuous
 62
     7
370
    25
100
AcDbLine
 10
320.803801974
 20
197.8176350938
 30
0.0
 11
320.803801974
 21
146.3333216105
 31
0.0
  0
LINE
  5
26A
330
1F
100
AcDbEntity
  8
0
  6
Continuous
 62
     7
370
    25
100
AcDbLine
 10
318.803801974
 20
146.3333216105
 30
0.0
 11
320.803801974
 21
146.3333216105
 31
0.0
  0
LINE
  5
26B
330
1F
100
AcDbEntity
  8
0
  6
Continuous
 62
     7
370
    25
100
AcDbLine
 10
318.803801974
 20
180.3333216105
 30
0.0
 11
318.803801974
 21
146.3333216105
 31
0.0
  0
ARC
  5
26C
330
1F
100
AcDbEntity
  8
0
  6
Continuous
 62
     7
370
    25
100
AcDbCircle
 10
315.803801974
 20
180.3333216105
 30
0.0
 40
3.0
100
AcDbArc
 50
0.0
 51
90.0
  0
LINE
  5
26D
330
1F
100
AcDbEntity
  8
0
  6
Continuous
 62
     7
370
    25
100
AcDbLine
 10
315.803801974
 20
183.3333216105
 30
0.0
 11
310.303801974
 21
183.3333216105
 31
0.0
  0
ARC
  5
26E
330
1F
100
AcDbEntity
  8
0
  6
Continuous
 62
     7
370
    25
100
AcDbCircle
 10
310.303801974
 20
180.3333216105
 30
0.0
 40
3.0
100
AcDbArc
 50
90.0
 51
180.0
  0
LINE
  5
26F
330
1F
100
AcDbEntity
  8
0
  6
Continuous
 62
     7
370
    25
100
AcDbLine
 10
307.303801974
 20
180.3333216105
 30
0.0
 11
307.303801974
 21
146.3333216105
 31
0.0
  0
LINE
  5
270
330
1F
100
AcDbEntity
  8
0
  6
Continuous
 62
     7
370
    25
100
AcDbLine
 10
301.3646082416
 20
146.3333216105
 30
0.0
 11
307.303801974
 21
146.3333216105
 31
0.0
  0
LINE
  5
271
330
1F
100
AcDbEntity
  8
0
  6
Continuous
 62
     7
370
    25
100
AcDbLine
 10
284.2499985357
 20
146.3333216105
 30
0.0
 11
301.3646082416
 21
146.3333216105
 31
0.0
  0
LINE
  5
272
330
1F
100
AcDbEntity
  8
0
  6
Continuous
 62
     7
370
    25
100
AcDbLine
 10
284.2499985357
 20
198.3333216105
 30
0.0
 11
284.2499985357
 21
146.3333216105
 31
0.0
  0
LINE
  5
273
330
1F
100
AcDbEntity
  8
0
  6
Continuous
 62
     7
370
    25
100
AcDbLine
 10
301.2499985357
 20
198.3333216105
 30
0.0
 11
284.2499985357
 21
198.3333216105
 31
0.0
  0
CIRCLE
  5
274
330
1F
100
AcDbEntity
  8
0
  6
Continuous
 62
     7
370
    25
100
AcDbCircle
 10
313.053801974
 20
195.8333216105
 30
0.0
 40
2.5
  0
CIRCLE
  5
275
330
1F
100
AcDbEntity
  8
0
  6
Continuous
 62
     7
370
    25
100
AcDbCircle
 10
291.2499985357
 20
155.8333216105
 30
0.0
 40
2.5
  0
CIRCLE
  5
276
330
1F
100
AcDbEntity
  8
0
  6
Continuous
 62
     7
370
    25
100
AcDbCircle
 10
291.2499985357
 20
185.8333216105
 30
0.0
 40
2.5
  0
LINE
  5
277
330
1F
100
AcDbEntity
  8
0
  6
Continuous
 62
     7
370
    25
100
AcDbLine
 10
281.2499985357
 20
146.3333216105
 30
0.0
 11
284.2499985357
 21
146.3333216105
 31
0.0
  0
LINE
  5
278
330
1F
100
AcDbEntity
  8
0
  6
Continuous
 62
     7
370
    25
100
AcDbLine
 10
281.2499985357
 20
146.3333216105
 30
0.0
 11
281.2499985357
 21
195.3333216105
 31
0.0
  0
ARC
  5
279
330
1F
100
AcDbEntity
  8
0
  6
Continuous
 62
     7
370
    25
100
AcDbCircle
 10
284.2499985357
 20
195.3333216105
 30
0.0
 40
3.000000000000057
100
AcDbArc
 50
90.0
 51
180.0
  0
LINE
  5
27A
330
1F
100
AcDbEntity
  8
0
  6
Continuous
 62
     7
370
    25
100
AcDbLine
 10
284.2499985357
 20
146.3333216105
 30
0.0
 11
284.2499985357
 21
143.3333216105
 31
0.0
  0
ARC
  5
27B
330
1F
100
AcDbEntity
  8
0
  6
Continuous
 62
     7
370
    25
100
AcDbCircle
 10
284.2499985357
 20
146.3333216105
 30
0.0
 40
3.000000000000057
100
AcDbArc
 50
180.0
 51
270.0
  0
SPLINE
  5
27C
330
1F
100
AcDbEntity
  8
0
  6
Continuous
 62
     7
370
    25
100
AcDbSpline
210
0.0
220
0.0
230
1.0
 70
     8
 71
     3
 72
    20
 73
    16
 74
     0
 42
0.000000001
 43
0.00000001
 40
0.0
 40
0.0
 40
0.0
 40
0.0
 40
0.2500000000000007
 40
0.2500000000000007
 40
0.3750000000000006
 40
0.3750000000000006
 40
0.5000000000000004
 40
0.5000000000000004
 40
0.6250000000000003
 40
0.6250000000000003
 40
0.7500000000000002
 40
0.7500000000000002
 40
0.8750000000000001
 40
0.8750000000000001
 40
1.0
 40
1.0
 40
1.0
 40
1.0
 10
302.778498142426
 20
143.3333216105323
 30
0.0
 10
302.6272247680251
 20
143.3333216105323
 30
0.0
 10
302.4696129104443
 20
143.4066631219302
 30
0.0
 10
302.2300579020111
 20
143.6211197573008
 30
0.0
 10
302.1516696840973
 20
143.7085924309326
 30
0.0
 10
301.9988384309145
 20
143.915152500145
 30
0.0
 10
301.923736381757
 20
144.0354930977554
 30
0.0
 10
301.7825082597827
 20
144.305383530891
 30
0.0
 10
301.7171362546139
 20
144.453068322888
 30
0.0
 10
301.5988598760951
 20
144.774996139535
 30
0.0
 10
301.545371749407
 20
144.9518642991065
 30
0.0
 10
301.4579243324428
 20
145.322186447785
 30
0.0
 10
301.4238425517736
 20
145.5146860817594
 30
0.0
 10
301.3770705087971
 20
145.9151651610435
 30
0.0
 10
301.3646082415904
 20
146.1243429331666
 30
0.0
 10
301.3646082415904
 20
146.3333216105323
 30
0.0
  0
LINE
  5
27D
330
1F
100
AcDbEntity
  8
0
  6
Continuous
 62
     7
370
    25
100
AcDbLine
 10
302.7784981424
 20
143.3333216105
 30
0.0
 11
284.2499985357
 21
143.3333216105
 31
0.0
  0
LINE
  5
27E
330
1F
100
AcDbEntity
  8
0
  6
Continuous
 62
     7
370
    25
100
AcDbLine
 10
307.303801974
 20
146.3333216105
 30
0.0
 11
307.303801974
 21
143.3437564248
 31
0.0
  0
LINE
  5
27F
330
1F
100
AcDbEntity
  8
0
  6
Continuous
 62
     7
370
    25
100
AcDbLine
 10
307.303801974
 20
143.3437564248
 30
0.0
 11
318.803801974
 21
143.3437564248
 31
0.0
  0
LINE
  5
280
330
1F
100
AcDbEntity
  8
0
  6
Continuous
 62
     7
370
    25
100
AcDbLine
 10
318.803801974
 20
143.3437564248
 30
0.0
 11
318.803801974
 21
146.3333216105
 31
0.0
  0
LINE
  5
281
330
1F
100
AcDbEntity
  8
0
  6
Continuous
 62
     7
370
    25
100
AcDbLine
 10
320.803801974
 20
146.3333216105
 30
0.0
 11
320.803801974
 21
143.3333216105
 31
0.0
  0
LINE
  5
282
330
1F
100
AcDbEntity
  8
0
  6
Continuous
 62
     7
370
    25
100
AcDbLine
 10
320.803801974
 20
143.3333216105
 30
0.0
 11
302.7784981424
 21
143.3333216105
 31
0.0
  0
ARC
  5
283
330
1F
100
AcDbEntity
  8
0
  6
Continuous
 62
     7
370
    25
100
AcDbCircle
 10
313.053801974
 20
176.3333216105
 30
0.0
 40
2.5
100
AcDbArc
 50
0.0
 51
180.0
  0
LINE
  5
284
330
1F
100
AcDbEntity
  8
0
  6
Continuous
 62
     7
370
    25
100
AcDbLine
 10
310.553801974
 20
171.3333216105
 30
0.0
 11
310.553801974
 21
176.3333216105
 31
0.0
  0
ARC
  5
285
330
1F
100
AcDbEntity
  8
0
  6
Continuous
 62
     7
370
    25
100
AcDbCircle
 10
313.053801974
 20
171.3333216105
 30
0.0
 40
2.5
100
AcDbArc
 50
180.0
 51
0.0
  0
LINE
  5
286
330
1F
100
AcDbEntity
  8
0
  6
Continuous
 62
     7
370
    25
100
AcDbLine
 10
315.553801974
 20
176.3333216105
 30
0.0
 11
315.553801974
 21
171.3333216105
 31
0.0
  0
DIMENSION
  5
287
330
1F
100
AcDbEntity
  8
0
  6
Continuous
 62
     7
370
    18
100
AcDbDimension
  2
_D_7
 10
291.2499985357
 20
127.3333216105
 30
0.0
 11
268.8927414908
 21
127.3333216105
 31
0.0
 70
   160
  1
<>
 71
     2
 42
-1.0
  3
SLDDIMSTYLE2
100
AcDbAlignedDimension
 13
281.2499985357
 23
146.3333216105
 33
0.0
 14
291.2499985357
 24
150.8333216105
 34
0.0
100
AcDbRotatedDimension
  0
DIMENSION
  5
293
330
1F
100
AcDbEntity
  8
0
  6
Continuous
 62
     7
370
    18
100
AcDbDimension
  2
_D_8
 10
268.8927414908
 20
155.8333216105
 30
0.0
 11
268.8927414908
 21
149.5650290574
 31
0.0
 70
   160
  1
<>
 71
     2
 42
-1.0
  3
SLDDIMSTYLE2
100
AcDbAlignedDimension
 13
284.2499985357
 23
143.3333216105
 33
0.0
 14
286.2499985357
 24
155.8333216105
 34
0.0
 50
90.0
100
AcDbRotatedDimension
  0
DIMENSION
  5
29F
330
1F
100
AcDbEntity
  8
0
  6
Continuous
 62
     7
370
    18
100
AcDbDimension
  2
_D_9
 10
259.2499985357
 20
185.8333216105
 30
0.0
 11
259.2499985357
 21
168.6661784338
 31
0.0
 70
   160
  1
<>
 71
     2
 42
-1.0
  3
SLDDIMSTYLE2
100
AcDbAlignedDimension
 13
284.2499985357
 23
143.3333216105
 33
0.0
 14
286.2499985357
 24
185.8333216105
 34
0.0
 50
90.0
100
AcDbRotatedDimension
  0
DIMENSION
  5
2AB
330
1F
100
AcDbEntity
  8
0
  6
Continuous
 62
     7
370
    18
100
AcDbDimension
  2
_D_10
 10
313.053801974
 20
217.2105297795
 30
0.0
 11
296.9955649512
 21
217.2105297795
 31
0.0
 70
   160
  1
<>
 71
     2
 42
-1.0
  3
SLDDIMSTYLE2
100
AcDbAlignedDimension
 13
281.2499985357
 23
195.3333216105
 33
0.0
 14
313.053801974
 24
200.8333216105
 34
0.0
100
AcDbRotatedDimension
  0
DIMENSION
  5
2B7
330
1F
100
AcDbEntity
  8
0
  6
Continuous
 62
     7
370
    18
100
AcDbDimension
  2
_D_11
 10
354.803801974
 20
195.8333216105
 30
0.0
 11
354.803801974
 21
170.4506174019
 31
0.0
 70
   160
  1
<>
 71
     2
 42
-1.0
  3
SLDDIMSTYLE4
100
AcDbAlignedDimension
 13
320.803801974
 23
143.3333216105
 33
0.0
 14
318.053801974
 24
195.8333216105
 34
0.0
 50
90.0
100
AcDbRotatedDimension
  0
DIMENSION
  5
2C2
330
1F
100
AcDbEntity
  8
0
  6
Continuous
 62
     7
370
    18
100
AcDbDimension
  2
_D_12
 10
335.8895635341
 20
171.3333216105
 30
0.0
 11
335.8895635341
 21
158.5915582127
 31
0.0
 70
   160
  1
<>
 71
     2
 42
-1.0
  3
SLDDIMSTYLE4
100
AcDbAlignedDimension
 13
320.803801974
 23
143.3333216105
 33
0.0
 14
313.053801974
 24
171.3333216105
 34
0.0
 50
90.0
100
AcDbRotatedDimension
  0
INSERT
  5
2D7
330
1F
100
AcDbEntity
  8
0
  6
Continuous
 62
     7
370
     0
100
AcDbBlockReference
  2
SW_CENTERMARKSYMBOL_3
 10
313.053801974
 20
195.8333216105
 30
0.0
  0
INSERT
  5
2E3
330
1F
100
AcDbEntity
  8
0
  6
Continuous
 62
     7
370
     0
100
AcDbBlockReference
  2
SW_CENTERMARKSYMBOL_4
 10
291.2499985357
 20
155.8333216105
 30
0.0
  0
INSERT
  5
2EF
330
1F
100
AcDbEntity
  8
0
  6
Continuous
 62
     7
370
     0
100
AcDbBlockReference
  2
SW_CENTERMARKSYMBOL_5
 10
291.2499985357
 20
185.8333216105
 30
0.0
  0
ENDSEC
  0
SECTION
  2
OBJECTS
  0
DICTIONARY
  5
C
330
0
100
AcDbDictionary
281
     1
  3
ACAD_GROUP
350
D
  3
ACAD_LAYOUT
350
1A
  3
ACAD_MLINESTYLE
350
17
  3
ACAD_PLOTSETTINGS
350
19
  3
ACAD_PLOTSTYLENAME
350
E
  3
ACAD_SCALELIST
350
47
  0
DICTIONARY
  5
D
102
{ACAD_REACTORS
330
C
102
}
330
C
100
AcDbDictionary
281
     1
  0
DICTIONARY
  5
1A
102
{ACAD_REACTORS
330
C
102
}
330
C
100
AcDbDictionary
281
     1
  3
Layout1
350
1E
  3
Layout2
350
26
  3
Model
350
22
  0
DICTIONARY
  5
17
102
{ACAD_REACTORS
330
C
102
}
330
C
100
AcDbDictionary
281
     1
  3
Standard
350
18
  0
DICTIONARY
  5
19
102
{ACAD_REACTORS
330
C
102
}
330
C
100
AcDbDictionary
281
     1
  0
ACDBDICTIONARYWDFLT
  5
E
102
{ACAD_REACTORS
330
C
102
}
330
C
100
AcDbDictionary
281
     1
  3
Normal
350
F
100
AcDbDictionaryWithDefault
340
F
  0
DICTIONARY
  5
47
102
{ACAD_REACTORS
330
C
102
}
330
C
100
AcDbDictionary
281
     1
  3
A0
350
48
  3
A1
350
49
  3
A2
350
4A
  3
A3
350
4B
  3
A4
350
4C
  3
A5
350
4D
  3
A6
350
4E
  3
A7
350
4F
  3
A8
350
50
  3
A9
350
51
  3
B0
350
52
  3
B1
350
53
  3
B2
350
54
  3
B3
350
55
  3
B4
350
56
  3
B5
350
57
  3
B6
350
58
  3
B7
350
59
  3
B8
350
5A
  3
B9
350
5B
  3
C0
350
5C
  3
C1
350
5D
  3
C2
350
5E
  3
C3
350
5F
  3
C4
350
60
  3
C5
350
61
  3
C6
350
62
  3
C7
350
63
  3
C8
350
64
  3
C9
350
65
  3
D0
350
66
  3
D1
350
67
  3
D2
350
68
  0
LAYOUT
  5
1E
102
{ACAD_REACTORS
330
1A
102
}
330
1A
100
AcDbPlotSettings
  1

  2
none_device
  4

  6

 40
0.0
 41
0.0
 42
0.0
 43
0.0
 44
0.0
 45
0.0
 46
0.0
 47
0.0
 48
0.0
 49
0.0
140
0.0
141
0.0
142
1.0
143
1.0
 70
   688
 72
     1
 73
     0
 74
     5
  7

 75
    16
147
1.0
148
0.0
149
0.0
100
AcDbLayout
  1
Layout1
 70
     1
 71
     1
 10
0.0
 20
0.0
 11
420.0
 21
297.0
 12
0.0
 22
0.0
 32
0.0
 14
1.0000000000E+20
 24
1.0000000000E+20
 34
1.0000000000E+20
 15
-1.0000000000E+20
 25
-1.0000000000E+20
 35
-1.0000000000E+20
146
0.0
 13
0.0
 23
0.0
 33
0.0
 16
1.0
 26
0.0
 36
0.0
 17
0.0
 27
1.0
 37
0.0
 76
     0
330
1B
  0
LAYOUT
  5
26
102
{ACAD_REACTORS
330
1A
102
}
330
1A
100
AcDbPlotSettings
  1

  2
none_device
  4

  6

 40
0.0
 41
0.0
 42
0.0
 43
0.0
 44
0.0
 45
0.0
 46
0.0
 47
0.0
 48
0.0
 49
0.0
140
0.0
141
0.0
142
1.0
143
1.0
 70
   688
 72
     1
 73
     0
 74
     5
  7

 75
    16
147
1.0
148
0.0
149
0.0
100
AcDbLayout
  1
Layout2
 70
     1
 71
     2
 10
0.0
 20
0.0
 11
0.0
 21
0.0
 12
0.0
 22
0.0
 32
0.0
 14
0.0
 24
0.0
 34
0.0
 15
0.0
 25
0.0
 35
0.0
146
0.0
 13
0.0
 23
0.0
 33
0.0
 16
1.0
 26
0.0
 36
0.0
 17
0.0
 27
1.0
 37
0.0
 76
     0
330
23
  0
LAYOUT
  5
22
102
{ACAD_REACTORS
330
1A
102
}
330
1A
100
AcDbPlotSettings
  1

  2
none_device
  4
Letter_(8.50_x_11.00_Inches)
  6

 40
6.35
 41
6.35
 42
6.35000508
 43
6.35000508
 44
215.9
 45
279.4
 46
0.0
 47
0.0
 48
0.0
 49
0.0
140
0.0
141
0.0
142
1.0
143
1.0
 70
  1712
 72
     1
 73
     0
 74
     0
  7

 75
     0
147
1.0
148
0.0
149
0.0
100
AcDbLayout
  1
Model
 70
     1
 71
     0
 10
0.0
 20
0.0
 11
420.0
 21
297.0
 12
0.0
 22
0.0
 32
0.0
 14
0.0
 24
0.0
 34
0.0
 15
420.0
 25
297.0
 35
0.0
146
0.0
 13
0.0
 23
0.0
 33
0.0
 16
1.0
 26
0.0
 36
0.0
 17
0.0
 27
1.0
 37
0.0
 76
     0
330
1F
331
29
  0
MLINESTYLE
  5
18
102
{ACAD_REACTORS
330
17
102
}
330
17
100
AcDbMlineStyle
  2
Standard
 70
     0
  3

 62
   256
 51
90.0
 52
90.0
 71
     2
 49
0.5
 62
   256
  6
BYLAYER
 49
-0.5
 62
   256
  6
BYLAYER
  0
ACDBPLACEHOLDER
  5
F
102
{ACAD_REACTORS
330
E
102
}
330
E
  0
SCALE
  5
48
102
{ACAD_REACTORS
330
47
102
}
330
47
100
AcDbScale
 70
     0
300
1:1
140
1.0
141
1.0
290
     1
  0
SCALE
  5
49
102
{ACAD_REACTORS
330
47
102
}
330
47
100
AcDbScale
 70
     0
300
1:2
140
1.0
141
2.0
290
     0
  0
SCALE
  5
4A
102
{ACAD_REACTORS
330
47
102
}
330
47
100
AcDbScale
 70
     0
300
1:4
140
1.0
141
4.0
290
     0
  0
SCALE
  5
4B
102
{ACAD_REACTORS
330
47
102
}
330
47
100
AcDbScale
 70
     0
300
1:5
140
1.0
141
5.0
290
     0
  0
SCALE
  5
4C
102
{ACAD_REACTORS
330
47
102
}
330
47
100
AcDbScale
 70
     0
300
1:8
140
1.0
141
8.0
290
     0
  0
SCALE
  5
4D
102
{ACAD_REACTORS
330
47
102
}
330
47
100
AcDbScale
 70
     0
300
1:10
140
1.0
141
10.0
290
     0
  0
SCALE
  5
4E
102
{ACAD_REACTORS
330
47
102
}
330
47
100
AcDbScale
 70
     0
300
1:16
140
1.0
141
16.0
290
     0
  0
SCALE
  5
4F
102
{ACAD_REACTORS
330
47
102
}
330
47
100
AcDbScale
 70
     0
300
1:20
140
1.0
141
20.0
290
     0
  0
SCALE
  5
50
102
{ACAD_REACTORS
330
47
102
}
330
47
100
AcDbScale
 70
     0
300
1:30
140
1.0
141
30.0
290
     0
  0
SCALE
  5
51
102
{ACAD_REACTORS
330
47
102
}
330
47
100
AcDbScale
 70
     0
300
1:40
140
1.0
141
40.0
290
     0
  0
SCALE
  5
52
102
{ACAD_REACTORS
330
47
102
}
330
47
100
AcDbScale
 70
     0
300
1:50
140
1.0
141
50.0
290
     0
  0
SCALE
  5
53
102
{ACAD_REACTORS
330
47
102
}
330
47
100
AcDbScale
 70
     0
300
1:100
140
1.0
141
100.0
290
     0
  0
SCALE
  5
54
102
{ACAD_REACTORS
330
47
102
}
330
47
100
AcDbScale
 70
     0
300
2:1
140
2.0
141
1.0
290
     0
  0
SCALE
  5
55
102
{ACAD_REACTORS
330
47
102
}
330
47
100
AcDbScale
 70
     0
300
4:1
140
4.0
141
1.0
290
     0
  0
SCALE
  5
56
102
{ACAD_REACTORS
330
47
102
}
330
47
100
AcDbScale
 70
     0
300
8:1
140
8.0
141
1.0
290
     0
  0
SCALE
  5
57
102
{ACAD_REACTORS
330
47
102
}
330
47
100
AcDbScale
 70
     0
300
10:1
140
10.0
141
1.0
290
     0
  0
SCALE
  5
58
102
{ACAD_REACTORS
330
47
102
}
330
47
100
AcDbScale
 70
     0
300
100:1
140
100.0
141
1.0
290
     0
  0
SCALE
  5
59
102
{ACAD_REACTORS
330
47
102
}
330
47
100
AcDbScale
 70
     0
300
1/128" = 1'-0"
140
0.0078125
141
12.0
290
     0
  0
SCALE
  5
5A
102
{ACAD_REACTORS
330
47
102
}
330
47
100
AcDbScale
 70
     0
300
1/64" = 1'-0"
140
0.015625
141
12.0
290
     0
  0
SCALE
  5
5B
102
{ACAD_REACTORS
330
47
102
}
330
47
100
AcDbScale
 70
     0
300
1/32" = 1'-0"
140
0.03125
141
12.0
290
     0
  0
SCALE
  5
5C
102
{ACAD_REACTORS
330
47
102
}
330
47
100
AcDbScale
 70
     0
300
1/16" = 1'-0"
140
0.0625
141
12.0
290
     0
  0
SCALE
  5
5D
102
{ACAD_REACTORS
330
47
102
}
330
47
100
AcDbScale
 70
     0
300
3/32" = 1'-0"
140
0.09375
141
12.0
290
     0
  0
SCALE
  5
5E
102
{ACAD_REACTORS
330
47
102
}
330
47
100
AcDbScale
 70
     0
300
1/8" = 1'-0"
140
0.125
141
12.0
290
     0
  0
SCALE
  5
5F
102
{ACAD_REACTORS
330
47
102
}
330
47
100
AcDbScale
 70
     0
300
3/16" = 1'-0"
140
0.1875
141
12.0
290
     0
  0
SCALE
  5
60
102
{ACAD_REACTORS
330
47
102
}
330
47
100
AcDbScale
 70
     0
300
1/4" = 1'-0"
140
0.25
141
12.0
290
     0
  0
SCALE
  5
61
102
{ACAD_REACTORS
330
47
102
}
330
47
100
AcDbScale
 70
     0
300
3/8" = 1'-0"
140
0.375
141
12.0
290
     0
  0
SCALE
  5
62
102
{ACAD_REACTORS
330
47
102
}
330
47
100
AcDbScale
 70
     0
300
1/2" = 1'-0"
140
0.5
141
12.0
290
     0
  0
SCALE
  5
63
102
{ACAD_REACTORS
330
47
102
}
330
47
100
AcDbScale
 70
     0
300
3/4" = 1'-0"
140
0.75
141
12.0
290
     0
  0
SCALE
  5
64
102
{ACAD_REACTORS
330
47
102
}
330
47
100
AcDbScale
 70
     0
300
1" = 1'-0"
140
1.0
141
12.0
290
     0
  0
SCALE
  5
65
102
{ACAD_REACTORS
330
47
102
}
330
47
100
AcDbScale
 70
     0
300
1-1/2" = 1'-0"
140
1.5
141
12.0
290
     0
  0
SCALE
  5
66
102
{ACAD_REACTORS
330
47
102
}
330
47
100
AcDbScale
 70
     0
300
3" = 1'-0"
140
3.0
141
12.0
290
     0
  0
SCALE
  5
67
102
{ACAD_REACTORS
330
47
102
}
330
47
100
AcDbScale
 70
     0
300
6" = 1'-0"
140
6.0
141
12.0
290
     0
  0
SCALE
  5
68
102
{ACAD_REACTORS
330
47
102
}
330
47
100
AcDbScale
 70
     0
300
1'-0" = 1'-0"
140
12.0
141
12.0
290
     0
  0
ENDSEC
  0
EOF
