999
DXF file: 100019-a_support-servo.dxf
999
Pro/ENGINEER 2004090 by Parametric Technology Corporation
0
SECTION
2
HEADER
9
$ACADVER
1
AC1014
9
$HANDSEED
5
       4AC
9
$EXTMAX
10
420.0000000000
20
297.0000000000
9
$EXTMIN
10
0.0000000000
20
0.0000000000
9
$LIMMIN
10
0.0000000000
20
0.0000000000
9
$LIMMAX
10
420.0000000000
20
297.0000000000
9
$VIEWCTR
10
210.0000000000
20
148.5000000000
9
$VIEWSIZE
40
297.0000000000
9
$CLAYER
8
0
9
$LTSCALE
40
23.1000000000
9
$CELTYPE
6
BYLAYER
9
$DIMSCALE
40
1
9
$DIMASZ
40
4.5000000000
9
$DIMEXO
40
2.6250000000
9
$DIMDLI
40
15.9600000000
9
$DIMEXE
40
7.5600000000
9
$DIMCEN
40
3.7800000000
9
$DIMLFAC
40
1.0000000000
9
$DIMTXT
40
3.5000000000
9
$DIMTOL
70
1
9
$DIMLIM
70
0
9
$DIMTFAC
40
1.0000000000
9
$DIMTP
40
0.0500000000
9
$DIMTM
40
0.0500000000
9
$MEASUREMENT
70
1
0
ENDSEC
0
SECTION
2
CLASSES
0
ENDSEC
0
SECTION
2
TABLES
0
TABLE
2
VPORT
5
8
100
AcDbSymbolTable
70
2
0
VPORT
5
1F4
100
AcDbSymbolTableRecord
100
AcDbViewportTableRecord
2
*ACTIVE
70
0
10
0.0
20
0.0
11
1.0
21
1.0
12
210.0000000000
22
148.5000000000
13
0.0
23
0.0
14
1.0
24
1.0
15
0.0
25
0.0
16
0.0
26
0.0
36
1.0
17
0.0
27
0.0
37
0.0
40
297.0000000000
41
1.4141414141
42
50.0
43
0.0
44
0.0
50
0.0
51
0.0
71
0
72
100
73
1
74
1
75
0
76
0
77
0
78
0
0
ENDTAB
0
TABLE
2
LTYPE
5
5
100
AcDbSymbolTable
70
6
0
LTYPE
5
14
100
AcDbSymbolTableRecord
100
AcDbLinetypeTableRecord
2
BYBLOCK
70
0
3

72
65
73
0
40
0.0
0
LTYPE
5
15
100
AcDbSymbolTableRecord
100
AcDbLinetypeTableRecord
2
BYLAYER
70
0
3

72
65
73
0
40
0.0
0
LTYPE
5
16
100
AcDbSymbolTableRecord
100
AcDbLinetypeTableRecord
2
CONTINUOUS
70
64
3
Solid line
72
65
73
0
40
0
0
LTYPE
5
1F5
100
AcDbSymbolTableRecord
100
AcDbLinetypeTableRecord
2
CENTER
70
64
3
____ _ ____ _ ____ _ ____ _ ____ _ ____ _ ____
72
65
73
4
40
0.6
49
0.375
74
0
49
-0.075
74
0
49
0.075
74
0
49
-0.075
74
0
0
LTYPE
5
1F6
100
AcDbSymbolTableRecord
100
AcDbLinetypeTableRecord
2
HIDDEN
70
64
3
- - - - - - - - - - - - - - - - - - - -
72
65
73
2
40
0.2
49
0.1
74
0
49
-0.1
74
0
0
LTYPE
5
1F7
100
AcDbSymbolTableRecord
100
AcDbLinetypeTableRecord
2
PHANTOM
70
64
3
_____ _ _ _____ _ _ _____ _ _ _____
72
65
73
6
40
0.8
49
0.45
74
0
49
-0.05
74
0
49
0.1
74
0
49
-0.05
74
0
49
0.1
74
0
49
-0.05
74
0
0
LTYPE
5
1F8
100
AcDbSymbolTableRecord
100
AcDbLinetypeTableRecord
2
DOT
70
64
3
. . . . . . . . . . . . . . . . . . . .
72
65
73
2
40
0.2
49
0.1
74
0
49
-0.1
74
0
0
LTYPE
5
1F9
100
AcDbSymbolTableRecord
100
AcDbLinetypeTableRecord
2
DASHED
70
64
3
- - - - - - - - - - - - - - - - - - - -
72
65
73
2
40
0.2
49
0.1
74
0
49
-0.1
74
0
0
ENDTAB
0
TABLE
2
LAYER
5
2
100
AcDbSymbolTable
70
36
0
LAYER
5
10
100
AcDbSymbolTableRecord
100
AcDbLayerTableRecord
2
0
70
0
62
7
6
CONTINUOUS
0
LAYER
5
1FA
100
AcDbSymbolTableRecord
100
AcDbLayerTableRecord
2
DEFAULT_1
70
0
62
7
6
CENTER
0
LAYER
5
1FB
100
AcDbSymbolTableRecord
100
AcDbLayerTableRecord
2
DEFAULT_2
70
0
62
8
6
HIDDEN
0
LAYER
5
1FC
100
AcDbSymbolTableRecord
100
AcDbLayerTableRecord
2
DEFAULT_3
70
0
62
7
6
PHANTOM
0
LAYER
5
1FD
100
AcDbSymbolTableRecord
100
AcDbLayerTableRecord
2
POUB
70
0
62
7
6
CONTINUOUS
0
ENDTAB
0
TABLE
2
STYLE
5
3
100
AcDbSymbolTable
70
1
0
STYLE
5
11
100
AcDbSymbolTableRecord
100
AcDbTextStyleTableRecord
2
STANDARD
70
0
40
0.0
41
0.8000000000
50
0.0
71
0
42
0.2
3
txt
4

0
STYLE
5
1FE
100
AcDbSymbolTableRecord
100
AcDbTextStyleTableRecord
2
TEXTSTYLE_1
70
0
40
0.0
41
0.8000000000
50
0.0
71
0
42
0.2
3
txt
4

0
ENDTAB
0
TABLE
2
VIEW
5
6
100
AcDbSymbolTable
70
0
0
ENDTAB
0
TABLE
2
UCS
5
7
100
AcDbSymbolTable
70
0
0
ENDTAB
0
TABLE
2
APPID
5
9
100
AcDbSymbolTable
70
1
0
APPID
5
1FF
100
AcDbSymbolTableRecord
100
AcDbRegAppTableRecord
2
ACAD
70
0
0
ENDTAB
0
TABLE
2
DIMSTYLE
5
A
100
AcDbSymbolTable
70
1
0
DIMSTYLE
105
200
100
AcDbSymbolTableRecord
100
AcDbDimStyleTableRecord
2
STANDARD
70
0
3

4

5

6

7

40
1.0
41
4.5000000000
42
0.0625
43
0.38
44
0.18
45
0.0
46
0.0
47
0.0500000000
48
0.0500000000
140
3.5000000000
141
0.09
142
0.0
143
25.4
144
1.0000000000
145
0.0
146
1.0000000000
147
0.09
71
1
72
0
73
0
74
0
75
0
76
0
77
1
78
8
170
0
171
2
172
0
173
0
174
0
175
0
176
0
177
0
178
0
270
2
271
2
272
2
273
2
274
2
340
11
275
0
280
0
281
0
282
0
283
1
284
8
285
0
286
0
287
3
288
0
0
DIMSTYLE
105
201
100
AcDbSymbolTableRecord
100
AcDbDimStyleTableRecord
2
DIMSTYLE_1
70
0
3

4

5

6

7

40
1.0
41
4.5000000000
42
0.0625
43
0.38
44
0.18
45
0.0
46
0.0
47
0.0500000000
48
0.0500000000
140
3.5000000000
141
0.09
142
0.0
143
25.4
144
1.0000000000
145
0.0
146
1.0000000000
147
0.09
71
0
72
0
73
0
74
0
75
0
76
0
77
1
78
8
170
0
171
2
172
0
173
0
174
0
175
0
176
0
177
0
178
0
270
2
271
2
272
2
273
2
274
2
340
1FE
275
0
280
0
281
0
282
0
283
1
284
8
285
0
286
0
287
3
288
0
0
DIMSTYLE
105
202
100
AcDbSymbolTableRecord
100
AcDbDimStyleTableRecord
2
DIMSTYLE_2
70
0
3

4

5

6

7

40
1.0
41
4.5000000000
42
0.0625
43
0.38
44
0.18
45
0.0
46
0.0
47
0.0500000000
48
0.0500000000
140
3.5000000000
141
0.09
142
0.0
143
25.4
144
1.0000000000
145
0.0
146
1.0000000000
147
0.09
71
0
72
0
73
0
74
0
75
0
76
0
77
1
78
8
170
0
171
2
172
0
173
0
174
0
175
0
176
0
177
0
178
0
270
2
271
2
272
2
273
2
274
2
340
1FE
275
0
280
0
281
0
282
0
283
1
284
8
285
0
286
0
287
3
288
0
0
ENDTAB
0
TABLE
2
BLOCK_RECORD
5
1
100
AcDbSymbolTable
70
0
0
BLOCK_RECORD
5
1B
100
AcDbSymbolTableRecord
100
AcDbBlockTableRecord
2
*MODEL_SPACE
0
BLOCK_RECORD
5
1C
100
AcDbSymbolTableRecord
100
AcDbBlockTableRecord
2
*PAPER_SPACE
0
BLOCK_RECORD
5
203
100
AcDbSymbolTableRecord
100
AcDbBlockTableRecord
2
N-DES_BL0
0
BLOCK_RECORD
5
204
100
AcDbSymbolTableRecord
100
AcDbBlockTableRecord
2
N-CART_BL1
0
BLOCK_RECORD
5
205
100
AcDbSymbolTableRecord
100
AcDbBlockTableRecord
2
*D0
0
BLOCK_RECORD
5
206
100
AcDbSymbolTableRecord
100
AcDbBlockTableRecord
2
*D1
0
BLOCK_RECORD
5
207
100
AcDbSymbolTableRecord
100
AcDbBlockTableRecord
2
*D2
0
BLOCK_RECORD
5
208
100
AcDbSymbolTableRecord
100
AcDbBlockTableRecord
2
*D3
0
BLOCK_RECORD
5
209
100
AcDbSymbolTableRecord
100
AcDbBlockTableRecord
2
*D4
0
BLOCK_RECORD
5
20A
100
AcDbSymbolTableRecord
100
AcDbBlockTableRecord
2
*D5
0
BLOCK_RECORD
5
20B
100
AcDbSymbolTableRecord
100
AcDbBlockTableRecord
2
*D6
0
BLOCK_RECORD
5
20C
100
AcDbSymbolTableRecord
100
AcDbBlockTableRecord
2
*D7
0
BLOCK_RECORD
5
20D
100
AcDbSymbolTableRecord
100
AcDbBlockTableRecord
2
*D8
0
BLOCK_RECORD
5
20E
100
AcDbSymbolTableRecord
100
AcDbBlockTableRecord
2
*D9
0
BLOCK_RECORD
5
20F
100
AcDbSymbolTableRecord
100
AcDbBlockTableRecord
2
*D10
0
BLOCK_RECORD
5
210
100
AcDbSymbolTableRecord
100
AcDbBlockTableRecord
2
*D11
0
BLOCK_RECORD
5
211
100
AcDbSymbolTableRecord
100
AcDbBlockTableRecord
2
*D12
0
BLOCK_RECORD
5
212
100
AcDbSymbolTableRecord
100
AcDbBlockTableRecord
2
*D13
0
BLOCK_RECORD
5
213
100
AcDbSymbolTableRecord
100
AcDbBlockTableRecord
2
*D14
0
BLOCK_RECORD
5
214
100
AcDbSymbolTableRecord
100
AcDbBlockTableRecord
2
*D15
0
BLOCK_RECORD
5
215
100
AcDbSymbolTableRecord
100
AcDbBlockTableRecord
2
*D16
0
BLOCK_RECORD
5
216
100
AcDbSymbolTableRecord
100
AcDbBlockTableRecord
2
*D17
0
BLOCK_RECORD
5
217
100
AcDbSymbolTableRecord
100
AcDbBlockTableRecord
2
*D18
0
BLOCK_RECORD
5
218
100
AcDbSymbolTableRecord
100
AcDbBlockTableRecord
2
*D19
0
BLOCK_RECORD
5
219
100
AcDbSymbolTableRecord
100
AcDbBlockTableRecord
2
*D20
0
BLOCK_RECORD
5
21A
100
AcDbSymbolTableRecord
100
AcDbBlockTableRecord
2
*D21
0
BLOCK_RECORD
5
21B
100
AcDbSymbolTableRecord
100
AcDbBlockTableRecord
2
N-CAR_BL2
0
ENDTAB
0
ENDSEC
0
SECTION
2
BLOCKS
0
BLOCK
5
1E
100
AcDbEntity
8
0
100
AcDbBlockBegin
2
*MODEL_SPACE
70
0
10
0.0
20
0.0
30
0.0
3
*MODEL_SPACE
1

0
ENDBLK
5
1F
100
AcDbEntity
8
0
100
AcDbBlockEnd
0
BLOCK
5
20
100
AcDbEntity
8
0
100
AcDbBlockBegin
2
*PAPER_SPACE
70
0
10
0.0
20
0.0
30
0.0
3
*PAPER_SPACE
1

0
ENDBLK
5
21
100
AcDbEntity
8
0
100
AcDbBlockEnd
0
BLOCK
5
21C
100
AcDbEntity
8
0
100
AcDbBlockBegin
62
2
6
CONTINUOUS
2
N-DES_BL0
70
64
10
0.0000000000
20
0.0000000000
3
N-DES_BL0
1

0
LINE
5
21D
100
AcDbEntity
8
0
100
AcDbLine
62
7
6
CONTINUOUS
10
414.9755083970
20
45.0843010440
11
414.9755083970
21
43.3951104690
0
LINE
5
21E
100
AcDbEntity
8
0
100
AcDbLine
62
7
6
CONTINUOUS
10
420.3809182372
20
42.5505151815
11
414.9755083970
21
43.3951104690
0
LINE
5
21F
100
AcDbEntity
8
DEFAULT_1
100
AcDbLine
62
2
6
CENTER
10
414.1646969210
20
44.2397057565
11
421.1917297132
21
44.2397057565
0
LINE
5
220
100
AcDbEntity
8
0
100
AcDbLine
62
7
6
CONTINUOUS
10
420.3809182372
20
45.9288963316
11
414.9755083970
21
45.0843010440
0
LINE
5
221
100
AcDbEntity
8
0
100
AcDbLine
62
7
6
CONTINUOUS
10
420.3809182372
20
45.9288963316
11
420.3809182372
21
42.5505151815
0
LINE
5
222
100
AcDbEntity
8
0
100
AcDbLine
62
2
6
CONTINUOUS
10
424.7776655988
20
44.3400436767
11
424.7776655988
21
44.1393678363
0
LINE
5
223
100
AcDbEntity
8
DEFAULT_1
100
AcDbLine
62
2
6
CENTER
10
424.7776655988
20
41.6419278076
11
424.7776655988
21
46.7397078076
0
LINE
5
224
100
AcDbEntity
8
0
100
AcDbLine
62
2
6
CONTINUOUS
10
424.8780035190
20
44.2397057565
11
424.6773276787
21
44.2397057565
0
LINE
5
225
100
AcDbEntity
8
DEFAULT_1
100
AcDbLine
62
2
6
CENTER
10
424.2759759980
20
44.2397057565
11
422.2776635477
21
44.2397057565
0
LINE
5
226
100
AcDbEntity
8
DEFAULT_1
100
AcDbLine
62
2
6
CENTER
10
425.2793551996
20
44.2397057565
11
427.2776676499
21
44.2397057565
0
CIRCLE
5
227
100
AcDbEntity
8
0
100
AcDbCircle
62
7
6
CONTINUOUS
10
424.7776655988
20
44.2397057565
40
1.6891905751
0
CIRCLE
5
228
100
AcDbEntity
8
0
100
AcDbCircle
62
7
6
CONTINUOUS
10
424.7776655988
20
44.2397057565
40
0.8445952875
0
ENDBLK
5
229
100
AcDbEntity
8
0
100
AcDbBlockEnd
0
BLOCK
5
22A
100
AcDbEntity
8
0
100
AcDbBlockBegin
62
2
6
CONTINUOUS
2
N-CART_BL1
70
64
10
0.0000000000
20
0.0000000000
3
N-CART_BL1
1

0
LINE
5
22B
100
AcDbEntity
8
0
100
AcDbLine
62
7
6
CONTINUOUS
10
445.0002950648
20
53.4997790807
11
279.0003222648
21
53.4997790807
0
LINE
5
22C
100
AcDbEntity
8
0
100
AcDbLine
62
7
6
CONTINUOUS
10
445.0002950648
20
11.9997858807
11
279.0003222648
21
11.9997858807
0
LINE
5
22D
100
AcDbEntity
8
0
100
AcDbLine
62
7
6
CONTINUOUS
10
445.0002950648
20
53.4997790807
11
445.0002950648
21
11.9997858807
0
LINE
5
22E
100
AcDbEntity
8
0
100
AcDbLine
62
7
6
CONTINUOUS
10
279.0003222648
20
53.4997790807
11
279.0003222648
21
11.9997858807
0
LINE
5
22F
100
AcDbEntity
8
0
100
AcDbLine
62
7
6
CONTINUOUS
10
445.0002950648
20
48.9997798181
11
279.0003222648
21
48.9997798181
0
LINE
5
230
100
AcDbEntity
8
0
100
AcDbLine
62
7
6
CONTINUOUS
10
399.0003026021
20
21.4997843241
11
399.0003026021
21
11.9997858807
0
LINE
5
231
100
AcDbEntity
8
0
100
AcDbLine
62
7
6
CONTINUOUS
10
445.0002950648
20
21.4997843241
11
399.0003026021
21
21.4997843241
0
ENDBLK
5
232
100
AcDbEntity
8
0
100
AcDbBlockEnd
0
BLOCK
5
233
100
AcDbEntity
8
0
100
AcDbBlockBegin
62
2
6
CONTINUOUS
2
*D0
70
65
10
0.0000000000
20
0.0000000000
3
*D0
1

0
TEXT
5
234
100
AcDbEntity
8
0
100
AcDbText
62
2
6
CONTINUOUS
10
242.0568478110
20
151.2763306141
7
TEXTSTYLE_1
40
3.5000000000
1
=
41
0.4000000000
72
0
100
AcDbText
0
TEXT
5
235
100
AcDbEntity
8
0
100
AcDbText
62
2
6
CONTINUOUS
10
248.5901811443
20
151.2763306141
7
TEXTSTYLE_1
40
3.5000000000
1
=
41
0.4000000000
72
0
100
AcDbText
0
TEXT
5
236
100
AcDbEntity
8
0
100
AcDbText
62
2
6
CONTINUOUS
10
243.4568478110
20
151.2763306141
7
TEXTSTYLE_1
40
3.5000000000
1
57
41
0.7333333333
72
0
100
AcDbText
0
LINE
5
237
100
AcDbEntity
8
0
100
AcDbLine
62
2
6
CONTINUOUS
10
217.6251013594
20
132.0867849807
11
217.6251013594
21
153.6013306141
0
LINE
5
238
100
AcDbEntity
8
0
100
AcDbLine
62
2
6
CONTINUOUS
10
274.6251013594
20
132.1951157703
11
274.6251013594
21
153.6013306141
0
LINE
5
239
100
AcDbEntity
8
0
100
AcDbLine
62
2
6
CONTINUOUS
10
217.6251013594
20
150.4013306141
11
246.1251013594
21
150.4013306141
0
LINE
5
23A
100
AcDbEntity
8
0
100
AcDbLine
62
2
6
CONTINUOUS
10
274.6251013594
20
150.4013306141
11
246.1251013594
21
150.4013306141
0
SOLID
5
23B
100
AcDbEntity
8
0
100
AcDbTrace
62
2
6
CONTINUOUS
10
222.1251013594
20
151.2013306141
11
217.6251013594
21
150.4013306141
12
222.1251013594
22
149.6013306141
13
222.1251013594
23
149.6013306141
0
SOLID
5
23C
100
AcDbEntity
8
0
100
AcDbTrace
62
2
6
CONTINUOUS
10
270.1251013594
20
149.6013306141
11
274.6251013594
21
150.4013306141
12
270.1251013594
22
151.2013306141
13
270.1251013594
23
151.2013306141
0
ENDBLK
5
23D
100
AcDbEntity
8
0
100
AcDbBlockEnd
0
BLOCK
5
23E
100
AcDbEntity
8
0
100
AcDbBlockBegin
62
2
6
CONTINUOUS
2
*D1
70
65
10
0.0000000000
20
0.0000000000
3
*D1
1

0
TEXT
5
23F
100
AcDbEntity
8
0
100
AcDbText
62
2
6
CONTINUOUS
10
206.3401218351
20
120.0220717417
7
TEXTSTYLE_1
40
3.5000000000
1
=
50
90.0000000000
41
0.4000000000
72
0
100
AcDbText
0
TEXT
5
240
100
AcDbEntity
8
0
100
AcDbText
62
2
6
CONTINUOUS
10
206.3401218351
20
126.5554050751
7
TEXTSTYLE_1
40
3.5000000000
1
=
50
90.0000000000
41
0.4000000000
72
0
100
AcDbText
0
TEXT
5
241
100
AcDbEntity
8
0
100
AcDbText
62
2
6
CONTINUOUS
10
206.3401218351
20
121.4220717417
7
TEXTSTYLE_1
40
3.5000000000
1
20
50
90.0000000000
41
0.7333333333
72
0
100
AcDbText
0
LINE
5
242
100
AcDbEntity
8
0
100
AcDbLine
62
2
6
CONTINUOUS
10
219.1251013594
20
113.4912758532
11
204.0151218351
21
113.4912758532
0
LINE
5
243
100
AcDbEntity
8
0
100
AcDbLine
62
2
6
CONTINUOUS
10
219.1251013594
20
133.4912758532
11
204.0151218351
21
133.4912758532
0
LINE
5
244
100
AcDbEntity
8
0
100
AcDbLine
62
2
6
CONTINUOUS
10
207.2151218351
20
113.4912758532
11
207.2151218351
21
123.4912758532
0
LINE
5
245
100
AcDbEntity
8
0
100
AcDbLine
62
2
6
CONTINUOUS
10
207.2151218351
20
133.4912758532
11
207.2151218351
21
123.4912758532
0
SOLID
5
246
100
AcDbEntity
8
0
100
AcDbTrace
62
2
6
CONTINUOUS
10
206.4151218351
20
117.9912758532
11
207.2151218351
21
113.4912758532
12
208.0151218351
22
117.9912758532
13
208.0151218351
23
117.9912758532
0
SOLID
5
247
100
AcDbEntity
8
0
100
AcDbTrace
62
2
6
CONTINUOUS
10
208.0151218351
20
128.9912758532
11
207.2151218351
21
133.4912758532
12
206.4151218351
22
128.9912758532
13
206.4151218351
23
128.9912758532
0
ENDBLK
5
248
100
AcDbEntity
8
0
100
AcDbBlockEnd
0
BLOCK
5
249
100
AcDbEntity
8
0
100
AcDbBlockBegin
62
2
6
CONTINUOUS
2
*D2
70
65
10
0.0000000000
20
0.0000000000
3
*D2
1

0
TEXT
5
24A
100
AcDbEntity
8
0
100
AcDbText
62
2
6
CONTINUOUS
10
242.1128071066
20
94.9376778363
7
TEXTSTYLE_1
40
3.5000000000
1
=
41
0.4000000000
72
0
100
AcDbText
0
TEXT
5
24B
100
AcDbEntity
8
0
100
AcDbText
62
2
6
CONTINUOUS
10
248.8794737732
20
94.9376778363
7
TEXTSTYLE_1
40
3.5000000000
1
=
41
0.4000000000
72
0
100
AcDbText
0
TEXT
5
24C
100
AcDbEntity
8
0
100
AcDbText
62
2
6
CONTINUOUS
10
243.5128071066
20
94.9376778363
7
TEXTSTYLE_1
40
3.5000000000
1
47
41
0.7666666667
72
0
100
AcDbText
0
LINE
5
24D
100
AcDbEntity
8
0
100
AcDbLine
62
2
6
CONTINUOUS
10
222.6251013594
20
110.7412758532
11
222.6251013594
21
90.8626778363
0
LINE
5
24E
100
AcDbEntity
8
0
100
AcDbLine
62
2
6
CONTINUOUS
10
269.6251013594
20
110.7412758532
11
269.6251013594
21
90.8626778363
0
LINE
5
24F
100
AcDbEntity
8
0
100
AcDbLine
62
2
6
CONTINUOUS
10
222.6251013594
20
94.0626778363
11
246.1251013594
21
94.0626778363
0
LINE
5
250
100
AcDbEntity
8
0
100
AcDbLine
62
2
6
CONTINUOUS
10
269.6251013594
20
94.0626778363
11
246.1251013594
21
94.0626778363
0
SOLID
5
251
100
AcDbEntity
8
0
100
AcDbTrace
62
2
6
CONTINUOUS
10
227.1251013594
20
94.8626778363
11
222.6251013594
21
94.0626778363
12
227.1251013594
22
93.2626778363
13
227.1251013594
23
93.2626778363
0
SOLID
5
252
100
AcDbEntity
8
0
100
AcDbTrace
62
2
6
CONTINUOUS
10
265.1251013594
20
93.2626778363
11
269.6251013594
21
94.0626778363
12
265.1251013594
22
94.8626778363
13
265.1251013594
23
94.8626778363
0
ENDBLK
5
253
100
AcDbEntity
8
0
100
AcDbBlockEnd
0
BLOCK
5
254
100
AcDbEntity
8
0
100
AcDbBlockBegin
62
2
6
CONTINUOUS
2
*D3
70
65
10
0.0000000000
20
0.0000000000
3
*D3
1

0
TEXT
5
255
100
AcDbEntity
8
0
100
AcDbText
62
2
6
CONTINUOUS
10
243.4044763170
20
103.3874794240
7
TEXTSTYLE_1
40
3.5000000000
1
=
41
0.4000000000
72
0
100
AcDbText
0
TEXT
5
256
100
AcDbEntity
8
0
100
AcDbText
62
2
6
CONTINUOUS
10
247.3711429837
20
103.3874794240
7
TEXTSTYLE_1
40
3.5000000000
1
=
41
0.4000000000
72
0
100
AcDbText
0
TEXT
5
257
100
AcDbEntity
8
0
100
AcDbText
62
2
6
CONTINUOUS
10
244.8044763170
20
103.3874794240
7
TEXTSTYLE_1
40
3.5000000000
1
9
41
0.7333333333
72
0
100
AcDbText
0
LINE
5
258
100
AcDbEntity
8
0
100
AcDbLine
62
2
6
CONTINUOUS
10
241.6251013594
20
122.1324088852
11
241.6251013594
21
99.3124794240
0
LINE
5
259
100
AcDbEntity
8
0
100
AcDbLine
62
2
6
CONTINUOUS
10
250.6251013594
20
122.1324088852
11
250.6251013594
21
99.3124794240
0
LINE
5
25A
100
AcDbEntity
8
0
100
AcDbLine
62
2
6
CONTINUOUS
10
241.6251013594
20
102.5124794240
11
239.6251013594
21
102.5124794240
0
LINE
5
25B
100
AcDbEntity
8
0
100
AcDbLine
62
2
6
CONTINUOUS
10
239.6251013594
20
102.5124794240
11
246.1251013594
21
102.5124794240
0
LINE
5
25C
100
AcDbEntity
8
0
100
AcDbLine
62
2
6
CONTINUOUS
10
250.6251013594
20
102.5124794240
11
252.6251013594
21
102.5124794240
0
LINE
5
25D
100
AcDbEntity
8
0
100
AcDbLine
62
2
6
CONTINUOUS
10
252.6251013594
20
102.5124794240
11
246.1251013594
21
102.5124794240
0
SOLID
5
25E
100
AcDbEntity
8
0
100
AcDbTrace
62
2
6
CONTINUOUS
10
237.1251013594
20
101.7124794240
11
241.6251013594
21
102.5124794240
12
237.1251013594
22
103.3124794240
13
237.1251013594
23
103.3124794240
0
SOLID
5
25F
100
AcDbEntity
8
0
100
AcDbTrace
62
2
6
CONTINUOUS
10
255.1251013594
20
103.3124794240
11
250.6251013594
21
102.5124794240
12
255.1251013594
22
101.7124794240
13
255.1251013594
23
101.7124794240
0
ENDBLK
5
260
100
AcDbEntity
8
0
100
AcDbBlockEnd
0
BLOCK
5
261
100
AcDbEntity
8
0
100
AcDbBlockBegin
62
2
6
CONTINUOUS
2
*D4
70
65
10
0.0000000000
20
0.0000000000
3
*D4
1

0
TEXT
5
262
100
AcDbEntity
8
0
100
AcDbText
62
2
6
CONTINUOUS
10
256.2458606276
20
103.3874794240
7
TEXTSTYLE_1
40
3.5000000000
1
15
41
0.5333333333
72
0
100
AcDbText
0
LINE
5
263
100
AcDbEntity
8
0
100
AcDbLine
62
2
6
CONTINUOUS
10
250.6251013594
20
116.7536842967
11
250.6251013594
21
99.3124794240
0
LINE
5
264
100
AcDbEntity
8
0
100
AcDbLine
62
2
6
CONTINUOUS
10
265.6251013594
20
118.9912758532
11
265.6251013594
21
99.3124794240
0
LINE
5
265
100
AcDbEntity
8
0
100
AcDbLine
62
2
6
CONTINUOUS
10
250.6251013594
20
102.5124794240
11
258.1251013594
21
102.5124794240
0
LINE
5
266
100
AcDbEntity
8
0
100
AcDbLine
62
2
6
CONTINUOUS
10
265.6251013594
20
102.5124794240
11
258.1251013594
21
102.5124794240
0
SOLID
5
267
100
AcDbEntity
8
0
100
AcDbTrace
62
2
6
CONTINUOUS
10
255.1251013594
20
103.3124794240
11
250.6251013594
21
102.5124794240
12
255.1251013594
22
101.7124794240
13
255.1251013594
23
101.7124794240
0
SOLID
5
268
100
AcDbEntity
8
0
100
AcDbTrace
62
2
6
CONTINUOUS
10
261.1251013594
20
101.7124794240
11
265.6251013594
21
102.5124794240
12
261.1251013594
22
103.3124794240
13
261.1251013594
23
103.3124794240
0
ENDBLK
5
269
100
AcDbEntity
8
0
100
AcDbBlockEnd
0
BLOCK
5
26A
100
AcDbEntity
8
0
100
AcDbBlockBegin
62
2
6
CONTINUOUS
2
*D5
70
65
10
0.0000000000
20
0.0000000000
3
*D5
1

0
TEXT
5
26B
100
AcDbEntity
8
0
100
AcDbText
62
2
6
CONTINUOUS
10
232.3047561293
20
103.3874794240
7
TEXTSTYLE_1
40
3.5000000000
1
15
41
0.5333333333
72
0
100
AcDbText
0
LINE
5
26C
100
AcDbEntity
8
0
100
AcDbLine
62
2
6
CONTINUOUS
10
241.6251013594
20
118.9912758532
11
241.6251013594
21
99.3124794240
0
LINE
5
26D
100
AcDbEntity
8
0
100
AcDbLine
62
2
6
CONTINUOUS
10
226.6251013594
20
118.9912758532
11
226.6251013594
21
99.3124794240
0
LINE
5
26E
100
AcDbEntity
8
0
100
AcDbLine
62
2
6
CONTINUOUS
10
241.6251013594
20
102.5124794240
11
234.1251013594
21
102.5124794240
0
LINE
5
26F
100
AcDbEntity
8
0
100
AcDbLine
62
2
6
CONTINUOUS
10
226.6251013594
20
102.5124794240
11
234.1251013594
21
102.5124794240
0
SOLID
5
270
100
AcDbEntity
8
0
100
AcDbTrace
62
2
6
CONTINUOUS
10
237.1251013594
20
101.7124794240
11
241.6251013594
21
102.5124794240
12
237.1251013594
22
103.3124794240
13
237.1251013594
23
103.3124794240
0
SOLID
5
271
100
AcDbEntity
8
0
100
AcDbTrace
62
2
6
CONTINUOUS
10
231.1251013594
20
103.3124794240
11
226.6251013594
21
102.5124794240
12
231.1251013594
22
101.7124794240
13
231.1251013594
23
101.7124794240
0
ENDBLK
5
272
100
AcDbEntity
8
0
100
AcDbBlockEnd
0
BLOCK
5
273
100
AcDbEntity
8
0
100
AcDbBlockBegin
62
2
6
CONTINUOUS
2
*D6
70
65
10
0.0000000000
20
0.0000000000
3
*D6
1

0
TEXT
5
274
100
AcDbEntity
8
0
100
AcDbText
62
2
6
CONTINUOUS
10
285.5118633760
20
120.5869783056
7
TEXTSTYLE_1
40
3.5000000000
1
=
50
90.0000000000
41
0.4000000000
72
0
100
AcDbText
0
TEXT
5
275
100
AcDbEntity
8
0
100
AcDbText
62
2
6
CONTINUOUS
10
285.5118633760
20
125.7203116389
7
TEXTSTYLE_1
40
3.5000000000
1
=
50
90.0000000000
41
0.4000000000
72
0
100
AcDbText
0
TEXT
5
276
100
AcDbEntity
8
0
100
AcDbText
62
2
6
CONTINUOUS
10
285.5118633760
20
121.9869783056
7
TEXTSTYLE_1
40
3.5000000000
1
10
50
90.0000000000
41
0.5333333333
72
0
100
AcDbText
0
LINE
5
277
100
AcDbEntity
8
0
100
AcDbLine
62
2
6
CONTINUOUS
10
277.3751013594
20
128.4912758532
11
289.5868633760
21
128.4912758532
0
LINE
5
278
100
AcDbEntity
8
0
100
AcDbLine
62
2
6
CONTINUOUS
10
277.3751013594
20
118.4912758532
11
289.5868633760
21
118.4912758532
0
LINE
5
279
100
AcDbEntity
8
0
100
AcDbLine
62
2
6
CONTINUOUS
10
286.3868633760
20
128.4912758532
11
286.3868633760
21
130.4912758532
0
LINE
5
27A
100
AcDbEntity
8
0
100
AcDbLine
62
2
6
CONTINUOUS
10
286.3868633760
20
130.4912758532
11
286.3868633760
21
123.4912758532
0
LINE
5
27B
100
AcDbEntity
8
0
100
AcDbLine
62
2
6
CONTINUOUS
10
286.3868633760
20
118.4912758532
11
286.3868633760
21
116.4912758532
0
LINE
5
27C
100
AcDbEntity
8
0
100
AcDbLine
62
2
6
CONTINUOUS
10
286.3868633760
20
116.4912758532
11
286.3868633760
21
123.4912758532
0
SOLID
5
27D
100
AcDbEntity
8
0
100
AcDbTrace
62
2
6
CONTINUOUS
10
285.5868633760
20
132.9912758532
11
286.3868633760
21
128.4912758532
12
287.1868633760
22
132.9912758532
13
287.1868633760
23
132.9912758532
0
SOLID
5
27E
100
AcDbEntity
8
0
100
AcDbTrace
62
2
6
CONTINUOUS
10
287.1868633760
20
113.9912758532
11
286.3868633760
21
118.4912758532
12
285.5868633760
22
113.9912758532
13
285.5868633760
23
113.9912758532
0
ENDBLK
5
27F
100
AcDbEntity
8
0
100
AcDbBlockEnd
0
BLOCK
5
280
100
AcDbEntity
8
0
100
AcDbBlockBegin
62
2
6
CONTINUOUS
2
*D7
70
65
10
0.0000000000
20
0.0000000000
3
*D7
1

0
TEXT
5
281
100
AcDbEntity
8
0
100
AcDbText
62
2
6
CONTINUOUS
10
255.8692040286
20
124.3742959688
7
TEXTSTYLE_1
40
3.5000000000
1
R
50
-20.8051375225
41
0.7666666667
72
0
100
AcDbText
0
TEXT
5
282
100
AcDbEntity
8
0
100
AcDbText
62
2
6
CONTINUOUS
10
258.3775674761
20
123.4212006992
7
TEXTSTYLE_1
40
3.5000000000
1
2
50
-20.8051375225
41
0.7333333333
72
0
100
AcDbText
0
LINE
5
283
100
AcDbEntity
8
0
100
AcDbLine
62
2
6
CONTINUOUS
10
265.4946890222
20
119.7808942858
11
255.5584120929
21
123.5563513664
0
SOLID
5
284
100
AcDbEntity
8
0
100
AcDbTrace
62
2
6
CONTINUOUS
10
261.0039641540
20
120.6314177473
11
265.4946890222
21
119.7808942858
12
261.5722694079
22
122.1270878775
13
261.5722694079
23
122.1270878775
0
ENDBLK
5
285
100
AcDbEntity
8
0
100
AcDbBlockEnd
0
BLOCK
5
286
100
AcDbEntity
8
0
100
AcDbBlockBegin
62
2
6
CONTINUOUS
2
*D8
70
65
10
0.0000000000
20
0.0000000000
3
*D8
1

0
TEXT
5
287
100
AcDbEntity
8
0
100
AcDbText
62
2
6
CONTINUOUS
10
280.5736526575
20
143.6843076994
7
TEXTSTYLE_1
40
3.5000000000
1
4 CH3x
41
0.7722222222
72
0
100
AcDbText
0
TEXT
5
288
100
AcDbEntity
8
0
100
AcDbText
62
2
6
CONTINUOUS
10
296.7903193242
20
143.6843076994
7
TEXTSTYLE_1
40
3.5000000000
1
3
41
0.7333333333
72
0
100
AcDbText
0
LINE
5
289
100
AcDbEntity
8
0
100
AcDbLine
62
2
6
CONTINUOUS
10
274.6251013594
20
131.9912758532
11
274.6251013594
21
146.0093076994
0
LINE
5
28A
100
AcDbEntity
8
0
100
AcDbLine
62
2
6
CONTINUOUS
10
271.6251013594
20
134.9912758532
11
271.6251013594
21
146.0093076994
0
LINE
5
28B
100
AcDbEntity
8
0
100
AcDbLine
62
2
6
CONTINUOUS
10
274.6251013594
20
142.8093076994
11
299.3569859908
21
142.8093076994
0
LINE
5
28C
100
AcDbEntity
8
0
100
AcDbLine
62
2
6
CONTINUOUS
10
299.3569859908
20
142.8093076994
11
273.1251013594
21
142.8093076994
0
LINE
5
28D
100
AcDbEntity
8
0
100
AcDbLine
62
2
6
CONTINUOUS
10
271.6251013594
20
142.8093076994
11
269.6251013594
21
142.8093076994
0
LINE
5
28E
100
AcDbEntity
8
0
100
AcDbLine
62
2
6
CONTINUOUS
10
269.6251013594
20
142.8093076994
11
273.1251013594
21
142.8093076994
0
SOLID
5
28F
100
AcDbEntity
8
0
100
AcDbTrace
62
2
6
CONTINUOUS
10
279.1251013594
20
143.6093076994
11
274.6251013594
21
142.8093076994
12
279.1251013594
22
142.0093076994
13
279.1251013594
23
142.0093076994
0
SOLID
5
290
100
AcDbEntity
8
0
100
AcDbTrace
62
2
6
CONTINUOUS
10
267.1251013594
20
142.0093076994
11
271.6251013594
21
142.8093076994
12
267.1251013594
22
143.6093076994
13
267.1251013594
23
143.6093076994
0
ENDBLK
5
291
100
AcDbEntity
8
0
100
AcDbBlockEnd
0
BLOCK
5
292
100
AcDbEntity
8
0
100
AcDbBlockBegin
62
2
6
CONTINUOUS
2
*D9
70
65
10
0.0000000000
20
0.0000000000
3
*D9
1

0
TEXT
5
293
100
AcDbEntity
8
0
100
AcDbText
62
2
6
CONTINUOUS
10
204.6245050248
20
218.7981754494
7
TEXTSTYLE_1
40
3.5000000000
1
27
50
90.0000000000
41
0.7333333333
72
0
100
AcDbText
0
LINE
5
294
100
AcDbEntity
8
0
100
AcDbLine
62
2
6
CONTINUOUS
10
216.1251013594
20
208.1417970083
11
202.2995050248
21
208.1417970083
0
LINE
5
295
100
AcDbEntity
8
0
100
AcDbLine
62
2
6
CONTINUOUS
10
219.1251013594
20
235.1417970083
11
202.2995050248
21
235.1417970083
0
LINE
5
296
100
AcDbEntity
8
0
100
AcDbLine
62
2
6
CONTINUOUS
10
205.4995050248
20
208.1417970083
11
205.4995050248
21
221.6417970083
0
LINE
5
297
100
AcDbEntity
8
0
100
AcDbLine
62
2
6
CONTINUOUS
10
205.4995050248
20
235.1417970083
11
205.4995050248
21
221.6417970083
0
SOLID
5
298
100
AcDbEntity
8
0
100
AcDbTrace
62
2
6
CONTINUOUS
10
204.6995050248
20
212.6417970083
11
205.4995050248
21
208.1417970083
12
206.2995050248
22
212.6417970083
13
206.2995050248
23
212.6417970083
0
SOLID
5
299
100
AcDbEntity
8
0
100
AcDbTrace
62
2
6
CONTINUOUS
10
206.2995050248
20
230.6417970083
11
205.4995050248
21
235.1417970083
12
204.6995050248
22
230.6417970083
13
204.6995050248
23
230.6417970083
0
ENDBLK
5
29A
100
AcDbEntity
8
0
100
AcDbBlockEnd
0
BLOCK
5
29B
100
AcDbEntity
8
0
100
AcDbBlockBegin
62
2
6
CONTINUOUS
2
*D10
70
65
10
0.0000000000
20
0.0000000000
3
*D10
1

0
TEXT
5
29C
100
AcDbEntity
8
0
100
AcDbText
62
2
6
CONTINUOUS
10
376.8755549180
20
230.6428129645
7
TEXTSTYLE_1
40
3.5000000000
1
6
50
90.0000000000
41
0.7333333333
72
0
100
AcDbText
0
LINE
5
29D
100
AcDbEntity
8
0
100
AcDbLine
62
2
6
CONTINUOUS
10
369.5939883538
20
229.1417970083
11
380.9505549180
21
229.1417970083
0
LINE
5
29E
100
AcDbEntity
8
0
100
AcDbLine
62
2
6
CONTINUOUS
10
369.5939883538
20
235.1417970083
11
380.9505549180
21
235.1417970083
0
LINE
5
29F
100
AcDbEntity
8
0
100
AcDbLine
62
2
6
CONTINUOUS
10
377.7505549180
20
229.1417970083
11
377.7505549180
21
227.1417970083
0
LINE
5
2A0
100
AcDbEntity
8
0
100
AcDbLine
62
2
6
CONTINUOUS
10
377.7505549180
20
227.1417970083
11
377.7505549180
21
232.1417970083
0
LINE
5
2A1
100
AcDbEntity
8
0
100
AcDbLine
62
2
6
CONTINUOUS
10
377.7505549180
20
235.1417970083
11
377.7505549180
21
237.1417970083
0
LINE
5
2A2
100
AcDbEntity
8
0
100
AcDbLine
62
2
6
CONTINUOUS
10
377.7505549180
20
237.1417970083
11
377.7505549180
21
232.1417970083
0
SOLID
5
2A3
100
AcDbEntity
8
0
100
AcDbTrace
62
2
6
CONTINUOUS
10
378.5505549180
20
224.6417970083
11
377.7505549180
21
229.1417970083
12
376.9505549180
22
224.6417970083
13
376.9505549180
23
224.6417970083
0
SOLID
5
2A4
100
AcDbEntity
8
0
100
AcDbTrace
62
2
6
CONTINUOUS
10
376.9505549180
20
239.6417970083
11
377.7505549180
21
235.1417970083
12
378.5505549180
22
239.6417970083
13
378.5505549180
23
239.6417970083
0
ENDBLK
5
2A5
100
AcDbEntity
8
0
100
AcDbBlockEnd
0
BLOCK
5
2A6
100
AcDbEntity
8
0
100
AcDbBlockBegin
62
2
6
CONTINUOUS
2
*D11
70
65
10
0.0000000000
20
0.0000000000
3
*D11
1

0
TEXT
5
2A7
100
AcDbEntity
8
0
100
AcDbText
62
2
6
CONTINUOUS
10
288.7610436054
20
227.5833543678
7
TEXTSTYLE_1
40
3.5000000000
1
12
50
90.0000000000
41
0.5333333333
72
0
100
AcDbText
0
LINE
5
2A8
100
AcDbEntity
8
0
100
AcDbLine
62
2
6
CONTINUOUS
10
278.6251013594
20
223.1417970083
11
292.8360436054
21
223.1417970083
0
LINE
5
2A9
100
AcDbEntity
8
0
100
AcDbLine
62
2
6
CONTINUOUS
10
276.1251013594
20
235.1417970083
11
292.8360436054
21
235.1417970083
0
LINE
5
2AA
100
AcDbEntity
8
0
100
AcDbLine
62
2
6
CONTINUOUS
10
289.6360436054
20
223.1417970083
11
289.6360436054
21
221.1417970083
0
LINE
5
2AB
100
AcDbEntity
8
0
100
AcDbLine
62
2
6
CONTINUOUS
10
289.6360436054
20
221.1417970083
11
289.6360436054
21
229.1417970083
0
LINE
5
2AC
100
AcDbEntity
8
0
100
AcDbLine
62
2
6
CONTINUOUS
10
289.6360436054
20
235.1417970083
11
289.6360436054
21
237.1417970083
0
LINE
5
2AD
100
AcDbEntity
8
0
100
AcDbLine
62
2
6
CONTINUOUS
10
289.6360436054
20
237.1417970083
11
289.6360436054
21
229.1417970083
0
POLYLINE
5
2AE
100
AcDbEntity
8
0
100
AcDb2dPolyline
62
2
6
CONTINUOUS
66
1
70
0
0
VERTEX
5
2AF
100
AcDbEntity
8
0
100
AcDbVertex
62
2
6
CONTINUOUS
100
AcDb2dVertex
10
289.2360436054
20
223.1417970083
40
0.8000000000
41
0.8000000000
42
1.0000000000
0
VERTEX
5
2B0
100
AcDbEntity
8
0
100
AcDbVertex
62
2
6
CONTINUOUS
100
AcDb2dVertex
10
290.0360436054
20
223.1417970083
40
0.8000000000
41
0.8000000000
42
1.0000000000
0
VERTEX
5
2B1
100
AcDbEntity
8
0
100
AcDbVertex
62
2
6
CONTINUOUS
100
AcDb2dVertex
10
289.2360436054
20
223.1417970083
40
0.8000000000
41
0.8000000000
0
SEQEND
5
2B2
100
AcDbEntity
8
0
0
SOLID
5
2B3
100
AcDbEntity
8
0
100
AcDbTrace
62
2
6
CONTINUOUS
10
288.8360436054
20
239.6417970083
11
289.6360436054
21
235.1417970083
12
290.4360436054
22
239.6417970083
13
290.4360436054
23
239.6417970083
0
ENDBLK
5
2B4
100
AcDbEntity
8
0
100
AcDbBlockEnd
0
BLOCK
5
2B5
100
AcDbEntity
8
0
100
AcDbBlockBegin
62
2
6
CONTINUOUS
2
*D12
70
65
10
0.0000000000
20
0.0000000000
3
*D12
1

0
TEXT
5
2B6
100
AcDbEntity
8
0
100
AcDbText
62
2
6
CONTINUOUS
10
288.7610436054
20
215.7854012770
7
TEXTSTYLE_1
40
3.5000000000
1
10
50
90.0000000000
41
0.5333333333
72
0
100
AcDbText
0
LINE
5
2B7
100
AcDbEntity
8
0
100
AcDbLine
62
2
6
CONTINUOUS
10
278.6251013594
20
223.1417970083
11
292.8360436054
21
223.1417970083
0
LINE
5
2B8
100
AcDbEntity
8
0
100
AcDbLine
62
2
6
CONTINUOUS
10
278.6251013594
20
213.1417970083
11
292.8360436054
21
213.1417970083
0
LINE
5
2B9
100
AcDbEntity
8
0
100
AcDbLine
62
2
6
CONTINUOUS
10
289.6360436054
20
223.1417970083
11
289.6360436054
21
225.1417970083
0
LINE
5
2BA
100
AcDbEntity
8
0
100
AcDbLine
62
2
6
CONTINUOUS
10
289.6360436054
20
225.1417970083
11
289.6360436054
21
218.1417970083
0
LINE
5
2BB
100
AcDbEntity
8
0
100
AcDbLine
62
2
6
CONTINUOUS
10
289.6360436054
20
213.1417970083
11
289.6360436054
21
211.1417970083
0
LINE
5
2BC
100
AcDbEntity
8
0
100
AcDbLine
62
2
6
CONTINUOUS
10
289.6360436054
20
211.1417970083
11
289.6360436054
21
218.1417970083
0
POLYLINE
5
2BD
100
AcDbEntity
8
0
100
AcDb2dPolyline
62
2
6
CONTINUOUS
66
1
70
0
0
VERTEX
5
2BE
100
AcDbEntity
8
0
100
AcDbVertex
62
2
6
CONTINUOUS
100
AcDb2dVertex
10
289.2360436054
20
223.1417970083
40
0.8000000000
41
0.8000000000
42
1.0000000000
0
VERTEX
5
2BF
100
AcDbEntity
8
0
100
AcDbVertex
62
2
6
CONTINUOUS
100
AcDb2dVertex
10
290.0360436054
20
223.1417970083
40
0.8000000000
41
0.8000000000
42
1.0000000000
0
VERTEX
5
2C0
100
AcDbEntity
8
0
100
AcDbVertex
62
2
6
CONTINUOUS
100
AcDb2dVertex
10
289.2360436054
20
223.1417970083
40
0.8000000000
41
0.8000000000
0
SEQEND
5
2C1
100
AcDbEntity
8
0
0
SOLID
5
2C2
100
AcDbEntity
8
0
100
AcDbTrace
62
2
6
CONTINUOUS
10
290.4360436054
20
208.6417970083
11
289.6360436054
21
213.1417970083
12
288.8360436054
22
208.6417970083
13
288.8360436054
23
208.6417970083
0
ENDBLK
5
2C3
100
AcDbEntity
8
0
100
AcDbBlockEnd
0
BLOCK
5
2C4
100
AcDbEntity
8
0
100
AcDbBlockBegin
62
2
6
CONTINUOUS
2
*D13
70
65
10
0.0000000000
20
0.0000000000
3
*D13
1

0
TEXT
5
2C5
100
AcDbEntity
8
0
100
AcDbText
62
2
6
CONTINUOUS
10
241.9570665743
20
199.9208590481
7
TEXTSTYLE_1
40
3.5000000000
1
=
41
0.4000000000
72
0
100
AcDbText
0
TEXT
5
2C6
100
AcDbEntity
8
0
100
AcDbText
62
2
6
CONTINUOUS
10
248.7237332410
20
199.9208590481
7
TEXTSTYLE_1
40
3.5000000000
1
=
41
0.4000000000
72
0
100
AcDbText
0
TEXT
5
2C7
100
AcDbEntity
8
0
100
AcDbText
62
2
6
CONTINUOUS
10
243.3570665743
20
199.9208590481
7
TEXTSTYLE_1
40
3.5000000000
1
42
41
0.7666666667
72
0
100
AcDbText
0
LINE
5
2C8
100
AcDbEntity
8
0
100
AcDbLine
62
2
6
CONTINUOUS
10
267.1251013594
20
206.6417970083
11
267.1251013594
21
195.8458590481
0
LINE
5
2C9
100
AcDbEntity
8
0
100
AcDbLine
62
2
6
CONTINUOUS
10
225.1251013594
20
206.6417970083
11
225.1251013594
21
195.8458590481
0
LINE
5
2CA
100
AcDbEntity
8
0
100
AcDbLine
62
2
6
CONTINUOUS
10
267.1251013594
20
199.0458590481
11
246.1251013594
21
199.0458590481
0
LINE
5
2CB
100
AcDbEntity
8
0
100
AcDbLine
62
2
6
CONTINUOUS
10
225.1251013594
20
199.0458590481
11
246.1251013594
21
199.0458590481
0
SOLID
5
2CC
100
AcDbEntity
8
0
100
AcDbTrace
62
2
6
CONTINUOUS
10
262.6251013594
20
198.2458590481
11
267.1251013594
21
199.0458590481
12
262.6251013594
22
199.8458590481
13
262.6251013594
23
199.8458590481
0
SOLID
5
2CD
100
AcDbEntity
8
0
100
AcDbTrace
62
2
6
CONTINUOUS
10
229.6251013594
20
199.8458590481
11
225.1251013594
21
199.0458590481
12
229.6251013594
22
198.2458590481
13
229.6251013594
23
198.2458590481
0
ENDBLK
5
2CE
100
AcDbEntity
8
0
100
AcDbBlockEnd
0
BLOCK
5
2CF
100
AcDbEntity
8
0
100
AcDbBlockBegin
62
2
6
CONTINUOUS
2
*D14
70
65
10
0.0000000000
20
0.0000000000
3
*D14
1

0
TEXT
5
2D0
100
AcDbEntity
8
0
100
AcDbText
62
2
6
CONTINUOUS
10
240.7099386517
20
192.4428127343
7
TEXTSTYLE_1
40
3.5000000000
1
=
41
0.4000000000
72
0
100
AcDbText
0
TEXT
5
2D1
100
AcDbEntity
8
0
100
AcDbText
62
2
6
CONTINUOUS
10
251.1516053184
20
192.4428127343
7
TEXTSTYLE_1
40
3.5000000000
1
=
41
0.4000000000
72
0
100
AcDbText
0
TEXT
5
2D2
100
AcDbEntity
8
0
100
AcDbText
62
2
6
CONTINUOUS
10
242.1099386517
20
192.4428127343
7
TEXTSTYLE_1
40
3.5000000000
1
49,5
41
0.6458333333
72
0
100
AcDbText
0
LINE
5
2D3
100
AcDbEntity
8
0
100
AcDbLine
62
2
6
CONTINUOUS
10
270.8751013594
20
205.3917970083
11
270.8751013594
21
188.3678127343
0
LINE
5
2D4
100
AcDbEntity
8
0
100
AcDbLine
62
2
6
CONTINUOUS
10
221.3751013594
20
205.3917970083
11
221.3751013594
21
188.3678127343
0
LINE
5
2D5
100
AcDbEntity
8
0
100
AcDbLine
62
2
6
CONTINUOUS
10
270.8751013594
20
191.5678127343
11
246.1251013594
21
191.5678127343
0
LINE
5
2D6
100
AcDbEntity
8
0
100
AcDbLine
62
2
6
CONTINUOUS
10
221.3751013594
20
191.5678127343
11
246.1251013594
21
191.5678127343
0
SOLID
5
2D7
100
AcDbEntity
8
0
100
AcDbTrace
62
2
6
CONTINUOUS
10
266.3751013594
20
190.7678127343
11
270.8751013594
21
191.5678127343
12
266.3751013594
22
192.3678127343
13
266.3751013594
23
192.3678127343
0
SOLID
5
2D8
100
AcDbEntity
8
0
100
AcDbTrace
62
2
6
CONTINUOUS
10
225.8751013594
20
192.3678127343
11
221.3751013594
21
191.5678127343
12
225.8751013594
22
190.7678127343
13
225.8751013594
23
190.7678127343
0
ENDBLK
5
2D9
100
AcDbEntity
8
0
100
AcDbBlockEnd
0
BLOCK
5
2DA
100
AcDbEntity
8
0
100
AcDbBlockBegin
62
2
6
CONTINUOUS
2
*D15
70
65
10
0.0000000000
20
0.0000000000
3
*D15
1

0
TEXT
5
2DB
100
AcDbEntity
8
0
100
AcDbText
62
2
6
CONTINUOUS
10
227.3010511941
20
245.4833092655
7
TEXTSTYLE_1
40
3.5000000000
1
5 M
41
0.8222222222
72
0
100
AcDbText
0
TEXT
5
2DC
100
AcDbEntity
8
0
100
AcDbText
62
2
6
CONTINUOUS
10
235.9343845274
20
245.4833092655
7
TEXTSTYLE_1
40
3.5000000000
1
3
41
0.7333333333
72
0
100
AcDbText
0
LINE
5
2DD
100
AcDbEntity
8
0
100
AcDbLine
62
2
6
CONTINUOUS
10
247.6251013594
20
236.6417970083
11
247.6251013594
21
247.8083092655
0
LINE
5
2DE
100
AcDbEntity
8
0
100
AcDbLine
62
2
6
CONTINUOUS
10
244.6251013594
20
236.6417970083
11
244.6251013594
21
247.8083092655
0
LINE
5
2DF
100
AcDbEntity
8
0
100
AcDbLine
62
2
6
CONTINUOUS
10
247.6251013594
20
244.6083092655
11
249.6251013594
21
244.6083092655
0
LINE
5
2E0
100
AcDbEntity
8
0
100
AcDbLine
62
2
6
CONTINUOUS
10
249.6251013594
20
244.6083092655
11
246.1251013594
21
244.6083092655
0
LINE
5
2E1
100
AcDbEntity
8
0
100
AcDbLine
62
2
6
CONTINUOUS
10
244.6251013594
20
244.6083092655
11
227.3010511941
21
244.6083092655
0
LINE
5
2E2
100
AcDbEntity
8
0
100
AcDbLine
62
2
6
CONTINUOUS
10
227.3010511941
20
244.6083092655
11
246.1251013594
21
244.6083092655
0
SOLID
5
2E3
100
AcDbEntity
8
0
100
AcDbTrace
62
2
6
CONTINUOUS
10
252.1251013594
20
245.4083092655
11
247.6251013594
21
244.6083092655
12
252.1251013594
22
243.8083092655
13
252.1251013594
23
243.8083092655
0
SOLID
5
2E4
100
AcDbEntity
8
0
100
AcDbTrace
62
2
6
CONTINUOUS
10
240.1251013594
20
243.8083092655
11
244.6251013594
21
244.6083092655
12
240.1251013594
22
245.4083092655
13
240.1251013594
23
245.4083092655
0
ENDBLK
5
2E5
100
AcDbEntity
8
0
100
AcDbBlockEnd
0
BLOCK
5
2E6
100
AcDbEntity
8
0
100
AcDbBlockBegin
62
2
6
CONTINUOUS
2
*D16
70
65
10
0.0000000000
20
0.0000000000
3
*D16
1

0
TEXT
5
2E7
100
AcDbEntity
8
0
100
AcDbText
62
2
6
CONTINUOUS
10
354.7860918025
20
200.5389913064
7
TEXTSTYLE_1
40
3.5000000000
1
9
41
0.7333333333
72
0
100
AcDbText
0
LINE
5
2E8
100
AcDbEntity
8
0
100
AcDbLine
62
2
6
CONTINUOUS
10
351.5939883538
20
210.1417970083
11
351.5939883538
21
196.4639913064
0
LINE
5
2E9
100
AcDbEntity
8
0
100
AcDbLine
62
2
6
CONTINUOUS
10
360.5939883538
20
210.1417970083
11
360.5939883538
21
196.4639913064
0
LINE
5
2EA
100
AcDbEntity
8
0
100
AcDbLine
62
2
6
CONTINUOUS
10
351.5939883538
20
199.6639913064
11
349.5939883538
21
199.6639913064
0
LINE
5
2EB
100
AcDbEntity
8
0
100
AcDbLine
62
2
6
CONTINUOUS
10
349.5939883538
20
199.6639913064
11
356.0939883538
21
199.6639913064
0
LINE
5
2EC
100
AcDbEntity
8
0
100
AcDbLine
62
2
6
CONTINUOUS
10
360.5939883538
20
199.6639913064
11
362.5939883538
21
199.6639913064
0
LINE
5
2ED
100
AcDbEntity
8
0
100
AcDbLine
62
2
6
CONTINUOUS
10
362.5939883538
20
199.6639913064
11
356.0939883538
21
199.6639913064
0
SOLID
5
2EE
100
AcDbEntity
8
0
100
AcDbTrace
62
2
6
CONTINUOUS
10
347.0939883538
20
198.8639913064
11
351.5939883538
21
199.6639913064
12
347.0939883538
22
200.4639913064
13
347.0939883538
23
200.4639913064
0
SOLID
5
2EF
100
AcDbEntity
8
0
100
AcDbTrace
62
2
6
CONTINUOUS
10
365.0939883538
20
200.4639913064
11
360.5939883538
21
199.6639913064
12
365.0939883538
22
198.8639913064
13
365.0939883538
23
198.8639913064
0
ENDBLK
5
2F0
100
AcDbEntity
8
0
100
AcDbBlockEnd
0
BLOCK
5
2F1
100
AcDbEntity
8
0
100
AcDbBlockBegin
62
2
6
CONTINUOUS
2
*D17
70
65
10
0.0000000000
20
0.0000000000
3
*D17
1

0
TEXT
5
2F2
100
AcDbEntity
8
0
100
AcDbText
62
2
6
CONTINUOUS
10
376.6529154872
20
193.9729670521
7
TEXTSTYLE_1
40
3.5000000000
1
4 M
50
90.0000000000
41
0.8444444444
72
0
100
AcDbText
0
TEXT
5
2F3
100
AcDbEntity
8
0
100
AcDbText
62
2
6
CONTINUOUS
10
376.6529154872
20
202.8396337187
7
TEXTSTYLE_1
40
3.5000000000
1
3
50
90.0000000000
41
0.7333333333
72
0
100
AcDbText
0
LINE
5
2F4
100
AcDbEntity
8
0
100
AcDbLine
62
2
6
CONTINUOUS
10
362.0939883538
20
214.6417970083
11
380.7279154872
21
214.6417970083
0
LINE
5
2F5
100
AcDbEntity
8
0
100
AcDbLine
62
2
6
CONTINUOUS
10
362.0939883538
20
211.6417970083
11
380.7279154872
21
211.6417970083
0
LINE
5
2F6
100
AcDbEntity
8
0
100
AcDbLine
62
2
6
CONTINUOUS
10
377.5279154872
20
214.6417970083
11
377.5279154872
21
216.6417970083
0
LINE
5
2F7
100
AcDbEntity
8
0
100
AcDbLine
62
2
6
CONTINUOUS
10
377.5279154872
20
216.6417970083
11
377.5279154872
21
213.1417970083
0
LINE
5
2F8
100
AcDbEntity
8
0
100
AcDbLine
62
2
6
CONTINUOUS
10
377.5279154872
20
211.6417970083
11
377.5279154872
21
193.9729670521
0
LINE
5
2F9
100
AcDbEntity
8
0
100
AcDbLine
62
2
6
CONTINUOUS
10
377.5279154872
20
193.9729670521
11
377.5279154872
21
213.1417970083
0
SOLID
5
2FA
100
AcDbEntity
8
0
100
AcDbTrace
62
2
6
CONTINUOUS
10
376.7279154872
20
219.1417970083
11
377.5279154872
21
214.6417970083
12
378.3279154872
22
219.1417970083
13
378.3279154872
23
219.1417970083
0
SOLID
5
2FB
100
AcDbEntity
8
0
100
AcDbTrace
62
2
6
CONTINUOUS
10
378.3279154872
20
207.1417970083
11
377.5279154872
21
211.6417970083
12
376.7279154872
22
207.1417970083
13
376.7279154872
23
207.1417970083
0
ENDBLK
5
2FC
100
AcDbEntity
8
0
100
AcDbBlockEnd
0
BLOCK
5
2FD
100
AcDbEntity
8
0
100
AcDbBlockBegin
62
2
6
CONTINUOUS
2
*D18
70
65
10
0.0000000000
20
0.0000000000
3
*D18
1

0
TEXT
5
2FE
100
AcDbEntity
8
0
100
AcDbText
62
2
6
CONTINUOUS
10
146.1777591711
20
230.1263082214
7
TEXTSTYLE_1
40
3.5000000000
1
7
50
90.0000000000
41
0.7333333333
72
0
100
AcDbText
0
LINE
5
2FF
100
AcDbEntity
8
0
100
AcDbLine
62
2
6
CONTINUOUS
10
135.7366823187
20
228.1417970083
11
150.2527591711
21
228.1417970083
0
LINE
5
300
100
AcDbEntity
8
0
100
AcDbLine
62
2
6
CONTINUOUS
10
138.8159167518
20
235.1417970083
11
150.2527591711
21
235.1417970083
0
LINE
5
301
100
AcDbEntity
8
0
100
AcDbLine
62
2
6
CONTINUOUS
10
147.0527591711
20
228.1417970083
11
147.0527591711
21
226.1417970083
0
LINE
5
302
100
AcDbEntity
8
0
100
AcDbLine
62
2
6
CONTINUOUS
10
147.0527591711
20
226.1417970083
11
147.0527591711
21
231.6417970083
0
LINE
5
303
100
AcDbEntity
8
0
100
AcDbLine
62
2
6
CONTINUOUS
10
147.0527591711
20
235.1417970083
11
147.0527591711
21
237.1417970083
0
LINE
5
304
100
AcDbEntity
8
0
100
AcDbLine
62
2
6
CONTINUOUS
10
147.0527591711
20
237.1417970083
11
147.0527591711
21
231.6417970083
0
SOLID
5
305
100
AcDbEntity
8
0
100
AcDbTrace
62
2
6
CONTINUOUS
10
147.8527591711
20
223.6417970083
11
147.0527591711
21
228.1417970083
12
146.2527591711
22
223.6417970083
13
146.2527591711
23
223.6417970083
0
SOLID
5
306
100
AcDbEntity
8
0
100
AcDbTrace
62
2
6
CONTINUOUS
10
146.2527591711
20
239.6417970083
11
147.0527591711
21
235.1417970083
12
147.8527591711
22
239.6417970083
13
147.8527591711
23
239.6417970083
0
ENDBLK
5
307
100
AcDbEntity
8
0
100
AcDbBlockEnd
0
BLOCK
5
308
100
AcDbEntity
8
0
100
AcDbBlockBegin
62
2
6
CONTINUOUS
2
*D19
70
65
10
0.0000000000
20
0.0000000000
3
*D19
1

0
TEXT
5
309
100
AcDbEntity
8
0
100
AcDbText
62
2
6
CONTINUOUS
10
155.0613758362
20
229.7629060611
7
TEXTSTYLE_1
40
3.5000000000
1
8
50
90.0000000000
41
0.7333333333
72
0
100
AcDbText
0
LINE
5
30A
100
AcDbEntity
8
0
100
AcDbLine
62
2
6
CONTINUOUS
10
135.4866823187
20
227.1417970083
11
143.9994468950
21
227.1417970083
0
LINE
5
30B
100
AcDbEntity
8
0
100
AcDbLine
62
2
6
CONTINUOUS
10
149.6090206115
20
227.1417970083
11
159.1363758362
21
227.1417970083
0
LINE
5
30C
100
AcDbEntity
8
0
100
AcDbLine
62
2
6
CONTINUOUS
10
135.4866823187
20
235.1417970083
11
159.1363758362
21
235.1417970083
0
LINE
5
30D
100
AcDbEntity
8
0
100
AcDbLine
62
2
6
CONTINUOUS
10
155.9363758362
20
227.1417970083
11
155.9363758362
21
225.1417970083
0
LINE
5
30E
100
AcDbEntity
8
0
100
AcDbLine
62
2
6
CONTINUOUS
10
155.9363758362
20
225.1417970083
11
155.9363758362
21
231.1417970083
0
LINE
5
30F
100
AcDbEntity
8
0
100
AcDbLine
62
2
6
CONTINUOUS
10
155.9363758362
20
235.1417970083
11
155.9363758362
21
237.1417970083
0
LINE
5
310
100
AcDbEntity
8
0
100
AcDbLine
62
2
6
CONTINUOUS
10
155.9363758362
20
237.1417970083
11
155.9363758362
21
231.1417970083
0
SOLID
5
311
100
AcDbEntity
8
0
100
AcDbTrace
62
2
6
CONTINUOUS
10
156.7363758362
20
222.6417970083
11
155.9363758362
21
227.1417970083
12
155.1363758362
22
222.6417970083
13
155.1363758362
23
222.6417970083
0
SOLID
5
312
100
AcDbEntity
8
0
100
AcDbTrace
62
2
6
CONTINUOUS
10
155.1363758362
20
239.6417970083
11
155.9363758362
21
235.1417970083
12
156.7363758362
22
239.6417970083
13
156.7363758362
23
239.6417970083
0
ENDBLK
5
313
100
AcDbEntity
8
0
100
AcDbBlockEnd
0
BLOCK
5
314
100
AcDbEntity
8
0
100
AcDbBlockBegin
62
2
6
CONTINUOUS
2
*D20
70
65
10
0.0000000000
20
0.0000000000
3
*D20
1

0
TEXT
5
315
100
AcDbEntity
8
0
100
AcDbText
62
2
6
CONTINUOUS
10
350.9689794579
20
181.6281861891
7
TEXTSTYLE_1
40
3.5000000000
1
12,5
41
0.5291666667
72
0
100
AcDbText
0
LINE
5
316
100
AcDbEntity
8
0
100
AcDbLine
62
2
6
CONTINUOUS
10
360.5939883538
20
206.6417970083
11
360.5939883538
21
177.5531861891
0
LINE
5
317
100
AcDbEntity
8
0
100
AcDbLine
62
2
6
CONTINUOUS
10
348.0939883538
20
206.6417970083
11
348.0939883538
21
202.4442470606
0
LINE
5
318
100
AcDbEntity
8
0
100
AcDbLine
62
2
6
CONTINUOUS
10
348.0939883538
20
196.2072631020
11
348.0939883538
21
194.0416436720
0
LINE
5
319
100
AcDbEntity
8
0
100
AcDbLine
62
2
6
CONTINUOUS
10
348.0939883538
20
188.4110331538
11
348.0939883538
21
177.5531861891
0
LINE
5
31A
100
AcDbEntity
8
0
100
AcDbLine
62
2
6
CONTINUOUS
10
360.5939883538
20
180.7531861891
11
362.5939883538
21
180.7531861891
0
LINE
5
31B
100
AcDbEntity
8
0
100
AcDbLine
62
2
6
CONTINUOUS
10
362.5939883538
20
180.7531861891
11
354.3439883538
21
180.7531861891
0
LINE
5
31C
100
AcDbEntity
8
0
100
AcDbLine
62
2
6
CONTINUOUS
10
348.0939883538
20
180.7531861891
11
346.0939883538
21
180.7531861891
0
LINE
5
31D
100
AcDbEntity
8
0
100
AcDbLine
62
2
6
CONTINUOUS
10
346.0939883538
20
180.7531861891
11
354.3439883538
21
180.7531861891
0
SOLID
5
31E
100
AcDbEntity
8
0
100
AcDbTrace
62
2
6
CONTINUOUS
10
365.0939883538
20
181.5531861891
11
360.5939883538
21
180.7531861891
12
365.0939883538
22
179.9531861891
13
365.0939883538
23
179.9531861891
0
SOLID
5
31F
100
AcDbEntity
8
0
100
AcDbTrace
62
2
6
CONTINUOUS
10
343.5939883538
20
179.9531861891
11
348.0939883538
21
180.7531861891
12
343.5939883538
22
181.5531861891
13
343.5939883538
23
181.5531861891
0
ENDBLK
5
320
100
AcDbEntity
8
0
100
AcDbBlockEnd
0
BLOCK
5
321
100
AcDbEntity
8
0
100
AcDbBlockBegin
62
2
6
CONTINUOUS
2
*D21
70
65
10
0.0000000000
20
0.0000000000
3
*D21
1

0
TEXT
5
322
100
AcDbEntity
8
0
100
AcDbText
62
2
6
CONTINUOUS
10
353.8149734654
20
192.3016494370
7
TEXTSTYLE_1
40
3.5000000000
1
10
41
0.5333333333
72
0
100
AcDbText
0
LINE
5
323
100
AcDbEntity
8
0
100
AcDbLine
62
2
6
CONTINUOUS
10
360.5939883538
20
210.3917970083
11
360.5939883538
21
188.2266494370
0
LINE
5
324
100
AcDbEntity
8
0
100
AcDbLine
62
2
6
CONTINUOUS
10
350.5939883538
20
210.3917970083
11
350.5939883538
21
188.2266494370
0
LINE
5
325
100
AcDbEntity
8
0
100
AcDbLine
62
2
6
CONTINUOUS
10
360.5939883538
20
191.4266494370
11
362.5939883538
21
191.4266494370
0
LINE
5
326
100
AcDbEntity
8
0
100
AcDbLine
62
2
6
CONTINUOUS
10
362.5939883538
20
191.4266494370
11
355.5939883538
21
191.4266494370
0
LINE
5
327
100
AcDbEntity
8
0
100
AcDbLine
62
2
6
CONTINUOUS
10
350.5939883538
20
191.4266494370
11
348.5939883538
21
191.4266494370
0
LINE
5
328
100
AcDbEntity
8
0
100
AcDbLine
62
2
6
CONTINUOUS
10
348.5939883538
20
191.4266494370
11
355.5939883538
21
191.4266494370
0
SOLID
5
329
100
AcDbEntity
8
0
100
AcDbTrace
62
2
6
CONTINUOUS
10
365.0939883538
20
192.2266494370
11
360.5939883538
21
191.4266494370
12
365.0939883538
22
190.6266494370
13
365.0939883538
23
190.6266494370
0
SOLID
5
32A
100
AcDbEntity
8
0
100
AcDbTrace
62
2
6
CONTINUOUS
10
346.0939883538
20
190.6266494370
11
350.5939883538
21
191.4266494370
12
346.0939883538
22
192.2266494370
13
346.0939883538
23
192.2266494370
0
ENDBLK
5
32B
100
AcDbEntity
8
0
100
AcDbBlockEnd
0
BLOCK
5
32C
100
AcDbEntity
8
0
100
AcDbBlockBegin
62
2
6
CONTINUOUS
2
N-CAR_BL2
70
64
10
0.0000000000
20
0.0000000000
3
N-CAR_BL2
1

0
TEXT
5
32D
100
AcDbEntity
8
0
100
AcDbText
62
2
6
CONTINUOUS
10
296.7237624494
20
39.3314380532
7
STANDARD
40
2.9999987760
1
3,2
41
0.5000000000
72
0
100
AcDbText
0
TEXT
5
32E
100
AcDbEntity
8
0
100
AcDbText
62
2
6
CONTINUOUS
10
311.7483603850
20
39.3093920022
7
STANDARD
40
2.9999987760
1
.
41
0.5000000000
72
0
100
AcDbText
0
TEXT
5
32F
100
AcDbEntity
8
0
100
AcDbText
62
2
6
CONTINUOUS
10
321.7464198184
20
39.2920934982
7
STANDARD
40
2.9999987760
1
.
41
0.5000000000
72
0
100
AcDbText
0
TEXT
5
330
100
AcDbEntity
8
0
100
AcDbText
62
2
6
CONTINUOUS
10
331.7948309019
20
39.3179364512
7
STANDARD
40
2.9999987760
1
.
41
0.5000000000
72
0
100
AcDbText
0
LINE
5
331
100
AcDbEntity
8
0
100
AcDbLine
62
7
6
CONTINUOUS
10
341.8699706053
20
42.1746331492
11
343.8776553829
21
42.1746331492
0
LINE
5
332
100
AcDbEntity
8
0
100
AcDbLine
62
7
6
CONTINUOUS
10
343.8776553829
20
42.1746331492
11
343.8776553829
21
32.1746372292
0
LINE
5
333
100
AcDbEntity
8
0
100
AcDbLine
62
7
6
CONTINUOUS
10
341.8699706053
20
32.1746372292
11
343.8776553829
21
32.1746372292
0
LINE
5
334
100
AcDbEntity
8
0
100
AcDbLine
62
7
6
CONTINUOUS
10
341.4622410999
20
40.3399520908
11
338.4282603626
21
40.3399520908
0
LINE
5
335
100
AcDbEntity
8
0
100
AcDbLine
62
7
6
CONTINUOUS
10
338.4282603626
20
40.3399520908
11
336.0623794368
21
33.2423093134
0
LINE
5
336
100
AcDbEntity
8
0
100
AcDbLine
62
7
6
CONTINUOUS
10
336.0623794368
20
33.2423093134
11
333.7203592186
21
38.3521716078
0
LINE
5
337
100
AcDbEntity
8
0
100
AcDbLine
62
7
6
CONTINUOUS
10
321.4622492598
20
40.3399520908
11
318.4282685226
21
40.3399520908
0
LINE
5
338
100
AcDbEntity
8
0
100
AcDbLine
62
7
6
CONTINUOUS
10
318.4282685226
20
40.3399520908
11
316.0623875968
21
33.2423093134
0
LINE
5
339
100
AcDbEntity
8
0
100
AcDbLine
62
7
6
CONTINUOUS
10
316.0623875968
20
33.2423093134
11
313.7203673785
21
38.3521716078
0
LINE
5
33A
100
AcDbEntity
8
0
100
AcDbLine
62
7
6
CONTINUOUS
10
331.4622451798
20
40.3399520908
11
328.4282644426
21
40.3399520908
0
LINE
5
33B
100
AcDbEntity
8
0
100
AcDbLine
62
7
6
CONTINUOUS
10
328.4282644426
20
40.3399520908
11
326.0623835168
21
33.2423093134
0
LINE
5
33C
100
AcDbEntity
8
0
100
AcDbLine
62
7
6
CONTINUOUS
10
326.0623835168
20
33.2423093134
11
323.7203632985
21
38.3521716078
0
LINE
5
33D
100
AcDbEntity
8
0
100
AcDbLine
62
7
6
CONTINUOUS
10
308.8776696628
20
42.1746331492
11
311.2733371971
21
42.1746331492
0
LINE
5
33E
100
AcDbEntity
8
0
100
AcDbLine
62
7
6
CONTINUOUS
10
308.8776696628
20
42.1746331492
11
308.8776696628
21
32.1746372292
0
LINE
5
33F
100
AcDbEntity
8
0
100
AcDbLine
62
7
6
CONTINUOUS
10
308.8776696628
20
32.1746372292
11
311.2733371971
21
32.1746372292
0
LINE
5
340
100
AcDbEntity
8
0
100
AcDbLine
62
7
6
CONTINUOUS
10
306.4622553798
20
40.3399520908
11
303.4282746425
21
40.3399520908
0
LINE
5
341
100
AcDbEntity
8
0
100
AcDbLine
62
7
6
CONTINUOUS
10
303.4282746425
20
40.3399520908
11
301.0623937167
21
33.2423093134
0
LINE
5
342
100
AcDbEntity
8
0
100
AcDbLine
62
7
6
CONTINUOUS
10
301.0623937167
20
33.2423093134
11
298.7203734985
21
38.3521716078
0
ARC
5
343
100
AcDbEntity
8
0
100
AcDbCircle
62
7
6
CONTINUOUS
10
293.5302119911
20
38.0512705431
40
2.4999989800
100
AcDbArc
50
177.5591686478
51
2.4408313522
0
ARC
5
344
100
AcDbEntity
8
0
100
AcDbCircle
62
7
6
CONTINUOUS
10
288.5302140311
20
38.0512705431
40
2.4999989800
100
AcDbArc
50
0.0000000000
51
177.5591686478
0
ENDBLK
5
345
100
AcDbEntity
8
0
100
AcDbBlockEnd
0
ENDSEC
0
SECTION
2
ENTITIES
0
TEXT
5
346
100
AcDbEntity
8
0
100
AcDbText
62
2
6
CONTINUOUS
10
435.6059290093
20
8.7539544361
7
STANDARD
40
2.0000000000
1
22/96a
41
0.8000000000
72
0
100
AcDbText
0
INSERT
5
347
100
AcDbEntity
8
0
100
AcDbBlockReference
62
2
6
CONTINUOUS
2
N-DES_BL0
10
0.0000000000
20
0.0000000000
0
INSERT
5
348
100
AcDbEntity
8
0
100
AcDbBlockReference
62
2
6
CONTINUOUS
2
N-CART_BL1
10
0.0000000000
20
0.0000000000
0
SOLID
5
349
100
AcDbEntity
8
0
100
AcDbTrace
62
7
6
CONTINUOUS
10
296.3776714947
20
123.4912758532
11
297.6276714947
21
118.4912758532
12
295.1276714947
22
118.4912758532
13
295.1276714947
23
118.4912758532
0
TEXT
5
34A
100
AcDbEntity
8
0
100
AcDbText
62
7
6
CONTINUOUS
10
297.7776714947
20
112.3018846871
7
TEXTSTYLE_1
40
3.5000000000
1
A
41
0.8000000000
72
0
100
AcDbText
0
SOLID
5
34B
100
AcDbEntity
8
0
100
AcDbTrace
62
7
6
CONTINUOUS
10
195.1516332520
20
123.4912758532
11
196.4016332520
21
118.4912758532
12
193.9016332520
22
118.4912758532
13
193.9016332520
23
118.4912758532
0
TEXT
5
34C
100
AcDbEntity
8
0
100
AcDbText
62
7
6
CONTINUOUS
10
190.9516332520
20
112.3018846871
7
TEXTSTYLE_1
40
3.5000000000
1
A
41
0.8000000000
72
0
100
AcDbText
0
SOLID
5
34D
100
AcDbEntity
8
0
100
AcDbTrace
62
7
6
CONTINUOUS
10
270.8751013594
20
252.1322620171
11
265.8751013594
21
250.8822620171
12
265.8751013594
22
253.3822620171
13
265.8751013594
23
253.3822620171
0
TEXT
5
34E
100
AcDbEntity
8
0
100
AcDbText
62
7
6
CONTINUOUS
10
260.3145049934
20
253.8822620171
7
TEXTSTYLE_1
40
3.5000000000
1
C
41
0.8000000000
72
0
100
AcDbText
0
SOLID
5
34F
100
AcDbEntity
8
0
100
AcDbTrace
62
7
6
CONTINUOUS
10
270.8751013594
20
184.1775753816
11
265.8751013594
21
182.9275753816
12
265.8751013594
22
185.4275753816
13
265.8751013594
23
185.4275753816
0
TEXT
5
350
100
AcDbEntity
8
0
100
AcDbText
62
7
6
CONTINUOUS
10
260.3145049934
20
178.9275753816
7
TEXTSTYLE_1
40
3.5000000000
1
C
41
0.8000000000
72
0
100
AcDbText
0
SOLID
5
351
100
AcDbEntity
8
0
100
AcDbTrace
62
7
6
CONTINUOUS
10
222.6251013594
20
86.0853182320
11
227.6251013594
21
87.3353182320
12
227.6251013594
22
84.8353182320
13
227.6251013594
23
84.8353182320
0
TEXT
5
352
100
AcDbEntity
8
0
100
AcDbText
62
7
6
CONTINUOUS
10
230.9781954262
20
80.8353182320
7
TEXTSTYLE_1
40
3.5000000000
1
B
41
0.7333333333
72
0
100
AcDbText
0
SOLID
5
353
100
AcDbEntity
8
0
100
AcDbTrace
62
7
6
CONTINUOUS
10
222.6251013594
20
159.4982243566
11
227.6251013594
21
160.7482243566
12
227.6251013594
22
158.2482243566
13
227.6251013594
23
158.2482243566
0
TEXT
5
354
100
AcDbEntity
8
0
100
AcDbText
62
7
6
CONTINUOUS
10
230.9781954262
20
161.2482243566
7
TEXTSTYLE_1
40
3.5000000000
1
B
41
0.7333333333
72
0
100
AcDbText
0
DIMENSION
5
355
100
AcDbEntity
8
0
100
AcDbDimension
62
2
6
CONTINUOUS
2
*D0
10
274.6251013594
20
150.4013306141
11
246.0235144777
21
153.0263306141
70
160
1
=<>=
3
DIMSTYLE_1
100
AcDbAlignedDimension
13
217.6251013594
23
132.0867849807
14
274.6251013594
24
132.1951157703
100
AcDbRotatedDimension
0
DIMENSION
5
356
100
AcDbEntity
8
0
100
AcDbDimension
62
2
6
CONTINUOUS
2
*D1
10
207.2151218351
20
133.4912758532
11
204.5901218351
21
123.9887384084
70
160
1
=<>=
3
DIMSTYLE_1
100
AcDbAlignedDimension
13
219.1251013594
23
113.4912758532
14
219.1251013594
24
133.4912758532
50
90.000000
100
AcDbRotatedDimension
0
DIMENSION
5
357
100
AcDbEntity
8
0
100
AcDbDimension
62
2
6
CONTINUOUS
2
*D2
10
269.6251013594
20
94.0626778363
11
246.1961404399
21
96.6876778363
70
160
1
=<>=
3
DIMSTYLE_1
100
AcDbAlignedDimension
13
222.6251013594
23
110.7412758532
14
269.6251013594
24
110.7412758532
100
AcDbRotatedDimension
0
DIMENSION
5
358
100
AcDbEntity
8
0
100
AcDbDimension
62
2
6
CONTINUOUS
2
*D3
10
250.6251013594
20
102.5124794240
11
246.0878096503
21
105.1374794240
70
160
1
=<>=
3
DIMSTYLE_1
100
AcDbAlignedDimension
13
241.6251013594
23
122.1324088852
14
250.6251013594
24
122.1324088852
100
AcDbRotatedDimension
0
DIMENSION
5
359
100
AcDbEntity
8
0
100
AcDbDimension
62
2
6
CONTINUOUS
2
*D4
10
265.6251013594
20
102.5124794240
11
258.1125272943
21
105.1374794240
70
160
3
DIMSTYLE_1
100
AcDbAlignedDimension
13
250.6251013594
23
116.7536842967
14
265.6251013594
24
118.9912758532
100
AcDbRotatedDimension
0
DIMENSION
5
35A
100
AcDbEntity
8
0
100
AcDbDimension
62
2
6
CONTINUOUS
2
*D5
10
226.6251013594
20
102.5124794240
11
234.1714227960
21
105.1374794240
70
160
3
DIMSTYLE_1
100
AcDbAlignedDimension
13
241.6251013594
23
118.9912758532
14
226.6251013594
24
118.9912758532
50
180.000000
100
AcDbRotatedDimension
0
DIMENSION
5
35B
100
AcDbEntity
8
0
100
AcDbDimension
62
2
6
CONTINUOUS
2
*D6
10
286.3868633760
20
118.4912758532
11
283.7618633760
21
123.8536449722
70
160
1
=<>=
3
DIMSTYLE_1
100
AcDbAlignedDimension
13
277.3751013594
23
128.4912758532
14
277.3751013594
24
118.4912758532
50
270.000000
100
AcDbRotatedDimension
0
DIMENSION
5
35C
100
AcDbEntity
8
0
100
AcDbDimension
62
2
6
CONTINUOUS
2
*D7
10
263.6251013594
20
120.4912758532
11
258.9446217074
21
125.0778093665
70
164
3
DIMSTYLE_2
100
AcDbRadialDimension
15
265.4946890222
25
119.7808942858
0
DIMENSION
5
35D
100
AcDbEntity
8
0
100
AcDbDimension
62
2
6
CONTINUOUS
2
*D8
10
271.6251013594
20
142.8093076994
11
289.9653193242
21
145.4343076994
70
160
1
4 CH3x<>
3
DIMSTYLE_1
100
AcDbAlignedDimension
13
274.6251013594
23
131.9912758532
14
271.6251013594
24
134.9912758532
50
180.000000
100
AcDbRotatedDimension
0
DIMENSION
5
35E
100
AcDbEntity
8
0
100
AcDbDimension
62
2
6
CONTINUOUS
2
*D9
10
205.4995050248
20
235.1417970083
11
202.8745050248
21
221.3648421161
70
160
3
DIMSTYLE_1
100
AcDbAlignedDimension
13
216.1251013594
23
208.1417970083
14
219.1251013594
24
235.1417970083
50
90.000000
100
AcDbRotatedDimension
0
DIMENSION
5
35F
100
AcDbEntity
8
0
100
AcDbDimension
62
2
6
CONTINUOUS
2
*D10
10
377.7505549180
20
235.1417970083
11
375.1255549180
21
231.9261462978
70
160
3
DIMSTYLE_1
100
AcDbAlignedDimension
13
369.5939883538
23
229.1417970083
14
369.5939883538
24
235.1417970083
50
90.000000
100
AcDbRotatedDimension
0
DIMENSION
5
360
100
AcDbEntity
8
0
100
AcDbDimension
62
2
6
CONTINUOUS
2
*D11
10
289.6360436054
20
235.1417970083
11
287.0110436054
21
229.4500210345
70
160
3
DIMSTYLE_1
100
AcDbAlignedDimension
13
278.6251013594
23
223.1417970083
14
276.1251013594
24
235.1417970083
50
90.000000
100
AcDbRotatedDimension
0
DIMENSION
5
361
100
AcDbEntity
8
0
100
AcDbDimension
62
2
6
CONTINUOUS
2
*D12
10
289.6360436054
20
213.1417970083
11
287.0110436054
21
217.6520679436
70
160
3
DIMSTYLE_1
100
AcDbAlignedDimension
13
278.6251013594
23
223.1417970083
14
278.6251013594
24
213.1417970083
50
270.000000
100
AcDbRotatedDimension
0
DIMENSION
5
362
100
AcDbEntity
8
0
100
AcDbDimension
62
2
6
CONTINUOUS
2
*D13
10
225.1251013594
20
199.0458590481
11
246.0403999077
21
201.6708590481
70
160
1
=<>=
3
DIMSTYLE_1
100
AcDbAlignedDimension
13
267.1251013594
23
206.6417970083
14
225.1251013594
24
206.6417970083
50
180.000000
100
AcDbRotatedDimension
0
DIMENSION
5
363
100
AcDbEntity
8
0
100
AcDbDimension
62
2
6
CONTINUOUS
2
*D14
10
221.3751013594
20
191.5678127343
11
246.6307719851
21
194.1928127343
70
160
1
=<>=
3
DIMSTYLE_1
100
AcDbAlignedDimension
13
270.8751013594
23
205.3917970083
14
221.3751013594
24
205.3917970083
50
180.000000
100
AcDbRotatedDimension
0
DIMENSION
5
364
100
AcDbEntity
8
0
100
AcDbDimension
62
2
6
CONTINUOUS
2
*D15
10
244.6251013594
20
244.6083092655
11
232.9010511941
21
247.2333092655
70
160
1
5 M<>
3
DIMSTYLE_1
100
AcDbAlignedDimension
13
247.6251013594
23
236.6417970083
14
244.6251013594
24
236.6417970083
50
180.000000
100
AcDbRotatedDimension
0
DIMENSION
5
365
100
AcDbEntity
8
0
100
AcDbDimension
62
2
6
CONTINUOUS
2
*D16
10
360.5939883538
20
199.6639913064
11
356.0694251358
21
202.2889913064
70
160
3
DIMSTYLE_1
100
AcDbAlignedDimension
13
351.5939883538
23
210.1417970083
14
360.5939883538
24
210.1417970083
100
AcDbRotatedDimension
0
DIMENSION
5
366
100
AcDbEntity
8
0
100
AcDbDimension
62
2
6
CONTINUOUS
2
*D17
10
377.5279154872
20
211.6417970083
11
374.9029154872
21
199.6896337187
70
160
1
4 M<>
3
DIMSTYLE_1
100
AcDbAlignedDimension
13
362.0939883538
23
214.6417970083
14
362.0939883538
24
211.6417970083
50
270.000000
100
AcDbRotatedDimension
0
DIMENSION
5
367
100
AcDbEntity
8
0
100
AcDbDimension
62
2
6
CONTINUOUS
2
*D18
10
147.0527591711
20
235.1417970083
11
144.4277591711
21
231.4096415547
70
160
3
DIMSTYLE_1
100
AcDbAlignedDimension
13
135.7366823187
23
228.1417970083
14
138.8159167518
24
235.1417970083
50
90.000000
100
AcDbRotatedDimension
0
DIMENSION
5
368
100
AcDbEntity
8
0
100
AcDbDimension
62
2
6
CONTINUOUS
2
*D19
10
155.9363758362
20
235.1417970083
11
153.3113758362
21
231.0462393944
70
160
3
DIMSTYLE_1
100
AcDbAlignedDimension
13
135.4866823187
23
227.1417970083
14
135.4866823187
24
235.1417970083
50
90.000000
100
AcDbRotatedDimension
0
DIMENSION
5
369
100
AcDbEntity
8
0
100
AcDbDimension
62
2
6
CONTINUOUS
2
*D20
10
348.0939883538
20
180.7531861891
11
354.6731461246
21
183.3781861891
70
160
3
DIMSTYLE_1
100
AcDbAlignedDimension
13
360.5939883538
23
206.6417970083
14
348.0939883538
24
206.6417970083
50
180.000000
100
AcDbRotatedDimension
0
DIMENSION
5
36A
100
AcDbEntity
8
0
100
AcDbDimension
62
2
6
CONTINUOUS
2
*D21
10
350.5939883538
20
191.4266494370
11
355.6816401321
21
194.0516494370
70
160
3
DIMSTYLE_1
100
AcDbAlignedDimension
13
360.5939883538
23
210.3917970083
14
350.5939883538
24
210.3917970083
50
180.000000
100
AcDbRotatedDimension
0
LINE
5
36B
100
AcDbEntity
8
0
100
AcDbLine
62
2
6
CONTINUOUS
10
278.9948490183
20
76.1933879918
11
444.9948490183
21
76.1933879918
0
LINE
5
36C
100
AcDbEntity
8
0
100
AcDbLine
62
2
6
CONTINUOUS
10
278.9948490183
20
76.1933879918
11
278.9948490183
21
12.1933879918
0
LINE
5
36D
100
AcDbEntity
8
0
100
AcDbLine
62
2
6
CONTINUOUS
10
278.9948490183
20
71.6933879918
11
444.9948490183
21
71.6933879918
0
LINE
5
36E
100
AcDbEntity
8
0
100
AcDbLine
62
2
6
CONTINUOUS
10
278.9948490183
20
67.1933879918
11
444.9948490183
21
67.1933879918
0
LINE
5
36F
100
AcDbEntity
8
0
100
AcDbLine
62
2
6
CONTINUOUS
10
278.9948490183
20
62.6933879918
11
444.9948490183
21
62.6933879918
0
LINE
5
370
100
AcDbEntity
8
0
100
AcDbLine
62
2
6
CONTINUOUS
10
278.9948490183
20
58.1933879918
11
444.9948490183
21
58.1933879918
0
LINE
5
371
100
AcDbEntity
8
0
100
AcDbLine
62
2
6
CONTINUOUS
10
278.9948490183
20
53.6933879918
11
444.9948490183
21
53.6933879918
0
LINE
5
372
100
AcDbEntity
8
0
100
AcDbLine
62
2
6
CONTINUOUS
10
278.9948490183
20
49.1933879918
11
444.9948490183
21
49.1933879918
0
LINE
5
373
100
AcDbEntity
8
0
100
AcDbLine
62
2
6
CONTINUOUS
10
398.9948490183
20
40.1933879918
11
444.9948490183
21
40.1933879918
0
LINE
5
374
100
AcDbEntity
8
0
100
AcDbLine
62
2
6
CONTINUOUS
10
278.9948490183
20
29.6933879918
11
444.9948490183
21
29.6933879918
0
LINE
5
375
100
AcDbEntity
8
0
100
AcDbLine
62
2
6
CONTINUOUS
10
278.9948490183
20
21.6933879918
11
444.9948490183
21
21.6933879918
0
LINE
5
376
100
AcDbEntity
8
0
100
AcDbLine
62
2
6
CONTINUOUS
10
278.9948490183
20
12.1933879918
11
444.9948490183
21
12.1933879918
0
LINE
5
377
100
AcDbEntity
8
0
100
AcDbLine
62
2
6
CONTINUOUS
10
293.9948490183
20
76.1933879918
11
293.9948490183
21
49.1933879918
0
LINE
5
378
100
AcDbEntity
8
0
100
AcDbLine
62
2
6
CONTINUOUS
10
308.9948490183
20
76.1933879918
11
308.9948490183
21
49.1933879918
0
LINE
5
379
100
AcDbEntity
8
0
100
AcDbLine
62
2
6
CONTINUOUS
10
318.9948490183
20
29.6933879918
11
318.9948490183
21
21.6933879918
0
LINE
5
37A
100
AcDbEntity
8
0
100
AcDbLine
62
2
6
CONTINUOUS
10
323.9948490183
20
76.1933879918
11
323.9948490183
21
49.1933879918
0
LINE
5
37B
100
AcDbEntity
8
0
100
AcDbLine
62
2
6
CONTINUOUS
10
338.9948490183
20
76.1933879918
11
338.9948490183
21
49.1933879918
0
LINE
5
37C
100
AcDbEntity
8
0
100
AcDbLine
62
2
6
CONTINUOUS
10
358.9948490183
20
29.6933879918
11
358.9948490183
21
21.6933879918
0
LINE
5
37D
100
AcDbEntity
8
0
100
AcDbLine
62
2
6
CONTINUOUS
10
398.9948490183
20
49.1933879918
11
398.9948490183
21
12.1933879918
0
LINE
5
37E
100
AcDbEntity
8
0
100
AcDbLine
62
2
6
CONTINUOUS
10
424.9948490183
20
40.1933879918
11
424.9948490183
21
29.6933879918
0
LINE
5
37F
100
AcDbEntity
8
0
100
AcDbLine
62
2
6
CONTINUOUS
10
444.9948490183
20
76.1933879918
11
444.9948490183
21
12.1933879918
0
TEXT
5
380
100
AcDbEntity
8
0
100
AcDbText
62
2
6
CONTINUOUS
10
285.6948490183
20
72.9433879918
7
STANDARD
40
2.0000000000
1
D
41
0.8000000000
72
1
11
286.4948490183
21
72.9433879918
100
AcDbText
0
TEXT
5
381
100
AcDbEntity
8
0
100
AcDbText
62
2
6
CONTINUOUS
10
285.6948490183
20
68.4433879918
7
STANDARD
40
2.0000000000
1
C
41
0.8000000000
72
1
11
286.4948490183
21
68.4433879918
100
AcDbText
0
TEXT
5
382
100
AcDbEntity
8
0
100
AcDbText
62
2
6
CONTINUOUS
10
285.6948490183
20
63.9433879918
7
STANDARD
40
2.0000000000
1
B
41
0.8000000000
72
1
11
286.4948490183
21
63.9433879918
100
AcDbText
0
TEXT
5
383
100
AcDbEntity
8
0
100
AcDbText
62
2
6
CONTINUOUS
10
285.6948490183
20
59.4433879918
7
STANDARD
40
2.0000000000
1
A
41
0.8000000000
72
1
11
286.4948490183
21
59.4433879918
100
AcDbText
0
TEXT
5
384
100
AcDbEntity
8
0
100
AcDbText
62
2
6
CONTINUOUS
10
315.6948490183
20
59.4433879918
7
STANDARD
40
2.0000000000
1
 
41
0.8000000000
72
1
11
316.4948490183
21
59.4433879918
100
AcDbText
0
TEXT
5
385
100
AcDbEntity
8
0
100
AcDbText
62
2
6
CONTINUOUS
10
330.6948490183
20
59.4433879918
7
STANDARD
40
2.0000000000
1
 
41
0.8000000000
72
1
11
331.4948490183
21
59.4433879918
100
AcDbText
0
TEXT
5
386
100
AcDbEntity
8
0
100
AcDbText
62
2
6
CONTINUOUS
10
283.2948490183
20
54.9433879918
7
STANDARD
40
2.0000000000
1
IND.
41
0.8000000000
72
1
11
286.4948490183
21
54.9433879918
100
AcDbText
0
TEXT
5
387
100
AcDbEntity
8
0
100
AcDbText
62
2
6
CONTINUOUS
10
298.2948490183
20
54.9433879918
7
STANDARD
40
2.0000000000
1
DATE
41
0.8000000000
72
1
11
301.4948490183
21
54.9433879918
100
AcDbText
0
TEXT
5
388
100
AcDbEntity
8
0
100
AcDbText
62
2
6
CONTINUOUS
10
312.4948490183
20
54.9433879918
7
STANDARD
40
2.0000000000
1
DESS.
41
0.8000000000
72
1
11
316.4948490183
21
54.9433879918
100
AcDbText
0
TEXT
5
389
100
AcDbEntity
8
0
100
AcDbText
62
2
6
CONTINUOUS
10
326.6948490183
20
54.9433879918
7
STANDARD
40
2.0000000000
1
VERIF.
41
0.8000000000
72
1
11
331.4948490183
21
54.9433879918
100
AcDbText
0
TEXT
5
38A
100
AcDbEntity
8
0
100
AcDbText
62
2
6
CONTINUOUS
10
381.5948490183
20
54.9433879918
7
STANDARD
40
2.0000000000
1
MODIFICATIONS
41
0.8000000000
72
1
11
391.9948490183
21
54.9433879918
100
AcDbText
0
TEXT
5
38B
100
AcDbEntity
8
0
100
AcDbText
62
2
6
CONTINUOUS
10
280.0948490183
20
50.4433879918
7
STANDARD
40
2.0000000000
1
Création
41
0.8000000000
72
1
11
286.4948490183
21
50.4433879918
100
AcDbText
0
TEXT
5
38C
100
AcDbEntity
8
0
100
AcDbText
62
2
6
CONTINUOUS
10
294.2948490183
20
50.4433879918
7
STANDARD
40
2.0000000000
1
06-Nov-20
41
0.8000000000
72
1
11
301.4948490183
21
50.4433879918
100
AcDbText
0
TEXT
5
38D
100
AcDbEntity
8
0
100
AcDbText
62
2
6
CONTINUOUS
10
311.6948490183
20
50.4433879918
7
STANDARD
40
2.0000000000
1
BALLON
41
0.8000000000
72
1
11
316.4948490183
21
50.4433879918
100
AcDbText
0
TEXT
5
38E
100
AcDbEntity
8
0
100
AcDbText
62
2
6
CONTINUOUS
10
329.0948490183
20
50.4433879918
7
STANDARD
40
2.0000000000
1
B.L
41
0.8000000000
72
1
11
331.4948490183
21
50.4433879918
100
AcDbText
0
TEXT
5
38F
100
AcDbEntity
8
0
100
AcDbText
62
2
6
CONTINUOUS
10
339.0573490183
20
50.4433879918
7
STANDARD
40
2.0000000000
1
  Annule et remplace plan N%%d:                      ind:
41
0.7975757576
72
0
100
AcDbText
0
TEXT
5
390
100
AcDbEntity
8
0
100
AcDbText
62
2
6
CONTINUOUS
10
280.3948490183
20
45.9433879918
7
STANDARD
40
2.0000000000
1
ETAT DE SURFACES:
41
0.8000000000
72
1
11
293.9948490183
21
45.9433879918
100
AcDbText
0
TEXT
5
391
100
AcDbEntity
8
0
100
AcDbText
62
2
6
CONTINUOUS
10
342.5948490183
20
45.9433879918
7
STANDARD
40
2.0000000000
1
CASSER LES ANGLES VIFS: 0,5 x 0,5
41
0.8000000000
72
1
11
368.9948490183
21
45.9433879918
100
AcDbText
0
TEXT
5
392
100
AcDbEntity
8
0
100
AcDbText
62
2
6
CONTINUOUS
10
404.6281823516
20
32.9433879918
7
TEXTSTYLE_1
40
4.0000000000
1
ECH: 
41
0.6700000000
72
1
11
411.3281823516
21
32.9433879918
100
AcDbText
0
TEXT
5
393
100
AcDbEntity
8
0
100
AcDbText
62
2
6
CONTINUOUS
10
418.0281823516
20
32.9433879918
7
TEXTSTYLE_1
40
4.0000000000
1
1
41
0.3333333333
72
1
11
418.6948490183
21
32.9433879918
100
AcDbText
0
TEXT
5
394
100
AcDbEntity
8
0
100
AcDbText
62
2
6
CONTINUOUS
10
431.9281823516
20
32.9433879918
7
TEXTSTYLE_1
40
4.0000000000
1
A3
41
0.7666666667
72
1
11
434.9948490183
21
32.9433879918
100
AcDbText
0
TEXT
5
395
100
AcDbEntity
8
0
100
AcDbText
62
2
6
CONTINUOUS
10
348.1948490183
20
32.4433879918
7
STANDARD
40
2.0000000000
1
TOL. GENERALE: JS13 - js13
41
0.8000000000
72
1
11
368.9948490183
21
32.4433879918
100
AcDbText
0
TEXT
5
396
100
AcDbEntity
8
0
100
AcDbText
62
2
6
CONTINUOUS
10
279.0573490183
20
29.4590129918
7
STANDARD
40
0.1562500000
1
 
41
0.8000000000
72
0
100
AcDbText
0
TEXT
5
397
100
AcDbEntity
8
0
100
AcDbText
62
2
6
CONTINUOUS
10
279.0573490183
20
26.9199504918
7
STANDARD
40
2.0000000000
1
MATIERE
41
0.8000000000
72
0
100
AcDbText
0
TEXT
5
398
100
AcDbEntity
8
0
100
AcDbText
62
2
6
CONTINUOUS
10
319.0573490183
20
29.4590129918
7
STANDARD
40
0.1562500000
1
 
41
0.8000000000
72
0
100
AcDbText
0
TEXT
5
399
100
AcDbEntity
8
0
100
AcDbText
62
2
6
CONTINUOUS
10
319.0573490183
20
26.9199504918
7
STANDARD
40
2.0000000000
1
TRAITEMENT
41
0.8000000000
72
0
100
AcDbText
0
TEXT
5
39A
100
AcDbEntity
8
0
100
AcDbText
62
2
6
CONTINUOUS
10
359.0573490183
20
29.4590129918
7
STANDARD
40
0.1562500000
1
 
41
0.8000000000
72
0
100
AcDbText
0
TEXT
5
39B
100
AcDbEntity
8
0
100
AcDbText
62
2
6
CONTINUOUS
10
359.0573490183
20
26.9199504918
7
STANDARD
40
2.0000000000
1
PROTECTION
41
0.8000000000
72
0
100
AcDbText
0
TEXT
5
39C
100
AcDbEntity
8
0
100
AcDbText
62
2
6
CONTINUOUS
10
404.9948490183
20
23.1548214620
7
TEXTSTYLE_1
40
5.0000000000
1
FSM france
41
0.6800000000
51
10.0000000000
72
1
11
421.9948490183
21
23.1548214620
100
AcDbText
0
TEXT
5
39D
100
AcDbEntity
8
0
100
AcDbText
62
2
6
CONTINUOUS
10
298.9323490183
20
26.0097942418
7
STANDARD
40
0.1562500000
1
 
41
0.8000000000
72
1
11
298.9948490183
21
26.0097942418
100
AcDbText
0
TEXT
5
39E
100
AcDbEntity
8
0
100
AcDbText
62
2
6
CONTINUOUS
10
291.1448490183
20
22.2207317418
7
TEXTSTYLE_1
40
3.0000000000
1
7075 T6
41
0.7476190476
72
1
11
298.9948490183
21
22.2207317418
100
AcDbText
0
TEXT
5
39F
100
AcDbEntity
8
0
100
AcDbText
62
2
6
CONTINUOUS
10
338.9323490183
20
24.1347942418
7
STANDARD
40
0.1562500000
1
 
41
0.8000000000
72
1
11
338.9948490183
21
24.1347942418
100
AcDbText
0
TEXT
5
3A0
100
AcDbEntity
8
0
100
AcDbText
62
2
6
CONTINUOUS
10
338.9948490183
20
24.0957317418
7
TEXTSTYLE_1
40
3.0000000000
1

41
1.0000000000
72
1
11
338.9948490183
21
24.0957317418
100
AcDbText
0
TEXT
5
3A1
100
AcDbEntity
8
0
100
AcDbText
62
2
6
CONTINUOUS
10
378.9323490154
20
24.1347942400
7
STANDARD
40
0.1562500000
1
 
41
0.8000000000
72
1
11
378.9948490154
21
24.1347942400
100
AcDbText
0
TEXT
5
3A2
100
AcDbEntity
8
0
100
AcDbText
62
2
6
CONTINUOUS
10
378.9948490183
20
24.0957317388
7
TEXTSTYLE_1
40
3.0000000000
1

41
1.0000000000
72
1
11
378.9948490183
21
24.0957317388
100
AcDbText
0
TEXT
5
3A3
100
AcDbEntity
8
0
100
AcDbText
62
2
6
CONTINUOUS
10
298.9323490154
20
19.4941692395
7
STANDARD
40
0.1562500000
1
 
41
0.8000000000
72
1
11
298.9948490154
21
19.4941692395
100
AcDbText
0
TEXT
5
3A4
100
AcDbEntity
8
0
100
AcDbText
62
2
6
CONTINUOUS
10
282.9010990183
20
14.2363567393
7
TEXTSTYLE_1
40
5.0000000000
1
DESIGNATION :
41
0.4951923077
72
1
11
298.9948490183
21
14.2363567393
100
AcDbText
0
TEXT
5
3A5
100
AcDbEntity
8
0
100
AcDbText
62
2
6
CONTINUOUS
10
358.9323490183
20
19.4941692418
7
STANDARD
40
0.1562500000
1
 
41
0.8000000000
72
1
11
358.9948490183
21
19.4941692418
100
AcDbText
0
TEXT
5
3A6
100
AcDbEntity
8
0
100
AcDbText
62
2
6
CONTINUOUS
10
340.4323490183
20
14.2363567418
7
TEXTSTYLE_1
40
5.0000000000
1
SUPPORT SERVO
41
0.5711538462
72
1
11
358.9948490183
21
14.2363567418
100
AcDbText
0
TEXT
5
3A7
100
AcDbEntity
8
0
100
AcDbText
62
2
6
CONTINUOUS
10
406.6510979403
20
14.6504191693
7
TEXTSTYLE_1
40
5.0000000000
1
 N : 100019-A
41
0.4721153846
72
1
11
421.9948479403
21
14.6504191693
100
AcDbText
0
TEXT
5
3A8
100
AcDbEntity
8
0
100
AcDbText
62
2
6
CONTINUOUS
10
421.9323490183
20
14.2363566617
7
TEXTSTYLE_1
40
0.1562500000
1
 
41
0.8000000000
72
1
11
421.9948490183
21
14.2363566617
100
AcDbText
0
TEXT
5
3A9
100
AcDbEntity
8
0
100
AcDbText
62
2
6
CONTINUOUS
10
235.5984944454
20
263.0246590629
7
TEXTSTYLE_1
40
3.5000000000
1
COUPE 
41
0.7666666667
72
0
100
AcDbText
0
TEXT
5
3AA
100
AcDbEntity
8
0
100
AcDbText
62
2
6
CONTINUOUS
10
251.6984944454
20
263.0246590629
7
TEXTSTYLE_1
40
3.5000000000
1
A-A
41
0.6555555556
72
0
100
AcDbText
0
TEXT
5
3AB
100
AcDbEntity
8
0
100
AcDbText
62
2
6
CONTINUOUS
10
346.2143710224
20
264.2175710305
7
TEXTSTYLE_1
40
3.5000000000
1
COUPE 
41
0.7666666667
72
0
100
AcDbText
0
TEXT
5
3AC
100
AcDbEntity
8
0
100
AcDbText
62
2
6
CONTINUOUS
10
362.3143710224
20
264.2175710305
7
TEXTSTYLE_1
40
3.5000000000
1
C-C
41
0.6555555556
72
0
100
AcDbText
0
TEXT
5
3AD
100
AcDbEntity
8
0
100
AcDbText
62
2
6
CONTINUOUS
10
119.5610971908
20
263.0246590629
7
TEXTSTYLE_1
40
3.5000000000
1
COUPE 
41
0.7666666667
72
0
100
AcDbText
0
TEXT
5
3AE
100
AcDbEntity
8
0
100
AcDbText
62
2
6
CONTINUOUS
10
135.6610971908
20
263.0246590629
7
TEXTSTYLE_1
40
3.5000000000
1
B-B
41
0.6111111111
72
0
100
AcDbText
0
INSERT
5
3AF
100
AcDbEntity
8
0
100
AcDbBlockReference
62
2
6
CONTINUOUS
2
N-CAR_BL2
10
0.0000000000
20
0.0000000000
0
LINE
5
3B0
100
AcDbEntity
8
0
100
AcDbLine
62
7
6
CONTINUOUS
10
30.0000000000
20
7.0000000000
11
30.0000000000
21
304.0000000000
0
LINE
5
3B1
100
AcDbEntity
8
0
100
AcDbLine
62
7
6
CONTINUOUS
10
35.0000000000
20
12.0000000000
11
35.0000000000
21
299.0000000000
0
LINE
5
3B2
100
AcDbEntity
8
0
100
AcDbLine
62
7
6
CONTINUOUS
10
30.0000000000
20
7.0000000000
11
450.0000000000
21
7.0000000000
0
LINE
5
3B3
100
AcDbEntity
8
0
100
AcDbLine
62
7
6
CONTINUOUS
10
35.0000000000
20
12.0000000000
11
445.0000000000
21
12.0000000000
0
LINE
5
3B4
100
AcDbEntity
8
0
100
AcDbLine
62
7
6
CONTINUOUS
10
30.0000000000
20
155.5000000000
11
35.0000000000
21
158.3867513459
0
LINE
5
3B5
100
AcDbEntity
8
0
100
AcDbLine
62
7
6
CONTINUOUS
10
30.0000000000
20
155.5000000000
11
35.0000000000
21
152.6132486541
0
LINE
5
3B6
100
AcDbEntity
8
0
100
AcDbLine
62
7
6
CONTINUOUS
10
237.1132486541
20
299.0000000000
11
240.0000000000
21
304.0000000000
0
LINE
5
3B7
100
AcDbEntity
8
0
100
AcDbLine
62
7
6
CONTINUOUS
10
240.0000000000
20
7.0000000000
11
237.1132486541
21
12.0000000000
0
LINE
5
3B8
100
AcDbEntity
8
0
100
AcDbLine
62
7
6
CONTINUOUS
10
240.0000000000
20
7.0000000000
11
242.8867513459
21
12.0000000000
0
LINE
5
3B9
100
AcDbEntity
8
0
100
AcDbLine
62
7
6
CONTINUOUS
10
242.8867513459
20
299.0000000000
11
240.0000000000
21
304.0000000000
0
LINE
5
3BA
100
AcDbEntity
8
0
100
AcDbLine
62
7
6
CONTINUOUS
10
445.0000000000
20
152.6132486541
11
450.0000000000
21
155.5000000000
0
LINE
5
3BB
100
AcDbEntity
8
0
100
AcDbLine
62
7
6
CONTINUOUS
10
445.0000000000
20
158.3867513459
11
450.0000000000
21
155.5000000000
0
LINE
5
3BC
100
AcDbEntity
8
0
100
AcDbLine
62
7
6
CONTINUOUS
10
35.0000000000
20
299.0000000000
11
445.0000000000
21
299.0000000000
0
LINE
5
3BD
100
AcDbEntity
8
0
100
AcDbLine
62
7
6
CONTINUOUS
10
30.0000000000
20
304.0000000000
11
450.0000000000
21
304.0000000000
0
LINE
5
3BE
100
AcDbEntity
8
0
100
AcDbLine
62
7
6
CONTINUOUS
10
445.0000000000
20
12.0000000000
11
445.0000000000
21
299.0000000000
0
LINE
5
3BF
100
AcDbEntity
8
0
100
AcDbLine
62
7
6
CONTINUOUS
10
450.0000000000
20
7.0000000000
11
450.0000000000
21
304.0000000000
0
LINE
5
3C0
100
AcDbEntity
8
0
100
AcDbLine
62
7
6
CONTINUOUS
10
270.8751013594
20
184.1775753816
11
268.9145049934
21
184.1775753816
0
LINE
5
3C1
100
AcDbEntity
8
0
100
AcDbLine
62
5
6
CONTINUOUS
10
268.9145049934
20
184.1775753816
11
258.9145049934
21
184.1775753816
0
LINE
5
3C2
100
AcDbEntity
8
0
100
AcDbLine
62
7
6
CONTINUOUS
10
217.6251013594
20
208.1417970083
11
217.6251013594
21
235.1417970083
0
LINE
5
3C3
100
AcDbEntity
8
0
100
AcDbLine
62
7
6
CONTINUOUS
10
220.6251013594
20
229.1417970083
11
220.6251013594
21
235.1417970083
0
LINE
5
3C4
100
AcDbEntity
8
DEFAULT_1
100
AcDbLine
62
2
6
CENTER
10
221.3751013594
20
223.1417970083
11
221.3751013594
21
216.8917970083
0
LINE
5
3C5
100
AcDbEntity
8
DEFAULT_1
100
AcDbLine
62
2
6
CENTER
10
221.3751013594
20
213.1417970083
11
221.3751013594
21
206.8917970083
0
LINE
5
3C6
100
AcDbEntity
8
DEFAULT_1
100
AcDbLine
62
2
6
CENTER
10
221.3751013594
20
213.1417970083
11
221.3751013594
21
216.8917970083
0
LINE
5
3C7
100
AcDbEntity
8
DEFAULT_1
100
AcDbLine
62
2
6
CENTER
10
221.3751013594
20
223.1417970083
11
221.3751013594
21
229.3917970083
0
LINE
5
3C8
100
AcDbEntity
8
DEFAULT_1
100
AcDbLine
62
2
6
CENTER
10
222.6251013594
20
223.9201091718
11
222.6251013594
21
237.6417970083
0
LINE
5
3C9
100
AcDbEntity
8
0
100
AcDbLine
62
7
6
CONTINUOUS
10
225.1251013594
20
229.1417970083
11
225.1251013594
21
208.1417970083
0
LINE
5
3CA
100
AcDbEntity
8
0
100
AcDbLine
62
7
6
CONTINUOUS
10
234.8668407933
20
234.9264928891
11
234.9499815421
21
235.1417970083
0
LINE
5
3CB
100
AcDbEntity
8
0
100
AcDbLine
62
7
6
CONTINUOUS
10
234.2695154994
20
232.0078072406
11
234.4695929251
21
233.4768072537
0
LINE
5
3CC
100
AcDbEntity
8
0
100
AcDbLine
62
7
6
CONTINUOUS
10
234.4695929251
20
233.4768072537
11
234.8668407933
21
234.9264928891
0
LINE
5
3CD
100
AcDbEntity
8
0
100
AcDbLine
62
2
6
CONTINUOUS
10
241.9398705902
20
235.1417970083
11
241.6251013594
21
234.8270277775
0
LINE
5
3CE
100
AcDbEntity
8
0
100
AcDbLine
62
7
6
CONTINUOUS
10
274.6251013594
20
208.1417970083
11
267.1251013594
21
208.1417970083
0
LINE
5
3CF
100
AcDbEntity
8
0
100
AcDbLine
62
7
6
CONTINUOUS
10
225.1251013594
20
208.1417970083
11
217.6251013594
21
208.1417970083
0
LINE
5
3D0
100
AcDbEntity
8
0
100
AcDbLine
62
7
6
CONTINUOUS
10
234.3103318359
20
230.5857230213
11
234.2695154994
21
232.0078072406
0
LINE
5
3D1
100
AcDbEntity
8
0
100
AcDbLine
62
2
6
CONTINUOUS
10
243.5552552056
20
235.1417970083
11
241.6251013594
21
233.2116431621
0
LINE
5
3D2
100
AcDbEntity
8
0
100
AcDbLine
62
2
6
CONTINUOUS
10
244.8751013594
20
234.8462585467
11
241.6251013594
21
231.5962585467
0
LINE
5
3D3
100
AcDbEntity
8
0
100
AcDbLine
62
2
6
CONTINUOUS
10
244.8751013594
20
233.2308739314
11
241.6251013594
21
229.9808739314
0
LINE
5
3D4
100
AcDbEntity
8
DEFAULT_1
100
AcDbLine
62
2
6
CENTER
10
270.8751013594
20
213.1417970083
11
264.6251013594
21
213.1417970083
0
LINE
5
3D5
100
AcDbEntity
8
DEFAULT_1
100
AcDbLine
62
2
6
CENTER
10
221.3751013594
20
213.1417970083
11
215.1251013594
21
213.1417970083
0
LINE
5
3D6
100
AcDbEntity
8
DEFAULT_1
100
AcDbLine
62
2
6
CENTER
10
221.3751013594
20
213.1417970083
11
227.6251013594
21
213.1417970083
0
LINE
5
3D7
100
AcDbEntity
8
DEFAULT_1
100
AcDbLine
62
2
6
CENTER
10
270.8751013594
20
213.1417970083
11
277.1251013594
21
213.1417970083
0
LINE
5
3D8
100
AcDbEntity
8
0
100
AcDbLine
62
9
6
CONTINUOUS
10
239.6251013594
20
235.1417970083
11
239.6251013594
21
229.1417970083
0
LINE
5
3D9
100
AcDbEntity
8
0
100
AcDbLine
62
2
6
CONTINUOUS
10
248.4014090517
20
235.1417970083
11
247.3751013594
21
234.1154893160
0
LINE
5
3DA
100
AcDbEntity
8
0
100
AcDbLine
62
2
6
CONTINUOUS
10
244.8751013594
20
231.6154893160
11
242.4014090517
21
229.1417970083
0
LINE
5
3DB
100
AcDbEntity
8
0
100
AcDbLine
62
2
6
CONTINUOUS
10
250.0167936671
20
235.1417970083
11
247.3751013594
21
232.5001047006
0
LINE
5
3DC
100
AcDbEntity
8
0
100
AcDbLine
62
2
6
CONTINUOUS
10
244.8751013594
20
230.0001047006
11
244.0167936671
21
229.1417970083
0
LINE
5
3DD
100
AcDbEntity
8
0
100
AcDbLine
62
7
6
CONTINUOUS
10
241.6251013594
20
229.1417970083
11
241.6251013594
21
235.1417970083
0
LINE
5
3DE
100
AcDbEntity
8
0
100
AcDbLine
62
2
6
CONTINUOUS
10
250.6251013594
20
234.1347200852
11
247.3751013594
21
230.8847200852
0
LINE
5
3DF
100
AcDbEntity
8
0
100
AcDbLine
62
2
6
CONTINUOUS
10
250.6251013594
20
232.5193354698
11
247.3751013594
21
229.2693354698
0
LINE
5
3E0
100
AcDbEntity
8
0
100
AcDbLine
62
7
6
CONTINUOUS
10
235.1237051205
20
229.1417970083
11
234.3103318359
21
230.5857230213
0
LINE
5
3E1
100
AcDbEntity
8
0
100
AcDbLine
62
2
6
CONTINUOUS
10
250.6251013594
20
230.9039508544
11
248.8629475133
21
229.1417970083
0
LINE
5
3E2
100
AcDbEntity
8
0
100
AcDbLine
62
2
6
CONTINUOUS
10
250.6251013594
20
229.2885662391
11
250.4783321287
21
229.1417970083
0
LINE
5
3E3
100
AcDbEntity
8
0
100
AcDbLine
62
2
6
CONTINUOUS
10
244.6251013594
20
235.1417970083
11
244.6251013594
21
229.1417970083
0
LINE
5
3E4
100
AcDbEntity
8
0
100
AcDbLine
62
7
6
CONTINUOUS
10
244.8751013594
20
235.1417970083
11
244.8751013594
21
229.1417970083
0
LINE
5
3E5
100
AcDbEntity
8
DEFAULT_1
100
AcDbLine
62
2
6
CENTER
10
246.1251013594
20
245.5990931899
11
246.1251013594
21
204.6271122788
0
LINE
5
3E6
100
AcDbEntity
8
0
100
AcDbLine
62
7
6
CONTINUOUS
10
247.3751013594
20
235.1417970083
11
247.3751013594
21
229.1417970083
0
LINE
5
3E7
100
AcDbEntity
8
0
100
AcDbLine
62
2
6
CONTINUOUS
10
247.6251013594
20
235.1417970083
11
247.6251013594
21
229.1417970083
0
LINE
5
3E8
100
AcDbEntity
8
DEFAULT_1
100
AcDbLine
62
2
6
CENTER
10
270.8751013594
20
223.1417970083
11
264.6251013594
21
223.1417970083
0
LINE
5
3E9
100
AcDbEntity
8
DEFAULT_1
100
AcDbLine
62
2
6
CENTER
10
221.3751013594
20
223.1417970083
11
215.1251013594
21
223.1417970083
0
LINE
5
3EA
100
AcDbEntity
8
DEFAULT_1
100
AcDbLine
62
2
6
CENTER
10
221.3751013594
20
223.1417970083
11
227.6251013594
21
223.1417970083
0
LINE
5
3EB
100
AcDbEntity
8
DEFAULT_1
100
AcDbLine
62
2
6
CENTER
10
270.8751013594
20
223.1417970083
11
277.1251013594
21
223.1417970083
0
LINE
5
3EC
100
AcDbEntity
8
0
100
AcDbLine
62
7
6
CONTINUOUS
10
250.6251013594
20
229.1417970083
11
250.6251013594
21
235.1417970083
0
LINE
5
3ED
100
AcDbEntity
8
0
100
AcDbLine
62
9
6
CONTINUOUS
10
252.6251013594
20
235.1417970083
11
252.6251013594
21
229.1417970083
0
LINE
5
3EE
100
AcDbEntity
8
0
100
AcDbLine
62
7
6
CONTINUOUS
10
217.6251013594
20
229.1417970083
11
274.6251013594
21
229.1417970083
0
LINE
5
3EF
100
AcDbEntity
8
0
100
AcDbLine
62
7
6
CONTINUOUS
10
217.6251013594
20
235.1417970083
11
274.6251013594
21
235.1417970083
0
LINE
5
3F0
100
AcDbEntity
8
0
100
AcDbLine
62
7
6
CONTINUOUS
10
261.6555784129
20
231.7267533850
11
261.7494602060
21
229.1417970083
0
LINE
5
3F1
100
AcDbEntity
8
0
100
AcDbLine
62
7
6
CONTINUOUS
10
260.8001582090
20
234.5925875147
11
261.6555784129
21
231.7267533850
0
LINE
5
3F2
100
AcDbEntity
8
0
100
AcDbLine
62
7
6
CONTINUOUS
10
267.1251013594
20
208.1417970083
11
267.1251013594
21
229.1417970083
0
LINE
5
3F3
100
AcDbEntity
8
0
100
AcDbLine
62
7
6
CONTINUOUS
10
260.4693387649
20
235.1417970083
11
260.8001582090
21
234.5925875147
0
LINE
5
3F4
100
AcDbEntity
8
DEFAULT_1
100
AcDbLine
62
2
6
CENTER
10
269.6251013594
20
223.9201091718
11
269.6251013594
21
237.6417970083
0
LINE
5
3F5
100
AcDbEntity
8
0
100
AcDbLine
62
5
6
PHANTOM
10
270.8751013594
20
252.1322620171
11
270.8751013594
21
242.1322620171
0
LINE
5
3F6
100
AcDbEntity
8
0
100
AcDbLine
62
2
6
PHANTOM
10
270.8751013594
20
242.1322620171
11
270.8751013594
21
229.3917970083
0
LINE
5
3F7
100
AcDbEntity
8
0
100
AcDbLine
62
2
6
PHANTOM
10
270.8751013594
20
206.8917970083
11
270.8751013594
21
194.1775753816
0
LINE
5
3F8
100
AcDbEntity
8
DEFAULT_1
100
AcDbLine
62
2
6
CENTER
10
270.8751013594
20
223.1417970083
11
270.8751013594
21
216.8917970083
0
LINE
5
3F9
100
AcDbEntity
8
DEFAULT_1
100
AcDbLine
62
2
6
CENTER
10
270.8751013594
20
213.1417970083
11
270.8751013594
21
206.8917970083
0
LINE
5
3FA
100
AcDbEntity
8
0
100
AcDbLine
62
5
6
PHANTOM
10
270.8751013594
20
194.1775753816
11
270.8751013594
21
184.1775753816
0
LINE
5
3FB
100
AcDbEntity
8
DEFAULT_1
100
AcDbLine
62
2
6
CENTER
10
270.8751013594
20
213.1417970083
11
270.8751013594
21
216.8917970083
0
LINE
5
3FC
100
AcDbEntity
8
DEFAULT_1
100
AcDbLine
62
2
6
CENTER
10
270.8751013594
20
223.1417970083
11
270.8751013594
21
229.3917970083
0
LINE
5
3FD
100
AcDbEntity
8
0
100
AcDbLine
62
7
6
CONTINUOUS
10
271.6251013594
20
229.1417970083
11
271.6251013594
21
235.1417970083
0
LINE
5
3FE
100
AcDbEntity
8
0
100
AcDbLine
62
7
6
CONTINUOUS
10
274.6251013594
20
208.1417970083
11
274.6251013594
21
235.1417970083
0
LINE
5
3FF
100
AcDbEntity
8
0
100
AcDbLine
62
7
6
CONTINUOUS
10
270.8751013594
20
252.1322620171
11
268.9145049934
21
252.1322620171
0
LINE
5
400
100
AcDbEntity
8
0
100
AcDbLine
62
5
6
CONTINUOUS
10
268.9145049934
20
252.1322620171
11
258.9145049934
21
252.1322620171
0
LINE
5
401
100
AcDbEntity
8
0
100
AcDbLine
62
7
6
CONTINUOUS
10
195.1516332520
20
123.4912758532
11
195.1516332520
21
120.5518846871
0
LINE
5
402
100
AcDbEntity
8
0
100
AcDbLine
62
5
6
CONTINUOUS
10
195.1516332520
20
120.5518846871
11
195.1516332520
21
110.5518846871
0
LINE
5
403
100
AcDbEntity
8
0
100
AcDbLine
62
7
6
CONTINUOUS
10
222.6251013594
20
86.0853182320
11
224.9448620929
21
86.0853182320
0
LINE
5
404
100
AcDbEntity
8
0
100
AcDbLine
62
5
6
CONTINUOUS
10
224.9448620929
20
86.0853182320
11
234.9448620929
21
86.0853182320
0
LINE
5
405
100
AcDbEntity
8
0
100
AcDbLine
62
7
6
CONTINUOUS
10
217.6251013594
20
130.4912758532
11
217.6251013594
21
116.4912758532
0
LINE
5
406
100
AcDbEntity
8
0
100
AcDbLine
62
7
6
CONTINUOUS
10
217.6251013594
20
130.4912758532
11
220.6251013594
21
133.4912758532
0
LINE
5
407
100
AcDbEntity
8
0
100
AcDbLine
62
7
6
CONTINUOUS
10
217.6251013594
20
116.4912758532
11
220.6251013594
21
113.4912758532
0
LINE
5
408
100
AcDbEntity
8
DEFAULT_1
100
AcDbLine
62
2
6
CENTER
10
222.6251013594
20
128.4912758532
11
222.6251013594
21
122.2412758532
0
LINE
5
409
100
AcDbEntity
8
DEFAULT_1
100
AcDbLine
62
2
6
CENTER
10
222.6251013594
20
118.4912758532
11
222.6251013594
21
112.2412758532
0
LINE
5
40A
100
AcDbEntity
8
0
100
AcDbLine
62
5
6
PHANTOM
10
222.6251013594
20
86.0853182320
11
222.6251013594
21
96.0853182320
0
LINE
5
40B
100
AcDbEntity
8
DEFAULT_1
100
AcDbLine
62
2
6
CENTER
10
222.6251013594
20
118.4912758532
11
222.6251013594
21
122.2412758532
0
LINE
5
40C
100
AcDbEntity
8
DEFAULT_1
100
AcDbLine
62
2
6
CENTER
10
222.6251013594
20
128.4912758532
11
222.6251013594
21
134.7412758532
0
LINE
5
40D
100
AcDbEntity
8
0
100
AcDbLine
62
2
6
PHANTOM
10
222.6251013594
20
96.0853182320
11
222.6251013594
21
112.2412758532
0
LINE
5
40E
100
AcDbEntity
8
0
100
AcDbLine
62
2
6
PHANTOM
10
222.6251013594
20
134.7412758532
11
222.6251013594
21
149.4982243566
0
LINE
5
40F
100
AcDbEntity
8
0
100
AcDbLine
62
5
6
PHANTOM
10
222.6251013594
20
149.4982243566
11
222.6251013594
21
159.4982243566
0
LINE
5
410
100
AcDbEntity
8
0
100
AcDbLine
62
7
6
CONTINUOUS
10
226.6251013594
20
126.4912758532
11
226.6251013594
21
120.4912758532
0
LINE
5
411
100
AcDbEntity
8
0
100
AcDbLine
62
7
6
CONTINUOUS
10
271.6251013594
20
113.4912758532
11
220.6251013594
21
113.4912758532
0
LINE
5
412
100
AcDbEntity
8
0
100
AcDbLine
62
7
6
CONTINUOUS
10
241.6251013594
20
120.4912758532
11
241.6251013594
21
126.4912758532
0
LINE
5
413
100
AcDbEntity
8
DEFAULT_1
100
AcDbLine
62
2
6
CENTER
10
269.6251013594
20
118.4912758532
11
263.6251013594
21
118.4912758532
0
LINE
5
414
100
AcDbEntity
8
DEFAULT_1
100
AcDbLine
62
2
6
CENTER
10
222.6251013594
20
118.4912758532
11
216.3751013594
21
118.4912758532
0
LINE
5
415
100
AcDbEntity
8
DEFAULT_1
100
AcDbLine
62
2
6
CENTER
10
222.6251013594
20
118.4912758532
11
228.6251013594
21
118.4912758532
0
LINE
5
416
100
AcDbEntity
8
0
100
AcDbLine
62
7
6
CONTINUOUS
10
228.6251013594
20
118.4912758532
11
239.6251013594
21
118.4912758532
0
LINE
5
417
100
AcDbEntity
8
0
100
AcDbLine
62
7
6
CONTINUOUS
10
252.6251013594
20
118.4912758532
11
263.6251013594
21
118.4912758532
0
LINE
5
418
100
AcDbEntity
8
DEFAULT_1
100
AcDbLine
62
2
6
CENTER
10
269.6251013594
20
118.4912758532
11
275.8751013594
21
118.4912758532
0
LINE
5
419
100
AcDbEntity
8
DEFAULT_1
100
AcDbLine
62
2
6
CENTER
10
246.1251013594
20
123.4912758532
11
246.1251013594
21
108.5790036407
0
LINE
5
41A
100
AcDbEntity
8
DEFAULT_1
100
AcDbLine
62
2
6
CENTER
10
246.1251013594
20
123.4912758532
11
246.1251013594
21
150.6115748371
0
LINE
5
41B
100
AcDbEntity
8
0
100
AcDbLine
62
5
6
PHANTOM
10
296.3776714947
20
123.4912758532
11
291.9056385884
21
123.4912758532
0
LINE
5
41C
100
AcDbEntity
8
DEFAULT_1
100
AcDbLine
62
2
6
CENTER
10
246.1251013594
20
123.4912758532
11
208.5142153730
21
123.4912758532
0
LINE
5
41D
100
AcDbEntity
8
0
100
AcDbLine
62
5
6
PHANTOM
10
200.9392590589
20
123.4912758532
11
195.1516332520
21
123.4912758532
0
LINE
5
41E
100
AcDbEntity
8
DEFAULT_1
100
AcDbLine
62
2
6
CENTER
10
246.1251013594
20
123.4912758532
11
254.0753717833
21
123.4912758532
0
LINE
5
41F
100
AcDbEntity
8
DEFAULT_1
100
AcDbLine
62
2
6
CENTER
10
262.3338128058
20
123.4912758532
11
280.3528513037
21
123.4912758532
0
LINE
5
420
100
AcDbEntity
8
0
100
AcDbLine
62
7
6
CONTINUOUS
10
250.6251013594
20
126.4912758532
11
250.6251013594
21
120.4912758532
0
LINE
5
421
100
AcDbEntity
8
DEFAULT_1
100
AcDbLine
62
2
6
CENTER
10
269.6251013594
20
128.4912758532
11
263.6251013594
21
128.4912758532
0
LINE
5
422
100
AcDbEntity
8
0
100
AcDbLine
62
7
6
CONTINUOUS
10
263.6251013594
20
128.4912758532
11
252.6251013594
21
128.4912758532
0
LINE
5
423
100
AcDbEntity
8
0
100
AcDbLine
62
7
6
CONTINUOUS
10
239.6251013594
20
128.4912758532
11
228.6251013594
21
128.4912758532
0
LINE
5
424
100
AcDbEntity
8
DEFAULT_1
100
AcDbLine
62
2
6
CENTER
10
222.6251013594
20
128.4912758532
11
216.3751013594
21
128.4912758532
0
LINE
5
425
100
AcDbEntity
8
DEFAULT_1
100
AcDbLine
62
2
6
CENTER
10
222.6251013594
20
128.4912758532
11
228.6251013594
21
128.4912758532
0
LINE
5
426
100
AcDbEntity
8
DEFAULT_1
100
AcDbLine
62
2
6
CENTER
10
269.6251013594
20
128.4912758532
11
275.8751013594
21
128.4912758532
0
LINE
5
427
100
AcDbEntity
8
0
100
AcDbLine
62
7
6
CONTINUOUS
10
220.6251013594
20
133.4912758532
11
271.6251013594
21
133.4912758532
0
LINE
5
428
100
AcDbEntity
8
0
100
AcDbLine
62
7
6
CONTINUOUS
10
265.6251013594
20
120.4912758532
11
265.6251013594
21
126.4912758532
0
LINE
5
429
100
AcDbEntity
8
DEFAULT_1
100
AcDbLine
62
2
6
CENTER
10
269.6251013594
20
128.4912758532
11
269.6251013594
21
122.2412758532
0
LINE
5
42A
100
AcDbEntity
8
DEFAULT_1
100
AcDbLine
62
2
6
CENTER
10
269.6251013594
20
118.4912758532
11
269.6251013594
21
112.2412758532
0
LINE
5
42B
100
AcDbEntity
8
DEFAULT_1
100
AcDbLine
62
2
6
CENTER
10
269.6251013594
20
118.4912758532
11
269.6251013594
21
122.2412758532
0
LINE
5
42C
100
AcDbEntity
8
DEFAULT_1
100
AcDbLine
62
2
6
CENTER
10
269.6251013594
20
128.4912758532
11
269.6251013594
21
134.7412758532
0
LINE
5
42D
100
AcDbEntity
8
0
100
AcDbLine
62
7
6
CONTINUOUS
10
274.6251013594
20
116.4912758532
11
271.6251013594
21
113.4912758532
0
LINE
5
42E
100
AcDbEntity
8
0
100
AcDbLine
62
7
6
CONTINUOUS
10
274.6251013594
20
130.4912758532
11
271.6251013594
21
133.4912758532
0
LINE
5
42F
100
AcDbEntity
8
0
100
AcDbLine
62
7
6
CONTINUOUS
10
274.6251013594
20
130.4912758532
11
274.6251013594
21
116.4912758532
0
LINE
5
430
100
AcDbEntity
8
0
100
AcDbLine
62
7
6
CONTINUOUS
10
296.3776714947
20
123.4912758532
11
296.3776714947
21
120.5518846871
0
LINE
5
431
100
AcDbEntity
8
0
100
AcDbLine
62
5
6
CONTINUOUS
10
296.3776714947
20
120.5518846871
11
296.3776714947
21
110.5518846871
0
LINE
5
432
100
AcDbEntity
8
0
100
AcDbLine
62
7
6
CONTINUOUS
10
222.6251013594
20
159.4982243566
11
224.9448620929
21
159.4982243566
0
LINE
5
433
100
AcDbEntity
8
0
100
AcDbLine
62
5
6
CONTINUOUS
10
224.9448620929
20
159.4982243566
11
234.9448620929
21
159.4982243566
0
LINE
5
434
100
AcDbEntity
8
0
100
AcDbLine
62
7
6
CONTINUOUS
10
360.5939883538
20
208.1417970083
11
348.0939883538
21
208.1417970083
0
LINE
5
435
100
AcDbEntity
8
0
100
AcDbLine
62
7
6
CONTINUOUS
10
350.5939883538
20
211.8917970083
11
349.8723005173
21
213.1417970083
0
LINE
5
436
100
AcDbEntity
8
0
100
AcDbLine
62
7
6
CONTINUOUS
10
348.0939883538
20
208.1417970083
11
348.0939883538
21
235.1417970083
0
LINE
5
437
100
AcDbEntity
8
0
100
AcDbLine
62
2
6
CONTINUOUS
10
351.5939883538
20
211.6417970083
11
360.5939883538
21
211.6417970083
0
LINE
5
438
100
AcDbEntity
8
0
100
AcDbLine
62
2
6
CONTINUOUS
10
348.0939883538
20
224.5253739314
11
350.2500185827
21
226.6814041602
0
LINE
5
439
100
AcDbEntity
8
0
100
AcDbLine
62
7
6
CONTINUOUS
10
360.5939883538
20
211.8917970083
11
350.5939883538
21
211.8917970083
0
LINE
5
43A
100
AcDbEntity
8
0
100
AcDbLine
62
7
6
CONTINUOUS
10
350.5939883538
20
224.3917970083
11
349.8723005173
21
223.1417970083
0
LINE
5
43B
100
AcDbEntity
8
DEFAULT_1
100
AcDbLine
62
2
6
CENTER
10
347.3723005173
20
213.1417970083
11
363.0939883538
21
213.1417970083
0
LINE
5
43C
100
AcDbEntity
8
0
100
AcDbLine
62
7
6
CONTINUOUS
10
350.5939883538
20
224.3917970083
11
350.5939883538
21
221.8917970083
0
LINE
5
43D
100
AcDbEntity
8
0
100
AcDbLine
62
7
6
CONTINUOUS
10
350.5939883538
20
214.3917970083
11
350.5939883538
21
211.8917970083
0
LINE
5
43E
100
AcDbEntity
8
0
100
AcDbLine
62
7
6
CONTINUOUS
10
351.0939883538
20
226.6557312219
11
351.0939883538
21
235.1417970083
0
LINE
5
43F
100
AcDbEntity
8
0
100
AcDbLine
62
7
6
CONTINUOUS
10
360.5939883538
20
214.3917970083
11
350.5939883538
21
214.3917970083
0
LINE
5
440
100
AcDbEntity
8
0
100
AcDbLine
62
2
6
CONTINUOUS
10
351.5939883538
20
214.6417970083
11
360.5939883538
21
214.6417970083
0
LINE
5
441
100
AcDbEntity
8
0
100
AcDbLine
62
7
6
CONTINUOUS
10
351.5939883538
20
211.6417970083
11
351.5939883538
21
214.6417970083
0
LINE
5
442
100
AcDbEntity
8
0
100
AcDbLine
62
7
6
CONTINUOUS
10
351.5939883538
20
221.6417970083
11
351.5939883538
21
224.6417970083
0
LINE
5
443
100
AcDbEntity
8
0
100
AcDbLine
62
2
6
CONTINUOUS
10
348.0939883538
20
220.9099893160
11
350.0382914013
21
222.8542923635
0
LINE
5
444
100
AcDbEntity
8
0
100
AcDbLine
62
2
6
CONTINUOUS
10
351.5757960461
20
224.3917970083
11
353.6742969332
21
226.4902978954
0
LINE
5
445
100
AcDbEntity
8
0
100
AcDbLine
62
7
6
CONTINUOUS
10
350.5939883538
20
221.8917970083
11
349.8723005173
21
223.1417970083
0
LINE
5
446
100
AcDbEntity
8
0
100
AcDbLine
62
2
6
CONTINUOUS
10
348.0939883538
20
217.2946047006
11
352.6911806615
21
221.8917970083
0
LINE
5
447
100
AcDbEntity
8
0
100
AcDbLine
62
2
6
CONTINUOUS
10
355.1911806615
20
224.3917970083
11
357.3516769568
21
226.5522933036
0
LINE
5
448
100
AcDbEntity
8
0
100
AcDbLine
62
7
6
CONTINUOUS
10
350.5939883538
20
214.3917970083
11
349.8723005173
21
213.1417970083
0
LINE
5
449
100
AcDbEntity
8
0
100
AcDbLine
62
2
6
CONTINUOUS
10
348.0939883538
20
213.6792200852
11
356.3065652769
21
221.8917970083
0
LINE
5
44A
100
AcDbEntity
8
0
100
AcDbLine
62
2
6
CONTINUOUS
10
358.8065652769
20
224.3917970083
11
360.5939883538
21
226.1792200852
0
LINE
5
44B
100
AcDbEntity
8
0
100
AcDbLine
62
2
6
CONTINUOUS
10
351.5939883538
20
221.6417970083
11
360.5939883538
21
221.6417970083
0
LINE
5
44C
100
AcDbEntity
8
0
100
AcDbLine
62
2
6
CONTINUOUS
10
348.0939883538
20
210.0638354698
11
350.3480052045
21
212.3178523206
0
LINE
5
44D
100
AcDbEntity
8
0
100
AcDbLine
62
2
6
CONTINUOUS
10
352.4219498923
20
214.3917970083
11
359.9219498923
21
221.8917970083
0
LINE
5
44E
100
AcDbEntity
8
0
100
AcDbLine
62
7
6
CONTINUOUS
10
360.5939883538
20
221.8917970083
11
350.5939883538
21
221.8917970083
0
LINE
5
44F
100
AcDbEntity
8
DEFAULT_1
100
AcDbLine
62
2
6
CENTER
10
347.3723005173
20
223.1417970083
11
363.0939883538
21
223.1417970083
0
LINE
5
450
100
AcDbEntity
8
0
100
AcDbLine
62
7
6
CONTINUOUS
10
360.5939883538
20
208.1417970083
11
360.5939883538
21
229.1417970083
0
LINE
5
451
100
AcDbEntity
8
0
100
AcDbLine
62
7
6
CONTINUOUS
10
360.5939883538
20
224.3917970083
11
350.5939883538
21
224.3917970083
0
LINE
5
452
100
AcDbEntity
8
0
100
AcDbLine
62
2
6
CONTINUOUS
10
351.5939883538
20
224.6417970083
11
360.5939883538
21
224.6417970083
0
LINE
5
453
100
AcDbEntity
8
0
100
AcDbLine
62
2
6
CONTINUOUS
10
349.7873345076
20
208.1417970083
11
353.5373345076
21
211.8917970083
0
LINE
5
454
100
AcDbEntity
8
0
100
AcDbLine
62
2
6
CONTINUOUS
10
356.0373345076
20
214.3917970083
11
360.5939883538
21
218.9484508544
0
LINE
5
455
100
AcDbEntity
8
0
100
AcDbLine
62
7
6
CONTINUOUS
10
353.5534974439
20
226.4898555234
11
351.4711068095
21
226.6442595564
0
LINE
5
456
100
AcDbEntity
8
0
100
AcDbLine
62
7
6
CONTINUOUS
10
358.9241799673
20
226.6282578293
11
356.2647102284
21
226.4997840802
0
LINE
5
457
100
AcDbEntity
8
0
100
AcDbLine
62
7
6
CONTINUOUS
10
356.2647102284
20
226.4997840802
11
353.5534974439
21
226.4898555234
0
LINE
5
458
100
AcDbEntity
8
0
100
AcDbLine
62
7
6
CONTINUOUS
10
360.5939883538
20
226.6116781501
11
358.9241799673
21
226.6282578293
0
LINE
5
459
100
AcDbEntity
8
0
100
AcDbLine
62
7
6
CONTINUOUS
10
351.4711068095
20
226.6442595564
11
349.4260831180
21
226.7064676698
0
LINE
5
45A
100
AcDbEntity
8
0
100
AcDbLine
62
2
6
CONTINUOUS
10
353.4027191230
20
208.1417970083
11
357.1527191230
21
211.8917970083
0
LINE
5
45B
100
AcDbEntity
8
0
100
AcDbLine
62
2
6
CONTINUOUS
10
359.6527191230
20
214.3917970083
11
360.5939883538
21
215.3330662391
0
LINE
5
45C
100
AcDbEntity
8
0
100
AcDbLine
62
7
6
CONTINUOUS
10
349.4260831180
20
226.7064676698
11
348.0939883538
21
226.4657470207
0
LINE
5
45D
100
AcDbEntity
8
0
100
AcDbLine
62
7
6
CONTINUOUS
10
365.0939883538
20
229.1417970083
11
365.0939883538
21
235.1417970083
0
LINE
5
45E
100
AcDbEntity
8
0
100
AcDbLine
62
7
6
CONTINUOUS
10
360.5939883538
20
229.1417970083
11
368.0939883538
21
229.1417970083
0
LINE
5
45F
100
AcDbEntity
8
0
100
AcDbLine
62
2
6
CONTINUOUS
10
357.0181037384
20
208.1417970083
11
360.5939883538
21
211.7176816237
0
LINE
5
460
100
AcDbEntity
8
0
100
AcDbLine
62
7
6
CONTINUOUS
10
368.0939883538
20
229.1417970083
11
368.0939883538
21
235.1417970083
0
LINE
5
461
100
AcDbEntity
8
0
100
AcDbLine
62
7
6
CONTINUOUS
10
348.0939883538
20
235.1417970083
11
368.0939883538
21
235.1417970083
0
LINE
5
462
100
AcDbEntity
8
0
100
AcDbLine
62
2
6
CONTINUOUS
10
117.7366823187
20
233.6717200852
11
119.2067592418
21
235.1417970083
0
LINE
5
463
100
AcDbEntity
8
0
100
AcDbLine
62
2
6
CONTINUOUS
10
117.7366823187
20
230.6332585467
11
121.4866823187
21
234.3832585467
0
LINE
5
464
100
AcDbEntity
8
0
100
AcDbLine
62
7
6
CONTINUOUS
10
125.2366823187
20
208.1417970083
11
137.7366823187
21
208.1417970083
0
LINE
5
465
100
AcDbEntity
8
0
100
AcDbLine
62
2
6
CONTINUOUS
10
119.2836823187
20
229.1417970083
11
121.4866823187
21
231.3447970083
0
LINE
5
466
100
AcDbEntity
8
0
100
AcDbLine
62
2
6
CONTINUOUS
10
123.9866823187
20
233.8447970083
11
125.2836823187
21
235.1417970083
0
LINE
5
467
100
AcDbEntity
8
0
100
AcDbLine
62
7
6
CONTINUOUS
10
117.7366823187
20
229.1417970083
11
117.7366823187
21
235.1417970083
0
LINE
5
468
100
AcDbEntity
8
0
100
AcDbLine
62
2
6
CONTINUOUS
10
123.9866823187
20
230.8063354698
11
128.3221438572
21
235.1417970083
0
LINE
5
469
100
AcDbEntity
8
0
100
AcDbLine
62
2
6
CONTINUOUS
10
125.2366823187
20
229.0178739314
11
131.3606053956
21
235.1417970083
0
LINE
5
46A
100
AcDbEntity
8
0
100
AcDbLine
62
2
6
CONTINUOUS
10
121.2366823187
20
235.1417970083
11
121.2366823187
21
229.1417970083
0
LINE
5
46B
100
AcDbEntity
8
0
100
AcDbLine
62
7
6
CONTINUOUS
10
121.4866823187
20
229.1417970083
11
121.4866823187
21
235.1417970083
0
LINE
5
46C
100
AcDbEntity
8
DEFAULT_1
100
AcDbLine
62
2
6
CENTER
10
122.7366823187
20
237.6417970083
11
122.7366823187
21
226.6417970083
0
LINE
5
46D
100
AcDbEntity
8
0
100
AcDbLine
62
2
6
CONTINUOUS
10
126.0581323568
20
226.8008624310
11
131.4866823187
21
232.2294123929
0
LINE
5
46E
100
AcDbEntity
8
0
100
AcDbLine
62
2
6
CONTINUOUS
10
133.9866823187
20
234.7294123929
11
134.3990669341
21
235.1417970083
0
LINE
5
46F
100
AcDbEntity
8
0
100
AcDbLine
62
7
6
CONTINUOUS
10
123.9866823187
20
229.1417970083
11
123.9866823187
21
235.1417970083
0
LINE
5
470
100
AcDbEntity
8
0
100
AcDbLine
62
2
6
CONTINUOUS
10
124.2366823187
20
235.1417970083
11
124.2366823187
21
229.1417970083
0
LINE
5
471
100
AcDbEntity
8
0
100
AcDbLine
62
7
6
CONTINUOUS
10
125.2366823187
20
208.1417970083
11
125.2366823187
21
229.1417970083
0
LINE
5
472
100
AcDbEntity
8
0
100
AcDbLine
62
2
6
CONTINUOUS
10
128.5618996847
20
226.2661682204
11
131.4866823187
21
229.1909508544
0
LINE
5
473
100
AcDbEntity
8
0
100
AcDbLine
62
2
6
CONTINUOUS
10
133.9866823187
20
231.6909508544
11
137.4375284726
21
235.1417970083
0
LINE
5
474
100
AcDbEntity
8
0
100
AcDbLine
62
7
6
CONTINUOUS
10
133.9866823187
20
227.1417970083
11
132.7366823187
21
226.4201091718
0
LINE
5
475
100
AcDbEntity
8
0
100
AcDbLine
62
2
6
CONTINUOUS
10
131.3833714239
20
226.0491784211
11
132.1138782635
21
226.7796852607
0
LINE
5
476
100
AcDbEntity
8
0
100
AcDbLine
62
2
6
CONTINUOUS
10
133.9866823187
20
228.6524893160
11
137.7366823187
21
232.4024893160
0
LINE
5
477
100
AcDbEntity
8
0
100
AcDbLine
62
7
6
CONTINUOUS
10
137.3829700715
20
225.1879280949
11
137.7366823187
21
225.3544695424
0
LINE
5
478
100
AcDbEntity
8
0
100
AcDbLine
62
2
6
CONTINUOUS
10
133.8534741702
20
225.4808196290
11
137.7366823187
21
229.3640277775
0
LINE
5
479
100
AcDbEntity
8
0
100
AcDbLine
62
2
6
CONTINUOUS
10
131.2366823187
20
228.1417970083
11
131.2366823187
21
235.1417970083
0
LINE
5
47A
100
AcDbEntity
8
0
100
AcDbLine
62
7
6
CONTINUOUS
10
135.5386871225
20
225.0864931733
11
137.3829700715
21
225.1879280949
0
LINE
5
47B
100
AcDbEntity
8
0
100
AcDbLine
62
7
6
CONTINUOUS
10
131.4866823187
20
227.1417970083
11
131.4866823187
21
235.1417970083
0
LINE
5
47C
100
AcDbEntity
8
0
100
AcDbLine
62
2
6
CONTINUOUS
10
136.5534191627
20
225.1423030831
11
137.7366823187
21
226.3255662391
0
LINE
5
47D
100
AcDbEntity
8
0
100
AcDbLine
62
7
6
CONTINUOUS
10
125.2366823187
20
227.0212286124
11
126.5712717566
21
226.6632051606
0
LINE
5
47E
100
AcDbEntity
8
DEFAULT_1
100
AcDbLine
62
2
6
CENTER
10
132.7366823187
20
223.9201091718
11
132.7366823187
21
237.6417970083
0
LINE
5
47F
100
AcDbEntity
8
0
100
AcDbLine
62
7
6
CONTINUOUS
10
131.4866823187
20
227.1417970083
11
133.9866823187
21
227.1417970083
0
LINE
5
480
100
AcDbEntity
8
0
100
AcDbLine
62
7
6
CONTINUOUS
10
129.4475176463
20
226.1929699336
11
130.5106902683
21
226.1401555463
0
LINE
5
481
100
AcDbEntity
8
0
100
AcDbLine
62
7
6
CONTINUOUS
10
128.3940116544
20
226.2800445381
11
129.4475176463
21
226.1929699336
0
LINE
5
482
100
AcDbEntity
8
0
100
AcDbLine
62
7
6
CONTINUOUS
10
130.5106902683
20
226.1401555463
11
131.5863520268
21
226.0280176666
0
LINE
5
483
100
AcDbEntity
8
0
100
AcDbLine
62
7
6
CONTINUOUS
10
126.5712717566
20
226.6632051606
11
128.3940116544
21
226.2800445381
0
LINE
5
484
100
AcDbEntity
8
0
100
AcDbLine
62
7
6
CONTINUOUS
10
133.5786514981
20
225.5451259531
11
135.5386871225
21
225.0864931733
0
LINE
5
485
100
AcDbEntity
8
0
100
AcDbLine
62
7
6
CONTINUOUS
10
131.5863520268
20
226.0280176666
11
133.5786514981
21
225.5451259531
0
LINE
5
486
100
AcDbEntity
8
0
100
AcDbLine
62
7
6
CONTINUOUS
10
133.9866823187
20
227.1417970083
11
133.9866823187
21
235.1417970083
0
LINE
5
487
100
AcDbEntity
8
0
100
AcDbLine
62
2
6
CONTINUOUS
10
134.2366823187
20
228.1417970083
11
134.2366823187
21
235.1417970083
0
LINE
5
488
100
AcDbEntity
8
0
100
AcDbLine
62
7
6
CONTINUOUS
10
134.2366823187
20
228.1417970083
11
131.2366823187
21
228.1417970083
0
LINE
5
489
100
AcDbEntity
8
0
100
AcDbLine
62
7
6
CONTINUOUS
10
131.4866823187
20
227.1417970083
11
132.7366823187
21
226.4201091718
0
LINE
5
48A
100
AcDbEntity
8
0
100
AcDbLine
62
7
6
CONTINUOUS
10
134.7366823187
20
225.2741559321
11
134.7366823187
21
208.1417970083
0
LINE
5
48B
100
AcDbEntity
8
0
100
AcDbLine
62
7
6
CONTINUOUS
10
125.2366823187
20
229.1417970083
11
117.7366823187
21
229.1417970083
0
LINE
5
48C
100
AcDbEntity
8
0
100
AcDbLine
62
7
6
CONTINUOUS
10
137.7366823187
20
208.1417970083
11
137.7366823187
21
235.1417970083
0
LINE
5
48D
100
AcDbEntity
8
0
100
AcDbLine
62
7
6
CONTINUOUS
10
117.7366823187
20
235.1417970083
11
137.7366823187
21
235.1417970083
0
ARC
5
48E
100
AcDbEntity
8
0
100
AcDbCircle
62
2
6
CONTINUOUS
10
221.3751013594
20
223.1417970083
40
1.5000000000
100
AcDbArc
50
255.0000000000
51
195.0000000000
0
ARC
5
48F
100
AcDbEntity
8
0
100
AcDbCircle
62
2
6
CONTINUOUS
10
221.3751013594
20
213.1417970083
40
1.5000000000
100
AcDbArc
50
255.0000000000
51
195.0000000000
0
ARC
5
490
100
AcDbEntity
8
0
100
AcDbCircle
62
2
6
CONTINUOUS
10
270.8751013594
20
213.1417970083
40
1.5000000000
100
AcDbArc
50
255.0000000000
51
195.0000000000
0
ARC
5
491
100
AcDbEntity
8
0
100
AcDbCircle
62
2
6
CONTINUOUS
10
270.8751013594
20
223.1417970083
40
1.5000000000
100
AcDbArc
50
255.0000000000
51
195.0000000000
0
CIRCLE
5
492
100
AcDbEntity
8
0
100
AcDbCircle
62
7
6
CONTINUOUS
10
221.3751013594
20
223.1417970083
40
1.2500000000
0
CIRCLE
5
493
100
AcDbEntity
8
0
100
AcDbCircle
62
7
6
CONTINUOUS
10
221.3751013594
20
213.1417970083
40
1.2500000000
0
CIRCLE
5
494
100
AcDbEntity
8
0
100
AcDbCircle
62
7
6
CONTINUOUS
10
270.8751013594
20
213.1417970083
40
1.2500000000
0
CIRCLE
5
495
100
AcDbEntity
8
0
100
AcDbCircle
62
7
6
CONTINUOUS
10
270.8751013594
20
223.1417970083
40
1.2500000000
0
ARC
5
496
100
AcDbEntity
8
0
100
AcDbCircle
62
2
6
CONTINUOUS
10
246.1251013594
20
123.4912758532
40
1.5000000000
100
AcDbArc
50
255.0000000000
51
195.0000000000
0
ARC
5
497
100
AcDbEntity
8
0
100
AcDbCircle
62
2
6
CONTINUOUS
10
222.6251013594
20
128.4912758532
40
1.5000000000
100
AcDbArc
50
255.0000000000
51
195.0000000000
0
ARC
5
498
100
AcDbEntity
8
0
100
AcDbCircle
62
2
6
CONTINUOUS
10
222.6251013594
20
118.4912758532
40
1.5000000000
100
AcDbArc
50
255.0000000000
51
195.0000000000
0
ARC
5
499
100
AcDbEntity
8
0
100
AcDbCircle
62
2
6
CONTINUOUS
10
269.6251013594
20
118.4912758532
40
1.5000000000
100
AcDbArc
50
255.0000000000
51
195.0000000000
0
ARC
5
49A
100
AcDbEntity
8
0
100
AcDbCircle
62
2
6
CONTINUOUS
10
269.6251013594
20
128.4912758532
40
1.5000000000
100
AcDbArc
50
255.0000000000
51
195.0000000000
0
CIRCLE
5
49B
100
AcDbEntity
8
0
100
AcDbCircle
62
7
6
CONTINUOUS
10
222.6251013594
20
128.4912758532
40
1.2500000000
0
CIRCLE
5
49C
100
AcDbEntity
8
0
100
AcDbCircle
62
7
6
CONTINUOUS
10
222.6251013594
20
118.4912758532
40
1.2500000000
0
CIRCLE
5
49D
100
AcDbEntity
8
0
100
AcDbCircle
62
7
6
CONTINUOUS
10
269.6251013594
20
128.4912758532
40
1.2500000000
0
CIRCLE
5
49E
100
AcDbEntity
8
0
100
AcDbCircle
62
7
6
CONTINUOUS
10
269.6251013594
20
118.4912758532
40
1.2500000000
0
CIRCLE
5
49F
100
AcDbEntity
8
0
100
AcDbCircle
62
7
6
CONTINUOUS
10
246.1251013594
20
123.4912758532
40
1.2500000000
0
ARC
5
4A0
100
AcDbEntity
8
0
100
AcDbCircle
62
7
6
CONTINUOUS
10
263.6251013594
20
126.4912758532
40
2.0000000000
100
AcDbArc
50
0.0000000000
51
90.0000000000
0
ARC
5
4A1
100
AcDbEntity
8
0
100
AcDbCircle
62
7
6
CONTINUOUS
10
239.6251013594
20
126.4912758532
40
2.0000000000
100
AcDbArc
50
0.0000000000
51
90.0000000000
0
ARC
5
4A2
100
AcDbEntity
8
0
100
AcDbCircle
62
7
6
CONTINUOUS
10
228.6251013594
20
126.4912758532
40
2.0000000000
100
AcDbArc
50
90.0000000000
51
180.0000000000
0
ARC
5
4A3
100
AcDbEntity
8
0
100
AcDbCircle
62
7
6
CONTINUOUS
10
228.6251013594
20
120.4912758532
40
2.0000000000
100
AcDbArc
50
180.0000000000
51
270.0000000000
0
ARC
5
4A4
100
AcDbEntity
8
0
100
AcDbCircle
62
7
6
CONTINUOUS
10
239.6251013594
20
120.4912758532
40
2.0000000000
100
AcDbArc
50
270.0000000000
51
360.0000000000
0
ARC
5
4A5
100
AcDbEntity
8
0
100
AcDbCircle
62
7
6
CONTINUOUS
10
252.6251013594
20
120.4912758532
40
2.0000000000
100
AcDbArc
50
180.0000000000
51
270.0000000000
0
ARC
5
4A6
100
AcDbEntity
8
0
100
AcDbCircle
62
7
6
CONTINUOUS
10
252.6251013594
20
126.4912758532
40
2.0000000000
100
AcDbArc
50
90.0000000000
51
180.0000000000
0
ARC
5
4A7
100
AcDbEntity
8
0
100
AcDbCircle
62
7
6
CONTINUOUS
10
263.6251013594
20
120.4912758532
40
2.0000000000
100
AcDbArc
50
270.0000000000
51
360.0000000000
0
ENDSEC
0
SECTION
2
OBJECTS
0
DICTIONARY
5
4A8
100
AcDbDictionary
3
ACAD_GROUP
350
4A9
3
ACAD_MLINESTYLE
350
4AA
0
DICTIONARY
5
4A9
102
{ACAD_REACTORS
330
4A8
102
}
100
AcDbDictionary
0
DICTIONARY
5
4AA
102
{ACAD_REACTORS
330
4A8
102
}
100
AcDbDictionary
3
STANDARD
350
4AB
0
MLINESTYLE
5
4AB
102
{ACAD_REACTORS
330
4AA
102
}
100
AcDbMlineStyle
2
STANDARD
70
0
3

62
256
51
90.0
52
90.0
71
2
49
0.5
62
256
6
BYLAYER
49
-0.5
62
256
6
BYLAYER
0
ENDSEC
0
EOF
