999
DXF file: 100119-a_support-platine.dxf
999
Pro/ENGINEER 2004090 by Parametric Technology Corporation
0
SECTION
2
HEADER
9
$ACADVER
1
AC1014
9
$HANDSEED
5
       475
9
$EXTMAX
10
297.0000000000
20
210.0000000000
9
$EXTMIN
10
0.0000000000
20
0.0000000000
9
$LIMMIN
10
0.0000000000
20
0.0000000000
9
$LIMMAX
10
297.0000000000
20
210.0000000000
9
$VIEWCTR
10
148.5000000000
20
105.0000000000
9
$VIEWSIZE
40
210.0000000000
9
$CLAYER
8
0
9
$LTSCALE
40
16.3350000000
9
$CELTYPE
6
BYLAYER
9
$DIMSCALE
40
1
9
$DIMASZ
40
4.5000000000
9
$DIMEXO
40
1.8562500000
9
$DIMDLI
40
11.2860000000
9
$DIMEXE
40
5.3460000000
9
$DIMCEN
40
2.6730000000
9
$DIMLFAC
40
1.0000000000
9
$DIMTXT
40
3.5000000000
9
$DIMTOL
70
1
9
$DIMLIM
70
0
9
$DIMTFAC
40
1.0000000000
9
$DIMTP
40
0.0500000000
9
$DIMTM
40
0.0500000000
9
$MEASUREMENT
70
1
0
ENDSEC
0
SECTION
2
CLASSES
0
ENDSEC
0
SECTION
2
TABLES
0
TABLE
2
VPORT
5
8
100
AcDbSymbolTable
70
2
0
VPORT
5
1F4
100
AcDbSymbolTableRecord
100
AcDbViewportTableRecord
2
*ACTIVE
70
0
10
0.0
20
0.0
11
1.0
21
1.0
12
148.5000000000
22
105.0000000000
13
0.0
23
0.0
14
1.0
24
1.0
15
0.0
25
0.0
16
0.0
26
0.0
36
1.0
17
0.0
27
0.0
37
0.0
40
210.0000000000
41
1.4142857143
42
50.0
43
0.0
44
0.0
50
0.0
51
0.0
71
0
72
100
73
1
74
1
75
0
76
0
77
0
78
0
0
ENDTAB
0
TABLE
2
LTYPE
5
5
100
AcDbSymbolTable
70
6
0
LTYPE
5
14
100
AcDbSymbolTableRecord
100
AcDbLinetypeTableRecord
2
BYBLOCK
70
0
3

72
65
73
0
40
0.0
0
LTYPE
5
15
100
AcDbSymbolTableRecord
100
AcDbLinetypeTableRecord
2
BYLAYER
70
0
3

72
65
73
0
40
0.0
0
LTYPE
5
16
100
AcDbSymbolTableRecord
100
AcDbLinetypeTableRecord
2
CONTINUOUS
70
64
3
Solid line
72
65
73
0
40
0
0
LTYPE
5
1F5
100
AcDbSymbolTableRecord
100
AcDbLinetypeTableRecord
2
CENTER
70
64
3
____ _ ____ _ ____ _ ____ _ ____ _ ____ _ ____
72
65
73
4
40
0.6
49
0.375
74
0
49
-0.075
74
0
49
0.075
74
0
49
-0.075
74
0
0
LTYPE
5
1F6
100
AcDbSymbolTableRecord
100
AcDbLinetypeTableRecord
2
HIDDEN
70
64
3
- - - - - - - - - - - - - - - - - - - -
72
65
73
2
40
0.2
49
0.1
74
0
49
-0.1
74
0
0
LTYPE
5
1F7
100
AcDbSymbolTableRecord
100
AcDbLinetypeTableRecord
2
PHANTOM
70
64
3
_____ _ _ _____ _ _ _____ _ _ _____
72
65
73
6
40
0.8
49
0.45
74
0
49
-0.05
74
0
49
0.1
74
0
49
-0.05
74
0
49
0.1
74
0
49
-0.05
74
0
0
LTYPE
5
1F8
100
AcDbSymbolTableRecord
100
AcDbLinetypeTableRecord
2
DOT
70
64
3
. . . . . . . . . . . . . . . . . . . .
72
65
73
2
40
0.2
49
0.1
74
0
49
-0.1
74
0
0
LTYPE
5
1F9
100
AcDbSymbolTableRecord
100
AcDbLinetypeTableRecord
2
DASHED
70
64
3
- - - - - - - - - - - - - - - - - - - -
72
65
73
2
40
0.2
49
0.1
74
0
49
-0.1
74
0
0
ENDTAB
0
TABLE
2
LAYER
5
2
100
AcDbSymbolTable
70
36
0
LAYER
5
10
100
AcDbSymbolTableRecord
100
AcDbLayerTableRecord
2
0
70
0
62
7
6
CONTINUOUS
0
LAYER
5
1FA
100
AcDbSymbolTableRecord
100
AcDbLayerTableRecord
2
DEFAULT_1
70
0
62
7
6
CENTER
0
LAYER
5
1FB
100
AcDbSymbolTableRecord
100
AcDbLayerTableRecord
2
DEFAULT_2
70
0
62
8
6
HIDDEN
0
LAYER
5
1FC
100
AcDbSymbolTableRecord
100
AcDbLayerTableRecord
2
DEFAULT_3
70
0
62
7
6
PHANTOM
0
LAYER
5
1FD
100
AcDbSymbolTableRecord
100
AcDbLayerTableRecord
2
POUB
70
0
62
7
6
CONTINUOUS
0
LAYER
5
1FE
100
AcDbSymbolTableRecord
100
AcDbLayerTableRecord
2
REF
70
0
62
7
6
CONTINUOUS
0
ENDTAB
0
TABLE
2
STYLE
5
3
100
AcDbSymbolTable
70
1
0
STYLE
5
11
100
AcDbSymbolTableRecord
100
AcDbTextStyleTableRecord
2
STANDARD
70
0
40
0.0
41
0.8000000000
50
0.0
71
0
42
0.2
3
txt
4

0
STYLE
5
1FF
100
AcDbSymbolTableRecord
100
AcDbTextStyleTableRecord
2
TEXTSTYLE_1
70
0
40
0.0
41
0.8000000000
50
0.0
71
0
42
0.2
3
txt
4

0
ENDTAB
0
TABLE
2
VIEW
5
6
100
AcDbSymbolTable
70
0
0
ENDTAB
0
TABLE
2
UCS
5
7
100
AcDbSymbolTable
70
0
0
ENDTAB
0
TABLE
2
APPID
5
9
100
AcDbSymbolTable
70
1
0
APPID
5
200
100
AcDbSymbolTableRecord
100
AcDbRegAppTableRecord
2
ACAD
70
0
0
ENDTAB
0
TABLE
2
DIMSTYLE
5
A
100
AcDbSymbolTable
70
1
0
DIMSTYLE
105
201
100
AcDbSymbolTableRecord
100
AcDbDimStyleTableRecord
2
STANDARD
70
0
3

4

5

6

7

40
1.0
41
4.5000000000
42
0.0625
43
0.38
44
0.18
45
0.0
46
0.0
47
0.0500000000
48
0.0500000000
140
3.5000000000
141
0.09
142
0.0
143
25.4
144
1.0000000000
145
0.0
146
1.0000000000
147
0.09
71
1
72
0
73
0
74
0
75
0
76
0
77
1
78
8
170
0
171
2
172
0
173
0
174
0
175
0
176
0
177
0
178
0
270
2
271
2
272
2
273
2
274
2
340
11
275
0
280
0
281
0
282
0
283
1
284
8
285
0
286
0
287
3
288
0
0
DIMSTYLE
105
202
100
AcDbSymbolTableRecord
100
AcDbDimStyleTableRecord
2
DIMSTYLE_1
70
0
3

4

5

6

7

40
1.0
41
4.5000000000
42
0.0625
43
0.38
44
0.18
45
0.0
46
0.0
47
0.0200000000
48
0.0200000000
140
3.5000000000
141
0.09
142
0.0
143
25.4
144
1.0000000000
145
0.0
146
1.0000000000
147
0.09
71
1
72
0
73
0
74
0
75
0
76
0
77
1
78
8
170
0
171
2
172
0
173
0
174
0
175
0
176
0
177
0
178
0
270
2
271
2
272
2
273
2
274
2
340
1FF
275
0
280
0
281
0
282
0
283
1
284
8
285
0
286
0
287
3
288
0
0
DIMSTYLE
105
203
100
AcDbSymbolTableRecord
100
AcDbDimStyleTableRecord
2
DIMSTYLE_2
70
0
3

4

5

6

7

40
1.0
41
4.5000000000
42
0.0625
43
0.38
44
0.18
45
0.0
46
0.0
47
0.0500000000
48
0.0500000000
140
3.5000000000
141
0.09
142
0.0
143
25.4
144
1.0000000000
145
0.0
146
1.0000000000
147
0.09
71
0
72
0
73
0
74
0
75
0
76
0
77
1
78
8
170
0
171
2
172
0
173
0
174
0
175
0
176
0
177
0
178
0
270
2
271
2
272
2
273
2
274
2
340
1FF
275
0
280
0
281
0
282
0
283
1
284
8
285
0
286
0
287
3
288
0
0
DIMSTYLE
105
204
100
AcDbSymbolTableRecord
100
AcDbDimStyleTableRecord
2
DIMSTYLE_3
70
0
3

4

5

6

7

40
1.0
41
4.5000000000
42
0.0625
43
0.38
44
0.18
45
0.0
46
0.0
47
0.1000000000
48
0.1000000000
140
3.5000000000
141
0.09
142
0.0
143
25.4
144
1.0000000000
145
0.0
146
1.0000000000
147
0.09
71
0
72
0
73
1
74
1
75
0
76
0
77
0
78
8
170
0
171
2
172
0
173
0
174
0
175
0
176
0
177
0
178
0
270
2
271
1
272
1
273
2
274
2
340
1FF
275
0
280
0
281
0
282
0
283
1
284
8
285
0
286
0
287
3
288
0
0
DIMSTYLE
105
205
100
AcDbSymbolTableRecord
100
AcDbDimStyleTableRecord
2
DIMSTYLE_4
70
0
3

4

5

6

7

40
1.0
41
4.5000000000
42
0.0625
43
0.38
44
0.18
45
0.0
46
0.0
47
0.0500000000
48
0.0500000000
140
3.5000000000
141
0.09
142
0.0
143
25.4
144
1.0000000000
145
0.0
146
1.0000000000
147
0.09
71
0
72
0
73
0
74
0
75
0
76
0
77
1
78
8
170
0
171
2
172
0
173
0
174
0
175
0
176
0
177
0
178
0
270
2
271
2
272
2
273
2
274
2
340
1FF
275
0
280
0
281
0
282
0
283
1
284
8
285
0
286
0
287
3
288
0
0
ENDTAB
0
TABLE
2
BLOCK_RECORD
5
1
100
AcDbSymbolTable
70
0
0
BLOCK_RECORD
5
1B
100
AcDbSymbolTableRecord
100
AcDbBlockTableRecord
2
*MODEL_SPACE
0
BLOCK_RECORD
5
1C
100
AcDbSymbolTableRecord
100
AcDbBlockTableRecord
2
*PAPER_SPACE
0
BLOCK_RECORD
5
206
100
AcDbSymbolTableRecord
100
AcDbBlockTableRecord
2
N-DES_BL0
0
BLOCK_RECORD
5
207
100
AcDbSymbolTableRecord
100
AcDbBlockTableRecord
2
N-CART_BL1
0
BLOCK_RECORD
5
208
100
AcDbSymbolTableRecord
100
AcDbBlockTableRecord
2
*D0
0
BLOCK_RECORD
5
209
100
AcDbSymbolTableRecord
100
AcDbBlockTableRecord
2
*D1
0
BLOCK_RECORD
5
20A
100
AcDbSymbolTableRecord
100
AcDbBlockTableRecord
2
*D2
0
BLOCK_RECORD
5
20B
100
AcDbSymbolTableRecord
100
AcDbBlockTableRecord
2
*D3
0
BLOCK_RECORD
5
20C
100
AcDbSymbolTableRecord
100
AcDbBlockTableRecord
2
*D4
0
BLOCK_RECORD
5
20D
100
AcDbSymbolTableRecord
100
AcDbBlockTableRecord
2
*D5
0
BLOCK_RECORD
5
20E
100
AcDbSymbolTableRecord
100
AcDbBlockTableRecord
2
*D6
0
BLOCK_RECORD
5
20F
100
AcDbSymbolTableRecord
100
AcDbBlockTableRecord
2
*D7
0
BLOCK_RECORD
5
210
100
AcDbSymbolTableRecord
100
AcDbBlockTableRecord
2
*D8
0
BLOCK_RECORD
5
211
100
AcDbSymbolTableRecord
100
AcDbBlockTableRecord
2
*D9
0
BLOCK_RECORD
5
212
100
AcDbSymbolTableRecord
100
AcDbBlockTableRecord
2
*D10
0
BLOCK_RECORD
5
213
100
AcDbSymbolTableRecord
100
AcDbBlockTableRecord
2
*D11
0
BLOCK_RECORD
5
214
100
AcDbSymbolTableRecord
100
AcDbBlockTableRecord
2
*D12
0
BLOCK_RECORD
5
215
100
AcDbSymbolTableRecord
100
AcDbBlockTableRecord
2
*D13
0
BLOCK_RECORD
5
216
100
AcDbSymbolTableRecord
100
AcDbBlockTableRecord
2
*D14
0
BLOCK_RECORD
5
217
100
AcDbSymbolTableRecord
100
AcDbBlockTableRecord
2
*D15
0
BLOCK_RECORD
5
218
100
AcDbSymbolTableRecord
100
AcDbBlockTableRecord
2
*D16
0
BLOCK_RECORD
5
219
100
AcDbSymbolTableRecord
100
AcDbBlockTableRecord
2
*D17
0
BLOCK_RECORD
5
21A
100
AcDbSymbolTableRecord
100
AcDbBlockTableRecord
2
*D18
0
BLOCK_RECORD
5
21B
100
AcDbSymbolTableRecord
100
AcDbBlockTableRecord
2
*D19
0
BLOCK_RECORD
5
21C
100
AcDbSymbolTableRecord
100
AcDbBlockTableRecord
2
*D20
0
BLOCK_RECORD
5
21D
100
AcDbSymbolTableRecord
100
AcDbBlockTableRecord
2
*D21
0
BLOCK_RECORD
5
21E
100
AcDbSymbolTableRecord
100
AcDbBlockTableRecord
2
*D22
0
BLOCK_RECORD
5
21F
100
AcDbSymbolTableRecord
100
AcDbBlockTableRecord
2
N-CAR_BL2
0
ENDTAB
0
ENDSEC
0
SECTION
2
BLOCKS
0
BLOCK
5
1E
100
AcDbEntity
8
0
100
AcDbBlockBegin
2
*MODEL_SPACE
70
0
10
0.0
20
0.0
30
0.0
3
*MODEL_SPACE
1

0
ENDBLK
5
1F
100
AcDbEntity
8
0
100
AcDbBlockEnd
0
BLOCK
5
20
100
AcDbEntity
8
0
100
AcDbBlockBegin
2
*PAPER_SPACE
70
0
10
0.0
20
0.0
30
0.0
3
*PAPER_SPACE
1

0
ENDBLK
5
21
100
AcDbEntity
8
0
100
AcDbBlockEnd
0
BLOCK
5
220
100
AcDbEntity
8
0
100
AcDbBlockBegin
62
2
6
CONTINUOUS
2
N-DES_BL0
70
64
10
0.0000000000
20
0.0000000000
3
N-DES_BL0
1

0
LINE
5
221
100
AcDbEntity
8
0
100
AcDbLine
62
7
6
CONTINUOUS
10
271.5047785790
20
46.1229811484
11
271.5047785790
21
44.4337905733
0
LINE
5
222
100
AcDbEntity
8
0
100
AcDbLine
62
7
6
CONTINUOUS
10
276.9101884192
20
43.5891952858
11
271.5047785790
21
44.4337905733
0
LINE
5
223
100
AcDbEntity
8
DEFAULT_1
100
AcDbLine
62
2
6
CENTER
10
270.6939671030
20
45.2783858608
11
277.7209998952
21
45.2783858608
0
LINE
5
224
100
AcDbEntity
8
0
100
AcDbLine
62
7
6
CONTINUOUS
10
276.9101884192
20
46.9675764359
11
271.5047785790
21
46.1229811484
0
LINE
5
225
100
AcDbEntity
8
0
100
AcDbLine
62
7
6
CONTINUOUS
10
276.9101884192
20
46.9675764359
11
276.9101884192
21
43.5891952858
0
LINE
5
226
100
AcDbEntity
8
0
100
AcDbLine
62
2
6
CONTINUOUS
10
281.3069357808
20
45.3787237810
11
281.3069357808
21
45.1780479407
0
LINE
5
227
100
AcDbEntity
8
DEFAULT_1
100
AcDbLine
62
2
6
CENTER
10
281.3069357808
20
42.6806079119
11
281.3069357808
21
47.7783879119
0
LINE
5
228
100
AcDbEntity
8
0
100
AcDbLine
62
2
6
CONTINUOUS
10
281.4072737010
20
45.2783858608
11
281.2065978606
21
45.2783858608
0
LINE
5
229
100
AcDbEntity
8
DEFAULT_1
100
AcDbLine
62
2
6
CENTER
10
280.8052461800
20
45.2783858608
11
278.8069337297
21
45.2783858608
0
LINE
5
22A
100
AcDbEntity
8
DEFAULT_1
100
AcDbLine
62
2
6
CENTER
10
281.8086253816
20
45.2783858608
11
283.8069378319
21
45.2783858608
0
CIRCLE
5
22B
100
AcDbEntity
8
0
100
AcDbCircle
62
7
6
CONTINUOUS
10
281.3069357808
20
45.2783858608
40
1.6891905751
0
CIRCLE
5
22C
100
AcDbEntity
8
0
100
AcDbCircle
62
7
6
CONTINUOUS
10
281.3069357808
20
45.2783858608
40
0.8445952875
0
ENDBLK
5
22D
100
AcDbEntity
8
0
100
AcDbBlockEnd
0
BLOCK
5
22E
100
AcDbEntity
8
0
100
AcDbBlockBegin
62
2
6
CONTINUOUS
2
N-CART_BL1
70
64
10
0.0000000000
20
0.0000000000
3
N-CART_BL1
1

0
LINE
5
22F
100
AcDbEntity
8
0
100
AcDbLine
62
7
6
CONTINUOUS
10
299.0041682662
20
54.4975549711
11
133.0041954662
21
54.4975549711
0
LINE
5
230
100
AcDbEntity
8
0
100
AcDbLine
62
7
6
CONTINUOUS
10
299.0041682662
20
12.9975617711
11
133.0041954662
21
12.9975617711
0
LINE
5
231
100
AcDbEntity
8
0
100
AcDbLine
62
7
6
CONTINUOUS
10
299.0041682662
20
54.4975549711
11
299.0041682662
21
12.9975617711
0
LINE
5
232
100
AcDbEntity
8
0
100
AcDbLine
62
7
6
CONTINUOUS
10
133.0041954662
20
54.4975549711
11
133.0041954662
21
12.9975617711
0
LINE
5
233
100
AcDbEntity
8
0
100
AcDbLine
62
7
6
CONTINUOUS
10
299.0041682662
20
49.9975557085
11
133.0041954662
21
49.9975557085
0
LINE
5
234
100
AcDbEntity
8
0
100
AcDbLine
62
7
6
CONTINUOUS
10
253.0041758036
20
22.4975602145
11
253.0041758036
21
12.9975617711
0
LINE
5
235
100
AcDbEntity
8
0
100
AcDbLine
62
7
6
CONTINUOUS
10
299.0041682662
20
22.4975602145
11
253.0041758036
21
22.4975602145
0
ENDBLK
5
236
100
AcDbEntity
8
0
100
AcDbBlockEnd
0
BLOCK
5
237
100
AcDbEntity
8
0
100
AcDbBlockBegin
62
2
6
CONTINUOUS
2
*D0
70
65
10
0.0000000000
20
0.0000000000
3
*D0
1

0
TEXT
5
238
100
AcDbEntity
8
0
100
AcDbText
62
2
6
CONTINUOUS
10
99.3561189344
20
146.9363822654
7
TEXTSTYLE_1
40
3.5000000000
1
32,5
50
90.0000000000
41
0.6291666667
72
0
100
AcDbText
0
TEXT
5
239
100
AcDbEntity
8
0
100
AcDbText
62
2
6
CONTINUOUS
10
99.3561189344
20
155.7447155987
7
TEXTSTYLE_1
40
3.5000000000
1
%%p0,02
50
90.0000000000
41
0.7366666667
72
0
100
AcDbText
0
LINE
5
23A
100
AcDbEntity
8
0
100
AcDbLine
62
2
6
CONTINUOUS
10
144.3660762167
20
174.0410063173
11
97.0311189344
21
174.0410063173
0
LINE
5
23B
100
AcDbEntity
8
0
100
AcDbLine
62
2
6
CONTINUOUS
10
144.3660762167
20
141.5410063173
11
97.0311189344
21
141.5410063173
0
LINE
5
23C
100
AcDbEntity
8
0
100
AcDbLine
62
2
6
CONTINUOUS
10
100.2311189344
20
174.0410063173
11
100.2311189344
21
157.7910063173
0
LINE
5
23D
100
AcDbEntity
8
0
100
AcDbLine
62
2
6
CONTINUOUS
10
100.2311189344
20
141.5410063173
11
100.2311189344
21
157.7910063173
0
SOLID
5
23E
100
AcDbEntity
8
0
100
AcDbTrace
62
2
6
CONTINUOUS
10
101.0311189344
20
169.5410063173
11
100.2311189344
21
174.0410063173
12
99.4311189344
22
169.5410063173
13
99.4311189344
23
169.5410063173
0
SOLID
5
23F
100
AcDbEntity
8
0
100
AcDbTrace
62
2
6
CONTINUOUS
10
99.4311189344
20
146.0410063173
11
100.2311189344
21
141.5410063173
12
101.0311189344
22
146.0410063173
13
101.0311189344
23
146.0410063173
0
ENDBLK
5
240
100
AcDbEntity
8
0
100
AcDbBlockEnd
0
BLOCK
5
241
100
AcDbEntity
8
0
100
AcDbBlockBegin
62
2
6
CONTINUOUS
2
*D1
70
65
10
0.0000000000
20
0.0000000000
3
*D1
1

0
TEXT
5
242
100
AcDbEntity
8
0
100
AcDbText
62
2
6
CONTINUOUS
10
155.2147272940
20
195.1870714563
7
TEXTSTYLE_1
40
3.5000000000
1
=
41
0.4000000000
72
0
100
AcDbText
0
TEXT
5
243
100
AcDbEntity
8
0
100
AcDbText
62
2
6
CONTINUOUS
10
161.7480606274
20
195.1870714563
7
TEXTSTYLE_1
40
3.5000000000
1
=
41
0.4000000000
72
0
100
AcDbText
0
TEXT
5
244
100
AcDbEntity
8
0
100
AcDbText
62
2
6
CONTINUOUS
10
156.6147272940
20
195.1870714563
7
TEXTSTYLE_1
40
3.5000000000
1
36
41
0.7333333333
72
0
100
AcDbText
0
LINE
5
245
100
AcDbEntity
8
0
100
AcDbLine
62
2
6
CONTINUOUS
10
140.8660762167
20
165.1542549713
11
140.8660762167
21
197.5120714563
0
LINE
5
246
100
AcDbEntity
8
0
100
AcDbLine
62
2
6
CONTINUOUS
10
176.8660762167
20
165.1542549713
11
176.8660762167
21
197.5120714563
0
LINE
5
247
100
AcDbEntity
8
0
100
AcDbLine
62
2
6
CONTINUOUS
10
140.8660762167
20
194.3120714563
11
158.8660762167
21
194.3120714563
0
LINE
5
248
100
AcDbEntity
8
0
100
AcDbLine
62
2
6
CONTINUOUS
10
176.8660762167
20
194.3120714563
11
158.8660762167
21
194.3120714563
0
SOLID
5
249
100
AcDbEntity
8
0
100
AcDbTrace
62
2
6
CONTINUOUS
10
145.3660762167
20
195.1120714563
11
140.8660762167
21
194.3120714563
12
145.3660762167
22
193.5120714563
13
145.3660762167
23
193.5120714563
0
SOLID
5
24A
100
AcDbEntity
8
0
100
AcDbTrace
62
2
6
CONTINUOUS
10
172.3660762167
20
193.5120714563
11
176.8660762167
21
194.3120714563
12
172.3660762167
22
195.1120714563
13
172.3660762167
23
195.1120714563
0
ENDBLK
5
24B
100
AcDbEntity
8
0
100
AcDbBlockEnd
0
BLOCK
5
24C
100
AcDbEntity
8
0
100
AcDbBlockBegin
62
2
6
CONTINUOUS
2
*D2
70
65
10
0.0000000000
20
0.0000000000
3
*D2
1

0
TEXT
5
24D
100
AcDbEntity
8
0
100
AcDbText
62
2
6
CONTINUOUS
10
156.1027583678
20
187.3824797901
7
TEXTSTYLE_1
40
3.5000000000
1
=
41
0.4000000000
72
0
100
AcDbText
0
TEXT
5
24E
100
AcDbEntity
8
0
100
AcDbText
62
2
6
CONTINUOUS
10
161.2360917011
20
187.3824797901
7
TEXTSTYLE_1
40
3.5000000000
1
=
41
0.4000000000
72
0
100
AcDbText
0
TEXT
5
24F
100
AcDbEntity
8
0
100
AcDbText
62
2
6
CONTINUOUS
10
157.5027583678
20
187.3824797901
7
TEXTSTYLE_1
40
3.5000000000
1
10
41
0.5333333333
72
0
100
AcDbText
0
LINE
5
250
100
AcDbEntity
8
0
100
AcDbLine
62
2
6
CONTINUOUS
10
153.8660762167
20
175.5410063173
11
153.8660762167
21
189.7074797901
0
LINE
5
251
100
AcDbEntity
8
0
100
AcDbLine
62
2
6
CONTINUOUS
10
163.8660762167
20
175.5410063173
11
163.8660762167
21
178.3512717077
0
LINE
5
252
100
AcDbEntity
8
0
100
AcDbLine
62
2
6
CONTINUOUS
10
163.8660762167
20
185.0385920435
11
163.8660762167
21
189.7074797901
0
LINE
5
253
100
AcDbEntity
8
0
100
AcDbLine
62
2
6
CONTINUOUS
10
153.8660762167
20
186.5074797901
11
151.8660762167
21
186.5074797901
0
LINE
5
254
100
AcDbEntity
8
0
100
AcDbLine
62
2
6
CONTINUOUS
10
151.8660762167
20
186.5074797901
11
158.8660762167
21
186.5074797901
0
LINE
5
255
100
AcDbEntity
8
0
100
AcDbLine
62
2
6
CONTINUOUS
10
163.8660762167
20
186.5074797901
11
165.8660762167
21
186.5074797901
0
LINE
5
256
100
AcDbEntity
8
0
100
AcDbLine
62
2
6
CONTINUOUS
10
165.8660762167
20
186.5074797901
11
158.8660762167
21
186.5074797901
0
SOLID
5
257
100
AcDbEntity
8
0
100
AcDbTrace
62
2
6
CONTINUOUS
10
149.3660762167
20
185.7074797901
11
153.8660762167
21
186.5074797901
12
149.3660762167
22
187.3074797901
13
149.3660762167
23
187.3074797901
0
SOLID
5
258
100
AcDbEntity
8
0
100
AcDbTrace
62
2
6
CONTINUOUS
10
168.3660762167
20
187.3074797901
11
163.8660762167
21
186.5074797901
12
168.3660762167
22
185.7074797901
13
168.3660762167
23
185.7074797901
0
ENDBLK
5
259
100
AcDbEntity
8
0
100
AcDbBlockEnd
0
BLOCK
5
25A
100
AcDbEntity
8
0
100
AcDbBlockBegin
62
2
6
CONTINUOUS
2
*D3
70
65
10
0.0000000000
20
0.0000000000
3
*D3
1

0
TEXT
5
25B
100
AcDbEntity
8
0
100
AcDbText
62
2
6
CONTINUOUS
10
155.3095196195
20
130.9478099013
7
TEXTSTYLE_1
40
3.5000000000
1
=
41
0.4000000000
72
0
100
AcDbText
0
TEXT
5
25C
100
AcDbEntity
8
0
100
AcDbText
62
2
6
CONTINUOUS
10
161.8428529529
20
130.9478099013
7
TEXTSTYLE_1
40
3.5000000000
1
=
41
0.4000000000
72
0
100
AcDbText
0
TEXT
5
25D
100
AcDbEntity
8
0
100
AcDbText
62
2
6
CONTINUOUS
10
156.7095196195
20
130.9478099013
7
TEXTSTYLE_1
40
3.5000000000
1
26
41
0.7333333333
72
0
100
AcDbText
0
LINE
5
25E
100
AcDbEntity
8
0
100
AcDbLine
62
2
6
CONTINUOUS
10
145.8660762167
20
157.1774077310
11
145.8660762167
21
156.0043357452
0
LINE
5
25F
100
AcDbEntity
8
0
100
AcDbLine
62
2
6
CONTINUOUS
10
145.8660762167
20
140.3463977058
11
145.8660762167
21
126.8728099013
0
LINE
5
260
100
AcDbEntity
8
0
100
AcDbLine
62
2
6
CONTINUOUS
10
171.8660762167
20
140.0410063173
11
171.8660762167
21
126.8728099013
0
LINE
5
261
100
AcDbEntity
8
0
100
AcDbLine
62
2
6
CONTINUOUS
10
145.8660762167
20
130.0728099013
11
158.8660762167
21
130.0728099013
0
LINE
5
262
100
AcDbEntity
8
0
100
AcDbLine
62
2
6
CONTINUOUS
10
171.8660762167
20
130.0728099013
11
158.8660762167
21
130.0728099013
0
SOLID
5
263
100
AcDbEntity
8
0
100
AcDbTrace
62
2
6
CONTINUOUS
10
150.3660762167
20
130.8728099013
11
145.8660762167
21
130.0728099013
12
150.3660762167
22
129.2728099013
13
150.3660762167
23
129.2728099013
0
SOLID
5
264
100
AcDbEntity
8
0
100
AcDbTrace
62
2
6
CONTINUOUS
10
167.3660762167
20
129.2728099013
11
171.8660762167
21
130.0728099013
12
167.3660762167
22
130.8728099013
13
167.3660762167
23
130.8728099013
0
ENDBLK
5
265
100
AcDbEntity
8
0
100
AcDbBlockEnd
0
BLOCK
5
266
100
AcDbEntity
8
0
100
AcDbBlockBegin
62
2
6
CONTINUOUS
2
*D4
70
65
10
0.0000000000
20
0.0000000000
3
*D4
1

0
TEXT
5
267
100
AcDbEntity
8
0
100
AcDbText
62
2
6
CONTINUOUS
10
153.7814650353
20
122.4071164253
7
TEXTSTYLE_1
40
3.5000000000
1
=
41
0.4000000000
72
0
100
AcDbText
0
TEXT
5
268
100
AcDbEntity
8
0
100
AcDbText
62
2
6
CONTINUOUS
10
163.9897983687
20
122.4071164253
7
TEXTSTYLE_1
40
3.5000000000
1
=
41
0.4000000000
72
0
100
AcDbText
0
TEXT
5
269
100
AcDbEntity
8
0
100
AcDbText
62
2
6
CONTINUOUS
10
155.1814650353
20
122.4071164253
7
TEXTSTYLE_1
40
3.5000000000
1
28,8
41
0.6291666667
72
0
100
AcDbText
0
LINE
5
26A
100
AcDbEntity
8
0
100
AcDbLine
62
2
6
CONTINUOUS
10
173.2660762167
20
153.7910063173
11
173.2660762167
21
147.1024410361
0
LINE
5
26B
100
AcDbEntity
8
0
100
AcDbLine
62
2
6
CONTINUOUS
10
173.2660762167
20
144.3636876047
11
173.2660762167
21
142.9551858399
0
LINE
5
26C
100
AcDbEntity
8
0
100
AcDbLine
62
2
6
CONTINUOUS
10
173.2660762167
20
139.7469318202
11
173.2660762167
21
118.3321164253
0
LINE
5
26D
100
AcDbEntity
8
0
100
AcDbLine
62
2
6
CONTINUOUS
10
144.4660762167
20
153.7910063173
11
144.4660762167
21
143.7376868203
0
LINE
5
26E
100
AcDbEntity
8
0
100
AcDbLine
62
2
6
CONTINUOUS
10
144.4660762167
20
139.2774312319
11
144.4660762167
21
118.3321164253
0
LINE
5
26F
100
AcDbEntity
8
0
100
AcDbLine
62
2
6
CONTINUOUS
10
173.2660762167
20
121.5321164253
11
158.8660762167
21
121.5321164253
0
LINE
5
270
100
AcDbEntity
8
0
100
AcDbLine
62
2
6
CONTINUOUS
10
144.4660762167
20
121.5321164253
11
158.8660762167
21
121.5321164253
0
SOLID
5
271
100
AcDbEntity
8
0
100
AcDbTrace
62
2
6
CONTINUOUS
10
168.7660762167
20
120.7321164253
11
173.2660762167
21
121.5321164253
12
168.7660762167
22
122.3321164253
13
168.7660762167
23
122.3321164253
0
SOLID
5
272
100
AcDbEntity
8
0
100
AcDbTrace
62
2
6
CONTINUOUS
10
148.9660762167
20
122.3321164253
11
144.4660762167
21
121.5321164253
12
148.9660762167
22
120.7321164253
13
148.9660762167
23
120.7321164253
0
ENDBLK
5
273
100
AcDbEntity
8
0
100
AcDbBlockEnd
0
BLOCK
5
274
100
AcDbEntity
8
0
100
AcDbBlockBegin
62
2
6
CONTINUOUS
2
*D5
70
65
10
0.0000000000
20
0.0000000000
3
*D5
1

0
TEXT
5
275
100
AcDbEntity
8
0
100
AcDbText
62
2
6
CONTINUOUS
10
199.6636657134
20
128.1846934546
7
TEXTSTYLE_1
40
3.5000000000
1
3,8
50
90.0000000000
41
0.5944444444
72
0
100
AcDbText
0
LINE
5
276
100
AcDbEntity
8
0
100
AcDbLine
62
2
6
CONTINUOUS
10
173.3660762167
20
141.5410063173
11
203.7386657134
21
141.5410063173
0
LINE
5
277
100
AcDbEntity
8
0
100
AcDbLine
62
2
6
CONTINUOUS
10
160.3660762167
20
145.3410063173
11
183.9716542880
21
145.3410063173
0
LINE
5
278
100
AcDbEntity
8
0
100
AcDbLine
62
2
6
CONTINUOUS
10
193.9545568380
20
145.3410063173
11
203.7386657134
21
145.3410063173
0
LINE
5
279
100
AcDbEntity
8
0
100
AcDbLine
62
2
6
CONTINUOUS
10
200.5386657134
20
141.5410063173
11
200.5386657134
21
128.1846934546
0
LINE
5
27A
100
AcDbEntity
8
0
100
AcDbLine
62
2
6
CONTINUOUS
10
200.5386657134
20
128.1846934546
11
200.5386657134
21
143.4410063173
0
LINE
5
27B
100
AcDbEntity
8
0
100
AcDbLine
62
2
6
CONTINUOUS
10
200.5386657134
20
145.3410063173
11
200.5386657134
21
147.3410063173
0
LINE
5
27C
100
AcDbEntity
8
0
100
AcDbLine
62
2
6
CONTINUOUS
10
200.5386657134
20
147.3410063173
11
200.5386657134
21
143.4410063173
0
SOLID
5
27D
100
AcDbEntity
8
0
100
AcDbTrace
62
2
6
CONTINUOUS
10
201.3386657134
20
137.0410063173
11
200.5386657134
21
141.5410063173
12
199.7386657134
22
137.0410063173
13
199.7386657134
23
137.0410063173
0
POLYLINE
5
27E
100
AcDbEntity
8
0
100
AcDb2dPolyline
62
2
6
CONTINUOUS
66
1
70
0
0
VERTEX
5
27F
100
AcDbEntity
8
0
100
AcDbVertex
62
2
6
CONTINUOUS
100
AcDb2dVertex
10
200.1386657134
20
145.3410063173
40
0.8000000000
41
0.8000000000
42
1.0000000000
0
VERTEX
5
280
100
AcDbEntity
8
0
100
AcDbVertex
62
2
6
CONTINUOUS
100
AcDb2dVertex
10
200.9386657134
20
145.3410063173
40
0.8000000000
41
0.8000000000
42
1.0000000000
0
VERTEX
5
281
100
AcDbEntity
8
0
100
AcDbVertex
62
2
6
CONTINUOUS
100
AcDb2dVertex
10
200.1386657134
20
145.3410063173
40
0.8000000000
41
0.8000000000
0
SEQEND
5
282
100
AcDbEntity
8
0
0
ENDBLK
5
283
100
AcDbEntity
8
0
100
AcDbBlockEnd
0
BLOCK
5
284
100
AcDbEntity
8
0
100
AcDbBlockBegin
62
2
6
CONTINUOUS
2
*D6
70
65
10
0.0000000000
20
0.0000000000
3
*D6
1

0
TEXT
5
285
100
AcDbEntity
8
0
100
AcDbText
62
2
6
CONTINUOUS
10
199.6636657134
20
148.9351322753
7
TEXTSTYLE_1
40
3.5000000000
1
16,2
50
90.0000000000
41
0.5291666667
72
0
100
AcDbText
0
LINE
5
286
100
AcDbEntity
8
0
100
AcDbLine
62
2
6
CONTINUOUS
10
195.8097865154
20
145.3410063173
11
203.7386657134
21
145.3410063173
0
LINE
5
287
100
AcDbEntity
8
0
100
AcDbLine
62
2
6
CONTINUOUS
10
181.0160762167
20
161.5410063173
11
203.7386657134
21
161.5410063173
0
LINE
5
288
100
AcDbEntity
8
0
100
AcDbLine
62
2
6
CONTINUOUS
10
200.5386657134
20
145.3410063173
11
200.5386657134
21
143.3410063173
0
LINE
5
289
100
AcDbEntity
8
0
100
AcDbLine
62
2
6
CONTINUOUS
10
200.5386657134
20
143.3410063173
11
200.5386657134
21
153.4410063173
0
LINE
5
28A
100
AcDbEntity
8
0
100
AcDbLine
62
2
6
CONTINUOUS
10
200.5386657134
20
161.5410063173
11
200.5386657134
21
163.5410063173
0
LINE
5
28B
100
AcDbEntity
8
0
100
AcDbLine
62
2
6
CONTINUOUS
10
200.5386657134
20
163.5410063173
11
200.5386657134
21
153.4410063173
0
POLYLINE
5
28C
100
AcDbEntity
8
0
100
AcDb2dPolyline
62
2
6
CONTINUOUS
66
1
70
0
0
VERTEX
5
28D
100
AcDbEntity
8
0
100
AcDbVertex
62
2
6
CONTINUOUS
100
AcDb2dVertex
10
200.1386657134
20
145.3410063173
40
0.8000000000
41
0.8000000000
42
1.0000000000
0
VERTEX
5
28E
100
AcDbEntity
8
0
100
AcDbVertex
62
2
6
CONTINUOUS
100
AcDb2dVertex
10
200.9386657134
20
145.3410063173
40
0.8000000000
41
0.8000000000
42
1.0000000000
0
VERTEX
5
28F
100
AcDbEntity
8
0
100
AcDbVertex
62
2
6
CONTINUOUS
100
AcDb2dVertex
10
200.1386657134
20
145.3410063173
40
0.8000000000
41
0.8000000000
0
SEQEND
5
290
100
AcDbEntity
8
0
0
SOLID
5
291
100
AcDbEntity
8
0
100
AcDbTrace
62
2
6
CONTINUOUS
10
199.7386657134
20
166.0410063173
11
200.5386657134
21
161.5410063173
12
201.3386657134
22
166.0410063173
13
201.3386657134
23
166.0410063173
0
ENDBLK
5
292
100
AcDbEntity
8
0
100
AcDbBlockEnd
0
BLOCK
5
293
100
AcDbEntity
8
0
100
AcDbBlockBegin
62
2
6
CONTINUOUS
2
*D7
70
65
10
0.0000000000
20
0.0000000000
3
*D7
1

0
TEXT
5
294
100
AcDbEntity
8
0
100
AcDbText
62
2
6
CONTINUOUS
10
189.9772944662
20
146.0607803263
7
TEXTSTYLE_1
40
3.5000000000
1
16,5
50
90.0000000000
41
0.5291666667
72
0
100
AcDbText
0
LINE
5
295
100
AcDbEntity
8
0
100
AcDbLine
62
2
6
CONTINUOUS
10
171.3660762167
20
158.0410063173
11
194.0522944662
21
158.0410063173
0
LINE
5
296
100
AcDbEntity
8
0
100
AcDbLine
62
2
6
CONTINUOUS
10
173.3660762167
20
141.5410063173
11
194.0522944662
21
141.5410063173
0
LINE
5
297
100
AcDbEntity
8
0
100
AcDbLine
62
2
6
CONTINUOUS
10
190.8522944662
20
158.0410063173
11
190.8522944662
21
149.7910063173
0
LINE
5
298
100
AcDbEntity
8
0
100
AcDbLine
62
2
6
CONTINUOUS
10
190.8522944662
20
141.5410063173
11
190.8522944662
21
149.7910063173
0
SOLID
5
299
100
AcDbEntity
8
0
100
AcDbTrace
62
2
6
CONTINUOUS
10
191.6522944662
20
153.5410063173
11
190.8522944662
21
158.0410063173
12
190.0522944662
22
153.5410063173
13
190.0522944662
23
153.5410063173
0
SOLID
5
29A
100
AcDbEntity
8
0
100
AcDbTrace
62
2
6
CONTINUOUS
10
190.0522944662
20
146.0410063173
11
190.8522944662
21
141.5410063173
12
191.6522944662
22
146.0410063173
13
191.6522944662
23
146.0410063173
0
ENDBLK
5
29B
100
AcDbEntity
8
0
100
AcDbBlockEnd
0
BLOCK
5
29C
100
AcDbEntity
8
0
100
AcDbBlockBegin
62
2
6
CONTINUOUS
2
*D8
70
65
10
0.0000000000
20
0.0000000000
3
*D8
1

0
TEXT
5
29D
100
AcDbEntity
8
0
100
AcDbText
62
2
6
CONTINUOUS
10
110.3415668034
20
147.3009037059
7
TEXTSTYLE_1
40
3.5000000000
1
15
50
90.0000000000
41
0.5333333333
72
0
100
AcDbText
0
LINE
5
29E
100
AcDbEntity
8
0
100
AcDbLine
62
2
6
CONTINUOUS
10
144.3660762167
20
141.5410063173
11
108.0165668034
21
141.5410063173
0
LINE
5
29F
100
AcDbEntity
8
0
100
AcDbLine
62
2
6
CONTINUOUS
10
146.8850927594
20
156.5410063173
11
108.0165668034
21
156.5410063173
0
LINE
5
2A0
100
AcDbEntity
8
0
100
AcDbLine
62
2
6
CONTINUOUS
10
111.2165668034
20
141.5410063173
11
111.2165668034
21
149.0410063173
0
LINE
5
2A1
100
AcDbEntity
8
0
100
AcDbLine
62
2
6
CONTINUOUS
10
111.2165668034
20
156.5410063173
11
111.2165668034
21
149.0410063173
0
SOLID
5
2A2
100
AcDbEntity
8
0
100
AcDbTrace
62
2
6
CONTINUOUS
10
110.4165668034
20
146.0410063173
11
111.2165668034
21
141.5410063173
12
112.0165668034
22
146.0410063173
13
112.0165668034
23
146.0410063173
0
SOLID
5
2A3
100
AcDbEntity
8
0
100
AcDbTrace
62
2
6
CONTINUOUS
10
112.0165668034
20
152.0410063173
11
111.2165668034
21
156.5410063173
12
110.4165668034
22
152.0410063173
13
110.4165668034
23
152.0410063173
0
ENDBLK
5
2A4
100
AcDbEntity
8
0
100
AcDbBlockEnd
0
BLOCK
5
2A5
100
AcDbEntity
8
0
100
AcDbBlockBegin
62
2
6
CONTINUOUS
2
*D9
70
65
10
0.0000000000
20
0.0000000000
3
*D9
1

0
TEXT
5
2A6
100
AcDbEntity
8
0
100
AcDbText
62
2
6
CONTINUOUS
10
119.7330831267
20
180.4150894328
7
TEXTSTYLE_1
40
3.5000000000
1
30%%d
41
0.7111111111
72
0
100
AcDbText
0
LINE
5
2A7
100
AcDbEntity
8
0
100
AcDbLine
62
2
6
CONTINUOUS
10
144.9242539714
20
174.0410063173
11
128.2866293940
21
174.0410063173
0
LINE
5
2A8
100
AcDbEntity
8
0
100
AcDbLine
62
2
6
CONTINUOUS
10
140.1626463435
20
163.2481295447
11
132.3822097405
21
158.7560923776
0
ARC
5
2A9
100
AcDbEntity
8
0
100
AcDbCircle
62
2
6
CONTINUOUS
10
158.8564572734
20
174.0410063173
40
27.3698278794
100
AcDbArc
50
162.7329208860
51
210.0000000000
0
SOLID
5
2AA
100
AcDbEntity
8
0
100
AcDbTrace
62
2
6
CONTINUOUS
10
131.4866293940
20
174.0410063173
11
132.6534440769
21
169.6218951514
12
131.0588474666
22
169.4905115505
13
131.0588474666
23
169.4905115505
0
SOLID
5
2AB
100
AcDbEntity
8
0
100
AcDbTrace
62
2
6
CONTINUOUS
10
135.1534910327
20
160.3560923776
11
132.5077736328
21
164.0830454817
12
133.9544266066
22
164.7665622507
13
133.9544266066
23
164.7665622507
0
ENDBLK
5
2AC
100
AcDbEntity
8
0
100
AcDbBlockEnd
0
BLOCK
5
2AD
100
AcDbEntity
8
0
100
AcDbBlockBegin
62
2
6
CONTINUOUS
2
*D10
70
65
10
0.0000000000
20
0.0000000000
3
*D10
1

0
TEXT
5
2AE
100
AcDbEntity
8
0
100
AcDbText
62
2
6
CONTINUOUS
10
110.3415668034
20
179.8919849919
7
TEXTSTYLE_1
40
3.5000000000
1
7,5
50
90.0000000000
41
0.5944444444
72
0
100
AcDbText
0
LINE
5
2AF
100
AcDbEntity
8
0
100
AcDbLine
62
2
6
CONTINUOUS
10
119.7494211672
20
174.0410063173
11
108.0165668034
21
174.0410063173
0
LINE
5
2B0
100
AcDbEntity
8
0
100
AcDbLine
62
2
6
CONTINUOUS
10
144.3660762167
20
166.5410063173
11
142.0400436143
21
166.5410063173
0
LINE
5
2B1
100
AcDbEntity
8
0
100
AcDbLine
62
2
6
CONTINUOUS
10
139.1996872914
20
166.5410063173
11
108.0165668034
21
166.5410063173
0
LINE
5
2B2
100
AcDbEntity
8
0
100
AcDbLine
62
2
6
CONTINUOUS
10
111.2165668034
20
174.0410063173
11
111.2165668034
21
186.1336516586
0
LINE
5
2B3
100
AcDbEntity
8
0
100
AcDbLine
62
2
6
CONTINUOUS
10
111.2165668034
20
186.1336516586
11
111.2165668034
21
170.2910063173
0
LINE
5
2B4
100
AcDbEntity
8
0
100
AcDbLine
62
2
6
CONTINUOUS
10
111.2165668034
20
166.5410063173
11
111.2165668034
21
164.5410063173
0
LINE
5
2B5
100
AcDbEntity
8
0
100
AcDbLine
62
2
6
CONTINUOUS
10
111.2165668034
20
164.5410063173
11
111.2165668034
21
170.2910063173
0
SOLID
5
2B6
100
AcDbEntity
8
0
100
AcDbTrace
62
2
6
CONTINUOUS
10
110.4165668034
20
178.5410063173
11
111.2165668034
21
174.0410063173
12
112.0165668034
22
178.5410063173
13
112.0165668034
23
178.5410063173
0
SOLID
5
2B7
100
AcDbEntity
8
0
100
AcDbTrace
62
2
6
CONTINUOUS
10
112.0165668034
20
162.0410063173
11
111.2165668034
21
166.5410063173
12
110.4165668034
22
162.0410063173
13
110.4165668034
23
162.0410063173
0
ENDBLK
5
2B8
100
AcDbEntity
8
0
100
AcDbBlockEnd
0
BLOCK
5
2B9
100
AcDbEntity
8
0
100
AcDbBlockBegin
62
2
6
CONTINUOUS
2
*D11
70
65
10
0.0000000000
20
0.0000000000
3
*D11
1

0
TEXT
5
2BA
100
AcDbEntity
8
0
100
AcDbText
62
2
6
CONTINUOUS
10
207.0916256045
20
155.0730121734
7
TEXTSTYLE_1
40
3.5000000000
1
30%%d
41
0.7111111111
72
0
100
AcDbText
0
LINE
5
2BB
100
AcDbEntity
8
0
100
AcDbLine
62
2
6
CONTINUOUS
10
172.9867030035
20
141.5410063173
11
215.7988597610
21
141.5410063173
0
LINE
5
2BC
100
AcDbEntity
8
0
100
AcDbLine
62
2
6
CONTINUOUS
10
177.5849093518
20
159.8427761673
11
188.0771682829
21
165.9004846855
0
LINE
5
2BD
100
AcDbEntity
8
0
100
AcDbLine
62
2
6
CONTINUOUS
10
196.1166366491
20
170.5420739109
11
206.4322207115
21
176.4977791462
0
ARC
5
2BE
100
AcDbEntity
8
0
100
AcDbCircle
62
2
6
CONTINUOUS
10
145.8853141031
20
141.5410063173
40
66.7135456578
100
AcDbArc
50
0.0000000000
51
10.1721251973
0
ARC
5
2BF
100
AcDbEntity
8
0
100
AcDbCircle
62
2
6
CONTINUOUS
10
145.8853141031
20
141.5410063173
40
66.7135456578
100
AcDbArc
50
16.3516676397
51
30.0000000000
0
SOLID
5
2C0
100
AcDbEntity
8
0
100
AcDbTrace
62
2
6
CONTINUOUS
10
212.5988597610
20
141.5410063173
11
211.6475751940
21
146.0114713571
12
213.2466653105
22
146.0654231825
13
213.2466653105
23
146.0654231825
0
SOLID
5
2C1
100
AcDbEntity
8
0
100
AcDbTrace
62
2
6
CONTINUOUS
10
203.6609394194
20
174.8977791462
11
206.4841639146
21
171.3034219784
12
205.0723353381
22
170.5506005715
13
205.0723353381
23
170.5506005715
0
ENDBLK
5
2C2
100
AcDbEntity
8
0
100
AcDbBlockEnd
0
BLOCK
5
2C3
100
AcDbEntity
8
0
100
AcDbBlockBegin
62
2
6
CONTINUOUS
2
*D12
70
65
10
0.0000000000
20
0.0000000000
3
*D12
1

0
TEXT
5
2C4
100
AcDbEntity
8
0
100
AcDbText
62
2
6
CONTINUOUS
10
133.0986707874
20
146.6343080607
7
TEXTSTYLE_1
40
3.5000000000
1
4
50
43.8662466855
41
0.8000000000
72
0
100
AcDbText
0
TEXT
5
2C5
100
AcDbEntity
8
0
100
AcDbText
62
2
6
CONTINUOUS
10
135.1173573150
20
148.5746442954
7
TEXTSTYLE_1
40
3.5000000000
1
R
50
43.8662466855
41
0.7666666667
72
0
100
AcDbText
0
TEXT
5
2C6
100
AcDbEntity
8
0
100
AcDbText
62
2
6
CONTINUOUS
10
137.0519319039
20
150.4341331869
7
TEXTSTYLE_1
40
3.5000000000
1
3
50
43.8662466855
41
0.7333333333
72
0
100
AcDbText
0
LINE
5
2C7
100
AcDbEntity
8
0
100
AcDbLine
62
2
6
CONTINUOUS
10
145.0289546391
20
156.8878871897
11
133.7050258608
21
146.0034685209
0
SOLID
5
2C8
100
AcDbEntity
8
0
100
AcDbTrace
62
2
6
CONTINUOUS
10
142.3390187868
20
153.1927220904
11
145.0289546391
21
156.8878871897
12
141.2302552242
22
154.3462572490
13
141.2302552242
23
154.3462572490
0
ENDBLK
5
2C9
100
AcDbEntity
8
0
100
AcDbBlockEnd
0
BLOCK
5
2CA
100
AcDbEntity
8
0
100
AcDbBlockBegin
62
2
6
CONTINUOUS
2
*D13
70
65
10
0.0000000000
20
0.0000000000
3
*D13
1

0
TEXT
5
2CB
100
AcDbEntity
8
0
100
AcDbText
62
2
6
CONTINUOUS
10
189.9772944662
20
169.7850559155
7
TEXTSTYLE_1
40
3.5000000000
1
6
50
90.0000000000
41
0.7333333333
72
0
100
AcDbText
0
LINE
5
2CC
100
AcDbEntity
8
0
100
AcDbLine
62
2
6
CONTINUOUS
10
162.3660762167
20
168.0410063173
11
175.8155851062
21
168.0410063173
0
LINE
5
2CD
100
AcDbEntity
8
0
100
AcDbLine
62
2
6
CONTINUOUS
10
178.0384726633
20
168.0410063173
11
194.0522944662
21
168.0410063173
0
LINE
5
2CE
100
AcDbEntity
8
0
100
AcDbLine
62
2
6
CONTINUOUS
10
173.3660762167
20
174.0410063173
11
175.8773319828
21
174.0410063173
0
LINE
5
2CF
100
AcDbEntity
8
0
100
AcDbLine
62
2
6
CONTINUOUS
10
178.6559414291
20
174.0410063173
11
194.0522944662
21
174.0410063173
0
LINE
5
2D0
100
AcDbEntity
8
0
100
AcDbLine
62
2
6
CONTINUOUS
10
190.8522944662
20
168.0410063173
11
190.8522944662
21
166.0410063173
0
LINE
5
2D1
100
AcDbEntity
8
0
100
AcDbLine
62
2
6
CONTINUOUS
10
190.8522944662
20
166.0410063173
11
190.8522944662
21
171.0410063173
0
LINE
5
2D2
100
AcDbEntity
8
0
100
AcDbLine
62
2
6
CONTINUOUS
10
190.8522944662
20
174.0410063173
11
190.8522944662
21
176.0410063173
0
LINE
5
2D3
100
AcDbEntity
8
0
100
AcDbLine
62
2
6
CONTINUOUS
10
190.8522944662
20
176.0410063173
11
190.8522944662
21
171.0410063173
0
SOLID
5
2D4
100
AcDbEntity
8
0
100
AcDbTrace
62
2
6
CONTINUOUS
10
191.6522944662
20
163.5410063173
11
190.8522944662
21
168.0410063173
12
190.0522944662
22
163.5410063173
13
190.0522944662
23
163.5410063173
0
SOLID
5
2D5
100
AcDbEntity
8
0
100
AcDbTrace
62
2
6
CONTINUOUS
10
190.0522944662
20
178.5410063173
11
190.8522944662
21
174.0410063173
12
191.6522944662
22
178.5410063173
13
191.6522944662
23
178.5410063173
0
ENDBLK
5
2D6
100
AcDbEntity
8
0
100
AcDbBlockEnd
0
BLOCK
5
2D7
100
AcDbEntity
8
0
100
AcDbBlockBegin
62
2
6
CONTINUOUS
2
*D14
70
65
10
0.0000000000
20
0.0000000000
3
*D14
1

0
TEXT
5
2D8
100
AcDbEntity
8
0
100
AcDbText
62
2
6
CONTINUOUS
10
158.4270744961
20
174.6082720409
7
TEXTSTYLE_1
40
3.5000000000
1
2
50
53.3803075076
41
0.7333333333
72
0
100
AcDbText
0
TEXT
5
2D9
100
AcDbEntity
8
0
100
AcDbText
62
2
6
CONTINUOUS
10
159.9580931318
20
176.6683108063
7
TEXTSTYLE_1
40
3.5000000000
1
R
50
53.3803075076
41
0.7666666667
72
0
100
AcDbText
0
TEXT
5
2DA
100
AcDbEntity
8
0
100
AcDbText
62
2
6
CONTINUOUS
10
161.5587035237
20
178.8219876974
7
TEXTSTYLE_1
40
3.5000000000
1
3
50
53.3803075076
41
0.7333333333
72
0
100
AcDbText
0
LINE
5
2DB
100
AcDbEntity
8
0
100
AcDbLine
62
2
6
CONTINUOUS
10
155.0765739152
20
168.6331687993
11
163.7920081022
21
180.3600882914
0
SOLID
5
2DC
100
AcDbEntity
8
0
100
AcDbTrace
62
2
6
CONTINUOUS
10
157.1187373626
20
172.7221256900
11
155.0765739152
21
168.6331687993
12
158.4029173722
22
171.7677244625
13
158.4029173722
23
171.7677244625
0
ENDBLK
5
2DD
100
AcDbEntity
8
0
100
AcDbBlockEnd
0
BLOCK
5
2DE
100
AcDbEntity
8
0
100
AcDbBlockBegin
62
2
6
CONTINUOUS
2
*D15
70
65
10
0.0000000000
20
0.0000000000
3
*D15
1

0
TEXT
5
2DF
100
AcDbEntity
8
0
100
AcDbText
62
2
6
CONTINUOUS
10
155.7349101127
20
86.0277214352
7
TEXTSTYLE_1
40
3.5000000000
1
=
41
0.4000000000
72
0
100
AcDbText
0
TEXT
5
2E0
100
AcDbEntity
8
0
100
AcDbText
62
2
6
CONTINUOUS
10
160.8682434461
20
86.0277214352
7
TEXTSTYLE_1
40
3.5000000000
1
=
41
0.4000000000
72
0
100
AcDbText
0
TEXT
5
2E1
100
AcDbEntity
8
0
100
AcDbText
62
2
6
CONTINUOUS
10
157.1349101127
20
86.0277214352
7
TEXTSTYLE_1
40
3.5000000000
1
18
41
0.5333333333
72
0
100
AcDbText
0
LINE
5
2E2
100
AcDbEntity
8
0
100
AcDbLine
62
2
6
CONTINUOUS
10
149.8660762167
20
92.3989384676
11
149.8660762167
21
81.9527214352
0
LINE
5
2E3
100
AcDbEntity
8
0
100
AcDbLine
62
2
6
CONTINUOUS
10
167.8660762167
20
92.3989384676
11
167.8660762167
21
81.9527214352
0
LINE
5
2E4
100
AcDbEntity
8
0
100
AcDbLine
62
2
6
CONTINUOUS
10
149.8660762167
20
85.1527214352
11
158.8660762167
21
85.1527214352
0
LINE
5
2E5
100
AcDbEntity
8
0
100
AcDbLine
62
2
6
CONTINUOUS
10
167.8660762167
20
85.1527214352
11
158.8660762167
21
85.1527214352
0
SOLID
5
2E6
100
AcDbEntity
8
0
100
AcDbTrace
62
2
6
CONTINUOUS
10
154.3660762167
20
85.9527214352
11
149.8660762167
21
85.1527214352
12
154.3660762167
22
84.3527214352
13
154.3660762167
23
84.3527214352
0
SOLID
5
2E7
100
AcDbEntity
8
0
100
AcDbTrace
62
2
6
CONTINUOUS
10
163.3660762167
20
84.3527214352
11
167.8660762167
21
85.1527214352
12
163.3660762167
22
85.9527214352
13
163.3660762167
23
85.9527214352
0
ENDBLK
5
2E8
100
AcDbEntity
8
0
100
AcDbBlockEnd
0
BLOCK
5
2E9
100
AcDbEntity
8
0
100
AcDbBlockBegin
62
2
6
CONTINUOUS
2
*D16
70
65
10
0.0000000000
20
0.0000000000
3
*D16
1

0
TEXT
5
2EA
100
AcDbEntity
8
0
100
AcDbText
62
2
6
CONTINUOUS
10
128.5358991466
20
95.7039790497
7
TEXTSTYLE_1
40
3.5000000000
1
=
50
90.0000000000
41
0.4000000000
72
0
100
AcDbText
0
TEXT
5
2EB
100
AcDbEntity
8
0
100
AcDbText
62
2
6
CONTINUOUS
10
128.5358991466
20
99.6706457164
7
TEXTSTYLE_1
40
3.5000000000
1
=
50
90.0000000000
41
0.4000000000
72
0
100
AcDbText
0
TEXT
5
2EC
100
AcDbEntity
8
0
100
AcDbText
62
2
6
CONTINUOUS
10
128.5358991466
20
97.1039790497
7
TEXTSTYLE_1
40
3.5000000000
1
7
50
90.0000000000
41
0.7333333333
72
0
100
AcDbText
0
LINE
5
2ED
100
AcDbEntity
8
0
100
AcDbLine
62
2
6
CONTINUOUS
10
139.3660762167
20
94.8941488777
11
126.2108991466
21
94.8941488777
0
LINE
5
2EE
100
AcDbEntity
8
0
100
AcDbLine
62
2
6
CONTINUOUS
10
139.3660762167
20
101.8941488777
11
126.2108991466
21
101.8941488777
0
LINE
5
2EF
100
AcDbEntity
8
0
100
AcDbLine
62
2
6
CONTINUOUS
10
129.4108991466
20
94.8941488777
11
129.4108991466
21
92.8941488777
0
LINE
5
2F0
100
AcDbEntity
8
0
100
AcDbLine
62
2
6
CONTINUOUS
10
129.4108991466
20
92.8941488777
11
129.4108991466
21
98.3941488777
0
LINE
5
2F1
100
AcDbEntity
8
0
100
AcDbLine
62
2
6
CONTINUOUS
10
129.4108991466
20
101.8941488777
11
129.4108991466
21
103.8941488777
0
LINE
5
2F2
100
AcDbEntity
8
0
100
AcDbLine
62
2
6
CONTINUOUS
10
129.4108991466
20
103.8941488777
11
129.4108991466
21
98.3941488777
0
SOLID
5
2F3
100
AcDbEntity
8
0
100
AcDbTrace
62
2
6
CONTINUOUS
10
130.2108991466
20
90.3941488777
11
129.4108991466
21
94.8941488777
12
128.6108991466
22
90.3941488777
13
128.6108991466
23
90.3941488777
0
SOLID
5
2F4
100
AcDbEntity
8
0
100
AcDbTrace
62
2
6
CONTINUOUS
10
128.6108991466
20
106.3941488777
11
129.4108991466
21
101.8941488777
12
130.2108991466
22
106.3941488777
13
130.2108991466
23
106.3941488777
0
ENDBLK
5
2F5
100
AcDbEntity
8
0
100
AcDbBlockEnd
0
BLOCK
5
2F6
100
AcDbEntity
8
0
100
AcDbBlockBegin
62
2
6
CONTINUOUS
2
*D17
70
65
10
0.0000000000
20
0.0000000000
3
*D17
1

0
TEXT
5
2F7
100
AcDbEntity
8
0
100
AcDbText
62
2
6
CONTINUOUS
10
44.6464298703
20
167.0942144386
7
TEXTSTYLE_1
40
3.5000000000
1
10
50
90.0000000000
41
0.5333333333
72
0
100
AcDbText
0
LINE
5
2F8
100
AcDbEntity
8
0
100
AcDbLine
62
2
6
CONTINUOUS
10
54.5058286582
20
164.0410063173
11
42.3214298703
21
164.0410063173
0
LINE
5
2F9
100
AcDbEntity
8
0
100
AcDbLine
62
2
6
CONTINUOUS
10
53.0183490463
20
174.0410063173
11
42.3214298703
21
174.0410063173
0
LINE
5
2FA
100
AcDbEntity
8
0
100
AcDbLine
62
2
6
CONTINUOUS
10
45.5214298703
20
164.0410063173
11
45.5214298703
21
162.0410063173
0
LINE
5
2FB
100
AcDbEntity
8
0
100
AcDbLine
62
2
6
CONTINUOUS
10
45.5214298703
20
162.0410063173
11
45.5214298703
21
169.0410063173
0
LINE
5
2FC
100
AcDbEntity
8
0
100
AcDbLine
62
2
6
CONTINUOUS
10
45.5214298703
20
174.0410063173
11
45.5214298703
21
176.0410063173
0
LINE
5
2FD
100
AcDbEntity
8
0
100
AcDbLine
62
2
6
CONTINUOUS
10
45.5214298703
20
176.0410063173
11
45.5214298703
21
169.0410063173
0
SOLID
5
2FE
100
AcDbEntity
8
0
100
AcDbTrace
62
2
6
CONTINUOUS
10
46.3214298703
20
159.5410063173
11
45.5214298703
21
164.0410063173
12
44.7214298703
22
159.5410063173
13
44.7214298703
23
159.5410063173
0
SOLID
5
2FF
100
AcDbEntity
8
0
100
AcDbTrace
62
2
6
CONTINUOUS
10
44.7214298703
20
178.5410063173
11
45.5214298703
21
174.0410063173
12
46.3214298703
22
178.5410063173
13
46.3214298703
23
178.5410063173
0
ENDBLK
5
300
100
AcDbEntity
8
0
100
AcDbBlockEnd
0
BLOCK
5
301
100
AcDbEntity
8
0
100
AcDbBlockBegin
62
2
6
CONTINUOUS
2
*D18
70
65
10
0.0000000000
20
0.0000000000
3
*D18
1

0
TEXT
5
302
100
AcDbEntity
8
0
100
AcDbText
62
2
6
CONTINUOUS
10
44.7906721738
20
144.8132926213
7
TEXTSTYLE_1
40
3.5000000000
1
10
50
90.0000000000
41
0.5333333333
72
0
100
AcDbText
0
LINE
5
303
100
AcDbEntity
8
0
100
AcDbLine
62
2
6
CONTINUOUS
10
54.5058286582
20
151.5410063173
11
42.4656721738
21
151.5410063173
0
LINE
5
304
100
AcDbEntity
8
0
100
AcDbLine
62
2
6
CONTINUOUS
10
53.0183490463
20
141.5410063173
11
42.4656721738
21
141.5410063173
0
LINE
5
305
100
AcDbEntity
8
0
100
AcDbLine
62
2
6
CONTINUOUS
10
45.6656721738
20
151.5410063173
11
45.6656721738
21
153.5410063173
0
LINE
5
306
100
AcDbEntity
8
0
100
AcDbLine
62
2
6
CONTINUOUS
10
45.6656721738
20
153.5410063173
11
45.6656721738
21
146.5410063173
0
LINE
5
307
100
AcDbEntity
8
0
100
AcDbLine
62
2
6
CONTINUOUS
10
45.6656721738
20
141.5410063173
11
45.6656721738
21
139.5410063173
0
LINE
5
308
100
AcDbEntity
8
0
100
AcDbLine
62
2
6
CONTINUOUS
10
45.6656721738
20
139.5410063173
11
45.6656721738
21
146.5410063173
0
SOLID
5
309
100
AcDbEntity
8
0
100
AcDbTrace
62
2
6
CONTINUOUS
10
44.8656721738
20
156.0410063173
11
45.6656721738
21
151.5410063173
12
46.4656721738
22
156.0410063173
13
46.4656721738
23
156.0410063173
0
SOLID
5
30A
100
AcDbEntity
8
0
100
AcDbTrace
62
2
6
CONTINUOUS
10
46.4656721738
20
137.0410063173
11
45.6656721738
21
141.5410063173
12
44.8656721738
22
137.0410063173
13
44.8656721738
23
137.0410063173
0
ENDBLK
5
30B
100
AcDbEntity
8
0
100
AcDbBlockEnd
0
BLOCK
5
30C
100
AcDbEntity
8
0
100
AcDbBlockBegin
62
2
6
CONTINUOUS
2
*D19
70
65
10
0.0000000000
20
0.0000000000
3
*D19
1

0
TEXT
5
30D
100
AcDbEntity
8
0
100
AcDbText
62
2
6
CONTINUOUS
10
65.6356940301
20
185.6722287196
7
TEXTSTYLE_1
40
3.5000000000
1
2M
41
0.8333333333
72
0
100
AcDbText
0
TEXT
5
30E
100
AcDbEntity
8
0
100
AcDbText
62
2
6
CONTINUOUS
10
71.4690273635
20
185.6722287196
7
TEXTSTYLE_1
40
3.5000000000
1
3
41
0.7333333333
72
0
100
AcDbText
0
LINE
5
30F
100
AcDbEntity
8
0
100
AcDbLine
62
2
6
CONTINUOUS
10
56.0058286582
20
175.5410063173
11
56.0058286582
21
187.9972287196
0
LINE
5
310
100
AcDbEntity
8
0
100
AcDbLine
62
2
6
CONTINUOUS
10
59.0058286582
20
175.5410063173
11
59.0058286582
21
187.9972287196
0
LINE
5
311
100
AcDbEntity
8
0
100
AcDbLine
62
2
6
CONTINUOUS
10
56.0058286582
20
184.7972287196
11
54.0058286582
21
184.7972287196
0
LINE
5
312
100
AcDbEntity
8
0
100
AcDbLine
62
2
6
CONTINUOUS
10
54.0058286582
20
184.7972287196
11
57.5058286582
21
184.7972287196
0
LINE
5
313
100
AcDbEntity
8
0
100
AcDbLine
62
2
6
CONTINUOUS
10
59.0058286582
20
184.7972287196
11
74.0356940301
21
184.7972287196
0
LINE
5
314
100
AcDbEntity
8
0
100
AcDbLine
62
2
6
CONTINUOUS
10
74.0356940301
20
184.7972287196
11
57.5058286582
21
184.7972287196
0
SOLID
5
315
100
AcDbEntity
8
0
100
AcDbTrace
62
2
6
CONTINUOUS
10
51.5058286582
20
183.9972287196
11
56.0058286582
21
184.7972287196
12
51.5058286582
22
185.5972287196
13
51.5058286582
23
185.5972287196
0
SOLID
5
316
100
AcDbEntity
8
0
100
AcDbTrace
62
2
6
CONTINUOUS
10
63.5058286582
20
185.5972287196
11
59.0058286582
21
184.7972287196
12
63.5058286582
22
183.9972287196
13
63.5058286582
23
183.9972287196
0
ENDBLK
5
317
100
AcDbEntity
8
0
100
AcDbBlockEnd
0
BLOCK
5
318
100
AcDbEntity
8
0
100
AcDbBlockBegin
62
2
6
CONTINUOUS
2
*D20
70
65
10
0.0000000000
20
0.0000000000
3
*D20
1

0
TEXT
5
319
100
AcDbEntity
8
0
100
AcDbText
62
2
6
CONTINUOUS
10
65.1180619377
20
131.8684470226
7
TEXTSTYLE_1
40
3.5000000000
1
2M
41
0.8333333333
72
0
100
AcDbText
0
TEXT
5
31A
100
AcDbEntity
8
0
100
AcDbText
62
2
6
CONTINUOUS
10
70.9513952710
20
131.8684470226
7
TEXTSTYLE_1
40
3.5000000000
1
3
41
0.7333333333
72
0
100
AcDbText
0
LINE
5
31B
100
AcDbEntity
8
0
100
AcDbLine
62
2
6
CONTINUOUS
10
56.0058286582
20
140.0410063173
11
56.0058286582
21
127.7934470226
0
LINE
5
31C
100
AcDbEntity
8
0
100
AcDbLine
62
2
6
CONTINUOUS
10
59.0058286582
20
140.0410063173
11
59.0058286582
21
127.7934470226
0
LINE
5
31D
100
AcDbEntity
8
0
100
AcDbLine
62
2
6
CONTINUOUS
10
56.0058286582
20
130.9934470226
11
54.0058286582
21
130.9934470226
0
LINE
5
31E
100
AcDbEntity
8
0
100
AcDbLine
62
2
6
CONTINUOUS
10
54.0058286582
20
130.9934470226
11
57.5058286582
21
130.9934470226
0
LINE
5
31F
100
AcDbEntity
8
0
100
AcDbLine
62
2
6
CONTINUOUS
10
59.0058286582
20
130.9934470226
11
73.5180619377
21
130.9934470226
0
LINE
5
320
100
AcDbEntity
8
0
100
AcDbLine
62
2
6
CONTINUOUS
10
73.5180619377
20
130.9934470226
11
57.5058286582
21
130.9934470226
0
SOLID
5
321
100
AcDbEntity
8
0
100
AcDbTrace
62
2
6
CONTINUOUS
10
51.5058286582
20
130.1934470226
11
56.0058286582
21
130.9934470226
12
51.5058286582
22
131.7934470226
13
51.5058286582
23
131.7934470226
0
SOLID
5
322
100
AcDbEntity
8
0
100
AcDbTrace
62
2
6
CONTINUOUS
10
63.5058286582
20
131.7934470226
11
59.0058286582
21
130.9934470226
12
63.5058286582
22
130.1934470226
13
63.5058286582
23
130.1934470226
0
ENDBLK
5
323
100
AcDbEntity
8
0
100
AcDbBlockEnd
0
BLOCK
5
324
100
AcDbEntity
8
0
100
AcDbBlockBegin
62
2
6
CONTINUOUS
2
*D21
70
65
10
0.0000000000
20
0.0000000000
3
*D21
1

0
TEXT
5
325
100
AcDbEntity
8
0
100
AcDbText
62
2
6
CONTINUOUS
10
242.8115895874
20
130.0331407890
7
TEXTSTYLE_1
40
3.5000000000
1
3M
50
90.0000000000
41
0.8333333333
72
0
100
AcDbText
0
TEXT
5
326
100
AcDbEntity
8
0
100
AcDbText
62
2
6
CONTINUOUS
10
242.8115895874
20
135.8664741224
7
TEXTSTYLE_1
40
3.5000000000
1
3
50
90.0000000000
41
0.7333333333
72
0
100
AcDbText
0
LINE
5
327
100
AcDbEntity
8
0
100
AcDbLine
62
2
6
CONTINUOUS
10
251.5658141430
20
146.8410063173
11
240.4865895874
21
146.8410063173
0
LINE
5
328
100
AcDbEntity
8
0
100
AcDbLine
62
2
6
CONTINUOUS
10
251.5658141430
20
143.8410063173
11
240.4865895874
21
143.8410063173
0
LINE
5
329
100
AcDbEntity
8
0
100
AcDbLine
62
2
6
CONTINUOUS
10
243.6865895874
20
146.8410063173
11
243.6865895874
21
148.8410063173
0
LINE
5
32A
100
AcDbEntity
8
0
100
AcDbLine
62
2
6
CONTINUOUS
10
243.6865895874
20
148.8410063173
11
243.6865895874
21
145.3410063173
0
LINE
5
32B
100
AcDbEntity
8
0
100
AcDbLine
62
2
6
CONTINUOUS
10
243.6865895874
20
143.8410063173
11
243.6865895874
21
130.0331407890
0
LINE
5
32C
100
AcDbEntity
8
0
100
AcDbLine
62
2
6
CONTINUOUS
10
243.6865895874
20
130.0331407890
11
243.6865895874
21
145.3410063173
0
SOLID
5
32D
100
AcDbEntity
8
0
100
AcDbTrace
62
2
6
CONTINUOUS
10
242.8865895874
20
151.3410063173
11
243.6865895874
21
146.8410063173
12
244.4865895874
22
151.3410063173
13
244.4865895874
23
151.3410063173
0
SOLID
5
32E
100
AcDbEntity
8
0
100
AcDbTrace
62
2
6
CONTINUOUS
10
244.4865895874
20
139.3410063173
11
243.6865895874
21
143.8410063173
12
242.8865895874
22
139.3410063173
13
242.8865895874
23
139.3410063173
0
ENDBLK
5
32F
100
AcDbEntity
8
0
100
AcDbBlockEnd
0
BLOCK
5
330
100
AcDbEntity
8
0
100
AcDbBlockBegin
62
2
6
CONTINUOUS
2
*D22
70
65
10
0.0000000000
20
0.0000000000
3
*D22
1

0
TEXT
5
331
100
AcDbEntity
8
0
100
AcDbText
62
2
6
CONTINUOUS
10
274.3058497703
20
153.8895956837
7
TEXTSTYLE_1
40
3.5000000000
1
%%c
50
90.0000000000
41
1.3333333333
72
0
100
AcDbText
0
TEXT
5
332
100
AcDbEntity
8
0
100
AcDbText
62
2
6
CONTINUOUS
10
274.3058497703
20
158.5562623504
7
TEXTSTYLE_1
40
3.5000000000
1
12
50
90.0000000000
41
0.5333333333
72
0
100
AcDbText
0
LINE
5
333
100
AcDbEntity
8
0
100
AcDbLine
62
2
6
CONTINUOUS
10
261.5658141430
20
152.0410063173
11
278.3808497703
21
152.0410063173
0
LINE
5
334
100
AcDbEntity
8
0
100
AcDbLine
62
2
6
CONTINUOUS
10
261.5658141430
20
164.0410063173
11
278.3808497703
21
164.0410063173
0
LINE
5
335
100
AcDbEntity
8
0
100
AcDbLine
62
2
6
CONTINUOUS
10
275.1808497703
20
152.0410063173
11
275.1808497703
21
150.0410063173
0
LINE
5
336
100
AcDbEntity
8
0
100
AcDbLine
62
2
6
CONTINUOUS
10
275.1808497703
20
150.0410063173
11
275.1808497703
21
158.0410063173
0
LINE
5
337
100
AcDbEntity
8
0
100
AcDbLine
62
2
6
CONTINUOUS
10
275.1808497703
20
164.0410063173
11
275.1808497703
21
166.0410063173
0
LINE
5
338
100
AcDbEntity
8
0
100
AcDbLine
62
2
6
CONTINUOUS
10
275.1808497703
20
166.0410063173
11
275.1808497703
21
158.0410063173
0
SOLID
5
339
100
AcDbEntity
8
0
100
AcDbTrace
62
2
6
CONTINUOUS
10
275.9808497703
20
147.5410063173
11
275.1808497703
21
152.0410063173
12
274.3808497703
22
147.5410063173
13
274.3808497703
23
147.5410063173
0
SOLID
5
33A
100
AcDbEntity
8
0
100
AcDbTrace
62
2
6
CONTINUOUS
10
274.3808497703
20
168.5410063173
11
275.1808497703
21
164.0410063173
12
275.9808497703
22
168.5410063173
13
275.9808497703
23
168.5410063173
0
ENDBLK
5
33B
100
AcDbEntity
8
0
100
AcDbBlockEnd
0
BLOCK
5
33C
100
AcDbEntity
8
0
100
AcDbBlockBegin
62
2
6
CONTINUOUS
2
N-CAR_BL2
70
64
10
0.0000000000
20
0.0000000000
3
N-CAR_BL2
1

0
TEXT
5
33D
100
AcDbEntity
8
0
100
AcDbText
62
2
6
CONTINUOUS
10
150.2781265471
20
39.3644921694
7
STANDARD
40
2.9999987760
1
3,2
41
0.5000000000
72
0
100
AcDbText
0
TEXT
5
33E
100
AcDbEntity
8
0
100
AcDbText
62
2
6
CONTINUOUS
10
165.3027244827
20
39.3424461184
7
STANDARD
40
2.9999987760
1
.
41
0.5000000000
72
0
100
AcDbText
0
TEXT
5
33F
100
AcDbEntity
8
0
100
AcDbText
62
2
6
CONTINUOUS
10
175.3007839161
20
39.3251476144
7
STANDARD
40
2.9999987760
1
.
41
0.5000000000
72
0
100
AcDbText
0
TEXT
5
340
100
AcDbEntity
8
0
100
AcDbText
62
2
6
CONTINUOUS
10
185.3491949996
20
39.3509905674
7
STANDARD
40
2.9999987760
1
.
41
0.5000000000
72
0
100
AcDbText
0
LINE
5
341
100
AcDbEntity
8
0
100
AcDbLine
62
7
6
CONTINUOUS
10
195.4243347030
20
42.2076872654
11
197.4320194806
21
42.2076872654
0
LINE
5
342
100
AcDbEntity
8
0
100
AcDbLine
62
7
6
CONTINUOUS
10
197.4320194806
20
42.2076872654
11
197.4320194806
21
32.2076913454
0
LINE
5
343
100
AcDbEntity
8
0
100
AcDbLine
62
7
6
CONTINUOUS
10
195.4243347030
20
32.2076913454
11
197.4320194806
21
32.2076913454
0
LINE
5
344
100
AcDbEntity
8
0
100
AcDbLine
62
7
6
CONTINUOUS
10
195.0166051975
20
40.3730062071
11
191.9826244603
21
40.3730062071
0
LINE
5
345
100
AcDbEntity
8
0
100
AcDbLine
62
7
6
CONTINUOUS
10
191.9826244603
20
40.3730062071
11
189.6167435345
21
33.2753634297
0
LINE
5
346
100
AcDbEntity
8
0
100
AcDbLine
62
7
6
CONTINUOUS
10
189.6167435345
20
33.2753634297
11
187.2747233162
21
38.3852257240
0
LINE
5
347
100
AcDbEntity
8
0
100
AcDbLine
62
7
6
CONTINUOUS
10
175.0166133575
20
40.3730062071
11
171.9826326202
21
40.3730062071
0
LINE
5
348
100
AcDbEntity
8
0
100
AcDbLine
62
7
6
CONTINUOUS
10
171.9826326202
20
40.3730062071
11
169.6167516945
21
33.2753634297
0
LINE
5
349
100
AcDbEntity
8
0
100
AcDbLine
62
7
6
CONTINUOUS
10
169.6167516945
20
33.2753634297
11
167.2747314762
21
38.3852257240
0
LINE
5
34A
100
AcDbEntity
8
0
100
AcDbLine
62
7
6
CONTINUOUS
10
185.0166092775
20
40.3730062071
11
181.9826285403
21
40.3730062071
0
LINE
5
34B
100
AcDbEntity
8
0
100
AcDbLine
62
7
6
CONTINUOUS
10
181.9826285403
20
40.3730062071
11
179.6167476145
21
33.2753634297
0
LINE
5
34C
100
AcDbEntity
8
0
100
AcDbLine
62
7
6
CONTINUOUS
10
179.6167476145
20
33.2753634297
11
177.2747273962
21
38.3852257240
0
LINE
5
34D
100
AcDbEntity
8
0
100
AcDbLine
62
7
6
CONTINUOUS
10
162.4320337605
20
42.2076872654
11
164.8277012948
21
42.2076872654
0
LINE
5
34E
100
AcDbEntity
8
0
100
AcDbLine
62
7
6
CONTINUOUS
10
162.4320337605
20
42.2076872654
11
162.4320337605
21
32.2076913454
0
LINE
5
34F
100
AcDbEntity
8
0
100
AcDbLine
62
7
6
CONTINUOUS
10
162.4320337605
20
32.2076913454
11
164.8277012948
21
32.2076913454
0
LINE
5
350
100
AcDbEntity
8
0
100
AcDbLine
62
7
6
CONTINUOUS
10
160.0166194775
20
40.3730062071
11
156.9826387402
21
40.3730062071
0
LINE
5
351
100
AcDbEntity
8
0
100
AcDbLine
62
7
6
CONTINUOUS
10
156.9826387402
20
40.3730062071
11
154.6167578144
21
33.2753634297
0
LINE
5
352
100
AcDbEntity
8
0
100
AcDbLine
62
7
6
CONTINUOUS
10
154.6167578144
20
33.2753634297
11
152.2747375962
21
38.3852257240
0
ARC
5
353
100
AcDbEntity
8
0
100
AcDbCircle
62
7
6
CONTINUOUS
10
147.0845760888
20
38.0843246593
40
2.4999989800
100
AcDbArc
50
177.5591686478
51
2.4408313522
0
ARC
5
354
100
AcDbEntity
8
0
100
AcDbCircle
62
7
6
CONTINUOUS
10
142.0845781287
20
38.0843246593
40
2.4999989800
100
AcDbArc
50
0.0000000000
51
177.5591686478
0
ENDBLK
5
355
100
AcDbEntity
8
0
100
AcDbBlockEnd
0
ENDSEC
0
SECTION
2
ENTITIES
0
TEXT
5
356
100
AcDbEntity
8
0
100
AcDbText
62
2
6
CONTINUOUS
10
289.9260027481
20
9.9313254789
7
STANDARD
40
2.0000000000
1
22/96a
41
0.8000000000
72
0
100
AcDbText
0
INSERT
5
357
100
AcDbEntity
8
0
100
AcDbBlockReference
62
2
6
CONTINUOUS
2
N-DES_BL0
10
0.0000000000
20
0.0000000000
0
INSERT
5
358
100
AcDbEntity
8
0
100
AcDbBlockReference
62
2
6
CONTINUOUS
2
N-CART_BL1
10
0.0000000000
20
0.0000000000
0
SOLID
5
359
100
AcDbEntity
8
0
100
AcDbTrace
62
7
6
CONTINUOUS
10
158.8660762167
20
114.6701959368
11
153.8660762167
21
113.4201959368
12
153.8660762167
22
115.9201959368
13
153.8660762167
23
115.9201959368
0
TEXT
5
35A
100
AcDbEntity
8
0
100
AcDbText
62
7
6
CONTINUOUS
10
148.6474078360
20
109.4201959368
7
TEXTSTYLE_1
40
3.5000000000
1
A
41
0.8000000000
72
0
100
AcDbText
0
SOLID
5
35B
100
AcDbEntity
8
0
100
AcDbTrace
62
7
6
CONTINUOUS
10
158.8660762167
20
203.3087332822
11
153.8660762167
21
202.0587332822
12
153.8660762167
22
204.5587332822
13
153.8660762167
23
204.5587332822
0
TEXT
5
35C
100
AcDbEntity
8
0
100
AcDbText
62
7
6
CONTINUOUS
10
148.6474078360
20
205.0587332822
7
TEXTSTYLE_1
40
3.5000000000
1
A
41
0.8000000000
72
0
100
AcDbText
0
SOLID
5
35D
100
AcDbEntity
8
0
100
AcDbTrace
62
7
6
CONTINUOUS
10
167.8660762167
20
203.3320410907
11
172.8660762167
21
204.5820410907
12
172.8660762167
22
202.0820410907
13
172.8660762167
23
202.0820410907
0
TEXT
5
35E
100
AcDbEntity
8
0
100
AcDbText
62
7
6
CONTINUOUS
10
173.7697799646
20
205.0820410907
7
TEXTSTYLE_1
40
3.5000000000
1
B
41
0.7333333333
72
0
100
AcDbText
0
SOLID
5
35F
100
AcDbEntity
8
0
100
AcDbTrace
62
7
6
CONTINUOUS
10
167.8660762167
20
114.5131108415
11
172.8660762167
21
115.7631108415
12
172.8660762167
22
113.2631108415
13
172.8660762167
23
113.2631108415
0
TEXT
5
360
100
AcDbEntity
8
0
100
AcDbText
62
7
6
CONTINUOUS
10
173.7697799646
20
109.2631108415
7
TEXTSTYLE_1
40
3.5000000000
1
B
41
0.7333333333
72
0
100
AcDbText
0
DIMENSION
5
361
100
AcDbEntity
8
0
100
AcDbDimension
62
2
6
CONTINUOUS
2
*D0
10
100.2311189344
20
141.5410063173
11
97.6061189344
21
157.7863822654
70
160
3
DIMSTYLE_1
100
AcDbAlignedDimension
13
144.3660762167
23
174.0410063173
14
144.3660762167
24
141.5410063173
50
270.000000
100
AcDbRotatedDimension
0
DIMENSION
5
362
100
AcDbEntity
8
0
100
AcDbDimension
62
2
6
CONTINUOUS
2
*D1
10
176.8660762167
20
194.3120714563
11
159.1813939607
21
196.9370714563
70
160
1
=<>=
3
DIMSTYLE_2
100
AcDbAlignedDimension
13
140.8660762167
23
165.1542549713
14
176.8660762167
24
165.1542549713
100
AcDbRotatedDimension
0
DIMENSION
5
363
100
AcDbEntity
8
0
100
AcDbDimension
62
2
6
CONTINUOUS
2
*D2
10
163.8660762167
20
186.5074797901
11
159.3694250345
21
189.1324797901
70
160
1
=<>=
3
DIMSTYLE_2
100
AcDbAlignedDimension
13
153.8660762167
23
175.5410063173
14
163.8660762167
24
175.5410063173
100
AcDbRotatedDimension
0
DIMENSION
5
364
100
AcDbEntity
8
0
100
AcDbDimension
62
2
6
CONTINUOUS
2
*D3
10
171.8660762167
20
130.0728099013
11
159.2761862862
21
132.6978099013
70
160
1
=<>=
3
DIMSTYLE_2
100
AcDbAlignedDimension
13
145.8660762167
23
157.1774077310
14
171.8660762167
24
140.0410063173
100
AcDbRotatedDimension
0
DIMENSION
5
365
100
AcDbEntity
8
0
100
AcDbDimension
62
2
6
CONTINUOUS
2
*D4
10
144.4660762167
20
121.5321164253
11
159.5856317020
21
124.1571164253
70
160
1
=<>=
3
DIMSTYLE_2
100
AcDbAlignedDimension
13
173.2660762167
23
153.7910063173
14
144.4660762167
24
153.7910063173
50
180.000000
100
AcDbRotatedDimension
0
DIMENSION
5
366
100
AcDbEntity
8
0
100
AcDbDimension
62
2
6
CONTINUOUS
2
*D5
10
200.5386657134
20
145.3410063173
11
197.9136657134
21
131.3055267879
70
160
3
DIMSTYLE_2
100
AcDbAlignedDimension
13
173.3660762167
23
141.5410063173
14
160.3660762167
24
145.3410063173
50
90.000000
100
AcDbRotatedDimension
0
DIMENSION
5
367
100
AcDbEntity
8
0
100
AcDbDimension
62
2
6
CONTINUOUS
2
*D6
10
200.5386657134
20
161.5410063173
11
197.9136657134
21
152.6392989419
70
160
3
DIMSTYLE_2
100
AcDbAlignedDimension
13
195.8097865154
23
145.3410063173
14
181.0160762167
24
161.5410063173
50
90.000000
100
AcDbRotatedDimension
0
DIMENSION
5
368
100
AcDbEntity
8
0
100
AcDbDimension
62
2
6
CONTINUOUS
2
*D7
10
190.8522944662
20
141.5410063173
11
188.2272944662
21
149.7649469930
70
160
3
DIMSTYLE_2
100
AcDbAlignedDimension
13
171.3660762167
23
158.0410063173
14
173.3660762167
24
141.5410063173
50
270.000000
100
AcDbRotatedDimension
0
DIMENSION
5
369
100
AcDbEntity
8
0
100
AcDbDimension
62
2
6
CONTINUOUS
2
*D8
10
111.2165668034
20
156.5410063173
11
108.5915668034
21
149.1675703726
70
160
3
DIMSTYLE_2
100
AcDbAlignedDimension
13
144.3660762167
23
141.5410063173
14
146.8850927594
24
156.5410063173
50
90.000000
100
AcDbRotatedDimension
0
DIMENSION
5
36A
100
AcDbEntity
8
0
100
AcDbDimension
62
2
6
CONTINUOUS
2
*D9
10
140.1626463435
20
163.2481295447
11
123.4664164600
21
182.1650894328
70
162
3
DIMSTYLE_3
100
AcDb2LineAngularDimension
13
144.9242539714
23
174.0410063173
14
128.2866293940
24
174.0410063173
15
132.3822097405
25
158.7560923776
16
132.4192336636
26
166.9571736009
0
DIMENSION
5
36B
100
AcDbEntity
8
0
100
AcDbDimension
62
2
6
CONTINUOUS
2
*D10
10
111.2165668034
20
166.5410063173
11
108.5915668034
21
183.0128183252
70
160
3
DIMSTYLE_2
100
AcDbAlignedDimension
13
119.7494211672
23
174.0410063173
14
144.3660762167
24
166.5410063173
50
270.000000
100
AcDbRotatedDimension
0
DIMENSION
5
36C
100
AcDbEntity
8
0
100
AcDbDimension
62
2
6
CONTINUOUS
2
*D11
10
177.5849093518
20
159.8427761673
11
210.8249589378
21
156.8230121734
70
162
3
DIMSTYLE_3
100
AcDb2LineAngularDimension
13
172.9867030035
23
141.5410063173
14
215.7988597610
24
141.5410063173
15
206.4322207115
25
176.4977791462
16
210.3256508174
26
158.8077424998
0
DIMENSION
5
36D
100
AcDbEntity
8
0
100
AcDbDimension
62
2
6
CONTINUOUS
2
*D12
10
142.8660762167
20
154.8089555097
11
134.7878225242
21
150.6852204778
70
164
1
4<>
3
DIMSTYLE_4
100
AcDbRadialDimension
15
145.0289546391
25
156.8878871897
0
DIMENSION
5
36E
100
AcDbEntity
8
0
100
AcDbDimension
62
2
6
CONTINUOUS
2
*D13
10
190.8522944662
20
174.0410063173
11
188.2272944662
21
171.0683892488
70
160
3
DIMSTYLE_2
100
AcDbAlignedDimension
13
162.3660762167
23
168.0410063173
14
173.3660762167
24
174.0410063173
50
90.000000
100
AcDbRotatedDimension
0
DIMENSION
5
36F
100
AcDbEntity
8
0
100
AcDbDimension
62
2
6
CONTINUOUS
2
*D14
10
156.8660762167
20
171.0410063173
11
159.3538264423
21
178.7890255944
70
164
1
2<>
3
DIMSTYLE_4
100
AcDbRadialDimension
15
155.0765739152
25
168.6331687993
0
DIMENSION
5
370
100
AcDbEntity
8
0
100
AcDbDimension
62
2
6
CONTINUOUS
2
*D15
10
167.8660762167
20
85.1527214352
11
159.0015767794
21
87.7777214352
70
160
1
=<>=
3
DIMSTYLE_2
100
AcDbAlignedDimension
13
149.8660762167
23
92.3989384676
14
167.8660762167
24
92.3989384676
100
AcDbRotatedDimension
0
DIMENSION
5
371
100
AcDbEntity
8
0
100
AcDbDimension
62
2
6
CONTINUOUS
2
*D16
10
129.4108991466
20
101.8941488777
11
126.7858991466
21
98.3873123831
70
160
1
=<>=
3
DIMSTYLE_2
100
AcDbAlignedDimension
13
139.3660762167
23
94.8941488777
14
139.3660762167
24
101.8941488777
50
90.000000
100
AcDbRotatedDimension
0
DIMENSION
5
372
100
AcDbEntity
8
0
100
AcDbDimension
62
2
6
CONTINUOUS
2
*D17
10
45.5214298703
20
174.0410063173
11
42.8964298703
21
168.9608811053
70
160
3
DIMSTYLE_2
100
AcDbAlignedDimension
13
54.5058286582
23
164.0410063173
14
53.0183490463
24
174.0410063173
50
90.000000
100
AcDbRotatedDimension
0
DIMENSION
5
373
100
AcDbEntity
8
0
100
AcDbDimension
62
2
6
CONTINUOUS
2
*D18
10
45.6656721738
20
141.5410063173
11
43.0406721738
21
146.6799592879
70
160
3
DIMSTYLE_2
100
AcDbAlignedDimension
13
54.5058286582
23
151.5410063173
14
53.0183490463
24
141.5410063173
50
270.000000
100
AcDbRotatedDimension
0
DIMENSION
5
374
100
AcDbEntity
8
0
100
AcDbDimension
62
2
6
CONTINUOUS
2
*D19
10
59.0058286582
20
184.7972287196
11
69.8356940301
21
187.4222287196
70
160
1
2M<>
3
DIMSTYLE_2
100
AcDbAlignedDimension
13
56.0058286582
23
175.5410063173
14
59.0058286582
24
175.5410063173
100
AcDbRotatedDimension
0
DIMENSION
5
375
100
AcDbEntity
8
0
100
AcDbDimension
62
2
6
CONTINUOUS
2
*D20
10
59.0058286582
20
130.9934470226
11
69.3180619377
21
133.6184470226
70
160
1
2M<>
3
DIMSTYLE_2
100
AcDbAlignedDimension
13
56.0058286582
23
140.0410063173
14
59.0058286582
24
140.0410063173
100
AcDbRotatedDimension
0
DIMENSION
5
376
100
AcDbEntity
8
0
100
AcDbDimension
62
2
6
CONTINUOUS
2
*D21
10
243.6865895874
20
143.8410063173
11
241.0615895874
21
134.2331407890
70
160
1
3M<>
3
DIMSTYLE_2
100
AcDbAlignedDimension
13
251.5658141430
23
146.8410063173
14
251.5658141430
24
143.8410063173
50
270.000000
100
AcDbRotatedDimension
0
DIMENSION
5
377
100
AcDbEntity
8
0
100
AcDbDimension
62
2
6
CONTINUOUS
2
*D22
10
275.1808497703
20
164.0410063173
11
272.5558497703
21
158.0895956837
70
160
1
%%c<>
3
DIMSTYLE_2
100
AcDbAlignedDimension
13
261.5658141430
23
152.0410063173
14
261.5658141430
24
164.0410063173
50
90.000000
100
AcDbRotatedDimension
0
LINE
5
378
100
AcDbEntity
8
0
100
AcDbLine
62
2
6
CONTINUOUS
10
133.0031754241
20
76.9983765268
11
299.0031754241
21
76.9983765268
0
LINE
5
379
100
AcDbEntity
8
0
100
AcDbLine
62
2
6
CONTINUOUS
10
133.0031754241
20
76.9983765268
11
133.0031754241
21
12.9983765268
0
LINE
5
37A
100
AcDbEntity
8
0
100
AcDbLine
62
2
6
CONTINUOUS
10
133.0031754241
20
72.4983765268
11
299.0031754241
21
72.4983765268
0
LINE
5
37B
100
AcDbEntity
8
0
100
AcDbLine
62
2
6
CONTINUOUS
10
133.0031754241
20
67.9983765268
11
299.0031754241
21
67.9983765268
0
LINE
5
37C
100
AcDbEntity
8
0
100
AcDbLine
62
2
6
CONTINUOUS
10
133.0031754241
20
63.4983765268
11
299.0031754241
21
63.4983765268
0
LINE
5
37D
100
AcDbEntity
8
0
100
AcDbLine
62
2
6
CONTINUOUS
10
133.0031754241
20
58.9983765268
11
299.0031754241
21
58.9983765268
0
LINE
5
37E
100
AcDbEntity
8
0
100
AcDbLine
62
2
6
CONTINUOUS
10
133.0031754241
20
54.4983765268
11
299.0031754241
21
54.4983765268
0
LINE
5
37F
100
AcDbEntity
8
0
100
AcDbLine
62
2
6
CONTINUOUS
10
133.0031754241
20
49.9983765268
11
299.0031754241
21
49.9983765268
0
LINE
5
380
100
AcDbEntity
8
0
100
AcDbLine
62
2
6
CONTINUOUS
10
253.0031754241
20
40.9983765268
11
299.0031754241
21
40.9983765268
0
LINE
5
381
100
AcDbEntity
8
0
100
AcDbLine
62
2
6
CONTINUOUS
10
133.0031754241
20
30.4983765268
11
299.0031754241
21
30.4983765268
0
LINE
5
382
100
AcDbEntity
8
0
100
AcDbLine
62
2
6
CONTINUOUS
10
133.0031754241
20
22.4983765268
11
299.0031754241
21
22.4983765268
0
LINE
5
383
100
AcDbEntity
8
0
100
AcDbLine
62
2
6
CONTINUOUS
10
133.0031754241
20
12.9983765268
11
299.0031754241
21
12.9983765268
0
LINE
5
384
100
AcDbEntity
8
0
100
AcDbLine
62
2
6
CONTINUOUS
10
148.0031754241
20
76.9983765268
11
148.0031754241
21
49.9983765268
0
LINE
5
385
100
AcDbEntity
8
0
100
AcDbLine
62
2
6
CONTINUOUS
10
163.0031754241
20
76.9983765268
11
163.0031754241
21
49.9983765268
0
LINE
5
386
100
AcDbEntity
8
0
100
AcDbLine
62
2
6
CONTINUOUS
10
173.0031754241
20
30.4983765268
11
173.0031754241
21
22.4983765268
0
LINE
5
387
100
AcDbEntity
8
0
100
AcDbLine
62
2
6
CONTINUOUS
10
178.0031754241
20
76.9983765268
11
178.0031754241
21
49.9983765268
0
LINE
5
388
100
AcDbEntity
8
0
100
AcDbLine
62
2
6
CONTINUOUS
10
193.0031754241
20
76.9983765268
11
193.0031754241
21
49.9983765268
0
LINE
5
389
100
AcDbEntity
8
0
100
AcDbLine
62
2
6
CONTINUOUS
10
213.0031754241
20
30.4983765268
11
213.0031754241
21
22.4983765268
0
LINE
5
38A
100
AcDbEntity
8
0
100
AcDbLine
62
2
6
CONTINUOUS
10
253.0031754241
20
49.9983765268
11
253.0031754241
21
12.9983765268
0
LINE
5
38B
100
AcDbEntity
8
0
100
AcDbLine
62
2
6
CONTINUOUS
10
279.0031754241
20
40.9983765268
11
279.0031754241
21
30.4983765268
0
LINE
5
38C
100
AcDbEntity
8
0
100
AcDbLine
62
2
6
CONTINUOUS
10
299.0031754241
20
76.9983765268
11
299.0031754241
21
12.9983765268
0
TEXT
5
38D
100
AcDbEntity
8
0
100
AcDbText
62
2
6
CONTINUOUS
10
139.7031754241
20
73.7483765268
7
STANDARD
40
2.0000000000
1
D
41
0.8000000000
72
1
11
140.5031754241
21
73.7483765268
100
AcDbText
0
TEXT
5
38E
100
AcDbEntity
8
0
100
AcDbText
62
2
6
CONTINUOUS
10
139.7031754241
20
69.2483765268
7
STANDARD
40
2.0000000000
1
C
41
0.8000000000
72
1
11
140.5031754241
21
69.2483765268
100
AcDbText
0
TEXT
5
38F
100
AcDbEntity
8
0
100
AcDbText
62
2
6
CONTINUOUS
10
139.7031754241
20
64.7483765268
7
STANDARD
40
2.0000000000
1
B
41
0.8000000000
72
1
11
140.5031754241
21
64.7483765268
100
AcDbText
0
TEXT
5
390
100
AcDbEntity
8
0
100
AcDbText
62
2
6
CONTINUOUS
10
139.7031754241
20
60.2483765268
7
STANDARD
40
2.0000000000
1
A
41
0.8000000000
72
1
11
140.5031754241
21
60.2483765268
100
AcDbText
0
TEXT
5
391
100
AcDbEntity
8
0
100
AcDbText
62
2
6
CONTINUOUS
10
169.7031754241
20
60.2483765268
7
STANDARD
40
2.0000000000
1
 
41
0.8000000000
72
1
11
170.5031754241
21
60.2483765268
100
AcDbText
0
TEXT
5
392
100
AcDbEntity
8
0
100
AcDbText
62
2
6
CONTINUOUS
10
184.7031754241
20
60.2483765268
7
STANDARD
40
2.0000000000
1
 
41
0.8000000000
72
1
11
185.5031754241
21
60.2483765268
100
AcDbText
0
TEXT
5
393
100
AcDbEntity
8
0
100
AcDbText
62
2
6
CONTINUOUS
10
137.3031754241
20
55.7483765268
7
STANDARD
40
2.0000000000
1
IND.
41
0.8000000000
72
1
11
140.5031754241
21
55.7483765268
100
AcDbText
0
TEXT
5
394
100
AcDbEntity
8
0
100
AcDbText
62
2
6
CONTINUOUS
10
152.3031754241
20
55.7483765268
7
STANDARD
40
2.0000000000
1
DATE
41
0.8000000000
72
1
11
155.5031754241
21
55.7483765268
100
AcDbText
0
TEXT
5
395
100
AcDbEntity
8
0
100
AcDbText
62
2
6
CONTINUOUS
10
166.5031754241
20
55.7483765268
7
STANDARD
40
2.0000000000
1
DESS.
41
0.8000000000
72
1
11
170.5031754241
21
55.7483765268
100
AcDbText
0
TEXT
5
396
100
AcDbEntity
8
0
100
AcDbText
62
2
6
CONTINUOUS
10
180.7031754241
20
55.7483765268
7
STANDARD
40
2.0000000000
1
VERIF.
41
0.8000000000
72
1
11
185.5031754241
21
55.7483765268
100
AcDbText
0
TEXT
5
397
100
AcDbEntity
8
0
100
AcDbText
62
2
6
CONTINUOUS
10
235.6031754241
20
55.7483765268
7
STANDARD
40
2.0000000000
1
MODIFICATIONS
41
0.8000000000
72
1
11
246.0031754241
21
55.7483765268
100
AcDbText
0
TEXT
5
398
100
AcDbEntity
8
0
100
AcDbText
62
2
6
CONTINUOUS
10
134.1031754241
20
51.2483765268
7
STANDARD
40
2.0000000000
1
Création
41
0.8000000000
72
1
11
140.5031754241
21
51.2483765268
100
AcDbText
0
TEXT
5
399
100
AcDbEntity
8
0
100
AcDbText
62
2
6
CONTINUOUS
10
148.3031754241
20
51.2483765268
7
STANDARD
40
2.0000000000
1
05-Feb-21
41
0.8000000000
72
1
11
155.5031754241
21
51.2483765268
100
AcDbText
0
TEXT
5
39A
100
AcDbEntity
8
0
100
AcDbText
62
2
6
CONTINUOUS
10
165.7031754241
20
51.2483765268
7
STANDARD
40
2.0000000000
1
BALLON
41
0.8000000000
72
1
11
170.5031754241
21
51.2483765268
100
AcDbText
0
TEXT
5
39B
100
AcDbEntity
8
0
100
AcDbText
62
2
6
CONTINUOUS
10
183.1031754241
20
51.2483765268
7
STANDARD
40
2.0000000000
1
B.L
41
0.8000000000
72
1
11
185.5031754241
21
51.2483765268
100
AcDbText
0
TEXT
5
39C
100
AcDbEntity
8
0
100
AcDbText
62
2
6
CONTINUOUS
10
193.0656754241
20
51.2483765268
7
STANDARD
40
2.0000000000
1
Annule et remplace plan N%%d:                       ind:
41
0.7975308642
72
0
100
AcDbText
0
TEXT
5
39D
100
AcDbEntity
8
0
100
AcDbText
62
2
6
CONTINUOUS
10
134.4031754241
20
46.7483765268
7
STANDARD
40
2.0000000000
1
ETAT DE SURFACES:
41
0.8000000000
72
1
11
148.0031754241
21
46.7483765268
100
AcDbText
0
TEXT
5
39E
100
AcDbEntity
8
0
100
AcDbText
62
2
6
CONTINUOUS
10
196.6031754241
20
46.7483765268
7
STANDARD
40
2.0000000000
1
CASSER LES ANGLES VIFS: 0,5 x 0,5
41
0.8000000000
72
1
11
223.0031754241
21
46.7483765268
100
AcDbText
0
TEXT
5
39F
100
AcDbEntity
8
0
100
AcDbText
62
2
6
CONTINUOUS
10
258.6365087574
20
33.7483765268
7
TEXTSTYLE_1
40
4.0000000000
1
ECH: 
41
0.6700000000
72
1
11
265.3365087574
21
33.7483765268
100
AcDbText
0
TEXT
5
3A0
100
AcDbEntity
8
0
100
AcDbText
62
2
6
CONTINUOUS
10
272.0365087574
20
33.7483765268
7
TEXTSTYLE_1
40
4.0000000000
1
1
41
0.3333333333
72
1
11
272.7031754241
21
33.7483765268
100
AcDbText
0
TEXT
5
3A1
100
AcDbEntity
8
0
100
AcDbText
62
2
6
CONTINUOUS
10
285.8031754241
20
34.3460327768
7
TEXTSTYLE_1
40
4.0000000000
1
A4
41
0.8000000000
72
1
11
289.0031754241
21
34.3460327768
100
AcDbText
0
TEXT
5
3A2
100
AcDbEntity
8
0
100
AcDbText
62
2
6
CONTINUOUS
10
288.9406754241
20
33.1507202768
7
STANDARD
40
0.1562500000
1
 
41
0.8000000000
72
1
11
289.0031754241
21
33.1507202768
100
AcDbText
0
TEXT
5
3A3
100
AcDbEntity
8
0
100
AcDbText
62
2
6
CONTINUOUS
10
202.2031754241
20
33.2483765268
7
STANDARD
40
2.0000000000
1
TOL. GENERALE: JS13 - js13
41
0.8000000000
72
1
11
223.0031754241
21
33.2483765268
100
AcDbText
0
TEXT
5
3A4
100
AcDbEntity
8
0
100
AcDbText
62
2
6
CONTINUOUS
10
133.0656754241
20
30.2640015268
7
STANDARD
40
0.1562500000
1
 
41
0.8000000000
72
0
100
AcDbText
0
TEXT
5
3A5
100
AcDbEntity
8
0
100
AcDbText
62
2
6
CONTINUOUS
10
133.0656754241
20
27.7249390268
7
STANDARD
40
2.0000000000
1
MATIERE
41
0.8000000000
72
0
100
AcDbText
0
TEXT
5
3A6
100
AcDbEntity
8
0
100
AcDbText
62
2
6
CONTINUOUS
10
133.0656754241
20
23.4749390268
7
STANDARD
40
3.0000000000
1
 
41
0.8000000000
72
0
100
AcDbText
0
TEXT
5
3A7
100
AcDbEntity
8
0
100
AcDbText
62
2
6
CONTINUOUS
10
173.0656754241
20
30.2640015268
7
STANDARD
40
0.1562500000
1
 
41
0.8000000000
72
0
100
AcDbText
0
TEXT
5
3A8
100
AcDbEntity
8
0
100
AcDbText
62
2
6
CONTINUOUS
10
173.0656754241
20
27.7249390268
7
STANDARD
40
2.0000000000
1
TRAITEMENT
41
0.8000000000
72
0
100
AcDbText
0
TEXT
5
3A9
100
AcDbEntity
8
0
100
AcDbText
62
2
6
CONTINUOUS
10
213.0656754241
20
30.2640015268
7
STANDARD
40
0.1562500000
1
 
41
0.8000000000
72
0
100
AcDbText
0
TEXT
5
3AA
100
AcDbEntity
8
0
100
AcDbText
62
2
6
CONTINUOUS
10
213.0656754241
20
27.7249390268
7
STANDARD
40
2.0000000000
1
PROTECTION
41
0.8000000000
72
0
100
AcDbText
0
TEXT
5
3AB
100
AcDbEntity
8
0
100
AcDbText
62
2
6
CONTINUOUS
10
263.2531754241
20
23.9598099971
7
TEXTSTYLE_1
40
5.0000000000
1
FSM france
41
0.5100000000
51
10.0000000000
72
1
11
276.0031754241
21
23.9598099971
100
AcDbText
0
TEXT
5
3AC
100
AcDbEntity
8
0
100
AcDbText
62
2
6
CONTINUOUS
10
152.9406754241
20
27.2640015268
7
STANDARD
40
0.1562500000
1
 
41
0.8000000000
72
1
11
153.0031754241
21
27.2640015268
100
AcDbText
0
TEXT
5
3AD
100
AcDbEntity
8
0
100
AcDbText
62
2
6
CONTINUOUS
10
145.1531754241
20
23.4749390268
7
TEXTSTYLE_1
40
3.0000000000
1
7075 T6
41
0.7476190476
72
1
11
153.0031754241
21
23.4749390268
100
AcDbText
0
TEXT
5
3AE
100
AcDbEntity
8
0
100
AcDbText
62
2
6
CONTINUOUS
10
151.8031754241
20
18.9749390268
7
STANDARD
40
3.0000000000
1
 
41
0.8000000000
72
1
11
153.0031754241
21
18.9749390268
100
AcDbText
0
TEXT
5
3AF
100
AcDbEntity
8
0
100
AcDbText
62
2
6
CONTINUOUS
10
192.9406754241
20
27.2640015268
7
STANDARD
40
0.1562500000
1
 
41
0.8000000000
72
1
11
193.0031754241
21
27.2640015268
100
AcDbText
0
TEXT
5
3B0
100
AcDbEntity
8
0
100
AcDbText
62
2
6
CONTINUOUS
10
193.0031754241
20
27.2249390268
7
TEXTSTYLE_1
40
3.0000000000
1

41
1.0000000000
72
1
11
193.0031754241
21
27.2249390268
100
AcDbText
0
TEXT
5
3B1
100
AcDbEntity
8
0
100
AcDbText
62
2
6
CONTINUOUS
10
191.8031754241
20
23.4749390268
7
STANDARD
40
3.0000000000
1
 
41
0.8000000000
72
1
11
193.0031754241
21
23.4749390268
100
AcDbText
0
TEXT
5
3B2
100
AcDbEntity
8
0
100
AcDbText
62
2
6
CONTINUOUS
10
232.9406754241
20
27.2640015268
7
STANDARD
40
0.1562500000
1
 
41
0.8000000000
72
1
11
233.0031754241
21
27.2640015268
100
AcDbText
0
TEXT
5
3B3
100
AcDbEntity
8
0
100
AcDbText
62
2
6
CONTINUOUS
10
233.0031754241
20
27.2249390268
7
TEXTSTYLE_1
40
3.0000000000
1

41
1.0000000000
72
1
11
233.0031754241
21
27.2249390268
100
AcDbText
0
TEXT
5
3B4
100
AcDbEntity
8
0
100
AcDbText
62
2
6
CONTINUOUS
10
231.8031754241
20
23.4749390268
7
STANDARD
40
3.0000000000
1
 
41
0.8000000000
72
1
11
233.0031754241
21
23.4749390268
100
AcDbText
0
TEXT
5
3B5
100
AcDbEntity
8
0
100
AcDbText
62
2
6
CONTINUOUS
10
136.9094254241
20
15.4554077768
7
TEXTSTYLE_1
40
5.0000000000
1
DESIGNATION :
41
0.4951923077
72
1
11
153.0031754241
21
15.4554077768
100
AcDbText
0
TEXT
5
3B6
100
AcDbEntity
8
0
100
AcDbText
62
2
6
CONTINUOUS
10
152.9406754241
20
15.0413452768
7
STANDARD
40
0.1562500000
1
 
41
0.8000000000
72
1
11
153.0031754241
21
15.0413452768
100
AcDbText
0
TEXT
5
3B7
100
AcDbEntity
8
0
100
AcDbText
62
2
6
CONTINUOUS
10
192.5656754241
20
15.4554077768
7
TEXTSTYLE_1
40
5.0000000000
1
SUPPORT PLATINE
41
0.5450000000
72
1
11
213.0031754241
21
15.4554077768
100
AcDbText
0
TEXT
5
3B8
100
AcDbEntity
8
0
100
AcDbText
62
2
6
CONTINUOUS
10
212.9406754241
20
15.0413452768
7
TEXTSTYLE_1
40
0.1562500000
1
 
41
0.8000000000
72
1
11
213.0031754241
21
15.0413452768
100
AcDbText
0
TEXT
5
3B9
100
AcDbEntity
8
0
100
AcDbText
62
2
6
CONTINUOUS
10
261.4094254241
20
15.2483765268
7
TEXTSTYLE_1
40
5.0000000000
1
 N : 100119-A
41
0.4490384615
72
1
11
276.0031754241
21
15.2483765268
100
AcDbText
0
TEXT
5
3BA
100
AcDbEntity
8
0
100
AcDbText
62
2
6
CONTINUOUS
10
246.0829067553
20
193.3686734090
7
TEXTSTYLE_1
40
3.5000000000
1
COUPE 
41
0.7666666667
72
0
100
AcDbText
0
TEXT
5
3BB
100
AcDbEntity
8
0
100
AcDbText
62
2
6
CONTINUOUS
10
262.1829067553
20
193.3686734090
7
TEXTSTYLE_1
40
3.5000000000
1
A-A
41
0.6555555556
72
0
100
AcDbText
0
TEXT
5
3BC
100
AcDbEntity
8
0
100
AcDbText
62
2
6
CONTINUOUS
10
45.0995517390
20
200.1014109933
7
TEXTSTYLE_1
40
3.5000000000
1
COUPE 
41
0.7666666667
72
0
100
AcDbText
0
TEXT
5
3BD
100
AcDbEntity
8
0
100
AcDbText
62
2
6
CONTINUOUS
10
61.1995517390
20
200.1014109933
7
TEXTSTYLE_1
40
3.5000000000
1
B-B
41
0.6111111111
72
0
100
AcDbText
0
INSERT
5
3BE
100
AcDbEntity
8
0
100
AcDbBlockReference
62
2
6
CONTINUOUS
2
N-CAR_BL2
10
0.0000000000
20
0.0000000000
0
LINE
5
3BF
100
AcDbEntity
8
0
100
AcDbLine
62
7
6
CONTINUOUS
10
7.0000000000
20
8.0000000000
11
7.0000000000
21
218.0000000000
0
LINE
5
3C0
100
AcDbEntity
8
0
100
AcDbLine
62
7
6
CONTINUOUS
10
12.0000000000
20
13.0000000000
11
12.0000000000
21
213.0000000000
0
LINE
5
3C1
100
AcDbEntity
8
0
100
AcDbLine
62
7
6
CONTINUOUS
10
7.0000000000
20
8.0000000000
11
304.0000000000
21
8.0000000000
0
LINE
5
3C2
100
AcDbEntity
8
0
100
AcDbLine
62
7
6
CONTINUOUS
10
12.0000000000
20
13.0000000000
11
299.0000000000
21
13.0000000000
0
LINE
5
3C3
100
AcDbEntity
8
0
100
AcDbLine
62
7
6
CONTINUOUS
10
7.0000000000
20
113.0000000000
11
12.0000000000
21
115.8867513459
0
LINE
5
3C4
100
AcDbEntity
8
0
100
AcDbLine
62
7
6
CONTINUOUS
10
7.0000000000
20
113.0000000000
11
12.0000000000
21
110.1132486541
0
LINE
5
3C5
100
AcDbEntity
8
0
100
AcDbLine
62
7
6
CONTINUOUS
10
152.6132486541
20
213.0000000000
11
155.5000000000
21
218.0000000000
0
LINE
5
3C6
100
AcDbEntity
8
0
100
AcDbLine
62
7
6
CONTINUOUS
10
155.5000000000
20
8.0000000000
11
152.6132486541
21
13.0000000000
0
LINE
5
3C7
100
AcDbEntity
8
0
100
AcDbLine
62
7
6
CONTINUOUS
10
155.5000000000
20
8.0000000000
11
158.3867513459
21
13.0000000000
0
LINE
5
3C8
100
AcDbEntity
8
0
100
AcDbLine
62
7
6
CONTINUOUS
10
158.3867513459
20
213.0000000000
11
155.5000000000
21
218.0000000000
0
LINE
5
3C9
100
AcDbEntity
8
0
100
AcDbLine
62
7
6
CONTINUOUS
10
299.0000000000
20
110.1132486541
11
304.0000000000
21
113.0000000000
0
LINE
5
3CA
100
AcDbEntity
8
0
100
AcDbLine
62
7
6
CONTINUOUS
10
299.0000000000
20
115.8867513459
11
304.0000000000
21
113.0000000000
0
LINE
5
3CB
100
AcDbEntity
8
0
100
AcDbLine
62
7
6
CONTINUOUS
10
12.0000000000
20
213.0000000000
11
299.0000000000
21
213.0000000000
0
LINE
5
3CC
100
AcDbEntity
8
0
100
AcDbLine
62
7
6
CONTINUOUS
10
7.0000000000
20
218.0000000000
11
304.0000000000
21
218.0000000000
0
LINE
5
3CD
100
AcDbEntity
8
0
100
AcDbLine
62
7
6
CONTINUOUS
10
299.0000000000
20
13.0000000000
11
299.0000000000
21
213.0000000000
0
LINE
5
3CE
100
AcDbEntity
8
0
100
AcDbLine
62
7
6
CONTINUOUS
10
304.0000000000
20
8.0000000000
11
304.0000000000
21
218.0000000000
0
LINE
5
3CF
100
AcDbEntity
8
0
100
AcDbLine
62
2
6
CONTINUOUS
10
117.9830831267
20
178.6650894328
11
117.9830831267
21
185.6650894328
0
LINE
5
3D0
100
AcDbEntity
8
0
100
AcDbLine
62
2
6
CONTINUOUS
10
128.9497497933
20
185.6650894328
11
128.9497497933
21
178.6650894328
0
LINE
5
3D1
100
AcDbEntity
8
0
100
AcDbLine
62
7
6
CONTINUOUS
10
167.8660762167
20
114.5131108415
11
177.7364466313
21
114.5131108415
0
LINE
5
3D2
100
AcDbEntity
8
0
100
AcDbLine
62
7
6
CONTINUOUS
10
158.8660762167
20
114.6701959368
11
157.2474078360
21
114.6701959368
0
LINE
5
3D3
100
AcDbEntity
8
0
100
AcDbLine
62
5
6
CONTINUOUS
10
157.2474078360
20
114.6701959368
11
147.2474078360
21
114.6701959368
0
LINE
5
3D4
100
AcDbEntity
8
0
100
AcDbLine
62
7
6
CONTINUOUS
10
140.8660762167
20
163.6542549713
11
140.8660762167
21
159.4277576632
0
LINE
5
3D5
100
AcDbEntity
8
0
100
AcDbLine
62
7
6
CONTINUOUS
10
145.8660762167
20
141.5410063173
11
171.8660762167
21
141.5410063173
0
LINE
5
3D6
100
AcDbEntity
8
DEFAULT_1
100
AcDbLine
62
2
6
CENTER
10
144.4660762167
20
161.5410063173
11
144.4660762167
21
155.2910063173
0
LINE
5
3D7
100
AcDbEntity
8
DEFAULT_1
100
AcDbLine
62
2
6
CENTER
10
144.4660762167
20
161.5410063173
11
144.4660762167
21
167.7910063173
0
LINE
5
3D8
100
AcDbEntity
8
0
100
AcDbLine
62
7
6
CONTINUOUS
10
145.8660762167
20
141.5410063173
11
145.8660762167
21
154.8089555097
0
LINE
5
3D9
100
AcDbEntity
8
0
100
AcDbLine
62
7
6
CONTINUOUS
10
145.8660762167
20
168.2730571248
11
145.8660762167
21
174.0410063173
0
LINE
5
3DA
100
AcDbEntity
8
0
100
AcDbLine
62
7
6
CONTINUOUS
10
144.3660762167
20
165.6749809135
11
140.8660762167
21
163.6542549713
0
LINE
5
3DB
100
AcDbEntity
8
DEFAULT_1
100
AcDbLine
62
2
6
CENTER
10
158.8660762167
20
145.3410063173
11
152.6160762167
21
145.3410063173
0
LINE
5
3DC
100
AcDbEntity
8
DEFAULT_1
100
AcDbLine
62
2
6
CENTER
10
158.8660762167
20
145.3410063173
11
165.1160762167
21
145.3410063173
0
LINE
5
3DD
100
AcDbEntity
8
DEFAULT_1
100
AcDbLine
62
2
6
CENTER
10
149.8660762167
20
176.5410063173
11
149.8660762167
21
139.0410063173
0
LINE
5
3DE
100
AcDbEntity
8
0
100
AcDbLine
62
7
6
CONTINUOUS
10
140.8660762167
20
159.4277576632
11
144.3660762167
21
157.4070317210
0
LINE
5
3DF
100
AcDbEntity
8
0
100
AcDbLine
62
7
6
CONTINUOUS
10
153.8660762167
20
174.0410063173
11
153.8660762167
21
171.0410063173
0
LINE
5
3E0
100
AcDbEntity
8
0
100
AcDbLine
62
2
6
CONTINUOUS
10
216.3082922711
20
153.3230121734
11
205.3416256045
21
153.3230121734
0
LINE
5
3E1
100
AcDbEntity
8
DEFAULT_1
100
AcDbLine
62
2
6
CENTER
10
158.8660762167
20
158.0410063173
11
158.8660762167
21
147.0410063173
0
LINE
5
3E2
100
AcDbEntity
8
DEFAULT_1
100
AcDbLine
62
2
6
CENTER
10
158.8660762167
20
145.3410063173
11
158.8660762167
21
135.7666055520
0
LINE
5
3E3
100
AcDbEntity
8
0
100
AcDbLine
62
5
6
PHANTOM
10
158.8660762167
20
114.6701959368
11
158.8660762167
21
119.0486193288
0
LINE
5
3E4
100
AcDbEntity
8
DEFAULT_1
100
AcDbLine
62
2
6
CENTER
10
158.8660762167
20
145.3410063173
11
158.8660762167
21
147.0410063173
0
LINE
5
3E5
100
AcDbEntity
8
DEFAULT_1
100
AcDbLine
62
2
6
CENTER
10
158.8660762167
20
158.0410063173
11
158.8660762167
21
171.0020233564
0
LINE
5
3E6
100
AcDbEntity
8
DEFAULT_1
100
AcDbLine
62
2
6
CENTER
10
158.8660762167
20
184.5188155072
11
158.8660762167
21
186.3870646701
0
LINE
5
3E7
100
AcDbEntity
8
0
100
AcDbLine
62
5
6
PHANTOM
10
158.8660762167
20
200.4327255652
11
158.8660762167
21
203.3087332822
0
LINE
5
3E8
100
AcDbEntity
8
DEFAULT_1
100
AcDbLine
62
2
6
CENTER
10
158.8660762167
20
158.0410063173
11
147.8660762167
21
158.0410063173
0
LINE
5
3E9
100
AcDbEntity
8
DEFAULT_1
100
AcDbLine
62
2
6
CENTER
10
158.8660762167
20
158.0410063173
11
169.8660762167
21
158.0410063173
0
LINE
5
3EA
100
AcDbEntity
8
0
100
AcDbLine
62
2
6
CONTINUOUS
10
205.3416256045
20
160.3230121734
11
216.3082922711
21
160.3230121734
0
LINE
5
3EB
100
AcDbEntity
8
0
100
AcDbLine
62
7
6
CONTINUOUS
10
163.8660762167
20
174.0410063173
11
163.8660762167
21
171.0410063173
0
LINE
5
3EC
100
AcDbEntity
8
DEFAULT_1
100
AcDbLine
62
2
6
CENTER
10
173.2660762167
20
161.5410063173
11
167.0160762167
21
161.5410063173
0
LINE
5
3ED
100
AcDbEntity
8
DEFAULT_1
100
AcDbLine
62
2
6
CENTER
10
144.4660762167
20
161.5410063173
11
138.2160762167
21
161.5410063173
0
LINE
5
3EE
100
AcDbEntity
8
DEFAULT_1
100
AcDbLine
62
2
6
CENTER
10
144.4660762167
20
161.5410063173
11
150.7160762167
21
161.5410063173
0
LINE
5
3EF
100
AcDbEntity
8
DEFAULT_1
100
AcDbLine
62
2
6
CENTER
10
173.2660762167
20
161.5410063173
11
179.5160762167
21
161.5410063173
0
LINE
5
3F0
100
AcDbEntity
8
0
100
AcDbLine
62
7
6
CONTINUOUS
10
176.8660762167
20
159.4277576632
11
173.3660762167
21
157.4070317210
0
LINE
5
3F1
100
AcDbEntity
8
0
100
AcDbLine
62
5
6
PHANTOM
10
167.8660762167
20
203.3320410907
11
167.8660762167
21
193.3320410907
0
LINE
5
3F2
100
AcDbEntity
8
0
100
AcDbLine
62
2
6
PHANTOM
10
167.8660762167
20
193.3320410907
11
167.8660762167
21
176.5410063173
0
LINE
5
3F3
100
AcDbEntity
8
0
100
AcDbLine
62
2
6
PHANTOM
10
167.8660762167
20
139.0410063173
11
167.8660762167
21
124.5131108415
0
LINE
5
3F4
100
AcDbEntity
8
DEFAULT_1
100
AcDbLine
62
2
6
CENTER
10
167.8660762167
20
176.5410063173
11
167.8660762167
21
139.0410063173
0
LINE
5
3F5
100
AcDbEntity
8
0
100
AcDbLine
62
5
6
PHANTOM
10
167.8660762167
20
124.5131108415
11
167.8660762167
21
114.5131108415
0
LINE
5
3F6
100
AcDbEntity
8
0
100
AcDbLine
62
7
6
CONTINUOUS
10
156.8660762167
20
168.0410063173
11
160.8660762167
21
168.0410063173
0
LINE
5
3F7
100
AcDbEntity
8
0
100
AcDbLine
62
7
6
CONTINUOUS
10
171.8660762167
20
141.5410063173
11
171.8660762167
21
154.8089555097
0
LINE
5
3F8
100
AcDbEntity
8
0
100
AcDbLine
62
7
6
CONTINUOUS
10
171.8660762167
20
168.2730571248
11
171.8660762167
21
174.0410063173
0
LINE
5
3F9
100
AcDbEntity
8
DEFAULT_1
100
AcDbLine
62
2
6
CENTER
10
173.2660762167
20
161.5410063173
11
173.2660762167
21
155.2910063173
0
LINE
5
3FA
100
AcDbEntity
8
DEFAULT_1
100
AcDbLine
62
2
6
CENTER
10
173.2660762167
20
161.5410063173
11
173.2660762167
21
167.7910063173
0
LINE
5
3FB
100
AcDbEntity
8
0
100
AcDbLine
62
7
6
CONTINUOUS
10
173.3660762167
20
165.6749809135
11
176.8660762167
21
163.6542549713
0
LINE
5
3FC
100
AcDbEntity
8
0
100
AcDbLine
62
7
6
CONTINUOUS
10
145.8660762167
20
174.0410063173
11
153.8660762167
21
174.0410063173
0
LINE
5
3FD
100
AcDbEntity
8
0
100
AcDbLine
62
7
6
CONTINUOUS
10
163.8660762167
20
174.0410063173
11
171.8660762167
21
174.0410063173
0
LINE
5
3FE
100
AcDbEntity
8
0
100
AcDbLine
62
7
6
CONTINUOUS
10
176.8660762167
20
163.6542549713
11
176.8660762167
21
159.4277576632
0
LINE
5
3FF
100
AcDbEntity
8
0
100
AcDbLine
62
2
6
CONTINUOUS
10
128.9497497933
20
178.6650894328
11
117.9830831267
21
178.6650894328
0
LINE
5
400
100
AcDbEntity
8
0
100
AcDbLine
62
2
6
CONTINUOUS
10
205.3416256045
20
153.3230121734
11
205.3416256045
21
160.3230121734
0
LINE
5
401
100
AcDbEntity
8
0
100
AcDbLine
62
2
6
CONTINUOUS
10
216.3082922711
20
160.3230121734
11
216.3082922711
21
153.3230121734
0
LINE
5
402
100
AcDbEntity
8
0
100
AcDbLine
62
2
6
CONTINUOUS
10
117.9830831267
20
185.6650894328
11
128.9497497933
21
185.6650894328
0
LINE
5
403
100
AcDbEntity
8
0
100
AcDbLine
62
7
6
CONTINUOUS
10
158.8660762167
20
203.3087332822
11
157.2474078360
21
203.3087332822
0
LINE
5
404
100
AcDbEntity
8
0
100
AcDbLine
62
5
6
CONTINUOUS
10
157.2474078360
20
203.3087332822
11
147.2474078360
21
203.3087332822
0
LINE
5
405
100
AcDbEntity
8
0
100
AcDbLine
62
7
6
CONTINUOUS
10
167.8660762167
20
203.3320410907
11
177.7364466313
21
203.3320410907
0
LINE
5
406
100
AcDbEntity
8
0
100
AcDbLine
62
7
6
CONTINUOUS
10
140.8660762167
20
94.8941488777
11
140.8660762167
21
101.8941488777
0
LINE
5
407
100
AcDbEntity
8
0
100
AcDbLine
62
9
6
CONTINUOUS
10
144.3660762167
20
94.8941488777
11
144.3660762167
21
101.8941488777
0
LINE
5
408
100
AcDbEntity
8
0
100
AcDbLine
62
7
6
CONTINUOUS
10
145.8660762167
20
101.8941488777
11
145.8660762167
21
94.8941488777
0
LINE
5
409
100
AcDbEntity
8
DEFAULT_1
100
AcDbLine
62
2
6
CENTER
10
149.8660762167
20
98.3941488777
11
149.8660762167
21
92.1441488777
0
LINE
5
40A
100
AcDbEntity
8
DEFAULT_1
100
AcDbLine
62
2
6
CENTER
10
149.8660762167
20
98.3941488777
11
149.8660762167
21
104.6441488777
0
LINE
5
40B
100
AcDbEntity
8
0
100
AcDbLine
62
7
6
CONTINUOUS
10
153.8660762167
20
101.8941488777
11
153.8660762167
21
94.8941488777
0
LINE
5
40C
100
AcDbEntity
8
0
100
AcDbLine
62
7
6
CONTINUOUS
10
140.8660762167
20
94.8941488777
11
176.8660762167
21
94.8941488777
0
LINE
5
40D
100
AcDbEntity
8
0
100
AcDbLine
62
9
6
CONTINUOUS
10
156.8660762167
20
94.8941488777
11
156.8660762167
21
101.8941488777
0
LINE
5
40E
100
AcDbEntity
8
DEFAULT_1
100
AcDbLine
62
2
6
CENTER
10
158.8660762167
20
92.3941488777
11
158.8660762167
21
105.4193912248
0
LINE
5
40F
100
AcDbEntity
8
DEFAULT_1
100
AcDbLine
62
2
6
CENTER
10
167.8660762167
20
98.3941488777
11
161.6160762167
21
98.3941488777
0
LINE
5
410
100
AcDbEntity
8
DEFAULT_1
100
AcDbLine
62
2
6
CENTER
10
149.8660762167
20
98.3941488777
11
129.0943040567
21
98.3941488777
0
LINE
5
411
100
AcDbEntity
8
DEFAULT_1
100
AcDbLine
62
2
6
CENTER
10
149.8660762167
20
98.3941488777
11
156.1160762167
21
98.3941488777
0
LINE
5
412
100
AcDbEntity
8
DEFAULT_1
100
AcDbLine
62
2
6
CENTER
10
167.8660762167
20
98.3941488777
11
174.1160762167
21
98.3941488777
0
LINE
5
413
100
AcDbEntity
8
0
100
AcDbLine
62
9
6
CONTINUOUS
10
160.8660762167
20
94.8941488777
11
160.8660762167
21
101.8941488777
0
LINE
5
414
100
AcDbEntity
8
0
100
AcDbLine
62
7
6
CONTINUOUS
10
140.8660762167
20
101.8941488777
11
176.8660762167
21
101.8941488777
0
LINE
5
415
100
AcDbEntity
8
0
100
AcDbLine
62
7
6
CONTINUOUS
10
163.8660762167
20
101.8941488777
11
163.8660762167
21
94.8941488777
0
LINE
5
416
100
AcDbEntity
8
DEFAULT_1
100
AcDbLine
62
2
6
CENTER
10
167.8660762167
20
98.3941488777
11
167.8660762167
21
92.1441488777
0
LINE
5
417
100
AcDbEntity
8
DEFAULT_1
100
AcDbLine
62
2
6
CENTER
10
167.8660762167
20
98.3941488777
11
167.8660762167
21
104.6441488777
0
LINE
5
418
100
AcDbEntity
8
0
100
AcDbLine
62
7
6
CONTINUOUS
10
171.8660762167
20
94.8941488777
11
171.8660762167
21
101.8941488777
0
LINE
5
419
100
AcDbEntity
8
0
100
AcDbLine
62
9
6
CONTINUOUS
10
173.3660762167
20
101.8941488777
11
173.3660762167
21
94.8941488777
0
LINE
5
41A
100
AcDbEntity
8
0
100
AcDbLine
62
7
6
CONTINUOUS
10
176.8660762167
20
94.8941488777
11
176.8660762167
21
101.8941488777
0
LINE
5
41B
100
AcDbEntity
8
0
100
AcDbLine
62
7
6
CONTINUOUS
10
253.0658141430
20
141.5410063173
11
260.0658141430
21
141.5410063173
0
LINE
5
41C
100
AcDbEntity
8
0
100
AcDbLine
62
2
6
CONTINUOUS
10
260.0658141430
20
143.8410063173
11
253.0658141430
21
143.8410063173
0
LINE
5
41D
100
AcDbEntity
8
0
100
AcDbLine
62
7
6
CONTINUOUS
10
253.0658141430
20
144.0910063173
11
260.0658141430
21
144.0910063173
0
LINE
5
41E
100
AcDbEntity
8
DEFAULT_1
100
AcDbLine
62
2
6
CENTER
10
262.5658141430
20
145.3410063173
11
250.5658141430
21
145.3410063173
0
LINE
5
41F
100
AcDbEntity
8
0
100
AcDbLine
62
7
6
CONTINUOUS
10
253.0658141430
20
146.5910063173
11
260.0658141430
21
146.5910063173
0
LINE
5
420
100
AcDbEntity
8
0
100
AcDbLine
62
2
6
CONTINUOUS
10
260.0658141430
20
146.8410063173
11
253.0658141430
21
146.8410063173
0
LINE
5
421
100
AcDbEntity
8
0
100
AcDbLine
62
2
6
CONTINUOUS
10
254.7531602969
20
168.0410063173
11
253.0658141430
21
166.3536601634
0
LINE
5
422
100
AcDbEntity
8
0
100
AcDbLine
62
2
6
CONTINUOUS
10
257.4070064507
20
168.0410063173
11
253.4070064507
21
164.0410063173
0
LINE
5
423
100
AcDbEntity
8
0
100
AcDbLine
62
7
6
CONTINUOUS
10
253.0658141430
20
152.0410063173
11
260.0658141430
21
152.0410063173
0
LINE
5
424
100
AcDbEntity
8
0
100
AcDbLine
62
2
6
CONTINUOUS
10
260.0608526046
20
168.0410063173
11
256.0608526046
21
164.0410063173
0
LINE
5
425
100
AcDbEntity
8
0
100
AcDbLine
62
7
6
CONTINUOUS
10
253.0658141430
20
141.5410063173
11
253.0658141430
21
174.0410063173
0
LINE
5
426
100
AcDbEntity
8
0
100
AcDbLine
62
2
6
CONTINUOUS
10
260.0658141430
20
165.3921217019
11
258.7146987584
21
164.0410063173
0
LINE
5
427
100
AcDbEntity
8
DEFAULT_1
100
AcDbLine
62
2
6
CENTER
10
256.5658141430
20
176.5410063173
11
256.5658141430
21
139.0410063173
0
LINE
5
428
100
AcDbEntity
8
DEFAULT_1
100
AcDbLine
62
2
6
CENTER
10
269.6358968687
20
158.0410063173
11
250.5658141430
21
158.0410063173
0
LINE
5
429
100
AcDbEntity
8
0
100
AcDbLine
62
7
6
CONTINUOUS
10
260.0658141430
20
141.5410063173
11
260.0658141430
21
174.0410063173
0
LINE
5
42A
100
AcDbEntity
8
0
100
AcDbLine
62
2
6
CONTINUOUS
10
254.6762372199
20
152.0410063173
11
253.0658141430
21
150.4305832403
0
LINE
5
42B
100
AcDbEntity
8
0
100
AcDbLine
62
2
6
CONTINUOUS
10
257.3300833738
20
152.0410063173
11
253.0658141430
21
147.7767370865
0
LINE
5
42C
100
AcDbEntity
8
0
100
AcDbLine
62
2
6
CONTINUOUS
10
259.9839295276
20
152.0410063173
11
254.5339295276
21
146.5910063173
0
LINE
5
42D
100
AcDbEntity
8
0
100
AcDbLine
62
7
6
CONTINUOUS
10
253.0658141430
20
164.0410063173
11
260.0658141430
21
164.0410063173
0
LINE
5
42E
100
AcDbEntity
8
0
100
AcDbLine
62
2
6
CONTINUOUS
10
260.0658141430
20
149.4690447788
11
257.1877756815
21
146.5910063173
0
LINE
5
42F
100
AcDbEntity
8
0
100
AcDbLine
62
2
6
CONTINUOUS
10
254.6877756815
20
144.0910063173
11
253.0658141430
21
142.4690447788
0
LINE
5
430
100
AcDbEntity
8
0
100
AcDbLine
62
2
6
CONTINUOUS
10
260.0658141430
20
146.8151986250
11
259.8416218353
21
146.5910063173
0
LINE
5
431
100
AcDbEntity
8
0
100
AcDbLine
62
2
6
CONTINUOUS
10
257.3416218353
20
144.0910063173
11
254.7916218353
21
141.5410063173
0
LINE
5
432
100
AcDbEntity
8
0
100
AcDbLine
62
7
6
CONTINUOUS
10
253.0658141430
20
168.0410063173
11
260.0658141430
21
168.0410063173
0
LINE
5
433
100
AcDbEntity
8
0
100
AcDbLine
62
2
6
CONTINUOUS
10
259.9954679892
20
144.0910063173
11
257.4454679892
21
141.5410063173
0
LINE
5
434
100
AcDbEntity
8
0
100
AcDbLine
62
9
6
CONTINUOUS
10
260.0658141430
20
171.0410063173
11
253.0658141430
21
171.0410063173
0
LINE
5
435
100
AcDbEntity
8
0
100
AcDbLine
62
7
6
CONTINUOUS
10
253.0658141430
20
174.0410063173
11
260.0658141430
21
174.0410063173
0
LINE
5
436
100
AcDbEntity
8
0
100
AcDbLine
62
7
6
CONTINUOUS
10
61.0058286582
20
141.5410063173
11
54.0058286582
21
141.5410063173
0
LINE
5
437
100
AcDbEntity
8
0
100
AcDbLine
62
2
6
CONTINUOUS
10
56.1607132736
20
174.0410063173
11
54.0058286582
21
171.8861217019
0
LINE
5
438
100
AcDbEntity
8
0
100
AcDbLine
62
2
6
CONTINUOUS
10
59.2760978890
20
174.0410063173
11
58.7558286582
21
173.5207370865
0
LINE
5
439
100
AcDbEntity
8
0
100
AcDbLine
62
2
6
CONTINUOUS
10
56.2558286582
20
171.0207370865
11
54.0058286582
21
168.7707370865
0
LINE
5
43A
100
AcDbEntity
8
0
100
AcDbLine
62
2
6
CONTINUOUS
10
61.0058286582
20
172.6553524711
11
58.7558286582
21
170.4053524711
0
LINE
5
43B
100
AcDbEntity
8
0
100
AcDbLine
62
2
6
CONTINUOUS
10
56.2558286582
20
167.9053524711
11
54.0058286582
21
165.6553524711
0
LINE
5
43C
100
AcDbEntity
8
0
100
AcDbLine
62
2
6
CONTINUOUS
10
61.0058286582
20
169.5399678557
11
58.7558286582
21
167.2899678557
0
LINE
5
43D
100
AcDbEntity
8
0
100
AcDbLine
62
2
6
CONTINUOUS
10
56.2558286582
20
164.7899678557
11
54.0058286582
21
162.5399678557
0
LINE
5
43E
100
AcDbEntity
8
0
100
AcDbLine
62
7
6
CONTINUOUS
10
56.0058286582
20
151.5410063173
11
56.2558286582
21
151.5410063173
0
LINE
5
43F
100
AcDbEntity
8
0
100
AcDbLine
62
7
6
CONTINUOUS
10
58.7558286582
20
151.5410063173
11
59.0058286582
21
151.5410063173
0
LINE
5
440
100
AcDbEntity
8
0
100
AcDbLine
62
7
6
CONTINUOUS
10
54.0058286582
20
141.5410063173
11
54.0058286582
21
174.0410063173
0
LINE
5
441
100
AcDbEntity
8
0
100
AcDbLine
62
2
6
CONTINUOUS
10
61.0058286582
20
166.4245832403
11
58.7558286582
21
164.1745832403
0
LINE
5
442
100
AcDbEntity
8
0
100
AcDbLine
62
2
6
CONTINUOUS
10
56.2558286582
20
161.6745832403
11
54.0058286582
21
159.4245832403
0
LINE
5
443
100
AcDbEntity
8
0
100
AcDbLine
62
2
6
CONTINUOUS
10
56.0058286582
20
174.0410063173
11
56.0058286582
21
164.0410063173
0
LINE
5
444
100
AcDbEntity
8
0
100
AcDbLine
62
2
6
CONTINUOUS
10
56.0058286582
20
151.5410063173
11
56.0058286582
21
141.5410063173
0
LINE
5
445
100
AcDbEntity
8
0
100
AcDbLine
62
7
6
CONTINUOUS
10
56.2558286582
20
141.5410063173
11
56.2558286582
21
174.0410063173
0
LINE
5
446
100
AcDbEntity
8
0
100
AcDbLine
62
2
6
CONTINUOUS
10
61.0058286582
20
163.3091986250
11
58.7558286582
21
161.0591986250
0
LINE
5
447
100
AcDbEntity
8
0
100
AcDbLine
62
2
6
CONTINUOUS
10
56.2558286582
20
158.5591986250
11
54.0058286582
21
156.3091986250
0
LINE
5
448
100
AcDbEntity
8
DEFAULT_1
100
AcDbLine
62
2
6
CENTER
10
57.5058286582
20
186.0088181306
11
57.5058286582
21
129.8855340085
0
LINE
5
449
100
AcDbEntity
8
0
100
AcDbLine
62
2
6
CONTINUOUS
10
61.0058286582
20
160.1938140096
11
58.7558286582
21
157.9438140096
0
LINE
5
44A
100
AcDbEntity
8
0
100
AcDbLine
62
2
6
CONTINUOUS
10
56.2558286582
20
155.4438140096
11
54.0058286582
21
153.1938140096
0
LINE
5
44B
100
AcDbEntity
8
0
100
AcDbLine
62
7
6
CONTINUOUS
10
58.7558286582
20
141.5410063173
11
58.7558286582
21
174.0410063173
0
LINE
5
44C
100
AcDbEntity
8
0
100
AcDbLine
62
2
6
CONTINUOUS
10
59.0058286582
20
174.0410063173
11
59.0058286582
21
164.0410063173
0
LINE
5
44D
100
AcDbEntity
8
0
100
AcDbLine
62
2
6
CONTINUOUS
10
59.0058286582
20
151.5410063173
11
59.0058286582
21
141.5410063173
0
LINE
5
44E
100
AcDbEntity
8
0
100
AcDbLine
62
2
6
CONTINUOUS
10
61.0058286582
20
157.0784293942
11
58.7558286582
21
154.8284293942
0
LINE
5
44F
100
AcDbEntity
8
0
100
AcDbLine
62
2
6
CONTINUOUS
10
56.2558286582
20
152.3284293942
11
54.0058286582
21
150.0784293942
0
LINE
5
450
100
AcDbEntity
8
0
100
AcDbLine
62
7
6
CONTINUOUS
10
61.0058286582
20
141.5410063173
11
61.0058286582
21
174.0410063173
0
LINE
5
451
100
AcDbEntity
8
DEFAULT_1
100
AcDbLine
62
2
6
CENTER
10
63.5058286582
20
161.5410063173
11
51.5058286582
21
161.5410063173
0
LINE
5
452
100
AcDbEntity
8
0
100
AcDbLine
62
2
6
CONTINUOUS
10
61.0058286582
20
153.9630447788
11
58.7558286582
21
151.7130447788
0
LINE
5
453
100
AcDbEntity
8
0
100
AcDbLine
62
2
6
CONTINUOUS
10
56.2558286582
20
149.2130447788
11
54.0058286582
21
146.9630447788
0
LINE
5
454
100
AcDbEntity
8
0
100
AcDbLine
62
7
6
CONTINUOUS
10
56.0058286582
20
164.0410063173
11
56.2558286582
21
164.0410063173
0
LINE
5
455
100
AcDbEntity
8
0
100
AcDbLine
62
7
6
CONTINUOUS
10
58.7558286582
20
164.0410063173
11
59.0058286582
21
164.0410063173
0
LINE
5
456
100
AcDbEntity
8
0
100
AcDbLine
62
2
6
CONTINUOUS
10
61.0058286582
20
150.8476601634
11
58.7558286582
21
148.5976601634
0
LINE
5
457
100
AcDbEntity
8
0
100
AcDbLine
62
2
6
CONTINUOUS
10
56.2558286582
20
146.0976601634
11
54.0058286582
21
143.8476601634
0
LINE
5
458
100
AcDbEntity
8
0
100
AcDbLine
62
2
6
CONTINUOUS
10
61.0058286582
20
147.7322755480
11
58.7558286582
21
145.4822755480
0
LINE
5
459
100
AcDbEntity
8
0
100
AcDbLine
62
2
6
CONTINUOUS
10
56.2558286582
20
142.9822755480
11
54.8145594275
21
141.5410063173
0
LINE
5
45A
100
AcDbEntity
8
0
100
AcDbLine
62
2
6
CONTINUOUS
10
61.0058286582
20
144.6168909326
11
58.7558286582
21
142.3668909326
0
LINE
5
45B
100
AcDbEntity
8
0
100
AcDbLine
62
7
6
CONTINUOUS
10
61.0058286582
20
174.0410063173
11
54.0058286582
21
174.0410063173
0
ARC
5
45C
100
AcDbEntity
8
0
100
AcDbCircle
62
2
6
CONTINUOUS
10
158.8660762167
20
145.3410063173
40
1.5000000000
100
AcDbArc
50
255.0000000000
51
195.0000000000
0
ARC
5
45D
100
AcDbEntity
8
0
100
AcDbCircle
62
2
6
CONTINUOUS
10
144.4660762167
20
161.5410063173
40
1.5000000000
100
AcDbArc
50
255.0000000000
51
195.0000000000
0
ARC
5
45E
100
AcDbEntity
8
0
100
AcDbCircle
62
2
6
CONTINUOUS
10
173.2660762167
20
161.5410063173
40
1.5000000000
100
AcDbArc
50
255.0000000000
51
195.0000000000
0
CIRCLE
5
45F
100
AcDbEntity
8
0
100
AcDbCircle
62
7
6
CONTINUOUS
10
173.2660762167
20
161.5410063173
40
1.2500000000
0
CIRCLE
5
460
100
AcDbEntity
8
0
100
AcDbCircle
62
7
6
CONTINUOUS
10
144.4660762167
20
161.5410063173
40
1.2500000000
0
CIRCLE
5
461
100
AcDbEntity
8
0
100
AcDbCircle
62
7
6
CONTINUOUS
10
158.8660762167
20
145.3410063173
40
1.2500000000
0
CIRCLE
5
462
100
AcDbEntity
8
0
100
AcDbCircle
62
7
6
CONTINUOUS
10
158.8660762167
20
158.0410063173
40
6.0000000000
0
ARC
5
463
100
AcDbEntity
8
0
100
AcDbCircle
62
7
6
CONTINUOUS
10
156.8660762167
20
171.0410063173
40
3.0000000000
100
AcDbArc
50
180.0000000000
51
270.0000000000
0
ARC
5
464
100
AcDbEntity
8
0
100
AcDbCircle
62
7
6
CONTINUOUS
10
160.8660762167
20
171.0410063173
40
3.0000000000
100
AcDbArc
50
270.0000000000
51
360.0000000000
0
ARC
5
465
100
AcDbEntity
8
0
100
AcDbCircle
62
7
6
CONTINUOUS
10
174.8660762167
20
154.8089555097
40
3.0000000000
100
AcDbArc
50
120.0000000000
51
180.0000000000
0
ARC
5
466
100
AcDbEntity
8
0
100
AcDbCircle
62
7
6
CONTINUOUS
10
174.8660762167
20
168.2730571248
40
3.0000000000
100
AcDbArc
50
180.0000000000
51
240.0000000000
0
ARC
5
467
100
AcDbEntity
8
0
100
AcDbCircle
62
7
6
CONTINUOUS
10
142.8660762167
20
168.2730571248
40
3.0000000000
100
AcDbArc
50
300.0000000000
51
360.0000000000
0
ARC
5
468
100
AcDbEntity
8
0
100
AcDbCircle
62
7
6
CONTINUOUS
10
142.8660762167
20
154.8089555097
40
3.0000000000
100
AcDbArc
50
0.0000000000
51
60.0000000000
0
ARC
5
469
100
AcDbEntity
8
0
100
AcDbCircle
62
2
6
CONTINUOUS
10
149.8660762167
20
98.3941488777
40
1.5000000000
100
AcDbArc
50
255.0000000000
51
195.0000000000
0
ARC
5
46A
100
AcDbEntity
8
0
100
AcDbCircle
62
2
6
CONTINUOUS
10
167.8660762167
20
98.3941488777
40
1.5000000000
100
AcDbArc
50
255.0000000000
51
195.0000000000
0
CIRCLE
5
46B
100
AcDbEntity
8
0
100
AcDbCircle
62
7
6
CONTINUOUS
10
149.8660762167
20
98.3941488777
40
1.2500000000
0
CIRCLE
5
46C
100
AcDbEntity
8
0
100
AcDbCircle
62
7
6
CONTINUOUS
10
167.8660762167
20
98.3941488777
40
1.2500000000
0
SPLINE
5
46D
100
AcDbEntity
8
0
100
AcDbSpline
62
7
6
CONTINUOUS
70
0
71
3
72
11
73
7
74
5
42
0.0000001000
43
0.0000001000
44
0.0000000001
12
-2.0590673707
22
0.0000000000
32
0.0289716279
13
-0.0289716279
23
0.0000000000
33
2.0590673707
40
0.0000000000
40
0.0000000000
40
0.0000000000
40
0.0000000000
40
0.2500000000
40
0.5000000000
40
0.7500000000
40
1.0000000000
40
1.0000000000
40
1.0000000000
40
1.0000000000
10
57.5058286582
20
151.5410063173
30
7.7500000000
10
57.3342397107
20
151.5410063173
30
7.7524143023
10
57.0186425840
20
151.5410063173
30
7.8142494612
10
56.5982375968
20
151.5410063173
30
8.0924089385
10
56.3200781194
20
151.5410063173
30
8.5128139257
10
56.2582429606
20
151.5410063173
30
8.8284110524
10
56.2558286582
20
151.5410063173
30
9.0000000000
11
57.5058286582
21
151.5410063173
31
7.7500000000
11
57.0274743678
21
151.5410063173
31
7.8451505844
11
56.6219451818
21
151.5410063173
31
8.1161165235
11
56.3509792426
21
151.5410063173
31
8.5216457095
11
56.2558286582
21
151.5410063173
31
9.0000000000
0
SPLINE
5
46E
100
AcDbEntity
8
0
100
AcDbSpline
62
7
6
CONTINUOUS
70
0
71
3
72
11
73
7
74
5
42
0.0000001000
43
0.0000001000
44
0.0000000001
12
-0.0289716279
22
0.0000000000
32
-2.0590673707
13
-2.0590673707
23
0.0000000000
33
-0.0289716279
40
0.0000000000
40
0.0000000000
40
0.0000000000
40
0.0000000000
40
0.2500000000
40
0.5000000000
40
0.7500000000
40
1.0000000000
40
1.0000000000
40
1.0000000000
40
1.0000000000
10
58.7558286582
20
151.5410063173
30
9.0000000000
10
58.7534143559
20
151.5410063173
30
8.8284110524
10
58.6915791971
20
151.5410063173
30
8.5128139257
10
58.4134197197
20
151.5410063173
30
8.0924089385
10
57.9930147325
20
151.5410063173
30
7.8142494612
10
57.6774176058
20
151.5410063173
30
7.7524143023
10
57.5058286582
20
151.5410063173
30
7.7500000000
11
58.7558286582
21
151.5410063173
31
9.0000000000
11
58.6606780739
21
151.5410063173
31
8.5216457095
11
58.3897121347
21
151.5410063173
31
8.1161165235
11
57.9841829487
21
151.5410063173
31
7.8451505844
11
57.5058286582
21
151.5410063173
31
7.7500000000
0
SPLINE
5
46F
100
AcDbEntity
8
0
100
AcDbSpline
62
7
6
CONTINUOUS
70
0
71
3
72
11
73
7
74
5
42
0.0000001000
43
0.0000001000
44
0.0000000001
12
2.0590673707
22
0.0000000000
32
0.0289716279
13
0.0289716279
23
0.0000000000
33
2.0590673707
40
0.0000000000
40
0.0000000000
40
0.0000000000
40
0.0000000000
40
0.2500000000
40
0.5000000000
40
0.7500000000
40
1.0000000000
40
1.0000000000
40
1.0000000000
40
1.0000000000
10
57.5058286582
20
164.0410063173
30
7.7500000000
10
57.6774176058
20
164.0410063173
30
7.7524143023
10
57.9930147325
20
164.0410063173
30
7.8142494612
10
58.4134197197
20
164.0410063173
30
8.0924089385
10
58.6915791971
20
164.0410063173
30
8.5128139257
10
58.7534143559
20
164.0410063173
30
8.8284110524
10
58.7558286582
20
164.0410063173
30
9.0000000000
11
57.5058286582
21
164.0410063173
31
7.7500000000
11
57.9841829487
21
164.0410063173
31
7.8451505844
11
58.3897121347
21
164.0410063173
31
8.1161165235
11
58.6606780739
21
164.0410063173
31
8.5216457095
11
58.7558286582
21
164.0410063173
31
9.0000000000
0
SPLINE
5
470
100
AcDbEntity
8
0
100
AcDbSpline
62
7
6
CONTINUOUS
70
0
71
3
72
11
73
7
74
5
42
0.0000001000
43
0.0000001000
44
0.0000000001
12
0.0289716279
22
0.0000000000
32
-2.0590673707
13
2.0590673707
23
0.0000000000
33
-0.0289716279
40
0.0000000000
40
0.0000000000
40
0.0000000000
40
0.0000000000
40
0.2500000000
40
0.5000000000
40
0.7500000000
40
1.0000000000
40
1.0000000000
40
1.0000000000
40
1.0000000000
10
56.2558286582
20
164.0410063173
30
9.0000000000
10
56.2582429606
20
164.0410063173
30
8.8284110524
10
56.3200781194
20
164.0410063173
30
8.5128139257
10
56.5982375968
20
164.0410063173
30
8.0924089385
10
57.0186425840
20
164.0410063173
30
7.8142494612
10
57.3342397107
20
164.0410063173
30
7.7524143023
10
57.5058286582
20
164.0410063173
30
7.7500000000
11
56.2558286582
21
164.0410063173
31
9.0000000000
11
56.3509792426
21
164.0410063173
31
8.5216457095
11
56.6219451818
21
164.0410063173
31
8.1161165235
11
57.0274743678
21
164.0410063173
31
7.8451505844
11
57.5058286582
21
164.0410063173
31
7.7500000000
0
ENDSEC
0
SECTION
2
OBJECTS
0
DICTIONARY
5
471
100
AcDbDictionary
3
ACAD_GROUP
350
472
3
ACAD_MLINESTYLE
350
473
0
DICTIONARY
5
472
102
{ACAD_REACTORS
330
471
102
}
100
AcDbDictionary
0
DICTIONARY
5
473
102
{ACAD_REACTORS
330
471
102
}
100
AcDbDictionary
3
STANDARD
350
474
0
MLINESTYLE
5
474
102
{ACAD_REACTORS
330
473
102
}
100
AcDbMlineStyle
2
STANDARD
70
0
3

62
256
51
90.0
52
90.0
71
2
49
0.5
62
256
6
BYLAYER
49
-0.5
62
256
6
BYLAYER
0
ENDSEC
0
EOF
