999
DXF file: 100057-a_support-platine-radio.dxf
999
Pro/ENGINEER 2004090 by Parametric Technology Corporation
0
SECTION
2
HEADER
9
$ACADVER
1
AC1014
9
$HANDSEED
5
       620
9
$EXTMAX
10
420.0000000000
20
297.0000000000
9
$EXTMIN
10
0.0000000000
20
0.0000000000
9
$LIMMIN
10
0.0000000000
20
0.0000000000
9
$LIMMAX
10
420.0000000000
20
297.0000000000
9
$VIEWCTR
10
210.0000000000
20
148.5000000000
9
$VIEWSIZE
40
297.0000000000
9
$CLAYER
8
0
9
$LTSCALE
40
23.1000000000
9
$CELTYPE
6
BYLAYER
9
$DIMSCALE
40
1
9
$DIMASZ
40
4.5000000000
9
$DIMEXO
40
2.6250000000
9
$DIMDLI
40
15.9600000000
9
$DIMEXE
40
7.5600000000
9
$DIMCEN
40
3.7800000000
9
$DIMLFAC
40
1.0000000000
9
$DIMTXT
40
3.5000000000
9
$DIMTOL
70
1
9
$DIMLIM
70
0
9
$DIMTFAC
40
1.0000000000
9
$DIMTP
40
0.0500000000
9
$DIMTM
40
0.0500000000
9
$MEASUREMENT
70
1
0
ENDSEC
0
SECTION
2
CLASSES
0
ENDSEC
0
SECTION
2
TABLES
0
TABLE
2
VPORT
5
8
100
AcDbSymbolTable
70
2
0
VPORT
5
1F4
100
AcDbSymbolTableRecord
100
AcDbViewportTableRecord
2
*ACTIVE
70
0
10
0.0
20
0.0
11
1.0
21
1.0
12
210.0000000000
22
148.5000000000
13
0.0
23
0.0
14
1.0
24
1.0
15
0.0
25
0.0
16
0.0
26
0.0
36
1.0
17
0.0
27
0.0
37
0.0
40
297.0000000000
41
1.4141414141
42
50.0
43
0.0
44
0.0
50
0.0
51
0.0
71
0
72
100
73
1
74
1
75
0
76
0
77
0
78
0
0
ENDTAB
0
TABLE
2
LTYPE
5
5
100
AcDbSymbolTable
70
6
0
LTYPE
5
14
100
AcDbSymbolTableRecord
100
AcDbLinetypeTableRecord
2
BYBLOCK
70
0
3

72
65
73
0
40
0.0
0
LTYPE
5
15
100
AcDbSymbolTableRecord
100
AcDbLinetypeTableRecord
2
BYLAYER
70
0
3

72
65
73
0
40
0.0
0
LTYPE
5
16
100
AcDbSymbolTableRecord
100
AcDbLinetypeTableRecord
2
CONTINUOUS
70
64
3
Solid line
72
65
73
0
40
0
0
LTYPE
5
1F5
100
AcDbSymbolTableRecord
100
AcDbLinetypeTableRecord
2
CENTER
70
64
3
____ _ ____ _ ____ _ ____ _ ____ _ ____ _ ____
72
65
73
4
40
0.6
49
0.375
74
0
49
-0.075
74
0
49
0.075
74
0
49
-0.075
74
0
0
LTYPE
5
1F6
100
AcDbSymbolTableRecord
100
AcDbLinetypeTableRecord
2
HIDDEN
70
64
3
- - - - - - - - - - - - - - - - - - - -
72
65
73
2
40
0.2
49
0.1
74
0
49
-0.1
74
0
0
LTYPE
5
1F7
100
AcDbSymbolTableRecord
100
AcDbLinetypeTableRecord
2
PHANTOM
70
64
3
_____ _ _ _____ _ _ _____ _ _ _____
72
65
73
6
40
0.8
49
0.45
74
0
49
-0.05
74
0
49
0.1
74
0
49
-0.05
74
0
49
0.1
74
0
49
-0.05
74
0
0
LTYPE
5
1F8
100
AcDbSymbolTableRecord
100
AcDbLinetypeTableRecord
2
DOT
70
64
3
. . . . . . . . . . . . . . . . . . . .
72
65
73
2
40
0.2
49
0.1
74
0
49
-0.1
74
0
0
LTYPE
5
1F9
100
AcDbSymbolTableRecord
100
AcDbLinetypeTableRecord
2
DASHED
70
64
3
- - - - - - - - - - - - - - - - - - - -
72
65
73
2
40
0.2
49
0.1
74
0
49
-0.1
74
0
0
ENDTAB
0
TABLE
2
LAYER
5
2
100
AcDbSymbolTable
70
36
0
LAYER
5
10
100
AcDbSymbolTableRecord
100
AcDbLayerTableRecord
2
0
70
0
62
7
6
CONTINUOUS
0
LAYER
5
1FA
100
AcDbSymbolTableRecord
100
AcDbLayerTableRecord
2
DEFAULT_1
70
0
62
7
6
CENTER
0
LAYER
5
1FB
100
AcDbSymbolTableRecord
100
AcDbLayerTableRecord
2
DEFAULT_2
70
0
62
8
6
HIDDEN
0
LAYER
5
1FC
100
AcDbSymbolTableRecord
100
AcDbLayerTableRecord
2
DEFAULT_3
70
0
62
7
6
PHANTOM
0
LAYER
5
1FD
100
AcDbSymbolTableRecord
100
AcDbLayerTableRecord
2
POUB
70
0
62
7
6
CONTINUOUS
0
ENDTAB
0
TABLE
2
STYLE
5
3
100
AcDbSymbolTable
70
1
0
STYLE
5
11
100
AcDbSymbolTableRecord
100
AcDbTextStyleTableRecord
2
STANDARD
70
0
40
0.0
41
0.8000000000
50
0.0
71
0
42
0.2
3
txt
4

0
STYLE
5
1FE
100
AcDbSymbolTableRecord
100
AcDbTextStyleTableRecord
2
TEXTSTYLE_1
70
0
40
0.0
41
0.8000000000
50
0.0
71
0
42
0.2
3
txt
4

0
ENDTAB
0
TABLE
2
VIEW
5
6
100
AcDbSymbolTable
70
0
0
ENDTAB
0
TABLE
2
UCS
5
7
100
AcDbSymbolTable
70
0
0
ENDTAB
0
TABLE
2
APPID
5
9
100
AcDbSymbolTable
70
1
0
APPID
5
1FF
100
AcDbSymbolTableRecord
100
AcDbRegAppTableRecord
2
ACAD
70
0
0
ENDTAB
0
TABLE
2
DIMSTYLE
5
A
100
AcDbSymbolTable
70
1
0
DIMSTYLE
105
200
100
AcDbSymbolTableRecord
100
AcDbDimStyleTableRecord
2
STANDARD
70
0
3

4

5

6

7

40
1.0
41
4.5000000000
42
0.0625
43
0.38
44
0.18
45
0.0
46
0.0
47
0.0500000000
48
0.0500000000
140
3.5000000000
141
0.09
142
0.0
143
25.4
144
1.0000000000
145
0.0
146
1.0000000000
147
0.09
71
1
72
0
73
0
74
0
75
0
76
0
77
1
78
8
170
0
171
2
172
0
173
0
174
0
175
0
176
0
177
0
178
0
270
2
271
2
272
2
273
2
274
2
340
11
275
0
280
0
281
0
282
0
283
1
284
8
285
0
286
0
287
3
288
0
0
DIMSTYLE
105
201
100
AcDbSymbolTableRecord
100
AcDbDimStyleTableRecord
2
DIMSTYLE_1
70
0
3

4

5

6

7

40
1.0
41
4.5000000000
42
0.0625
43
0.38
44
0.18
45
0.0
46
0.0
47
0.0200000000
48
0.0200000000
140
3.5000000000
141
0.09
142
0.0
143
25.4
144
1.0000000000
145
0.0
146
1.0000000000
147
0.09
71
1
72
0
73
0
74
0
75
0
76
0
77
1
78
8
170
0
171
2
172
0
173
0
174
0
175
0
176
0
177
0
178
0
270
2
271
2
272
2
273
2
274
2
340
1FE
275
0
280
0
281
0
282
0
283
1
284
8
285
0
286
0
287
3
288
0
0
DIMSTYLE
105
202
100
AcDbSymbolTableRecord
100
AcDbDimStyleTableRecord
2
DIMSTYLE_2
70
0
3

4

5

6

7

40
1.0
41
4.5000000000
42
0.0625
43
0.38
44
0.18
45
0.0
46
0.0
47
0.0500000000
48
0.0500000000
140
3.5000000000
141
0.09
142
0.0
143
25.4
144
1.0000000000
145
0.0
146
1.0000000000
147
0.09
71
0
72
0
73
0
74
0
75
0
76
0
77
1
78
8
170
0
171
2
172
0
173
0
174
0
175
0
176
0
177
0
178
0
270
2
271
2
272
2
273
2
274
2
340
1FE
275
0
280
0
281
0
282
0
283
1
284
8
285
0
286
0
287
3
288
0
0
DIMSTYLE
105
203
100
AcDbSymbolTableRecord
100
AcDbDimStyleTableRecord
2
DIMSTYLE_3
70
0
3

4

5

6

7

40
1.0
41
4.5000000000
42
0.0625
43
0.38
44
0.18
45
0.0
46
0.0
47
0.1000000000
48
0.1000000000
140
3.5000000000
141
0.09
142
0.0
143
25.4
144
1.0000000000
145
0.0
146
1.0000000000
147
0.09
71
0
72
0
73
1
74
1
75
0
76
0
77
0
78
8
170
0
171
2
172
0
173
0
174
0
175
0
176
0
177
0
178
0
270
2
271
1
272
1
273
2
274
2
340
1FE
275
0
280
0
281
0
282
0
283
1
284
8
285
0
286
0
287
3
288
0
0
DIMSTYLE
105
204
100
AcDbSymbolTableRecord
100
AcDbDimStyleTableRecord
2
DIMSTYLE_4
70
0
3

4

5

6

7

40
1.0
41
4.5000000000
42
0.0625
43
0.38
44
0.18
45
0.0
46
0.0
47
0.0500000000
48
0.0500000000
140
3.5000000000
141
0.09
142
0.0
143
25.4
144
1.0000000000
145
0.0
146
1.0000000000
147
0.09
71
0
72
0
73
0
74
0
75
0
76
0
77
1
78
8
170
0
171
2
172
0
173
0
174
0
175
0
176
0
177
0
178
0
270
2
271
2
272
2
273
2
274
2
340
1FE
275
0
280
0
281
0
282
0
283
1
284
8
285
0
286
0
287
3
288
0
0
ENDTAB
0
TABLE
2
BLOCK_RECORD
5
1
100
AcDbSymbolTable
70
0
0
BLOCK_RECORD
5
1B
100
AcDbSymbolTableRecord
100
AcDbBlockTableRecord
2
*MODEL_SPACE
0
BLOCK_RECORD
5
1C
100
AcDbSymbolTableRecord
100
AcDbBlockTableRecord
2
*PAPER_SPACE
0
BLOCK_RECORD
5
205
100
AcDbSymbolTableRecord
100
AcDbBlockTableRecord
2
N-DES_BL0
0
BLOCK_RECORD
5
206
100
AcDbSymbolTableRecord
100
AcDbBlockTableRecord
2
N-CART_BL1
0
BLOCK_RECORD
5
207
100
AcDbSymbolTableRecord
100
AcDbBlockTableRecord
2
*D0
0
BLOCK_RECORD
5
208
100
AcDbSymbolTableRecord
100
AcDbBlockTableRecord
2
*D1
0
BLOCK_RECORD
5
209
100
AcDbSymbolTableRecord
100
AcDbBlockTableRecord
2
*D2
0
BLOCK_RECORD
5
20A
100
AcDbSymbolTableRecord
100
AcDbBlockTableRecord
2
*D3
0
BLOCK_RECORD
5
20B
100
AcDbSymbolTableRecord
100
AcDbBlockTableRecord
2
*D4
0
BLOCK_RECORD
5
20C
100
AcDbSymbolTableRecord
100
AcDbBlockTableRecord
2
*D5
0
BLOCK_RECORD
5
20D
100
AcDbSymbolTableRecord
100
AcDbBlockTableRecord
2
*D6
0
BLOCK_RECORD
5
20E
100
AcDbSymbolTableRecord
100
AcDbBlockTableRecord
2
*D7
0
BLOCK_RECORD
5
20F
100
AcDbSymbolTableRecord
100
AcDbBlockTableRecord
2
*D8
0
BLOCK_RECORD
5
210
100
AcDbSymbolTableRecord
100
AcDbBlockTableRecord
2
*D9
0
BLOCK_RECORD
5
211
100
AcDbSymbolTableRecord
100
AcDbBlockTableRecord
2
*D10
0
BLOCK_RECORD
5
212
100
AcDbSymbolTableRecord
100
AcDbBlockTableRecord
2
*D11
0
BLOCK_RECORD
5
213
100
AcDbSymbolTableRecord
100
AcDbBlockTableRecord
2
*D12
0
BLOCK_RECORD
5
214
100
AcDbSymbolTableRecord
100
AcDbBlockTableRecord
2
*D13
0
BLOCK_RECORD
5
215
100
AcDbSymbolTableRecord
100
AcDbBlockTableRecord
2
*D14
0
BLOCK_RECORD
5
216
100
AcDbSymbolTableRecord
100
AcDbBlockTableRecord
2
*D15
0
BLOCK_RECORD
5
217
100
AcDbSymbolTableRecord
100
AcDbBlockTableRecord
2
*D16
0
BLOCK_RECORD
5
218
100
AcDbSymbolTableRecord
100
AcDbBlockTableRecord
2
*D17
0
BLOCK_RECORD
5
219
100
AcDbSymbolTableRecord
100
AcDbBlockTableRecord
2
*D18
0
BLOCK_RECORD
5
21A
100
AcDbSymbolTableRecord
100
AcDbBlockTableRecord
2
*D19
0
BLOCK_RECORD
5
21B
100
AcDbSymbolTableRecord
100
AcDbBlockTableRecord
2
*D20
0
BLOCK_RECORD
5
21C
100
AcDbSymbolTableRecord
100
AcDbBlockTableRecord
2
*D21
0
BLOCK_RECORD
5
21D
100
AcDbSymbolTableRecord
100
AcDbBlockTableRecord
2
*D22
0
BLOCK_RECORD
5
21E
100
AcDbSymbolTableRecord
100
AcDbBlockTableRecord
2
*D23
0
BLOCK_RECORD
5
21F
100
AcDbSymbolTableRecord
100
AcDbBlockTableRecord
2
*D24
0
BLOCK_RECORD
5
220
100
AcDbSymbolTableRecord
100
AcDbBlockTableRecord
2
*D25
0
BLOCK_RECORD
5
221
100
AcDbSymbolTableRecord
100
AcDbBlockTableRecord
2
*D26
0
BLOCK_RECORD
5
222
100
AcDbSymbolTableRecord
100
AcDbBlockTableRecord
2
*D27
0
BLOCK_RECORD
5
223
100
AcDbSymbolTableRecord
100
AcDbBlockTableRecord
2
*D28
0
BLOCK_RECORD
5
224
100
AcDbSymbolTableRecord
100
AcDbBlockTableRecord
2
*D29
0
BLOCK_RECORD
5
225
100
AcDbSymbolTableRecord
100
AcDbBlockTableRecord
2
*D30
0
BLOCK_RECORD
5
226
100
AcDbSymbolTableRecord
100
AcDbBlockTableRecord
2
*D31
0
BLOCK_RECORD
5
227
100
AcDbSymbolTableRecord
100
AcDbBlockTableRecord
2
*D32
0
BLOCK_RECORD
5
228
100
AcDbSymbolTableRecord
100
AcDbBlockTableRecord
2
*D33
0
BLOCK_RECORD
5
229
100
AcDbSymbolTableRecord
100
AcDbBlockTableRecord
2
*D34
0
BLOCK_RECORD
5
22A
100
AcDbSymbolTableRecord
100
AcDbBlockTableRecord
2
*D35
0
BLOCK_RECORD
5
22B
100
AcDbSymbolTableRecord
100
AcDbBlockTableRecord
2
N-CAR_BL2
0
ENDTAB
0
ENDSEC
0
SECTION
2
BLOCKS
0
BLOCK
5
1E
100
AcDbEntity
8
0
100
AcDbBlockBegin
2
*MODEL_SPACE
70
0
10
0.0
20
0.0
30
0.0
3
*MODEL_SPACE
1

0
ENDBLK
5
1F
100
AcDbEntity
8
0
100
AcDbBlockEnd
0
BLOCK
5
20
100
AcDbEntity
8
0
100
AcDbBlockBegin
2
*PAPER_SPACE
70
0
10
0.0
20
0.0
30
0.0
3
*PAPER_SPACE
1

0
ENDBLK
5
21
100
AcDbEntity
8
0
100
AcDbBlockEnd
0
BLOCK
5
22C
100
AcDbEntity
8
0
100
AcDbBlockBegin
62
2
6
CONTINUOUS
2
N-DES_BL0
70
64
10
0.0000000000
20
0.0000000000
3
N-DES_BL0
1

0
LINE
5
22D
100
AcDbEntity
8
0
100
AcDbLine
62
7
6
CONTINUOUS
10
414.9755083970
20
45.0843010440
11
414.9755083970
21
43.3951104690
0
LINE
5
22E
100
AcDbEntity
8
0
100
AcDbLine
62
7
6
CONTINUOUS
10
420.3809182372
20
42.5505151815
11
414.9755083970
21
43.3951104690
0
LINE
5
22F
100
AcDbEntity
8
DEFAULT_1
100
AcDbLine
62
2
6
CENTER
10
414.1646969210
20
44.2397057565
11
421.1917297132
21
44.2397057565
0
LINE
5
230
100
AcDbEntity
8
0
100
AcDbLine
62
7
6
CONTINUOUS
10
420.3809182372
20
45.9288963316
11
414.9755083970
21
45.0843010440
0
LINE
5
231
100
AcDbEntity
8
0
100
AcDbLine
62
7
6
CONTINUOUS
10
420.3809182372
20
45.9288963316
11
420.3809182372
21
42.5505151815
0
LINE
5
232
100
AcDbEntity
8
0
100
AcDbLine
62
2
6
CONTINUOUS
10
424.7776655988
20
44.3400436767
11
424.7776655988
21
44.1393678363
0
LINE
5
233
100
AcDbEntity
8
DEFAULT_1
100
AcDbLine
62
2
6
CENTER
10
424.7776655988
20
41.6419278076
11
424.7776655988
21
46.7397078076
0
LINE
5
234
100
AcDbEntity
8
0
100
AcDbLine
62
2
6
CONTINUOUS
10
424.8780035190
20
44.2397057565
11
424.6773276787
21
44.2397057565
0
LINE
5
235
100
AcDbEntity
8
DEFAULT_1
100
AcDbLine
62
2
6
CENTER
10
424.2759759980
20
44.2397057565
11
422.2776635477
21
44.2397057565
0
LINE
5
236
100
AcDbEntity
8
DEFAULT_1
100
AcDbLine
62
2
6
CENTER
10
425.2793551996
20
44.2397057565
11
427.2776676499
21
44.2397057565
0
CIRCLE
5
237
100
AcDbEntity
8
0
100
AcDbCircle
62
7
6
CONTINUOUS
10
424.7776655988
20
44.2397057565
40
1.6891905751
0
CIRCLE
5
238
100
AcDbEntity
8
0
100
AcDbCircle
62
7
6
CONTINUOUS
10
424.7776655988
20
44.2397057565
40
0.8445952875
0
ENDBLK
5
239
100
AcDbEntity
8
0
100
AcDbBlockEnd
0
BLOCK
5
23A
100
AcDbEntity
8
0
100
AcDbBlockBegin
62
2
6
CONTINUOUS
2
N-CART_BL1
70
64
10
0.0000000000
20
0.0000000000
3
N-CART_BL1
1

0
LINE
5
23B
100
AcDbEntity
8
0
100
AcDbLine
62
7
6
CONTINUOUS
10
445.0002950648
20
53.4997790807
11
279.0003222648
21
53.4997790807
0
LINE
5
23C
100
AcDbEntity
8
0
100
AcDbLine
62
7
6
CONTINUOUS
10
445.0002950648
20
11.9997858807
11
279.0003222648
21
11.9997858807
0
LINE
5
23D
100
AcDbEntity
8
0
100
AcDbLine
62
7
6
CONTINUOUS
10
445.0002950648
20
53.4997790807
11
445.0002950648
21
11.9997858807
0
LINE
5
23E
100
AcDbEntity
8
0
100
AcDbLine
62
7
6
CONTINUOUS
10
279.0003222648
20
53.4997790807
11
279.0003222648
21
11.9997858807
0
LINE
5
23F
100
AcDbEntity
8
0
100
AcDbLine
62
7
6
CONTINUOUS
10
445.0002950648
20
48.9997798181
11
279.0003222648
21
48.9997798181
0
LINE
5
240
100
AcDbEntity
8
0
100
AcDbLine
62
7
6
CONTINUOUS
10
399.0003026021
20
21.4997843241
11
399.0003026021
21
11.9997858807
0
LINE
5
241
100
AcDbEntity
8
0
100
AcDbLine
62
7
6
CONTINUOUS
10
445.0002950648
20
21.4997843241
11
399.0003026021
21
21.4997843241
0
ENDBLK
5
242
100
AcDbEntity
8
0
100
AcDbBlockEnd
0
BLOCK
5
243
100
AcDbEntity
8
0
100
AcDbBlockBegin
62
2
6
CONTINUOUS
2
*D0
70
65
10
0.0000000000
20
0.0000000000
3
*D0
1

0
TEXT
5
244
100
AcDbEntity
8
0
100
AcDbText
62
2
6
CONTINUOUS
10
93.4661019848
20
166.6629720357
7
TEXTSTYLE_1
40
3.5000000000
1
30
50
90.0000000000
41
0.7333333333
72
0
100
AcDbText
0
TEXT
5
245
100
AcDbEntity
8
0
100
AcDbText
62
2
6
CONTINUOUS
10
93.4661019848
20
171.7963053690
7
TEXTSTYLE_1
40
3.5000000000
1
%%p0,02
50
90.0000000000
41
0.7366666667
72
0
100
AcDbText
0
LINE
5
246
100
AcDbEntity
8
0
100
AcDbLine
62
2
6
CONTINUOUS
10
124.5986049797
20
160.7916585600
11
91.1411019848
21
160.7916585600
0
LINE
5
247
100
AcDbEntity
8
0
100
AcDbLine
62
2
6
CONTINUOUS
10
122.5986049797
20
190.7916585600
11
91.1411019848
21
190.7916585600
0
LINE
5
248
100
AcDbEntity
8
0
100
AcDbLine
62
2
6
CONTINUOUS
10
94.3411019848
20
160.7916585600
11
94.3411019848
21
175.7916585600
0
LINE
5
249
100
AcDbEntity
8
0
100
AcDbLine
62
2
6
CONTINUOUS
10
94.3411019848
20
190.7916585600
11
94.3411019848
21
175.7916585600
0
SOLID
5
24A
100
AcDbEntity
8
0
100
AcDbTrace
62
2
6
CONTINUOUS
10
93.5411019848
20
165.2916585600
11
94.3411019848
21
160.7916585600
12
95.1411019848
22
165.2916585600
13
95.1411019848
23
165.2916585600
0
SOLID
5
24B
100
AcDbEntity
8
0
100
AcDbTrace
62
2
6
CONTINUOUS
10
95.1411019848
20
186.2916585600
11
94.3411019848
21
190.7916585600
12
93.5411019848
22
186.2916585600
13
93.5411019848
23
186.2916585600
0
ENDBLK
5
24C
100
AcDbEntity
8
0
100
AcDbBlockEnd
0
BLOCK
5
24D
100
AcDbEntity
8
0
100
AcDbBlockBegin
62
2
6
CONTINUOUS
2
*D1
70
65
10
0.0000000000
20
0.0000000000
3
*D1
1

0
TEXT
5
24E
100
AcDbEntity
8
0
100
AcDbText
62
2
6
CONTINUOUS
10
130.3490741745
20
215.5693026155
7
TEXTSTYLE_1
40
3.5000000000
1
20
41
0.7333333333
72
0
100
AcDbText
0
LINE
5
24F
100
AcDbEntity
8
0
100
AcDbLine
62
2
6
CONTINUOUS
10
124.0986049797
20
192.2916585600
11
124.0986049797
21
217.8943026155
0
LINE
5
250
100
AcDbEntity
8
0
100
AcDbLine
62
2
6
CONTINUOUS
10
144.0986049797
20
192.2916585600
11
144.0986049797
21
217.8943026155
0
LINE
5
251
100
AcDbEntity
8
0
100
AcDbLine
62
2
6
CONTINUOUS
10
124.0986049797
20
214.6943026155
11
134.0986049797
21
214.6943026155
0
LINE
5
252
100
AcDbEntity
8
0
100
AcDbLine
62
2
6
CONTINUOUS
10
144.0986049797
20
214.6943026155
11
134.0986049797
21
214.6943026155
0
SOLID
5
253
100
AcDbEntity
8
0
100
AcDbTrace
62
2
6
CONTINUOUS
10
128.5986049797
20
215.4943026155
11
124.0986049797
21
214.6943026155
12
128.5986049797
22
213.8943026155
13
128.5986049797
23
213.8943026155
0
SOLID
5
254
100
AcDbEntity
8
0
100
AcDbTrace
62
2
6
CONTINUOUS
10
139.5986049797
20
213.8943026155
11
144.0986049797
21
214.6943026155
12
139.5986049797
22
215.4943026155
13
139.5986049797
23
215.4943026155
0
ENDBLK
5
255
100
AcDbEntity
8
0
100
AcDbBlockEnd
0
BLOCK
5
256
100
AcDbEntity
8
0
100
AcDbBlockBegin
62
2
6
CONTINUOUS
2
*D2
70
65
10
0.0000000000
20
0.0000000000
3
*D2
1

0
TEXT
5
257
100
AcDbEntity
8
0
100
AcDbText
62
2
6
CONTINUOUS
10
133.1044096907
20
144.1254407622
7
TEXTSTYLE_1
40
3.5000000000
1
18
41
0.5333333333
72
0
100
AcDbText
0
LINE
5
258
100
AcDbEntity
8
0
100
AcDbLine
62
2
6
CONTINUOUS
10
126.0986049797
20
159.2916585600
11
126.0986049797
21
140.0504407622
0
LINE
5
259
100
AcDbEntity
8
0
100
AcDbLine
62
2
6
CONTINUOUS
10
144.0986049797
20
159.2916585600
11
144.0986049797
21
140.0504407622
0
LINE
5
25A
100
AcDbEntity
8
0
100
AcDbLine
62
2
6
CONTINUOUS
10
126.0986049797
20
143.2504407622
11
135.0986049797
21
143.2504407622
0
LINE
5
25B
100
AcDbEntity
8
0
100
AcDbLine
62
2
6
CONTINUOUS
10
144.0986049797
20
143.2504407622
11
135.0986049797
21
143.2504407622
0
SOLID
5
25C
100
AcDbEntity
8
0
100
AcDbTrace
62
2
6
CONTINUOUS
10
130.5986049797
20
144.0504407622
11
126.0986049797
21
143.2504407622
12
130.5986049797
22
142.4504407622
13
130.5986049797
23
142.4504407622
0
SOLID
5
25D
100
AcDbEntity
8
0
100
AcDbTrace
62
2
6
CONTINUOUS
10
139.5986049797
20
142.4504407622
11
144.0986049797
21
143.2504407622
12
139.5986049797
22
144.0504407622
13
139.5986049797
23
144.0504407622
0
ENDBLK
5
25E
100
AcDbEntity
8
0
100
AcDbBlockEnd
0
BLOCK
5
25F
100
AcDbEntity
8
0
100
AcDbBlockBegin
62
2
6
CONTINUOUS
2
*D3
70
65
10
0.0000000000
20
0.0000000000
3
*D3
1

0
TEXT
5
260
100
AcDbEntity
8
0
100
AcDbText
62
2
6
CONTINUOUS
10
182.0677679467
20
172.0125528855
7
TEXTSTYLE_1
40
3.5000000000
1
=
41
0.4000000000
72
0
100
AcDbText
0
TEXT
5
261
100
AcDbEntity
8
0
100
AcDbText
62
2
6
CONTINUOUS
10
190.9344346134
20
172.0125528855
7
TEXTSTYLE_1
40
3.5000000000
1
=
41
0.4000000000
72
0
100
AcDbText
0
TEXT
5
262
100
AcDbEntity
8
0
100
AcDbText
62
2
6
CONTINUOUS
10
183.4677679467
20
172.0125528855
7
TEXTSTYLE_1
40
3.5000000000
1
70%%d
41
0.7111111111
72
0
100
AcDbText
0
LINE
5
263
100
AcDbEntity
8
0
100
AcDbLine
62
2
6
CONTINUOUS
10
145.0035325493
20
165.8333739216
11
149.9934433257
21
162.3394007811
0
LINE
5
264
100
AcDbEntity
8
0
100
AcDbLine
62
2
6
CONTINUOUS
10
154.8173198490
20
158.9616860761
11
180.1356032243
21
141.2336332021
0
LINE
5
265
100
AcDbEntity
8
0
100
AcDbLine
62
2
6
CONTINUOUS
10
144.6003066317
20
181.4676013713
11
180.1356032243
21
206.3496839179
0
ARC
5
266
100
AcDbEntity
8
0
100
AcDbCircle
62
2
6
CONTINUOUS
10
133.6379242060
20
173.7916585600
40
53.5631849819
100
AcDbArc
50
325.0000000000
51
356.2222290694
0
ARC
5
267
100
AcDbEntity
8
0
100
AcDbCircle
62
2
6
CONTINUOUS
10
133.6379242060
20
173.7916585600
40
53.5631849819
100
AcDbArc
50
3.7153697113
51
35.0000000000
0
SOLID
5
268
100
AcDbEntity
8
0
100
AcDbTrace
62
2
6
CONTINUOUS
10
177.5143166825
20
143.0690777985
11
179.2643227105
21
147.2913377267
12
180.6123487406
22
146.4294642892
13
180.6123487406
23
146.4294642892
0
SOLID
5
269
100
AcDbEntity
8
0
100
AcDbTrace
62
2
6
CONTINUOUS
10
177.5143166825
20
204.5142393216
11
180.6123487406
21
201.1538528308
12
179.2643227105
22
200.2919793933
13
179.2643227105
23
200.2919793933
0
ENDBLK
5
26A
100
AcDbEntity
8
0
100
AcDbBlockEnd
0
BLOCK
5
26B
100
AcDbEntity
8
0
100
AcDbBlockBegin
62
2
6
CONTINUOUS
2
*D4
70
65
10
0.0000000000
20
0.0000000000
3
*D4
1

0
TEXT
5
26C
100
AcDbEntity
8
0
100
AcDbText
62
2
6
CONTINUOUS
10
161.6761789236
20
165.6785020807
7
TEXTSTYLE_1
40
3.5000000000
1
13
50
90.0000000000
41
0.5333333333
72
0
100
AcDbText
0
LINE
5
26D
100
AcDbEntity
8
0
100
AcDbLine
62
2
6
CONTINUOUS
10
153.5792983888
20
173.7916585600
11
165.7511789236
21
173.7916585600
0
LINE
5
26E
100
AcDbEntity
8
0
100
AcDbLine
62
2
6
CONTINUOUS
10
145.5986049797
20
160.7916585600
11
165.7511789236
21
160.7916585600
0
LINE
5
26F
100
AcDbEntity
8
0
100
AcDbLine
62
2
6
CONTINUOUS
10
162.5511789236
20
173.7916585600
11
162.5511789236
21
175.7916585600
0
LINE
5
270
100
AcDbEntity
8
0
100
AcDbLine
62
2
6
CONTINUOUS
10
162.5511789236
20
175.7916585600
11
162.5511789236
21
167.2916585600
0
LINE
5
271
100
AcDbEntity
8
0
100
AcDbLine
62
2
6
CONTINUOUS
10
162.5511789236
20
160.7916585600
11
162.5511789236
21
158.7916585600
0
LINE
5
272
100
AcDbEntity
8
0
100
AcDbLine
62
2
6
CONTINUOUS
10
162.5511789236
20
158.7916585600
11
162.5511789236
21
167.2916585600
0
SOLID
5
273
100
AcDbEntity
8
0
100
AcDbTrace
62
2
6
CONTINUOUS
10
161.7511789236
20
178.2916585600
11
162.5511789236
21
173.7916585600
12
163.3511789236
22
178.2916585600
13
163.3511789236
23
178.2916585600
0
SOLID
5
274
100
AcDbEntity
8
0
100
AcDbTrace
62
2
6
CONTINUOUS
10
163.3511789236
20
156.2916585600
11
162.5511789236
21
160.7916585600
12
161.7511789236
22
156.2916585600
13
161.7511789236
23
156.2916585600
0
ENDBLK
5
275
100
AcDbEntity
8
0
100
AcDbBlockEnd
0
BLOCK
5
276
100
AcDbEntity
8
0
100
AcDbBlockBegin
62
2
6
CONTINUOUS
2
*D5
70
65
10
0.0000000000
20
0.0000000000
3
*D5
1

0
TEXT
5
277
100
AcDbEntity
8
0
100
AcDbText
62
2
6
CONTINUOUS
10
149.4596237377
20
170.4854712023
7
TEXTSTYLE_1
40
3.5000000000
1
R
50
-39.6479393507
41
0.7666666667
72
0
100
AcDbText
0
TEXT
5
278
100
AcDbEntity
8
0
100
AcDbText
62
2
6
CONTINUOUS
10
151.5257357738
20
168.7733208491
7
TEXTSTYLE_1
40
3.5000000000
1
6
50
-39.6479393507
41
0.7333333333
72
0
100
AcDbText
0
LINE
5
279
100
AcDbEntity
8
0
100
AcDbLine
62
2
6
CONTINUOUS
10
139.4787271349
20
177.6200692877
11
152.9437069541
21
166.4618796300
0
SOLID
5
27A
100
AcDbEntity
8
0
100
AcDbTrace
62
2
6
CONTINUOUS
10
143.4540902822
20
175.3647449546
11
139.4787271349
21
177.6200692877
12
142.4331807548
22
174.1327775293
13
142.4331807548
23
174.1327775293
0
ENDBLK
5
27B
100
AcDbEntity
8
0
100
AcDbBlockEnd
0
BLOCK
5
27C
100
AcDbEntity
8
0
100
AcDbBlockBegin
62
2
6
CONTINUOUS
2
*D6
70
65
10
0.0000000000
20
0.0000000000
3
*D6
1

0
TEXT
5
27D
100
AcDbEntity
8
0
100
AcDbText
62
2
6
CONTINUOUS
10
171.7849229925
20
197.9683067878
7
TEXTSTYLE_1
40
3.5000000000
1
6
50
-55.0000000000
41
0.7333333333
72
0
100
AcDbText
0
LINE
5
27E
100
AcDbEntity
8
0
100
AcDbLine
62
2
6
CONTINUOUS
10
145.3273330461
20
181.9766707471
11
172.4987820659
21
201.0023241748
0
LINE
5
27F
100
AcDbEntity
8
0
100
AcDbLine
62
2
6
CONTINUOUS
10
141.7881497725
20
172.1738604073
11
175.9402406840
21
196.0874119091
0
LINE
5
280
100
AcDbEntity
8
0
100
AcDbLine
62
2
6
CONTINUOUS
10
169.8774955241
20
199.1668795785
11
168.7303426514
21
200.8051836671
0
LINE
5
281
100
AcDbEntity
8
0
100
AcDbLine
62
2
6
CONTINUOUS
10
168.7303426514
20
200.8051836671
11
171.5982248332
21
196.7094234456
0
LINE
5
282
100
AcDbEntity
8
0
100
AcDbLine
62
2
6
CONTINUOUS
10
173.3189541423
20
194.2519673128
11
174.4661070150
21
192.6136632242
0
LINE
5
283
100
AcDbEntity
8
0
100
AcDbLine
62
2
6
CONTINUOUS
10
174.4661070150
20
192.6136632242
11
171.5982248332
21
196.7094234456
0
SOLID
5
284
100
AcDbEntity
8
0
100
AcDbTrace
62
2
6
CONTINUOUS
10
166.6410799251
20
202.3942026287
11
169.8774955241
21
199.1668795785
12
167.9517231960
22
203.3119249269
13
167.9517231960
23
203.3119249269
0
SOLID
5
285
100
AcDbEntity
8
0
100
AcDbTrace
62
2
6
CONTINUOUS
10
176.5553697413
20
191.0246442625
11
173.3189541423
21
194.2519673128
12
175.2447264704
22
190.1069219644
13
175.2447264704
23
190.1069219644
0
ENDBLK
5
286
100
AcDbEntity
8
0
100
AcDbBlockEnd
0
BLOCK
5
287
100
AcDbEntity
8
0
100
AcDbBlockBegin
62
2
6
CONTINUOUS
2
*D7
70
65
10
0.0000000000
20
0.0000000000
3
*D7
1

0
TEXT
5
288
100
AcDbEntity
8
0
100
AcDbText
62
2
6
CONTINUOUS
10
170.7970140546
20
149.7854735045
7
TEXTSTYLE_1
40
3.5000000000
1
6
50
55.0000000000
41
0.7333333333
72
0
100
AcDbText
0
LINE
5
289
100
AcDbEntity
8
0
100
AcDbLine
62
2
6
CONTINUOUS
10
157.0898925313
20
157.3704135528
11
173.1893098036
21
146.0974802179
0
LINE
5
28A
100
AcDbEntity
8
0
100
AcDbLine
62
2
6
CONTINUOUS
10
143.5624125731
20
174.1671045250
11
148.3876809376
21
170.7884152423
0
LINE
5
28B
100
AcDbEntity
8
0
100
AcDbLine
62
2
6
CONTINUOUS
10
154.2576428375
20
166.6782236710
11
155.6712400119
21
165.6884122735
0
LINE
5
28C
100
AcDbEntity
8
0
100
AcDbLine
62
2
6
CONTINUOUS
10
165.0751215116
20
159.1037435590
11
176.6307684217
21
151.0123924836
0
LINE
5
28D
100
AcDbEntity
8
0
100
AcDbLine
62
2
6
CONTINUOUS
10
170.5680232619
20
147.9329248142
11
169.4208703892
21
146.2946207256
0
LINE
5
28E
100
AcDbEntity
8
0
100
AcDbLine
62
2
6
CONTINUOUS
10
169.4208703892
20
146.2946207256
11
172.2887525710
21
150.3903809471
0
LINE
5
28F
100
AcDbEntity
8
0
100
AcDbLine
62
2
6
CONTINUOUS
10
174.0094818800
20
152.8478370799
11
175.1566347527
21
154.4861411685
0
LINE
5
290
100
AcDbEntity
8
0
100
AcDbLine
62
2
6
CONTINUOUS
10
175.1566347527
20
154.4861411685
11
172.2887525710
21
150.3903809471
0
SOLID
5
291
100
AcDbEntity
8
0
100
AcDbTrace
62
2
6
CONTINUOUS
10
168.6422509338
20
143.7878794658
11
170.5680232619
21
147.9329248142
12
167.3316076629
22
144.7056017640
13
167.3316076629
23
144.7056017640
0
SOLID
5
292
100
AcDbEntity
8
0
100
AcDbTrace
62
2
6
CONTINUOUS
10
175.9352542082
20
156.9928824283
11
174.0094818800
21
152.8478370799
12
177.2458974790
22
156.0751601302
13
177.2458974790
23
156.0751601302
0
ENDBLK
5
293
100
AcDbEntity
8
0
100
AcDbBlockEnd
0
BLOCK
5
294
100
AcDbEntity
8
0
100
AcDbBlockBegin
62
2
6
CONTINUOUS
2
*D8
70
65
10
0.0000000000
20
0.0000000000
3
*D8
1

0
TEXT
5
295
100
AcDbEntity
8
0
100
AcDbText
62
2
6
CONTINUOUS
10
106.1517899360
20
169.5384684642
7
TEXTSTYLE_1
40
3.5000000000
1
21
50
90.0000000000
41
0.5333333333
72
0
100
AcDbText
0
LINE
5
296
100
AcDbEntity
8
0
100
AcDbLine
62
2
6
CONTINUOUS
10
124.5986049797
20
160.7916585600
11
103.8267899360
21
160.7916585600
0
LINE
5
297
100
AcDbEntity
8
0
100
AcDbLine
62
2
6
CONTINUOUS
10
122.5986049797
20
181.7916585600
11
103.8267899360
21
181.7916585600
0
LINE
5
298
100
AcDbEntity
8
0
100
AcDbLine
62
2
6
CONTINUOUS
10
107.0267899360
20
160.7916585600
11
107.0267899360
21
171.2916585600
0
LINE
5
299
100
AcDbEntity
8
0
100
AcDbLine
62
2
6
CONTINUOUS
10
107.0267899360
20
181.7916585600
11
107.0267899360
21
171.2916585600
0
SOLID
5
29A
100
AcDbEntity
8
0
100
AcDbTrace
62
2
6
CONTINUOUS
10
106.2267899360
20
165.2916585600
11
107.0267899360
21
160.7916585600
12
107.8267899360
22
165.2916585600
13
107.8267899360
23
165.2916585600
0
SOLID
5
29B
100
AcDbEntity
8
0
100
AcDbTrace
62
2
6
CONTINUOUS
10
107.8267899360
20
177.2916585600
11
107.0267899360
21
181.7916585600
12
106.2267899360
22
177.2916585600
13
106.2267899360
23
177.2916585600
0
ENDBLK
5
29C
100
AcDbEntity
8
0
100
AcDbBlockEnd
0
BLOCK
5
29D
100
AcDbEntity
8
0
100
AcDbBlockBegin
62
2
6
CONTINUOUS
2
*D9
70
65
10
0.0000000000
20
0.0000000000
3
*D9
1

0
TEXT
5
29E
100
AcDbEntity
8
0
100
AcDbText
62
2
6
CONTINUOUS
10
106.1517899360
20
197.2075737880
7
TEXTSTYLE_1
40
3.5000000000
1
2
50
90.0000000000
41
0.7333333333
72
0
100
AcDbText
0
LINE
5
29F
100
AcDbEntity
8
0
100
AcDbLine
62
2
6
CONTINUOUS
10
128.5986049797
20
188.7916585600
11
103.8267899360
21
188.7916585600
0
LINE
5
2A0
100
AcDbEntity
8
0
100
AcDbLine
62
2
6
CONTINUOUS
10
122.5986049797
20
190.7916585600
11
103.8267899360
21
190.7916585600
0
LINE
5
2A1
100
AcDbEntity
8
0
100
AcDbLine
62
2
6
CONTINUOUS
10
107.0267899360
20
188.7916585600
11
107.0267899360
21
186.7916585600
0
LINE
5
2A2
100
AcDbEntity
8
0
100
AcDbLine
62
2
6
CONTINUOUS
10
107.0267899360
20
186.7916585600
11
107.0267899360
21
189.7916585600
0
LINE
5
2A3
100
AcDbEntity
8
0
100
AcDbLine
62
2
6
CONTINUOUS
10
107.0267899360
20
190.7916585600
11
107.0267899360
21
199.7742404547
0
LINE
5
2A4
100
AcDbEntity
8
0
100
AcDbLine
62
2
6
CONTINUOUS
10
107.0267899360
20
199.7742404547
11
107.0267899360
21
189.7916585600
0
SOLID
5
2A5
100
AcDbEntity
8
0
100
AcDbTrace
62
2
6
CONTINUOUS
10
107.8267899360
20
184.2916585600
11
107.0267899360
21
188.7916585600
12
106.2267899360
22
184.2916585600
13
106.2267899360
23
184.2916585600
0
SOLID
5
2A6
100
AcDbEntity
8
0
100
AcDbTrace
62
2
6
CONTINUOUS
10
106.2267899360
20
195.2916585600
11
107.0267899360
21
190.7916585600
12
107.8267899360
22
195.2916585600
13
107.8267899360
23
195.2916585600
0
ENDBLK
5
2A7
100
AcDbEntity
8
0
100
AcDbBlockEnd
0
BLOCK
5
2A8
100
AcDbEntity
8
0
100
AcDbBlockBegin
62
2
6
CONTINUOUS
2
*D10
70
65
10
0.0000000000
20
0.0000000000
3
*D10
1

0
TEXT
5
2A9
100
AcDbEntity
8
0
100
AcDbText
62
2
6
CONTINUOUS
10
116.7017146305
20
151.8097383448
7
TEXTSTYLE_1
40
3.5000000000
1
2
41
0.7333333333
72
0
100
AcDbText
0
LINE
5
2AA
100
AcDbEntity
8
0
100
AcDbLine
62
2
6
CONTINUOUS
10
126.0986049797
20
159.2916585600
11
126.0986049797
21
147.7347383448
0
LINE
5
2AB
100
AcDbEntity
8
0
100
AcDbLine
62
2
6
CONTINUOUS
10
128.0986049797
20
163.2916585600
11
128.0986049797
21
147.7347383448
0
LINE
5
2AC
100
AcDbEntity
8
0
100
AcDbLine
62
2
6
CONTINUOUS
10
126.0986049797
20
150.9347383448
11
116.7017146305
21
150.9347383448
0
LINE
5
2AD
100
AcDbEntity
8
0
100
AcDbLine
62
2
6
CONTINUOUS
10
116.7017146305
20
150.9347383448
11
127.0986049797
21
150.9347383448
0
LINE
5
2AE
100
AcDbEntity
8
0
100
AcDbLine
62
2
6
CONTINUOUS
10
128.0986049797
20
150.9347383448
11
130.0986049797
21
150.9347383448
0
LINE
5
2AF
100
AcDbEntity
8
0
100
AcDbLine
62
2
6
CONTINUOUS
10
130.0986049797
20
150.9347383448
11
127.0986049797
21
150.9347383448
0
SOLID
5
2B0
100
AcDbEntity
8
0
100
AcDbTrace
62
2
6
CONTINUOUS
10
121.5986049797
20
150.1347383448
11
126.0986049797
21
150.9347383448
12
121.5986049797
22
151.7347383448
13
121.5986049797
23
151.7347383448
0
SOLID
5
2B1
100
AcDbEntity
8
0
100
AcDbTrace
62
2
6
CONTINUOUS
10
132.5986049797
20
151.7347383448
11
128.0986049797
21
150.9347383448
12
132.5986049797
22
150.1347383448
13
132.5986049797
23
150.1347383448
0
ENDBLK
5
2B2
100
AcDbEntity
8
0
100
AcDbBlockEnd
0
BLOCK
5
2B3
100
AcDbEntity
8
0
100
AcDbBlockBegin
62
2
6
CONTINUOUS
2
*D11
70
65
10
0.0000000000
20
0.0000000000
3
*D11
1

0
TEXT
5
2B4
100
AcDbEntity
8
0
100
AcDbText
62
2
6
CONTINUOUS
10
150.5902464438
20
207.9705692520
7
TEXTSTYLE_1
40
3.5000000000
1
2
41
0.7333333333
72
0
100
AcDbText
0
LINE
5
2B5
100
AcDbEntity
8
0
100
AcDbLine
62
2
6
CONTINUOUS
10
142.0986049797
20
188.2916585600
11
142.0986049797
21
196.7126544325
0
LINE
5
2B6
100
AcDbEntity
8
0
100
AcDbLine
62
2
6
CONTINUOUS
10
142.0986049797
20
202.3516512741
11
142.0986049797
21
210.2955692520
0
LINE
5
2B7
100
AcDbEntity
8
0
100
AcDbLine
62
2
6
CONTINUOUS
10
144.0986049797
20
192.2916585600
11
144.0986049797
21
210.2955692520
0
LINE
5
2B8
100
AcDbEntity
8
0
100
AcDbLine
62
2
6
CONTINUOUS
10
142.0986049797
20
207.0955692520
11
140.0986049797
21
207.0955692520
0
LINE
5
2B9
100
AcDbEntity
8
0
100
AcDbLine
62
2
6
CONTINUOUS
10
140.0986049797
20
207.0955692520
11
143.0986049797
21
207.0955692520
0
LINE
5
2BA
100
AcDbEntity
8
0
100
AcDbLine
62
2
6
CONTINUOUS
10
144.0986049797
20
207.0955692520
11
153.1569131104
21
207.0955692520
0
LINE
5
2BB
100
AcDbEntity
8
0
100
AcDbLine
62
2
6
CONTINUOUS
10
153.1569131104
20
207.0955692520
11
143.0986049797
21
207.0955692520
0
SOLID
5
2BC
100
AcDbEntity
8
0
100
AcDbTrace
62
2
6
CONTINUOUS
10
137.5986049797
20
206.2955692520
11
142.0986049797
21
207.0955692520
12
137.5986049797
22
207.8955692520
13
137.5986049797
23
207.8955692520
0
SOLID
5
2BD
100
AcDbEntity
8
0
100
AcDbTrace
62
2
6
CONTINUOUS
10
148.5986049797
20
207.8955692520
11
144.0986049797
21
207.0955692520
12
148.5986049797
22
206.2955692520
13
148.5986049797
23
206.2955692520
0
ENDBLK
5
2BE
100
AcDbEntity
8
0
100
AcDbBlockEnd
0
BLOCK
5
2BF
100
AcDbEntity
8
0
100
AcDbBlockBegin
62
2
6
CONTINUOUS
2
*D12
70
65
10
0.0000000000
20
0.0000000000
3
*D12
1

0
TEXT
5
2C0
100
AcDbEntity
8
0
100
AcDbText
62
2
6
CONTINUOUS
10
157.5501282125
20
204.2284561287
7
TEXTSTYLE_1
40
3.5000000000
1
2
50
-55.0000000000
41
0.7333333333
72
0
100
AcDbText
0
LINE
5
2C1
100
AcDbEntity
8
0
100
AcDbLine
62
2
6
CONTINUOUS
10
145.3273330461
20
181.9766707471
11
165.8883994708
21
196.3736844513
0
LINE
5
2C2
100
AcDbEntity
8
0
100
AcDbLine
62
2
6
CONTINUOUS
10
140.7387215553
20
181.2052395689
11
164.7412465981
21
198.0119885399
0
LINE
5
2C3
100
AcDbEntity
8
0
100
AcDbLine
62
2
6
CONTINUOUS
10
163.2671129291
20
194.5382398550
11
164.4142658018
21
192.8999357664
0
LINE
5
2C4
100
AcDbEntity
8
0
100
AcDbLine
62
2
6
CONTINUOUS
10
164.4142658018
20
192.8999357664
11
162.6935364927
21
195.3573918993
0
LINE
5
2C5
100
AcDbEntity
8
0
100
AcDbLine
62
2
6
CONTINUOUS
10
162.1199600564
20
196.1765439436
11
156.8333701737
21
203.7265767469
0
LINE
5
2C6
100
AcDbEntity
8
0
100
AcDbLine
62
2
6
CONTINUOUS
10
156.8333701737
20
203.7265767469
11
162.6935364927
21
195.3573918993
0
SOLID
5
2C7
100
AcDbEntity
8
0
100
AcDbTrace
62
2
6
CONTINUOUS
10
166.5035285281
20
191.3109168048
11
163.2671129291
21
194.5382398550
12
165.1928852572
22
190.3931945066
13
165.1928852572
23
190.3931945066
0
SOLID
5
2C8
100
AcDbEntity
8
0
100
AcDbTrace
62
2
6
CONTINUOUS
10
158.8835444574
20
199.4038669938
11
162.1199600564
21
196.1765439436
12
160.1941877282
22
200.3215892919
13
160.1941877282
23
200.3215892919
0
ENDBLK
5
2C9
100
AcDbEntity
8
0
100
AcDbBlockEnd
0
BLOCK
5
2CA
100
AcDbEntity
8
0
100
AcDbBlockBegin
62
2
6
CONTINUOUS
2
*D13
70
65
10
0.0000000000
20
0.0000000000
3
*D13
1

0
TEXT
5
2CB
100
AcDbEntity
8
0
100
AcDbText
62
2
6
CONTINUOUS
10
127.4395615544
20
200.2282360731
7
TEXTSTYLE_1
40
3.5000000000
1
2
41
0.7333333333
72
0
100
AcDbText
0
LINE
5
2CC
100
AcDbEntity
8
0
100
AcDbLine
62
2
6
CONTINUOUS
10
138.0986049797
20
175.2916585600
11
138.0986049797
21
202.5532360731
0
LINE
5
2CD
100
AcDbEntity
8
0
100
AcDbLine
62
2
6
CONTINUOUS
10
136.0986049797
20
171.8353673736
11
136.0986049797
21
202.5532360731
0
LINE
5
2CE
100
AcDbEntity
8
0
100
AcDbLine
62
2
6
CONTINUOUS
10
138.0986049797
20
199.3532360731
11
140.0986049797
21
199.3532360731
0
LINE
5
2CF
100
AcDbEntity
8
0
100
AcDbLine
62
2
6
CONTINUOUS
10
140.0986049797
20
199.3532360731
11
137.0986049797
21
199.3532360731
0
LINE
5
2D0
100
AcDbEntity
8
0
100
AcDbLine
62
2
6
CONTINUOUS
10
136.0986049797
20
199.3532360731
11
127.4395615544
21
199.3532360731
0
LINE
5
2D1
100
AcDbEntity
8
0
100
AcDbLine
62
2
6
CONTINUOUS
10
127.4395615544
20
199.3532360731
11
137.0986049797
21
199.3532360731
0
SOLID
5
2D2
100
AcDbEntity
8
0
100
AcDbTrace
62
2
6
CONTINUOUS
10
142.5986049797
20
200.1532360731
11
138.0986049797
21
199.3532360731
12
142.5986049797
22
198.5532360731
13
142.5986049797
23
198.5532360731
0
SOLID
5
2D3
100
AcDbEntity
8
0
100
AcDbTrace
62
2
6
CONTINUOUS
10
131.5986049797
20
198.5532360731
11
136.0986049797
21
199.3532360731
12
131.5986049797
22
200.1532360731
13
131.5986049797
23
200.1532360731
0
ENDBLK
5
2D4
100
AcDbEntity
8
0
100
AcDbBlockEnd
0
BLOCK
5
2D5
100
AcDbEntity
8
0
100
AcDbBlockBegin
62
2
6
CONTINUOUS
2
*D14
70
65
10
0.0000000000
20
0.0000000000
3
*D14
1

0
TEXT
5
2D6
100
AcDbEntity
8
0
100
AcDbText
62
2
6
CONTINUOUS
10
140.3177659789
20
151.5852518267
7
TEXTSTYLE_1
40
3.5000000000
1
5
41
0.7333333333
72
0
100
AcDbText
0
LINE
5
2D7
100
AcDbEntity
8
0
100
AcDbLine
62
2
6
CONTINUOUS
10
139.0986049797
20
163.2916585600
11
139.0986049797
21
147.5102518267
0
LINE
5
2D8
100
AcDbEntity
8
0
100
AcDbLine
62
2
6
CONTINUOUS
10
144.0986049797
20
159.2916585600
11
144.0986049797
21
147.5102518267
0
LINE
5
2D9
100
AcDbEntity
8
0
100
AcDbLine
62
2
6
CONTINUOUS
10
139.0986049797
20
150.7102518267
11
137.0986049797
21
150.7102518267
0
LINE
5
2DA
100
AcDbEntity
8
0
100
AcDbLine
62
2
6
CONTINUOUS
10
137.0986049797
20
150.7102518267
11
141.5986049797
21
150.7102518267
0
LINE
5
2DB
100
AcDbEntity
8
0
100
AcDbLine
62
2
6
CONTINUOUS
10
144.0986049797
20
150.7102518267
11
146.0986049797
21
150.7102518267
0
LINE
5
2DC
100
AcDbEntity
8
0
100
AcDbLine
62
2
6
CONTINUOUS
10
146.0986049797
20
150.7102518267
11
141.5986049797
21
150.7102518267
0
SOLID
5
2DD
100
AcDbEntity
8
0
100
AcDbTrace
62
2
6
CONTINUOUS
10
134.5986049797
20
149.9102518267
11
139.0986049797
21
150.7102518267
12
134.5986049797
22
151.5102518267
13
134.5986049797
23
151.5102518267
0
SOLID
5
2DE
100
AcDbEntity
8
0
100
AcDbTrace
62
2
6
CONTINUOUS
10
148.5986049797
20
151.5102518267
11
144.0986049797
21
150.7102518267
12
148.5986049797
22
149.9102518267
13
148.5986049797
23
149.9102518267
0
ENDBLK
5
2DF
100
AcDbEntity
8
0
100
AcDbBlockEnd
0
BLOCK
5
2E0
100
AcDbEntity
8
0
100
AcDbBlockBegin
62
2
6
CONTINUOUS
2
*D15
70
65
10
0.0000000000
20
0.0000000000
3
*D15
1

0
TEXT
5
2E1
100
AcDbEntity
8
0
100
AcDbText
62
2
6
CONTINUOUS
10
116.4078667412
20
173.4107930184
7
TEXTSTYLE_1
40
3.5000000000
1
R
50
44.7051301451
41
0.7666666667
72
0
100
AcDbText
0
TEXT
5
2E2
100
AcDbEntity
8
0
100
AcDbText
62
2
6
CONTINUOUS
10
118.3150096574
20
175.2984062401
7
TEXTSTYLE_1
40
3.5000000000
1
2
50
44.7051301451
41
0.7333333333
72
0
100
AcDbText
0
LINE
5
2E3
100
AcDbEntity
8
0
100
AcDbLine
62
2
6
CONTINUOUS
10
125.5200779607
20
181.1985752470
11
117.0233927917
21
172.7888985892
0
SOLID
5
2E4
100
AcDbEntity
8
0
100
AcDbTrace
62
2
6
CONTINUOUS
10
122.8845304282
20
177.4644235088
11
125.5200779607
21
181.1985752470
12
121.7589970786
22
178.6016018937
13
121.7589970786
23
178.6016018937
0
ENDBLK
5
2E5
100
AcDbEntity
8
0
100
AcDbBlockEnd
0
BLOCK
5
2E6
100
AcDbEntity
8
0
100
AcDbBlockBegin
62
2
6
CONTINUOUS
2
*D16
70
65
10
0.0000000000
20
0.0000000000
3
*D16
1

0
TEXT
5
2E7
100
AcDbEntity
8
0
100
AcDbText
62
2
6
CONTINUOUS
10
129.5842174271
20
171.0951425044
7
TEXTSTYLE_1
40
3.5000000000
1
R
50
-34.8735395863
41
0.7666666667
72
0
100
AcDbText
0
TEXT
5
2E8
100
AcDbEntity
8
0
100
AcDbText
62
2
6
CONTINUOUS
10
131.7856670742
20
169.5609009235
7
TEXTSTYLE_1
40
3.5000000000
1
2
50
-34.8735395863
41
0.7333333333
72
0
100
AcDbText
0
LINE
5
2E9
100
AcDbEntity
8
0
100
AcDbLine
62
2
6
CONTINUOUS
10
138.7394370148
20
163.6481244624
11
129.0839212594
21
170.3772784891
0
SOLID
5
2EA
100
AcDbEntity
8
0
100
AcDbTrace
62
2
6
CONTINUOUS
10
134.5901512967
20
165.5647433680
11
138.7394370148
21
163.6481244624
12
135.5049785748
22
166.8774089961
13
135.5049785748
23
166.8774089961
0
ENDBLK
5
2EB
100
AcDbEntity
8
0
100
AcDbBlockEnd
0
BLOCK
5
2EC
100
AcDbEntity
8
0
100
AcDbBlockBegin
62
2
6
CONTINUOUS
2
*D17
70
65
10
0.0000000000
20
0.0000000000
3
*D17
1

0
TEXT
5
2ED
100
AcDbEntity
8
0
100
AcDbText
62
2
6
CONTINUOUS
10
257.4535072711
20
202.6397230184
7
TEXTSTYLE_1
40
3.5000000000
1
=
41
0.4000000000
72
0
100
AcDbText
0
TEXT
5
2EE
100
AcDbEntity
8
0
100
AcDbText
62
2
6
CONTINUOUS
10
261.4201739378
20
202.6397230184
7
TEXTSTYLE_1
40
3.5000000000
1
=
41
0.4000000000
72
0
100
AcDbText
0
TEXT
5
2EF
100
AcDbEntity
8
0
100
AcDbText
62
2
6
CONTINUOUS
10
258.8535072711
20
202.6397230184
7
TEXTSTYLE_1
40
3.5000000000
1
9
41
0.7333333333
72
0
100
AcDbText
0
LINE
5
2F0
100
AcDbEntity
8
0
100
AcDbLine
62
2
6
CONTINUOUS
10
264.5117274356
20
192.2916585600
11
264.5117274356
21
204.9647230184
0
LINE
5
2F1
100
AcDbEntity
8
0
100
AcDbLine
62
2
6
CONTINUOUS
10
255.5117274356
20
192.2916585600
11
255.5117274356
21
204.9647230184
0
LINE
5
2F2
100
AcDbEntity
8
0
100
AcDbLine
62
2
6
CONTINUOUS
10
264.5117274356
20
201.7647230184
11
266.5117274356
21
201.7647230184
0
LINE
5
2F3
100
AcDbEntity
8
0
100
AcDbLine
62
2
6
CONTINUOUS
10
266.5117274356
20
201.7647230184
11
260.0117274356
21
201.7647230184
0
LINE
5
2F4
100
AcDbEntity
8
0
100
AcDbLine
62
2
6
CONTINUOUS
10
255.5117274356
20
201.7647230184
11
253.5117274356
21
201.7647230184
0
LINE
5
2F5
100
AcDbEntity
8
0
100
AcDbLine
62
2
6
CONTINUOUS
10
253.5117274356
20
201.7647230184
11
260.0117274356
21
201.7647230184
0
SOLID
5
2F6
100
AcDbEntity
8
0
100
AcDbTrace
62
2
6
CONTINUOUS
10
269.0117274356
20
202.5647230184
11
264.5117274356
21
201.7647230184
12
269.0117274356
22
200.9647230184
13
269.0117274356
23
200.9647230184
0
SOLID
5
2F7
100
AcDbEntity
8
0
100
AcDbTrace
62
2
6
CONTINUOUS
10
251.0117274356
20
200.9647230184
11
255.5117274356
21
201.7647230184
12
251.0117274356
22
202.5647230184
13
251.0117274356
23
202.5647230184
0
ENDBLK
5
2F8
100
AcDbEntity
8
0
100
AcDbBlockEnd
0
BLOCK
5
2F9
100
AcDbEntity
8
0
100
AcDbBlockBegin
62
2
6
CONTINUOUS
2
*D18
70
65
10
0.0000000000
20
0.0000000000
3
*D18
1

0
TEXT
5
2FA
100
AcDbEntity
8
0
100
AcDbText
62
2
6
CONTINUOUS
10
243.5560983691
20
169.4924405561
7
TEXTSTYLE_1
40
3.5000000000
1
25,5
50
90.0000000000
41
0.6291666667
72
0
100
AcDbText
0
LINE
5
2FB
100
AcDbEntity
8
0
100
AcDbLine
62
2
6
CONTINUOUS
10
251.8617274356
20
186.2916585600
11
241.2310983691
21
186.2916585600
0
LINE
5
2FC
100
AcDbEntity
8
0
100
AcDbLine
62
2
6
CONTINUOUS
10
254.0117274356
20
160.7916585600
11
241.2310983691
21
160.7916585600
0
LINE
5
2FD
100
AcDbEntity
8
0
100
AcDbLine
62
2
6
CONTINUOUS
10
244.4310983691
20
186.2916585600
11
244.4310983691
21
173.5416585600
0
LINE
5
2FE
100
AcDbEntity
8
0
100
AcDbLine
62
2
6
CONTINUOUS
10
244.4310983691
20
160.7916585600
11
244.4310983691
21
173.5416585600
0
SOLID
5
2FF
100
AcDbEntity
8
0
100
AcDbTrace
62
2
6
CONTINUOUS
10
245.2310983691
20
181.7916585600
11
244.4310983691
21
186.2916585600
12
243.6310983691
22
181.7916585600
13
243.6310983691
23
181.7916585600
0
SOLID
5
300
100
AcDbEntity
8
0
100
AcDbTrace
62
2
6
CONTINUOUS
10
243.6310983691
20
165.2916585600
11
244.4310983691
21
160.7916585600
12
245.2310983691
22
165.2916585600
13
245.2310983691
23
165.2916585600
0
ENDBLK
5
301
100
AcDbEntity
8
0
100
AcDbBlockEnd
0
BLOCK
5
302
100
AcDbEntity
8
0
100
AcDbBlockBegin
62
2
6
CONTINUOUS
2
*D19
70
65
10
0.0000000000
20
0.0000000000
3
*D19
1

0
TEXT
5
303
100
AcDbEntity
8
0
100
AcDbText
62
2
6
CONTINUOUS
10
369.8032160938
20
177.0610527618
7
TEXTSTYLE_1
40
3.5000000000
1
22
50
90.0000000000
41
0.7333333333
72
0
100
AcDbText
0
LINE
5
304
100
AcDbEntity
8
0
100
AcDbLine
62
2
6
CONTINUOUS
10
345.0407849877
20
168.7916585600
11
373.8782160938
21
168.7916585600
0
LINE
5
305
100
AcDbEntity
8
0
100
AcDbLine
62
2
6
CONTINUOUS
10
351.5407849877
20
190.7916585600
11
358.5449076432
21
190.7916585600
0
LINE
5
306
100
AcDbEntity
8
0
100
AcDbLine
62
2
6
CONTINUOUS
10
364.3895808442
20
190.7916585600
11
373.8782160938
21
190.7916585600
0
LINE
5
307
100
AcDbEntity
8
0
100
AcDbLine
62
2
6
CONTINUOUS
10
370.6782160938
20
168.7916585600
11
370.6782160938
21
179.7916585600
0
LINE
5
308
100
AcDbEntity
8
0
100
AcDbLine
62
2
6
CONTINUOUS
10
370.6782160938
20
190.7916585600
11
370.6782160938
21
179.7916585600
0
SOLID
5
309
100
AcDbEntity
8
0
100
AcDbTrace
62
2
6
CONTINUOUS
10
369.8782160938
20
173.2916585600
11
370.6782160938
21
168.7916585600
12
371.4782160938
22
173.2916585600
13
371.4782160938
23
173.2916585600
0
SOLID
5
30A
100
AcDbEntity
8
0
100
AcDbTrace
62
2
6
CONTINUOUS
10
371.4782160938
20
186.2916585600
11
370.6782160938
21
190.7916585600
12
369.8782160938
22
186.2916585600
13
369.8782160938
23
186.2916585600
0
ENDBLK
5
30B
100
AcDbEntity
8
0
100
AcDbBlockEnd
0
BLOCK
5
30C
100
AcDbEntity
8
0
100
AcDbBlockBegin
62
2
6
CONTINUOUS
2
*D20
70
65
10
0.0000000000
20
0.0000000000
3
*D20
1

0
TEXT
5
30D
100
AcDbEntity
8
0
100
AcDbText
62
2
6
CONTINUOUS
10
360.7418613219
20
195.2800842345
7
TEXTSTYLE_1
40
3.5000000000
1
M
50
90.0000000000
41
0.9333333333
72
0
100
AcDbText
0
TEXT
5
30E
100
AcDbEntity
8
0
100
AcDbText
62
2
6
CONTINUOUS
10
360.7418613219
20
198.5467509012
7
TEXTSTYLE_1
40
3.5000000000
1
4
50
90.0000000000
41
0.8000000000
72
0
100
AcDbText
0
LINE
5
30F
100
AcDbEntity
8
0
100
AcDbLine
62
2
6
CONTINUOUS
10
351.5407849877
20
188.2916585600
11
364.8168613219
21
188.2916585600
0
LINE
5
310
100
AcDbEntity
8
0
100
AcDbLine
62
2
6
CONTINUOUS
10
351.5407849877
20
184.2916585600
11
364.8168613219
21
184.2916585600
0
LINE
5
311
100
AcDbEntity
8
0
100
AcDbLine
62
2
6
CONTINUOUS
10
361.6168613219
20
188.2916585600
11
361.6168613219
21
201.3467509012
0
LINE
5
312
100
AcDbEntity
8
0
100
AcDbLine
62
2
6
CONTINUOUS
10
361.6168613219
20
201.3467509012
11
361.6168613219
21
186.2916585600
0
LINE
5
313
100
AcDbEntity
8
0
100
AcDbLine
62
2
6
CONTINUOUS
10
361.6168613219
20
184.2916585600
11
361.6168613219
21
182.2916585600
0
LINE
5
314
100
AcDbEntity
8
0
100
AcDbLine
62
2
6
CONTINUOUS
10
361.6168613219
20
182.2916585600
11
361.6168613219
21
186.2916585600
0
SOLID
5
315
100
AcDbEntity
8
0
100
AcDbTrace
62
2
6
CONTINUOUS
10
360.8168613219
20
192.7916585600
11
361.6168613219
21
188.2916585600
12
362.4168613219
22
192.7916585600
13
362.4168613219
23
192.7916585600
0
SOLID
5
316
100
AcDbEntity
8
0
100
AcDbTrace
62
2
6
CONTINUOUS
10
362.4168613219
20
179.7916585600
11
361.6168613219
21
184.2916585600
12
360.8168613219
22
179.7916585600
13
360.8168613219
23
179.7916585600
0
ENDBLK
5
317
100
AcDbEntity
8
0
100
AcDbBlockEnd
0
BLOCK
5
318
100
AcDbEntity
8
0
100
AcDbBlockBegin
62
2
6
CONTINUOUS
2
*D21
70
65
10
0.0000000000
20
0.0000000000
3
*D21
1

0
TEXT
5
319
100
AcDbEntity
8
0
100
AcDbText
62
2
6
CONTINUOUS
10
349.2742512528
20
148.7548846093
7
TEXTSTYLE_1
40
3.5000000000
1
M
41
0.9333333333
72
0
100
AcDbText
0
TEXT
5
31A
100
AcDbEntity
8
0
100
AcDbText
62
2
6
CONTINUOUS
10
352.5409179195
20
148.7548846093
7
TEXTSTYLE_1
40
3.5000000000
1
3
41
0.7333333333
72
0
100
AcDbText
0
LINE
5
31B
100
AcDbEntity
8
0
100
AcDbLine
62
2
6
CONTINUOUS
10
340.5407849877
20
159.2916585600
11
340.5407849877
21
144.6798846093
0
LINE
5
31C
100
AcDbEntity
8
0
100
AcDbLine
62
2
6
CONTINUOUS
10
343.5407849877
20
159.2916585600
11
343.5407849877
21
144.6798846093
0
LINE
5
31D
100
AcDbEntity
8
0
100
AcDbLine
62
2
6
CONTINUOUS
10
340.5407849877
20
147.8798846093
11
338.5407849877
21
147.8798846093
0
LINE
5
31E
100
AcDbEntity
8
0
100
AcDbLine
62
2
6
CONTINUOUS
10
338.5407849877
20
147.8798846093
11
342.0407849877
21
147.8798846093
0
LINE
5
31F
100
AcDbEntity
8
0
100
AcDbLine
62
2
6
CONTINUOUS
10
343.5407849877
20
147.8798846093
11
355.1075845861
21
147.8798846093
0
LINE
5
320
100
AcDbEntity
8
0
100
AcDbLine
62
2
6
CONTINUOUS
10
355.1075845861
20
147.8798846093
11
342.0407849877
21
147.8798846093
0
SOLID
5
321
100
AcDbEntity
8
0
100
AcDbTrace
62
2
6
CONTINUOUS
10
336.0407849877
20
147.0798846093
11
340.5407849877
21
147.8798846093
12
336.0407849877
22
148.6798846093
13
336.0407849877
23
148.6798846093
0
SOLID
5
322
100
AcDbEntity
8
0
100
AcDbTrace
62
2
6
CONTINUOUS
10
348.0407849877
20
148.6798846093
11
343.5407849877
21
147.8798846093
12
348.0407849877
22
147.0798846093
13
348.0407849877
23
147.0798846093
0
ENDBLK
5
323
100
AcDbEntity
8
0
100
AcDbBlockEnd
0
BLOCK
5
324
100
AcDbEntity
8
0
100
AcDbBlockBegin
62
2
6
CONTINUOUS
2
*D22
70
65
10
0.0000000000
20
0.0000000000
3
*D22
1

0
TEXT
5
325
100
AcDbEntity
8
0
100
AcDbText
62
2
6
CONTINUOUS
10
320.1526520189
20
148.5719468875
7
TEXTSTYLE_1
40
3.5000000000
1
5,5
50
90.0000000000
41
0.5944444444
72
0
100
AcDbText
0
LINE
5
326
100
AcDbEntity
8
0
100
AcDbLine
62
2
6
CONTINUOUS
10
328.2218802427
20
160.7916585600
11
317.8276520189
21
160.7916585600
0
LINE
5
327
100
AcDbEntity
8
0
100
AcDbLine
62
2
6
CONTINUOUS
10
331.0407849877
20
166.2916585600
11
317.8276520189
21
166.2916585600
0
LINE
5
328
100
AcDbEntity
8
0
100
AcDbLine
62
2
6
CONTINUOUS
10
321.0276520189
20
160.7916585600
11
321.0276520189
21
148.5719468875
0
LINE
5
329
100
AcDbEntity
8
0
100
AcDbLine
62
2
6
CONTINUOUS
10
321.0276520189
20
148.5719468875
11
321.0276520189
21
163.5416585600
0
LINE
5
32A
100
AcDbEntity
8
0
100
AcDbLine
62
2
6
CONTINUOUS
10
321.0276520189
20
166.2916585600
11
321.0276520189
21
168.2916585600
0
LINE
5
32B
100
AcDbEntity
8
0
100
AcDbLine
62
2
6
CONTINUOUS
10
321.0276520189
20
168.2916585600
11
321.0276520189
21
163.5416585600
0
SOLID
5
32C
100
AcDbEntity
8
0
100
AcDbTrace
62
2
6
CONTINUOUS
10
321.8276520189
20
156.2916585600
11
321.0276520189
21
160.7916585600
12
320.2276520189
22
156.2916585600
13
320.2276520189
23
156.2916585600
0
SOLID
5
32D
100
AcDbEntity
8
0
100
AcDbTrace
62
2
6
CONTINUOUS
10
320.2276520189
20
170.7916585600
11
321.0276520189
21
166.2916585600
12
321.8276520189
22
170.7916585600
13
321.8276520189
23
170.7916585600
0
ENDBLK
5
32E
100
AcDbEntity
8
0
100
AcDbBlockEnd
0
BLOCK
5
32F
100
AcDbEntity
8
0
100
AcDbBlockBegin
62
2
6
CONTINUOUS
2
*D23
70
65
10
0.0000000000
20
0.0000000000
3
*D23
1

0
TEXT
5
330
100
AcDbEntity
8
0
100
AcDbText
62
2
6
CONTINUOUS
10
313.5713441857
20
139.5003247918
7
TEXTSTYLE_1
40
3.5000000000
1
%%c
41
1.3333333333
72
0
100
AcDbText
0
TEXT
5
331
100
AcDbEntity
8
0
100
AcDbText
62
2
6
CONTINUOUS
10
320.8046775190
20
139.5003247918
7
TEXTSTYLE_1
40
3.5000000000
1
H7
41
0.7666666667
72
0
100
AcDbText
0
TEXT
5
332
100
AcDbEntity
8
0
100
AcDbText
62
2
6
CONTINUOUS
10
318.2380108523
20
139.5003247918
7
TEXTSTYLE_1
40
3.5000000000
1
3
41
0.7333333333
72
0
100
AcDbText
0
LINE
5
333
100
AcDbEntity
8
0
100
AcDbLine
62
2
6
CONTINUOUS
10
335.5407849877
20
159.2916585600
11
335.5407849877
21
150.6791140521
0
LINE
5
334
100
AcDbEntity
8
0
100
AcDbLine
62
2
6
CONTINUOUS
10
335.5407849877
20
145.4726609613
11
335.5407849877
21
135.4253247918
0
LINE
5
335
100
AcDbEntity
8
0
100
AcDbLine
62
2
6
CONTINUOUS
10
332.5407849877
20
159.2916585600
11
332.5407849877
21
135.4253247918
0
LINE
5
336
100
AcDbEntity
8
0
100
AcDbLine
62
2
6
CONTINUOUS
10
335.5407849877
20
138.6253247918
11
337.5407849877
21
138.6253247918
0
LINE
5
337
100
AcDbEntity
8
0
100
AcDbLine
62
2
6
CONTINUOUS
10
337.5407849877
20
138.6253247918
11
334.0407849877
21
138.6253247918
0
LINE
5
338
100
AcDbEntity
8
0
100
AcDbLine
62
2
6
CONTINUOUS
10
332.5407849877
20
138.6253247918
11
313.5713441857
21
138.6253247918
0
LINE
5
339
100
AcDbEntity
8
0
100
AcDbLine
62
2
6
CONTINUOUS
10
313.5713441857
20
138.6253247918
11
334.0407849877
21
138.6253247918
0
SOLID
5
33A
100
AcDbEntity
8
0
100
AcDbTrace
62
2
6
CONTINUOUS
10
340.0407849877
20
139.4253247918
11
335.5407849877
21
138.6253247918
12
340.0407849877
22
137.8253247918
13
340.0407849877
23
137.8253247918
0
SOLID
5
33B
100
AcDbEntity
8
0
100
AcDbTrace
62
2
6
CONTINUOUS
10
328.0407849877
20
137.8253247918
11
332.5407849877
21
138.6253247918
12
328.0407849877
22
139.4253247918
13
328.0407849877
23
139.4253247918
0
ENDBLK
5
33C
100
AcDbEntity
8
0
100
AcDbBlockEnd
0
BLOCK
5
33D
100
AcDbEntity
8
0
100
AcDbBlockBegin
62
2
6
CONTINUOUS
2
*D24
70
65
10
0.0000000000
20
0.0000000000
3
*D24
1

0
TEXT
5
33E
100
AcDbEntity
8
0
100
AcDbText
62
2
6
CONTINUOUS
10
310.4140261362
20
184.0234933108
7
TEXTSTYLE_1
40
3.5000000000
1
10
50
90.0000000000
41
0.5333333333
72
0
100
AcDbText
0
LINE
5
33F
100
AcDbEntity
8
0
100
AcDbLine
62
2
6
CONTINUOUS
10
331.2907849877
20
190.7916585600
11
308.0890261362
21
190.7916585600
0
LINE
5
340
100
AcDbEntity
8
0
100
AcDbLine
62
2
6
CONTINUOUS
10
331.2907849877
20
180.7916585600
11
323.2165169900
21
180.7916585600
0
LINE
5
341
100
AcDbEntity
8
0
100
AcDbLine
62
2
6
CONTINUOUS
10
318.2168743845
20
180.7916585600
11
308.0890261362
21
180.7916585600
0
LINE
5
342
100
AcDbEntity
8
0
100
AcDbLine
62
2
6
CONTINUOUS
10
311.2890261362
20
190.7916585600
11
311.2890261362
21
192.7916585600
0
LINE
5
343
100
AcDbEntity
8
0
100
AcDbLine
62
2
6
CONTINUOUS
10
311.2890261362
20
192.7916585600
11
311.2890261362
21
185.7916585600
0
LINE
5
344
100
AcDbEntity
8
0
100
AcDbLine
62
2
6
CONTINUOUS
10
311.2890261362
20
180.7916585600
11
311.2890261362
21
178.7916585600
0
LINE
5
345
100
AcDbEntity
8
0
100
AcDbLine
62
2
6
CONTINUOUS
10
311.2890261362
20
178.7916585600
11
311.2890261362
21
185.7916585600
0
SOLID
5
346
100
AcDbEntity
8
0
100
AcDbTrace
62
2
6
CONTINUOUS
10
310.4890261362
20
195.2916585600
11
311.2890261362
21
190.7916585600
12
312.0890261362
22
195.2916585600
13
312.0890261362
23
195.2916585600
0
SOLID
5
347
100
AcDbEntity
8
0
100
AcDbTrace
62
2
6
CONTINUOUS
10
312.0890261362
20
176.2916585600
11
311.2890261362
21
180.7916585600
12
310.4890261362
22
176.2916585600
13
310.4890261362
23
176.2916585600
0
ENDBLK
5
348
100
AcDbEntity
8
0
100
AcDbBlockEnd
0
BLOCK
5
349
100
AcDbEntity
8
0
100
AcDbBlockBegin
62
2
6
CONTINUOUS
2
*D25
70
65
10
0.0000000000
20
0.0000000000
3
*D25
1

0
TEXT
5
34A
100
AcDbEntity
8
0
100
AcDbText
62
2
6
CONTINUOUS
10
320.1526520189
20
185.3564643031
7
TEXTSTYLE_1
40
3.5000000000
1
8
50
90.0000000000
41
0.7333333333
72
0
100
AcDbText
0
LINE
5
34B
100
AcDbEntity
8
0
100
AcDbLine
62
2
6
CONTINUOUS
10
331.0407849877
20
182.7916585600
11
317.8276520189
21
182.7916585600
0
LINE
5
34C
100
AcDbEntity
8
0
100
AcDbLine
62
2
6
CONTINUOUS
10
331.0407849877
20
190.7916585600
11
317.8276520189
21
190.7916585600
0
LINE
5
34D
100
AcDbEntity
8
0
100
AcDbLine
62
2
6
CONTINUOUS
10
321.0276520189
20
182.7916585600
11
321.0276520189
21
180.7916585600
0
LINE
5
34E
100
AcDbEntity
8
0
100
AcDbLine
62
2
6
CONTINUOUS
10
321.0276520189
20
180.7916585600
11
321.0276520189
21
186.7916585600
0
LINE
5
34F
100
AcDbEntity
8
0
100
AcDbLine
62
2
6
CONTINUOUS
10
321.0276520189
20
190.7916585600
11
321.0276520189
21
192.7916585600
0
LINE
5
350
100
AcDbEntity
8
0
100
AcDbLine
62
2
6
CONTINUOUS
10
321.0276520189
20
192.7916585600
11
321.0276520189
21
186.7916585600
0
SOLID
5
351
100
AcDbEntity
8
0
100
AcDbTrace
62
2
6
CONTINUOUS
10
321.8276520189
20
178.2916585600
11
321.0276520189
21
182.7916585600
12
320.2276520189
22
178.2916585600
13
320.2276520189
23
178.2916585600
0
SOLID
5
352
100
AcDbEntity
8
0
100
AcDbTrace
62
2
6
CONTINUOUS
10
320.2276520189
20
195.2916585600
11
321.0276520189
21
190.7916585600
12
321.8276520189
22
195.2916585600
13
321.8276520189
23
195.2916585600
0
ENDBLK
5
353
100
AcDbEntity
8
0
100
AcDbBlockEnd
0
BLOCK
5
354
100
AcDbEntity
8
0
100
AcDbBlockBegin
62
2
6
CONTINUOUS
2
*D26
70
65
10
0.0000000000
20
0.0000000000
3
*D26
1

0
TEXT
5
355
100
AcDbEntity
8
0
100
AcDbText
62
2
6
CONTINUOUS
10
349.5367828916
20
207.4957448573
7
TEXTSTYLE_1
40
3.5000000000
1
%%c
41
1.3333333333
72
0
100
AcDbText
0
TEXT
5
356
100
AcDbEntity
8
0
100
AcDbText
62
2
6
CONTINUOUS
10
356.7701162249
20
207.4957448573
7
TEXTSTYLE_1
40
3.5000000000
1
H8
41
0.7666666667
72
0
100
AcDbText
0
TEXT
5
357
100
AcDbEntity
8
0
100
AcDbText
62
2
6
CONTINUOUS
10
354.2034495582
20
207.4957448573
7
TEXTSTYLE_1
40
3.5000000000
1
3
41
0.7333333333
72
0
100
AcDbText
0
LINE
5
358
100
AcDbEntity
8
0
100
AcDbLine
62
2
6
CONTINUOUS
10
340.5407849877
20
192.2916585600
11
340.5407849877
21
209.8207448573
0
LINE
5
359
100
AcDbEntity
8
0
100
AcDbLine
62
2
6
CONTINUOUS
10
343.5407849877
20
192.2916585600
11
343.5407849877
21
209.8207448573
0
LINE
5
35A
100
AcDbEntity
8
0
100
AcDbLine
62
2
6
CONTINUOUS
10
340.5407849877
20
206.6207448573
11
338.5407849877
21
206.6207448573
0
LINE
5
35B
100
AcDbEntity
8
0
100
AcDbLine
62
2
6
CONTINUOUS
10
338.5407849877
20
206.6207448573
11
342.0407849877
21
206.6207448573
0
LINE
5
35C
100
AcDbEntity
8
0
100
AcDbLine
62
2
6
CONTINUOUS
10
343.5407849877
20
206.6207448573
11
362.1367828916
21
206.6207448573
0
LINE
5
35D
100
AcDbEntity
8
0
100
AcDbLine
62
2
6
CONTINUOUS
10
362.1367828916
20
206.6207448573
11
342.0407849877
21
206.6207448573
0
SOLID
5
35E
100
AcDbEntity
8
0
100
AcDbTrace
62
2
6
CONTINUOUS
10
336.0407849877
20
205.8207448573
11
340.5407849877
21
206.6207448573
12
336.0407849877
22
207.4207448573
13
336.0407849877
23
207.4207448573
0
SOLID
5
35F
100
AcDbEntity
8
0
100
AcDbTrace
62
2
6
CONTINUOUS
10
348.0407849877
20
207.4207448573
11
343.5407849877
21
206.6207448573
12
348.0407849877
22
205.8207448573
13
348.0407849877
23
205.8207448573
0
ENDBLK
5
360
100
AcDbEntity
8
0
100
AcDbBlockEnd
0
BLOCK
5
361
100
AcDbEntity
8
0
100
AcDbBlockBegin
62
2
6
CONTINUOUS
2
*D27
70
65
10
0.0000000000
20
0.0000000000
3
*D27
1

0
TEXT
5
362
100
AcDbEntity
8
0
100
AcDbText
62
2
6
CONTINUOUS
10
320.6272015453
20
200.4651408318
7
TEXTSTYLE_1
40
3.5000000000
1
M
41
0.9333333333
72
0
100
AcDbText
0
TEXT
5
363
100
AcDbEntity
8
0
100
AcDbText
62
2
6
CONTINUOUS
10
323.8938682119
20
200.4651408318
7
TEXTSTYLE_1
40
3.5000000000
1
3
41
0.7333333333
72
0
100
AcDbText
0
LINE
5
364
100
AcDbEntity
8
0
100
AcDbLine
62
2
6
CONTINUOUS
10
332.5407849877
20
192.2916585600
11
332.5407849877
21
202.7901408318
0
LINE
5
365
100
AcDbEntity
8
0
100
AcDbLine
62
2
6
CONTINUOUS
10
335.5407849877
20
192.2916585600
11
335.5407849877
21
202.7901408318
0
LINE
5
366
100
AcDbEntity
8
0
100
AcDbLine
62
2
6
CONTINUOUS
10
332.5407849877
20
199.5901408318
11
320.6272015453
21
199.5901408318
0
LINE
5
367
100
AcDbEntity
8
0
100
AcDbLine
62
2
6
CONTINUOUS
10
320.6272015453
20
199.5901408318
11
334.0407849877
21
199.5901408318
0
LINE
5
368
100
AcDbEntity
8
0
100
AcDbLine
62
2
6
CONTINUOUS
10
335.5407849877
20
199.5901408318
11
337.5407849877
21
199.5901408318
0
LINE
5
369
100
AcDbEntity
8
0
100
AcDbLine
62
2
6
CONTINUOUS
10
337.5407849877
20
199.5901408318
11
334.0407849877
21
199.5901408318
0
SOLID
5
36A
100
AcDbEntity
8
0
100
AcDbTrace
62
2
6
CONTINUOUS
10
328.0407849877
20
198.7901408318
11
332.5407849877
21
199.5901408318
12
328.0407849877
22
200.3901408318
13
328.0407849877
23
200.3901408318
0
SOLID
5
36B
100
AcDbEntity
8
0
100
AcDbTrace
62
2
6
CONTINUOUS
10
340.0407849877
20
200.3901408318
11
335.5407849877
21
199.5901408318
12
340.0407849877
22
198.7901408318
13
340.0407849877
23
198.7901408318
0
ENDBLK
5
36C
100
AcDbEntity
8
0
100
AcDbBlockEnd
0
BLOCK
5
36D
100
AcDbEntity
8
0
100
AcDbBlockBegin
62
2
6
CONTINUOUS
2
*D28
70
65
10
0.0000000000
20
0.0000000000
3
*D28
1

0
TEXT
5
36E
100
AcDbEntity
8
0
100
AcDbText
62
2
6
CONTINUOUS
10
342.3279050925
20
222.7796105402
7
TEXTSTYLE_1
40
3.5000000000
1
12
41
0.5333333333
72
0
100
AcDbText
0
LINE
5
36F
100
AcDbEntity
8
0
100
AcDbLine
62
2
6
CONTINUOUS
10
338.0407849877
20
189.4416585600
11
338.0407849877
21
197.7951045695
0
LINE
5
370
100
AcDbEntity
8
0
100
AcDbLine
62
2
6
CONTINUOUS
10
338.0407849877
20
201.7803658007
11
338.0407849877
21
204.7846396519
0
LINE
5
371
100
AcDbEntity
8
0
100
AcDbLine
62
2
6
CONTINUOUS
10
338.0407849877
20
208.7085891718
11
338.0407849877
21
213.6135260717
0
LINE
5
372
100
AcDbEntity
8
0
100
AcDbLine
62
2
6
CONTINUOUS
10
338.0407849877
20
217.5374755916
11
338.0407849877
21
225.1046105402
0
LINE
5
373
100
AcDbEntity
8
0
100
AcDbLine
62
2
6
CONTINUOUS
10
350.0407849877
20
189.4416585600
11
350.0407849877
21
203.7392078214
0
LINE
5
374
100
AcDbEntity
8
0
100
AcDbLine
62
2
6
CONTINUOUS
10
350.0407849877
20
213.1764204935
11
350.0407849877
21
225.1046105402
0
LINE
5
375
100
AcDbEntity
8
0
100
AcDbLine
62
2
6
CONTINUOUS
10
338.0407849877
20
221.9046105402
11
336.0407849877
21
221.9046105402
0
LINE
5
376
100
AcDbEntity
8
0
100
AcDbLine
62
2
6
CONTINUOUS
10
336.0407849877
20
221.9046105402
11
344.0407849877
21
221.9046105402
0
LINE
5
377
100
AcDbEntity
8
0
100
AcDbLine
62
2
6
CONTINUOUS
10
350.0407849877
20
221.9046105402
11
352.0407849877
21
221.9046105402
0
LINE
5
378
100
AcDbEntity
8
0
100
AcDbLine
62
2
6
CONTINUOUS
10
352.0407849877
20
221.9046105402
11
344.0407849877
21
221.9046105402
0
SOLID
5
379
100
AcDbEntity
8
0
100
AcDbTrace
62
2
6
CONTINUOUS
10
333.5407849877
20
221.1046105402
11
338.0407849877
21
221.9046105402
12
333.5407849877
22
222.7046105402
13
333.5407849877
23
222.7046105402
0
SOLID
5
37A
100
AcDbEntity
8
0
100
AcDbTrace
62
2
6
CONTINUOUS
10
354.5407849877
20
222.7046105402
11
350.0407849877
21
221.9046105402
12
354.5407849877
22
221.1046105402
13
354.5407849877
23
221.1046105402
0
ENDBLK
5
37B
100
AcDbEntity
8
0
100
AcDbBlockEnd
0
BLOCK
5
37C
100
AcDbEntity
8
0
100
AcDbBlockBegin
62
2
6
CONTINUOUS
2
*D29
70
65
10
0.0000000000
20
0.0000000000
3
*D29
1

0
TEXT
5
37D
100
AcDbEntity
8
0
100
AcDbText
62
2
6
CONTINUOUS
10
342.7852073725
20
215.7880355261
7
TEXTSTYLE_1
40
3.5000000000
1
10
41
0.5333333333
72
0
100
AcDbText
0
LINE
5
37E
100
AcDbEntity
8
0
100
AcDbLine
62
2
6
CONTINUOUS
10
340.0407849877
20
189.7916585600
11
340.0407849877
21
197.7763368662
0
LINE
5
37F
100
AcDbEntity
8
0
100
AcDbLine
62
2
6
CONTINUOUS
10
340.0407849877
20
202.0155185232
11
340.0407849877
21
204.8044538238
0
LINE
5
380
100
AcDbEntity
8
0
100
AcDbLine
62
2
6
CONTINUOUS
10
340.0407849877
20
208.7647419508
11
340.0407849877
21
218.1130355261
0
LINE
5
381
100
AcDbEntity
8
0
100
AcDbLine
62
2
6
CONTINUOUS
10
350.0407849877
20
213.0545155856
11
350.0407849877
21
218.1130355261
0
LINE
5
382
100
AcDbEntity
8
0
100
AcDbLine
62
2
6
CONTINUOUS
10
340.0407849877
20
214.9130355261
11
338.0407849877
21
214.9130355261
0
LINE
5
383
100
AcDbEntity
8
0
100
AcDbLine
62
2
6
CONTINUOUS
10
338.0407849877
20
214.9130355261
11
345.0407849877
21
214.9130355261
0
LINE
5
384
100
AcDbEntity
8
0
100
AcDbLine
62
2
6
CONTINUOUS
10
350.0407849877
20
214.9130355261
11
352.0407849877
21
214.9130355261
0
LINE
5
385
100
AcDbEntity
8
0
100
AcDbLine
62
2
6
CONTINUOUS
10
352.0407849877
20
214.9130355261
11
345.0407849877
21
214.9130355261
0
SOLID
5
386
100
AcDbEntity
8
0
100
AcDbTrace
62
2
6
CONTINUOUS
10
335.5407849877
20
214.1130355261
11
340.0407849877
21
214.9130355261
12
335.5407849877
22
215.7130355261
13
335.5407849877
23
215.7130355261
0
SOLID
5
387
100
AcDbEntity
8
0
100
AcDbTrace
62
2
6
CONTINUOUS
10
354.5407849877
20
215.7130355261
11
350.0407849877
21
214.9130355261
12
354.5407849877
22
214.1130355261
13
354.5407849877
23
214.1130355261
0
ENDBLK
5
388
100
AcDbEntity
8
0
100
AcDbBlockEnd
0
BLOCK
5
389
100
AcDbEntity
8
0
100
AcDbBlockBegin
62
2
6
CONTINUOUS
2
*D30
70
65
10
0.0000000000
20
0.0000000000
3
*D30
1

0
TEXT
5
38A
100
AcDbEntity
8
0
100
AcDbText
62
2
6
CONTINUOUS
10
319.6910640660
20
256.5171208294
7
TEXTSTYLE_1
40
3.5000000000
1
=
50
90.0000000000
41
0.4000000000
72
0
100
AcDbText
0
TEXT
5
38B
100
AcDbEntity
8
0
100
AcDbText
62
2
6
CONTINUOUS
10
319.6910640660
20
260.4837874960
7
TEXTSTYLE_1
40
3.5000000000
1
=
50
90.0000000000
41
0.4000000000
72
0
100
AcDbText
0
TEXT
5
38C
100
AcDbEntity
8
0
100
AcDbText
62
2
6
CONTINUOUS
10
319.6910640660
20
257.9171208294
7
TEXTSTYLE_1
40
3.5000000000
1
9
50
90.0000000000
41
0.7333333333
72
0
100
AcDbText
0
LINE
5
38D
100
AcDbEntity
8
0
100
AcDbLine
62
2
6
CONTINUOUS
10
328.5407849877
20
254.6345465274
11
317.3660640660
21
254.6345465274
0
LINE
5
38E
100
AcDbEntity
8
0
100
AcDbLine
62
2
6
CONTINUOUS
10
328.5407849877
20
263.6345465274
11
317.3660640660
21
263.6345465274
0
LINE
5
38F
100
AcDbEntity
8
0
100
AcDbLine
62
2
6
CONTINUOUS
10
320.5660640660
20
254.6345465274
11
320.5660640660
21
252.6345465274
0
LINE
5
390
100
AcDbEntity
8
0
100
AcDbLine
62
2
6
CONTINUOUS
10
320.5660640660
20
252.6345465274
11
320.5660640660
21
259.1345465274
0
LINE
5
391
100
AcDbEntity
8
0
100
AcDbLine
62
2
6
CONTINUOUS
10
320.5660640660
20
263.6345465274
11
320.5660640660
21
265.6345465274
0
LINE
5
392
100
AcDbEntity
8
0
100
AcDbLine
62
2
6
CONTINUOUS
10
320.5660640660
20
265.6345465274
11
320.5660640660
21
259.1345465274
0
SOLID
5
393
100
AcDbEntity
8
0
100
AcDbTrace
62
2
6
CONTINUOUS
10
321.3660640660
20
250.1345465274
11
320.5660640660
21
254.6345465274
12
319.7660640660
22
250.1345465274
13
319.7660640660
23
250.1345465274
0
SOLID
5
394
100
AcDbEntity
8
0
100
AcDbTrace
62
2
6
CONTINUOUS
10
319.7660640660
20
268.1345465274
11
320.5660640660
21
263.6345465274
12
321.3660640660
22
268.1345465274
13
321.3660640660
23
268.1345465274
0
ENDBLK
5
395
100
AcDbEntity
8
0
100
AcDbBlockEnd
0
BLOCK
5
396
100
AcDbEntity
8
0
100
AcDbBlockBegin
62
2
6
CONTINUOUS
2
*D31
70
65
10
0.0000000000
20
0.0000000000
3
*D31
1

0
TEXT
5
397
100
AcDbEntity
8
0
100
AcDbText
62
2
6
CONTINUOUS
10
320.8619229232
20
276.3872745411
7
TEXTSTYLE_1
40
3.5000000000
1
4
41
0.8000000000
72
0
100
AcDbText
0
LINE
5
398
100
AcDbEntity
8
0
100
AcDbLine
62
2
6
CONTINUOUS
10
334.0407849877
20
266.8845465274
11
334.0407849877
21
278.7122745411
0
LINE
5
399
100
AcDbEntity
8
0
100
AcDbLine
62
2
6
CONTINUOUS
10
330.0407849877
20
265.1345465274
11
330.0407849877
21
278.7122745411
0
LINE
5
39A
100
AcDbEntity
8
0
100
AcDbLine
62
2
6
CONTINUOUS
10
334.0407849877
20
275.5122745411
11
336.0407849877
21
275.5122745411
0
LINE
5
39B
100
AcDbEntity
8
0
100
AcDbLine
62
2
6
CONTINUOUS
10
336.0407849877
20
275.5122745411
11
332.0407849877
21
275.5122745411
0
LINE
5
39C
100
AcDbEntity
8
0
100
AcDbLine
62
2
6
CONTINUOUS
10
330.0407849877
20
275.5122745411
11
320.8619229232
21
275.5122745411
0
LINE
5
39D
100
AcDbEntity
8
0
100
AcDbLine
62
2
6
CONTINUOUS
10
320.8619229232
20
275.5122745411
11
332.0407849877
21
275.5122745411
0
POLYLINE
5
39E
100
AcDbEntity
8
0
100
AcDb2dPolyline
62
2
6
CONTINUOUS
66
1
70
0
0
VERTEX
5
39F
100
AcDbEntity
8
0
100
AcDbVertex
62
2
6
CONTINUOUS
100
AcDb2dVertex
10
333.6407849877
20
275.5122745411
40
0.8000000000
41
0.8000000000
42
1.0000000000
0
VERTEX
5
3A0
100
AcDbEntity
8
0
100
AcDbVertex
62
2
6
CONTINUOUS
100
AcDb2dVertex
10
334.4407849877
20
275.5122745411
40
0.8000000000
41
0.8000000000
42
1.0000000000
0
VERTEX
5
3A1
100
AcDbEntity
8
0
100
AcDbVertex
62
2
6
CONTINUOUS
100
AcDb2dVertex
10
333.6407849877
20
275.5122745411
40
0.8000000000
41
0.8000000000
0
SEQEND
5
3A2
100
AcDbEntity
8
0
0
SOLID
5
3A3
100
AcDbEntity
8
0
100
AcDbTrace
62
2
6
CONTINUOUS
10
325.5407849877
20
274.7122745411
11
330.0407849877
21
275.5122745411
12
325.5407849877
22
276.3122745411
13
325.5407849877
23
276.3122745411
0
ENDBLK
5
3A4
100
AcDbEntity
8
0
100
AcDbBlockEnd
0
BLOCK
5
3A5
100
AcDbEntity
8
0
100
AcDbBlockBegin
62
2
6
CONTINUOUS
2
*D32
70
65
10
0.0000000000
20
0.0000000000
3
*D32
1

0
TEXT
5
3A6
100
AcDbEntity
8
0
100
AcDbText
62
2
6
CONTINUOUS
10
336.9200261489
20
276.3872745411
7
TEXTSTYLE_1
40
3.5000000000
1
8
41
0.7333333333
72
0
100
AcDbText
0
LINE
5
3A7
100
AcDbEntity
8
0
100
AcDbLine
62
2
6
CONTINUOUS
10
342.0407849877
20
266.8845465274
11
342.0407849877
21
278.7122745411
0
LINE
5
3A8
100
AcDbEntity
8
0
100
AcDbLine
62
2
6
CONTINUOUS
10
334.0407849877
20
266.8845465274
11
334.0407849877
21
278.7122745411
0
LINE
5
3A9
100
AcDbEntity
8
0
100
AcDbLine
62
2
6
CONTINUOUS
10
342.0407849877
20
275.5122745411
11
344.0407849877
21
275.5122745411
0
LINE
5
3AA
100
AcDbEntity
8
0
100
AcDbLine
62
2
6
CONTINUOUS
10
344.0407849877
20
275.5122745411
11
338.0407849877
21
275.5122745411
0
LINE
5
3AB
100
AcDbEntity
8
0
100
AcDbLine
62
2
6
CONTINUOUS
10
334.0407849877
20
275.5122745411
11
332.0407849877
21
275.5122745411
0
LINE
5
3AC
100
AcDbEntity
8
0
100
AcDbLine
62
2
6
CONTINUOUS
10
332.0407849877
20
275.5122745411
11
338.0407849877
21
275.5122745411
0
SOLID
5
3AD
100
AcDbEntity
8
0
100
AcDbTrace
62
2
6
CONTINUOUS
10
346.5407849877
20
276.3122745411
11
342.0407849877
21
275.5122745411
12
346.5407849877
22
274.7122745411
13
346.5407849877
23
274.7122745411
0
POLYLINE
5
3AE
100
AcDbEntity
8
0
100
AcDb2dPolyline
62
2
6
CONTINUOUS
66
1
70
0
0
VERTEX
5
3AF
100
AcDbEntity
8
0
100
AcDbVertex
62
2
6
CONTINUOUS
100
AcDb2dVertex
10
333.6407849877
20
275.5122745411
40
0.8000000000
41
0.8000000000
42
1.0000000000
0
VERTEX
5
3B0
100
AcDbEntity
8
0
100
AcDbVertex
62
2
6
CONTINUOUS
100
AcDb2dVertex
10
334.4407849877
20
275.5122745411
40
0.8000000000
41
0.8000000000
42
1.0000000000
0
VERTEX
5
3B1
100
AcDbEntity
8
0
100
AcDbVertex
62
2
6
CONTINUOUS
100
AcDb2dVertex
10
333.6407849877
20
275.5122745411
40
0.8000000000
41
0.8000000000
0
SEQEND
5
3B2
100
AcDbEntity
8
0
0
ENDBLK
5
3B3
100
AcDbEntity
8
0
100
AcDbBlockEnd
0
BLOCK
5
3B4
100
AcDbEntity
8
0
100
AcDbBlockBegin
62
2
6
CONTINUOUS
2
*D33
70
65
10
0.0000000000
20
0.0000000000
3
*D33
1

0
TEXT
5
3B5
100
AcDbEntity
8
0
100
AcDbText
62
2
6
CONTINUOUS
10
321.1874705408
20
96.4827447786
7
TEXTSTYLE_1
40
3.5000000000
1
4
41
0.8000000000
72
0
100
AcDbText
0
LINE
5
3B6
100
AcDbEntity
8
0
100
AcDbLine
62
2
6
CONTINUOUS
10
334.0407849877
20
105.0080450722
11
334.0407849877
21
92.4077447786
0
LINE
5
3B7
100
AcDbEntity
8
0
100
AcDbLine
62
2
6
CONTINUOUS
10
330.0407849877
20
106.7580450722
11
330.0407849877
21
92.4077447786
0
LINE
5
3B8
100
AcDbEntity
8
0
100
AcDbLine
62
2
6
CONTINUOUS
10
334.0407849877
20
95.6077447786
11
336.0407849877
21
95.6077447786
0
LINE
5
3B9
100
AcDbEntity
8
0
100
AcDbLine
62
2
6
CONTINUOUS
10
336.0407849877
20
95.6077447786
11
332.0407849877
21
95.6077447786
0
LINE
5
3BA
100
AcDbEntity
8
0
100
AcDbLine
62
2
6
CONTINUOUS
10
330.0407849877
20
95.6077447786
11
321.1874705408
21
95.6077447786
0
LINE
5
3BB
100
AcDbEntity
8
0
100
AcDbLine
62
2
6
CONTINUOUS
10
321.1874705408
20
95.6077447786
11
332.0407849877
21
95.6077447786
0
POLYLINE
5
3BC
100
AcDbEntity
8
0
100
AcDb2dPolyline
62
2
6
CONTINUOUS
66
1
70
0
0
VERTEX
5
3BD
100
AcDbEntity
8
0
100
AcDbVertex
62
2
6
CONTINUOUS
100
AcDb2dVertex
10
333.6407849877
20
95.6077447786
40
0.8000000000
41
0.8000000000
42
1.0000000000
0
VERTEX
5
3BE
100
AcDbEntity
8
0
100
AcDbVertex
62
2
6
CONTINUOUS
100
AcDb2dVertex
10
334.4407849877
20
95.6077447786
40
0.8000000000
41
0.8000000000
42
1.0000000000
0
VERTEX
5
3BF
100
AcDbEntity
8
0
100
AcDbVertex
62
2
6
CONTINUOUS
100
AcDb2dVertex
10
333.6407849877
20
95.6077447786
40
0.8000000000
41
0.8000000000
0
SEQEND
5
3C0
100
AcDbEntity
8
0
0
SOLID
5
3C1
100
AcDbEntity
8
0
100
AcDbTrace
62
2
6
CONTINUOUS
10
325.5407849877
20
94.8077447786
11
330.0407849877
21
95.6077447786
12
325.5407849877
22
96.4077447786
13
325.5407849877
23
96.4077447786
0
ENDBLK
5
3C2
100
AcDbEntity
8
0
100
AcDbBlockEnd
0
BLOCK
5
3C3
100
AcDbEntity
8
0
100
AcDbBlockBegin
62
2
6
CONTINUOUS
2
*D34
70
65
10
0.0000000000
20
0.0000000000
3
*D34
1

0
TEXT
5
3C4
100
AcDbEntity
8
0
100
AcDbText
62
2
6
CONTINUOUS
10
336.9507428396
20
96.4827447786
7
TEXTSTYLE_1
40
3.5000000000
1
8
41
0.7333333333
72
0
100
AcDbText
0
LINE
5
3C5
100
AcDbEntity
8
0
100
AcDbLine
62
2
6
CONTINUOUS
10
334.0407849877
20
105.0080450722
11
334.0407849877
21
92.4077447786
0
LINE
5
3C6
100
AcDbEntity
8
0
100
AcDbLine
62
2
6
CONTINUOUS
10
342.0407849877
20
105.0080450722
11
342.0407849877
21
92.4077447786
0
LINE
5
3C7
100
AcDbEntity
8
0
100
AcDbLine
62
2
6
CONTINUOUS
10
334.0407849877
20
95.6077447786
11
332.0407849877
21
95.6077447786
0
LINE
5
3C8
100
AcDbEntity
8
0
100
AcDbLine
62
2
6
CONTINUOUS
10
332.0407849877
20
95.6077447786
11
338.0407849877
21
95.6077447786
0
LINE
5
3C9
100
AcDbEntity
8
0
100
AcDbLine
62
2
6
CONTINUOUS
10
342.0407849877
20
95.6077447786
11
344.0407849877
21
95.6077447786
0
LINE
5
3CA
100
AcDbEntity
8
0
100
AcDbLine
62
2
6
CONTINUOUS
10
344.0407849877
20
95.6077447786
11
338.0407849877
21
95.6077447786
0
POLYLINE
5
3CB
100
AcDbEntity
8
0
100
AcDb2dPolyline
62
2
6
CONTINUOUS
66
1
70
0
0
VERTEX
5
3CC
100
AcDbEntity
8
0
100
AcDbVertex
62
2
6
CONTINUOUS
100
AcDb2dVertex
10
333.6407849877
20
95.6077447786
40
0.8000000000
41
0.8000000000
42
1.0000000000
0
VERTEX
5
3CD
100
AcDbEntity
8
0
100
AcDbVertex
62
2
6
CONTINUOUS
100
AcDb2dVertex
10
334.4407849877
20
95.6077447786
40
0.8000000000
41
0.8000000000
42
1.0000000000
0
VERTEX
5
3CE
100
AcDbEntity
8
0
100
AcDbVertex
62
2
6
CONTINUOUS
100
AcDb2dVertex
10
333.6407849877
20
95.6077447786
40
0.8000000000
41
0.8000000000
0
SEQEND
5
3CF
100
AcDbEntity
8
0
0
SOLID
5
3D0
100
AcDbEntity
8
0
100
AcDbTrace
62
2
6
CONTINUOUS
10
346.5407849877
20
96.4077447786
11
342.0407849877
21
95.6077447786
12
346.5407849877
22
94.8077447786
13
346.5407849877
23
94.8077447786
0
ENDBLK
5
3D1
100
AcDbEntity
8
0
100
AcDbBlockEnd
0
BLOCK
5
3D2
100
AcDbEntity
8
0
100
AcDbBlockBegin
62
2
6
CONTINUOUS
2
*D35
70
65
10
0.0000000000
20
0.0000000000
3
*D35
1

0
TEXT
5
3D3
100
AcDbEntity
8
0
100
AcDbText
62
2
6
CONTINUOUS
10
318.3000382182
20
110.0902014453
7
TEXTSTYLE_1
40
3.5000000000
1
=
50
90.0000000000
41
0.4000000000
72
0
100
AcDbText
0
TEXT
5
3D4
100
AcDbEntity
8
0
100
AcDbText
62
2
6
CONTINUOUS
10
318.3000382182
20
114.0568681120
7
TEXTSTYLE_1
40
3.5000000000
1
=
50
90.0000000000
41
0.4000000000
72
0
100
AcDbText
0
TEXT
5
3D5
100
AcDbEntity
8
0
100
AcDbText
62
2
6
CONTINUOUS
10
318.3000382182
20
111.4902014453
7
TEXTSTYLE_1
40
3.5000000000
1
9
50
90.0000000000
41
0.7333333333
72
0
100
AcDbText
0
LINE
5
3D6
100
AcDbEntity
8
0
100
AcDbLine
62
2
6
CONTINUOUS
10
328.5407849877
20
117.2580450722
11
315.9750382182
21
117.2580450722
0
LINE
5
3D7
100
AcDbEntity
8
0
100
AcDbLine
62
2
6
CONTINUOUS
10
328.5407849877
20
108.2580450722
11
315.9750382182
21
108.2580450722
0
LINE
5
3D8
100
AcDbEntity
8
0
100
AcDbLine
62
2
6
CONTINUOUS
10
319.1750382182
20
117.2580450722
11
319.1750382182
21
119.2580450722
0
LINE
5
3D9
100
AcDbEntity
8
0
100
AcDbLine
62
2
6
CONTINUOUS
10
319.1750382182
20
119.2580450722
11
319.1750382182
21
112.7580450722
0
LINE
5
3DA
100
AcDbEntity
8
0
100
AcDbLine
62
2
6
CONTINUOUS
10
319.1750382182
20
108.2580450722
11
319.1750382182
21
106.2580450722
0
LINE
5
3DB
100
AcDbEntity
8
0
100
AcDbLine
62
2
6
CONTINUOUS
10
319.1750382182
20
106.2580450722
11
319.1750382182
21
112.7580450722
0
SOLID
5
3DC
100
AcDbEntity
8
0
100
AcDbTrace
62
2
6
CONTINUOUS
10
318.3750382182
20
121.7580450722
11
319.1750382182
21
117.2580450722
12
319.9750382182
22
121.7580450722
13
319.9750382182
23
121.7580450722
0
SOLID
5
3DD
100
AcDbEntity
8
0
100
AcDbTrace
62
2
6
CONTINUOUS
10
319.9750382182
20
103.7580450722
11
319.1750382182
21
108.2580450722
12
318.3750382182
22
103.7580450722
13
318.3750382182
23
103.7580450722
0
ENDBLK
5
3DE
100
AcDbEntity
8
0
100
AcDbBlockEnd
0
BLOCK
5
3DF
100
AcDbEntity
8
0
100
AcDbBlockBegin
62
2
6
CONTINUOUS
2
N-CAR_BL2
70
64
10
0.0000000000
20
0.0000000000
3
N-CAR_BL2
1

0
TEXT
5
3E0
100
AcDbEntity
8
0
100
AcDbText
62
2
6
CONTINUOUS
10
295.8508358201
20
38.4756968010
7
STANDARD
40
2.9999987760
1
3,2
41
0.5000000000
72
0
100
AcDbText
0
TEXT
5
3E1
100
AcDbEntity
8
0
100
AcDbText
62
2
6
CONTINUOUS
10
310.8754337556
20
38.4536507500
7
STANDARD
40
2.9999987760
1
.
41
0.5000000000
72
0
100
AcDbText
0
TEXT
5
3E2
100
AcDbEntity
8
0
100
AcDbText
62
2
6
CONTINUOUS
10
320.8734931890
20
38.4363522460
7
STANDARD
40
2.9999987760
1
.
41
0.5000000000
72
0
100
AcDbText
0
TEXT
5
3E3
100
AcDbEntity
8
0
100
AcDbText
62
2
6
CONTINUOUS
10
330.9219042725
20
38.4621951990
7
STANDARD
40
2.9999987760
1
.
41
0.5000000000
72
0
100
AcDbText
0
LINE
5
3E4
100
AcDbEntity
8
0
100
AcDbLine
62
7
6
CONTINUOUS
10
340.9970439760
20
41.3188918970
11
343.0047287535
21
41.3188918970
0
LINE
5
3E5
100
AcDbEntity
8
0
100
AcDbLine
62
7
6
CONTINUOUS
10
343.0047287535
20
41.3188918970
11
343.0047287535
21
31.3188959770
0
LINE
5
3E6
100
AcDbEntity
8
0
100
AcDbLine
62
7
6
CONTINUOUS
10
340.9970439760
20
31.3188959770
11
343.0047287535
21
31.3188959770
0
LINE
5
3E7
100
AcDbEntity
8
0
100
AcDbLine
62
7
6
CONTINUOUS
10
340.5893144705
20
39.4842108387
11
337.5553337332
21
39.4842108387
0
LINE
5
3E8
100
AcDbEntity
8
0
100
AcDbLine
62
7
6
CONTINUOUS
10
337.5553337332
20
39.4842108387
11
335.1894528074
21
32.3865680613
0
LINE
5
3E9
100
AcDbEntity
8
0
100
AcDbLine
62
7
6
CONTINUOUS
10
335.1894528074
20
32.3865680613
11
332.8474325892
21
37.4964303556
0
LINE
5
3EA
100
AcDbEntity
8
0
100
AcDbLine
62
7
6
CONTINUOUS
10
320.5893226305
20
39.4842108387
11
317.5553418932
21
39.4842108387
0
LINE
5
3EB
100
AcDbEntity
8
0
100
AcDbLine
62
7
6
CONTINUOUS
10
317.5553418932
20
39.4842108387
11
315.1894609674
21
32.3865680613
0
LINE
5
3EC
100
AcDbEntity
8
0
100
AcDbLine
62
7
6
CONTINUOUS
10
315.1894609674
20
32.3865680613
11
312.8474407492
21
37.4964303556
0
LINE
5
3ED
100
AcDbEntity
8
0
100
AcDbLine
62
7
6
CONTINUOUS
10
330.5893185505
20
39.4842108387
11
327.5553378132
21
39.4842108387
0
LINE
5
3EE
100
AcDbEntity
8
0
100
AcDbLine
62
7
6
CONTINUOUS
10
327.5553378132
20
39.4842108387
11
325.1894568874
21
32.3865680613
0
LINE
5
3EF
100
AcDbEntity
8
0
100
AcDbLine
62
7
6
CONTINUOUS
10
325.1894568874
20
32.3865680613
11
322.8474366692
21
37.4964303556
0
LINE
5
3F0
100
AcDbEntity
8
0
100
AcDbLine
62
7
6
CONTINUOUS
10
308.0047430335
20
41.3188918970
11
310.4004105678
21
41.3188918970
0
LINE
5
3F1
100
AcDbEntity
8
0
100
AcDbLine
62
7
6
CONTINUOUS
10
308.0047430335
20
41.3188918970
11
308.0047430335
21
31.3188959770
0
LINE
5
3F2
100
AcDbEntity
8
0
100
AcDbLine
62
7
6
CONTINUOUS
10
308.0047430335
20
31.3188959770
11
310.4004105678
21
31.3188959770
0
LINE
5
3F3
100
AcDbEntity
8
0
100
AcDbLine
62
7
6
CONTINUOUS
10
305.5893287505
20
39.4842108387
11
302.5553480132
21
39.4842108387
0
LINE
5
3F4
100
AcDbEntity
8
0
100
AcDbLine
62
7
6
CONTINUOUS
10
302.5553480132
20
39.4842108387
11
300.1894670874
21
32.3865680613
0
LINE
5
3F5
100
AcDbEntity
8
0
100
AcDbLine
62
7
6
CONTINUOUS
10
300.1894670874
20
32.3865680613
11
297.8474468692
21
37.4964303556
0
ARC
5
3F6
100
AcDbEntity
8
0
100
AcDbCircle
62
7
6
CONTINUOUS
10
292.6572853617
20
37.1955292909
40
2.4999989800
100
AcDbArc
50
177.5591686478
51
2.4408313522
0
ARC
5
3F7
100
AcDbEntity
8
0
100
AcDbCircle
62
7
6
CONTINUOUS
10
287.6572874017
20
37.1955292909
40
2.4999989800
100
AcDbArc
50
0.0000000000
51
177.5591686478
0
ENDBLK
5
3F8
100
AcDbEntity
8
0
100
AcDbBlockEnd
0
ENDSEC
0
SECTION
2
ENTITIES
0
TEXT
5
3F9
100
AcDbEntity
8
0
100
AcDbText
62
2
6
CONTINUOUS
10
435.6059290093
20
8.7539544361
7
STANDARD
40
2.0000000000
1
22/96a
41
0.8000000000
72
0
100
AcDbText
0
INSERT
5
3FA
100
AcDbEntity
8
0
100
AcDbBlockReference
62
2
6
CONTINUOUS
2
N-DES_BL0
10
0.0000000000
20
0.0000000000
0
INSERT
5
3FB
100
AcDbEntity
8
0
100
AcDbBlockReference
62
2
6
CONTINUOUS
2
N-CART_BL1
10
0.0000000000
20
0.0000000000
0
SOLID
5
3FC
100
AcDbEntity
8
0
100
AcDbTrace
62
7
6
CONTINUOUS
10
260.0117274356
20
214.8491534535
11
255.0117274356
21
213.5991534535
12
255.0117274356
22
216.0991534535
13
255.0117274356
23
216.0991534535
0
TEXT
5
3FD
100
AcDbEntity
8
0
100
AcDbText
62
7
6
CONTINUOUS
10
248.8487320356
20
216.5991534535
7
TEXTSTYLE_1
40
3.5000000000
1
A
41
0.8000000000
72
0
100
AcDbText
0
SOLID
5
3FE
100
AcDbEntity
8
0
100
AcDbTrace
62
7
6
CONTINUOUS
10
260.0117274356
20
147.0370766743
11
255.0117274356
21
145.7870766743
12
255.0117274356
22
148.2870766743
13
255.0117274356
23
148.2870766743
0
TEXT
5
3FF
100
AcDbEntity
8
0
100
AcDbText
62
7
6
CONTINUOUS
10
248.8487320356
20
141.7870766743
7
TEXTSTYLE_1
40
3.5000000000
1
A
41
0.8000000000
72
0
100
AcDbText
0
DIMENSION
5
400
100
AcDbEntity
8
0
100
AcDbDimension
62
2
6
CONTINUOUS
2
*D0
10
94.3411019848
20
190.7916585600
11
91.7161019848
21
175.6754720357
70
160
3
DIMSTYLE_1
100
AcDbAlignedDimension
13
124.5986049797
23
160.7916585600
14
122.5986049797
24
190.7916585600
50
90.000000
100
AcDbRotatedDimension
0
DIMENSION
5
401
100
AcDbEntity
8
0
100
AcDbDimension
62
2
6
CONTINUOUS
2
*D1
10
144.0986049797
20
214.6943026155
11
132.9157408412
21
217.3193026155
70
160
3
DIMSTYLE_2
100
AcDbAlignedDimension
13
124.0986049797
23
192.2916585600
14
144.0986049797
24
192.2916585600
100
AcDbRotatedDimension
0
DIMENSION
5
402
100
AcDbEntity
8
0
100
AcDbDimension
62
2
6
CONTINUOUS
2
*D2
10
144.0986049797
20
143.2504407622
11
134.9710763573
21
145.8754407622
70
160
3
DIMSTYLE_2
100
AcDbAlignedDimension
13
126.0986049797
23
159.2916585600
14
144.0986049797
24
159.2916585600
100
AcDbRotatedDimension
0
DIMENSION
5
403
100
AcDbEntity
8
0
100
AcDbDimension
62
2
6
CONTINUOUS
2
*D3
10
144.6003066317
20
181.4676013713
11
187.2011012800
21
173.7625528855
70
162
1
=<>=
3
DIMSTYLE_3
100
AcDb2LineAngularDimension
13
145.0035325493
23
165.8333739216
14
180.1356032243
24
141.2336332021
15
180.1356032243
25
206.3496839179
16
187.2011091879
26
173.7916585600
0
DIMENSION
5
404
100
AcDbEntity
8
0
100
AcDbDimension
62
2
6
CONTINUOUS
2
*D4
10
162.5511789236
20
160.7916585600
11
159.9261789236
21
167.5451687473
70
160
3
DIMSTYLE_2
100
AcDbAlignedDimension
13
153.5792983888
23
173.7916585600
14
145.5986049797
24
160.7916585600
50
270.000000
100
AcDbRotatedDimension
0
DIMENSION
5
405
100
AcDbEntity
8
0
100
AcDbDimension
62
2
6
CONTINUOUS
2
*D5
10
144.0986049797
20
173.7916585600
11
152.5974400904
21
170.1580058804
70
164
3
DIMSTYLE_4
100
AcDbRadialDimension
15
139.4787271349
25
177.6200692877
0
DIMENSION
5
406
100
AcDbEntity
8
0
100
AcDbDimension
62
2
6
CONTINUOUS
2
*D6
10
173.3189541423
20
194.2519673128
11
173.9545288300
21
197.9208204279
70
160
3
DIMSTYLE_2
100
AcDbAlignedDimension
13
145.3273330461
23
181.9766707471
14
141.7881497725
24
172.1738604073
50
305.000000
100
AcDbRotatedDimension
0
DIMENSION
5
407
100
AcDbEntity
8
0
100
AcDbDimension
62
2
6
CONTINUOUS
2
*D7
10
174.0094818800
20
152.8478370799
11
170.0995877370
21
151.8404773916
70
160
3
DIMSTYLE_2
100
AcDbAlignedDimension
13
157.0898925313
23
157.3704135528
14
143.5624125731
24
174.1671045250
50
55.000000
100
AcDbRotatedDimension
0
DIMENSION
5
408
100
AcDbEntity
8
0
100
AcDbDimension
62
2
6
CONTINUOUS
2
*D8
10
107.0267899360
20
181.7916585600
11
104.4017899360
21
171.4051351309
70
160
3
DIMSTYLE_2
100
AcDbAlignedDimension
13
124.5986049797
23
160.7916585600
14
122.5986049797
24
181.7916585600
50
90.000000
100
AcDbRotatedDimension
0
DIMENSION
5
409
100
AcDbEntity
8
0
100
AcDbDimension
62
2
6
CONTINUOUS
2
*D9
10
107.0267899360
20
190.7916585600
11
104.4017899360
21
198.4909071214
70
160
3
DIMSTYLE_2
100
AcDbAlignedDimension
13
128.5986049797
23
188.7916585600
14
122.5986049797
24
190.7916585600
50
90.000000
100
AcDbRotatedDimension
0
DIMENSION
5
40A
100
AcDbEntity
8
0
100
AcDbDimension
62
2
6
CONTINUOUS
2
*D10
10
128.0986049797
20
150.9347383448
11
117.9850479639
21
153.5597383448
70
160
3
DIMSTYLE_2
100
AcDbAlignedDimension
13
126.0986049797
23
159.2916585600
14
128.0986049797
24
163.2916585600
100
AcDbRotatedDimension
0
DIMENSION
5
40B
100
AcDbEntity
8
0
100
AcDbDimension
62
2
6
CONTINUOUS
2
*D11
10
144.0986049797
20
207.0955692520
11
151.8735797771
21
209.7205692520
70
160
3
DIMSTYLE_2
100
AcDbAlignedDimension
13
142.0986049797
23
188.2916585600
14
144.0986049797
24
192.2916585600
100
AcDbRotatedDimension
0
DIMENSION
5
40C
100
AcDbEntity
8
0
100
AcDbDimension
62
2
6
CONTINUOUS
2
*D12
10
162.1199600564
20
196.1765439436
11
159.7197340500
21
204.1809697688
70
160
3
DIMSTYLE_2
100
AcDbAlignedDimension
13
145.3273330461
23
181.9766707471
14
140.7387215553
24
181.2052395689
50
125.000000
100
AcDbRotatedDimension
0
DIMENSION
5
40D
100
AcDbEntity
8
0
100
AcDbDimension
62
2
6
CONTINUOUS
2
*D13
10
136.0986049797
20
199.3532360731
11
128.7228948878
21
201.9782360731
70
160
3
DIMSTYLE_2
100
AcDbAlignedDimension
13
138.0986049797
23
175.2916585600
14
136.0986049797
24
171.8353673736
50
180.000000
100
AcDbRotatedDimension
0
DIMENSION
5
40E
100
AcDbEntity
8
0
100
AcDbDimension
62
2
6
CONTINUOUS
2
*D14
10
144.0986049797
20
150.7102518267
11
141.6010993123
21
153.3352518267
70
160
3
DIMSTYLE_2
100
AcDbAlignedDimension
13
139.0986049797
23
163.2916585600
14
144.0986049797
24
159.2916585600
100
AcDbRotatedDimension
0
DIMENSION
5
40F
100
AcDbEntity
8
0
100
AcDbDimension
62
2
6
CONTINUOUS
2
*D15
10
124.0986049797
20
179.7916585600
11
117.0424979277
21
176.5011600285
70
164
3
DIMSTYLE_4
100
AcDbRadialDimension
15
125.5200779607
25
181.1985752470
0
DIMENSION
5
410
100
AcDbEntity
8
0
100
AcDbDimension
62
2
6
CONTINUOUS
2
*D16
10
137.0986049797
20
164.7916585600
11
132.7384018086
21
171.0299820321
70
164
3
DIMSTYLE_4
100
AcDbRadialDimension
15
138.7394370148
25
163.6481244624
0
DIMENSION
5
411
100
AcDbEntity
8
0
100
AcDbDimension
62
2
6
CONTINUOUS
2
*D17
10
255.5117274356
20
201.7647230184
11
260.1368406045
21
204.3897230184
70
160
1
=<>=
3
DIMSTYLE_2
100
AcDbAlignedDimension
13
264.5117274356
23
192.2916585600
14
255.5117274356
24
192.2916585600
50
180.000000
100
AcDbRotatedDimension
0
DIMENSION
5
412
100
AcDbEntity
8
0
100
AcDbDimension
62
2
6
CONTINUOUS
2
*D18
10
244.4310983691
20
160.7916585600
11
241.8060983691
21
173.8966072227
70
160
3
DIMSTYLE_2
100
AcDbAlignedDimension
13
251.8617274356
23
186.2916585600
14
254.0117274356
24
160.7916585600
50
270.000000
100
AcDbRotatedDimension
0
DIMENSION
5
413
100
AcDbEntity
8
0
100
AcDbDimension
62
2
6
CONTINUOUS
2
*D19
10
370.6782160938
20
190.7916585600
11
368.0532160938
21
179.6277194285
70
160
3
DIMSTYLE_2
100
AcDbAlignedDimension
13
345.0407849877
23
168.7916585600
14
351.5407849877
24
190.7916585600
50
90.000000
100
AcDbRotatedDimension
0
DIMENSION
5
414
100
AcDbEntity
8
0
100
AcDbDimension
62
2
6
CONTINUOUS
2
*D20
10
361.6168613219
20
184.2916585600
11
358.9918613219
21
198.3134175678
70
160
1
M<>
3
DIMSTYLE_2
100
AcDbAlignedDimension
13
351.5407849877
23
188.2916585600
14
351.5407849877
24
184.2916585600
50
270.000000
100
AcDbRotatedDimension
0
DIMENSION
5
415
100
AcDbEntity
8
0
100
AcDbDimension
62
2
6
CONTINUOUS
2
*D21
10
343.5407849877
20
147.8798846093
11
352.1909179195
21
150.5048846093
70
160
1
M<>
3
DIMSTYLE_2
100
AcDbAlignedDimension
13
340.5407849877
23
159.2916585600
14
343.5407849877
24
159.2916585600
100
AcDbRotatedDimension
0
DIMENSION
5
416
100
AcDbEntity
8
0
100
AcDbDimension
62
2
6
CONTINUOUS
2
*D22
10
321.0276520189
20
166.2916585600
11
318.4026520189
21
151.6927802208
70
160
3
DIMSTYLE_2
100
AcDbAlignedDimension
13
328.2218802427
23
160.7916585600
14
331.0407849877
24
166.2916585600
50
90.000000
100
AcDbRotatedDimension
0
DIMENSION
5
417
100
AcDbEntity
8
0
100
AcDbDimension
62
2
6
CONTINUOUS
2
*D23
10
332.5407849877
20
138.6253247918
11
319.8713441857
21
141.2503247918
70
160
1
%%c<>H7
3
DIMSTYLE_2
100
AcDbAlignedDimension
13
335.5407849877
23
159.2916585600
14
332.5407849877
24
159.2916585600
50
180.000000
100
AcDbRotatedDimension
0
DIMENSION
5
418
100
AcDbEntity
8
0
100
AcDbDimension
62
2
6
CONTINUOUS
2
*D24
10
311.2890261362
20
180.7916585600
11
308.6640261362
21
185.8901599775
70
160
3
DIMSTYLE_2
100
AcDbAlignedDimension
13
331.2907849877
23
190.7916585600
14
331.2907849877
24
180.7916585600
50
270.000000
100
AcDbRotatedDimension
0
DIMENSION
5
419
100
AcDbEntity
8
0
100
AcDbDimension
62
2
6
CONTINUOUS
2
*D25
10
321.0276520189
20
190.7916585600
11
318.4026520189
21
186.6397976365
70
160
3
DIMSTYLE_2
100
AcDbAlignedDimension
13
331.0407849877
23
182.7916585600
14
331.0407849877
24
190.7916585600
50
90.000000
100
AcDbRotatedDimension
0
DIMENSION
5
41A
100
AcDbEntity
8
0
100
AcDbDimension
62
2
6
CONTINUOUS
2
*D26
10
343.5407849877
20
206.6207448573
11
355.8367828916
21
209.2457448573
70
160
1
%%c<>H8
3
DIMSTYLE_2
100
AcDbAlignedDimension
13
340.5407849877
23
192.2916585600
14
343.5407849877
24
192.2916585600
100
AcDbRotatedDimension
0
DIMENSION
5
41B
100
AcDbEntity
8
0
100
AcDbDimension
62
2
6
CONTINUOUS
2
*D27
10
335.5407849877
20
199.5901408318
11
323.5438682119
21
202.2151408318
70
160
1
M<>
3
DIMSTYLE_2
100
AcDbAlignedDimension
13
332.5407849877
23
192.2916585600
14
335.5407849877
24
192.2916585600
100
AcDbRotatedDimension
0
DIMENSION
5
41C
100
AcDbEntity
8
0
100
AcDbDimension
62
2
6
CONTINUOUS
2
*D28
10
350.0407849877
20
221.9046105402
11
344.1945717592
21
224.5296105402
70
160
3
DIMSTYLE_2
100
AcDbAlignedDimension
13
338.0407849877
23
189.4416585600
14
350.0407849877
24
189.4416585600
100
AcDbRotatedDimension
0
DIMENSION
5
41D
100
AcDbEntity
8
0
100
AcDbDimension
62
2
6
CONTINUOUS
2
*D29
10
350.0407849877
20
214.9130355261
11
344.6518740392
21
217.5380355261
70
160
3
DIMSTYLE_2
100
AcDbAlignedDimension
13
340.0407849877
23
189.7916585600
14
350.0407849877
24
218.1130355261
100
AcDbRotatedDimension
0
DIMENSION
5
41E
100
AcDbEntity
8
0
100
AcDbDimension
62
2
6
CONTINUOUS
2
*D30
10
320.5660640660
20
263.6345465274
11
317.9410640660
21
259.2004541627
70
160
1
=<>=
3
DIMSTYLE_2
100
AcDbAlignedDimension
13
328.5407849877
23
254.6345465274
14
328.5407849877
24
263.6345465274
50
90.000000
100
AcDbRotatedDimension
0
DIMENSION
5
41F
100
AcDbEntity
8
0
100
AcDbDimension
62
2
6
CONTINUOUS
2
*D31
10
330.0407849877
20
275.5122745411
11
322.2619229232
21
278.1372745411
70
160
3
DIMSTYLE_2
100
AcDbAlignedDimension
13
334.0407849877
23
266.8845465274
14
330.0407849877
24
265.1345465274
50
180.000000
100
AcDbRotatedDimension
0
DIMENSION
5
420
100
AcDbEntity
8
0
100
AcDbDimension
62
2
6
CONTINUOUS
2
*D32
10
334.0407849877
20
275.5122745411
11
338.2033594822
21
278.1372745411
70
160
3
DIMSTYLE_2
100
AcDbAlignedDimension
13
342.0407849877
23
266.8845465274
14
334.0407849877
24
266.8845465274
50
180.000000
100
AcDbRotatedDimension
0
DIMENSION
5
421
100
AcDbEntity
8
0
100
AcDbDimension
62
2
6
CONTINUOUS
2
*D33
10
330.0407849877
20
95.6077447786
11
322.5874705408
21
98.2327447786
70
160
3
DIMSTYLE_2
100
AcDbAlignedDimension
13
334.0407849877
23
105.0080450722
14
330.0407849877
24
106.7580450722
50
180.000000
100
AcDbRotatedDimension
0
DIMENSION
5
422
100
AcDbEntity
8
0
100
AcDbDimension
62
2
6
CONTINUOUS
2
*D34
10
342.0407849877
20
95.6077447786
11
338.2340761729
21
98.2327447786
70
160
3
DIMSTYLE_2
100
AcDbAlignedDimension
13
334.0407849877
23
105.0080450722
14
342.0407849877
24
105.0080450722
100
AcDbRotatedDimension
0
DIMENSION
5
423
100
AcDbEntity
8
0
100
AcDbDimension
62
2
6
CONTINUOUS
2
*D35
10
319.1750382182
20
108.2580450722
11
316.5500382182
21
112.7735347786
70
160
1
=<>=
3
DIMSTYLE_2
100
AcDbAlignedDimension
13
328.5407849877
23
117.2580450722
14
328.5407849877
24
108.2580450722
50
270.000000
100
AcDbRotatedDimension
0
LINE
5
424
100
AcDbEntity
8
0
100
AcDbLine
62
2
6
CONTINUOUS
10
278.9948490183
20
76.1933879918
11
444.9948490183
21
76.1933879918
0
LINE
5
425
100
AcDbEntity
8
0
100
AcDbLine
62
2
6
CONTINUOUS
10
278.9948490183
20
76.1933879918
11
278.9948490183
21
12.1933879918
0
LINE
5
426
100
AcDbEntity
8
0
100
AcDbLine
62
2
6
CONTINUOUS
10
278.9948490183
20
71.6933879918
11
444.9948490183
21
71.6933879918
0
LINE
5
427
100
AcDbEntity
8
0
100
AcDbLine
62
2
6
CONTINUOUS
10
278.9948490183
20
67.1933879918
11
444.9948490183
21
67.1933879918
0
LINE
5
428
100
AcDbEntity
8
0
100
AcDbLine
62
2
6
CONTINUOUS
10
278.9948490183
20
62.6933879918
11
444.9948490183
21
62.6933879918
0
LINE
5
429
100
AcDbEntity
8
0
100
AcDbLine
62
2
6
CONTINUOUS
10
278.9948490183
20
58.1933879918
11
444.9948490183
21
58.1933879918
0
LINE
5
42A
100
AcDbEntity
8
0
100
AcDbLine
62
2
6
CONTINUOUS
10
278.9948490183
20
53.6933879918
11
444.9948490183
21
53.6933879918
0
LINE
5
42B
100
AcDbEntity
8
0
100
AcDbLine
62
2
6
CONTINUOUS
10
278.9948490183
20
49.1933879918
11
444.9948490183
21
49.1933879918
0
LINE
5
42C
100
AcDbEntity
8
0
100
AcDbLine
62
2
6
CONTINUOUS
10
398.9948490183
20
40.1933879918
11
444.9948490183
21
40.1933879918
0
LINE
5
42D
100
AcDbEntity
8
0
100
AcDbLine
62
2
6
CONTINUOUS
10
278.9948490183
20
29.6933879918
11
444.9948490183
21
29.6933879918
0
LINE
5
42E
100
AcDbEntity
8
0
100
AcDbLine
62
2
6
CONTINUOUS
10
278.9948490183
20
21.6933879918
11
444.9948490183
21
21.6933879918
0
LINE
5
42F
100
AcDbEntity
8
0
100
AcDbLine
62
2
6
CONTINUOUS
10
278.9948490183
20
12.1933879918
11
444.9948490183
21
12.1933879918
0
LINE
5
430
100
AcDbEntity
8
0
100
AcDbLine
62
2
6
CONTINUOUS
10
293.9948490183
20
76.1933879918
11
293.9948490183
21
49.1933879918
0
LINE
5
431
100
AcDbEntity
8
0
100
AcDbLine
62
2
6
CONTINUOUS
10
308.9948490183
20
76.1933879918
11
308.9948490183
21
49.1933879918
0
LINE
5
432
100
AcDbEntity
8
0
100
AcDbLine
62
2
6
CONTINUOUS
10
318.9948490183
20
29.6933879918
11
318.9948490183
21
21.6933879918
0
LINE
5
433
100
AcDbEntity
8
0
100
AcDbLine
62
2
6
CONTINUOUS
10
323.9948490183
20
76.1933879918
11
323.9948490183
21
49.1933879918
0
LINE
5
434
100
AcDbEntity
8
0
100
AcDbLine
62
2
6
CONTINUOUS
10
338.9948490183
20
76.1933879918
11
338.9948490183
21
49.1933879918
0
LINE
5
435
100
AcDbEntity
8
0
100
AcDbLine
62
2
6
CONTINUOUS
10
358.9948490183
20
29.6933879918
11
358.9948490183
21
21.6933879918
0
LINE
5
436
100
AcDbEntity
8
0
100
AcDbLine
62
2
6
CONTINUOUS
10
398.9948490183
20
49.1933879918
11
398.9948490183
21
12.1933879918
0
LINE
5
437
100
AcDbEntity
8
0
100
AcDbLine
62
2
6
CONTINUOUS
10
424.9948490183
20
40.1933879918
11
424.9948490183
21
29.6933879918
0
LINE
5
438
100
AcDbEntity
8
0
100
AcDbLine
62
2
6
CONTINUOUS
10
444.9948490183
20
76.1933879918
11
444.9948490183
21
12.1933879918
0
TEXT
5
439
100
AcDbEntity
8
0
100
AcDbText
62
2
6
CONTINUOUS
10
285.6948490183
20
72.9433879918
7
STANDARD
40
2.0000000000
1
D
41
0.8000000000
72
1
11
286.4948490183
21
72.9433879918
100
AcDbText
0
TEXT
5
43A
100
AcDbEntity
8
0
100
AcDbText
62
2
6
CONTINUOUS
10
285.6948490183
20
68.4433879918
7
STANDARD
40
2.0000000000
1
C
41
0.8000000000
72
1
11
286.4948490183
21
68.4433879918
100
AcDbText
0
TEXT
5
43B
100
AcDbEntity
8
0
100
AcDbText
62
2
6
CONTINUOUS
10
285.6948490183
20
63.9433879918
7
STANDARD
40
2.0000000000
1
B
41
0.8000000000
72
1
11
286.4948490183
21
63.9433879918
100
AcDbText
0
TEXT
5
43C
100
AcDbEntity
8
0
100
AcDbText
62
2
6
CONTINUOUS
10
285.6948490183
20
59.4433879918
7
STANDARD
40
2.0000000000
1
A
41
0.8000000000
72
1
11
286.4948490183
21
59.4433879918
100
AcDbText
0
TEXT
5
43D
100
AcDbEntity
8
0
100
AcDbText
62
2
6
CONTINUOUS
10
315.6948490183
20
59.4433879918
7
STANDARD
40
2.0000000000
1
 
41
0.8000000000
72
1
11
316.4948490183
21
59.4433879918
100
AcDbText
0
TEXT
5
43E
100
AcDbEntity
8
0
100
AcDbText
62
2
6
CONTINUOUS
10
330.6948490183
20
59.4433879918
7
STANDARD
40
2.0000000000
1
 
41
0.8000000000
72
1
11
331.4948490183
21
59.4433879918
100
AcDbText
0
TEXT
5
43F
100
AcDbEntity
8
0
100
AcDbText
62
2
6
CONTINUOUS
10
283.2948490183
20
54.9433879918
7
STANDARD
40
2.0000000000
1
IND.
41
0.8000000000
72
1
11
286.4948490183
21
54.9433879918
100
AcDbText
0
TEXT
5
440
100
AcDbEntity
8
0
100
AcDbText
62
2
6
CONTINUOUS
10
298.2948490183
20
54.9433879918
7
STANDARD
40
2.0000000000
1
DATE
41
0.8000000000
72
1
11
301.4948490183
21
54.9433879918
100
AcDbText
0
TEXT
5
441
100
AcDbEntity
8
0
100
AcDbText
62
2
6
CONTINUOUS
10
312.4948490183
20
54.9433879918
7
STANDARD
40
2.0000000000
1
DESS.
41
0.8000000000
72
1
11
316.4948490183
21
54.9433879918
100
AcDbText
0
TEXT
5
442
100
AcDbEntity
8
0
100
AcDbText
62
2
6
CONTINUOUS
10
326.6948490183
20
54.9433879918
7
STANDARD
40
2.0000000000
1
VERIF.
41
0.8000000000
72
1
11
331.4948490183
21
54.9433879918
100
AcDbText
0
TEXT
5
443
100
AcDbEntity
8
0
100
AcDbText
62
2
6
CONTINUOUS
10
381.5948490183
20
54.9433879918
7
STANDARD
40
2.0000000000
1
MODIFICATIONS
41
0.8000000000
72
1
11
391.9948490183
21
54.9433879918
100
AcDbText
0
TEXT
5
444
100
AcDbEntity
8
0
100
AcDbText
62
2
6
CONTINUOUS
10
280.0948490183
20
50.4433879918
7
STANDARD
40
2.0000000000
1
Création
41
0.8000000000
72
1
11
286.4948490183
21
50.4433879918
100
AcDbText
0
TEXT
5
445
100
AcDbEntity
8
0
100
AcDbText
62
2
6
CONTINUOUS
10
294.2948490183
20
50.4433879918
7
STANDARD
40
2.0000000000
1
07-Dec-20
41
0.8000000000
72
1
11
301.4948490183
21
50.4433879918
100
AcDbText
0
TEXT
5
446
100
AcDbEntity
8
0
100
AcDbText
62
2
6
CONTINUOUS
10
311.6948490183
20
50.4433879918
7
STANDARD
40
2.0000000000
1
BALLON
41
0.8000000000
72
1
11
316.4948490183
21
50.4433879918
100
AcDbText
0
TEXT
5
447
100
AcDbEntity
8
0
100
AcDbText
62
2
6
CONTINUOUS
10
329.0948490183
20
50.4433879918
7
STANDARD
40
2.0000000000
1
B.L
41
0.8000000000
72
1
11
331.4948490183
21
50.4433879918
100
AcDbText
0
TEXT
5
448
100
AcDbEntity
8
0
100
AcDbText
62
2
6
CONTINUOUS
10
339.0573490183
20
50.4433879918
7
STANDARD
40
2.0000000000
1
  Annule et remplace plan N%%d:                      ind:
41
0.7975757576
72
0
100
AcDbText
0
TEXT
5
449
100
AcDbEntity
8
0
100
AcDbText
62
2
6
CONTINUOUS
10
280.3948490183
20
45.9433879918
7
STANDARD
40
2.0000000000
1
ETAT DE SURFACES:
41
0.8000000000
72
1
11
293.9948490183
21
45.9433879918
100
AcDbText
0
TEXT
5
44A
100
AcDbEntity
8
0
100
AcDbText
62
2
6
CONTINUOUS
10
342.5948490183
20
45.9433879918
7
STANDARD
40
2.0000000000
1
CASSER LES ANGLES VIFS: 0,5 x 0,5
41
0.8000000000
72
1
11
368.9948490183
21
45.9433879918
100
AcDbText
0
TEXT
5
44B
100
AcDbEntity
8
0
100
AcDbText
62
2
6
CONTINUOUS
10
404.6281823516
20
32.9433879918
7
TEXTSTYLE_1
40
4.0000000000
1
ECH: 
41
0.6700000000
72
1
11
411.3281823516
21
32.9433879918
100
AcDbText
0
TEXT
5
44C
100
AcDbEntity
8
0
100
AcDbText
62
2
6
CONTINUOUS
10
418.0281823516
20
32.9433879918
7
TEXTSTYLE_1
40
4.0000000000
1
1
41
0.3333333333
72
1
11
418.6948490183
21
32.9433879918
100
AcDbText
0
TEXT
5
44D
100
AcDbEntity
8
0
100
AcDbText
62
2
6
CONTINUOUS
10
431.9281823516
20
32.9433879918
7
TEXTSTYLE_1
40
4.0000000000
1
A3
41
0.7666666667
72
1
11
434.9948490183
21
32.9433879918
100
AcDbText
0
TEXT
5
44E
100
AcDbEntity
8
0
100
AcDbText
62
2
6
CONTINUOUS
10
348.1948490183
20
32.4433879918
7
STANDARD
40
2.0000000000
1
TOL. GENERALE: JS13 - js13
41
0.8000000000
72
1
11
368.9948490183
21
32.4433879918
100
AcDbText
0
TEXT
5
44F
100
AcDbEntity
8
0
100
AcDbText
62
2
6
CONTINUOUS
10
279.0573490183
20
29.4590129918
7
STANDARD
40
0.1562500000
1
 
41
0.8000000000
72
0
100
AcDbText
0
TEXT
5
450
100
AcDbEntity
8
0
100
AcDbText
62
2
6
CONTINUOUS
10
279.0573490183
20
26.9199504918
7
STANDARD
40
2.0000000000
1
MATIERE
41
0.8000000000
72
0
100
AcDbText
0
TEXT
5
451
100
AcDbEntity
8
0
100
AcDbText
62
2
6
CONTINUOUS
10
319.0573490183
20
29.4590129918
7
STANDARD
40
0.1562500000
1
 
41
0.8000000000
72
0
100
AcDbText
0
TEXT
5
452
100
AcDbEntity
8
0
100
AcDbText
62
2
6
CONTINUOUS
10
319.0573490183
20
26.9199504918
7
STANDARD
40
2.0000000000
1
TRAITEMENT
41
0.8000000000
72
0
100
AcDbText
0
TEXT
5
453
100
AcDbEntity
8
0
100
AcDbText
62
2
6
CONTINUOUS
10
359.0573490183
20
29.4590129918
7
STANDARD
40
0.1562500000
1
 
41
0.8000000000
72
0
100
AcDbText
0
TEXT
5
454
100
AcDbEntity
8
0
100
AcDbText
62
2
6
CONTINUOUS
10
359.0573490183
20
26.9199504918
7
STANDARD
40
2.0000000000
1
PROTECTION
41
0.8000000000
72
0
100
AcDbText
0
TEXT
5
455
100
AcDbEntity
8
0
100
AcDbText
62
2
6
CONTINUOUS
10
404.9948490183
20
23.1548214620
7
TEXTSTYLE_1
40
5.0000000000
1
FSM france
41
0.6800000000
51
10.0000000000
72
1
11
421.9948490183
21
23.1548214620
100
AcDbText
0
TEXT
5
456
100
AcDbEntity
8
0
100
AcDbText
62
2
6
CONTINUOUS
10
298.9323490183
20
26.0097942418
7
STANDARD
40
0.1562500000
1
 
41
0.8000000000
72
1
11
298.9948490183
21
26.0097942418
100
AcDbText
0
TEXT
5
457
100
AcDbEntity
8
0
100
AcDbText
62
2
6
CONTINUOUS
10
291.1448490183
20
22.2207317418
7
TEXTSTYLE_1
40
3.0000000000
1
7075 T6
41
0.7476190476
72
1
11
298.9948490183
21
22.2207317418
100
AcDbText
0
TEXT
5
458
100
AcDbEntity
8
0
100
AcDbText
62
2
6
CONTINUOUS
10
338.9323490183
20
24.1347942418
7
STANDARD
40
0.1562500000
1
 
41
0.8000000000
72
1
11
338.9948490183
21
24.1347942418
100
AcDbText
0
TEXT
5
459
100
AcDbEntity
8
0
100
AcDbText
62
2
6
CONTINUOUS
10
338.9948490183
20
24.0957317418
7
TEXTSTYLE_1
40
3.0000000000
1

41
1.0000000000
72
1
11
338.9948490183
21
24.0957317418
100
AcDbText
0
TEXT
5
45A
100
AcDbEntity
8
0
100
AcDbText
62
2
6
CONTINUOUS
10
378.9323490154
20
24.1347942400
7
STANDARD
40
0.1562500000
1
 
41
0.8000000000
72
1
11
378.9948490154
21
24.1347942400
100
AcDbText
0
TEXT
5
45B
100
AcDbEntity
8
0
100
AcDbText
62
2
6
CONTINUOUS
10
378.9948490183
20
24.0957317388
7
TEXTSTYLE_1
40
3.0000000000
1

41
1.0000000000
72
1
11
378.9948490183
21
24.0957317388
100
AcDbText
0
TEXT
5
45C
100
AcDbEntity
8
0
100
AcDbText
62
2
6
CONTINUOUS
10
298.9323490154
20
19.4941692395
7
STANDARD
40
0.1562500000
1
 
41
0.8000000000
72
1
11
298.9948490154
21
19.4941692395
100
AcDbText
0
TEXT
5
45D
100
AcDbEntity
8
0
100
AcDbText
62
2
6
CONTINUOUS
10
282.9010990183
20
14.2363567393
7
TEXTSTYLE_1
40
5.0000000000
1
DESIGNATION :
41
0.4951923077
72
1
11
298.9948490183
21
14.2363567393
100
AcDbText
0
TEXT
5
45E
100
AcDbEntity
8
0
100
AcDbText
62
2
6
CONTINUOUS
10
358.9323490183
20
19.4941692418
7
STANDARD
40
0.1562500000
1
 
41
0.8000000000
72
1
11
358.9948490183
21
19.4941692418
100
AcDbText
0
TEXT
5
45F
100
AcDbEntity
8
0
100
AcDbText
62
2
6
CONTINUOUS
10
330.6198490183
20
14.2363567418
7
TEXTSTYLE_1
40
5.0000000000
1
SUPPORT PLATINE RADIO
41
0.5404761905
72
1
11
358.9948490183
21
14.2363567418
100
AcDbText
0
TEXT
5
460
100
AcDbEntity
8
0
100
AcDbText
62
2
6
CONTINUOUS
10
405.9010978876
20
14.6504191693
7
TEXTSTYLE_1
40
5.0000000000
1
 N : 100057-A
41
0.4951923077
72
1
11
421.9948478876
21
14.6504191693
100
AcDbText
0
TEXT
5
461
100
AcDbEntity
8
0
100
AcDbText
62
2
6
CONTINUOUS
10
421.9323490183
20
14.2363566617
7
TEXTSTYLE_1
40
0.1562500000
1
 
41
0.8000000000
72
1
11
421.9948490183
21
14.2363566617
100
AcDbText
0
TEXT
5
462
100
AcDbEntity
8
0
100
AcDbText
62
2
6
CONTINUOUS
10
332.7927468001
20
234.4917643665
7
TEXTSTYLE_1
40
3.5000000000
1
COUPE 
41
0.7666666667
72
0
100
AcDbText
0
TEXT
5
463
100
AcDbEntity
8
0
100
AcDbText
62
2
6
CONTINUOUS
10
348.8927468001
20
234.4917643665
7
TEXTSTYLE_1
40
3.5000000000
1
A-A
41
0.6555555556
72
0
100
AcDbText
0
INSERT
5
464
100
AcDbEntity
8
0
100
AcDbBlockReference
62
2
6
CONTINUOUS
2
N-CAR_BL2
10
0.0000000000
20
0.0000000000
0
LINE
5
465
100
AcDbEntity
8
0
100
AcDbLine
62
7
6
CONTINUOUS
10
30.0000000000
20
7.0000000000
11
30.0000000000
21
304.0000000000
0
LINE
5
466
100
AcDbEntity
8
0
100
AcDbLine
62
7
6
CONTINUOUS
10
35.0000000000
20
12.0000000000
11
35.0000000000
21
299.0000000000
0
LINE
5
467
100
AcDbEntity
8
0
100
AcDbLine
62
7
6
CONTINUOUS
10
30.0000000000
20
7.0000000000
11
450.0000000000
21
7.0000000000
0
LINE
5
468
100
AcDbEntity
8
0
100
AcDbLine
62
7
6
CONTINUOUS
10
35.0000000000
20
12.0000000000
11
445.0000000000
21
12.0000000000
0
LINE
5
469
100
AcDbEntity
8
0
100
AcDbLine
62
7
6
CONTINUOUS
10
30.0000000000
20
155.5000000000
11
35.0000000000
21
158.3867513459
0
LINE
5
46A
100
AcDbEntity
8
0
100
AcDbLine
62
7
6
CONTINUOUS
10
30.0000000000
20
155.5000000000
11
35.0000000000
21
152.6132486541
0
LINE
5
46B
100
AcDbEntity
8
0
100
AcDbLine
62
7
6
CONTINUOUS
10
237.1132486541
20
299.0000000000
11
240.0000000000
21
304.0000000000
0
LINE
5
46C
100
AcDbEntity
8
0
100
AcDbLine
62
7
6
CONTINUOUS
10
240.0000000000
20
7.0000000000
11
237.1132486541
21
12.0000000000
0
LINE
5
46D
100
AcDbEntity
8
0
100
AcDbLine
62
7
6
CONTINUOUS
10
240.0000000000
20
7.0000000000
11
242.8867513459
21
12.0000000000
0
LINE
5
46E
100
AcDbEntity
8
0
100
AcDbLine
62
7
6
CONTINUOUS
10
242.8867513459
20
299.0000000000
11
240.0000000000
21
304.0000000000
0
LINE
5
46F
100
AcDbEntity
8
0
100
AcDbLine
62
7
6
CONTINUOUS
10
445.0000000000
20
152.6132486541
11
450.0000000000
21
155.5000000000
0
LINE
5
470
100
AcDbEntity
8
0
100
AcDbLine
62
7
6
CONTINUOUS
10
445.0000000000
20
158.3867513459
11
450.0000000000
21
155.5000000000
0
LINE
5
471
100
AcDbEntity
8
0
100
AcDbLine
62
7
6
CONTINUOUS
10
35.0000000000
20
299.0000000000
11
445.0000000000
21
299.0000000000
0
LINE
5
472
100
AcDbEntity
8
0
100
AcDbLine
62
7
6
CONTINUOUS
10
30.0000000000
20
304.0000000000
11
450.0000000000
21
304.0000000000
0
LINE
5
473
100
AcDbEntity
8
0
100
AcDbLine
62
7
6
CONTINUOUS
10
445.0000000000
20
12.0000000000
11
445.0000000000
21
299.0000000000
0
LINE
5
474
100
AcDbEntity
8
0
100
AcDbLine
62
7
6
CONTINUOUS
10
450.0000000000
20
7.0000000000
11
450.0000000000
21
304.0000000000
0
LINE
5
475
100
AcDbEntity
8
0
100
AcDbLine
62
2
6
CONTINUOUS
10
330.0407849877
20
190.7436585600
11
330.0887849877
21
190.7916585600
0
LINE
5
476
100
AcDbEntity
8
0
100
AcDbLine
62
7
6
CONTINUOUS
10
330.0407849877
20
160.7916585600
11
348.0407849877
21
160.7916585600
0
LINE
5
477
100
AcDbEntity
8
0
100
AcDbLine
62
2
6
CONTINUOUS
10
330.0407849877
20
187.0513508677
11
332.7907849877
21
189.8013508677
0
LINE
5
478
100
AcDbEntity
8
0
100
AcDbLine
62
2
6
CONTINUOUS
10
330.0407849877
20
183.3590431754
11
332.7907849877
21
186.1090431754
0
LINE
5
479
100
AcDbEntity
8
0
100
AcDbLine
62
2
6
CONTINUOUS
10
335.2907849877
20
188.6090431754
11
337.4734003723
21
190.7916585600
0
LINE
5
47A
100
AcDbEntity
8
0
100
AcDbLine
62
2
6
CONTINUOUS
10
330.8933694969
20
180.5193199923
11
332.7907849877
21
182.4167354831
0
LINE
5
47B
100
AcDbEntity
8
0
100
AcDbLine
62
2
6
CONTINUOUS
10
335.2907849877
20
184.9167354831
11
337.6652330805
21
187.2911835759
0
LINE
5
47C
100
AcDbEntity
8
0
100
AcDbLine
62
2
6
CONTINUOUS
10
338.3157080646
20
187.9416585600
11
340.5407849877
21
190.1667354831
0
LINE
5
47D
100
AcDbEntity
8
0
100
AcDbLine
62
7
6
CONTINUOUS
10
335.5407849877
20
166.2916585600
11
332.5407849877
21
166.2916585600
0
LINE
5
47E
100
AcDbEntity
8
0
100
AcDbLine
62
7
6
CONTINUOUS
10
335.5407849877
20
166.2916585600
11
334.0407849877
21
167.1576839638
0
LINE
5
47F
100
AcDbEntity
8
0
100
AcDbLine
62
7
6
CONTINUOUS
10
330.0407849877
20
190.7916585600
11
330.0407849877
21
181.1163060926
0
LINE
5
480
100
AcDbEntity
8
0
100
AcDbLine
62
7
6
CONTINUOUS
10
330.0407849877
20
166.4670110274
11
330.0407849877
21
160.7916585600
0
LINE
5
481
100
AcDbEntity
8
0
100
AcDbLine
62
7
6
CONTINUOUS
10
337.0881570435
20
186.2916585600
11
338.0407849877
21
187.9416585600
0
LINE
5
482
100
AcDbEntity
8
0
100
AcDbLine
62
2
6
CONTINUOUS
10
333.0650500766
20
178.9986928797
11
334.2668419937
21
180.2004847968
0
LINE
5
483
100
AcDbEntity
8
0
100
AcDbLine
62
2
6
CONTINUOUS
10
335.2907849877
20
181.2244277908
11
338.7080157569
21
184.6416585600
0
LINE
5
484
100
AcDbEntity
8
0
100
AcDbLine
62
2
6
CONTINUOUS
10
343.5407849877
20
189.4744277908
11
344.8580157569
21
190.7916585600
0
LINE
5
485
100
AcDbEntity
8
0
100
AcDbLine
62
7
6
CONTINUOUS
10
340.7907849877
20
168.6473209927
11
343.2907849877
21
168.6473209927
0
LINE
5
486
100
AcDbEntity
8
0
100
AcDbLine
62
7
6
CONTINUOUS
10
340.5407849877
20
168.7916585600
11
343.5407849877
21
168.7916585600
0
LINE
5
487
100
AcDbEntity
8
0
100
AcDbLine
62
2
6
CONTINUOUS
10
332.5407849877
20
190.7916585600
11
332.5407849877
21
182.7916585600
0
LINE
5
488
100
AcDbEntity
8
0
100
AcDbLine
62
7
6
CONTINUOUS
10
332.5407849877
20
160.7916585600
11
332.5407849877
21
166.2916585600
0
LINE
5
489
100
AcDbEntity
8
0
100
AcDbLine
62
7
6
CONTINUOUS
10
332.7907849877
20
190.7916585600
11
332.7907849877
21
180.7916585600
0
LINE
5
48A
100
AcDbEntity
8
0
100
AcDbLine
62
7
6
CONTINUOUS
10
334.0407849877
20
180.0699707235
11
335.2907849877
21
180.7916585600
0
LINE
5
48B
100
AcDbEntity
8
0
100
AcDbLine
62
7
6
CONTINUOUS
10
340.5407849877
20
168.7916585600
11
340.7907849877
21
168.6473209927
0
LINE
5
48C
100
AcDbEntity
8
DEFAULT_1
100
AcDbLine
62
2
6
CENTER
10
334.0407849877
20
158.2916585600
11
334.0407849877
21
193.2916585600
0
LINE
5
48D
100
AcDbEntity
8
0
100
AcDbLine
62
7
6
CONTINUOUS
10
335.2907849877
20
190.7916585600
11
335.2907849877
21
180.7916585600
0
LINE
5
48E
100
AcDbEntity
8
0
100
AcDbLine
62
2
6
CONTINUOUS
10
335.5407849877
20
190.7916585600
11
335.5407849877
21
182.7916585600
0
LINE
5
48F
100
AcDbEntity
8
0
100
AcDbLine
62
7
6
CONTINUOUS
10
335.5407849877
20
160.7916585600
11
335.5407849877
21
166.2916585600
0
LINE
5
490
100
AcDbEntity
8
0
100
AcDbLine
62
2
6
CONTINUOUS
10
334.9395736372
20
177.1809087481
11
340.5407849877
21
182.7821200985
0
LINE
5
491
100
AcDbEntity
8
0
100
AcDbLine
62
2
6
CONTINUOUS
10
345.7003234492
20
187.9416585600
11
348.5503234492
21
190.7916585600
0
LINE
5
492
100
AcDbEntity
8
0
100
AcDbLine
62
7
6
CONTINUOUS
10
338.0407849877
20
184.6416585600
11
338.0407849877
21
187.9416585600
0
LINE
5
493
100
AcDbEntity
8
0
100
AcDbLine
62
2
6
CONTINUOUS
10
335.9549056270
20
174.5039330455
11
340.5407849877
21
179.0898124062
0
LINE
5
494
100
AcDbEntity
8
0
100
AcDbLine
62
2
6
CONTINUOUS
10
343.5407849877
20
182.0898124062
11
346.0926311415
21
184.6416585600
0
LINE
5
495
100
AcDbEntity
8
0
100
AcDbLine
62
2
6
CONTINUOUS
10
349.3926311415
20
187.9416585600
11
350.0407849877
21
188.5898124062
0
LINE
5
496
100
AcDbEntity
8
0
100
AcDbLine
62
7
6
CONTINUOUS
10
330.0407849877
20
181.1163060926
11
333.4822436058
21
178.7065708257
0
LINE
5
497
100
AcDbEntity
8
0
100
AcDbLine
62
7
6
CONTINUOUS
10
340.0407849877
20
188.2916585600
11
340.0407849877
21
187.9416585600
0
LINE
5
498
100
AcDbEntity
8
0
100
AcDbLine
62
7
6
CONTINUOUS
10
340.0407849877
20
184.6416585600
11
340.0407849877
21
184.2916585600
0
LINE
5
499
100
AcDbEntity
8
0
100
AcDbLine
62
7
6
CONTINUOUS
10
340.5407849877
20
190.7916585600
11
340.5407849877
21
187.9416585600
0
LINE
5
49A
100
AcDbEntity
8
0
100
AcDbLine
62
7
6
CONTINUOUS
10
340.5407849877
20
184.6416585600
11
340.5407849877
21
168.7916585600
0
LINE
5
49B
100
AcDbEntity
8
0
100
AcDbLine
62
2
6
CONTINUOUS
10
340.5407849877
20
168.7916585600
11
340.5407849877
21
160.7916585600
0
LINE
5
49C
100
AcDbEntity
8
0
100
AcDbLine
62
7
6
CONTINUOUS
10
340.7907849877
20
168.6473209927
11
340.7907849877
21
160.7916585600
0
LINE
5
49D
100
AcDbEntity
8
0
100
AcDbLine
62
2
6
CONTINUOUS
10
330.0407849877
20
164.8975047139
11
340.5407849877
21
175.3975047139
0
LINE
5
49E
100
AcDbEntity
8
0
100
AcDbLine
62
2
6
CONTINUOUS
10
343.5407849877
20
178.3975047139
11
349.7849388338
21
184.6416585600
0
LINE
5
49F
100
AcDbEntity
8
0
100
AcDbLine
62
7
6
CONTINUOUS
10
334.0407849877
20
180.0699707235
11
332.7907849877
21
180.7916585600
0
LINE
5
4A0
100
AcDbEntity
8
DEFAULT_1
100
AcDbLine
62
2
6
CENTER
10
342.0407849877
20
193.2916585600
11
342.0407849877
21
158.2916585600
0
LINE
5
4A1
100
AcDbEntity
8
0
100
AcDbLine
62
7
6
CONTINUOUS
10
333.4822436058
20
168.8767462943
11
330.0407849877
21
166.4670110274
0
LINE
5
4A2
100
AcDbEntity
8
0
100
AcDbLine
62
7
6
CONTINUOUS
10
343.2907849877
20
168.6473209927
11
343.2907849877
21
160.7916585600
0
LINE
5
4A3
100
AcDbEntity
8
0
100
AcDbLine
62
7
6
CONTINUOUS
10
343.5407849877
20
190.7916585600
11
343.5407849877
21
187.9416585600
0
LINE
5
4A4
100
AcDbEntity
8
0
100
AcDbLine
62
7
6
CONTINUOUS
10
343.5407849877
20
184.6416585600
11
343.5407849877
21
168.7916585600
0
LINE
5
4A5
100
AcDbEntity
8
0
100
AcDbLine
62
2
6
CONTINUOUS
10
343.5407849877
20
168.7916585600
11
343.5407849877
21
160.7916585600
0
LINE
5
4A6
100
AcDbEntity
8
0
100
AcDbLine
62
2
6
CONTINUOUS
10
330.0407849877
20
161.2051970216
11
332.5407849877
21
163.7051970216
0
LINE
5
4A7
100
AcDbEntity
8
0
100
AcDbLine
62
2
6
CONTINUOUS
10
335.2786121085
20
166.4430241424
11
340.5407849877
21
171.7051970216
0
LINE
5
4A8
100
AcDbEntity
8
0
100
AcDbLine
62
2
6
CONTINUOUS
10
343.5407849877
20
174.7051970216
11
348.0407849877
21
179.2051970216
0
LINE
5
4A9
100
AcDbEntity
8
0
100
AcDbLine
62
7
6
CONTINUOUS
10
335.2907849877
20
180.7916585600
11
332.7907849877
21
180.7916585600
0
LINE
5
4AA
100
AcDbEntity
8
0
100
AcDbLine
62
7
6
CONTINUOUS
10
337.0881570435
20
186.2916585600
11
338.0407849877
21
184.6416585600
0
LINE
5
4AB
100
AcDbEntity
8
0
100
AcDbLine
62
7
6
CONTINUOUS
10
332.5407849877
20
166.2916585600
11
334.0407849877
21
167.1576839638
0
LINE
5
4AC
100
AcDbEntity
8
0
100
AcDbLine
62
2
6
CONTINUOUS
10
335.5407849877
20
163.0128893292
11
340.7907849877
21
168.2628893292
0
LINE
5
4AD
100
AcDbEntity
8
0
100
AcDbLine
62
2
6
CONTINUOUS
10
343.5407849877
20
171.0128893292
11
348.0407849877
21
175.5128893292
0
LINE
5
4AE
100
AcDbEntity
8
0
100
AcDbLine
62
7
6
CONTINUOUS
10
332.5407849877
20
182.7916585600
11
332.7907849877
21
182.7916585600
0
LINE
5
4AF
100
AcDbEntity
8
0
100
AcDbLine
62
7
6
CONTINUOUS
10
335.2907849877
20
182.7916585600
11
335.5407849877
21
182.7916585600
0
LINE
5
4B0
100
AcDbEntity
8
0
100
AcDbLine
62
7
6
CONTINUOUS
10
343.5407849877
20
168.7916585600
11
343.2907849877
21
168.6473209927
0
LINE
5
4B1
100
AcDbEntity
8
0
100
AcDbLine
62
2
6
CONTINUOUS
10
350.0407849877
20
184.2916585600
11
340.0407849877
21
184.2916585600
0
LINE
5
4B2
100
AcDbEntity
8
0
100
AcDbLine
62
7
6
CONTINUOUS
10
338.0407849877
20
184.6416585600
11
340.5407849877
21
184.6416585600
0
LINE
5
4B3
100
AcDbEntity
8
0
100
AcDbLine
62
7
6
CONTINUOUS
10
343.5407849877
20
184.6416585600
11
350.0407849877
21
184.6416585600
0
LINE
5
4B4
100
AcDbEntity
8
0
100
AcDbLine
62
7
6
CONTINUOUS
10
348.0407849877
20
160.7916585600
11
348.0407849877
21
179.7916585600
0
LINE
5
4B5
100
AcDbEntity
8
0
100
AcDbLine
62
2
6
CONTINUOUS
10
337.0118619107
20
160.7916585600
11
340.7907849877
21
164.5705816369
0
LINE
5
4B6
100
AcDbEntity
8
0
100
AcDbLine
62
2
6
CONTINUOUS
10
343.2907849877
20
167.0705816369
11
348.0407849877
21
171.8205816369
0
LINE
5
4B7
100
AcDbEntity
8
0
100
AcDbLine
62
7
6
CONTINUOUS
10
350.0407849877
20
181.7916585600
11
350.0407849877
21
190.7916585600
0
LINE
5
4B8
100
AcDbEntity
8
DEFAULT_1
100
AcDbLine
62
2
6
CENTER
10
334.5881570435
20
186.2916585600
11
352.5407849877
21
186.2916585600
0
LINE
5
4B9
100
AcDbEntity
8
0
100
AcDbLine
62
2
6
CONTINUOUS
10
340.7041696030
20
160.7916585600
11
340.7907849877
21
160.8782739446
0
LINE
5
4BA
100
AcDbEntity
8
0
100
AcDbLine
62
2
6
CONTINUOUS
10
343.2907849877
20
163.3782739446
11
348.0407849877
21
168.1282739446
0
LINE
5
4BB
100
AcDbEntity
8
0
100
AcDbLine
62
7
6
CONTINUOUS
10
338.0407849877
20
187.9416585600
11
340.5407849877
21
187.9416585600
0
LINE
5
4BC
100
AcDbEntity
8
0
100
AcDbLine
62
7
6
CONTINUOUS
10
343.5407849877
20
187.9416585600
11
350.0407849877
21
187.9416585600
0
LINE
5
4BD
100
AcDbEntity
8
0
100
AcDbLine
62
2
6
CONTINUOUS
10
350.0407849877
20
188.2916585600
11
340.0407849877
21
188.2916585600
0
LINE
5
4BE
100
AcDbEntity
8
0
100
AcDbLine
62
2
6
CONTINUOUS
10
344.3964772954
20
160.7916585600
11
348.0407849877
21
164.4359662523
0
LINE
5
4BF
100
AcDbEntity
8
0
100
AcDbLine
62
7
6
CONTINUOUS
10
330.0407849877
20
190.7916585600
11
350.0407849877
21
190.7916585600
0
LINE
5
4C0
100
AcDbEntity
8
0
100
AcDbLine
62
7
6
CONTINUOUS
10
260.0117274356
20
147.0370766743
11
257.4487320356
21
147.0370766743
0
LINE
5
4C1
100
AcDbEntity
8
0
100
AcDbLine
62
5
6
CONTINUOUS
10
257.4487320356
20
147.0370766743
11
247.4487320356
21
147.0370766743
0
LINE
5
4C2
100
AcDbEntity
8
0
100
AcDbLine
62
7
6
CONTINUOUS
10
264.5117274356
20
160.7916585600
11
255.5117274356
21
160.7916585600
0
LINE
5
4C3
100
AcDbEntity
8
0
100
AcDbLine
62
7
6
CONTINUOUS
10
255.5117274356
20
160.7916585600
11
255.5117274356
21
190.7916585600
0
LINE
5
4C4
100
AcDbEntity
8
0
100
AcDbLine
62
5
6
PHANTOM
10
260.0117274356
20
214.8491534535
11
260.0117274356
21
209.6841058364
0
LINE
5
4C5
100
AcDbEntity
8
DEFAULT_1
100
AcDbLine
62
2
6
CENTER
10
260.0117274356
20
179.6416585600
11
260.0117274356
21
178.2916585600
0
LINE
5
4C6
100
AcDbEntity
8
DEFAULT_1
100
AcDbLine
62
2
6
CENTER
10
260.0117274356
20
186.2916585600
11
260.0117274356
21
179.6416585600
0
LINE
5
4C7
100
AcDbEntity
8
0
100
AcDbLine
62
5
6
PHANTOM
10
260.0117274356
20
156.3674852729
11
260.0117274356
21
147.0370766743
0
LINE
5
4C8
100
AcDbEntity
8
DEFAULT_1
100
AcDbLine
62
2
6
CENTER
10
260.0117274356
20
186.2916585600
11
260.0117274356
21
192.9416585600
0
LINE
5
4C9
100
AcDbEntity
8
DEFAULT_1
100
AcDbLine
62
2
6
CENTER
10
260.0117274356
20
192.9416585600
11
260.0117274356
21
200.8070558089
0
LINE
5
4CA
100
AcDbEntity
8
0
100
AcDbLine
62
9
6
CONTINUOUS
10
255.5117274356
20
179.7916585600
11
264.5117274356
21
179.7916585600
0
LINE
5
4CB
100
AcDbEntity
8
0
100
AcDbLine
62
7
6
CONTINUOUS
10
264.5117274356
20
160.7916585600
11
264.5117274356
21
190.7916585600
0
LINE
5
4CC
100
AcDbEntity
8
0
100
AcDbLine
62
7
6
CONTINUOUS
10
255.5117274356
20
181.7916585600
11
264.5117274356
21
181.7916585600
0
LINE
5
4CD
100
AcDbEntity
8
DEFAULT_1
100
AcDbLine
62
2
6
CENTER
10
260.0117274356
20
186.2916585600
11
253.3617274356
21
186.2916585600
0
LINE
5
4CE
100
AcDbEntity
8
DEFAULT_1
100
AcDbLine
62
2
6
CENTER
10
260.0117274356
20
186.2916585600
11
266.6617274356
21
186.2916585600
0
LINE
5
4CF
100
AcDbEntity
8
0
100
AcDbLine
62
7
6
CONTINUOUS
10
264.5117274356
20
190.7916585600
11
255.5117274356
21
190.7916585600
0
LINE
5
4D0
100
AcDbEntity
8
0
100
AcDbLine
62
7
6
CONTINUOUS
10
260.0117274356
20
214.8491534535
11
257.4487320356
21
214.8491534535
0
LINE
5
4D1
100
AcDbEntity
8
0
100
AcDbLine
62
5
6
CONTINUOUS
10
257.4487320356
20
214.8491534535
11
247.4487320356
21
214.8491534535
0
LINE
5
4D2
100
AcDbEntity
8
0
100
AcDbLine
62
7
6
CONTINUOUS
10
330.0407849877
20
254.6345465274
11
330.0407849877
21
263.6345465274
0
LINE
5
4D3
100
AcDbEntity
8
DEFAULT_1
100
AcDbLine
62
2
6
CENTER
10
334.0407849877
20
259.1345465274
11
334.0407849877
21
252.8845465274
0
LINE
5
4D4
100
AcDbEntity
8
DEFAULT_1
100
AcDbLine
62
2
6
CENTER
10
334.0407849877
20
252.8845465274
11
334.0407849877
21
252.6345465274
0
LINE
5
4D5
100
AcDbEntity
8
DEFAULT_1
100
AcDbLine
62
2
6
CENTER
10
334.0407849877
20
259.1345465274
11
334.0407849877
21
265.3845465274
0
LINE
5
4D6
100
AcDbEntity
8
DEFAULT_1
100
AcDbLine
62
2
6
CENTER
10
334.0407849877
20
265.3845465274
11
334.0407849877
21
265.6345465274
0
LINE
5
4D7
100
AcDbEntity
8
0
100
AcDbLine
62
7
6
CONTINUOUS
10
330.0407849877
20
254.6345465274
11
350.0407849877
21
254.6345465274
0
LINE
5
4D8
100
AcDbEntity
8
DEFAULT_1
100
AcDbLine
62
2
6
CENTER
10
342.0407849877
20
259.1345465274
11
335.7907849877
21
259.1345465274
0
LINE
5
4D9
100
AcDbEntity
8
DEFAULT_1
100
AcDbLine
62
2
6
CENTER
10
335.7907849877
20
259.1345465274
11
335.5407849877
21
259.1345465274
0
LINE
5
4DA
100
AcDbEntity
8
DEFAULT_1
100
AcDbLine
62
2
6
CENTER
10
334.0407849877
20
259.1345465274
11
327.5407849877
21
259.1345465274
0
LINE
5
4DB
100
AcDbEntity
8
DEFAULT_1
100
AcDbLine
62
2
6
CENTER
10
327.5407849877
20
259.1345465274
11
320.2890514223
21
259.1345465274
0
LINE
5
4DC
100
AcDbEntity
8
DEFAULT_1
100
AcDbLine
62
2
6
CENTER
10
334.0407849877
20
259.1345465274
11
335.5407849877
21
259.1345465274
0
LINE
5
4DD
100
AcDbEntity
8
DEFAULT_1
100
AcDbLine
62
2
6
CENTER
10
342.0407849877
20
259.1345465274
11
348.2907849877
21
259.1345465274
0
LINE
5
4DE
100
AcDbEntity
8
DEFAULT_1
100
AcDbLine
62
2
6
CENTER
10
348.2907849877
20
259.1345465274
11
348.5407849877
21
259.1345465274
0
LINE
5
4DF
100
AcDbEntity
8
DEFAULT_1
100
AcDbLine
62
2
6
CENTER
10
342.0407849877
20
259.1345465274
11
342.0407849877
21
252.8845465274
0
LINE
5
4E0
100
AcDbEntity
8
DEFAULT_1
100
AcDbLine
62
2
6
CENTER
10
342.0407849877
20
252.8845465274
11
342.0407849877
21
252.6345465274
0
LINE
5
4E1
100
AcDbEntity
8
DEFAULT_1
100
AcDbLine
62
2
6
CENTER
10
342.0407849877
20
259.1345465274
11
342.0407849877
21
265.3845465274
0
LINE
5
4E2
100
AcDbEntity
8
DEFAULT_1
100
AcDbLine
62
2
6
CENTER
10
342.0407849877
20
265.3845465274
11
342.0407849877
21
265.6345465274
0
LINE
5
4E3
100
AcDbEntity
8
0
100
AcDbLine
62
7
6
CONTINUOUS
10
330.0407849877
20
263.6345465274
11
350.0407849877
21
263.6345465274
0
LINE
5
4E4
100
AcDbEntity
8
0
100
AcDbLine
62
7
6
CONTINUOUS
10
348.0407849877
20
254.6345465274
11
348.0407849877
21
263.6345465274
0
LINE
5
4E5
100
AcDbEntity
8
0
100
AcDbLine
62
7
6
CONTINUOUS
10
350.0407849877
20
263.6345465274
11
350.0407849877
21
254.6345465274
0
LINE
5
4E6
100
AcDbEntity
8
0
100
AcDbLine
62
7
6
CONTINUOUS
10
330.0407849877
20
117.2580450722
11
330.0407849877
21
108.2580450722
0
LINE
5
4E7
100
AcDbEntity
8
DEFAULT_1
100
AcDbLine
62
2
6
CENTER
10
334.0407849877
20
112.7580450722
11
334.0407849877
21
106.5080450722
0
LINE
5
4E8
100
AcDbEntity
8
DEFAULT_1
100
AcDbLine
62
2
6
CENTER
10
334.0407849877
20
106.5080450722
11
334.0407849877
21
106.2580450722
0
LINE
5
4E9
100
AcDbEntity
8
DEFAULT_1
100
AcDbLine
62
2
6
CENTER
10
334.0407849877
20
112.7580450722
11
334.0407849877
21
119.0080450722
0
LINE
5
4EA
100
AcDbEntity
8
DEFAULT_1
100
AcDbLine
62
2
6
CENTER
10
334.0407849877
20
119.0080450722
11
334.0407849877
21
119.2580450722
0
LINE
5
4EB
100
AcDbEntity
8
0
100
AcDbLine
62
7
6
CONTINUOUS
10
350.0407849877
20
108.2580450722
11
330.0407849877
21
108.2580450722
0
LINE
5
4EC
100
AcDbEntity
8
DEFAULT_1
100
AcDbLine
62
2
6
CENTER
10
342.0407849877
20
112.7580450722
11
335.7907849877
21
112.7580450722
0
LINE
5
4ED
100
AcDbEntity
8
DEFAULT_1
100
AcDbLine
62
2
6
CENTER
10
335.7907849877
20
112.7580450722
11
335.5407849877
21
112.7580450722
0
LINE
5
4EE
100
AcDbEntity
8
DEFAULT_1
100
AcDbLine
62
2
6
CENTER
10
334.0407849877
20
112.7580450722
11
327.5407849877
21
112.7580450722
0
LINE
5
4EF
100
AcDbEntity
8
DEFAULT_1
100
AcDbLine
62
2
6
CENTER
10
327.5407849877
20
112.7580450722
11
318.9109491413
21
112.7580450722
0
LINE
5
4F0
100
AcDbEntity
8
DEFAULT_1
100
AcDbLine
62
2
6
CENTER
10
334.0407849877
20
112.7580450722
11
335.5407849877
21
112.7580450722
0
LINE
5
4F1
100
AcDbEntity
8
DEFAULT_1
100
AcDbLine
62
2
6
CENTER
10
342.0407849877
20
112.7580450722
11
348.2907849877
21
112.7580450722
0
LINE
5
4F2
100
AcDbEntity
8
DEFAULT_1
100
AcDbLine
62
2
6
CENTER
10
348.2907849877
20
112.7580450722
11
348.5407849877
21
112.7580450722
0
LINE
5
4F3
100
AcDbEntity
8
DEFAULT_1
100
AcDbLine
62
2
6
CENTER
10
342.0407849877
20
112.7580450722
11
342.0407849877
21
106.5080450722
0
LINE
5
4F4
100
AcDbEntity
8
DEFAULT_1
100
AcDbLine
62
2
6
CENTER
10
342.0407849877
20
106.5080450722
11
342.0407849877
21
106.2580450722
0
LINE
5
4F5
100
AcDbEntity
8
DEFAULT_1
100
AcDbLine
62
2
6
CENTER
10
342.0407849877
20
112.7580450722
11
342.0407849877
21
119.0080450722
0
LINE
5
4F6
100
AcDbEntity
8
DEFAULT_1
100
AcDbLine
62
2
6
CENTER
10
342.0407849877
20
119.0080450722
11
342.0407849877
21
119.2580450722
0
LINE
5
4F7
100
AcDbEntity
8
0
100
AcDbLine
62
7
6
CONTINUOUS
10
330.0407849877
20
117.2580450722
11
350.0407849877
21
117.2580450722
0
LINE
5
4F8
100
AcDbEntity
8
0
100
AcDbLine
62
7
6
CONTINUOUS
10
350.0407849877
20
117.2580450722
11
350.0407849877
21
108.2580450722
0
LINE
5
4F9
100
AcDbEntity
8
0
100
AcDbLine
62
7
6
CONTINUOUS
10
144.0986049797
20
160.7916585600
11
126.0986049797
21
160.7916585600
0
LINE
5
4FA
100
AcDbEntity
8
0
100
AcDbLine
62
7
6
CONTINUOUS
10
130.0986049797
20
162.7916585600
11
137.0986049797
21
162.7916585600
0
LINE
5
4FB
100
AcDbEntity
8
0
100
AcDbLine
62
7
6
CONTINUOUS
10
124.0986049797
20
181.7916585600
11
124.0986049797
21
190.7916585600
0
LINE
5
4FC
100
AcDbEntity
8
0
100
AcDbLine
62
7
6
CONTINUOUS
10
126.0986049797
20
160.7916585600
11
126.0986049797
21
179.7916585600
0
LINE
5
4FD
100
AcDbEntity
8
0
100
AcDbLine
62
7
6
CONTINUOUS
10
128.0986049797
20
186.7916585600
11
128.0986049797
21
164.7916585600
0
LINE
5
4FE
100
AcDbEntity
8
0
100
AcDbLine
62
2
6
CONTINUOUS
10
194.0844346134
20
170.2625528855
11
180.3177679467
21
170.2625528855
0
LINE
5
4FF
100
AcDbEntity
8
0
100
AcDbLine
62
7
6
CONTINUOUS
10
140.6571463616
20
168.8767462943
11
144.0986049797
21
166.4670110274
0
LINE
5
500
100
AcDbEntity
8
0
100
AcDbLine
62
7
6
CONTINUOUS
10
141.2457578524
20
181.5602702062
11
139.5099934889
21
180.3448749143
0
LINE
5
501
100
AcDbEntity
8
DEFAULT_1
100
AcDbLine
62
2
6
CENTER
10
144.0986049797
20
173.7916585600
11
136.1179115706
21
173.7916585600
0
LINE
5
502
100
AcDbEntity
8
DEFAULT_1
100
AcDbLine
62
2
6
CENTER
10
144.0986049797
20
173.7916585600
11
178.2666810572
21
173.7916585600
0
LINE
5
503
100
AcDbEntity
8
0
100
AcDbLine
62
7
6
CONTINUOUS
10
144.0986049797
20
181.1163060926
11
140.6571463616
21
178.7065708257
0
LINE
5
504
100
AcDbEntity
8
0
100
AcDbLine
62
2
6
CONTINUOUS
10
180.3177679467
20
177.2625528855
11
194.0844346134
21
177.2625528855
0
LINE
5
505
100
AcDbEntity
8
0
100
AcDbLine
62
7
6
CONTINUOUS
10
139.0986049797
20
164.7916585600
11
139.0986049797
21
166.6502301315
0
LINE
5
506
100
AcDbEntity
8
0
100
AcDbLine
62
7
6
CONTINUOUS
10
142.0986049797
20
186.7916585600
11
142.0986049797
21
183.1985742948
0
LINE
5
507
100
AcDbEntity
8
0
100
AcDbLine
62
7
6
CONTINUOUS
10
144.0986049797
20
190.7916585600
11
144.0986049797
21
181.1163060926
0
LINE
5
508
100
AcDbEntity
8
DEFAULT_1
100
AcDbLine
62
2
6
CENTER
10
144.0986049797
20
173.7916585600
11
144.0986049797
21
166.9222411534
0
LINE
5
509
100
AcDbEntity
8
0
100
AcDbLine
62
7
6
CONTINUOUS
10
144.0986049797
20
166.4670110274
11
144.0986049797
21
160.7916585600
0
LINE
5
50A
100
AcDbEntity
8
DEFAULT_1
100
AcDbLine
62
2
6
CENTER
10
144.0986049797
20
173.7916585600
11
144.0986049797
21
181.1163060926
0
LINE
5
50B
100
AcDbEntity
8
0
100
AcDbLine
62
7
6
CONTINUOUS
10
140.0986049797
20
188.7916585600
11
130.0986049797
21
188.7916585600
0
LINE
5
50C
100
AcDbEntity
8
0
100
AcDbLine
62
7
6
CONTINUOUS
10
144.0986049797
20
190.7916585600
11
124.0986049797
21
190.7916585600
0
LINE
5
50D
100
AcDbEntity
8
0
100
AcDbLine
62
2
6
CONTINUOUS
10
180.3177679467
20
170.2625528855
11
180.3177679467
21
177.2625528855
0
LINE
5
50E
100
AcDbEntity
8
0
100
AcDbLine
62
2
6
CONTINUOUS
10
194.0844346134
20
177.2625528855
11
194.0844346134
21
170.2625528855
0
LINE
5
50F
100
AcDbEntity
8
0
100
AcDbLine
62
7
6
CONTINUOUS
10
111.1110475921
20
79.3427546653
11
110.3248168043
21
71.7896335695
0
LINE
5
510
100
AcDbEntity
8
0
100
AcDbLine
62
7
6
CONTINUOUS
10
125.9932959589
20
65.9163936216
11
110.3248168043
21
71.7896335695
0
LINE
5
511
100
AcDbEntity
8
0
100
AcDbLine
62
9
6
CONTINUOUS
10
114.7896110899
20
80.4301383825
11
114.6943269927
21
79.5147680665
0
LINE
5
512
100
AcDbEntity
8
0
100
AcDbLine
62
7
6
CONTINUOUS
10
119.5426176539
20
89.1301580331
11
123.9022657354
21
93.0450813837
0
POLYLINE
5
513
100
AcDbEntity
8
0
100
AcDb2dPolyline
62
2
6
CONTINUOUS
66
1
70
0
0
VERTEX
5
514
100
AcDbEntity
8
0
100
AcDbVertex
62
2
6
CONTINUOUS
100
AcDb2dVertex
10
114.6350519868
20
74.0978841304
0
VERTEX
5
515
100
AcDbEntity
8
0
100
AcDbVertex
62
2
6
CONTINUOUS
100
AcDb2dVertex
10
114.6853711373
20
74.3330754812
0
VERTEX
5
516
100
AcDbEntity
8
0
100
AcDbVertex
62
2
6
CONTINUOUS
100
AcDb2dVertex
10
114.7835076055
20
74.5406659761
0
VERTEX
5
517
100
AcDbEntity
8
0
100
AcDbVertex
62
2
6
CONTINUOUS
100
AcDb2dVertex
10
114.9257234039
20
74.7127485576
0
VERTEX
5
518
100
AcDbEntity
8
0
100
AcDbVertex
62
2
6
CONTINUOUS
100
AcDb2dVertex
10
115.1101427816
20
74.8446753087
0
VERTEX
5
519
100
AcDbEntity
8
0
100
AcDbVertex
62
2
6
CONTINUOUS
100
AcDb2dVertex
10
115.3232906574
20
74.9268066583
0
VERTEX
5
51A
100
AcDbEntity
8
0
100
AcDbVertex
62
2
6
CONTINUOUS
100
AcDb2dVertex
10
115.5599576947
20
74.9587221160
0
VERTEX
5
51B
100
AcDbEntity
8
0
100
AcDbVertex
62
2
6
CONTINUOUS
100
AcDb2dVertex
10
115.8111293196
20
74.9392060318
0
VERTEX
5
51C
100
AcDbEntity
8
0
100
AcDbVertex
62
2
6
CONTINUOUS
100
AcDb2dVertex
10
116.0717970477
20
74.8673009841
0
VERTEX
5
51D
100
AcDbEntity
8
0
100
AcDbVertex
62
2
6
CONTINUOUS
100
AcDb2dVertex
10
116.3229145141
20
74.7482609019
0
VERTEX
5
51E
100
AcDbEntity
8
0
100
AcDbVertex
62
2
6
CONTINUOUS
100
AcDb2dVertex
10
116.5594757798
20
74.5858056801
0
VERTEX
5
51F
100
AcDbEntity
8
0
100
AcDbVertex
62
2
6
CONTINUOUS
100
AcDb2dVertex
10
116.7724702997
20
74.3861231877
0
VERTEX
5
520
100
AcDbEntity
8
0
100
AcDbVertex
62
2
6
CONTINUOUS
100
AcDb2dVertex
10
116.9566907584
20
74.1525073429
0
VERTEX
5
521
100
AcDbEntity
8
0
100
AcDbVertex
62
2
6
CONTINUOUS
100
AcDb2dVertex
10
117.0986766093
20
73.9020278945
0
VERTEX
5
522
100
AcDbEntity
8
0
100
AcDbVertex
62
2
6
CONTINUOUS
100
AcDb2dVertex
10
117.1965577223
20
73.6403660589
0
VERTEX
5
523
100
AcDbEntity
8
0
100
AcDbVertex
62
2
6
CONTINUOUS
100
AcDb2dVertex
10
117.2466058362
20
73.3774884541
0
VERTEX
5
524
100
AcDbEntity
8
0
100
AcDbVertex
62
2
6
CONTINUOUS
100
AcDb2dVertex
10
117.2464651793
20
73.1190108058
0
SEQEND
5
525
100
AcDbEntity
8
0
0
LINE
5
526
100
AcDbEntity
8
0
100
AcDbLine
62
7
6
CONTINUOUS
10
111.1110475921
20
79.3427546653
11
120.3147490974
21
87.6075928499
0
LINE
5
527
100
AcDbEntity
8
0
100
AcDbLine
62
7
6
CONTINUOUS
10
125.4465286224
20
89.9999510172
11
114.7896110899
21
80.4301383825
0
LINE
5
528
100
AcDbEntity
8
0
100
AcDbLine
62
7
6
CONTINUOUS
10
119.2881689504
20
86.6857334444
11
119.5426176539
21
89.1301580331
0
POLYLINE
5
529
100
AcDbEntity
8
0
100
AcDb2dPolyline
62
2
6
CONTINUOUS
66
1
70
0
0
VERTEX
5
52A
100
AcDbEntity
8
0
100
AcDbVertex
62
2
6
CONTINUOUS
100
AcDb2dVertex
10
117.2464651793
20
73.1190108058
0
VERTEX
5
52B
100
AcDbEntity
8
0
100
AcDbVertex
62
2
6
CONTINUOUS
100
AcDb2dVertex
10
117.1961460288
20
72.8838194550
0
VERTEX
5
52C
100
AcDbEntity
8
0
100
AcDbVertex
62
2
6
CONTINUOUS
100
AcDb2dVertex
10
117.0980095606
20
72.6762289602
0
VERTEX
5
52D
100
AcDbEntity
8
0
100
AcDbVertex
62
2
6
CONTINUOUS
100
AcDb2dVertex
10
116.9557937622
20
72.5041463786
0
VERTEX
5
52E
100
AcDbEntity
8
0
100
AcDbVertex
62
2
6
CONTINUOUS
100
AcDb2dVertex
10
116.7713743845
20
72.3722196276
0
VERTEX
5
52F
100
AcDbEntity
8
0
100
AcDbVertex
62
2
6
CONTINUOUS
100
AcDb2dVertex
10
116.5582265087
20
72.2900882779
0
VERTEX
5
530
100
AcDbEntity
8
0
100
AcDbVertex
62
2
6
CONTINUOUS
100
AcDb2dVertex
10
116.3215594714
20
72.2581728203
0
VERTEX
5
531
100
AcDbEntity
8
0
100
AcDbVertex
62
2
6
CONTINUOUS
100
AcDb2dVertex
10
116.0703878465
20
72.2776889044
0
VERTEX
5
532
100
AcDbEntity
8
0
100
AcDbVertex
62
2
6
CONTINUOUS
100
AcDb2dVertex
10
115.8097201184
20
72.3495939521
0
VERTEX
5
533
100
AcDbEntity
8
0
100
AcDbVertex
62
2
6
CONTINUOUS
100
AcDb2dVertex
10
115.5586026520
20
72.4686340344
0
VERTEX
5
534
100
AcDbEntity
8
0
100
AcDbVertex
62
2
6
CONTINUOUS
100
AcDb2dVertex
10
115.3220413863
20
72.6310892561
0
VERTEX
5
535
100
AcDbEntity
8
0
100
AcDbVertex
62
2
6
CONTINUOUS
100
AcDb2dVertex
10
115.1090468664
20
72.8307717485
0
VERTEX
5
536
100
AcDbEntity
8
0
100
AcDbVertex
62
2
6
CONTINUOUS
100
AcDb2dVertex
10
114.9248264077
20
73.0643875933
0
VERTEX
5
537
100
AcDbEntity
8
0
100
AcDbVertex
62
2
6
CONTINUOUS
100
AcDb2dVertex
10
114.7828405568
20
73.3148670417
0
VERTEX
5
538
100
AcDbEntity
8
0
100
AcDbVertex
62
2
6
CONTINUOUS
100
AcDb2dVertex
10
114.6849594438
20
73.5765288773
0
VERTEX
5
539
100
AcDbEntity
8
0
100
AcDbVertex
62
2
6
CONTINUOUS
100
AcDb2dVertex
10
114.6349113299
20
73.8394064821
0
VERTEX
5
53A
100
AcDbEntity
8
0
100
AcDbVertex
62
2
6
CONTINUOUS
100
AcDb2dVertex
10
114.6350519868
20
74.0978841304
0
SEQEND
5
53B
100
AcDbEntity
8
0
0
LINE
5
53C
100
AcDbEntity
8
0
100
AcDbLine
62
7
6
CONTINUOUS
10
125.3154901578
20
88.7410975013
11
114.8516608815
21
79.3446763212
0
LINE
5
53D
100
AcDbEntity
8
0
100
AcDbLine
62
7
6
CONTINUOUS
10
135.8386638058
20
74.7574422013
11
131.6756850233
21
74.8321452294
0
LINE
5
53E
100
AcDbEntity
8
0
100
AcDbLine
62
7
6
CONTINUOUS
10
126.7795267466
20
73.4695147174
11
111.1110475921
21
79.3427546653
0
LINE
5
53F
100
AcDbEntity
8
0
100
AcDbLine
62
7
6
CONTINUOUS
10
115.5617425334
20
78.9075731992
11
121.6550399824
21
76.6235354417
0
LINE
5
540
100
AcDbEntity
8
0
100
AcDbLine
62
9
6
CONTINUOUS
10
125.4465286224
20
89.9999510172
11
125.3154901578
21
88.7410975013
0
LINE
5
541
100
AcDbEntity
8
0
100
AcDbLine
62
7
6
CONTINUOUS
10
124.9887504866
20
78.6938231951
11
125.1197889513
21
79.9526767111
0
LINE
5
542
100
AcDbEntity
8
0
100
AcDbLine
62
9
6
CONTINUOUS
10
125.4346813720
20
78.4664657710
11
125.3628493167
21
77.7763933133
0
LINE
5
543
100
AcDbEntity
8
0
100
AcDbLine
62
9
6
CONTINUOUS
10
128.1562814355
20
90.2173517676
11
128.0252429708
21
88.9584982516
0
LINE
5
544
100
AcDbEntity
8
0
100
AcDbLine
62
7
6
CONTINUOUS
10
124.3647927954
20
76.8409361921
11
125.2650947939
21
77.6493989969
0
LINE
5
545
100
AcDbEntity
8
0
100
AcDbLine
62
7
6
CONTINUOUS
10
127.7002962932
20
78.1093763707
11
129.5286978018
21
75.9382447060
0
LINE
5
546
100
AcDbEntity
8
0
100
AcDbLine
62
7
6
CONTINUOUS
10
126.7795267466
20
73.4695147174
11
125.9932959589
21
65.9163936216
0
LINE
5
547
100
AcDbEntity
8
0
100
AcDbLine
62
7
6
CONTINUOUS
10
129.5286978018
20
75.9382447060
11
128.7424670140
21
68.3851236102
0
LINE
5
548
100
AcDbEntity
8
0
100
AcDbLine
62
7
6
CONTINUOUS
10
137.6331235204
20
85.4318755022
11
135.8926143067
21
83.8689144477
0
LINE
5
549
100
AcDbEntity
8
0
100
AcDbLine
62
7
6
CONTINUOUS
10
136.6248945935
20
82.3105632971
11
132.4619158110
21
82.3852663252
0
LINE
5
54A
100
AcDbEntity
8
0
100
AcDbLine
62
7
6
CONTINUOUS
10
134.3566323073
20
83.4345425562
11
132.2569556821
21
83.4722204331
0
LINE
5
54B
100
AcDbEntity
8
0
100
AcDbLine
62
7
6
CONTINUOUS
10
141.3116870182
20
86.5192592193
11
136.6248945935
21
82.3105632971
0
LINE
5
54C
100
AcDbEntity
8
0
100
AcDbLine
62
7
6
CONTINUOUS
10
129.5286978018
20
75.9382447060
11
126.7795267466
21
73.4695147174
0
LINE
5
54D
100
AcDbEntity
8
0
100
AcDbLine
62
9
6
CONTINUOUS
10
131.6756850233
20
74.8321452294
11
132.4619158110
21
82.3852663252
0
LINE
5
54E
100
AcDbEntity
8
0
100
AcDbLine
62
7
6
CONTINUOUS
10
136.7299536123
20
85.6955871694
11
128.0252429708
21
88.9584982516
0
LINE
5
54F
100
AcDbEntity
8
0
100
AcDbLine
62
9
6
CONTINUOUS
10
136.8609920769
20
86.9544406854
11
136.7299536123
21
85.6955871694
0
LINE
5
550
100
AcDbEntity
8
0
100
AcDbLine
62
7
6
CONTINUOUS
10
136.6248945935
20
82.3105632971
11
135.8386638058
21
74.7574422013
0
LINE
5
551
100
AcDbEntity
8
0
100
AcDbLine
62
7
6
CONTINUOUS
10
140.5254562305
20
78.9661381235
11
135.8386638058
21
74.7574422013
0
LINE
5
552
100
AcDbEntity
8
0
100
AcDbLine
62
7
6
CONTINUOUS
10
128.7424670140
20
68.3851236102
11
125.9932959589
21
65.9163936216
0
LINE
5
553
100
AcDbEntity
8
0
100
AcDbLine
62
7
6
CONTINUOUS
10
136.8609920769
20
86.9544406854
11
128.1562814355
21
90.2173517676
0
LINE
5
554
100
AcDbEntity
8
0
100
AcDbLine
62
7
6
CONTINUOUS
10
141.3116870182
20
86.5192592193
11
123.9022657354
21
93.0450813837
0
LINE
5
555
100
AcDbEntity
8
0
100
AcDbLine
62
7
6
CONTINUOUS
10
141.3116870182
20
86.5192592193
11
140.5254562305
21
78.9661381235
0
LINE
5
556
100
AcDbEntity
8
0
100
AcDbLine
62
7
6
CONTINUOUS
10
215.0248548545
20
99.1083853202
11
210.1143395712
21
95.3866833750
0
LINE
5
557
100
AcDbEntity
8
0
100
AcDbLine
62
7
6
CONTINUOUS
10
205.6784645011
20
71.1277478592
11
220.5264826536
21
63.5953381733
0
POLYLINE
5
558
100
AcDbEntity
8
0
100
AcDb2dPolyline
62
2
6
CONTINUOUS
66
1
70
0
0
VERTEX
5
559
100
AcDbEntity
8
0
100
AcDbVertex
62
2
6
CONTINUOUS
100
AcDb2dVertex
10
214.6318219563
20
96.2013663357
0
VERTEX
5
55A
100
AcDbEntity
8
0
100
AcDbVertex
62
2
6
CONTINUOUS
100
AcDb2dVertex
10
214.4964216812
20
96.0689314775
0
VERTEX
5
55B
100
AcDbEntity
8
0
100
AcDbVertex
62
2
6
CONTINUOUS
100
AcDb2dVertex
10
214.4133084603
20
95.9176320932
0
VERTEX
5
55C
100
AcDbEntity
8
0
100
AcDbVertex
62
2
6
CONTINUOUS
100
AcDb2dVertex
10
214.3856480505
20
95.7532311294
0
VERTEX
5
55D
100
AcDbEntity
8
0
100
AcDbVertex
62
2
6
CONTINUOUS
100
AcDb2dVertex
10
214.4155191661
20
95.5789102453
0
VERTEX
5
55E
100
AcDbEntity
8
0
100
AcDbVertex
62
2
6
CONTINUOUS
100
AcDb2dVertex
10
214.5007391965
20
95.4074066494
0
VERTEX
5
55F
100
AcDbEntity
8
0
100
AcDbVertex
62
2
6
CONTINUOUS
100
AcDb2dVertex
10
214.6380818283
20
95.2422358026
0
VERTEX
5
560
100
AcDbEntity
8
0
100
AcDbVertex
62
2
6
CONTINUOUS
100
AcDb2dVertex
10
214.8223157234
20
95.0896890110
0
VERTEX
5
561
100
AcDbEntity
8
0
100
AcDbVertex
62
2
6
CONTINUOUS
100
AcDb2dVertex
10
215.0507375885
20
94.9533818710
0
VERTEX
5
562
100
AcDbEntity
8
0
100
AcDbVertex
62
2
6
CONTINUOUS
100
AcDb2dVertex
10
215.3066571863
20
94.8432740178
0
VERTEX
5
563
100
AcDbEntity
8
0
100
AcDbVertex
62
2
6
CONTINUOUS
100
AcDb2dVertex
10
215.5840022198
20
94.7609865504
0
VERTEX
5
564
100
AcDbEntity
8
0
100
AcDbVertex
62
2
6
CONTINUOUS
100
AcDb2dVertex
10
215.8722087027
20
94.7096537727
0
VERTEX
5
565
100
AcDbEntity
8
0
100
AcDbVertex
62
2
6
CONTINUOUS
100
AcDb2dVertex
10
216.1653748866
20
94.6912072507
0
VERTEX
5
566
100
AcDbEntity
8
0
100
AcDbVertex
62
2
6
CONTINUOUS
100
AcDb2dVertex
10
216.4420798224
20
94.7069948274
0
VERTEX
5
567
100
AcDbEntity
8
0
100
AcDbVertex
62
2
6
CONTINUOUS
100
AcDb2dVertex
10
216.6969622983
20
94.7557936217
0
VERTEX
5
568
100
AcDbEntity
8
0
100
AcDbVertex
62
2
6
CONTINUOUS
100
AcDb2dVertex
10
216.9203139202
20
94.8357449029
0
VERTEX
5
569
100
AcDbEntity
8
0
100
AcDbVertex
62
2
6
CONTINUOUS
100
AcDb2dVertex
10
217.1064916484
20
94.9459647213
0
SEQEND
5
56A
100
AcDbEntity
8
0
0
LINE
5
56B
100
AcDbEntity
8
0
100
AcDbLine
62
7
6
CONTINUOUS
10
217.5226480689
20
66.8864693601
11
211.7484187873
21
69.8157397935
0
LINE
5
56C
100
AcDbEntity
8
0
100
AcDbLine
62
9
6
CONTINUOUS
10
211.1726693566
20
91.3152242300
11
211.9910885705
21
91.9355078875
0
LINE
5
56D
100
AcDbEntity
8
0
100
AcDbLine
62
7
6
CONTINUOUS
10
218.3410672827
20
67.5067530176
11
212.5668380012
21
70.4360234510
0
LINE
5
56E
100
AcDbEntity
8
0
100
AcDbLine
62
7
6
CONTINUOUS
10
210.1143395712
20
95.3866833750
11
208.6837177444
21
87.5628916550
0
LINE
5
56F
100
AcDbEntity
8
0
100
AcDbLine
62
7
6
CONTINUOUS
10
206.5176363185
20
75.7170148438
11
205.6784645011
21
71.1277478592
0
POLYLINE
5
570
100
AcDbEntity
8
0
100
AcDb2dPolyline
62
2
6
CONTINUOUS
66
1
70
0
0
VERTEX
5
571
100
AcDbEntity
8
0
100
AcDbVertex
62
2
6
CONTINUOUS
100
AcDb2dVertex
10
217.1064916484
20
94.9459647213
0
VERTEX
5
572
100
AcDbEntity
8
0
100
AcDbVertex
62
2
6
CONTINUOUS
100
AcDb2dVertex
10
217.2418919235
20
95.0783995795
0
VERTEX
5
573
100
AcDbEntity
8
0
100
AcDbVertex
62
2
6
CONTINUOUS
100
AcDb2dVertex
10
217.3250051444
20
95.2296989638
0
VERTEX
5
574
100
AcDbEntity
8
0
100
AcDbVertex
62
2
6
CONTINUOUS
100
AcDb2dVertex
10
217.3526655542
20
95.3940999276
0
VERTEX
5
575
100
AcDbEntity
8
0
100
AcDbVertex
62
2
6
CONTINUOUS
100
AcDb2dVertex
10
217.3227944386
20
95.5684208117
0
VERTEX
5
576
100
AcDbEntity
8
0
100
AcDbVertex
62
2
6
CONTINUOUS
100
AcDb2dVertex
10
217.2375744082
20
95.7399244076
0
VERTEX
5
577
100
AcDbEntity
8
0
100
AcDbVertex
62
2
6
CONTINUOUS
100
AcDb2dVertex
10
217.1002317764
20
95.9050952544
0
VERTEX
5
578
100
AcDbEntity
8
0
100
AcDbVertex
62
2
6
CONTINUOUS
100
AcDb2dVertex
10
216.9159978813
20
96.0576420460
0
VERTEX
5
579
100
AcDbEntity
8
0
100
AcDbVertex
62
2
6
CONTINUOUS
100
AcDb2dVertex
10
216.6875760162
20
96.1939491860
0
VERTEX
5
57A
100
AcDbEntity
8
0
100
AcDbVertex
62
2
6
CONTINUOUS
100
AcDb2dVertex
10
216.4316564184
20
96.3040570392
0
VERTEX
5
57B
100
AcDbEntity
8
0
100
AcDbVertex
62
2
6
CONTINUOUS
100
AcDb2dVertex
10
216.1543113849
20
96.3863445066
0
VERTEX
5
57C
100
AcDbEntity
8
0
100
AcDbVertex
62
2
6
CONTINUOUS
100
AcDb2dVertex
10
215.8661049020
20
96.4376772843
0
VERTEX
5
57D
100
AcDbEntity
8
0
100
AcDbVertex
62
2
6
CONTINUOUS
100
AcDb2dVertex
10
215.5729387181
20
96.4561238063
0
VERTEX
5
57E
100
AcDbEntity
8
0
100
AcDbVertex
62
2
6
CONTINUOUS
100
AcDb2dVertex
10
215.2962337823
20
96.4403362296
0
VERTEX
5
57F
100
AcDbEntity
8
0
100
AcDbVertex
62
2
6
CONTINUOUS
100
AcDb2dVertex
10
215.0413513064
20
96.3915374353
0
VERTEX
5
580
100
AcDbEntity
8
0
100
AcDbVertex
62
2
6
CONTINUOUS
100
AcDb2dVertex
10
214.8179996846
20
96.3115861541
0
VERTEX
5
581
100
AcDbEntity
8
0
100
AcDbVertex
62
2
6
CONTINUOUS
100
AcDb2dVertex
10
214.6318219563
20
96.2013663357
0
SEQEND
5
582
100
AcDbEntity
8
0
0
LINE
5
583
100
AcDbEntity
8
0
100
AcDbLine
62
9
6
CONTINUOUS
10
210.6413869260
20
88.4097442469
11
211.4598061399
21
89.0300279044
0
LINE
5
584
100
AcDbEntity
8
0
100
AcDbLine
62
7
6
CONTINUOUS
10
210.6413869260
20
88.4097442469
11
211.1726693566
21
91.3152242300
0
LINE
5
585
100
AcDbEntity
8
0
100
AcDbLine
62
9
6
CONTINUOUS
10
211.1026481632
20
86.7280719188
11
211.9210673771
21
87.3483555763
0
LINE
5
586
100
AcDbEntity
8
0
100
AcDbLine
62
7
6
CONTINUOUS
10
211.4598061399
20
89.0300279044
11
211.9910885705
21
91.9355078875
0
LINE
5
587
100
AcDbEntity
8
0
100
AcDbLine
62
7
6
CONTINUOUS
10
210.3943639972
20
72.2699365708
11
210.6691770406
21
73.7728355009
0
LINE
5
588
100
AcDbEntity
8
0
100
AcDbLine
62
7
6
CONTINUOUS
10
211.2127832111
20
72.8902202283
11
211.4875962545
21
74.3931191584
0
LINE
5
589
100
AcDbEntity
8
0
100
AcDbLine
62
9
6
CONTINUOUS
10
212.3547512617
20
85.0189049237
11
213.1731704756
21
85.6391885812
0
LINE
5
58A
100
AcDbEntity
8
0
100
AcDbLine
62
7
6
CONTINUOUS
10
208.6837177444
20
87.5628916550
11
211.1662327041
21
84.1741670051
0
LINE
5
58B
100
AcDbEntity
8
0
100
AcDbLine
62
7
6
CONTINUOUS
10
211.4281516019
20
79.4387167889
11
206.5176363185
21
75.7170148438
0
LINE
5
58C
100
AcDbEntity
8
0
100
AcDbLine
62
7
6
CONTINUOUS
10
209.7127702514
20
76.2254643571
11
206.5176363185
21
75.7170148438
0
LINE
5
58D
100
AcDbEntity
8
0
100
AcDbLine
62
7
6
CONTINUOUS
10
212.3547512617
20
85.0189049237
11
211.1026481632
21
86.7280719188
0
LINE
5
58E
100
AcDbEntity
8
0
100
AcDbLine
62
9
6
CONTINUOUS
10
209.7127702514
20
76.2254643571
11
212.2234964725
21
78.1283552192
0
LINE
5
58F
100
AcDbEntity
8
0
100
AcDbLine
62
7
6
CONTINUOUS
10
213.1731704756
20
85.6391885812
11
211.9210673771
21
87.3483555763
0
LINE
5
590
100
AcDbEntity
8
0
100
AcDbLine
62
7
6
CONTINUOUS
10
212.5777446600
20
79.6216543569
11
211.4281516019
21
79.4387167889
0
LINE
5
591
100
AcDbEntity
8
0
100
AcDbLine
62
7
6
CONTINUOUS
10
231.5226528019
20
90.7390412247
11
226.6121375186
21
87.0173392796
0
LINE
5
592
100
AcDbEntity
8
0
100
AcDbLine
62
7
6
CONTINUOUS
10
212.4328703779
20
75.2642252547
11
213.2512895918
21
75.8845089122
0
LINE
5
593
100
AcDbEntity
8
0
100
AcDbLine
62
9
6
CONTINUOUS
10
210.6691770406
20
73.7728355009
11
211.4875962545
21
74.3931191584
0
POLYLINE
5
594
100
AcDbEntity
8
0
100
AcDb2dPolyline
62
2
6
CONTINUOUS
66
1
70
0
0
VERTEX
5
595
100
AcDbEntity
8
0
100
AcDbVertex
62
2
6
CONTINUOUS
100
AcDb2dVertex
10
228.6977389044
20
86.8566122925
0
VERTEX
5
596
100
AcDbEntity
8
0
100
AcDbVertex
62
2
6
CONTINUOUS
100
AcDb2dVertex
10
228.4801533675
20
86.6651712569
0
VERTEX
5
597
100
AcDbEntity
8
0
100
AcDbVertex
62
2
6
CONTINUOUS
100
AcDb2dVertex
10
228.2595915227
20
86.4194211298
0
VERTEX
5
598
100
AcDbEntity
8
0
100
AcDbVertex
62
2
6
CONTINUOUS
100
AcDb2dVertex
10
228.0444545019
20
86.1287224571
0
VERTEX
5
599
100
AcDbEntity
8
0
100
AcDbVertex
62
2
6
CONTINUOUS
100
AcDb2dVertex
10
227.8395100212
20
85.7981180713
0
VERTEX
5
59A
100
AcDbEntity
8
0
100
AcDbVertex
62
2
6
CONTINUOUS
100
AcDb2dVertex
10
227.6597328817
20
85.4517644411
0
VERTEX
5
59B
100
AcDbEntity
8
0
100
AcDbVertex
62
2
6
CONTINUOUS
100
AcDb2dVertex
10
227.5082289956
20
85.0973200080
0
VERTEX
5
59C
100
AcDbEntity
8
0
100
AcDbVertex
62
2
6
CONTINUOUS
100
AcDb2dVertex
10
227.3907690988
20
84.7482854503
0
VERTEX
5
59D
100
AcDbEntity
8
0
100
AcDbVertex
62
2
6
CONTINUOUS
100
AcDb2dVertex
10
227.3107882812
20
84.4123050481
0
VERTEX
5
59E
100
AcDbEntity
8
0
100
AcDbVertex
62
2
6
CONTINUOUS
100
AcDb2dVertex
10
227.2741305491
20
84.1139280825
0
VERTEX
5
59F
100
AcDbEntity
8
0
100
AcDbVertex
62
2
6
CONTINUOUS
100
AcDb2dVertex
10
227.2804335435
20
83.8584180853
0
VERTEX
5
5A0
100
AcDbEntity
8
0
100
AcDbVertex
62
2
6
CONTINUOUS
100
AcDb2dVertex
10
227.3294571851
20
83.6555073528
0
VERTEX
5
5A1
100
AcDbEntity
8
0
100
AcDbVertex
62
2
6
CONTINUOUS
100
AcDb2dVertex
10
227.4212917089
20
83.5109636970
0
VERTEX
5
5A2
100
AcDbEntity
8
0
100
AcDbVertex
62
2
6
CONTINUOUS
100
AcDb2dVertex
10
227.5492269865
20
83.4353485757
0
VERTEX
5
5A3
100
AcDbEntity
8
0
100
AcDbVertex
62
2
6
CONTINUOUS
100
AcDb2dVertex
10
227.7096446527
20
83.4284473054
0
VERTEX
5
5A4
100
AcDbEntity
8
0
100
AcDbVertex
62
2
6
CONTINUOUS
100
AcDb2dVertex
10
227.8964344485
20
83.4905227532
0
VERTEX
5
5A5
100
AcDbEntity
8
0
100
AcDbVertex
62
2
6
CONTINUOUS
100
AcDb2dVertex
10
228.1062888950
20
83.6220875571
0
SEQEND
5
5A6
100
AcDbEntity
8
0
0
LINE
5
5A7
100
AcDbEntity
8
0
100
AcDbLine
62
9
6
CONTINUOUS
10
210.3943639972
20
72.2699365708
11
211.2127832111
21
72.8902202283
0
LINE
5
5A8
100
AcDbEntity
8
0
100
AcDbLine
62
7
6
CONTINUOUS
10
212.4333669145
20
75.2646276680
11
211.1101912747
21
74.5292185653
0
LINE
5
5A9
100
AcDbEntity
8
0
100
AcDbLine
62
7
6
CONTINUOUS
10
222.7211279197
20
85.4566833632
11
219.4681528683
21
67.6667973183
0
POLYLINE
5
5AA
100
AcDbEntity
8
0
100
AcDb2dPolyline
62
2
6
CONTINUOUS
66
1
70
0
0
VERTEX
5
5AB
100
AcDbEntity
8
0
100
AcDbVertex
62
2
6
CONTINUOUS
100
AcDb2dVertex
10
228.1062888950
20
83.6220875571
0
VERTEX
5
5AC
100
AcDbEntity
8
0
100
AcDbVertex
62
2
6
CONTINUOUS
100
AcDb2dVertex
10
228.3238744318
20
83.8135285927
0
VERTEX
5
5AD
100
AcDbEntity
8
0
100
AcDbVertex
62
2
6
CONTINUOUS
100
AcDb2dVertex
10
228.5444362767
20
84.0592787198
0
VERTEX
5
5AE
100
AcDbEntity
8
0
100
AcDbVertex
62
2
6
CONTINUOUS
100
AcDb2dVertex
10
228.7595732975
20
84.3499773925
0
VERTEX
5
5AF
100
AcDbEntity
8
0
100
AcDbVertex
62
2
6
CONTINUOUS
100
AcDb2dVertex
10
228.9645177782
20
84.6805817783
0
VERTEX
5
5B0
100
AcDbEntity
8
0
100
AcDbVertex
62
2
6
CONTINUOUS
100
AcDb2dVertex
10
229.1442949176
20
85.0269354084
0
VERTEX
5
5B1
100
AcDbEntity
8
0
100
AcDbVertex
62
2
6
CONTINUOUS
100
AcDb2dVertex
10
229.2957988038
20
85.3813798415
0
VERTEX
5
5B2
100
AcDbEntity
8
0
100
AcDbVertex
62
2
6
CONTINUOUS
100
AcDb2dVertex
10
229.4132587006
20
85.7304143992
0
VERTEX
5
5B3
100
AcDbEntity
8
0
100
AcDbVertex
62
2
6
CONTINUOUS
100
AcDb2dVertex
10
229.4932395182
20
86.0663948015
0
VERTEX
5
5B4
100
AcDbEntity
8
0
100
AcDbVertex
62
2
6
CONTINUOUS
100
AcDb2dVertex
10
229.5298972502
20
86.3647717670
0
VERTEX
5
5B5
100
AcDbEntity
8
0
100
AcDbVertex
62
2
6
CONTINUOUS
100
AcDb2dVertex
10
229.5235942559
20
86.6202817643
0
VERTEX
5
5B6
100
AcDbEntity
8
0
100
AcDbVertex
62
2
6
CONTINUOUS
100
AcDb2dVertex
10
229.4745706142
20
86.8231924968
0
VERTEX
5
5B7
100
AcDbEntity
8
0
100
AcDbVertex
62
2
6
CONTINUOUS
100
AcDb2dVertex
10
229.3827360905
20
86.9677361526
0
VERTEX
5
5B8
100
AcDbEntity
8
0
100
AcDbVertex
62
2
6
CONTINUOUS
100
AcDb2dVertex
10
229.2548008129
20
87.0433512738
0
VERTEX
5
5B9
100
AcDbEntity
8
0
100
AcDbVertex
62
2
6
CONTINUOUS
100
AcDb2dVertex
10
229.0943831466
20
87.0502525442
0
VERTEX
5
5BA
100
AcDbEntity
8
0
100
AcDbVertex
62
2
6
CONTINUOUS
100
AcDb2dVertex
10
228.9075933509
20
86.9881770964
0
VERTEX
5
5BB
100
AcDbEntity
8
0
100
AcDbVertex
62
2
6
CONTINUOUS
100
AcDb2dVertex
10
228.6977389044
20
86.8566122925
0
SEQEND
5
5BC
100
AcDbEntity
8
0
0
LINE
5
5BD
100
AcDbEntity
8
0
100
AcDbLine
62
7
6
CONTINUOUS
10
220.5264826536
20
63.5953381733
11
223.3358701981
21
78.9593306667
0
LINE
5
5BE
100
AcDbEntity
8
0
100
AcDbLine
62
9
6
CONTINUOUS
10
223.3358701981
20
78.9593306667
11
224.6026496964
21
79.9194286301
0
LINE
5
5BF
100
AcDbEntity
8
0
100
AcDbLine
62
9
6
CONTINUOUS
10
211.7484187873
20
69.8157397935
11
212.5668380012
21
70.4360234510
0
LINE
5
5C0
100
AcDbEntity
8
0
100
AcDbLine
62
7
6
CONTINUOUS
10
225.2813749975
20
79.7396586248
11
230.1918902808
21
83.4613605700
0
LINE
5
5C1
100
AcDbEntity
8
0
100
AcDbLine
62
7
6
CONTINUOUS
10
226.6121375186
20
87.0173392796
11
225.2813749975
21
79.7396586248
0
LINE
5
5C2
100
AcDbEntity
8
0
100
AcDbLine
62
7
6
CONTINUOUS
10
213.1181741560
20
92.0955521882
11
221.3670731297
21
87.9108801405
0
LINE
5
5C3
100
AcDbEntity
8
0
100
AcDbLine
62
7
6
CONTINUOUS
10
226.6121375186
20
87.0173392796
11
210.1143395712
21
95.3866833750
0
LINE
5
5C4
100
AcDbEntity
8
0
100
AcDbLine
62
7
6
CONTINUOUS
10
225.4369979370
20
67.3170401185
11
228.0990295722
21
81.8751718870
0
LINE
5
5C5
100
AcDbEntity
8
0
100
AcDbLine
62
7
6
CONTINUOUS
10
230.1918902808
20
83.4613605700
11
231.5226528019
21
90.7390412247
0
LINE
5
5C6
100
AcDbEntity
8
0
100
AcDbLine
62
9
6
CONTINUOUS
10
217.5226480689
20
66.8864693601
11
218.3410672827
21
67.5067530176
0
LINE
5
5C7
100
AcDbEntity
8
0
100
AcDbLine
62
7
6
CONTINUOUS
10
215.0248548545
20
99.1083853202
11
231.5226528019
21
90.7390412247
0
LINE
5
5C8
100
AcDbEntity
8
0
100
AcDbLine
62
7
6
CONTINUOUS
10
225.4369979370
20
67.3170401185
11
220.5264826536
21
63.5953381733
0
ARC
5
5C9
100
AcDbEntity
8
0
100
AcDbCircle
62
7
6
CONTINUOUS
10
350.0407849877
20
179.7916585600
40
2.0000000000
100
AcDbArc
50
90.0000000000
51
180.0000000000
0
ARC
5
5CA
100
AcDbEntity
8
0
100
AcDbCircle
62
7
6
CONTINUOUS
10
330.0407849877
20
173.7916585600
40
6.0000000000
100
AcDbArc
50
305.0000000000
51
55.0000000000
0
ARC
5
5CB
100
AcDbEntity
8
0
100
AcDbCircle
62
2
6
CONTINUOUS
10
342.0407849877
20
259.1345465274
40
1.5000000000
100
AcDbArc
50
255.0000000000
51
195.0000000000
0
CIRCLE
5
5CC
100
AcDbEntity
8
0
100
AcDbCircle
62
7
6
CONTINUOUS
10
342.0407849877
20
259.1345465274
40
1.2500000000
0
CIRCLE
5
5CD
100
AcDbEntity
8
0
100
AcDbCircle
62
7
6
CONTINUOUS
10
334.0407849877
20
259.1345465274
40
1.5000000000
0
ARC
5
5CE
100
AcDbEntity
8
0
100
AcDbCircle
62
2
6
CONTINUOUS
10
334.0407849877
20
112.7580450722
40
1.5000000000
100
AcDbArc
50
255.0000000000
51
195.0000000000
0
CIRCLE
5
5CF
100
AcDbEntity
8
0
100
AcDbCircle
62
7
6
CONTINUOUS
10
342.0407849877
20
112.7580450722
40
1.5000000000
0
CIRCLE
5
5D0
100
AcDbEntity
8
0
100
AcDbCircle
62
7
6
CONTINUOUS
10
334.0407849877
20
112.7580450722
40
1.2500000000
0
CIRCLE
5
5D1
100
AcDbEntity
8
0
100
AcDbCircle
62
7
6
CONTINUOUS
10
342.0407849877
20
112.7580450722
40
1.2500000000
0
ARC
5
5D2
100
AcDbEntity
8
0
100
AcDbCircle
62
2
6
CONTINUOUS
10
260.0117274356
20
186.2916585600
40
2.0000000000
100
AcDbArc
50
255.0000000000
51
195.0000000000
0
CIRCLE
5
5D3
100
AcDbEntity
8
0
100
AcDbCircle
62
7
6
CONTINUOUS
10
260.0117274356
20
186.2916585600
40
1.6500000000
0
ARC
5
5D4
100
AcDbEntity
8
0
100
AcDbCircle
62
7
6
CONTINUOUS
10
140.0986049797
20
186.7916585600
40
2.0000000000
100
AcDbArc
50
0.0000000000
51
90.0000000000
0
ARC
5
5D5
100
AcDbEntity
8
0
100
AcDbCircle
62
7
6
CONTINUOUS
10
130.0986049797
20
186.7916585600
40
2.0000000000
100
AcDbArc
50
90.0000000000
51
180.0000000000
0
ARC
5
5D6
100
AcDbEntity
8
0
100
AcDbCircle
62
7
6
CONTINUOUS
10
130.0986049797
20
164.7916585600
40
2.0000000000
100
AcDbArc
50
180.0000000000
51
270.0000000000
0
ARC
5
5D7
100
AcDbEntity
8
0
100
AcDbCircle
62
7
6
CONTINUOUS
10
137.0986049797
20
164.7916585600
40
2.0000000000
100
AcDbArc
50
270.0000000000
51
360.0000000000
0
ARC
5
5D8
100
AcDbEntity
8
0
100
AcDbCircle
62
7
6
CONTINUOUS
10
137.0986049797
20
166.6502301315
40
2.0000000000
100
AcDbArc
50
0.0000000000
51
45.5729959992
0
ARC
5
5D9
100
AcDbEntity
8
0
100
AcDbCircle
62
7
6
CONTINUOUS
10
144.0986049797
20
173.7916585600
40
8.0000000000
100
AcDbArc
50
125.0000000000
51
225.5729959992
0
ARC
5
5DA
100
AcDbEntity
8
0
100
AcDbCircle
62
7
6
CONTINUOUS
10
124.0986049797
20
179.7916585600
40
2.0000000000
100
AcDbArc
50
0.0000000000
51
90.0000000000
0
ARC
5
5DB
100
AcDbEntity
8
0
100
AcDbCircle
62
7
6
CONTINUOUS
10
140.0986049797
20
183.1985742948
40
2.0000000000
100
AcDbArc
50
305.0000000000
51
360.0000000000
0
ARC
5
5DC
100
AcDbEntity
8
0
100
AcDbCircle
62
7
6
CONTINUOUS
10
144.0986049797
20
173.7916585600
40
6.0000000000
100
AcDbArc
50
125.0000000000
51
235.0000000000
0
SPLINE
5
5DD
100
AcDbEntity
8
0
100
AcDbSpline
62
7
6
CONTINUOUS
70
0
71
3
72
15
73
11
74
9
42
0.0000001000
43
0.0000001000
44
0.0000000001
12
0.0000000000
22
-0.0764850975
32
-5.4359378586
13
0.0000000000
23
-0.0764850975
33
5.4359378586
40
0.0000000000
40
0.0000000000
40
0.0000000000
40
0.0000000000
40
0.1250000000
40
0.2500000000
40
0.3750000000
40
0.5000000000
40
0.6250000000
40
0.7500000000
40
0.8750000000
40
1.0000000000
40
1.0000000000
40
1.0000000000
40
1.0000000000
10
340.0407849877
20
187.9416585600
30
0.0000000000
10
340.0407849877
20
187.9384716810
30
-0.2264974108
10
340.0407849877
20
187.8572245972
30
-0.6429718009
10
340.0407849877
20
187.4883651204
30
-1.1984185610
10
340.0407849877
20
186.9396234150
30
-1.5637110888
10
340.0407849877
20
186.2916585600
30
-1.6931444556
10
340.0407849877
20
185.6436937050
30
-1.5637110888
10
340.0407849877
20
185.0949519996
30
-1.1984185610
10
340.0407849877
20
184.7260925229
30
-0.6429718009
10
340.0407849877
20
184.6448454391
30
-0.2264974108
10
340.0407849877
20
184.6416585600
30
0.0000000000
11
340.0407849877
21
187.9416585600
31
0.0000000000
11
340.0407849877
21
187.8160597887
31
-0.6314276634
11
340.0407849877
21
187.4583847490
31
-1.1667261890
11
340.0407849877
21
186.9230862234
31
-1.5244012286
11
340.0407849877
21
186.2916585600
31
-1.6500000000
11
340.0407849877
21
185.6602308966
31
-1.5244012286
11
340.0407849877
21
185.1249323711
31
-1.1667261890
11
340.0407849877
21
184.7672573314
31
-0.6314276634
11
340.0407849877
21
184.6416585600
31
-0.0000000000
0
SPLINE
5
5DE
100
AcDbEntity
8
0
100
AcDbSpline
62
7
6
CONTINUOUS
70
0
71
3
72
14
73
10
74
8
42
0.0000001000
43
0.0000001000
44
0.0000000001
12
0.0858126948
22
0.0000000000
32
-4.1724526988
13
0.0858126948
23
0.0000000000
33
4.1724526988
40
0.0000000000
40
0.0000000000
40
0.0000000000
40
0.0000000000
40
0.1428571429
40
0.2857142857
40
0.4285714286
40
0.5714285714
40
0.7142857143
40
0.8571428571
40
1.0000000000
40
1.0000000000
40
1.0000000000
40
1.0000000000
10
332.7907849877
20
182.7916585600
30
0.0000000000
10
332.7948713065
20
182.7916585600
30
-0.1986882238
10
332.8742288658
20
182.7916585600
30
-0.5554324747
10
333.2353354266
20
182.7916585600
30
-1.0120820462
10
333.7529658398
20
182.7916585600
30
-1.2599754590
10
334.3286041355
20
182.7916585600
30
-1.2599754590
10
334.8462345487
20
182.7916585600
30
-1.0120820462
10
335.2073411095
20
182.7916585600
30
-0.5554324747
10
335.2866986689
20
182.7916585600
30
-0.1986882238
10
335.2907849877
20
182.7916585600
30
0.0000000000
11
332.7907849877
21
182.7916585600
31
0.0000000000
11
332.9145739028
21
182.7916585600
31
-0.5423546739
11
333.2614227353
21
182.7916585600
31
-0.9772893531
11
333.7626338202
21
182.7916585600
31
-1.2186598902
11
334.3189361551
21
182.7916585600
31
-1.2186598902
11
334.8201472400
21
182.7916585600
31
-0.9772893531
11
335.1669960725
21
182.7916585600
31
-0.5423546739
11
335.2907849877
21
182.7916585600
31
0.0000000000
0
SPLINE
5
5DF
100
AcDbEntity
8
0
100
AcDbSpline
62
7
6
CONTINUOUS
70
0
71
3
72
21
73
17
74
15
42
0.0000001000
43
0.0000001000
44
0.0000000001
12
-2.6799690405
22
-2.4363199352
32
0.0000000000
13
-2.6804824805
23
2.4364635772
33
0.0000000000
40
0.0000000000
40
0.0000000000
40
0.0000000000
40
0.0000000000
40
0.0091943499
40
0.0356161382
40
0.0761357525
40
0.1268733105
40
0.1864153691
40
0.2566192898
40
0.3396688271
40
0.4333459500
40
0.5375173764
40
0.6501515420
40
0.7701374659
40
0.8859769318
40
0.9718922432
40
1.0000000000
40
1.0000000000
40
1.0000000000
40
1.0000000000
10
343.5407849877
20
187.9416585600
30
0.0000000000
10
343.5325714633
20
187.9341917674
30
0.0000000000
10
343.5007343221
20
187.9052900573
30
0.0000000000
10
343.4324994176
20
187.8437030459
30
0.0000000000
10
343.3264477824
20
187.7491630289
30
0.0000000000
10
343.1893000250
20
187.6294166304
30
0.0000000000
10
343.0227654924
20
187.4889101016
30
0.0000000000
10
342.8217840489
20
187.3286376590
30
0.0000000000
10
342.5781672261
20
187.1570468327
30
0.0000000000
10
342.2780257002
20
186.9924217610
30
0.0000000000
10
341.8860275065
20
186.9582709839
30
0.0000000000
10
341.5120145867
20
187.1450107064
30
0.0000000000
10
341.1735118797
20
187.3921968655
30
0.0000000000
10
340.8755049371
20
187.6423536320
30
0.0000000000
10
340.6679524016
20
187.8264510453
30
0.0000000000
10
340.5658991043
20
187.9188307181
30
0.0000000000
10
340.5407849877
20
187.9416585600
30
0.0000000000
11
343.5407849877
21
187.9416585600
31
0.0000000000
11
343.5161283378
21
187.9192758371
31
0.0000000000
11
343.4450824611
21
187.8551646822
31
0.0000000000
11
343.3355072049
21
187.7575390531
31
0.0000000000
11
343.1969983956
21
187.6367717317
31
0.0000000000
11
343.0320085192
21
187.4979023536
31
0.0000000000
11
342.8325626162
21
187.3401869635
31
0.0000000000
11
342.5854547880
21
187.1686791934
31
0.0000000000
11
342.2806325677
21
187.0196879974
31
0.0000000000
11
341.9043214230
21
186.9924597476
31
0.0000000000
11
341.5277645114
21
187.1493822971
31
0.0000000000
11
341.1722428250
21
187.3992981622
31
0.0000000000
11
340.8493373005
21
187.6671757686
31
0.0000000000
11
340.6162681638
21
187.8733501170
31
0.0000000000
11
340.5407849877
21
187.9416585600
31
0.0000000000
0
SPLINE
5
5E0
100
AcDbEntity
8
0
100
AcDbSpline
62
7
6
CONTINUOUS
70
0
71
3
72
23
73
19
74
17
42
0.0000001000
43
0.0000001000
44
0.0000000001
12
2.6802151028
22
2.4365501319
32
0.0000000000
13
2.6802144858
23
-2.4365548156
33
0.0000000000
40
0.0000000000
40
0.0000000000
40
0.0000000000
40
0.0000000000
40
0.0110399389
40
0.0426439095
40
0.0901761247
40
0.1486548254
40
0.2166001519
40
0.2969792523
40
0.3903321618
40
0.4933729957
40
0.5995956926
40
0.6989003730
40
0.7823271318
40
0.8499206487
40
0.9079017875
40
0.9562949562
40
0.9887236278
40
1.0000000000
40
1.0000000000
40
1.0000000000
40
1.0000000000
10
340.5407849877
20
184.6416585600
30
0.0000000000
10
340.5506481247
20
184.6506250149
30
0.0000000000
10
340.5887758827
20
184.6852274385
30
0.0000000000
10
340.6696563783
20
184.7581185670
30
0.0000000000
10
340.7939161920
20
184.8684256525
30
0.0000000000
10
340.9528170245
20
185.0058081286
30
0.0000000000
10
341.1451368817
20
185.1650193546
30
0.0000000000
10
341.3777956109
20
185.3418288394
30
0.0000000000
10
341.6587165111
20
185.5216549510
30
0.0000000000
10
342.0187405475
20
185.6422512195
30
0.0000000000
10
342.3942062693
20
185.5393086751
30
0.0000000000
10
342.6888747257
20
185.3525418934
30
0.0000000000
10
342.9302316376
20
185.1700970082
30
0.0000000000
10
343.1246724487
20
185.0092388869
30
0.0000000000
10
343.2836542810
20
184.8719386523
30
0.0000000000
10
343.4090208258
20
184.7607152705
30
0.0000000000
10
343.4916334605
20
184.6862797898
30
0.0000000000
10
343.5307106223
20
184.6508170597
30
0.0000000000
10
343.5407849877
20
184.6416585600
30
0.0000000000
11
340.5407849877
21
184.6416585600
31
0.0000000000
11
340.5703977218
21
184.6685323445
31
0.0000000000
11
340.6554462525
21
184.7451581846
31
0.0000000000
11
340.7842557953
21
184.8593996410
31
0.0000000000
11
340.9446163833
21
184.9977939577
31
0.0000000000
11
341.1345922174
21
185.1542556688
31
0.0000000000
11
341.3672510374
21
185.3292927345
31
0.0000000000
11
341.6566362717
21
185.5042131740
31
0.0000000000
11
342.0163298223
21
185.6038373223
31
0.0000000000
11
342.3918076829
21
185.5198315505
31
0.0000000000
11
342.7020660165
21
185.3378280724
31
0.0000000000
11
342.9439379840
21
185.1566760338
31
0.0000000000
11
343.1330157394
21
185.0011284305
31
0.0000000000
11
343.2920794303
21
184.8639899072
31
0.0000000000
11
343.4232605060
21
184.7477224996
31
0.0000000000
11
343.5105375424
21
184.6691073059
31
0.0000000000
11
343.5407849877
21
184.6416585600
31
0.0000000000
0
SPLINE
5
5E1
100
AcDbEntity
8
0
100
AcDbSpline
62
7
6
CONTINUOUS
70
0
71
3
72
9
73
5
74
3
42
0.0000001000
43
0.0000001000
44
0.0000000001
12
0.3840205170
22
0.3448468457
32
0.0000000000
13
0.0527106488
23
0.5212687332
33
0.0000000000
40
0.0000000000
40
0.0000000000
40
0.0000000000
40
0.0000000000
40
0.7153978948
40
1.0000000000
40
1.0000000000
40
1.0000000000
40
1.0000000000
10
137.6331235204
20
85.4318755022
30
0.0000000000
10
137.7246993435
20
85.5141097380
30
0.0000000000
10
137.8367322606
20
85.6564123473
30
0.0000000000
10
137.8751010764
20
85.8279043458
30
0.0000000000
10
137.8801015970
20
85.8773557388
30
0.0000000000
11
137.6331235204
21
85.4318755022
31
0.0000000000
11
137.8472947136
21
85.7326546708
31
0.0000000000
11
137.8801015970
21
85.8773557388
31
0.0000000000
0
SPLINE
5
5E2
100
AcDbEntity
8
0
100
AcDbSpline
62
7
6
CONTINUOUS
70
0
71
3
72
12
73
8
74
6
42
0.0000001000
43
0.0000001000
44
0.0000000001
12
2.6443318086
22
-0.9912126800
32
0.0000000000
13
2.1011629389
23
1.8868247389
33
0.0000000000
40
0.0000000000
40
0.0000000000
40
0.0000000000
40
0.0000000000
40
0.2148110998
40
0.4363602292
40
0.6493237326
40
0.8400514653
40
1.0000000000
40
1.0000000000
40
1.0000000000
40
1.0000000000
10
121.6550399824
20
76.6235354417
30
0.0000000000
10
121.8443839238
20
76.5525609464
30
0.0000000000
10
122.2439242126
20
76.4464695096
30
0.0000000000
10
122.8549322754
20
76.3889875529
30
0.0000000000
10
123.4452440417
20
76.4326109036
30
0.0000000000
10
123.9603999066
20
76.5724904752
30
0.0000000000
10
124.2527668177
20
76.7403379080
30
0.0000000000
10
124.3647927954
20
76.8409361921
30
0.0000000000
11
121.6550399824
21
76.6235354417
31
0.0000000000
11
122.2404376562
21
76.4644564438
31
0.0000000000
11
122.8633664669
21
76.4061092008
31
0.0000000000
11
123.4628498024
21
76.4542051476
31
0.0000000000
11
123.9802060568
21
76.6040363176
31
0.0000000000
11
124.3647927954
21
76.8409361921
31
0.0000000000
0
SPLINE
5
5E3
100
AcDbEntity
8
0
100
AcDbSpline
62
7
6
CONTINUOUS
70
0
71
3
72
9
73
5
74
3
42
0.0000001000
43
0.0000001000
44
0.0000000001
12
0.3854268885
22
0.3461097542
32
0.0000000000
13
0.0561077091
23
0.5197193516
33
0.0000000000
40
0.0000000000
40
0.0000000000
40
0.0000000000
40
0.0000000000
40
0.6109035536
40
1.0000000000
40
1.0000000000
40
1.0000000000
40
1.0000000000
10
125.2650947939
20
77.6493989969
30
0.0000000000
10
125.3435810125
20
77.7198788899
30
0.0000000000
10
125.4571892261
20
77.8573692444
30
0.0000000000
10
125.5057891089
20
78.0278292483
30
0.0000000000
10
125.5130662123
20
78.0952362325
30
0.0000000000
11
125.2650947939
21
77.6493989969
31
0.0000000000
11
125.4581270213
21
77.9001699592
31
0.0000000000
11
125.5130662123
21
78.0952362325
31
0.0000000000
0
SPLINE
5
5E4
100
AcDbEntity
8
0
100
AcDbSpline
62
7
6
CONTINUOUS
70
0
71
3
72
14
73
10
74
8
42
0.0000001000
43
0.0000001000
44
0.0000000001
12
-8.5885088675
22
0.1541174367
32
0.0000000000
13
-0.8893712122
23
-8.6055295617
33
0.0000000000
40
0.0000000000
40
0.0000000000
40
0.0000000000
40
0.0000000000
40
0.1986127969
40
0.3859013056
40
0.5564171988
40
0.7069110215
40
0.8373198370
40
0.9522801544
40
1.0000000000
40
1.0000000000
40
1.0000000000
40
1.0000000000
10
132.2569556821
20
83.4722204331
30
0.0000000000
10
131.6883597598
20
83.4824236648
30
0.0000000000
10
130.5810520098
20
83.4377891536
30
0.0000000000
10
129.0057149098
20
83.1698434495
30
0.0000000000
10
127.6166710223
20
82.7138866031
30
0.0000000000
10
126.4753387428
20
82.0874941594
30
0.0000000000
10
125.6311598152
20
81.3089164901
30
0.0000000000
10
125.2236371452
20
80.5518982114
30
0.0000000000
10
125.1348612839
20
80.0897664467
30
0.0000000000
10
125.1207143982
20
79.9528815994
30
0.0000000000
11
132.2569556821
21
83.4722204331
31
0.0000000000
11
130.5524619185
21
83.3990776332
31
0.0000000000
11
128.9678825587
21
83.1210362500
31
0.0000000000
11
127.5804706141
21
82.6514914135
31
0.0000000000
11
126.4564712712
21
82.0129266216
31
0.0000000000
11
125.6496479962
21
81.2358302161
31
0.0000000000
11
125.1987679755
21
80.3572763713
31
0.0000000000
11
125.1207143982
21
79.9528815994
31
0.0000000000
0
SPLINE
5
5E5
100
AcDbEntity
8
0
100
AcDbSpline
62
7
6
CONTINUOUS
70
0
71
3
72
9
73
5
74
3
42
0.0000001000
43
0.0000001000
44
0.0000000001
12
-0.0608754231
22
-0.5848148533
32
0.0000000000
13
-0.4423987555
23
-0.3975961799
33
0.0000000000
40
0.0000000000
40
0.0000000000
40
0.0000000000
40
0.0000000000
40
0.6646634131
40
1.0000000000
40
1.0000000000
40
1.0000000000
40
1.0000000000
10
117.0288474132
20
73.2005835828
30
0.0000000000
10
117.0153601910
20
73.0710152374
30
0.0000000000
10
116.9548181208
20
72.8755010060
30
0.0000000000
10
116.8249041278
20
72.7231430305
30
0.0000000000
10
116.7754532982
20
72.6787001819
30
0.0000000000
11
117.0288474132
21
73.2005835828
31
0.0000000000
11
116.9042330416
21
72.8301783855
31
0.0000000000
11
116.7754532982
21
72.6787001819
31
0.0000000000
0
SPLINE
5
5E6
100
AcDbEntity
8
0
100
AcDbSpline
62
7
6
CONTINUOUS
70
0
71
3
72
15
73
11
74
9
42
0.0000001000
43
0.0000001000
44
0.0000000001
12
0.3556853780
22
3.4169798157
32
0.0000000000
13
-2.5729805120
23
-2.3171746248
33
0.0000000000
40
0.0000000000
40
0.0000000000
40
0.0000000000
40
0.0000000000
40
0.1342822970
40
0.2798313578
40
0.4311714934
40
0.5807882536
40
0.7217536091
40
0.8503549635
40
0.9684477971
40
1.0000000000
40
1.0000000000
40
1.0000000000
40
1.0000000000
10
124.2102336924
20
70.5086819400
30
0.0000000000
10
124.2261544422
20
70.6616285729
30
0.0000000000
10
124.1971036246
20
70.9880950973
30
0.0000000000
10
124.0053638571
20
71.4496451742
30
0.0000000000
10
123.6882070040
20
71.8582624703
30
0.0000000000
10
123.2807002009
20
72.1683802559
30
0.0000000000
10
122.8266105669
20
72.3450399506
30
0.0000000000
10
122.3731405944
20
72.3642503135
30
0.0000000000
10
122.0655397149
20
72.2463235337
30
0.0000000000
10
121.9300682755
20
72.1388687587
30
0.0000000000
10
121.9030072078
20
72.1144981041
30
0.0000000000
11
124.2102336924
21
70.5086819400
31
0.0000000000
11
124.1763077440
21
70.9687518424
31
0.0000000000
11
123.9889862800
21
71.4323638094
31
0.0000000000
11
123.6708630335
21
71.8435993957
31
0.0000000000
11
123.2603083631
21
72.1528575203
31
0.0000000000
11
122.8068412211
21
72.3228370893
31
0.0000000000
11
122.3651564373
21
72.3330360580
31
0.0000000000
11
121.9885277153
21
72.1822242803
31
0.0000000000
11
121.9030072078
21
72.1144981041
31
0.0000000000
0
SPLINE
5
5E7
100
AcDbEntity
8
0
100
AcDbSpline
62
7
6
CONTINUOUS
70
0
71
3
72
9
73
5
74
3
42
0.0000001000
43
0.0000001000
44
0.0000000001
12
-0.0529299463
22
-0.5213267649
32
0.0000000000
13
-0.3839008119
23
-0.3447393516
33
0.0000000000
40
0.0000000000
40
0.0000000000
40
0.0000000000
40
0.0000000000
40
0.2919695442
40
1.0000000000
40
1.0000000000
40
1.0000000000
40
1.0000000000
10
120.5616166338
20
88.0529052631
30
0.0000000000
10
120.5564653230
20
88.0021680837
30
0.0000000000
10
120.5175465734
20
87.8307092797
30
0.0000000000
10
120.4053535864
20
87.6889548366
30
0.0000000000
10
120.3147490974
20
87.6075928499
30
0.0000000000
11
120.5616166338
21
88.0529052631
31
0.0000000000
11
120.5274927925
21
87.9045787703
31
0.0000000000
11
120.3147490974
21
87.6075928499
31
0.0000000000
0
SPLINE
5
5E8
100
AcDbEntity
8
0
100
AcDbSpline
62
7
6
CONTINUOUS
70
0
71
3
72
10
73
6
74
4
42
0.0000001000
43
0.0000001000
44
0.0000000001
12
-1.1449071713
22
1.3595176996
32
0.0000000000
13
0.1897567673
23
1.7771572635
33
0.0000000000
40
0.0000000000
40
0.0000000000
40
0.0000000000
40
0.0000000000
40
0.5044927690
40
0.9497032670
40
1.0000000000
40
1.0000000000
40
1.0000000000
40
1.0000000000
10
127.7002962932
20
78.1093763707
30
0.0000000000
10
127.5077638302
20
78.3379986536
30
0.0000000000
10
127.1955032619
20
78.8200896131
30
0.0000000000
10
127.0824657314
20
79.4209627964
30
0.0000000000
10
127.1059880894
20
79.7151996733
30
0.0000000000
10
127.1091694713
20
79.7449947414
30
0.0000000000
11
127.7002962932
21
78.1093763707
31
0.0000000000
11
127.2338334741
21
78.8751730255
31
0.0000000000
11
127.1020322510
21
79.6554302592
31
0.0000000000
11
127.1091694713
21
79.7449947414
31
0.0000000000
0
SPLINE
5
5E9
100
AcDbEntity
8
0
100
AcDbSpline
62
7
6
CONTINUOUS
70
0
71
3
72
9
73
5
74
3
42
0.0000001000
43
0.0000001000
44
0.0000000001
12
-2.3061140134
22
0.0413823151
32
0.0000000000
13
-2.2510340565
23
-0.5119794177
33
0.0000000000
40
0.0000000000
40
0.0000000000
40
0.0000000000
40
0.0000000000
40
0.6055409144
40
1.0000000000
40
1.0000000000
40
1.0000000000
40
1.0000000000
10
131.6756850233
20
74.8321452294
30
0.0000000000
10
131.2102028939
20
74.8404981244
30
0.0000000000
10
130.4394479071
20
74.8054050691
30
0.0000000000
10
129.6793731886
20
74.6779008352
30
0.0000000000
10
129.3833929101
20
74.6105825243
30
0.0000000000
11
131.6756850233
21
74.8321452294
31
0.0000000000
11
130.2806717735
21
74.7641122504
31
0.0000000000
11
129.3833929101
21
74.6105825243
31
0.0000000000
0
SPLINE
5
5EA
100
AcDbEntity
8
0
100
AcDbSpline
62
7
6
CONTINUOUS
70
0
71
3
72
11
73
7
74
5
42
0.0000001000
43
0.0000001000
44
0.0000000001
12
-0.1611172233
22
-1.5933283464
32
0.0000000000
13
1.4772508616
23
-0.5537390507
33
0.0000000000
40
0.0000000000
40
0.0000000000
40
0.0000000000
40
0.0000000000
40
0.1198625649
40
0.3592591406
40
0.6526413247
40
1.0000000000
40
1.0000000000
40
1.0000000000
40
1.0000000000
10
114.5426330133
20
79.9846581459
30
0.0000000000
10
114.5361957054
20
79.9209980051
30
0.0000000000
10
114.5463032727
20
79.7269912400
30
0.0000000000
10
114.7231070933
20
79.4170041727
30
0.0000000000
10
115.0841623632
20
79.1188906418
30
0.0000000000
10
115.3906972326
20
78.9716885536
30
0.0000000000
10
115.5617425334
20
78.9075731992
30
0.0000000000
11
114.5426330133
21
79.9846581459
31
0.0000000000
11
114.5526488174
21
79.7941431117
31
0.0000000000
11
114.7234688018
21
79.4573033638
31
0.0000000000
11
115.0711787995
21
79.1518121915
31
0.0000000000
11
115.5617425334
21
78.9075731992
31
0.0000000000
0
SPLINE
5
5EB
100
AcDbEntity
8
0
100
AcDbSpline
62
7
6
CONTINUOUS
70
0
71
3
72
9
73
5
74
3
42
0.0000001000
43
0.0000001000
44
0.0000000001
12
0.5299164117
22
0.4772320882
32
0.0000000000
13
0.0732549346
23
0.7037417013
33
0.0000000000
40
0.0000000000
40
0.0000000000
40
0.0000000000
40
0.0000000000
40
0.4069060794
40
1.0000000000
40
1.0000000000
40
1.0000000000
40
1.0000000000
10
123.9060469845
20
69.8817391006
30
0.0000000000
10
123.9779223877
20
69.9464686466
30
0.0000000000
10
124.1285091567
20
70.1352642439
30
0.0000000000
10
124.1957513403
20
70.3695536318
30
0.0000000000
10
124.2102336924
20
70.5086819400
30
0.0000000000
11
123.9060469845
21
69.8817391006
31
0.0000000000
11
124.0866721551
21
70.1076453225
31
0.0000000000
11
124.2102336924
21
70.5086819400
31
0.0000000000
0
SPLINE
5
5EC
100
AcDbEntity
8
0
100
AcDbSpline
62
7
6
CONTINUOUS
70
0
71
3
72
14
73
10
74
8
42
0.0000001000
43
0.0000001000
44
0.0000000001
12
2.1517835534
22
1.9338682808
32
0.0000000000
13
-0.2960920046
23
-2.8444812907
33
0.0000000000
40
0.0000000000
40
0.0000000000
40
0.0000000000
40
0.0000000000
40
0.0605113071
40
0.1963535273
40
0.3472329715
40
0.5120587707
40
0.6825953941
40
0.8480894982
40
1.0000000000
40
1.0000000000
40
1.0000000000
40
1.0000000000
10
115.1060638678
20
74.5381947543
30
0.0000000000
10
115.1494662797
20
74.5772017202
30
0.0000000000
10
115.3050158893
20
74.6871569775
30
0.0000000000
10
115.6404090214
20
74.7636360974
30
0.0000000000
10
116.0721182062
20
74.6764417302
30
0.0000000000
10
116.4774724166
20
74.4366039447
30
0.0000000000
10
116.8042915782
20
74.0791022435
30
0.0000000000
10
117.0087248851
20
73.6537373043
30
0.0000000000
10
117.0438405749
20
73.3446191096
30
0.0000000000
10
117.0288474132
20
73.2005835828
30
0.0000000000
11
115.1060638678
21
74.5381947543
31
0.0000000000
11
115.2485787485
21
74.6386373352
31
0.0000000000
11
115.6252514777
21
74.7337210512
31
0.0000000000
11
116.0499573036
21
74.6574920647
31
0.0000000000
11
116.4580386142
21
74.4215555481
31
0.0000000000
11
116.7873687292
21
74.0618306971
31
0.0000000000
11
116.9878101240
21
73.6330823594
31
0.0000000000
11
117.0288474132
21
73.2005835828
31
0.0000000000
0
SPLINE
5
5ED
100
AcDbEntity
8
0
100
AcDbSpline
62
7
6
CONTINUOUS
70
0
71
3
72
11
73
7
74
5
42
0.0000001000
43
0.0000001000
44
0.0000000001
12
-1.2112256819
22
-1.0876693752
32
0.0000000000
13
-1.6276483783
23
0.0292075143
33
0.0000000000
40
0.0000000000
40
0.0000000000
40
0.0000000000
40
0.0000000000
40
0.2059953055
40
0.4466388771
40
0.7153580885
40
1.0000000000
40
1.0000000000
40
1.0000000000
40
1.0000000000
10
135.8926143067
20
83.8689144477
30
0.0000000000
10
135.8094453719
20
83.7942295193
30
0.0000000000
10
135.6029945450
20
83.6611703317
30
0.0000000000
10
135.2371208920
20
83.5256229897
30
0.0000000000
10
134.8120594582
20
83.4453693146
30
0.0000000000
10
134.5110646225
20
83.4317713287
30
0.0000000000
10
134.3566323073
20
83.4345425562
30
0.0000000000
11
135.8926143067
21
83.8689144477
31
0.0000000000
11
135.6143335147
21
83.6817941841
31
0.0000000000
11
135.2487650235
21
83.5409938104
31
0.0000000000
11
134.8194611785
21
83.4569615914
31
0.0000000000
11
134.3566323073
21
83.4345425562
31
0.0000000000
0
SPLINE
5
5EE
100
AcDbEntity
8
0
100
AcDbSpline
62
7
6
CONTINUOUS
70
0
71
3
72
12
73
8
74
6
42
0.0000001000
43
0.0000001000
44
0.0000000001
12
-2.6443318086
22
0.9912126800
32
0.0000000000
13
-2.1011629389
23
-1.8868247389
33
0.0000000000
40
0.0000000000
40
0.0000000000
40
0.0000000000
40
0.0000000000
40
0.2148110998
40
0.4363602292
40
0.6493237326
40
0.8400514653
40
1.0000000000
40
1.0000000000
40
1.0000000000
40
1.0000000000
10
128.1562814355
20
90.2173517676
30
0.0000000000
10
127.9669374941
20
90.2883262629
30
0.0000000000
10
127.5673972052
20
90.3944176996
30
0.0000000000
10
126.9563891424
20
90.4518996564
30
0.0000000000
10
126.3660773762
20
90.4082763057
30
0.0000000000
10
125.8509215112
20
90.2683967341
30
0.0000000000
10
125.5585546002
20
90.1005493013
30
0.0000000000
10
125.4465286224
20
89.9999510172
30
0.0000000000
11
128.1562814355
21
90.2173517676
31
0.0000000000
11
127.5708837616
21
90.3764307655
31
0.0000000000
11
126.9479549509
21
90.4347780085
31
0.0000000000
11
126.3484716155
21
90.3866820617
31
0.0000000000
11
125.8311153610
21
90.2368508917
31
0.0000000000
11
125.4465286224
21
89.9999510172
31
0.0000000000
0
SPLINE
5
5EF
100
AcDbEntity
8
0
100
AcDbSpline
62
7
6
CONTINUOUS
70
0
71
3
72
8
73
4
74
2
42
0.0000001000
43
0.0000001000
44
0.0000000001
12
-0.0149263903
22
0.0400207465
32
0.0000000000
13
-0.0143421710
23
0.0402462685
33
0.0000000000
40
0.0000000000
40
0.0000000000
40
0.0000000000
40
0.0000000000
40
1.0000000000
40
1.0000000000
40
1.0000000000
40
1.0000000000
10
125.1430709818
20
77.5657134767
30
0.0000000000
10
125.1380955184
20
77.5790537255
30
0.0000000000
10
125.1332163442
20
77.5924323693
30
0.0000000000
10
125.1284356205
20
77.6058477922
30
0.0000000000
11
125.1430709818
21
77.5657134767
31
0.0000000000
11
125.1284356205
21
77.6058477922
31
0.0000000000
0
SPLINE
5
5F0
100
AcDbEntity
8
0
100
AcDbSpline
62
7
6
CONTINUOUS
70
0
71
3
72
9
73
5
74
3
42
0.0000001000
43
0.0000001000
44
0.0000000001
12
-0.3713144443
22
1.0419636513
32
0.0000000000
13
0.1173674662
23
1.1003413436
33
0.0000000000
40
0.0000000000
40
0.0000000000
40
0.0000000000
40
0.0000000000
40
0.6415795899
40
1.0000000000
40
1.0000000000
40
1.0000000000
40
1.0000000000
10
125.1284356205
20
77.6058477922
30
0.0000000000
10
125.0490263642
20
77.8286819962
30
0.0000000000
10
124.9675921170
20
78.1918195152
30
0.0000000000
10
124.9762095526
20
78.5616182495
30
0.0000000000
10
124.9902318510
20
78.6930798480
30
0.0000000000
11
125.1284356205
21
77.6058477922
31
0.0000000000
11
124.9816007296
21
78.2973871558
31
0.0000000000
11
124.9902318510
21
78.6930798480
31
0.0000000000
0
SPLINE
5
5F1
100
AcDbEntity
8
0
100
AcDbSpline
62
7
6
CONTINUOUS
70
0
71
3
72
15
73
11
74
9
42
0.0000001000
43
0.0000001000
44
0.0000000001
12
-0.3556853780
22
-3.4169798157
32
0.0000000000
13
2.5729805120
23
2.3171746248
33
0.0000000000
40
0.0000000000
40
0.0000000000
40
0.0000000000
40
0.0000000000
40
0.1342822970
40
0.2798313578
40
0.4311714934
40
0.5807882536
40
0.7217536091
40
0.8503549635
40
0.9684477971
40
1.0000000000
40
1.0000000000
40
1.0000000000
40
1.0000000000
10
121.5988205000
20
71.4875552647
30
0.0000000000
10
121.5828997501
20
71.3346086318
30
0.0000000000
10
121.6119505678
20
71.0081421074
30
0.0000000000
10
121.8036903353
20
70.5465920306
30
0.0000000000
10
122.1208471884
20
70.1379747344
30
0.0000000000
10
122.5283539914
20
69.8278569488
30
0.0000000000
10
122.9824436254
20
69.6511972541
30
0.0000000000
10
123.4359135980
20
69.6319868913
30
0.0000000000
10
123.7435144774
20
69.7499136710
30
0.0000000000
10
123.8789859168
20
69.8573684460
30
0.0000000000
10
123.9060469845
20
69.8817391006
30
0.0000000000
11
121.5988205000
21
71.4875552647
31
0.0000000000
11
121.6327464484
21
71.0274853623
31
0.0000000000
11
121.8200679124
21
70.5638733953
31
0.0000000000
11
122.1381911588
21
70.1526378091
31
0.0000000000
11
122.5487458293
21
69.8433796844
31
0.0000000000
11
123.0022129713
21
69.6734001154
31
0.0000000000
11
123.4438977550
21
69.6632011467
31
0.0000000000
11
123.8205264771
21
69.8140129245
31
0.0000000000
11
123.9060469845
21
69.8817391006
31
0.0000000000
0
SPLINE
5
5F2
100
AcDbEntity
8
0
100
AcDbSpline
62
7
6
CONTINUOUS
70
0
71
3
72
11
73
7
74
5
42
0.0000001000
43
0.0000001000
44
0.0000000001
12
-2.6414542752
22
0.9901340530
32
0.0000000000
13
-2.0988764760
23
-1.8847715165
33
0.0000000000
40
0.0000000000
40
0.0000000000
40
0.0000000000
40
0.0000000000
40
0.2702622892
40
0.5450507544
40
0.7952784571
40
1.0000000000
40
1.0000000000
40
1.0000000000
40
1.0000000000
10
128.0252429708
20
88.9584982516
30
0.0000000000
10
127.7872811445
20
89.0476968835
30
0.0000000000
10
127.2842551094
20
89.1685262377
30
0.0000000000
10
126.5315096077
20
89.1934038428
30
0.0000000000
10
125.8519140376
20
89.0688814632
30
0.0000000000
10
125.4587185680
20
88.8697152789
30
0.0000000000
10
125.3154901578
20
88.7410975013
30
0.0000000000
11
128.0252429708
21
88.9584982516
31
0.0000000000
11
127.2852669394
21
89.1420071440
31
0.0000000000
11
126.5104529064
21
89.1651314507
31
0.0000000000
11
125.8187592846
21
89.0243507057
31
0.0000000000
11
125.3154901578
21
88.7410975013
31
0.0000000000
0
SPLINE
5
5F3
100
AcDbEntity
8
0
100
AcDbSpline
62
7
6
CONTINUOUS
70
0
71
3
72
9
73
5
74
3
42
0.0000001000
43
0.0000001000
44
0.0000000001
12
-0.1586774865
22
-1.5353586688
32
0.0000000000
13
0.7131076812
23
-1.3565559215
33
0.0000000000
40
0.0000000000
40
0.0000000000
40
0.0000000000
40
0.0000000000
40
0.3462901484
40
1.0000000000
40
1.0000000000
40
1.0000000000
40
1.0000000000
10
125.1207143982
20
79.9528815994
30
0.0000000000
10
125.1023982481
20
79.7756550723
30
0.0000000000
10
125.1070818636
20
79.2574537074
30
0.0000000000
10
125.2792928665
20
78.7620637611
30
0.0000000000
10
125.4346813720
20
78.4664657710
30
0.0000000000
11
125.1207143982
21
79.9528815994
31
0.0000000000
11
125.1257313874
21
79.4194944911
31
0.0000000000
11
125.4346813720
21
78.4664657710
31
0.0000000000
0
SPLINE
5
5F4
100
AcDbEntity
8
0
100
AcDbSpline
62
7
6
CONTINUOUS
70
0
71
3
72
9
73
5
74
3
42
0.0000001000
43
0.0000001000
44
0.0000000001
12
0.0413708211
22
0.3832132277
32
0.0000000000
13
-0.1777273368
23
0.3380934992
33
0.0000000000
40
0.0000000000
40
0.0000000000
40
0.0000000000
40
0.0000000000
40
0.2179129649
40
1.0000000000
40
1.0000000000
40
1.0000000000
40
1.0000000000
10
125.5130662123
20
78.0952362325
30
0.0000000000
10
125.5160712917
20
78.1230719427
30
0.0000000000
10
125.5207582169
20
78.2516560927
30
0.0000000000
10
125.4810141206
20
78.3783262569
30
0.0000000000
10
125.4346813720
20
78.4664657710
30
0.0000000000
11
125.5130662123
21
78.0952362325
31
0.0000000000
11
125.5160041211
21
78.1790213618
31
0.0000000000
11
125.4346813720
21
78.4664657710
31
0.0000000000
0
SPLINE
5
5F5
100
AcDbEntity
8
0
100
AcDbSpline
62
7
6
CONTINUOUS
70
0
71
3
72
9
73
5
74
3
42
0.0000001000
43
0.0000001000
44
0.0000000001
12
-0.3840205170
22
-0.3448468457
32
0.0000000000
13
-0.0527106488
23
-0.5212687332
33
0.0000000000
40
0.0000000000
40
0.0000000000
40
0.0000000000
40
0.0000000000
40
0.7153978948
40
1.0000000000
40
1.0000000000
40
1.0000000000
40
1.0000000000
10
114.7896110899
20
80.4301383825
30
0.0000000000
10
114.6980352668
20
80.3479041467
30
0.0000000000
10
114.5860023497
20
80.2056015373
30
0.0000000000
10
114.5476335338
20
80.0341095388
30
0.0000000000
10
114.5426330133
20
79.9846581459
30
0.0000000000
11
114.7896110899
21
80.4301383825
31
0.0000000000
11
114.5754398967
21
80.1293592138
31
0.0000000000
11
114.5426330133
21
79.9846581459
31
0.0000000000
0
SPLINE
5
5F6
100
AcDbEntity
8
0
100
AcDbSpline
62
7
6
CONTINUOUS
70
0
71
3
72
11
73
7
74
5
42
0.0000001000
43
0.0000001000
44
0.0000000001
12
0.1611172233
22
1.5933283464
32
0.0000000000
13
-1.4772508616
23
0.5537390507
33
0.0000000000
40
0.0000000000
40
0.0000000000
40
0.0000000000
40
0.0000000000
40
0.1198625649
40
0.3592591406
40
0.6526413247
40
1.0000000000
40
1.0000000000
40
1.0000000000
40
1.0000000000
10
137.8801015970
20
85.8773557388
30
0.0000000000
10
137.8865389048
20
85.9410158795
30
0.0000000000
10
137.8764313376
20
86.1350226446
30
0.0000000000
10
137.6996275169
20
86.4450097120
30
0.0000000000
10
137.3385722471
20
86.7431232429
30
0.0000000000
10
137.0320373777
20
86.8903253310
30
0.0000000000
10
136.8609920769
20
86.9544406854
30
0.0000000000
11
137.8801015970
21
85.8773557388
31
0.0000000000
11
137.8700857929
21
86.0678707729
31
0.0000000000
11
137.6992658085
21
86.4047105208
31
0.0000000000
11
137.3515558108
21
86.7102016931
31
0.0000000000
11
136.8609920769
21
86.9544406854
31
0.0000000000
0
SPLINE
5
5F7
100
AcDbEntity
8
0
100
AcDbSpline
62
7
6
CONTINUOUS
70
0
71
3
72
9
73
5
74
3
42
0.0000001000
43
0.0000001000
44
0.0000000001
12
-0.6223215255
22
0.5727687612
32
0.0000000000
13
-0.7826373381
23
0.2933671375
33
0.0000000000
40
0.0000000000
40
0.0000000000
40
0.0000000000
40
0.0000000000
40
0.1966341976
40
1.0000000000
40
1.0000000000
40
1.0000000000
40
1.0000000000
10
137.4507666154
20
85.2737701692
30
0.0000000000
10
137.4099767175
20
85.3113121445
30
0.0000000000
10
137.1904716212
20
85.4901402219
30
0.0000000000
10
136.9395349700
20
85.6170267942
30
0.0000000000
10
136.7299536123
20
85.6955871694
30
0.0000000000
11
137.4507666154
21
85.2737701692
31
0.0000000000
11
137.3224369992
21
85.3796312568
31
0.0000000000
11
136.7299536123
21
85.6955871694
31
0.0000000000
0
SPLINE
5
5F8
100
AcDbEntity
8
0
100
AcDbSpline
62
7
6
CONTINUOUS
70
0
71
3
72
13
73
9
74
7
42
0.0000001000
43
0.0000001000
44
0.0000000001
12
0.6875361509
22
6.4390845294
32
0.0000000000
13
6.4388765041
23
-0.1155431237
33
0.0000000000
40
0.0000000000
40
0.0000000000
40
0.0000000000
40
0.0000000000
40
0.1070864652
40
0.2416480027
40
0.3989054130
40
0.5805489864
40
0.7831226632
40
1.0000000000
40
1.0000000000
40
1.0000000000
40
1.0000000000
10
127.1091694713
20
79.7449947414
30
0.0000000000
10
127.1337114100
20
79.9748410085
30
0.0000000000
10
127.2956800709
20
80.4838890348
30
0.0000000000
10
127.8608155336
20
81.1512292607
30
0.0000000000
10
128.7246908012
20
81.7059107471
30
0.0000000000
10
129.8211949049
20
82.1119849428
30
0.0000000000
10
131.0937680399
20
82.3525201734
30
0.0000000000
10
131.9964336816
20
82.3936192202
30
0.0000000000
10
132.4619158110
20
82.3852663252
30
0.0000000000
11
127.1091694713
21
79.7449947414
31
0.0000000000
11
127.3126874789
21
80.4054323509
31
0.0000000000
11
127.8539698128
21
81.0821506509
31
0.0000000000
11
128.6948224955
21
81.6465767160
31
0.0000000000
11
129.7867163327
21
82.0662515467
31
0.0000000000
11
131.0669025613
21
82.3172333462
31
0.0000000000
11
132.4619158110
21
82.3852663252
31
0.0000000000
0
SPLINE
5
5F9
100
AcDbEntity
8
0
100
AcDbSpline
62
7
6
CONTINUOUS
70
0
71
3
72
9
73
5
74
3
42
0.0000001000
43
0.0000001000
44
0.0000000001
12
-0.5299164117
22
-0.4772320882
32
0.0000000000
13
-0.0732549346
23
-0.7037417013
33
0.0000000000
40
0.0000000000
40
0.0000000000
40
0.0000000000
40
0.0000000000
40
0.4069060794
40
1.0000000000
40
1.0000000000
40
1.0000000000
40
1.0000000000
10
121.9030072078
20
72.1144981041
30
0.0000000000
10
121.8311318046
20
72.0497685581
30
0.0000000000
10
121.6805450357
20
71.8609729608
30
0.0000000000
10
121.6133028521
20
71.6266835729
30
0.0000000000
10
121.5988205000
20
71.4875552647
30
0.0000000000
11
121.9030072078
21
72.1144981041
31
0.0000000000
11
121.7223820373
21
71.8885918823
31
0.0000000000
11
121.5988205000
21
71.4875552647
31
0.0000000000
0
SPLINE
5
5FA
100
AcDbEntity
8
0
100
AcDbSpline
62
7
6
CONTINUOUS
70
0
71
3
72
14
73
10
74
8
42
0.0000001000
43
0.0000001000
44
0.0000000001
12
-2.1517835534
22
-1.9338682808
32
0.0000000000
13
0.2960920045
23
2.8444812907
33
0.0000000000
40
0.0000000000
40
0.0000000000
40
0.0000000000
40
0.0000000000
40
0.0605113071
40
0.1963535273
40
0.3472329715
40
0.5120587707
40
0.6825953941
40
0.8480894982
40
1.0000000000
40
1.0000000000
40
1.0000000000
40
1.0000000000
10
116.7754532982
20
72.6787001819
30
0.0000000000
10
116.7320508864
20
72.6396932161
30
0.0000000000
10
116.5765012768
20
72.5297379587
30
0.0000000000
10
116.2411081447
20
72.4532588388
30
0.0000000000
10
115.8093989599
20
72.5404532060
30
0.0000000000
10
115.4040447495
20
72.7802909915
30
0.0000000000
10
115.0772255879
20
73.1377926927
30
0.0000000000
10
114.8727922810
20
73.5631576319
30
0.0000000000
10
114.8376765912
20
73.8722758266
30
0.0000000000
10
114.8526697529
20
74.0163113534
30
0.0000000000
11
116.7754532982
21
72.6787001819
31
0.0000000000
11
116.6329384176
21
72.5782576010
31
0.0000000000
11
116.2562656884
21
72.4831738850
31
0.0000000000
11
115.8315598625
21
72.5594028715
31
0.0000000000
11
115.4234785519
21
72.7953393881
31
0.0000000000
11
115.0941484369
21
73.1550642391
31
0.0000000000
11
114.8937070421
21
73.5838125768
31
0.0000000000
11
114.8526697529
21
74.0163113534
31
0.0000000000
0
SPLINE
5
5FB
100
AcDbEntity
8
0
100
AcDbSpline
62
7
6
CONTINUOUS
70
0
71
3
72
9
73
5
74
3
42
0.0000001000
43
0.0000001000
44
0.0000000001
12
0.0608754231
22
0.5848148533
32
0.0000000000
13
0.4423987555
23
0.3975961799
33
0.0000000000
40
0.0000000000
40
0.0000000000
40
0.0000000000
40
0.0000000000
40
0.6646634131
40
1.0000000000
40
1.0000000000
40
1.0000000000
40
1.0000000000
10
114.8526697529
20
74.0163113534
30
0.0000000000
10
114.8661569750
20
74.1458796989
30
0.0000000000
10
114.9266990453
20
74.3413939302
30
0.0000000000
10
115.0566130383
20
74.4937519057
30
0.0000000000
10
115.1060638678
20
74.5381947543
30
0.0000000000
11
114.8526697529
21
74.0163113534
31
0.0000000000
11
114.9772841245
21
74.3867165507
31
0.0000000000
11
115.1060638678
21
74.5381947543
31
0.0000000000
0
SPLINE
5
5FC
100
AcDbEntity
8
0
100
AcDbSpline
62
7
6
CONTINUOUS
70
0
71
3
72
11
73
7
74
5
42
0.0000001000
43
0.0000001000
44
0.0000000001
12
1.4773579430
22
-0.5537791896
32
0.0000000000
13
-0.1618497142
23
-1.5941181475
33
0.0000000000
40
0.0000000000
40
0.0000000000
40
0.0000000000
40
0.0000000000
40
0.3438129745
40
0.6418895481
40
0.8794569953
40
1.0000000000
40
1.0000000000
40
1.0000000000
40
1.0000000000
10
119.5426176539
20
89.1301580331
30
0.0000000000
10
119.7119292635
20
89.0666925430
30
0.0000000000
10
120.0190156359
20
88.9195411429
30
0.0000000000
10
120.3805559009
20
88.6220500921
30
0.0000000000
10
120.5580281927
20
88.3104514369
30
0.0000000000
10
120.5681199174
20
88.1169585269
30
0.0000000000
10
120.5616166338
20
88.0529052631
30
0.0000000000
11
119.5426176539
21
89.1301580331
31
0.0000000000
11
120.0284999522
21
88.8889796791
31
0.0000000000
11
120.3821031506
21
88.5789241130
31
0.0000000000
11
120.5514953170
21
88.2445653878
31
0.0000000000
11
120.5616166338
21
88.0529052631
31
0.0000000000
0
SPLINE
5
5FD
100
AcDbEntity
8
0
100
AcDbSpline
62
7
6
CONTINUOUS
70
0
71
3
72
9
73
5
74
3
42
0.0000001000
43
0.0000001000
44
0.0000000001
12
-0.1604134985
22
-0.8772701339
32
0.0000000000
13
-0.7144722105
23
-0.5426158909
33
0.0000000000
40
0.0000000000
40
0.0000000000
40
0.0000000000
40
0.0000000000
40
0.5494698133
40
1.0000000000
40
1.0000000000
40
1.0000000000
40
1.0000000000
10
219.4681528683
20
67.6667973183
30
0.0000000000
10
219.4387720766
20
67.5061194994
30
0.0000000000
10
219.3367967549
20
67.2181319475
30
0.0000000000
10
219.1331891922
20
66.9909547397
30
0.0000000000
10
219.0258920927
20
66.9094664601
30
0.0000000000
11
219.4681528683
21
67.6667973183
31
0.0000000000
11
219.2960228457
21
67.2079982479
31
0.0000000000
11
219.0258920927
21
66.9094664601
31
0.0000000000
0
SPLINE
5
5FE
100
AcDbEntity
8
0
100
AcDbSpline
62
7
6
CONTINUOUS
70
0
71
3
72
12
73
8
74
6
42
0.0000001000
43
0.0000001000
44
0.0000000001
12
2.6520779768
22
-1.3454009576
32
0.0000000000
13
-0.5349101383
23
-2.9253192092
33
0.0000000000
40
0.0000000000
40
0.0000000000
40
0.0000000000
40
0.0000000000
40
0.2016075167
40
0.4113464860
40
0.6198667203
40
0.8181368779
40
1.0000000000
40
1.0000000000
40
1.0000000000
40
1.0000000000
10
221.3670731297
20
87.9108801405
30
0.0000000000
10
221.5452994147
20
87.8204658251
30
0.0000000000
10
221.8846414838
20
87.5854226120
30
0.0000000000
10
222.2986166766
20
87.1247727580
30
0.0000000000
10
222.5982846401
20
86.5857420203
30
0.0000000000
10
222.7555563024
20
86.0179172348
30
0.0000000000
10
222.7535547290
20
85.6340192581
30
0.0000000000
10
222.7211279197
20
85.4566833632
30
0.0000000000
11
221.3670731297
21
87.9108801405
31
0.0000000000
11
221.8624093113
21
87.5730987304
31
0.0000000000
11
222.2803109123
21
87.1100728096
31
0.0000000000
11
222.5798708124
21
86.5671265811
31
0.0000000000
11
222.7317660013
21
85.9974074049
31
0.0000000000
11
222.7211279197
21
85.4566833632
31
0.0000000000
0
SPLINE
5
5FF
100
AcDbEntity
8
0
100
AcDbSpline
62
7
6
CONTINUOUS
70
0
71
3
72
9
73
5
74
3
42
0.0000001000
43
0.0000001000
44
0.0000000001
12
0.3463993997
22
0.2625376860
32
0.0000000000
13
0.0767665864
23
0.4346751479
33
0.0000000000
40
0.0000000000
40
0.0000000000
40
0.0000000000
40
0.0000000000
40
0.7442675624
40
1.0000000000
40
1.0000000000
40
1.0000000000
40
1.0000000000
10
223.7056108273
20
91.5982270832
30
0.0000000000
10
223.7915487729
20
91.6633598444
30
0.0000000000
10
223.8948378785
20
91.7771219088
30
0.0000000000
10
223.9360402382
20
91.9189250401
30
0.0000000000
10
223.9425841403
20
91.9559785519
30
0.0000000000
11
223.7056108273
21
91.5982270832
31
0.0000000000
11
223.9109062624
21
91.8482315792
31
0.0000000000
11
223.9425841403
21
91.9559785519
31
0.0000000000
0
SPLINE
5
600
100
AcDbEntity
8
0
100
AcDbSpline
62
7
6
CONTINUOUS
70
0
71
3
72
9
73
5
74
3
42
0.0000001000
43
0.0000001000
44
0.0000000001
12
0.2877460725
22
0.2180840617
32
0.0000000000
13
0.0608620350
23
0.3602713384
33
0.0000000000
40
0.0000000000
40
0.0000000000
40
0.0000000000
40
0.0000000000
40
0.8298702531
40
1.0000000000
40
1.0000000000
40
1.0000000000
40
1.0000000000
10
216.9002691741
20
95.0505815225
30
0.0000000000
10
216.9798664761
20
95.1109086810
30
0.0000000000
10
217.0650919056
20
95.2096865915
30
0.0000000000
10
217.0943527833
20
95.3278562138
30
0.0000000000
10
217.0978042641
20
95.3482871710
30
0.0000000000
11
216.9002691741
21
95.0505815225
31
0.0000000000
11
217.0827766465
21
95.2882091542
31
0.0000000000
11
217.0978042641
21
95.3482871710
31
0.0000000000
0
SPLINE
5
601
100
AcDbEntity
8
0
100
AcDbSpline
62
7
6
CONTINUOUS
70
0
71
3
72
10
73
6
74
4
42
0.0000001000
43
0.0000001000
44
0.0000000001
12
-0.1515496309
22
-0.8287953706
32
0.0000000000
13
0.7629152035
23
-0.4103799865
33
0.0000000000
40
0.0000000000
40
0.0000000000
40
0.0000000000
40
0.0000000000
40
0.4939972959
40
0.8438071205
40
1.0000000000
40
1.0000000000
40
1.0000000000
40
1.0000000000
10
227.5017527644
20
84.5570379015
30
0.0000000000
10
227.4767977285
20
84.4205636775
30
0.0000000000
10
227.4551967374
20
84.1870744635
30
0.0000000000
10
227.5025414121
20
83.8919438430
30
0.0000000000
10
227.6182340028
20
83.7933120650
30
0.0000000000
10
227.6579546436
20
83.7719459210
30
0.0000000000
11
227.5017527644
21
84.5570379015
31
0.0000000000
11
227.4726014296
21
84.1418488983
31
0.0000000000
11
227.5555509553
21
83.8590347163
31
0.0000000000
11
227.6579546436
21
83.7719459210
31
0.0000000000
0
SPLINE
5
602
100
AcDbEntity
8
0
100
AcDbSpline
62
7
6
CONTINUOUS
70
0
71
3
72
14
73
10
74
8
42
0.0000001000
43
0.0000001000
44
0.0000000001
12
4.7536917825
22
-6.4889649337
32
0.0000000000
13
-6.4401157754
23
-4.8797880772
33
0.0000000000
40
0.0000000000
40
0.0000000000
40
0.0000000000
40
0.0000000000
40
0.1776678263
40
0.3503028394
40
0.5140669915
40
0.6666754120
40
0.8081145922
40
0.9412074367
40
1.0000000000
40
1.0000000000
40
1.0000000000
40
1.0000000000
10
211.1662327041
20
84.1741670051
30
0.0000000000
10
211.4477587327
20
83.7898735736
30
0.0000000000
10
211.9384424804
20
82.9822906504
30
0.0000000000
10
212.4361629626
20
81.6888429764
30
0.0000000000
10
212.6641047589
20
80.3881523685
30
0.0000000000
10
212.6059319237
20
79.1504316622
30
0.0000000000
10
212.2577574261
20
78.0437115822
30
0.0000000000
10
211.7398467182
20
77.2964966200
30
0.0000000000
10
211.3510374716
20
76.9541327121
30
0.0000000000
10
211.2248271669
20
76.8585009623
30
0.0000000000
11
211.1662327041
21
84.1741670051
31
0.0000000000
11
211.9065158910
21
82.9516998604
31
0.0000000000
11
212.4002714874
21
81.6537875498
31
0.0000000000
11
212.6190197389
21
80.3547752510
31
0.0000000000
11
212.5500164157
21
79.1291500208
31
0.0000000000
11
212.1971293834
21
78.0475391887
31
0.0000000000
11
211.5807840219
21
77.1721704466
31
0.0000000000
11
211.2248271669
21
76.8585009623
31
0.0000000000
0
SPLINE
5
603
100
AcDbEntity
8
0
100
AcDbSpline
62
7
6
CONTINUOUS
70
0
71
3
72
11
73
7
74
5
42
0.0000001000
43
0.0000001000
44
0.0000000001
12
1.2632981860
22
0.9590650499
32
0.0000000000
13
1.4059021555
23
-0.7132151176
33
0.0000000000
40
0.0000000000
40
0.0000000000
40
0.0000000000
40
0.0000000000
40
0.0367552777
40
0.3287275264
40
0.6521295699
40
1.0000000000
40
1.0000000000
40
1.0000000000
40
1.0000000000
10
223.7784729685
20
79.7169041584
30
0.0000000000
10
223.7939505937
20
79.7286543925
30
0.0000000000
10
223.9352670898
20
79.8298611534
30
0.0000000000
10
224.2644632766
20
79.9576532026
30
0.0000000000
10
224.7813157813
20
79.9436177738
30
0.0000000000
10
225.1183510683
20
79.8223607747
30
0.0000000000
10
225.2813749975
20
79.7396586248
30
0.0000000000
11
223.7784729685
21
79.7169041584
31
0.0000000000
11
223.8258598686
21
79.7508264817
31
0.0000000000
11
224.2529989225
21
79.9223291718
31
0.0000000000
11
224.7628128482
21
79.9180999905
31
0.0000000000
11
225.2813749975
21
79.7396586248
31
0.0000000000
0
SPLINE
5
604
100
AcDbEntity
8
0
100
AcDbSpline
62
7
6
CONTINUOUS
70
0
71
3
72
14
73
10
74
8
42
0.0000001000
43
0.0000001000
44
0.0000000001
12
-2.6241824915
22
1.4115749308
32
0.0000000000
13
-0.5212819015
23
-2.8507890401
33
0.0000000000
40
0.0000000000
40
0.0000000000
40
0.0000000000
40
0.0000000000
40
0.0300112346
40
0.1240364733
40
0.2594063542
40
0.4317525848
40
0.6257922872
40
0.8218803040
40
1.0000000000
40
1.0000000000
40
1.0000000000
40
1.0000000000
10
229.1460731557
20
86.7067539286
30
0.0000000000
10
229.1198215036
20
86.7208749640
30
0.0000000000
10
229.0040866067
20
86.7628461047
30
0.0000000000
10
228.7482933393
20
86.6651333293
30
0.0000000000
10
228.4516683607
20
86.4209946561
30
0.0000000000
10
228.1400254842
20
86.0433964454
30
0.0000000000
10
227.8577672226
20
85.5781915036
30
0.0000000000
10
227.6338560830
20
85.0753383575
30
0.0000000000
10
227.5327029557
20
84.7262984606
30
0.0000000000
10
227.5017527644
20
84.5570379015
30
0.0000000000
11
229.1460731557
21
86.7067539286
31
0.0000000000
11
229.0634313948
21
86.7359929298
31
0.0000000000
11
228.7986092341
21
86.6718034919
31
0.0000000000
11
228.4859518229
21
86.4348390130
31
0.0000000000
11
228.1631702595
21
86.0536809066
31
0.0000000000
11
227.8691967640
21
85.5743024654
31
0.0000000000
11
227.6394888786
21
85.0545238046
31
0.0000000000
11
227.5017527644
21
84.5570379015
31
0.0000000000
0
SPLINE
5
605
100
AcDbEntity
8
0
100
AcDbSpline
62
7
6
CONTINUOUS
70
0
71
3
72
11
73
7
74
5
42
0.0000001000
43
0.0000001000
44
0.0000000001
12
1.2633026365
22
0.9594328169
32
0.0000000000
13
1.4062690915
23
-0.7134012645
33
0.0000000000
40
0.0000000000
40
0.0000000000
40
0.0000000000
40
0.0000000000
40
0.0361865605
40
0.3302732332
40
0.6485760926
40
1.0000000000
40
1.0000000000
40
1.0000000000
40
1.0000000000
10
211.6149301322
20
92.0725550882
30
0.0000000000
10
211.6301683246
20
92.0841279461
30
0.0000000000
10
211.7721120846
20
92.1859125864
30
0.0000000000
10
212.0998396051
20
92.3129700375
30
0.0000000000
10
212.6167241063
20
92.2997389452
30
0.0000000000
10
212.9534419630
20
92.1791209415
30
0.0000000000
10
213.1181741560
20
92.0955521882
30
0.0000000000
11
211.6149301322
21
92.0725550882
31
0.0000000000
11
211.6615720569
21
92.1059869498
31
0.0000000000
11
212.0919794729
21
92.2786202634
31
0.0000000000
11
212.5938903505
21
92.2750246896
31
0.0000000000
11
213.1181741560
21
92.0955521882
31
0.0000000000
0
SPLINE
5
606
100
AcDbEntity
8
0
100
AcDbSpline
62
7
6
CONTINUOUS
70
0
71
3
72
14
73
10
74
8
42
0.0000001000
43
0.0000001000
44
0.0000000001
12
-0.4650213697
22
-2.7526827072
32
0.0000000000
13
2.1985474651
23
1.6662891581
33
0.0000000000
40
0.0000000000
40
0.0000000000
40
0.0000000000
40
0.0000000000
40
0.0796293249
40
0.2021462413
40
0.3537013255
40
0.5257374111
40
0.7018354682
40
0.8642636352
40
1.0000000000
40
1.0000000000
40
1.0000000000
40
1.0000000000
10
214.6405093406
20
95.7990438860
30
0.0000000000
10
214.6281662280
20
95.7259791308
30
0.0000000000
10
214.6463970828
20
95.5298880466
30
0.0000000000
10
214.8504011334
20
95.2605850100
30
0.0000000000
10
215.1957848140
20
95.0316266991
30
0.0000000000
10
215.6334271085
20
94.8781190933
30
0.0000000000
10
216.1032711462
20
94.8207650131
30
0.0000000000
10
216.5405096395
20
94.8661378215
30
0.0000000000
10
216.8007948938
20
94.9751895115
30
0.0000000000
10
216.9002691741
20
95.0505815225
30
0.0000000000
11
214.6405093406
21
95.7990438860
31
0.0000000000
11
214.6577921055
21
95.5780361258
31
0.0000000000
11
214.8444665469
21
95.2962849650
31
0.0000000000
11
215.1871407908
21
95.0567624806
31
0.0000000000
11
215.6336457900
21
94.8959337994
31
0.0000000000
11
216.1160052059
21
94.8382836303
31
0.0000000000
11
216.5607841901
21
94.8925886890
31
0.0000000000
11
216.9002691741
21
95.0505815225
31
0.0000000000
0
SPLINE
5
607
100
AcDbEntity
8
0
100
AcDbSpline
62
7
6
CONTINUOUS
70
0
71
3
72
15
73
11
74
9
42
0.0000001000
43
0.0000001000
44
0.0000000001
12
-0.5853213261
22
-3.3142627011
32
0.0000000000
13
2.6411875987
23
2.0017681357
33
0.0000000000
40
0.0000000000
40
0.0000000000
40
0.0000000000
40
0.0000000000
40
0.0561423484
40
0.1583657539
40
0.2833546572
40
0.4287521085
40
0.5850280809
40
0.7397275821
40
0.8807916736
40
1.0000000000
40
1.0000000000
40
1.0000000000
40
1.0000000000
10
220.9939678223
20
92.4958772288
30
0.0000000000
10
220.9830140510
20
92.4338537317
30
0.0000000000
10
220.9836738390
20
92.2526558333
30
0.0000000000
10
221.1396206968
20
91.9666517858
30
0.0000000000
10
221.4560520541
20
91.6956130114
30
0.0000000000
10
221.8826984483
20
91.4857492888
30
0.0000000000
10
222.3737721290
20
91.3587530473
30
0.0000000000
10
222.8757419404
20
91.3284064889
30
0.0000000000
10
223.3323253704
20
91.3973703986
30
0.0000000000
10
223.6006603095
20
91.5186846067
30
0.0000000000
10
223.7056108273
20
91.5982270832
30
0.0000000000
11
220.9939678223
21
92.4958772288
31
0.0000000000
11
220.9943527680
21
92.3080639560
31
0.0000000000
11
221.1408367281
21
92.0025968889
31
0.0000000000
11
221.4474294531
21
91.7240668366
31
0.0000000000
11
221.8771513354
21
91.5060686341
31
0.0000000000
11
222.3781715741
21
91.3748960818
31
0.0000000000
11
222.8900597342
21
91.3463705255
31
0.0000000000
11
223.3510745487
21
91.4239325683
31
0.0000000000
11
223.7056108273
21
91.5982270832
31
0.0000000000
0
SPLINE
5
608
100
AcDbEntity
8
0
100
AcDbSpline
62
7
6
CONTINUOUS
70
0
71
3
72
9
73
5
74
3
42
0.0000001000
43
0.0000001000
44
0.0000000001
12
-0.2877460725
22
-0.2180840617
32
0.0000000000
13
-0.0608620350
23
-0.3602713384
33
0.0000000000
40
0.0000000000
40
0.0000000000
40
0.0000000000
40
0.0000000000
40
0.8298702531
40
1.0000000000
40
1.0000000000
40
1.0000000000
40
1.0000000000
10
214.8380444306
20
96.0967495345
30
0.0000000000
10
214.7584471286
20
96.0364223760
30
0.0000000000
10
214.6732216991
20
95.9376444655
30
0.0000000000
10
214.6439608215
20
95.8194748432
30
0.0000000000
10
214.6405093406
20
95.7990438860
30
0.0000000000
11
214.8380444306
21
96.0967495345
31
0.0000000000
11
214.6555369582
21
95.8591219028
31
0.0000000000
11
214.6405093406
21
95.7990438860
31
0.0000000000
0
SPLINE
5
609
100
AcDbEntity
8
0
100
AcDbSpline
62
7
6
CONTINUOUS
70
0
71
3
72
15
73
11
74
9
42
0.0000001000
43
0.0000001000
44
0.0000000001
12
6.3404149549
22
-8.6549006940
32
0.0000000000
13
-8.5910733291
23
-6.5065089480
33
0.0000000000
40
0.0000000000
40
0.0000000000
40
0.0000000000
40
0.0000000000
40
0.1624926881
40
0.3211565508
40
0.4728178439
40
0.6154467145
40
0.7484907424
40
0.8732849393
40
0.9931077325
40
1.0000000000
40
1.0000000000
40
1.0000000000
40
1.0000000000
10
212.3547512617
20
85.0189049237
30
0.0000000000
10
212.6981749515
20
84.5501188975
30
0.0000000000
10
213.3047330608
20
83.5679565144
30
0.0000000000
10
213.9511653807
20
81.9972520803
30
0.0000000000
10
214.3002759892
20
80.4060291955
30
0.0000000000
10
214.3332070374
20
78.8671296302
30
0.0000000000
10
214.0435777038
20
77.4505260456
30
0.0000000000
10
213.4362235358
20
76.2247719208
30
0.0000000000
10
212.8135113849
20
75.5575941320
30
0.0000000000
10
212.4531003550
20
75.2795809972
30
0.0000000000
10
212.4333630299
20
75.2646327972
30
0.0000000000
11
212.3547512617
21
85.0189049237
31
0.0000000000
11
213.2690912301
21
83.5345586217
31
0.0000000000
11
213.9123540308
21
81.9584966107
31
0.0000000000
11
214.2530209546
21
80.3674070363
31
0.0000000000
11
214.2748890652
21
78.8373199034
31
0.0000000000
11
213.9768575568
21
77.4413707973
31
0.0000000000
11
213.3729860835
21
76.2463867658
31
0.0000000000
11
212.4921691129
21
75.3099962555
31
0.0000000000
11
212.4333630299
21
75.2646327972
31
0.0000000000
0
SPLINE
5
60A
100
AcDbEntity
8
0
100
AcDbSpline
62
7
6
CONTINUOUS
70
0
71
3
72
10
73
6
74
4
42
0.0000001000
43
0.0000001000
44
0.0000000001
12
0.1604458538
22
0.8774470788
32
0.0000000000
13
0.7160424221
23
0.5421094478
33
0.0000000000
40
0.0000000000
40
0.0000000000
40
0.0000000000
40
0.0000000000
40
0.4675373147
40
0.9063861272
40
1.0000000000
40
1.0000000000
40
1.0000000000
40
1.0000000000
10
210.6691770406
20
73.7728355009
30
0.0000000000
10
210.6941818485
20
73.9095819179
30
0.0000000000
10
210.7798276822
20
74.1705399488
30
0.0000000000
10
210.9646162984
20
74.4110763023
30
0.0000000000
10
211.0878765032
20
74.5122638557
30
0.0000000000
10
211.1102203379
20
74.5291801774
30
0.0000000000
11
210.6691770406
21
73.7728355009
31
0.0000000000
11
210.8043152464
21
74.1673745638
31
0.0000000000
11
211.0453036549
21
74.4758525297
31
0.0000000000
11
211.1102203379
21
74.5291801774
31
0.0000000000
0
SPLINE
5
60B
100
AcDbEntity
8
0
100
AcDbSpline
62
7
6
CONTINUOUS
70
0
71
3
72
14
73
10
74
8
42
0.0000001000
43
0.0000001000
44
0.0000000001
12
2.6241824915
22
-1.4115749308
32
0.0000000000
13
0.5212819015
23
2.8507890401
33
0.0000000000
40
0.0000000000
40
0.0000000000
40
0.0000000000
40
0.0000000000
40
0.0300112346
40
0.1240364733
40
0.2594063542
40
0.4317525848
40
0.6257922872
40
0.8218803040
40
1.0000000000
40
1.0000000000
40
1.0000000000
40
1.0000000000
10
227.6579546436
20
83.7719459210
30
0.0000000000
10
227.6842062958
20
83.7578248855
30
0.0000000000
10
227.7999411927
20
83.7158537449
30
0.0000000000
10
228.0557344601
20
83.8135665202
30
0.0000000000
10
228.3523594387
20
84.0577051935
30
0.0000000000
10
228.6640023152
20
84.4353034042
30
0.0000000000
10
228.9462605768
20
84.9005083460
30
0.0000000000
10
229.1701717164
20
85.4033614921
30
0.0000000000
10
229.2713248437
20
85.7524013890
30
0.0000000000
10
229.3022750350
20
85.9216619481
30
0.0000000000
11
227.6579546436
21
83.7719459210
31
0.0000000000
11
227.7405964046
21
83.7427069198
31
0.0000000000
11
228.0054185653
21
83.8068963577
31
0.0000000000
11
228.3180759764
21
84.0438608366
31
0.0000000000
11
228.6408575399
21
84.4250189430
31
0.0000000000
11
228.9348310354
21
84.9043973841
31
0.0000000000
11
229.1645389208
21
85.4241760450
31
0.0000000000
11
229.3022750350
21
85.9216619481
31
0.0000000000
0
SPLINE
5
60C
100
AcDbEntity
8
0
100
AcDbSpline
62
7
6
CONTINUOUS
70
0
71
3
72
14
73
10
74
8
42
0.0000001000
43
0.0000001000
44
0.0000000001
12
8.5989534134
22
6.5104345260
32
0.0000000000
13
-6.3351263949
23
8.6476816142
33
0.0000000000
40
0.0000000000
40
0.0000000000
40
0.0000000000
40
0.0000000000
40
0.0237570417
40
0.1615768018
40
0.3073422969
40
0.4649166717
40
0.6348287236
40
0.8147631522
40
1.0000000000
40
1.0000000000
40
1.0000000000
40
1.0000000000
10
213.2533662409
20
75.8863738139
30
0.0000000000
10
213.3214614724
20
75.9379300354
30
0.0000000000
10
213.7739022104
20
76.3024638406
30
0.0000000000
10
214.4812723765
20
77.1693792447
30
0.0000000000
10
215.0459042789
20
78.6670691267
30
0.0000000000
10
215.1877944927
20
80.3703913119
30
0.0000000000
10
214.9121456086
20
82.1771238521
30
0.0000000000
10
214.2423465452
20
83.9802839194
30
0.0000000000
10
213.5643367569
20
85.1052321535
30
0.0000000000
10
213.1731704756
20
85.6391885812
30
0.0000000000
11
213.2533662409
21
75.8863738139
31
0.0000000000
11
213.4527668654
21
76.0470987864
31
0.0000000000
11
214.3945528220
21
77.1854268862
31
0.0000000000
11
214.9621414583
21
78.6412890864
31
0.0000000000
11
215.1201758643
21
80.3230615455
31
0.0000000000
11
214.8591205986
21
82.1256967377
31
0.0000000000
11
214.1953508598
21
83.9367691268
31
0.0000000000
11
213.1731704756
21
85.6391885812
31
0.0000000000
0
SPLINE
5
60D
100
AcDbEntity
8
0
100
AcDbSpline
62
7
6
CONTINUOUS
70
0
71
3
72
9
73
5
74
3
42
0.0000001000
43
0.0000001000
44
0.0000000001
12
-1.0367770570
22
-0.1780044063
32
0.0000000000
13
-0.9301425437
23
0.4718619437
33
0.0000000000
40
0.0000000000
40
0.0000000000
40
0.0000000000
40
0.0000000000
40
0.3452095841
40
1.0000000000
40
1.0000000000
40
1.0000000000
40
1.0000000000
10
219.3577468793
20
67.3219853492
30
0.0000000000
10
219.2384450871
20
67.3015024069
30
0.0000000000
10
218.8828069370
20
67.2924113377
30
0.0000000000
10
218.5440834238
20
67.4037627915
30
0.0000000000
10
218.3410672827
20
67.5067530176
30
0.0000000000
11
219.3577468793
21
67.3219853492
31
0.0000000000
11
218.9949214028
21
67.3095788526
31
0.0000000000
11
218.3410672827
21
67.5067530176
31
0.0000000000
0
SPLINE
5
60E
100
AcDbEntity
8
0
100
AcDbSpline
62
7
6
CONTINUOUS
70
0
71
3
72
11
73
7
74
5
42
0.0000001000
43
0.0000001000
44
0.0000000001
12
-1.2633026365
22
-0.9594328169
32
0.0000000000
13
-1.4062690915
23
0.7134012645
33
0.0000000000
40
0.0000000000
40
0.0000000000
40
0.0000000000
40
0.0000000000
40
0.0361865605
40
0.3302732332
40
0.6485760926
40
1.0000000000
40
1.0000000000
40
1.0000000000
40
1.0000000000
10
219.0258920927
20
66.9094664601
30
0.0000000000
10
219.0106539003
20
66.8978936022
30
0.0000000000
10
218.8687101403
20
66.7961089619
30
0.0000000000
10
218.5409826198
20
66.6690515108
30
0.0000000000
10
218.0240981186
20
66.6822826032
30
0.0000000000
10
217.6873802619
20
66.8029006068
30
0.0000000000
10
217.5226480689
20
66.8864693601
30
0.0000000000
11
219.0258920927
21
66.9094664601
31
0.0000000000
11
218.9792501680
21
66.8760345985
31
0.0000000000
11
218.5488427520
21
66.7034012849
31
0.0000000000
11
218.0469318744
21
66.7069968587
31
0.0000000000
11
217.5226480689
21
66.8864693601
31
0.0000000000
0
SPLINE
5
60F
100
AcDbEntity
8
0
100
AcDbSpline
62
7
6
CONTINUOUS
70
0
71
3
72
11
73
7
74
5
42
0.0000001000
43
0.0000001000
44
0.0000000001
12
-0.3215330671
22
-1.7584016269
32
0.0000000000
13
1.0563905176
23
-1.4420120905
33
0.0000000000
40
0.0000000000
40
0.0000000000
40
0.0000000000
40
0.0000000000
40
0.2275944581
40
0.4745603942
40
0.7349322499
40
1.0000000000
40
1.0000000000
40
1.0000000000
40
1.0000000000
10
211.4598061399
20
89.0300279044
30
0.0000000000
10
211.4354130919
20
88.8966270827
30
0.0000000000
10
211.4216556338
20
88.6109824906
30
0.0000000000
10
211.4976373895
20
88.1767364912
30
0.0000000000
10
211.6640567090
20
87.7448429241
30
0.0000000000
10
211.8277290245
20
87.4757658765
30
0.0000000000
10
211.9210673771
20
87.3483555763
30
0.0000000000
11
211.4598061399
21
89.0300279044
31
0.0000000000
11
211.4366663185
21
88.6238484502
31
0.0000000000
11
211.5097244429
21
88.1884699369
31
0.0000000000
11
211.6754362766
21
87.7535398015
31
0.0000000000
11
211.9210673771
21
87.3483555763
31
0.0000000000
0
SPLINE
5
610
100
AcDbEntity
8
0
100
AcDbSpline
62
7
6
CONTINUOUS
70
0
71
3
72
8
73
4
74
2
42
0.0000001000
43
0.0000001000
44
0.0000000001
12
0.0673278584
22
0.3682029250
32
0.0000000000
13
0.1667980404
23
0.3398647920
33
0.0000000000
40
0.0000000000
40
0.0000000000
40
0.0000000000
40
0.0000000000
40
1.0000000000
40
1.0000000000
40
1.0000000000
40
1.0000000000
10
211.9910885705
20
91.9355078875
30
0.0000000000
10
212.0135311900
20
92.0582421959
30
0.0000000000
10
212.0518966623
20
92.1802124416
30
0.0000000000
10
212.1074960091
20
92.2935007056
30
0.0000000000
11
211.9910885705
21
91.9355078875
31
0.0000000000
11
212.1074960091
21
92.2935007056
31
0.0000000000
0
SPLINE
5
611
100
AcDbEntity
8
0
100
AcDbSpline
62
7
6
CONTINUOUS
70
0
71
3
72
10
73
6
74
4
42
0.0000001000
43
0.0000001000
44
0.0000000001
12
0.1515496309
22
0.8287953706
32
0.0000000000
13
-0.7629152035
23
0.4103799865
33
0.0000000000
40
0.0000000000
40
0.0000000000
40
0.0000000000
40
0.0000000000
40
0.4939972959
40
0.8438071205
40
1.0000000000
40
1.0000000000
40
1.0000000000
40
1.0000000000
10
229.3022750350
20
85.9216619481
30
0.0000000000
10
229.3272300709
20
86.0581361721
30
0.0000000000
10
229.3488310620
20
86.2916253861
30
0.0000000000
10
229.3014863872
20
86.5867560066
30
0.0000000000
10
229.1857937966
20
86.6853877846
30
0.0000000000
10
229.1460731557
20
86.7067539286
30
0.0000000000
11
229.3022750350
21
85.9216619481
31
0.0000000000
11
229.3314263698
21
86.3368509513
31
0.0000000000
11
229.2484768440
21
86.6196651333
31
0.0000000000
11
229.1460731557
21
86.7067539286
31
0.0000000000
0
SPLINE
5
612
100
AcDbEntity
8
0
100
AcDbSpline
62
7
6
CONTINUOUS
70
0
71
3
72
12
73
8
74
6
42
0.0000001000
43
0.0000001000
44
0.0000000001
12
-2.6520779768
22
1.3454009576
32
0.0000000000
13
0.5349101383
23
2.9253192092
33
0.0000000000
40
0.0000000000
40
0.0000000000
40
0.0000000000
40
0.0000000000
40
0.2016075167
40
0.4113464860
40
0.6198667203
40
0.8181368779
40
1.0000000000
40
1.0000000000
40
1.0000000000
40
1.0000000000
10
211.7484187873
20
69.8157397935
30
0.0000000000
10
211.5701925023
20
69.9061541089
30
0.0000000000
10
211.2308504332
20
70.1411973220
30
0.0000000000
10
210.8168752404
20
70.6018471760
30
0.0000000000
10
210.5172072769
20
71.1408779137
30
0.0000000000
10
210.3599356146
20
71.7087026992
30
0.0000000000
10
210.3619371880
20
72.0926006760
30
0.0000000000
10
210.3943639972
20
72.2699365708
30
0.0000000000
11
211.7484187873
21
69.8157397935
31
0.0000000000
11
211.2530826057
21
70.1535212036
31
0.0000000000
11
210.8351810047
21
70.6165471244
31
0.0000000000
11
210.5356211046
21
71.1594933529
31
0.0000000000
11
210.3837259156
21
71.7292125292
31
0.0000000000
11
210.3943639972
21
72.2699365708
31
0.0000000000
0
SPLINE
5
613
100
AcDbEntity
8
0
100
AcDbSpline
62
7
6
CONTINUOUS
70
0
71
3
72
9
73
5
74
3
42
0.0000001000
43
0.0000001000
44
0.0000000001
12
-1.3201463584
22
-1.0002979270
32
0.0000000000
13
-1.6284125350
23
-0.2591332878
33
0.0000000000
40
0.0000000000
40
0.0000000000
40
0.0000000000
40
0.0000000000
40
0.3481386553
40
1.0000000000
40
1.0000000000
40
1.0000000000
40
1.0000000000
10
211.2248271669
20
76.8585009623
30
0.0000000000
10
211.0716291742
20
76.7424201706
30
0.0000000000
10
210.6016104814
20
76.4482052196
30
0.0000000000
10
210.0666033129
20
76.2817706816
30
0.0000000000
10
209.7127702514
20
76.2254643571
30
0.0000000000
11
211.2248271669
21
76.8585009623
31
0.0000000000
11
210.7364891855
21
76.5530520287
31
0.0000000000
11
209.7127702514
21
76.2254643571
31
0.0000000000
0
SPLINE
5
614
100
AcDbEntity
8
0
100
AcDbSpline
62
7
6
CONTINUOUS
70
0
71
3
72
11
73
7
74
5
42
0.0000001000
43
0.0000001000
44
0.0000000001
12
-2.6480347119
22
1.3433498065
32
0.0000000000
13
0.5340946331
23
2.9208593703
33
0.0000000000
40
0.0000000000
40
0.0000000000
40
0.0000000000
40
0.0000000000
40
0.2536544028
40
0.5164652194
40
0.7700728256
40
1.0000000000
40
1.0000000000
40
1.0000000000
40
1.0000000000
10
212.5668380012
20
70.4360234510
30
0.0000000000
10
212.3429427800
20
70.5496056487
30
0.0000000000
10
211.9250794329
20
70.8602845544
30
0.0000000000
10
211.4597613521
20
71.4757976417
30
0.0000000000
10
211.1911608933
20
72.1747823933
30
0.0000000000
10
211.1718489212
20
72.6663585810
30
0.0000000000
10
211.2127832111
20
72.8902202283
30
0.0000000000
11
212.5668380012
21
70.4360234510
31
0.0000000000
11
211.9580053323
21
70.8794111510
31
0.0000000000
11
211.4868833694
21
71.5015106280
31
0.0000000000
11
211.2251961605
21
72.2076128759
31
0.0000000000
11
211.2127832111
21
72.8902202283
31
0.0000000000
0
SPLINE
5
615
100
AcDbEntity
8
0
100
AcDbSpline
62
7
6
CONTINUOUS
70
0
71
3
72
9
73
5
74
3
42
0.0000001000
43
0.0000001000
44
0.0000000001
12
0.0855883727
22
0.4680661160
32
0.0000000000
13
0.2465812783
23
0.4099436642
33
0.0000000000
40
0.0000000000
40
0.0000000000
40
0.0000000000
40
0.0000000000
40
0.8764557762
40
1.0000000000
40
1.0000000000
40
1.0000000000
40
1.0000000000
10
211.4875962545
20
74.3931191584
30
0.0000000000
10
211.5126010623
20
74.5298655754
30
0.0000000000
10
211.5630067173
20
74.6834487667
30
0.0000000000
10
211.6417610569
20
74.8221589037
30
0.0000000000
10
211.6519156211
20
74.8390409610
30
0.0000000000
11
211.4875962545
21
74.3931191584
31
0.0000000000
11
211.6227344603
21
74.7876582213
31
0.0000000000
11
211.6519156211
21
74.8390409610
31
0.0000000000
0
SPLINE
5
616
100
AcDbEntity
8
0
100
AcDbSpline
62
7
6
CONTINUOUS
70
0
71
3
72
9
73
5
74
3
42
0.0000001000
43
0.0000001000
44
0.0000000001
12
0.1604134985
22
0.8772701339
32
0.0000000000
13
0.7144722105
23
0.5426158909
33
0.0000000000
40
0.0000000000
40
0.0000000000
40
0.0000000000
40
0.0000000000
40
0.5494698133
40
1.0000000000
40
1.0000000000
40
1.0000000000
40
1.0000000000
10
211.1726693566
20
91.3152242300
30
0.0000000000
10
211.2020501483
20
91.4759020489
30
0.0000000000
10
211.3040254699
20
91.7638896008
30
0.0000000000
10
211.5076330327
20
91.9910668087
30
0.0000000000
10
211.6149301322
20
92.0725550882
30
0.0000000000
11
211.1726693566
21
91.3152242300
31
0.0000000000
11
211.3447993792
21
91.7740233004
31
0.0000000000
11
211.6149301322
21
92.0725550882
31
0.0000000000
0
SPLINE
5
617
100
AcDbEntity
8
0
100
AcDbSpline
62
7
6
CONTINUOUS
70
0
71
3
72
14
73
10
74
8
42
0.0000001000
43
0.0000001000
44
0.0000000001
12
0.4650213697
22
2.7526827072
32
0.0000000000
13
-2.1985474651
23
-1.6662891581
33
0.0000000000
40
0.0000000000
40
0.0000000000
40
0.0000000000
40
0.0000000000
40
0.0796293249
40
0.2021462413
40
0.3537013255
40
0.5257374111
40
0.7018354682
40
0.8642636352
40
1.0000000000
40
1.0000000000
40
1.0000000000
40
1.0000000000
10
217.0978042641
20
95.3482871710
30
0.0000000000
10
217.1101473767
20
95.4213519262
30
0.0000000000
10
217.0919165219
20
95.6174430104
30
0.0000000000
10
216.8879124713
20
95.8867460470
30
0.0000000000
10
216.5425287907
20
96.1157043579
30
0.0000000000
10
216.1048864962
20
96.2692119637
30
0.0000000000
10
215.6350424585
20
96.3265660439
30
0.0000000000
10
215.1978039652
20
96.2811932355
30
0.0000000000
10
214.9375187109
20
96.1721415455
30
0.0000000000
10
214.8380444306
20
96.0967495345
30
0.0000000000
11
217.0978042641
21
95.3482871710
31
0.0000000000
11
217.0805214992
21
95.5692949312
31
0.0000000000
11
216.8938470579
21
95.8510460920
31
0.0000000000
11
216.5511728139
21
96.0905685764
31
0.0000000000
11
216.1046678147
21
96.2513972576
31
0.0000000000
11
215.6223083988
21
96.3090474267
31
0.0000000000
11
215.1775294147
21
96.2547423680
31
0.0000000000
11
214.8380444306
21
96.0967495345
31
0.0000000000
0
SPLINE
5
618
100
AcDbEntity
8
0
100
AcDbSpline
62
7
6
CONTINUOUS
70
0
71
3
72
9
73
5
74
3
42
0.0000001000
43
0.0000001000
44
0.0000000001
12
-0.3463993997
22
-0.2625376860
32
0.0000000000
13
-0.0767665864
23
-0.4346751479
33
0.0000000000
40
0.0000000000
40
0.0000000000
40
0.0000000000
40
0.0000000000
40
0.7442675624
40
1.0000000000
40
1.0000000000
40
1.0000000000
40
1.0000000000
10
221.2309411352
20
92.8536286975
30
0.0000000000
10
221.1450031896
20
92.7884959363
30
0.0000000000
10
221.0417140841
20
92.6747338719
30
0.0000000000
10
221.0005117244
20
92.5329307405
30
0.0000000000
10
220.9939678223
20
92.4958772288
30
0.0000000000
11
221.2309411352
21
92.8536286975
31
0.0000000000
11
221.0256457002
21
92.6036242014
31
0.0000000000
11
220.9939678223
21
92.4958772288
31
0.0000000000
0
SPLINE
5
619
100
AcDbEntity
8
0
100
AcDbSpline
62
7
6
CONTINUOUS
70
0
71
3
72
15
73
11
74
9
42
0.0000001000
43
0.0000001000
44
0.0000000001
12
0.5853213261
22
3.3142627011
32
0.0000000000
13
-2.6411875987
23
-2.0017681357
33
0.0000000000
40
0.0000000000
40
0.0000000000
40
0.0000000000
40
0.0000000000
40
0.0561423484
40
0.1583657539
40
0.2833546572
40
0.4287521085
40
0.5850280809
40
0.7397275821
40
0.8807916736
40
1.0000000000
40
1.0000000000
40
1.0000000000
40
1.0000000000
10
223.9425841403
20
91.9559785519
30
0.0000000000
10
223.9535379116
20
92.0180020490
30
0.0000000000
10
223.9528781235
20
92.1991999473
30
0.0000000000
10
223.7969312658
20
92.4852039949
30
0.0000000000
10
223.4804999085
20
92.7562427692
30
0.0000000000
10
223.0538535143
20
92.9661064918
30
0.0000000000
10
222.5627798335
20
93.0931027333
30
0.0000000000
10
222.0608100222
20
93.1234492917
30
0.0000000000
10
221.6042265922
20
93.0544853821
30
0.0000000000
10
221.3358916531
20
92.9331711739
30
0.0000000000
10
221.2309411352
20
92.8536286975
30
0.0000000000
11
223.9425841403
21
91.9559785519
31
0.0000000000
11
223.9421991946
21
92.1437918246
31
0.0000000000
11
223.7957152345
21
92.4492588917
31
0.0000000000
11
223.4891225095
21
92.7277889440
31
0.0000000000
11
223.0594006272
21
92.9457871466
31
0.0000000000
11
222.5583803884
21
93.0769596989
31
0.0000000000
11
222.0464922284
21
93.1054852551
31
0.0000000000
11
221.5854774138
21
93.0279232123
31
0.0000000000
11
221.2309411352
21
92.8536286975
31
0.0000000000
0
SPLINE
5
61A
100
AcDbEntity
8
0
100
AcDbSpline
62
7
6
CONTINUOUS
70
0
71
3
72
11
73
7
74
5
42
0.0000001000
43
0.0000001000
44
0.0000000001
12
-1.0563905176
22
1.4420120905
32
0.0000000000
13
0.3215330671
23
1.7584016269
33
0.0000000000
40
0.0000000000
40
0.0000000000
40
0.0000000000
40
0.0000000000
40
0.2650677501
40
0.5254396058
40
0.7724055419
40
1.0000000000
40
1.0000000000
40
1.0000000000
40
1.0000000000
10
211.1026481632
20
86.7280719188
30
0.0000000000
10
211.0093098106
20
86.8554822190
30
0.0000000000
10
210.8456374951
20
87.1245592666
30
0.0000000000
10
210.6792181756
20
87.5564528337
30
0.0000000000
10
210.6032364199
20
87.9906988331
30
0.0000000000
10
210.6169938780
20
88.2763434251
30
0.0000000000
10
210.6413869260
20
88.4097442469
30
0.0000000000
11
211.1026481632
21
86.7280719188
31
0.0000000000
11
210.8570170627
21
87.1332561439
31
0.0000000000
11
210.6913052290
21
87.5681862794
31
0.0000000000
11
210.6182471046
21
88.0035647926
31
0.0000000000
11
210.6413869260
21
88.4097442469
31
0.0000000000
0
SPLINE
5
61B
100
AcDbEntity
8
0
100
AcDbSpline
62
7
6
CONTINUOUS
70
0
71
3
72
9
73
5
74
3
42
0.0000001000
43
0.0000001000
44
0.0000000001
12
0.1604820119
22
0.8776448204
32
0.0000000000
13
0.7149614011
23
0.5427811893
33
0.0000000000
40
0.0000000000
40
0.0000000000
40
0.0000000000
40
0.0000000000
40
0.5431300262
40
1.0000000000
40
1.0000000000
40
1.0000000000
40
1.0000000000
10
223.3358701981
20
78.9593306667
30
0.0000000000
10
223.3649243979
20
79.1182224181
30
0.0000000000
10
223.4662670046
20
79.4062815654
30
0.0000000000
10
223.6695915030
20
79.6342440158
30
0.0000000000
10
223.7784729685
20
79.7169041584
30
0.0000000000
11
223.3358701981
21
78.9593306667
31
0.0000000000
11
223.5050924843
21
79.4134016243
31
0.0000000000
11
223.7784729685
21
79.7169041584
31
0.0000000000
0
ENDSEC
0
SECTION
2
OBJECTS
0
DICTIONARY
5
61C
100
AcDbDictionary
3
ACAD_GROUP
350
61D
3
ACAD_MLINESTYLE
350
61E
0
DICTIONARY
5
61D
102
{ACAD_REACTORS
330
61C
102
}
100
AcDbDictionary
0
DICTIONARY
5
61E
102
{ACAD_REACTORS
330
61C
102
}
100
AcDbDictionary
3
STANDARD
350
61F
0
MLINESTYLE
5
61F
102
{ACAD_REACTORS
330
61E
102
}
100
AcDbMlineStyle
2
STANDARD
70
0
3

62
256
51
90.0
52
90.0
71
2
49
0.5
62
256
6
BYLAYER
49
-0.5
62
256
6
BYLAYER
0
ENDSEC
0
EOF
