999
DXF file: 100150_support-accus.dxf
999
Pro/ENGINEER 2004090 by Parametric Technology Corporation
0
SECTION
2
HEADER
9
$ACADVER
1
AC1014
9
$HANDSEED
5
       41A
9
$EXTMAX
10
297.0000000000
20
210.0000000000
9
$EXTMIN
10
0.0000000000
20
0.0000000000
9
$LIMMIN
10
0.0000000000
20
0.0000000000
9
$LIMMAX
10
297.0000000000
20
210.0000000000
9
$VIEWCTR
10
148.5000000000
20
105.0000000000
9
$VIEWSIZE
40
210.0000000000
9
$CLAYER
8
0
9
$LTSCALE
40
16.3350000000
9
$CELTYPE
6
BYLAYER
9
$DIMSCALE
40
1
9
$DIMASZ
40
4.5000000000
9
$DIMEXO
40
1.8562500000
9
$DIMDLI
40
11.2860000000
9
$DIMEXE
40
5.3460000000
9
$DIMCEN
40
2.6730000000
9
$DIMLFAC
40
1.0000000000
9
$DIMTXT
40
3.5000000000
9
$DIMTOL
70
1
9
$DIMLIM
70
0
9
$DIMTFAC
40
1.0000000000
9
$DIMTP
40
0.0500000000
9
$DIMTM
40
0.0500000000
9
$MEASUREMENT
70
1
0
ENDSEC
0
SECTION
2
CLASSES
0
ENDSEC
0
SECTION
2
TABLES
0
TABLE
2
VPORT
5
8
100
AcDbSymbolTable
70
2
0
VPORT
5
1F4
100
AcDbSymbolTableRecord
100
AcDbViewportTableRecord
2
*ACTIVE
70
0
10
0.0
20
0.0
11
1.0
21
1.0
12
148.5000000000
22
105.0000000000
13
0.0
23
0.0
14
1.0
24
1.0
15
0.0
25
0.0
16
0.0
26
0.0
36
1.0
17
0.0
27
0.0
37
0.0
40
210.0000000000
41
1.4142857143
42
50.0
43
0.0
44
0.0
50
0.0
51
0.0
71
0
72
100
73
1
74
1
75
0
76
0
77
0
78
0
0
ENDTAB
0
TABLE
2
LTYPE
5
5
100
AcDbSymbolTable
70
6
0
LTYPE
5
14
100
AcDbSymbolTableRecord
100
AcDbLinetypeTableRecord
2
BYBLOCK
70
0
3

72
65
73
0
40
0.0
0
LTYPE
5
15
100
AcDbSymbolTableRecord
100
AcDbLinetypeTableRecord
2
BYLAYER
70
0
3

72
65
73
0
40
0.0
0
LTYPE
5
16
100
AcDbSymbolTableRecord
100
AcDbLinetypeTableRecord
2
CONTINUOUS
70
64
3
Solid line
72
65
73
0
40
0
0
LTYPE
5
1F5
100
AcDbSymbolTableRecord
100
AcDbLinetypeTableRecord
2
CENTER
70
64
3
____ _ ____ _ ____ _ ____ _ ____ _ ____ _ ____
72
65
73
4
40
0.6
49
0.375
74
0
49
-0.075
74
0
49
0.075
74
0
49
-0.075
74
0
0
LTYPE
5
1F6
100
AcDbSymbolTableRecord
100
AcDbLinetypeTableRecord
2
HIDDEN
70
64
3
- - - - - - - - - - - - - - - - - - - -
72
65
73
2
40
0.2
49
0.1
74
0
49
-0.1
74
0
0
LTYPE
5
1F7
100
AcDbSymbolTableRecord
100
AcDbLinetypeTableRecord
2
PHANTOM
70
64
3
_____ _ _ _____ _ _ _____ _ _ _____
72
65
73
6
40
0.8
49
0.45
74
0
49
-0.05
74
0
49
0.1
74
0
49
-0.05
74
0
49
0.1
74
0
49
-0.05
74
0
0
LTYPE
5
1F8
100
AcDbSymbolTableRecord
100
AcDbLinetypeTableRecord
2
DOT
70
64
3
. . . . . . . . . . . . . . . . . . . .
72
65
73
2
40
0.2
49
0.1
74
0
49
-0.1
74
0
0
LTYPE
5
1F9
100
AcDbSymbolTableRecord
100
AcDbLinetypeTableRecord
2
DASHED
70
64
3
- - - - - - - - - - - - - - - - - - - -
72
65
73
2
40
0.2
49
0.1
74
0
49
-0.1
74
0
0
ENDTAB
0
TABLE
2
LAYER
5
2
100
AcDbSymbolTable
70
36
0
LAYER
5
10
100
AcDbSymbolTableRecord
100
AcDbLayerTableRecord
2
0
70
0
62
7
6
CONTINUOUS
0
LAYER
5
1FA
100
AcDbSymbolTableRecord
100
AcDbLayerTableRecord
2
DEFAULT_1
70
0
62
7
6
CENTER
0
LAYER
5
1FB
100
AcDbSymbolTableRecord
100
AcDbLayerTableRecord
2
DEFAULT_2
70
0
62
8
6
HIDDEN
0
LAYER
5
1FC
100
AcDbSymbolTableRecord
100
AcDbLayerTableRecord
2
DEFAULT_3
70
0
62
7
6
PHANTOM
0
LAYER
5
1FD
100
AcDbSymbolTableRecord
100
AcDbLayerTableRecord
2
POUB
70
0
62
7
6
CONTINUOUS
0
LAYER
5
1FE
100
AcDbSymbolTableRecord
100
AcDbLayerTableRecord
2
REF
70
0
62
7
6
CONTINUOUS
0
ENDTAB
0
TABLE
2
STYLE
5
3
100
AcDbSymbolTable
70
1
0
STYLE
5
11
100
AcDbSymbolTableRecord
100
AcDbTextStyleTableRecord
2
STANDARD
70
0
40
0.0
41
0.8000000000
50
0.0
71
0
42
0.2
3
txt
4

0
STYLE
5
1FF
100
AcDbSymbolTableRecord
100
AcDbTextStyleTableRecord
2
TEXTSTYLE_1
70
0
40
0.0
41
0.8000000000
50
0.0
71
0
42
0.2
3
txt
4

0
ENDTAB
0
TABLE
2
VIEW
5
6
100
AcDbSymbolTable
70
0
0
ENDTAB
0
TABLE
2
UCS
5
7
100
AcDbSymbolTable
70
0
0
ENDTAB
0
TABLE
2
APPID
5
9
100
AcDbSymbolTable
70
1
0
APPID
5
200
100
AcDbSymbolTableRecord
100
AcDbRegAppTableRecord
2
ACAD
70
0
0
ENDTAB
0
TABLE
2
DIMSTYLE
5
A
100
AcDbSymbolTable
70
1
0
DIMSTYLE
105
201
100
AcDbSymbolTableRecord
100
AcDbDimStyleTableRecord
2
STANDARD
70
0
3

4

5

6

7

40
1.0
41
4.5000000000
42
0.0625
43
0.38
44
0.18
45
0.0
46
0.0
47
0.0500000000
48
0.0500000000
140
3.5000000000
141
0.09
142
0.0
143
25.4
144
1.0000000000
145
0.0
146
1.0000000000
147
0.09
71
1
72
0
73
0
74
0
75
0
76
0
77
1
78
8
170
0
171
2
172
0
173
0
174
0
175
0
176
0
177
0
178
0
270
2
271
2
272
2
273
2
274
2
340
11
275
0
280
0
281
0
282
0
283
1
284
8
285
0
286
0
287
3
288
0
0
DIMSTYLE
105
202
100
AcDbSymbolTableRecord
100
AcDbDimStyleTableRecord
2
DIMSTYLE_1
70
0
3

4

5

6

7

40
1.0
41
4.5000000000
42
0.0625
43
0.38
44
0.18
45
0.0
46
0.0
47
0.0500000000
48
0.0500000000
140
3.5000000000
141
0.09
142
0.0
143
25.4
144
1.0000000000
145
0.0
146
1.0000000000
147
0.09
71
0
72
0
73
0
74
0
75
0
76
0
77
1
78
8
170
0
171
2
172
0
173
0
174
0
175
0
176
0
177
0
178
0
270
2
271
2
272
2
273
2
274
2
340
1FF
275
0
280
0
281
0
282
0
283
1
284
8
285
0
286
0
287
3
288
0
0
DIMSTYLE
105
203
100
AcDbSymbolTableRecord
100
AcDbDimStyleTableRecord
2
DIMSTYLE_2
70
0
3

4

5

6

7

40
1.0
41
4.5000000000
42
0.0625
43
0.38
44
0.18
45
0.0
46
0.0
47
0.1000000000
48
0.1000000000
140
3.5000000000
141
0.09
142
0.0
143
25.4
144
1.0000000000
145
0.0
146
1.0000000000
147
0.09
71
0
72
0
73
1
74
1
75
0
76
0
77
0
78
8
170
0
171
2
172
0
173
0
174
0
175
0
176
0
177
0
178
0
270
2
271
1
272
1
273
2
274
2
340
1FF
275
0
280
0
281
0
282
0
283
1
284
8
285
0
286
0
287
3
288
0
0
DIMSTYLE
105
204
100
AcDbSymbolTableRecord
100
AcDbDimStyleTableRecord
2
DIMSTYLE_3
70
0
3

4

5

6

7

40
1.0
41
4.5000000000
42
0.0625
43
0.38
44
0.18
45
0.0
46
0.0
47
0.4000000000
48
-0.2000000000
140
3.5000000000
141
0.09
142
0.0
143
25.4
144
1.0000000000
145
0.0
146
0.6000000000
147
0.09
71
1
72
0
73
0
74
0
75
0
76
0
77
1
78
8
170
0
171
2
172
0
173
0
174
0
175
0
176
0
177
0
178
0
270
2
271
2
272
2
273
2
274
2
340
1FF
275
0
280
0
281
0
282
0
283
1
284
8
285
0
286
0
287
3
288
0
0
DIMSTYLE
105
205
100
AcDbSymbolTableRecord
100
AcDbDimStyleTableRecord
2
DIMSTYLE_4
70
0
3

4

5

6

7

40
1.0
41
4.5000000000
42
0.0625
43
0.38
44
0.18
45
0.0
46
0.0
47
0.0000000000
48
0.0000000000
140
3.5000000000
141
0.09
142
0.0
143
25.4
144
1.0000000000
145
0.0
146
1.0000000000
147
0.09
71
0
72
0
73
0
74
0
75
0
76
0
77
1
78
8
170
0
171
2
172
0
173
0
174
0
175
0
176
0
177
0
178
0
270
2
271
0
272
0
273
2
274
2
340
1FF
275
0
280
0
281
0
282
0
283
1
284
8
285
0
286
0
287
3
288
0
0
ENDTAB
0
TABLE
2
BLOCK_RECORD
5
1
100
AcDbSymbolTable
70
0
0
BLOCK_RECORD
5
1B
100
AcDbSymbolTableRecord
100
AcDbBlockTableRecord
2
*MODEL_SPACE
0
BLOCK_RECORD
5
1C
100
AcDbSymbolTableRecord
100
AcDbBlockTableRecord
2
*PAPER_SPACE
0
BLOCK_RECORD
5
206
100
AcDbSymbolTableRecord
100
AcDbBlockTableRecord
2
N-DES_BL0
0
BLOCK_RECORD
5
207
100
AcDbSymbolTableRecord
100
AcDbBlockTableRecord
2
N-CART_BL1
0
BLOCK_RECORD
5
208
100
AcDbSymbolTableRecord
100
AcDbBlockTableRecord
2
*D0
0
BLOCK_RECORD
5
209
100
AcDbSymbolTableRecord
100
AcDbBlockTableRecord
2
*D1
0
BLOCK_RECORD
5
20A
100
AcDbSymbolTableRecord
100
AcDbBlockTableRecord
2
*D2
0
BLOCK_RECORD
5
20B
100
AcDbSymbolTableRecord
100
AcDbBlockTableRecord
2
*D3
0
BLOCK_RECORD
5
20C
100
AcDbSymbolTableRecord
100
AcDbBlockTableRecord
2
*D4
0
BLOCK_RECORD
5
20D
100
AcDbSymbolTableRecord
100
AcDbBlockTableRecord
2
*D5
0
BLOCK_RECORD
5
20E
100
AcDbSymbolTableRecord
100
AcDbBlockTableRecord
2
*D6
0
BLOCK_RECORD
5
20F
100
AcDbSymbolTableRecord
100
AcDbBlockTableRecord
2
*D7
0
BLOCK_RECORD
5
210
100
AcDbSymbolTableRecord
100
AcDbBlockTableRecord
2
*D8
0
BLOCK_RECORD
5
211
100
AcDbSymbolTableRecord
100
AcDbBlockTableRecord
2
*D9
0
BLOCK_RECORD
5
212
100
AcDbSymbolTableRecord
100
AcDbBlockTableRecord
2
*D10
0
BLOCK_RECORD
5
213
100
AcDbSymbolTableRecord
100
AcDbBlockTableRecord
2
*D11
0
BLOCK_RECORD
5
214
100
AcDbSymbolTableRecord
100
AcDbBlockTableRecord
2
N-CAR_BL2
0
ENDTAB
0
ENDSEC
0
SECTION
2
BLOCKS
0
BLOCK
5
1E
100
AcDbEntity
8
0
100
AcDbBlockBegin
2
*MODEL_SPACE
70
0
10
0.0
20
0.0
30
0.0
3
*MODEL_SPACE
1

0
ENDBLK
5
1F
100
AcDbEntity
8
0
100
AcDbBlockEnd
0
BLOCK
5
20
100
AcDbEntity
8
0
100
AcDbBlockBegin
2
*PAPER_SPACE
70
0
10
0.0
20
0.0
30
0.0
3
*PAPER_SPACE
1

0
ENDBLK
5
21
100
AcDbEntity
8
0
100
AcDbBlockEnd
0
BLOCK
5
215
100
AcDbEntity
8
0
100
AcDbBlockBegin
62
2
6
CONTINUOUS
2
N-DES_BL0
70
64
10
0.0000000000
20
0.0000000000
3
N-DES_BL0
1

0
LINE
5
216
100
AcDbEntity
8
0
100
AcDbLine
62
7
6
CONTINUOUS
10
249.1774259191
20
30.9887124869
11
249.1774259191
21
29.2995219118
0
LINE
5
217
100
AcDbEntity
8
0
100
AcDbLine
62
7
6
CONTINUOUS
10
254.5828357593
20
28.4549266243
11
249.1774259191
21
29.2995219118
0
LINE
5
218
100
AcDbEntity
8
DEFAULT_1
100
AcDbLine
62
2
6
CENTER
10
248.3666144431
20
30.1441171993
11
255.3936472353
21
30.1441171993
0
LINE
5
219
100
AcDbEntity
8
0
100
AcDbLine
62
7
6
CONTINUOUS
10
254.5828357593
20
31.8333077744
11
249.1774259191
21
30.9887124869
0
LINE
5
21A
100
AcDbEntity
8
0
100
AcDbLine
62
7
6
CONTINUOUS
10
254.5828357593
20
31.8333077744
11
254.5828357593
21
28.4549266243
0
LINE
5
21B
100
AcDbEntity
8
0
100
AcDbLine
62
2
6
CONTINUOUS
10
258.9795831209
20
30.2444551195
11
258.9795831209
21
30.0437792792
0
LINE
5
21C
100
AcDbEntity
8
DEFAULT_1
100
AcDbLine
62
2
6
CENTER
10
258.9795831209
20
27.5463392504
11
258.9795831209
21
32.6441192504
0
LINE
5
21D
100
AcDbEntity
8
0
100
AcDbLine
62
2
6
CONTINUOUS
10
259.0799210411
20
30.1441171993
11
258.8792452008
21
30.1441171993
0
LINE
5
21E
100
AcDbEntity
8
DEFAULT_1
100
AcDbLine
62
2
6
CENTER
10
258.4778935201
20
30.1441171993
11
256.4795810698
21
30.1441171993
0
LINE
5
21F
100
AcDbEntity
8
DEFAULT_1
100
AcDbLine
62
2
6
CENTER
10
259.4812727217
20
30.1441171993
11
261.4795851720
21
30.1441171993
0
CIRCLE
5
220
100
AcDbEntity
8
0
100
AcDbCircle
62
7
6
CONTINUOUS
10
258.9795831209
20
30.1441171993
40
1.6891905751
0
CIRCLE
5
221
100
AcDbEntity
8
0
100
AcDbCircle
62
7
6
CONTINUOUS
10
258.9795831209
20
30.1441171993
40
0.8445952875
0
ENDBLK
5
222
100
AcDbEntity
8
0
100
AcDbBlockEnd
0
BLOCK
5
223
100
AcDbEntity
8
0
100
AcDbBlockBegin
62
2
6
CONTINUOUS
2
N-CART_BL1
70
64
10
0.0000000000
20
0.0000000000
3
N-CART_BL1
1

0
LINE
5
224
100
AcDbEntity
8
0
100
AcDbLine
62
7
6
CONTINUOUS
10
279.2343557149
20
39.7904478564
11
113.2343829149
21
39.7904478564
0
LINE
5
225
100
AcDbEntity
8
0
100
AcDbLine
62
7
6
CONTINUOUS
10
279.2343557149
20
-1.7095453436
11
113.2343829149
21
-1.7095453436
0
LINE
5
226
100
AcDbEntity
8
0
100
AcDbLine
62
7
6
CONTINUOUS
10
279.2343557149
20
39.7904478564
11
279.2343557149
21
-1.7095453436
0
LINE
5
227
100
AcDbEntity
8
0
100
AcDbLine
62
7
6
CONTINUOUS
10
113.2343829149
20
39.7904478564
11
113.2343829149
21
-1.7095453436
0
LINE
5
228
100
AcDbEntity
8
0
100
AcDbLine
62
7
6
CONTINUOUS
10
279.2343557149
20
35.2904485938
11
113.2343829149
21
35.2904485938
0
LINE
5
229
100
AcDbEntity
8
0
100
AcDbLine
62
7
6
CONTINUOUS
10
233.2343632522
20
7.7904530998
11
233.2343632522
21
-1.7095453436
0
LINE
5
22A
100
AcDbEntity
8
0
100
AcDbLine
62
7
6
CONTINUOUS
10
279.2343557149
20
7.7904530998
11
233.2343632522
21
7.7904530998
0
ENDBLK
5
22B
100
AcDbEntity
8
0
100
AcDbBlockEnd
0
BLOCK
5
22C
100
AcDbEntity
8
0
100
AcDbBlockBegin
62
2
6
CONTINUOUS
2
*D0
70
65
10
0.0000000000
20
0.0000000000
3
*D0
1

0
TEXT
5
22D
100
AcDbEntity
8
0
100
AcDbText
62
2
6
CONTINUOUS
10
209.4694705261
20
99.1925177985
7
TEXTSTYLE_1
40
3.5000000000
1
=
50
90.0000000000
41
0.4000000000
72
0
100
AcDbText
0
TEXT
5
22E
100
AcDbEntity
8
0
100
AcDbText
62
2
6
CONTINUOUS
10
209.4694705261
20
103.1591844652
7
TEXTSTYLE_1
40
3.5000000000
1
=
50
90.0000000000
41
0.4000000000
72
0
100
AcDbText
0
TEXT
5
22F
100
AcDbEntity
8
0
100
AcDbText
62
2
6
CONTINUOUS
10
209.4694705261
20
100.5925177985
7
TEXTSTYLE_1
40
3.5000000000
1
7
50
90.0000000000
41
0.7333333333
72
0
100
AcDbText
0
LINE
5
230
100
AcDbEntity
8
0
100
AcDbLine
62
2
6
CONTINUOUS
10
193.7389408404
20
105.2211521759
11
213.5444705261
21
105.2211521759
0
LINE
5
231
100
AcDbEntity
8
0
100
AcDbLine
62
2
6
CONTINUOUS
10
190.2748392252
20
98.2211521759
11
213.5444705261
21
98.2211521759
0
LINE
5
232
100
AcDbEntity
8
0
100
AcDbLine
62
2
6
CONTINUOUS
10
210.3444705261
20
105.2211521759
11
210.3444705261
21
107.2211521759
0
LINE
5
233
100
AcDbEntity
8
0
100
AcDbLine
62
2
6
CONTINUOUS
10
210.3444705261
20
107.2211521759
11
210.3444705261
21
101.7211521759
0
LINE
5
234
100
AcDbEntity
8
0
100
AcDbLine
62
2
6
CONTINUOUS
10
210.3444705261
20
98.2211521759
11
210.3444705261
21
96.2211521759
0
LINE
5
235
100
AcDbEntity
8
0
100
AcDbLine
62
2
6
CONTINUOUS
10
210.3444705261
20
96.2211521759
11
210.3444705261
21
101.7211521759
0
SOLID
5
236
100
AcDbEntity
8
0
100
AcDbTrace
62
2
6
CONTINUOUS
10
209.5444705261
20
109.7211521759
11
210.3444705261
21
105.2211521759
12
211.1444705261
22
109.7211521759
13
211.1444705261
23
109.7211521759
0
SOLID
5
237
100
AcDbEntity
8
0
100
AcDbTrace
62
2
6
CONTINUOUS
10
211.1444705261
20
93.7211521759
11
210.3444705261
21
98.2211521759
12
209.5444705261
22
93.7211521759
13
209.5444705261
23
93.7211521759
0
ENDBLK
5
238
100
AcDbEntity
8
0
100
AcDbBlockEnd
0
BLOCK
5
239
100
AcDbEntity
8
0
100
AcDbBlockBegin
62
2
6
CONTINUOUS
2
*D1
70
65
10
0.0000000000
20
0.0000000000
3
*D1
1

0
TEXT
5
23A
100
AcDbEntity
8
0
100
AcDbText
62
2
6
CONTINUOUS
10
177.0340351552
20
137.5841083789
7
TEXTSTYLE_1
40
3.5000000000
1
25
41
0.7333333333
72
0
100
AcDbText
0
LINE
5
23B
100
AcDbEntity
8
0
100
AcDbLine
62
2
6
CONTINUOUS
10
167.2389408404
20
105.7211521759
11
167.2389408404
21
118.3591859826
0
LINE
5
23C
100
AcDbEntity
8
0
100
AcDbLine
62
2
6
CONTINUOUS
10
167.2389408404
20
128.1112277389
11
167.2389408404
21
139.9091083789
0
LINE
5
23D
100
AcDbEntity
8
0
100
AcDbLine
62
2
6
CONTINUOUS
10
192.2389408404
20
105.7211521759
11
192.2389408404
21
139.9091083789
0
LINE
5
23E
100
AcDbEntity
8
0
100
AcDbLine
62
2
6
CONTINUOUS
10
167.2389408404
20
136.7091083789
11
179.7389408404
21
136.7091083789
0
LINE
5
23F
100
AcDbEntity
8
0
100
AcDbLine
62
2
6
CONTINUOUS
10
192.2389408404
20
136.7091083789
11
179.7389408404
21
136.7091083789
0
SOLID
5
240
100
AcDbEntity
8
0
100
AcDbTrace
62
2
6
CONTINUOUS
10
171.7389408404
20
137.5091083789
11
167.2389408404
21
136.7091083789
12
171.7389408404
22
135.9091083789
13
171.7389408404
23
135.9091083789
0
SOLID
5
241
100
AcDbEntity
8
0
100
AcDbTrace
62
2
6
CONTINUOUS
10
187.7389408404
20
135.9091083789
11
192.2389408404
21
136.7091083789
12
187.7389408404
22
137.5091083789
13
187.7389408404
23
137.5091083789
0
ENDBLK
5
242
100
AcDbEntity
8
0
100
AcDbBlockEnd
0
BLOCK
5
243
100
AcDbEntity
8
0
100
AcDbBlockBegin
62
2
6
CONTINUOUS
2
*D2
70
65
10
0.0000000000
20
0.0000000000
3
*D2
1

0
TEXT
5
244
100
AcDbEntity
8
0
100
AcDbText
62
2
6
CONTINUOUS
10
175.3954042959
20
148.6144924002
7
TEXTSTYLE_1
40
3.5000000000
1
=
41
0.4000000000
72
0
100
AcDbText
0
TEXT
5
245
100
AcDbEntity
8
0
100
AcDbText
62
2
6
CONTINUOUS
10
184.2620709625
20
148.6144924002
7
TEXTSTYLE_1
40
3.5000000000
1
=
41
0.4000000000
72
0
100
AcDbText
0
TEXT
5
246
100
AcDbEntity
8
0
100
AcDbText
62
2
6
CONTINUOUS
10
176.7954042959
20
148.6144924002
7
TEXTSTYLE_1
40
3.5000000000
1
60%%d
41
0.7111111111
72
0
100
AcDbText
0
LINE
5
247
100
AcDbEntity
8
0
100
AcDbLine
62
2
6
CONTINUOUS
10
192.7625767359
20
105.1281161516
11
215.2382286961
21
144.0570872799
0
LINE
5
248
100
AcDbEntity
8
0
100
AcDbLine
62
2
6
CONTINUOUS
10
166.7344961069
20
105.0948760838
11
158.7671744215
21
118.8946820433
0
LINE
5
249
100
AcDbEntity
8
0
100
AcDbLine
62
2
6
CONTINUOUS
10
153.2403453474
20
128.4674308044
11
144.2396529846
21
144.0570872799
0
ARC
5
24A
100
AcDbEntity
8
0
100
AcDbCircle
62
2
6
CONTINUOUS
10
179.7389408404
20
82.5705170813
40
67.7985757115
100
AcDbArc
50
60.0000000000
51
83.5016046026
0
ARC
5
24B
100
AcDbEntity
8
0
100
AcDbCircle
62
2
6
CONTINUOUS
10
179.7389408404
20
82.5705170813
40
67.7985757115
100
AcDbArc
50
95.1565343891
51
120.0000000000
0
SOLID
5
24C
100
AcDbEntity
8
0
100
AcDbTrace
62
2
6
CONTINUOUS
10
213.6382286961
20
141.2858059878
11
209.2918125503
21
142.6995480745
12
210.0453958768
22
144.1109701128
13
210.0453958768
23
144.1109701128
0
SOLID
5
24D
100
AcDbEntity
8
0
100
AcDbTrace
62
2
6
CONTINUOUS
10
145.8396529846
20
141.2858059878
11
149.4324858039
21
144.1109701128
12
150.1860691304
22
142.6995480745
13
150.1860691304
23
142.6995480745
0
ENDBLK
5
24E
100
AcDbEntity
8
0
100
AcDbBlockEnd
0
BLOCK
5
24F
100
AcDbEntity
8
0
100
AcDbBlockBegin
62
2
6
CONTINUOUS
2
*D3
70
65
10
0.0000000000
20
0.0000000000
3
*D3
1

0
TEXT
5
250
100
AcDbEntity
8
0
100
AcDbText
62
2
6
CONTINUOUS
10
150.2493420392
20
112.2357230360
7
TEXTSTYLE_1
40
3.5000000000
1
1
50
90.0000000000
41
0.3333333333
72
0
100
AcDbText
0
LINE
5
251
100
AcDbEntity
8
0
100
AcDbLine
62
2
6
CONTINUOUS
10
165.7389408404
20
105.2211521759
11
147.9243420392
21
105.2211521759
0
LINE
5
252
100
AcDbEntity
8
0
100
AcDbLine
62
2
6
CONTINUOUS
10
165.7389408404
20
104.2211521759
11
147.9243420392
21
104.2211521759
0
LINE
5
253
100
AcDbEntity
8
0
100
AcDbLine
62
2
6
CONTINUOUS
10
151.1243420392
20
105.2211521759
11
151.1243420392
21
113.4023897026
0
LINE
5
254
100
AcDbEntity
8
0
100
AcDbLine
62
2
6
CONTINUOUS
10
151.1243420392
20
113.4023897026
11
151.1243420392
21
104.7211521759
0
LINE
5
255
100
AcDbEntity
8
0
100
AcDbLine
62
2
6
CONTINUOUS
10
151.1243420392
20
104.2211521759
11
151.1243420392
21
102.2211521759
0
LINE
5
256
100
AcDbEntity
8
0
100
AcDbLine
62
2
6
CONTINUOUS
10
151.1243420392
20
102.2211521759
11
151.1243420392
21
104.7211521759
0
SOLID
5
257
100
AcDbEntity
8
0
100
AcDbTrace
62
2
6
CONTINUOUS
10
150.3243420392
20
109.7211521759
11
151.1243420392
21
105.2211521759
12
151.9243420392
22
109.7211521759
13
151.9243420392
23
109.7211521759
0
SOLID
5
258
100
AcDbEntity
8
0
100
AcDbTrace
62
2
6
CONTINUOUS
10
151.9243420392
20
99.7211521759
11
151.1243420392
21
104.2211521759
12
150.3243420392
22
99.7211521759
13
150.3243420392
23
99.7211521759
0
ENDBLK
5
259
100
AcDbEntity
8
0
100
AcDbBlockEnd
0
BLOCK
5
25A
100
AcDbEntity
8
0
100
AcDbBlockBegin
62
2
6
CONTINUOUS
2
*D4
70
65
10
0.0000000000
20
0.0000000000
3
*D4
1

0
TEXT
5
25B
100
AcDbEntity
8
0
100
AcDbText
62
2
6
CONTINUOUS
10
163.1767682431
20
85.5424692983
7
TEXTSTYLE_1
40
3.5000000000
1
4
41
0.8000000000
72
0
100
AcDbText
0
LINE
5
25C
100
AcDbEntity
8
0
100
AcDbLine
62
2
6
CONTINUOUS
10
172.2389408404
20
96.7211521759
11
172.2389408404
21
81.4674692983
0
LINE
5
25D
100
AcDbEntity
8
0
100
AcDbLine
62
2
6
CONTINUOUS
10
176.2389408404
20
93.9711521759
11
176.2389408404
21
81.4674692983
0
LINE
5
25E
100
AcDbEntity
8
0
100
AcDbLine
62
2
6
CONTINUOUS
10
172.2389408404
20
84.6674692983
11
163.1767682431
21
84.6674692983
0
LINE
5
25F
100
AcDbEntity
8
0
100
AcDbLine
62
2
6
CONTINUOUS
10
163.1767682431
20
84.6674692983
11
174.2389408404
21
84.6674692983
0
LINE
5
260
100
AcDbEntity
8
0
100
AcDbLine
62
2
6
CONTINUOUS
10
176.2389408404
20
84.6674692983
11
178.2389408404
21
84.6674692983
0
LINE
5
261
100
AcDbEntity
8
0
100
AcDbLine
62
2
6
CONTINUOUS
10
178.2389408404
20
84.6674692983
11
174.2389408404
21
84.6674692983
0
SOLID
5
262
100
AcDbEntity
8
0
100
AcDbTrace
62
2
6
CONTINUOUS
10
167.7389408404
20
83.8674692983
11
172.2389408404
21
84.6674692983
12
167.7389408404
22
85.4674692983
13
167.7389408404
23
85.4674692983
0
POLYLINE
5
263
100
AcDbEntity
8
0
100
AcDb2dPolyline
62
2
6
CONTINUOUS
66
1
70
0
0
VERTEX
5
264
100
AcDbEntity
8
0
100
AcDbVertex
62
2
6
CONTINUOUS
100
AcDb2dVertex
10
175.8389408404
20
84.6674692983
40
0.8000000000
41
0.8000000000
42
1.0000000000
0
VERTEX
5
265
100
AcDbEntity
8
0
100
AcDbVertex
62
2
6
CONTINUOUS
100
AcDb2dVertex
10
176.6389408404
20
84.6674692983
40
0.8000000000
41
0.8000000000
42
1.0000000000
0
VERTEX
5
266
100
AcDbEntity
8
0
100
AcDbVertex
62
2
6
CONTINUOUS
100
AcDb2dVertex
10
175.8389408404
20
84.6674692983
40
0.8000000000
41
0.8000000000
0
SEQEND
5
267
100
AcDbEntity
8
0
0
ENDBLK
5
268
100
AcDbEntity
8
0
100
AcDbBlockEnd
0
BLOCK
5
269
100
AcDbEntity
8
0
100
AcDbBlockBegin
62
2
6
CONTINUOUS
2
*D5
70
65
10
0.0000000000
20
0.0000000000
3
*D5
1

0
TEXT
5
26A
100
AcDbEntity
8
0
100
AcDbText
62
2
6
CONTINUOUS
10
178.5596698319
20
85.5424692983
7
TEXTSTYLE_1
40
3.5000000000
1
7
41
0.7333333333
72
0
100
AcDbText
0
LINE
5
26B
100
AcDbEntity
8
0
100
AcDbLine
62
2
6
CONTINUOUS
10
176.2389408404
20
93.9711521759
11
176.2389408404
21
81.4674692983
0
LINE
5
26C
100
AcDbEntity
8
0
100
AcDbLine
62
2
6
CONTINUOUS
10
183.2389408404
20
93.9711521759
11
183.2389408404
21
81.4674692983
0
LINE
5
26D
100
AcDbEntity
8
0
100
AcDbLine
62
2
6
CONTINUOUS
10
176.2389408404
20
84.6674692983
11
174.2389408404
21
84.6674692983
0
LINE
5
26E
100
AcDbEntity
8
0
100
AcDbLine
62
2
6
CONTINUOUS
10
174.2389408404
20
84.6674692983
11
179.7389408404
21
84.6674692983
0
LINE
5
26F
100
AcDbEntity
8
0
100
AcDbLine
62
2
6
CONTINUOUS
10
183.2389408404
20
84.6674692983
11
185.2389408404
21
84.6674692983
0
LINE
5
270
100
AcDbEntity
8
0
100
AcDbLine
62
2
6
CONTINUOUS
10
185.2389408404
20
84.6674692983
11
179.7389408404
21
84.6674692983
0
POLYLINE
5
271
100
AcDbEntity
8
0
100
AcDb2dPolyline
62
2
6
CONTINUOUS
66
1
70
0
0
VERTEX
5
272
100
AcDbEntity
8
0
100
AcDbVertex
62
2
6
CONTINUOUS
100
AcDb2dVertex
10
175.8389408404
20
84.6674692983
40
0.8000000000
41
0.8000000000
42
1.0000000000
0
VERTEX
5
273
100
AcDbEntity
8
0
100
AcDbVertex
62
2
6
CONTINUOUS
100
AcDb2dVertex
10
176.6389408404
20
84.6674692983
40
0.8000000000
41
0.8000000000
42
1.0000000000
0
VERTEX
5
274
100
AcDbEntity
8
0
100
AcDbVertex
62
2
6
CONTINUOUS
100
AcDb2dVertex
10
175.8389408404
20
84.6674692983
40
0.8000000000
41
0.8000000000
0
SEQEND
5
275
100
AcDbEntity
8
0
0
SOLID
5
276
100
AcDbEntity
8
0
100
AcDbTrace
62
2
6
CONTINUOUS
10
187.7389408404
20
85.4674692983
11
183.2389408404
21
84.6674692983
12
187.7389408404
22
83.8674692983
13
187.7389408404
23
83.8674692983
0
ENDBLK
5
277
100
AcDbEntity
8
0
100
AcDbBlockEnd
0
BLOCK
5
278
100
AcDbEntity
8
0
100
AcDbBlockBegin
62
2
6
CONTINUOUS
2
*D6
70
65
10
0.0000000000
20
0.0000000000
3
*D6
1

0
TEXT
5
279
100
AcDbEntity
8
0
100
AcDbText
62
2
6
CONTINUOUS
10
157.9987149520
20
247.7700885906
7
TEXTSTYLE_1
40
3.5000000000
1
5
41
0.7333333333
72
0
100
AcDbText
0
LINE
5
27A
100
AcDbEntity
8
0
100
AcDbLine
62
2
6
CONTINUOUS
10
167.2389408404
20
238.9949391589
11
167.2389408404
21
250.0950885906
0
LINE
5
27B
100
AcDbEntity
8
0
100
AcDbLine
62
2
6
CONTINUOUS
10
172.2389408404
20
238.9949391589
11
172.2389408404
21
250.0950885906
0
LINE
5
27C
100
AcDbEntity
8
0
100
AcDbLine
62
2
6
CONTINUOUS
10
167.2389408404
20
246.8950885906
11
157.9987149520
21
246.8950885906
0
LINE
5
27D
100
AcDbEntity
8
0
100
AcDbLine
62
2
6
CONTINUOUS
10
157.9987149520
20
246.8950885906
11
169.7389408404
21
246.8950885906
0
LINE
5
27E
100
AcDbEntity
8
0
100
AcDbLine
62
2
6
CONTINUOUS
10
172.2389408404
20
246.8950885906
11
174.2389408404
21
246.8950885906
0
LINE
5
27F
100
AcDbEntity
8
0
100
AcDbLine
62
2
6
CONTINUOUS
10
174.2389408404
20
246.8950885906
11
169.7389408404
21
246.8950885906
0
SOLID
5
280
100
AcDbEntity
8
0
100
AcDbTrace
62
2
6
CONTINUOUS
10
162.7389408404
20
246.0950885906
11
167.2389408404
21
246.8950885906
12
162.7389408404
22
247.6950885906
13
162.7389408404
23
247.6950885906
0
SOLID
5
281
100
AcDbEntity
8
0
100
AcDbTrace
62
2
6
CONTINUOUS
10
176.7389408404
20
247.6950885906
11
172.2389408404
21
246.8950885906
12
176.7389408404
22
246.0950885906
13
176.7389408404
23
246.0950885906
0
ENDBLK
5
282
100
AcDbEntity
8
0
100
AcDbBlockEnd
0
BLOCK
5
283
100
AcDbEntity
8
0
100
AcDbBlockBegin
62
2
6
CONTINUOUS
2
*D7
70
65
10
0.0000000000
20
0.0000000000
3
*D7
1

0
TEXT
5
284
100
AcDbEntity
8
0
100
AcDbText
62
2
6
CONTINUOUS
10
189.6555310588
20
248.6450885906
7
TEXTSTYLE_1
40
3.5000000000
1
15
41
0.5333333333
72
0
100
AcDbText
0
TEXT
5
285
100
AcDbEntity
8
0
100
AcDbText
62
2
6
CONTINUOUS
10
193.3888643921
20
250.7450885906
7
TEXTSTYLE_1
40
2.1000000000
1
+0,4
41
0.5625000000
72
0
100
AcDbText
0
TEXT
5
286
100
AcDbEntity
8
0
100
AcDbText
62
2
6
CONTINUOUS
10
193.3888643921
20
247.9450885906
7
TEXTSTYLE_1
40
2.1000000000
1
+0,2
41
0.5458333333
72
0
100
AcDbText
0
LINE
5
287
100
AcDbEntity
8
0
100
AcDbLine
62
2
6
CONTINUOUS
10
172.2389408404
20
238.9949391589
11
172.2389408404
21
250.0950885906
0
LINE
5
288
100
AcDbEntity
8
0
100
AcDbLine
62
2
6
CONTINUOUS
10
187.2389408404
20
238.9949391589
11
187.2389408404
21
250.0950885906
0
LINE
5
289
100
AcDbEntity
8
0
100
AcDbLine
62
2
6
CONTINUOUS
10
172.2389408404
20
246.8950885906
11
179.7389408404
21
246.8950885906
0
LINE
5
28A
100
AcDbEntity
8
0
100
AcDbLine
62
2
6
CONTINUOUS
10
187.2389408404
20
246.8950885906
11
179.7389408404
21
246.8950885906
0
LINE
5
28B
100
AcDbEntity
8
0
100
AcDbLine
62
2
6
CONTINUOUS
10
179.7389408404
20
246.8950885906
11
198.1138643921
21
246.8950885906
0
SOLID
5
28C
100
AcDbEntity
8
0
100
AcDbTrace
62
2
6
CONTINUOUS
10
176.7389408404
20
247.6950885906
11
172.2389408404
21
246.8950885906
12
176.7389408404
22
246.0950885906
13
176.7389408404
23
246.0950885906
0
SOLID
5
28D
100
AcDbEntity
8
0
100
AcDbTrace
62
2
6
CONTINUOUS
10
182.7389408404
20
246.0950885906
11
187.2389408404
21
246.8950885906
12
182.7389408404
22
247.6950885906
13
182.7389408404
23
247.6950885906
0
ENDBLK
5
28E
100
AcDbEntity
8
0
100
AcDbBlockEnd
0
BLOCK
5
28F
100
AcDbEntity
8
0
100
AcDbBlockBegin
62
2
6
CONTINUOUS
2
*D8
70
65
10
0.0000000000
20
0.0000000000
3
*D8
1

0
TEXT
5
290
100
AcDbEntity
8
0
100
AcDbText
62
2
6
CONTINUOUS
10
154.7162393259
20
223.8735849596
7
TEXTSTYLE_1
40
3.5000000000
1
22
50
90.0000000000
41
0.7333333333
72
0
100
AcDbText
0
LINE
5
291
100
AcDbEntity
8
0
100
AcDbLine
62
2
6
CONTINUOUS
10
165.7389408404
20
237.4949391589
11
152.3912393259
21
237.4949391589
0
LINE
5
292
100
AcDbEntity
8
0
100
AcDbLine
62
2
6
CONTINUOUS
10
165.7389408404
20
215.4949391589
11
152.3912393259
21
215.4949391589
0
LINE
5
293
100
AcDbEntity
8
0
100
AcDbLine
62
2
6
CONTINUOUS
10
155.5912393259
20
237.4949391589
11
155.5912393259
21
226.4949391589
0
LINE
5
294
100
AcDbEntity
8
0
100
AcDbLine
62
2
6
CONTINUOUS
10
155.5912393259
20
215.4949391589
11
155.5912393259
21
226.4949391589
0
SOLID
5
295
100
AcDbEntity
8
0
100
AcDbTrace
62
2
6
CONTINUOUS
10
156.3912393259
20
232.9949391589
11
155.5912393259
21
237.4949391589
12
154.7912393259
22
232.9949391589
13
154.7912393259
23
232.9949391589
0
SOLID
5
296
100
AcDbEntity
8
0
100
AcDbTrace
62
2
6
CONTINUOUS
10
154.7912393259
20
219.9949391589
11
155.5912393259
21
215.4949391589
12
156.3912393259
22
219.9949391589
13
156.3912393259
23
219.9949391589
0
ENDBLK
5
297
100
AcDbEntity
8
0
100
AcDbBlockEnd
0
BLOCK
5
298
100
AcDbEntity
8
0
100
AcDbBlockBegin
62
2
6
CONTINUOUS
2
*D9
70
65
10
0.0000000000
20
0.0000000000
3
*D9
1

0
TEXT
5
299
100
AcDbEntity
8
0
100
AcDbText
62
2
6
CONTINUOUS
10
207.1678706299
20
244.1709826810
7
TEXTSTYLE_1
40
3.5000000000
1
2,5
50
90.0000000000
41
0.5944444444
72
0
100
AcDbText
0
LINE
5
29A
100
AcDbEntity
8
0
100
AcDbLine
62
2
6
CONTINUOUS
10
188.7389408404
20
234.9949391589
11
211.2428706299
21
234.9949391589
0
LINE
5
29B
100
AcDbEntity
8
0
100
AcDbLine
62
2
6
CONTINUOUS
10
193.7389408404
20
237.4949391589
11
211.2428706299
21
237.4949391589
0
LINE
5
29C
100
AcDbEntity
8
0
100
AcDbLine
62
2
6
CONTINUOUS
10
208.0428706299
20
234.9949391589
11
208.0428706299
21
232.9949391589
0
LINE
5
29D
100
AcDbEntity
8
0
100
AcDbLine
62
2
6
CONTINUOUS
10
208.0428706299
20
232.9949391589
11
208.0428706299
21
236.2449391589
0
LINE
5
29E
100
AcDbEntity
8
0
100
AcDbLine
62
2
6
CONTINUOUS
10
208.0428706299
20
237.4949391589
11
208.0428706299
21
250.4126493477
0
LINE
5
29F
100
AcDbEntity
8
0
100
AcDbLine
62
2
6
CONTINUOUS
10
208.0428706299
20
250.4126493477
11
208.0428706299
21
236.2449391589
0
SOLID
5
2A0
100
AcDbEntity
8
0
100
AcDbTrace
62
2
6
CONTINUOUS
10
208.8428706299
20
230.4949391589
11
208.0428706299
21
234.9949391589
12
207.2428706299
22
230.4949391589
13
207.2428706299
23
230.4949391589
0
SOLID
5
2A1
100
AcDbEntity
8
0
100
AcDbTrace
62
2
6
CONTINUOUS
10
207.2428706299
20
241.9949391589
11
208.0428706299
21
237.4949391589
12
208.8428706299
22
241.9949391589
13
208.8428706299
23
241.9949391589
0
ENDBLK
5
2A2
100
AcDbEntity
8
0
100
AcDbBlockEnd
0
BLOCK
5
2A3
100
AcDbEntity
8
0
100
AcDbBlockBegin
62
2
6
CONTINUOUS
2
*D10
70
65
10
0.0000000000
20
0.0000000000
3
*D10
1

0
TEXT
5
2A4
100
AcDbEntity
8
0
100
AcDbText
62
2
6
CONTINUOUS
10
160.1849055109
20
206.6423759938
7
TEXTSTYLE_1
40
3.5000000000
1
2M
41
0.8333333333
72
0
100
AcDbText
0
TEXT
5
2A5
100
AcDbEntity
8
0
100
AcDbText
62
2
6
CONTINUOUS
10
166.0182388443
20
206.6423759938
7
TEXTSTYLE_1
40
3.5000000000
1
3
41
0.7333333333
72
0
100
AcDbText
0
LINE
5
2A6
100
AcDbEntity
8
0
100
AcDbLine
62
2
6
CONTINUOUS
10
174.7389408404
20
213.9949391589
11
174.7389408404
21
202.5673759938
0
LINE
5
2A7
100
AcDbEntity
8
0
100
AcDbLine
62
2
6
CONTINUOUS
10
177.7389408404
20
213.9949391589
11
177.7389408404
21
202.5673759938
0
LINE
5
2A8
100
AcDbEntity
8
0
100
AcDbLine
62
2
6
CONTINUOUS
10
174.7389408404
20
205.7673759938
11
160.1849055109
21
205.7673759938
0
LINE
5
2A9
100
AcDbEntity
8
0
100
AcDbLine
62
2
6
CONTINUOUS
10
160.1849055109
20
205.7673759938
11
176.2389408404
21
205.7673759938
0
LINE
5
2AA
100
AcDbEntity
8
0
100
AcDbLine
62
2
6
CONTINUOUS
10
177.7389408404
20
205.7673759938
11
179.7389408404
21
205.7673759938
0
LINE
5
2AB
100
AcDbEntity
8
0
100
AcDbLine
62
2
6
CONTINUOUS
10
179.7389408404
20
205.7673759938
11
176.2389408404
21
205.7673759938
0
SOLID
5
2AC
100
AcDbEntity
8
0
100
AcDbTrace
62
2
6
CONTINUOUS
10
170.2389408404
20
204.9673759938
11
174.7389408404
21
205.7673759938
12
170.2389408404
22
206.5673759938
13
170.2389408404
23
206.5673759938
0
SOLID
5
2AD
100
AcDbEntity
8
0
100
AcDbTrace
62
2
6
CONTINUOUS
10
182.2389408404
20
206.5673759938
11
177.7389408404
21
205.7673759938
12
182.2389408404
22
204.9673759938
13
182.2389408404
23
204.9673759938
0
ENDBLK
5
2AE
100
AcDbEntity
8
0
100
AcDbBlockEnd
0
BLOCK
5
2AF
100
AcDbEntity
8
0
100
AcDbBlockBegin
62
2
6
CONTINUOUS
2
*D11
70
65
10
0.0000000000
20
0.0000000000
3
*D11
1

0
TEXT
5
2B0
100
AcDbEntity
8
0
100
AcDbText
62
2
6
CONTINUOUS
10
134.7403596904
20
121.9347513921
7
TEXTSTYLE_1
40
3.5000000000
1
2 CH 2,5x
41
0.7129629630
72
0
100
AcDbText
0
TEXT
5
2B1
100
AcDbEntity
8
0
100
AcDbText
62
2
6
CONTINUOUS
10
157.1986930237
20
121.9347513921
7
TEXTSTYLE_1
40
3.5000000000
1
2,5
41
0.5944444444
72
0
100
AcDbText
0
LINE
5
2B2
100
AcDbEntity
8
0
100
AcDbLine
62
2
6
CONTINUOUS
10
172.2389408404
20
104.2211521759
11
172.2389408404
21
124.2597513921
0
LINE
5
2B3
100
AcDbEntity
8
0
100
AcDbLine
62
2
6
CONTINUOUS
10
169.7389408404
20
106.7211521759
11
169.7389408404
21
124.2597513921
0
LINE
5
2B4
100
AcDbEntity
8
0
100
AcDbLine
62
2
6
CONTINUOUS
10
172.2389408404
20
121.0597513921
11
174.2389408404
21
121.0597513921
0
LINE
5
2B5
100
AcDbEntity
8
0
100
AcDbLine
62
2
6
CONTINUOUS
10
174.2389408404
20
121.0597513921
11
170.9889408404
21
121.0597513921
0
LINE
5
2B6
100
AcDbEntity
8
0
100
AcDbLine
62
2
6
CONTINUOUS
10
169.7389408404
20
121.0597513921
11
134.7403596904
21
121.0597513921
0
LINE
5
2B7
100
AcDbEntity
8
0
100
AcDbLine
62
2
6
CONTINUOUS
10
134.7403596904
20
121.0597513921
11
170.9889408404
21
121.0597513921
0
SOLID
5
2B8
100
AcDbEntity
8
0
100
AcDbTrace
62
2
6
CONTINUOUS
10
176.7389408404
20
121.8597513921
11
172.2389408404
21
121.0597513921
12
176.7389408404
22
120.2597513921
13
176.7389408404
23
120.2597513921
0
SOLID
5
2B9
100
AcDbEntity
8
0
100
AcDbTrace
62
2
6
CONTINUOUS
10
165.2389408404
20
120.2597513921
11
169.7389408404
21
121.0597513921
12
165.2389408404
22
121.8597513921
13
165.2389408404
23
121.8597513921
0
ENDBLK
5
2BA
100
AcDbEntity
8
0
100
AcDbBlockEnd
0
BLOCK
5
2BB
100
AcDbEntity
8
0
100
AcDbBlockBegin
62
2
6
CONTINUOUS
2
N-CAR_BL2
70
64
10
0.0000000000
20
0.0000000000
3
N-CAR_BL2
1

0
TEXT
5
2BC
100
AcDbEntity
8
0
100
AcDbText
62
2
6
CONTINUOUS
10
130.4361875761
20
25.3256121832
7
STANDARD
40
2.9999987760
1
3,2
41
0.5000000000
72
0
100
AcDbText
0
TEXT
5
2BD
100
AcDbEntity
8
0
100
AcDbText
62
2
6
CONTINUOUS
10
145.4607855116
20
25.3035661322
7
STANDARD
40
2.9999987760
1
.
41
0.5000000000
72
0
100
AcDbText
0
TEXT
5
2BE
100
AcDbEntity
8
0
100
AcDbText
62
2
6
CONTINUOUS
10
155.4588449450
20
25.2862676282
7
STANDARD
40
2.9999987760
1
.
41
0.5000000000
72
0
100
AcDbText
0
TEXT
5
2BF
100
AcDbEntity
8
0
100
AcDbText
62
2
6
CONTINUOUS
10
165.5072560285
20
25.3121105812
7
STANDARD
40
2.9999987760
1
.
41
0.5000000000
72
0
100
AcDbText
0
LINE
5
2C0
100
AcDbEntity
8
0
100
AcDbLine
62
7
6
CONTINUOUS
10
175.5823957320
20
28.1688072792
11
177.5900805095
21
28.1688072792
0
LINE
5
2C1
100
AcDbEntity
8
0
100
AcDbLine
62
7
6
CONTINUOUS
10
177.5900805095
20
28.1688072792
11
177.5900805095
21
18.1688113592
0
LINE
5
2C2
100
AcDbEntity
8
0
100
AcDbLine
62
7
6
CONTINUOUS
10
175.5823957320
20
18.1688113592
11
177.5900805095
21
18.1688113592
0
LINE
5
2C3
100
AcDbEntity
8
0
100
AcDbLine
62
7
6
CONTINUOUS
10
175.1746662265
20
26.3341262209
11
172.1406854892
21
26.3341262209
0
LINE
5
2C4
100
AcDbEntity
8
0
100
AcDbLine
62
7
6
CONTINUOUS
10
172.1406854892
20
26.3341262209
11
169.7748045634
21
19.2364834435
0
LINE
5
2C5
100
AcDbEntity
8
0
100
AcDbLine
62
7
6
CONTINUOUS
10
169.7748045634
20
19.2364834435
11
167.4327843452
21
24.3463457378
0
LINE
5
2C6
100
AcDbEntity
8
0
100
AcDbLine
62
7
6
CONTINUOUS
10
155.1746743865
20
26.3341262209
11
152.1406936492
21
26.3341262209
0
LINE
5
2C7
100
AcDbEntity
8
0
100
AcDbLine
62
7
6
CONTINUOUS
10
152.1406936492
20
26.3341262209
11
149.7748127234
21
19.2364834435
0
LINE
5
2C8
100
AcDbEntity
8
0
100
AcDbLine
62
7
6
CONTINUOUS
10
149.7748127234
20
19.2364834435
11
147.4327925052
21
24.3463457378
0
LINE
5
2C9
100
AcDbEntity
8
0
100
AcDbLine
62
7
6
CONTINUOUS
10
165.1746703065
20
26.3341262209
11
162.1406895692
21
26.3341262209
0
LINE
5
2CA
100
AcDbEntity
8
0
100
AcDbLine
62
7
6
CONTINUOUS
10
162.1406895692
20
26.3341262209
11
159.7748086434
21
19.2364834435
0
LINE
5
2CB
100
AcDbEntity
8
0
100
AcDbLine
62
7
6
CONTINUOUS
10
159.7748086434
20
19.2364834435
11
157.4327884252
21
24.3463457378
0
LINE
5
2CC
100
AcDbEntity
8
0
100
AcDbLine
62
7
6
CONTINUOUS
10
142.5900947895
20
28.1688072792
11
144.9857623238
21
28.1688072792
0
LINE
5
2CD
100
AcDbEntity
8
0
100
AcDbLine
62
7
6
CONTINUOUS
10
142.5900947895
20
28.1688072792
11
142.5900947895
21
18.1688113592
0
LINE
5
2CE
100
AcDbEntity
8
0
100
AcDbLine
62
7
6
CONTINUOUS
10
142.5900947895
20
18.1688113592
11
144.9857623238
21
18.1688113592
0
LINE
5
2CF
100
AcDbEntity
8
0
100
AcDbLine
62
7
6
CONTINUOUS
10
140.1746805065
20
26.3341262209
11
137.1406997692
21
26.3341262209
0
LINE
5
2D0
100
AcDbEntity
8
0
100
AcDbLine
62
7
6
CONTINUOUS
10
137.1406997692
20
26.3341262209
11
134.7748188434
21
19.2364834435
0
LINE
5
2D1
100
AcDbEntity
8
0
100
AcDbLine
62
7
6
CONTINUOUS
10
134.7748188434
20
19.2364834435
11
132.4327986251
21
24.3463457378
0
ARC
5
2D2
100
AcDbEntity
8
0
100
AcDbCircle
62
7
6
CONTINUOUS
10
127.2426371177
20
24.0454446731
40
2.4999989800
100
AcDbArc
50
177.5591686478
51
2.4408313522
0
ARC
5
2D3
100
AcDbEntity
8
0
100
AcDbCircle
62
7
6
CONTINUOUS
10
122.2426391577
20
24.0454446731
40
2.4999989800
100
AcDbArc
50
0.0000000000
51
177.5591686478
0
ENDBLK
5
2D4
100
AcDbEntity
8
0
100
AcDbBlockEnd
0
ENDSEC
0
SECTION
2
ENTITIES
0
TEXT
5
2D5
100
AcDbEntity
8
0
100
AcDbText
62
2
6
CONTINUOUS
10
269.7574436002
20
-4.9007807969
7
STANDARD
40
2.0000000000
1
22/96a
41
0.8000000000
72
0
100
AcDbText
0
INSERT
5
2D6
100
AcDbEntity
8
0
100
AcDbBlockReference
62
2
6
CONTINUOUS
2
N-DES_BL0
10
0.0000000000
20
0.0000000000
0
INSERT
5
2D7
100
AcDbEntity
8
0
100
AcDbBlockReference
62
2
6
CONTINUOUS
2
N-CART_BL1
10
0.0000000000
20
0.0000000000
0
SOLID
5
2D8
100
AcDbEntity
8
0
100
AcDbTrace
62
7
6
CONTINUOUS
10
137.5407867515
20
101.7211521759
11
138.7907867515
21
96.7211521759
12
136.2907867515
22
96.7211521759
13
136.2907867515
23
96.7211521759
0
TEXT
5
2D9
100
AcDbEntity
8
0
100
AcDbText
62
7
6
CONTINUOUS
10
133.3407867515
20
92.4477573808
7
TEXTSTYLE_1
40
3.5000000000
1
A
41
0.8000000000
72
0
100
AcDbText
0
SOLID
5
2DA
100
AcDbEntity
8
0
100
AcDbTrace
62
7
6
CONTINUOUS
10
226.5850911595
20
101.7211521759
11
227.8350911595
21
96.7211521759
12
225.3350911595
22
96.7211521759
13
225.3350911595
23
96.7211521759
0
TEXT
5
2DB
100
AcDbEntity
8
0
100
AcDbText
62
7
6
CONTINUOUS
10
227.9850911595
20
92.4477573808
7
TEXTSTYLE_1
40
3.5000000000
1
A
41
0.8000000000
72
0
100
AcDbText
0
DIMENSION
5
2DC
100
AcDbEntity
8
0
100
AcDbDimension
62
2
6
CONTINUOUS
2
*D0
10
210.3444705261
20
98.2211521759
11
207.7194705261
21
101.8758511318
70
160
1
=<>=
3
DIMSTYLE_1
100
AcDbAlignedDimension
13
193.7389408404
23
105.2211521759
14
190.2748392252
24
98.2211521759
50
270.000000
100
AcDbRotatedDimension
0
DIMENSION
5
2DD
100
AcDbEntity
8
0
100
AcDbDimension
62
2
6
CONTINUOUS
2
*D1
10
192.2389408404
20
136.7091083789
11
179.6007018219
21
139.3341083789
70
160
3
DIMSTYLE_1
100
AcDbAlignedDimension
13
167.2389408404
23
105.7211521759
14
192.2389408404
24
105.7211521759
100
AcDbRotatedDimension
0
DIMENSION
5
2DE
100
AcDbEntity
8
0
100
AcDbDimension
62
2
6
CONTINUOUS
2
*D2
10
166.7344961069
20
105.0948760838
11
180.5287376292
21
150.3644924002
70
162
1
=<>=
3
DIMSTYLE_2
100
AcDb2LineAngularDimension
13
192.7625767359
23
105.1281161516
14
215.2382286961
24
144.0570872799
15
144.2396529846
25
144.0570872799
16
179.7389408404
26
150.3690927928
0
DIMENSION
5
2DF
100
AcDbEntity
8
0
100
AcDbDimension
62
2
6
CONTINUOUS
2
*D3
10
151.1243420392
20
104.2211521759
11
148.4993420392
21
112.8190563693
70
160
3
DIMSTYLE_1
100
AcDbAlignedDimension
13
165.7389408404
23
105.2211521759
14
165.7389408404
24
104.2211521759
50
270.000000
100
AcDbRotatedDimension
0
DIMENSION
5
2E0
100
AcDbEntity
8
0
100
AcDbDimension
62
2
6
CONTINUOUS
2
*D4
10
176.2389408404
20
84.6674692983
11
164.5767682431
21
87.2924692983
70
160
3
DIMSTYLE_1
100
AcDbAlignedDimension
13
172.2389408404
23
96.7211521759
14
176.2389408404
24
93.9711521759
100
AcDbRotatedDimension
0
DIMENSION
5
2E1
100
AcDbEntity
8
0
100
AcDbDimension
62
2
6
CONTINUOUS
2
*D5
10
183.2389408404
20
84.6674692983
11
179.8430031653
21
87.2924692983
70
160
3
DIMSTYLE_1
100
AcDbAlignedDimension
13
176.2389408404
23
93.9711521759
14
183.2389408404
24
93.9711521759
100
AcDbRotatedDimension
0
DIMENSION
5
2E2
100
AcDbEntity
8
0
100
AcDbDimension
62
2
6
CONTINUOUS
2
*D6
10
172.2389408404
20
246.8950885906
11
159.2820482853
21
249.5200885906
70
160
3
DIMSTYLE_1
100
AcDbAlignedDimension
13
167.2389408404
23
238.9949391589
14
172.2389408404
24
238.9949391589
100
AcDbRotatedDimension
0
DIMENSION
5
2E3
100
AcDbEntity
8
0
100
AcDbDimension
62
2
6
CONTINUOUS
2
*D7
10
187.2389408404
20
246.8950885906
11
193.8846977255
21
250.3950885906
70
160
3
DIMSTYLE_3
100
AcDbAlignedDimension
13
172.2389408404
23
238.9949391589
14
187.2389408404
24
238.9949391589
100
AcDbRotatedDimension
0
DIMENSION
5
2E4
100
AcDbEntity
8
0
100
AcDbDimension
62
2
6
CONTINUOUS
2
*D8
10
155.5912393259
20
215.4949391589
11
152.9662393259
21
226.4402516263
70
160
3
DIMSTYLE_4
100
AcDbAlignedDimension
13
165.7389408404
23
237.4949391589
14
165.7389408404
24
215.4949391589
50
270.000000
100
AcDbRotatedDimension
0
DIMENSION
5
2E5
100
AcDbEntity
8
0
100
AcDbDimension
62
2
6
CONTINUOUS
2
*D9
10
208.0428706299
20
237.4949391589
11
205.4178706299
21
247.2918160143
70
160
3
DIMSTYLE_1
100
AcDbAlignedDimension
13
188.7389408404
23
234.9949391589
14
193.7389408404
24
237.4949391589
50
90.000000
100
AcDbRotatedDimension
0
DIMENSION
5
2E6
100
AcDbEntity
8
0
100
AcDbDimension
62
2
6
CONTINUOUS
2
*D10
10
177.7389408404
20
205.7673759938
11
164.3849055109
21
208.3923759938
70
160
1
2M<>
3
DIMSTYLE_1
100
AcDbAlignedDimension
13
174.7389408404
23
213.9949391589
14
177.7389408404
24
213.9949391589
100
AcDbRotatedDimension
0
DIMENSION
5
2E7
100
AcDbEntity
8
0
100
AcDbDimension
62
2
6
CONTINUOUS
2
*D11
10
169.7389408404
20
121.0597513921
11
149.0903596904
21
123.6847513921
70
160
1
2 CH 2,5x<>
3
DIMSTYLE_1
100
AcDbAlignedDimension
13
172.2389408404
23
104.2211521759
14
169.7389408404
24
106.7211521759
50
180.000000
100
AcDbRotatedDimension
0
LINE
5
2E8
100
AcDbEntity
8
0
100
AcDbLine
62
2
6
CONTINUOUS
10
112.9534453993
20
62.3471614684
11
278.9534453993
21
62.3471614684
0
LINE
5
2E9
100
AcDbEntity
8
0
100
AcDbLine
62
2
6
CONTINUOUS
10
112.9534453993
20
62.3471614684
11
112.9534453993
21
-1.6528385316
0
LINE
5
2EA
100
AcDbEntity
8
0
100
AcDbLine
62
2
6
CONTINUOUS
10
112.9534453993
20
57.8471614684
11
278.9534453993
21
57.8471614684
0
LINE
5
2EB
100
AcDbEntity
8
0
100
AcDbLine
62
2
6
CONTINUOUS
10
112.9534453993
20
53.3471614684
11
278.9534453993
21
53.3471614684
0
LINE
5
2EC
100
AcDbEntity
8
0
100
AcDbLine
62
2
6
CONTINUOUS
10
112.9534453993
20
48.8471614684
11
278.9534453993
21
48.8471614684
0
LINE
5
2ED
100
AcDbEntity
8
0
100
AcDbLine
62
2
6
CONTINUOUS
10
112.9534453993
20
44.3471614684
11
278.9534453993
21
44.3471614684
0
LINE
5
2EE
100
AcDbEntity
8
0
100
AcDbLine
62
2
6
CONTINUOUS
10
112.9534453993
20
39.8471614684
11
278.9534453993
21
39.8471614684
0
LINE
5
2EF
100
AcDbEntity
8
0
100
AcDbLine
62
2
6
CONTINUOUS
10
112.9534453993
20
35.3471614684
11
278.9534453993
21
35.3471614684
0
LINE
5
2F0
100
AcDbEntity
8
0
100
AcDbLine
62
2
6
CONTINUOUS
10
232.9534453993
20
26.3471614684
11
278.9534453993
21
26.3471614684
0
LINE
5
2F1
100
AcDbEntity
8
0
100
AcDbLine
62
2
6
CONTINUOUS
10
112.9534453993
20
15.8471614684
11
278.9534453993
21
15.8471614684
0
LINE
5
2F2
100
AcDbEntity
8
0
100
AcDbLine
62
2
6
CONTINUOUS
10
112.9534453993
20
7.8471614684
11
278.9534453993
21
7.8471614684
0
LINE
5
2F3
100
AcDbEntity
8
0
100
AcDbLine
62
2
6
CONTINUOUS
10
112.9534453993
20
-1.6528385316
11
278.9534453993
21
-1.6528385316
0
LINE
5
2F4
100
AcDbEntity
8
0
100
AcDbLine
62
2
6
CONTINUOUS
10
127.9534453993
20
62.3471614684
11
127.9534453993
21
35.3471614684
0
LINE
5
2F5
100
AcDbEntity
8
0
100
AcDbLine
62
2
6
CONTINUOUS
10
142.9534453993
20
62.3471614684
11
142.9534453993
21
35.3471614684
0
LINE
5
2F6
100
AcDbEntity
8
0
100
AcDbLine
62
2
6
CONTINUOUS
10
152.9534453993
20
15.8471614684
11
152.9534453993
21
7.8471614684
0
LINE
5
2F7
100
AcDbEntity
8
0
100
AcDbLine
62
2
6
CONTINUOUS
10
157.9534453993
20
62.3471614684
11
157.9534453993
21
35.3471614684
0
LINE
5
2F8
100
AcDbEntity
8
0
100
AcDbLine
62
2
6
CONTINUOUS
10
172.9534453993
20
62.3471614684
11
172.9534453993
21
35.3471614684
0
LINE
5
2F9
100
AcDbEntity
8
0
100
AcDbLine
62
2
6
CONTINUOUS
10
192.9534453993
20
15.8471614684
11
192.9534453993
21
7.8471614684
0
LINE
5
2FA
100
AcDbEntity
8
0
100
AcDbLine
62
2
6
CONTINUOUS
10
232.9534453993
20
35.3471614684
11
232.9534453993
21
-1.6528385316
0
LINE
5
2FB
100
AcDbEntity
8
0
100
AcDbLine
62
2
6
CONTINUOUS
10
258.9534453993
20
26.3471614684
11
258.9534453993
21
15.8471614684
0
LINE
5
2FC
100
AcDbEntity
8
0
100
AcDbLine
62
2
6
CONTINUOUS
10
278.9534453993
20
62.3471614684
11
278.9534453993
21
-1.6528385316
0
TEXT
5
2FD
100
AcDbEntity
8
0
100
AcDbText
62
2
6
CONTINUOUS
10
119.6534453993
20
59.0971614684
7
STANDARD
40
2.0000000000
1
D
41
0.8000000000
72
1
11
120.4534453993
21
59.0971614684
100
AcDbText
0
TEXT
5
2FE
100
AcDbEntity
8
0
100
AcDbText
62
2
6
CONTINUOUS
10
119.6534453993
20
54.5971614684
7
STANDARD
40
2.0000000000
1
C
41
0.8000000000
72
1
11
120.4534453993
21
54.5971614684
100
AcDbText
0
TEXT
5
2FF
100
AcDbEntity
8
0
100
AcDbText
62
2
6
CONTINUOUS
10
119.6534453993
20
50.0971614684
7
STANDARD
40
2.0000000000
1
B
41
0.8000000000
72
1
11
120.4534453993
21
50.0971614684
100
AcDbText
0
TEXT
5
300
100
AcDbEntity
8
0
100
AcDbText
62
2
6
CONTINUOUS
10
119.6534453993
20
45.5971614684
7
STANDARD
40
2.0000000000
1
A
41
0.8000000000
72
1
11
120.4534453993
21
45.5971614684
100
AcDbText
0
TEXT
5
301
100
AcDbEntity
8
0
100
AcDbText
62
2
6
CONTINUOUS
10
117.2534453993
20
41.0971614684
7
STANDARD
40
2.0000000000
1
IND.
41
0.8000000000
72
1
11
120.4534453993
21
41.0971614684
100
AcDbText
0
TEXT
5
302
100
AcDbEntity
8
0
100
AcDbText
62
2
6
CONTINUOUS
10
132.2534453993
20
41.0971614684
7
STANDARD
40
2.0000000000
1
DATE
41
0.8000000000
72
1
11
135.4534453993
21
41.0971614684
100
AcDbText
0
TEXT
5
303
100
AcDbEntity
8
0
100
AcDbText
62
2
6
CONTINUOUS
10
146.4534453993
20
41.0971614684
7
STANDARD
40
2.0000000000
1
DESS.
41
0.8000000000
72
1
11
150.4534453993
21
41.0971614684
100
AcDbText
0
TEXT
5
304
100
AcDbEntity
8
0
100
AcDbText
62
2
6
CONTINUOUS
10
160.6534453993
20
41.0971614684
7
STANDARD
40
2.0000000000
1
VERIF.
41
0.8000000000
72
1
11
165.4534453993
21
41.0971614684
100
AcDbText
0
TEXT
5
305
100
AcDbEntity
8
0
100
AcDbText
62
2
6
CONTINUOUS
10
215.5534453993
20
41.0971614684
7
STANDARD
40
2.0000000000
1
MODIFICATIONS
41
0.8000000000
72
1
11
225.9534453993
21
41.0971614684
100
AcDbText
0
TEXT
5
306
100
AcDbEntity
8
0
100
AcDbText
62
2
6
CONTINUOUS
10
114.0534453993
20
36.5971614684
7
STANDARD
40
2.0000000000
1
Création
41
0.8000000000
72
1
11
120.4534453993
21
36.5971614684
100
AcDbText
0
TEXT
5
307
100
AcDbEntity
8
0
100
AcDbText
62
2
6
CONTINUOUS
10
128.2534453993
20
36.5971614684
7
STANDARD
40
2.0000000000
1
05-Feb-21
41
0.8000000000
72
1
11
135.4534453993
21
36.5971614684
100
AcDbText
0
TEXT
5
308
100
AcDbEntity
8
0
100
AcDbText
62
2
6
CONTINUOUS
10
145.6534453993
20
36.5971614684
7
STANDARD
40
2.0000000000
1
BALLON
41
0.8000000000
72
1
11
150.4534453993
21
36.5971614684
100
AcDbText
0
TEXT
5
309
100
AcDbEntity
8
0
100
AcDbText
62
2
6
CONTINUOUS
10
163.0534453993
20
36.5971614684
7
STANDARD
40
2.0000000000
1
B.L
41
0.8000000000
72
1
11
165.4534453993
21
36.5971614684
100
AcDbText
0
TEXT
5
30A
100
AcDbEntity
8
0
100
AcDbText
62
2
6
CONTINUOUS
10
173.0159453993
20
36.5971614684
7
STANDARD
40
2.0000000000
1
Annule et remplace plan N%%d:                       ind:
41
0.7975308642
72
0
100
AcDbText
0
TEXT
5
30B
100
AcDbEntity
8
0
100
AcDbText
62
2
6
CONTINUOUS
10
114.3534453993
20
32.0971614684
7
STANDARD
40
2.0000000000
1
ETAT DE SURFACES:
41
0.8000000000
72
1
11
127.9534453993
21
32.0971614684
100
AcDbText
0
TEXT
5
30C
100
AcDbEntity
8
0
100
AcDbText
62
2
6
CONTINUOUS
10
176.5534453993
20
32.0971614684
7
STANDARD
40
2.0000000000
1
CASSER LES ANGLES VIFS: 0,5 x 0,5
41
0.8000000000
72
1
11
202.9534453993
21
32.0971614684
100
AcDbText
0
TEXT
5
30D
100
AcDbEntity
8
0
100
AcDbText
62
2
6
CONTINUOUS
10
238.5867787327
20
19.0971614684
7
TEXTSTYLE_1
40
4.0000000000
1
ECH: 
41
0.6700000000
72
1
11
245.2867787327
21
19.0971614684
100
AcDbText
0
TEXT
5
30E
100
AcDbEntity
8
0
100
AcDbText
62
2
6
CONTINUOUS
10
251.9867787327
20
19.0971614684
7
TEXTSTYLE_1
40
4.0000000000
1
1
41
0.3333333333
72
1
11
252.6534453993
21
19.0971614684
100
AcDbText
0
TEXT
5
30F
100
AcDbEntity
8
0
100
AcDbText
62
2
6
CONTINUOUS
10
265.7534453993
20
19.6948177184
7
TEXTSTYLE_1
40
4.0000000000
1
A4
41
0.8000000000
72
1
11
268.9534453993
21
19.6948177184
100
AcDbText
0
TEXT
5
310
100
AcDbEntity
8
0
100
AcDbText
62
2
6
CONTINUOUS
10
268.8909453993
20
18.4995052184
7
STANDARD
40
0.1562500000
1
 
41
0.8000000000
72
1
11
268.9534453993
21
18.4995052184
100
AcDbText
0
TEXT
5
311
100
AcDbEntity
8
0
100
AcDbText
62
2
6
CONTINUOUS
10
182.1534453993
20
18.5971614684
7
STANDARD
40
2.0000000000
1
TOL. GENERALE: JS13 - js13
41
0.8000000000
72
1
11
202.9534453993
21
18.5971614684
100
AcDbText
0
TEXT
5
312
100
AcDbEntity
8
0
100
AcDbText
62
2
6
CONTINUOUS
10
113.0159453993
20
15.6127864684
7
STANDARD
40
0.1562500000
1
 
41
0.8000000000
72
0
100
AcDbText
0
TEXT
5
313
100
AcDbEntity
8
0
100
AcDbText
62
2
6
CONTINUOUS
10
113.0159453993
20
13.0737239684
7
STANDARD
40
2.0000000000
1
MATIERE
41
0.8000000000
72
0
100
AcDbText
0
TEXT
5
314
100
AcDbEntity
8
0
100
AcDbText
62
2
6
CONTINUOUS
10
113.0159453993
20
8.8237239684
7
STANDARD
40
3.0000000000
1
 
41
0.8000000000
72
0
100
AcDbText
0
TEXT
5
315
100
AcDbEntity
8
0
100
AcDbText
62
2
6
CONTINUOUS
10
153.0159453993
20
15.6127864684
7
STANDARD
40
0.1562500000
1
 
41
0.8000000000
72
0
100
AcDbText
0
TEXT
5
316
100
AcDbEntity
8
0
100
AcDbText
62
2
6
CONTINUOUS
10
153.0159453993
20
13.0737239684
7
STANDARD
40
2.0000000000
1
TRAITEMENT
41
0.8000000000
72
0
100
AcDbText
0
TEXT
5
317
100
AcDbEntity
8
0
100
AcDbText
62
2
6
CONTINUOUS
10
193.0159453993
20
15.6127864684
7
STANDARD
40
0.1562500000
1
 
41
0.8000000000
72
0
100
AcDbText
0
TEXT
5
318
100
AcDbEntity
8
0
100
AcDbText
62
2
6
CONTINUOUS
10
193.0159453993
20
13.0737239684
7
STANDARD
40
2.0000000000
1
PROTECTION
41
0.8000000000
72
0
100
AcDbText
0
TEXT
5
319
100
AcDbEntity
8
0
100
AcDbText
62
2
6
CONTINUOUS
10
243.1201120660
20
9.3085949387
7
TEXTSTYLE_1
40
5.0000000000
1
SECM-GT
41
0.7333333333
51
10.0000000000
72
1
11
255.9534453993
21
9.3085949387
100
AcDbText
0
TEXT
5
31A
100
AcDbEntity
8
0
100
AcDbText
62
2
6
CONTINUOUS
10
132.8909453993
20
12.6127864684
7
STANDARD
40
0.1562500000
1
 
41
0.8000000000
72
1
11
132.9534453993
21
12.6127864684
100
AcDbText
0
TEXT
5
31B
100
AcDbEntity
8
0
100
AcDbText
62
2
6
CONTINUOUS
10
125.1034453993
20
8.8237239684
7
TEXTSTYLE_1
40
3.0000000000
1
7075 T6
41
0.7476190476
72
1
11
132.9534453993
21
8.8237239684
100
AcDbText
0
TEXT
5
31C
100
AcDbEntity
8
0
100
AcDbText
62
2
6
CONTINUOUS
10
131.7534453993
20
4.3237239684
7
STANDARD
40
3.0000000000
1
 
41
0.8000000000
72
1
11
132.9534453993
21
4.3237239684
100
AcDbText
0
TEXT
5
31D
100
AcDbEntity
8
0
100
AcDbText
62
2
6
CONTINUOUS
10
172.8909453993
20
12.6127864684
7
STANDARD
40
0.1562500000
1
 
41
0.8000000000
72
1
11
172.9534453993
21
12.6127864684
100
AcDbText
0
TEXT
5
31E
100
AcDbEntity
8
0
100
AcDbText
62
2
6
CONTINUOUS
10
172.9534453993
20
12.5737239684
7
TEXTSTYLE_1
40
3.0000000000
1

41
1.0000000000
72
1
11
172.9534453993
21
12.5737239684
100
AcDbText
0
TEXT
5
31F
100
AcDbEntity
8
0
100
AcDbText
62
2
6
CONTINUOUS
10
171.7534453993
20
8.8237239684
7
STANDARD
40
3.0000000000
1
 
41
0.8000000000
72
1
11
172.9534453993
21
8.8237239684
100
AcDbText
0
TEXT
5
320
100
AcDbEntity
8
0
100
AcDbText
62
2
6
CONTINUOUS
10
212.8909453993
20
12.6127864684
7
STANDARD
40
0.1562500000
1
 
41
0.8000000000
72
1
11
212.9534453993
21
12.6127864684
100
AcDbText
0
TEXT
5
321
100
AcDbEntity
8
0
100
AcDbText
62
2
6
CONTINUOUS
10
212.9534453993
20
12.5737239684
7
TEXTSTYLE_1
40
3.0000000000
1

41
1.0000000000
72
1
11
212.9534453993
21
12.5737239684
100
AcDbText
0
TEXT
5
322
100
AcDbEntity
8
0
100
AcDbText
62
2
6
CONTINUOUS
10
211.7534453993
20
8.8237239684
7
STANDARD
40
3.0000000000
1
 
41
0.8000000000
72
1
11
212.9534453993
21
8.8237239684
100
AcDbText
0
TEXT
5
323
100
AcDbEntity
8
0
100
AcDbText
62
2
6
CONTINUOUS
10
116.8596953993
20
0.8041927184
7
TEXTSTYLE_1
40
5.0000000000
1
DESIGNATION :
41
0.4951923077
72
1
11
132.9534453993
21
0.8041927184
100
AcDbText
0
TEXT
5
324
100
AcDbEntity
8
0
100
AcDbText
62
2
6
CONTINUOUS
10
132.8909453993
20
0.3901302184
7
STANDARD
40
0.1562500000
1
 
41
0.8000000000
72
1
11
132.9534453993
21
0.3901302184
100
AcDbText
0
TEXT
5
325
100
AcDbEntity
8
0
100
AcDbText
62
2
6
CONTINUOUS
10
174.3284453993
20
0.5971614684
7
TEXTSTYLE_1
40
5.0000000000
1
SUPPORT ACCUS
41
0.5730769231
72
1
11
192.9534453993
21
0.5971614684
100
AcDbText
0
TEXT
5
326
100
AcDbEntity
8
0
100
AcDbText
62
2
6
CONTINUOUS
10
233.0159453993
20
0.8041927184
7
TEXTSTYLE_1
40
5.0000000000
1
 N :   100150
41
0.4971153846
72
0
100
AcDbText
0
TEXT
5
327
100
AcDbEntity
8
0
100
AcDbText
62
2
6
CONTINUOUS
10
233.0159453993
20
0.3901302184
7
TEXTSTYLE_1
40
0.1562500000
1
 
41
0.8000000000
72
0
100
AcDbText
0
TEXT
5
328
100
AcDbEntity
8
0
100
AcDbText
62
2
6
CONTINUOUS
10
167.1426681575
20
270.9069785215
7
TEXTSTYLE_1
40
3.5000000000
1
COUPE 
41
0.7666666667
72
0
100
AcDbText
0
TEXT
5
329
100
AcDbEntity
8
0
100
AcDbText
62
2
6
CONTINUOUS
10
183.2426681575
20
270.9069785215
7
TEXTSTYLE_1
40
3.5000000000
1
A-A
41
0.6555555556
72
0
100
AcDbText
0
INSERT
5
32A
100
AcDbEntity
8
0
100
AcDbBlockReference
62
2
6
CONTINUOUS
2
N-CAR_BL2
10
0.0000000000
20
0.0000000000
0
LINE
5
32B
100
AcDbEntity
8
0
100
AcDbLine
62
7
6
CONTINUOUS
10
74.0000000000
20
-7.0000000000
11
284.0000000000
21
-7.0000000000
0
LINE
5
32C
100
AcDbEntity
8
0
100
AcDbLine
62
7
6
CONTINUOUS
10
79.0000000000
20
-2.0000000000
11
279.0000000000
21
-2.0000000000
0
LINE
5
32D
100
AcDbEntity
8
0
100
AcDbLine
62
7
6
CONTINUOUS
10
74.0000000000
20
-7.0000000000
11
74.0000000000
21
290.0000000000
0
LINE
5
32E
100
AcDbEntity
8
0
100
AcDbLine
62
7
6
CONTINUOUS
10
79.0000000000
20
-2.0000000000
11
79.0000000000
21
285.0000000000
0
LINE
5
32F
100
AcDbEntity
8
0
100
AcDbLine
62
7
6
CONTINUOUS
10
176.1132486541
20
285.0000000000
11
179.0000000000
21
290.0000000000
0
LINE
5
330
100
AcDbEntity
8
0
100
AcDbLine
62
7
6
CONTINUOUS
10
74.0000000000
20
141.5000000000
11
79.0000000000
21
144.3867513459
0
LINE
5
331
100
AcDbEntity
8
0
100
AcDbLine
62
7
6
CONTINUOUS
10
179.0000000000
20
-7.0000000000
11
176.1132486541
21
-2.0000000000
0
LINE
5
332
100
AcDbEntity
8
0
100
AcDbLine
62
7
6
CONTINUOUS
10
74.0000000000
20
141.5000000000
11
79.0000000000
21
138.6132486541
0
LINE
5
333
100
AcDbEntity
8
0
100
AcDbLine
62
7
6
CONTINUOUS
10
279.0000000000
20
138.6132486541
11
284.0000000000
21
141.5000000000
0
LINE
5
334
100
AcDbEntity
8
0
100
AcDbLine
62
7
6
CONTINUOUS
10
179.0000000000
20
-7.0000000000
11
181.8867513459
21
-2.0000000000
0
LINE
5
335
100
AcDbEntity
8
0
100
AcDbLine
62
7
6
CONTINUOUS
10
279.0000000000
20
144.3867513459
11
284.0000000000
21
141.5000000000
0
LINE
5
336
100
AcDbEntity
8
0
100
AcDbLine
62
7
6
CONTINUOUS
10
181.8867513459
20
285.0000000000
11
179.0000000000
21
290.0000000000
0
LINE
5
337
100
AcDbEntity
8
0
100
AcDbLine
62
7
6
CONTINUOUS
10
279.0000000000
20
-2.0000000000
11
279.0000000000
21
285.0000000000
0
LINE
5
338
100
AcDbEntity
8
0
100
AcDbLine
62
7
6
CONTINUOUS
10
284.0000000000
20
-7.0000000000
11
284.0000000000
21
290.0000000000
0
LINE
5
339
100
AcDbEntity
8
0
100
AcDbLine
62
7
6
CONTINUOUS
10
79.0000000000
20
285.0000000000
11
279.0000000000
21
285.0000000000
0
LINE
5
33A
100
AcDbEntity
8
0
100
AcDbLine
62
7
6
CONTINUOUS
10
74.0000000000
20
290.0000000000
11
284.0000000000
21
290.0000000000
0
LINE
5
33B
100
AcDbEntity
8
0
100
AcDbLine
62
7
6
CONTINUOUS
10
137.5407867515
20
101.7211521759
11
137.5407867515
21
100.6977573808
0
LINE
5
33C
100
AcDbEntity
8
0
100
AcDbLine
62
5
6
CONTINUOUS
10
137.5407867515
20
100.6977573808
11
137.5407867515
21
90.6977573808
0
LINE
5
33D
100
AcDbEntity
8
0
100
AcDbLine
62
7
6
CONTINUOUS
10
167.2389408404
20
105.2211521759
11
167.2389408404
21
104.2211521759
0
LINE
5
33E
100
AcDbEntity
8
0
100
AcDbLine
62
7
6
CONTINUOUS
10
170.7030424555
20
98.2211521759
11
167.2389408404
21
104.2211521759
0
LINE
5
33F
100
AcDbEntity
8
0
100
AcDbLine
62
7
6
CONTINUOUS
10
172.2389408404
20
102.7211521759
11
172.2389408404
21
98.2211521759
0
LINE
5
340
100
AcDbEntity
8
0
100
AcDbLine
62
2
6
CONTINUOUS
10
173.6454042959
20
146.8644924002
11
173.6454042959
21
153.8644924002
0
LINE
5
341
100
AcDbEntity
8
0
100
AcDbLine
62
7
6
CONTINUOUS
10
169.7389408404
20
105.2211521759
11
172.2389408404
21
102.7211521759
0
LINE
5
342
100
AcDbEntity
8
DEFAULT_1
100
AcDbLine
62
2
6
CENTER
10
176.2389408404
20
101.7211521759
11
176.2389408404
21
95.4711521759
0
LINE
5
343
100
AcDbEntity
8
DEFAULT_1
100
AcDbLine
62
2
6
CENTER
10
176.2389408404
20
101.7211521759
11
176.2389408404
21
107.9711521759
0
LINE
5
344
100
AcDbEntity
8
0
100
AcDbLine
62
7
6
CONTINUOUS
10
188.7748392252
20
98.2211521759
11
170.7030424555
21
98.2211521759
0
LINE
5
345
100
AcDbEntity
8
DEFAULT_1
100
AcDbLine
62
2
6
CENTER
10
183.2389408404
20
101.7211521759
11
176.9889408404
21
101.7211521759
0
LINE
5
346
100
AcDbEntity
8
DEFAULT_1
100
AcDbLine
62
2
6
CENTER
10
176.2389408404
20
101.7211521759
11
169.9889408404
21
101.7211521759
0
LINE
5
347
100
AcDbEntity
8
0
100
AcDbLine
62
5
6
PHANTOM
10
137.5407867515
20
101.7211521759
11
144.9259306107
21
101.7211521759
0
LINE
5
348
100
AcDbEntity
8
0
100
AcDbLine
62
2
6
PHANTOM
10
156.6738469760
20
101.7211521759
11
166.0915981118
21
101.7211521759
0
LINE
5
349
100
AcDbEntity
8
DEFAULT_1
100
AcDbLine
62
2
6
CENTER
10
176.2389408404
20
101.7211521759
11
176.9889408404
21
101.7211521759
0
LINE
5
34A
100
AcDbEntity
8
DEFAULT_1
100
AcDbLine
62
2
6
CENTER
10
183.2389408404
20
101.7211521759
11
205.1001504751
21
101.7211521759
0
LINE
5
34B
100
AcDbEntity
8
0
100
AcDbLine
62
5
6
PHANTOM
10
219.7824886077
20
101.7211521759
11
226.5850911595
21
101.7211521759
0
LINE
5
34C
100
AcDbEntity
8
DEFAULT_1
100
AcDbLine
62
2
6
CENTER
10
183.2389408404
20
101.7211521759
11
183.2389408404
21
95.4711521759
0
LINE
5
34D
100
AcDbEntity
8
DEFAULT_1
100
AcDbLine
62
2
6
CENTER
10
183.2389408404
20
101.7211521759
11
183.2389408404
21
107.9711521759
0
LINE
5
34E
100
AcDbEntity
8
0
100
AcDbLine
62
7
6
CONTINUOUS
10
192.2389408404
20
105.2211521759
11
167.2389408404
21
105.2211521759
0
LINE
5
34F
100
AcDbEntity
8
0
100
AcDbLine
62
7
6
CONTINUOUS
10
189.7389408404
20
105.2211521759
11
187.2389408404
21
102.7211521759
0
LINE
5
350
100
AcDbEntity
8
0
100
AcDbLine
62
7
6
CONTINUOUS
10
187.2389408404
20
102.7211521759
11
187.2389408404
21
98.2211521759
0
LINE
5
351
100
AcDbEntity
8
0
100
AcDbLine
62
2
6
CONTINUOUS
10
187.4120709625
20
153.8644924002
11
187.4120709625
21
146.8644924002
0
LINE
5
352
100
AcDbEntity
8
0
100
AcDbLine
62
7
6
CONTINUOUS
10
192.2389408404
20
104.2211521759
11
188.7748392252
21
98.2211521759
0
LINE
5
353
100
AcDbEntity
8
0
100
AcDbLine
62
7
6
CONTINUOUS
10
192.2389408404
20
105.2211521759
11
192.2389408404
21
104.2211521759
0
LINE
5
354
100
AcDbEntity
8
0
100
AcDbLine
62
7
6
CONTINUOUS
10
226.5850911595
20
101.7211521759
11
226.5850911595
21
100.6977573808
0
LINE
5
355
100
AcDbEntity
8
0
100
AcDbLine
62
5
6
CONTINUOUS
10
226.5850911595
20
100.6977573808
11
226.5850911595
21
90.6977573808
0
LINE
5
356
100
AcDbEntity
8
0
100
AcDbLine
62
2
6
CONTINUOUS
10
187.4120709625
20
146.8644924002
11
173.6454042959
21
146.8644924002
0
LINE
5
357
100
AcDbEntity
8
0
100
AcDbLine
62
2
6
CONTINUOUS
10
173.6454042959
20
153.8644924002
11
187.4120709625
21
153.8644924002
0
LINE
5
358
100
AcDbEntity
8
0
100
AcDbLine
62
7
6
CONTINUOUS
10
167.2389408404
20
237.4949391589
11
167.2389408404
21
215.4949391589
0
LINE
5
359
100
AcDbEntity
8
0
100
AcDbLine
62
7
6
CONTINUOUS
10
185.1290615210
20
215.9891491877
11
183.2060075268
21
215.4949391589
0
LINE
5
35A
100
AcDbEntity
8
0
100
AcDbLine
62
7
6
CONTINUOUS
10
167.2389408404
20
215.4949391589
11
192.2389408404
21
215.4949391589
0
LINE
5
35B
100
AcDbEntity
8
0
100
AcDbLine
62
7
6
CONTINUOUS
10
175.6323186697
20
215.4949391589
11
175.1567654279
21
215.6294094279
0
LINE
5
35C
100
AcDbEntity
8
0
100
AcDbLine
62
7
6
CONTINUOUS
10
175.1567654279
20
215.6294094279
11
174.5609202846
21
215.9222622179
0
LINE
5
35D
100
AcDbEntity
8
0
100
AcDbLine
62
7
6
CONTINUOUS
10
174.5609202846
20
215.9222622179
11
173.9298026084
21
216.4938958685
0
LINE
5
35E
100
AcDbEntity
8
0
100
AcDbLine
62
7
6
CONTINUOUS
10
173.9298026084
20
216.4938958685
11
173.4435105290
21
217.2334959951
0
LINE
5
35F
100
AcDbEntity
8
0
100
AcDbLine
62
7
6
CONTINUOUS
10
170.7030424555
20
215.4949391589
11
170.7030424555
21
237.4949391589
0
LINE
5
360
100
AcDbEntity
8
0
100
AcDbLine
62
2
6
CONTINUOUS
10
173.4260172170
20
233.7155652825
11
174.7053910934
21
234.9949391589
0
LINE
5
361
100
AcDbEntity
8
0
100
AcDbLine
62
7
6
CONTINUOUS
10
173.4435105290
20
217.2334959951
11
173.0894069479
21
218.0626452531
0
LINE
5
362
100
AcDbEntity
8
0
100
AcDbLine
62
7
6
CONTINUOUS
10
173.0894069479
20
218.0626452531
11
172.7208850045
21
219.8072704189
0
LINE
5
363
100
AcDbEntity
8
0
100
AcDbLine
62
7
6
CONTINUOUS
10
172.7208850045
20
219.8072704189
11
172.7190839937
21
221.5759692337
0
LINE
5
364
100
AcDbEntity
8
0
100
AcDbLine
62
7
6
CONTINUOUS
10
172.2389408404
20
234.9949391589
11
172.2389408404
21
237.4949391589
0
LINE
5
365
100
AcDbEntity
8
0
100
AcDbLine
62
7
6
CONTINUOUS
10
173.3569548273
20
234.7843877157
11
173.3642266376
21
234.9949391589
0
LINE
5
366
100
AcDbEntity
8
0
100
AcDbLine
62
2
6
CONTINUOUS
10
173.7204429347
20
230.7705103345
11
174.9889408404
21
232.0390082402
0
LINE
5
367
100
AcDbEntity
8
0
100
AcDbLine
62
2
6
CONTINUOUS
10
177.4889408404
20
234.5390082402
11
177.9448717591
21
234.9949391589
0
LINE
5
368
100
AcDbEntity
8
0
100
AcDbLine
62
7
6
CONTINUOUS
10
173.4899515576
20
232.7261054951
11
173.3569548273
21
234.7843877157
0
LINE
5
369
100
AcDbEntity
8
0
100
AcDbLine
62
7
6
CONTINUOUS
10
173.8251636163
20
228.7645604292
11
173.7249986239
21
230.7318577661
0
LINE
5
36A
100
AcDbEntity
8
0
100
AcDbLine
62
7
6
CONTINUOUS
10
173.6532386890
20
226.9728304303
11
173.8251636163
21
228.7645604292
0
LINE
5
36B
100
AcDbEntity
8
0
100
AcDbLine
62
7
6
CONTINUOUS
10
172.7190839937
20
221.5759692337
11
172.9556330082
21
223.3467158713
0
LINE
5
36C
100
AcDbEntity
8
0
100
AcDbLine
62
7
6
CONTINUOUS
10
173.3161073651
20
225.1683445144
11
173.6532386890
21
226.9728304303
0
LINE
5
36D
100
AcDbEntity
8
0
100
AcDbLine
62
7
6
CONTINUOUS
10
172.9556330082
20
223.3467158713
11
173.3161073651
21
225.1683445144
0
LINE
5
36E
100
AcDbEntity
8
0
100
AcDbLine
62
7
6
CONTINUOUS
10
173.7249986239
20
230.7318577661
11
173.4899515576
21
232.7261054951
0
LINE
5
36F
100
AcDbEntity
8
0
100
AcDbLine
62
2
6
CONTINUOUS
10
174.7389408404
20
234.9949391589
11
174.7389408404
21
215.8347666378
0
LINE
5
370
100
AcDbEntity
8
0
100
AcDbLine
62
7
6
CONTINUOUS
10
174.9889408404
20
215.7118937768
11
174.9889408404
21
234.9949391589
0
LINE
5
371
100
AcDbEntity
8
0
100
AcDbLine
62
2
6
CONTINUOUS
10
173.7053525389
20
227.5159392730
11
174.9889408404
21
228.7995275745
0
LINE
5
372
100
AcDbEntity
8
0
100
AcDbLine
62
2
6
CONTINUOUS
10
177.4889408404
20
231.2995275745
11
181.1843524248
21
234.9949391589
0
LINE
5
373
100
AcDbEntity
8
DEFAULT_1
100
AcDbLine
62
2
6
CENTER
10
176.2389408404
20
237.4949391589
11
176.2389408404
21
212.9949391589
0
LINE
5
374
100
AcDbEntity
8
0
100
AcDbLine
62
7
6
CONTINUOUS
10
177.4889408404
20
215.4949391589
11
177.4889408404
21
234.9949391589
0
LINE
5
375
100
AcDbEntity
8
0
100
AcDbLine
62
2
6
CONTINUOUS
10
173.0000456687
20
223.5711517371
11
174.9889408404
21
225.5600469088
0
LINE
5
376
100
AcDbEntity
8
0
100
AcDbLine
62
2
6
CONTINUOUS
10
177.4889408404
20
228.0600469088
11
181.9889408404
21
232.5600469088
0
LINE
5
377
100
AcDbEntity
8
0
100
AcDbLine
62
2
6
CONTINUOUS
10
177.7389408404
20
234.9949391589
11
177.7389408404
21
215.4949391589
0
LINE
5
378
100
AcDbEntity
8
0
100
AcDbLine
62
2
6
CONTINUOUS
10
172.7206355383
20
220.0522609410
11
174.9889408404
21
222.3205662431
0
LINE
5
379
100
AcDbEntity
8
0
100
AcDbLine
62
2
6
CONTINUOUS
10
177.4889408404
20
224.8205662431
11
181.9889408404
21
229.3205662431
0
LINE
5
37A
100
AcDbEntity
8
0
100
AcDbLine
62
2
6
CONTINUOUS
10
184.4889408404
20
231.8205662431
11
185.7184283244
21
233.0500537271
0
LINE
5
37B
100
AcDbEntity
8
0
100
AcDbLine
62
2
6
CONTINUOUS
10
181.7389408404
20
234.9949391589
11
181.7389408404
21
215.4949391589
0
LINE
5
37C
100
AcDbEntity
8
0
100
AcDbLine
62
7
6
CONTINUOUS
10
181.9889408404
20
215.4949391589
11
181.9889408404
21
234.9949391589
0
LINE
5
37D
100
AcDbEntity
8
0
100
AcDbLine
62
2
6
CONTINUOUS
10
173.3530854936
20
217.4452302306
11
174.9889408404
21
219.0810855774
0
LINE
5
37E
100
AcDbEntity
8
0
100
AcDbLine
62
2
6
CONTINUOUS
10
177.4889408404
20
221.5810855774
11
181.9889408404
21
226.0810855774
0
LINE
5
37F
100
AcDbEntity
8
0
100
AcDbLine
62
2
6
CONTINUOUS
10
184.4889408404
20
228.5810855774
11
185.9275677586
21
230.0197124956
0
LINE
5
380
100
AcDbEntity
8
DEFAULT_1
100
AcDbLine
62
2
6
CENTER
10
183.2389408404
20
237.4949391589
11
183.2389408404
21
212.9949391589
0
LINE
5
381
100
AcDbEntity
8
0
100
AcDbLine
62
2
6
CONTINUOUS
10
174.9019734391
20
215.7546375104
11
174.9889408404
21
215.8416049117
0
LINE
5
382
100
AcDbEntity
8
0
100
AcDbLine
62
2
6
CONTINUOUS
10
177.4889408404
20
218.3416049117
11
181.9889408404
21
222.8416049117
0
LINE
5
383
100
AcDbEntity
8
0
100
AcDbLine
62
2
6
CONTINUOUS
10
184.4889408404
20
225.3416049117
11
186.2936676192
21
227.1463316905
0
LINE
5
384
100
AcDbEntity
8
0
100
AcDbLine
62
7
6
CONTINUOUS
10
184.4889408404
20
215.8246431151
11
184.4889408404
21
234.9949391589
0
LINE
5
385
100
AcDbEntity
8
0
100
AcDbLine
62
2
6
CONTINUOUS
10
184.7389408404
20
234.9949391589
11
184.7389408404
21
215.8888911849
0
LINE
5
386
100
AcDbEntity
8
0
100
AcDbLine
62
7
6
CONTINUOUS
10
185.8035354058
20
234.9212386106
11
185.7310442497
21
233.8479701378
0
LINE
5
387
100
AcDbEntity
8
0
100
AcDbLine
62
7
6
CONTINUOUS
10
185.7689502770
20
231.6223087465
11
185.8648181894
21
230.5705086151
0
LINE
5
388
100
AcDbEntity
8
0
100
AcDbLine
62
7
6
CONTINUOUS
10
185.7130032812
20
232.7069373109
11
185.7689502770
21
231.6223087465
0
LINE
5
389
100
AcDbEntity
8
0
100
AcDbLine
62
7
6
CONTINUOUS
10
185.8015967408
20
234.9949391589
11
185.8035354058
21
234.9212386106
0
LINE
5
38A
100
AcDbEntity
8
0
100
AcDbLine
62
7
6
CONTINUOUS
10
185.7310442497
20
233.8479701378
11
185.7130032812
21
232.7069373109
0
LINE
5
38B
100
AcDbEntity
8
0
100
AcDbLine
62
2
6
CONTINUOUS
10
177.8817557533
20
215.4949391589
11
181.9889408404
21
219.6021242460
0
LINE
5
38C
100
AcDbEntity
8
0
100
AcDbLine
62
2
6
CONTINUOUS
10
184.4889408404
20
222.1021242460
11
186.7992940784
21
224.4124774840
0
LINE
5
38D
100
AcDbEntity
8
0
100
AcDbLine
62
7
6
CONTINUOUS
10
187.2694445562
20
222.4102982934
11
187.7522412123
21
220.6289805692
0
LINE
5
38E
100
AcDbEntity
8
0
100
AcDbLine
62
7
6
CONTINUOUS
10
186.5988954088
20
225.2658937091
11
187.2694445562
21
222.4102982934
0
LINE
5
38F
100
AcDbEntity
8
0
100
AcDbLine
62
7
6
CONTINUOUS
10
186.1636943558
20
227.9470669752
11
186.5988954088
21
225.2658937091
0
LINE
5
390
100
AcDbEntity
8
0
100
AcDbLine
62
7
6
CONTINUOUS
10
185.8648181894
20
230.5705086151
11
186.1636943558
21
227.9470669752
0
LINE
5
391
100
AcDbEntity
8
0
100
AcDbLine
62
7
6
CONTINUOUS
10
187.2389408404
20
237.4949391589
11
187.2389408404
21
234.9949391589
0
LINE
5
392
100
AcDbEntity
8
0
100
AcDbLine
62
7
6
CONTINUOUS
10
187.7522412123
20
220.6289805692
11
187.9857533945
21
218.9375378821
0
LINE
5
393
100
AcDbEntity
8
0
100
AcDbLine
62
2
6
CONTINUOUS
10
181.1212364190
20
215.4949391589
11
181.9889408404
21
216.3626435803
0
LINE
5
394
100
AcDbEntity
8
0
100
AcDbLine
62
2
6
CONTINUOUS
10
184.4889408404
20
218.8626435803
11
187.4330307864
21
221.8067335263
0
LINE
5
395
100
AcDbEntity
8
0
100
AcDbLine
62
7
6
CONTINUOUS
10
187.2389408404
20
234.9949391589
11
172.2389408404
21
234.9949391589
0
LINE
5
396
100
AcDbEntity
8
0
100
AcDbLine
62
7
6
CONTINUOUS
10
188.7748392252
20
215.4949391589
11
188.7748392252
21
237.4949391589
0
LINE
5
397
100
AcDbEntity
8
0
100
AcDbLine
62
7
6
CONTINUOUS
10
187.9857533945
20
218.9375378821
11
187.6038794055
21
217.5275494943
0
LINE
5
398
100
AcDbEntity
8
0
100
AcDbLine
62
2
6
CONTINUOUS
10
184.7601092210
20
215.8943312953
11
187.9636222788
21
219.0978443531
0
LINE
5
399
100
AcDbEntity
8
0
100
AcDbLine
62
7
6
CONTINUOUS
10
192.2389408404
20
237.4949391589
11
187.2389408404
21
237.4949391589
0
LINE
5
39A
100
AcDbEntity
8
0
100
AcDbLine
62
7
6
CONTINUOUS
10
172.2389408404
20
237.4949391589
11
167.2389408404
21
237.4949391589
0
LINE
5
39B
100
AcDbEntity
8
0
100
AcDbLine
62
7
6
CONTINUOUS
10
187.6038794055
20
217.5275494943
11
186.9667045104
21
216.8885165391
0
LINE
5
39C
100
AcDbEntity
8
0
100
AcDbLine
62
7
6
CONTINUOUS
10
186.9667045104
20
216.8885165391
11
186.1017216323
21
216.3860809776
0
LINE
5
39D
100
AcDbEntity
8
0
100
AcDbLine
62
7
6
CONTINUOUS
10
186.1017216323
20
216.3860809776
11
185.1290615210
21
215.9891491877
0
LINE
5
39E
100
AcDbEntity
8
0
100
AcDbLine
62
7
6
CONTINUOUS
10
192.2389408404
20
215.4949391589
11
192.2389408404
21
237.4949391589
0
LINE
5
39F
100
AcDbEntity
8
0
100
AcDbLine
62
7
6
CONTINUOUS
10
224.0713395823
20
190.7328252104
11
224.5251284517
21
191.2471542999
0
LINE
5
3A0
100
AcDbEntity
8
0
100
AcDbLine
62
7
6
CONTINUOUS
10
224.5251284517
20
191.2471542999
11
230.3347034233
21
193.4095478008
0
LINE
5
3A1
100
AcDbEntity
8
0
100
AcDbLine
62
7
6
CONTINUOUS
10
223.9584584791
20
172.8007050554
11
224.0713395823
21
190.7328252104
0
LINE
5
3A2
100
AcDbEntity
8
0
100
AcDbLine
62
7
6
CONTINUOUS
10
229.6612840520
20
190.6855735346
11
231.7033339640
21
193.0000544374
0
LINE
5
3A3
100
AcDbEntity
8
0
100
AcDbLine
62
7
6
CONTINUOUS
10
229.6484566539
20
188.6478326079
11
231.6905065659
21
190.9623135106
0
LINE
5
3A4
100
AcDbEntity
8
0
100
AcDbLine
62
7
6
CONTINUOUS
10
246.2358199605
20
166.1353330575
11
223.9584584791
21
172.8007050554
0
LINE
5
3A5
100
AcDbEntity
8
0
100
AcDbLine
62
7
6
CONTINUOUS
10
226.2990757305
20
190.0662880106
11
226.2862483324
21
188.0285470839
0
POLYLINE
5
3A6
100
AcDbEntity
8
0
100
AcDb2dPolyline
62
2
6
CONTINUOUS
66
1
70
0
0
VERTEX
5
3A7
100
AcDbEntity
8
0
100
AcDbVertex
62
2
6
CONTINUOUS
100
AcDb2dVertex
10
232.3299816713
20
188.4956244976
0
VERTEX
5
3A8
100
AcDbEntity
8
0
100
AcDbVertex
62
2
6
CONTINUOUS
100
AcDb2dVertex
10
232.4876498846
20
188.6378586047
0
VERTEX
5
3A9
100
AcDbEntity
8
0
100
AcDbVertex
62
2
6
CONTINUOUS
100
AcDb2dVertex
10
232.6902248313
20
188.7594421419
0
VERTEX
5
3AA
100
AcDbEntity
8
0
100
AcDbVertex
62
2
6
CONTINUOUS
100
AcDb2dVertex
10
232.9299904945
20
188.8557440301
0
VERTEX
5
3AB
100
AcDbEntity
8
0
100
AcDbVertex
62
2
6
CONTINUOUS
100
AcDb2dVertex
10
233.2027907381
20
188.9240183425
0
VERTEX
5
3AC
100
AcDbEntity
8
0
100
AcDbVertex
62
2
6
CONTINUOUS
100
AcDb2dVertex
10
233.4886927033
20
188.9592764390
0
VERTEX
5
3AD
100
AcDbEntity
8
0
100
AcDbVertex
62
2
6
CONTINUOUS
100
AcDb2dVertex
10
233.7813719920
20
188.9616412603
0
VERTEX
5
3AE
100
AcDbEntity
8
0
100
AcDbVertex
62
2
6
CONTINUOUS
100
AcDb2dVertex
10
234.0696805409
20
188.9310227309
0
VERTEX
5
3AF
100
AcDbEntity
8
0
100
AcDbVertex
62
2
6
CONTINUOUS
100
AcDb2dVertex
10
234.3473066643
20
188.8671958120
0
VERTEX
5
3B0
100
AcDbEntity
8
0
100
AcDbVertex
62
2
6
CONTINUOUS
100
AcDb2dVertex
10
234.5939648877
20
188.7748241832
0
VERTEX
5
3B1
100
AcDbEntity
8
0
100
AcDbVertex
62
2
6
CONTINUOUS
100
AcDb2dVertex
10
234.8053009605
20
188.6565850083
0
VERTEX
5
3B2
100
AcDbEntity
8
0
100
AcDbVertex
62
2
6
CONTINUOUS
100
AcDb2dVertex
10
234.9732651573
20
188.5169819806
0
VERTEX
5
3B3
100
AcDbEntity
8
0
100
AcDbVertex
62
2
6
CONTINUOUS
100
AcDb2dVertex
10
235.0930875426
20
188.3584427738
0
VERTEX
5
3B4
100
AcDbEntity
8
0
100
AcDbVertex
62
2
6
CONTINUOUS
100
AcDb2dVertex
10
235.1560129822
20
188.1925514671
0
VERTEX
5
3B5
100
AcDbEntity
8
0
100
AcDbVertex
62
2
6
CONTINUOUS
100
AcDb2dVertex
10
235.1622080340
20
188.0229712011
0
VERTEX
5
3B6
100
AcDbEntity
8
0
100
AcDbVertex
62
2
6
CONTINUOUS
100
AcDb2dVertex
10
235.1114367302
20
187.8561612353
0
VERTEX
5
3B7
100
AcDbEntity
8
0
100
AcDbVertex
62
2
6
CONTINUOUS
100
AcDb2dVertex
10
235.0032650491
20
187.6957798579
0
SEQEND
5
3B8
100
AcDbEntity
8
0
0
LINE
5
3B9
100
AcDbEntity
8
0
100
AcDbLine
62
7
6
CONTINUOUS
10
229.6612840520
20
190.6855735346
11
229.6484566539
21
188.6478326079
0
POLYLINE
5
3BA
100
AcDbEntity
8
0
100
AcDb2dPolyline
62
2
6
CONTINUOUS
66
1
70
0
0
VERTEX
5
3BB
100
AcDbEntity
8
0
100
AcDbVertex
62
2
6
CONTINUOUS
100
AcDb2dVertex
10
235.0032650491
20
187.6957798579
0
VERTEX
5
3BC
100
AcDbEntity
8
0
100
AcDbVertex
62
2
6
CONTINUOUS
100
AcDb2dVertex
10
234.8455968359
20
187.5535457508
0
VERTEX
5
3BD
100
AcDbEntity
8
0
100
AcDbVertex
62
2
6
CONTINUOUS
100
AcDb2dVertex
10
234.6430218892
20
187.4319622136
0
VERTEX
5
3BE
100
AcDbEntity
8
0
100
AcDbVertex
62
2
6
CONTINUOUS
100
AcDb2dVertex
10
234.4032562260
20
187.3356603254
0
VERTEX
5
3BF
100
AcDbEntity
8
0
100
AcDbVertex
62
2
6
CONTINUOUS
100
AcDb2dVertex
10
234.1304559823
20
187.2673860130
0
VERTEX
5
3C0
100
AcDbEntity
8
0
100
AcDbVertex
62
2
6
CONTINUOUS
100
AcDb2dVertex
10
233.8445540171
20
187.2321279164
0
VERTEX
5
3C1
100
AcDbEntity
8
0
100
AcDbVertex
62
2
6
CONTINUOUS
100
AcDb2dVertex
10
233.5518747285
20
187.2297630952
0
VERTEX
5
3C2
100
AcDbEntity
8
0
100
AcDbVertex
62
2
6
CONTINUOUS
100
AcDb2dVertex
10
233.2635661795
20
187.2603816246
0
VERTEX
5
3C3
100
AcDbEntity
8
0
100
AcDbVertex
62
2
6
CONTINUOUS
100
AcDb2dVertex
10
232.9859400562
20
187.3242085435
0
VERTEX
5
3C4
100
AcDbEntity
8
0
100
AcDbVertex
62
2
6
CONTINUOUS
100
AcDb2dVertex
10
232.7392818327
20
187.4165801722
0
VERTEX
5
3C5
100
AcDbEntity
8
0
100
AcDbVertex
62
2
6
CONTINUOUS
100
AcDb2dVertex
10
232.5279457599
20
187.5348193472
0
VERTEX
5
3C6
100
AcDbEntity
8
0
100
AcDbVertex
62
2
6
CONTINUOUS
100
AcDb2dVertex
10
232.3599815631
20
187.6744223749
0
VERTEX
5
3C7
100
AcDbEntity
8
0
100
AcDbVertex
62
2
6
CONTINUOUS
100
AcDb2dVertex
10
232.2401591779
20
187.8329615816
0
VERTEX
5
3C8
100
AcDbEntity
8
0
100
AcDbVertex
62
2
6
CONTINUOUS
100
AcDb2dVertex
10
232.1772337382
20
187.9988528883
0
VERTEX
5
3C9
100
AcDbEntity
8
0
100
AcDbVertex
62
2
6
CONTINUOUS
100
AcDb2dVertex
10
232.1710386865
20
188.1684331544
0
VERTEX
5
3CA
100
AcDbEntity
8
0
100
AcDbVertex
62
2
6
CONTINUOUS
100
AcDb2dVertex
10
232.2218099903
20
188.3352431201
0
VERTEX
5
3CB
100
AcDbEntity
8
0
100
AcDbVertex
62
2
6
CONTINUOUS
100
AcDb2dVertex
10
232.3299816713
20
188.4956244976
0
SEQEND
5
3CC
100
AcDbEntity
8
0
0
LINE
5
3CD
100
AcDbEntity
8
0
100
AcDbLine
62
7
6
CONTINUOUS
10
231.7033339640
20
193.0000544374
11
231.6905065659
21
190.9623135106
0
POLYLINE
5
3CE
100
AcDbEntity
8
0
100
AcDb2dPolyline
62
2
6
CONTINUOUS
66
1
70
0
0
VERTEX
5
3CF
100
AcDbEntity
8
0
100
AcDbVertex
62
2
6
CONTINUOUS
100
AcDb2dVertex
10
238.5676428861
20
186.6293203382
0
VERTEX
5
3D0
100
AcDbEntity
8
0
100
AcDbVertex
62
2
6
CONTINUOUS
100
AcDb2dVertex
10
238.7253110994
20
186.7715544453
0
VERTEX
5
3D1
100
AcDbEntity
8
0
100
AcDbVertex
62
2
6
CONTINUOUS
100
AcDb2dVertex
10
238.9278860460
20
186.8931379825
0
VERTEX
5
3D2
100
AcDbEntity
8
0
100
AcDbVertex
62
2
6
CONTINUOUS
100
AcDb2dVertex
10
239.1676517093
20
186.9894398707
0
VERTEX
5
3D3
100
AcDbEntity
8
0
100
AcDbVertex
62
2
6
CONTINUOUS
100
AcDb2dVertex
10
239.4404519529
20
187.0577141831
0
VERTEX
5
3D4
100
AcDbEntity
8
0
100
AcDbVertex
62
2
6
CONTINUOUS
100
AcDb2dVertex
10
239.7263539181
20
187.0929722796
0
VERTEX
5
3D5
100
AcDbEntity
8
0
100
AcDbVertex
62
2
6
CONTINUOUS
100
AcDb2dVertex
10
240.0190332068
20
187.0953371009
0
VERTEX
5
3D6
100
AcDbEntity
8
0
100
AcDbVertex
62
2
6
CONTINUOUS
100
AcDb2dVertex
10
240.3073417557
20
187.0647185715
0
VERTEX
5
3D7
100
AcDbEntity
8
0
100
AcDbVertex
62
2
6
CONTINUOUS
100
AcDb2dVertex
10
240.5849678790
20
187.0008916526
0
VERTEX
5
3D8
100
AcDbEntity
8
0
100
AcDbVertex
62
2
6
CONTINUOUS
100
AcDb2dVertex
10
240.8316261025
20
186.9085200238
0
VERTEX
5
3D9
100
AcDbEntity
8
0
100
AcDbVertex
62
2
6
CONTINUOUS
100
AcDb2dVertex
10
241.0429621753
20
186.7902808489
0
VERTEX
5
3DA
100
AcDbEntity
8
0
100
AcDbVertex
62
2
6
CONTINUOUS
100
AcDb2dVertex
10
241.2109263721
20
186.6506778212
0
VERTEX
5
3DB
100
AcDbEntity
8
0
100
AcDbVertex
62
2
6
CONTINUOUS
100
AcDb2dVertex
10
241.3307487574
20
186.4921386144
0
VERTEX
5
3DC
100
AcDbEntity
8
0
100
AcDbVertex
62
2
6
CONTINUOUS
100
AcDb2dVertex
10
241.3936741970
20
186.3262473077
0
VERTEX
5
3DD
100
AcDbEntity
8
0
100
AcDbVertex
62
2
6
CONTINUOUS
100
AcDb2dVertex
10
241.3998692488
20
186.1566670417
0
VERTEX
5
3DE
100
AcDbEntity
8
0
100
AcDbVertex
62
2
6
CONTINUOUS
100
AcDb2dVertex
10
241.3490979449
20
185.9898570759
0
VERTEX
5
3DF
100
AcDbEntity
8
0
100
AcDbVertex
62
2
6
CONTINUOUS
100
AcDb2dVertex
10
241.2409262639
20
185.8294756984
0
SEQEND
5
3E0
100
AcDbEntity
8
0
0
POLYLINE
5
3E1
100
AcDbEntity
8
0
100
AcDb2dPolyline
62
2
6
CONTINUOUS
66
1
70
0
0
VERTEX
5
3E2
100
AcDbEntity
8
0
100
AcDbVertex
62
2
6
CONTINUOUS
100
AcDb2dVertex
10
241.2409262639
20
185.8294756984
0
VERTEX
5
3E3
100
AcDbEntity
8
0
100
AcDbVertex
62
2
6
CONTINUOUS
100
AcDb2dVertex
10
241.0832580506
20
185.6872415914
0
VERTEX
5
3E4
100
AcDbEntity
8
0
100
AcDbVertex
62
2
6
CONTINUOUS
100
AcDb2dVertex
10
240.8806831040
20
185.5656580542
0
VERTEX
5
3E5
100
AcDbEntity
8
0
100
AcDbVertex
62
2
6
CONTINUOUS
100
AcDb2dVertex
10
240.6409174408
20
185.4693561660
0
VERTEX
5
3E6
100
AcDbEntity
8
0
100
AcDbVertex
62
2
6
CONTINUOUS
100
AcDb2dVertex
10
240.3681171971
20
185.4010818536
0
VERTEX
5
3E7
100
AcDbEntity
8
0
100
AcDbVertex
62
2
6
CONTINUOUS
100
AcDb2dVertex
10
240.0822152319
20
185.3658237570
0
VERTEX
5
3E8
100
AcDbEntity
8
0
100
AcDbVertex
62
2
6
CONTINUOUS
100
AcDb2dVertex
10
239.7895359432
20
185.3634589358
0
VERTEX
5
3E9
100
AcDbEntity
8
0
100
AcDbVertex
62
2
6
CONTINUOUS
100
AcDb2dVertex
10
239.5012273943
20
185.3940774652
0
VERTEX
5
3EA
100
AcDbEntity
8
0
100
AcDbVertex
62
2
6
CONTINUOUS
100
AcDb2dVertex
10
239.2236012710
20
185.4579043841
0
VERTEX
5
3EB
100
AcDbEntity
8
0
100
AcDbVertex
62
2
6
CONTINUOUS
100
AcDb2dVertex
10
238.9769430475
20
185.5502760128
0
VERTEX
5
3EC
100
AcDbEntity
8
0
100
AcDbVertex
62
2
6
CONTINUOUS
100
AcDb2dVertex
10
238.7656069747
20
185.6685151878
0
VERTEX
5
3ED
100
AcDbEntity
8
0
100
AcDbVertex
62
2
6
CONTINUOUS
100
AcDb2dVertex
10
238.5976427779
20
185.8081182155
0
VERTEX
5
3EE
100
AcDbEntity
8
0
100
AcDbVertex
62
2
6
CONTINUOUS
100
AcDb2dVertex
10
238.4778203927
20
185.9666574222
0
VERTEX
5
3EF
100
AcDbEntity
8
0
100
AcDbVertex
62
2
6
CONTINUOUS
100
AcDb2dVertex
10
238.4148949530
20
186.1325487289
0
VERTEX
5
3F0
100
AcDbEntity
8
0
100
AcDbVertex
62
2
6
CONTINUOUS
100
AcDb2dVertex
10
238.4086999013
20
186.3021289950
0
VERTEX
5
3F1
100
AcDbEntity
8
0
100
AcDbVertex
62
2
6
CONTINUOUS
100
AcDb2dVertex
10
238.4594712051
20
186.4689389607
0
VERTEX
5
3F2
100
AcDbEntity
8
0
100
AcDbVertex
62
2
6
CONTINUOUS
100
AcDb2dVertex
10
238.5676428861
20
186.6293203382
0
SEQEND
5
3F3
100
AcDbEntity
8
0
0
LINE
5
3F4
100
AcDbEntity
8
0
100
AcDbLine
62
7
6
CONTINUOUS
10
243.0277009408
20
186.6863503359
11
245.0697508528
21
189.0008312386
0
LINE
5
3F5
100
AcDbEntity
8
0
100
AcDbLine
62
7
6
CONTINUOUS
10
246.3487010637
20
184.0674532125
11
246.8024899330
21
184.5817823020
0
LINE
5
3F6
100
AcDbEntity
8
0
100
AcDbLine
62
7
6
CONTINUOUS
10
226.2862483324
20
188.0285470839
11
244.1081375175
21
182.6962494856
0
LINE
5
3F7
100
AcDbEntity
8
0
100
AcDbLine
62
7
6
CONTINUOUS
10
224.0713395823
20
190.7328252104
11
226.2990757305
21
190.0662880106
0
LINE
5
3F8
100
AcDbEntity
8
0
100
AcDbLine
62
7
6
CONTINUOUS
10
244.1209649156
20
184.7339904123
11
246.3487010637
21
184.0674532125
0
LINE
5
3F9
100
AcDbEntity
8
0
100
AcDbLine
62
7
6
CONTINUOUS
10
243.0148735427
20
184.6486094092
11
243.0277009408
21
186.6863503359
0
LINE
5
3FA
100
AcDbEntity
8
0
100
AcDbLine
62
7
6
CONTINUOUS
10
244.1081375175
20
182.6962494856
11
244.1209649156
21
184.7339904123
0
LINE
5
3FB
100
AcDbEntity
8
0
100
AcDbLine
62
7
6
CONTINUOUS
10
244.1081375175
20
182.6962494856
11
243.0148735427
21
184.6486094092
0
LINE
5
3FC
100
AcDbEntity
8
0
100
AcDbLine
62
7
6
CONTINUOUS
10
226.2862483324
20
188.0285470839
11
229.6484566539
21
188.6478326079
0
LINE
5
3FD
100
AcDbEntity
8
0
100
AcDbLine
62
7
6
CONTINUOUS
10
231.6905065659
20
190.9623135106
11
243.6446742227
21
187.3856343593
0
LINE
5
3FE
100
AcDbEntity
8
0
100
AcDbLine
62
7
6
CONTINUOUS
10
244.1209649156
20
184.7339904123
11
243.0277009408
21
186.6863503359
0
LINE
5
3FF
100
AcDbEntity
8
0
100
AcDbLine
62
7
6
CONTINUOUS
10
246.4383813936
20
188.5913378752
11
246.8024899330
21
184.5817823020
0
LINE
5
400
100
AcDbEntity
8
0
100
AcDbLine
62
7
6
CONTINUOUS
10
246.3487010637
20
184.0674532125
11
246.2358199605
21
166.1353330575
0
LINE
5
401
100
AcDbEntity
8
0
100
AcDbLine
62
7
6
CONTINUOUS
10
246.8024899330
20
184.5817823020
11
246.6896088298
21
166.6496621470
0
LINE
5
402
100
AcDbEntity
8
0
100
AcDbLine
62
7
6
CONTINUOUS
10
226.2990757305
20
190.0662880106
11
229.6612840520
21
190.6855735346
0
LINE
5
403
100
AcDbEntity
8
0
100
AcDbLine
62
7
6
CONTINUOUS
10
230.3347034233
20
193.4095478008
11
231.7033339640
21
193.0000544374
0
LINE
5
404
100
AcDbEntity
8
0
100
AcDbLine
62
7
6
CONTINUOUS
10
245.0697508528
20
189.0008312386
11
246.4383813936
21
188.5913378752
0
LINE
5
405
100
AcDbEntity
8
0
100
AcDbLine
62
7
6
CONTINUOUS
10
246.2358199605
20
166.1353330575
11
246.6896088298
21
166.6496621470
0
ARC
5
406
100
AcDbEntity
8
0
100
AcDbCircle
62
2
6
CONTINUOUS
10
176.2389408404
20
101.7211521759
40
1.5000000000
100
AcDbArc
50
255.0000000000
51
195.0000000000
0
ARC
5
407
100
AcDbEntity
8
0
100
AcDbCircle
62
2
6
CONTINUOUS
10
183.2389408404
20
101.7211521759
40
1.5000000000
100
AcDbArc
50
255.0000000000
51
195.0000000000
0
CIRCLE
5
408
100
AcDbEntity
8
0
100
AcDbCircle
62
7
6
CONTINUOUS
10
176.2389408404
20
101.7211521759
40
1.2500000000
0
CIRCLE
5
409
100
AcDbEntity
8
0
100
AcDbCircle
62
7
6
CONTINUOUS
10
183.2389408404
20
101.7211521759
40
1.2500000000
0
SPLINE
5
40A
100
AcDbEntity
8
0
100
AcDbSpline
62
7
6
CONTINUOUS
70
0
71
3
72
12
73
8
74
6
42
0.0000001000
43
0.0000001000
44
0.0000000001
12
1.7418635170
22
-0.5211644260
32
0.0000000000
13
1.1432110377
23
1.4659868861
33
0.0000000000
40
0.0000000000
40
0.0000000000
40
0.0000000000
40
0.0000000000
40
0.2617876297
40
0.5287241651
40
0.7744612192
40
0.9801164893
40
1.0000000000
40
1.0000000000
40
1.0000000000
40
1.0000000000
10
239.3370484883
20
185.5864866564
30
0.0000000000
10
239.4890479288
20
185.5410085232
30
0.0000000000
10
239.8090361553
20
185.4901240149
30
0.0000000000
10
240.2811260393
20
185.5187729641
30
0.0000000000
10
240.7022699712
20
185.6465272996
30
0.0000000000
10
240.9451867733
20
185.8071779210
30
0.0000000000
10
241.0340306363
20
185.9148799108
30
0.0000000000
10
241.0416076526
20
185.9245962328
30
0.0000000000
11
239.3370484883
21
185.5864866564
31
0.0000000000
11
239.8064856222
21
185.5078889982
31
0.0000000000
11
240.2908117601
21
185.5391345477
31
0.0000000000
11
240.7162926380
21
185.6754664534
31
0.0000000000
11
241.0181526491
21
185.8961294184
31
0.0000000000
11
241.0416076526
21
185.9245962328
31
0.0000000000
0
SPLINE
5
40B
100
AcDbEntity
8
0
100
AcDbSpline
62
7
6
CONTINUOUS
70
0
71
3
72
9
73
5
74
3
42
0.0000001000
43
0.0000001000
44
0.0000000001
12
0.2005292679
22
0.2571469898
32
0.0000000000
13
-0.0022128335
23
0.3216127107
33
0.0000000000
40
0.0000000000
40
0.0000000000
40
0.0000000000
40
0.0000000000
40
0.8333435558
40
1.0000000000
40
1.0000000000
40
1.0000000000
40
1.0000000000
10
241.0416076526
20
185.9245962328
30
0.0000000000
10
241.0973109104
20
185.9960268284
30
0.0000000000
10
241.1475860335
20
186.0960953895
30
0.0000000000
10
241.1537010876
20
186.2029601479
30
0.0000000000
10
241.1535781600
20
186.2208264249
30
0.0000000000
11
241.0416076526
21
185.9245962328
31
0.0000000000
11
241.1504363432
21
186.1675295067
31
0.0000000000
11
241.1535781600
21
186.2208264249
31
0.0000000000
0
SPLINE
5
40C
100
AcDbEntity
8
0
100
AcDbSpline
62
7
6
CONTINUOUS
70
0
71
3
72
12
73
8
74
6
42
0.0000001000
43
0.0000001000
44
0.0000000001
12
1.7418635170
22
-0.5211644260
32
0.0000000000
13
1.1432110377
23
1.4659868861
33
0.0000000000
40
0.0000000000
40
0.0000000000
40
0.0000000000
40
0.0000000000
40
0.2617876297
40
0.5287241651
40
0.7744612192
40
0.9801164893
40
1.0000000000
40
1.0000000000
40
1.0000000000
40
1.0000000000
10
233.0993872735
20
187.4527908159
30
0.0000000000
10
233.2513867140
20
187.4073126826
30
0.0000000000
10
233.5713749405
20
187.3564281743
30
0.0000000000
10
234.0434648245
20
187.3850771235
30
0.0000000000
10
234.4646087565
20
187.5128314590
30
0.0000000000
10
234.7075255585
20
187.6734820804
30
0.0000000000
10
234.7963694215
20
187.7811840702
30
0.0000000000
10
234.8039464379
20
187.7909003922
30
0.0000000000
11
233.0993872735
21
187.4527908159
31
0.0000000000
11
233.5688244074
21
187.3741931576
31
0.0000000000
11
234.0531505453
21
187.4054387071
31
0.0000000000
11
234.4786314232
21
187.5417706128
31
0.0000000000
11
234.7804914343
21
187.7624335778
31
0.0000000000
11
234.8039464379
21
187.7909003922
31
0.0000000000
0
SPLINE
5
40D
100
AcDbEntity
8
0
100
AcDbSpline
62
7
6
CONTINUOUS
70
0
71
3
72
9
73
5
74
3
42
0.0000001000
43
0.0000001000
44
0.0000000001
12
0.2005292679
22
0.2571469898
32
0.0000000000
13
-0.0022128335
23
0.3216127107
33
0.0000000000
40
0.0000000000
40
0.0000000000
40
0.0000000000
40
0.0000000000
40
0.8333435558
40
1.0000000000
40
1.0000000000
40
1.0000000000
40
1.0000000000
10
234.8039464379
20
187.7909003922
30
0.0000000000
10
234.8596496956
20
187.8623309878
30
0.0000000000
10
234.9099248188
20
187.9623995489
30
0.0000000000
10
234.9160398729
20
188.0692643074
30
0.0000000000
10
234.9159169452
20
188.0871305843
30
0.0000000000
11
234.8039464379
21
187.7909003922
31
0.0000000000
11
234.9127751284
21
188.0338336661
31
0.0000000000
11
234.9159169452
21
188.0871305843
31
0.0000000000
0
SPLINE
5
40E
100
AcDbEntity
8
0
100
AcDbSpline
62
7
6
CONTINUOUS
70
0
71
3
72
10
73
6
74
4
42
0.0000001000
43
0.0000001000
44
0.0000000001
12
0.0069308128
22
-1.0073227286
32
0.0000000000
13
0.9569757022
23
-0.2863265048
33
0.0000000000
40
0.0000000000
40
0.0000000000
40
0.0000000000
40
0.0000000000
40
0.2337403821
40
0.5777571393
40
1.0000000000
40
1.0000000000
40
1.0000000000
40
1.0000000000
10
232.4173297753
20
188.1042737712
30
0.0000000000
10
232.4178697789
20
188.0257897713
30
0.0000000000
10
232.4736783121
20
187.8290951962
30
0.0000000000
10
232.7275974212
20
187.5955990686
30
0.0000000000
10
232.9646952208
20
187.4930905900
30
0.0000000000
10
233.0993872735
20
187.4527908159
30
0.0000000000
11
232.4173297753
21
188.1042737712
31
0.0000000000
11
232.4779032083
21
187.8767516810
31
0.0000000000
11
232.7163066919
21
187.6292659010
31
0.0000000000
11
233.0993872735
21
187.4527908159
31
0.0000000000
0
SPLINE
5
40F
100
AcDbEntity
8
0
100
AcDbSpline
62
7
6
CONTINUOUS
70
0
71
3
72
10
73
6
74
4
42
0.0000001000
43
0.0000001000
44
0.0000000001
12
0.0069308128
22
-1.0073227286
32
0.0000000000
13
0.9569757022
23
-0.2863265048
33
0.0000000000
40
0.0000000000
40
0.0000000000
40
0.0000000000
40
0.0000000000
40
0.2337403821
40
0.5777571393
40
1.0000000000
40
1.0000000000
40
1.0000000000
40
1.0000000000
10
238.6549909900
20
186.2379696118
30
0.0000000000
10
238.6555309937
20
186.1594856119
30
0.0000000000
10
238.7113395269
20
185.9627910368
30
0.0000000000
10
238.9652586360
20
185.7292949092
30
0.0000000000
10
239.2023564356
20
185.6267864306
30
0.0000000000
10
239.3370484883
20
185.5864866564
30
0.0000000000
11
238.6549909900
21
186.2379696118
31
0.0000000000
11
238.7155644231
21
186.0104475216
31
0.0000000000
11
238.9539679066
21
185.7629617416
31
0.0000000000
11
239.3370484883
21
185.5864866564
31
0.0000000000
0
SPLINE
5
410
100
AcDbEntity
8
0
100
AcDbSpline
62
7
6
CONTINUOUS
70
0
71
3
72
12
73
8
74
6
42
0.0000001000
43
0.0000001000
44
0.0000000001
12
-1.7418635170
22
0.5211644260
32
0.0000000000
13
-1.1432110377
23
-1.4659868861
33
0.0000000000
40
0.0000000000
40
0.0000000000
40
0.0000000000
40
0.0000000000
40
0.2617876297
40
0.5287241651
40
0.7744612192
40
0.9801164893
40
1.0000000000
40
1.0000000000
40
1.0000000000
40
1.0000000000
10
240.4715206617
20
186.8723093802
30
0.0000000000
10
240.3195212212
20
186.9177875135
30
0.0000000000
10
239.9995329947
20
186.9686720218
30
0.0000000000
10
239.5274431107
20
186.9400230725
30
0.0000000000
10
239.1062991788
20
186.8122687370
30
0.0000000000
10
238.8633823768
20
186.6516181157
30
0.0000000000
10
238.7745385137
20
186.5439161258
30
0.0000000000
10
238.7669614974
20
186.5341998038
30
0.0000000000
11
240.4715206617
21
186.8723093802
31
0.0000000000
11
240.0020835278
21
186.9509070385
31
0.0000000000
11
239.5177573899
21
186.9196614889
31
0.0000000000
11
239.0922765121
21
186.7833295833
31
0.0000000000
11
238.7904165009
21
186.5626666182
31
0.0000000000
11
238.7669614974
21
186.5341998038
31
0.0000000000
0
SPLINE
5
411
100
AcDbEntity
8
0
100
AcDbSpline
62
7
6
CONTINUOUS
70
0
71
3
72
9
73
5
74
3
42
0.0000001000
43
0.0000001000
44
0.0000000001
12
-0.2005292679
22
-0.2571469898
32
0.0000000000
13
0.0022128335
23
-0.3216127107
33
0.0000000000
40
0.0000000000
40
0.0000000000
40
0.0000000000
40
0.0000000000
40
0.8333435558
40
1.0000000000
40
1.0000000000
40
1.0000000000
40
1.0000000000
10
238.7669614974
20
186.5341998038
30
0.0000000000
10
238.7112582397
20
186.4627692082
30
0.0000000000
10
238.6609831165
20
186.3627006472
30
0.0000000000
10
238.6548680624
20
186.2558358887
30
0.0000000000
10
238.6549909900
20
186.2379696118
30
0.0000000000
11
238.7669614974
21
186.5341998038
31
0.0000000000
11
238.6581328069
21
186.2912665299
31
0.0000000000
11
238.6549909900
21
186.2379696118
31
0.0000000000
0
SPLINE
5
412
100
AcDbEntity
8
0
100
AcDbSpline
62
7
6
CONTINUOUS
70
0
71
3
72
10
73
6
74
4
42
0.0000001000
43
0.0000001000
44
0.0000000001
12
-0.0069308128
22
1.0073227286
32
0.0000000000
13
-0.9569757022
23
0.2863265048
33
0.0000000000
40
0.0000000000
40
0.0000000000
40
0.0000000000
40
0.0000000000
40
0.2337403821
40
0.5777571393
40
1.0000000000
40
1.0000000000
40
1.0000000000
40
1.0000000000
10
241.1535781600
20
186.2208264249
30
0.0000000000
10
241.1530381564
20
186.2993104247
30
0.0000000000
10
241.0972296231
20
186.4960049999
30
0.0000000000
10
240.8433105140
20
186.7295011274
30
0.0000000000
10
240.6062127144
20
186.8320096060
30
0.0000000000
10
240.4715206617
20
186.8723093802
30
0.0000000000
11
241.1535781600
21
186.2208264249
31
0.0000000000
11
241.0930047270
21
186.4483485151
31
0.0000000000
11
240.8546012434
21
186.6958342951
31
0.0000000000
11
240.4715206617
21
186.8723093802
31
0.0000000000
0
SPLINE
5
413
100
AcDbEntity
8
0
100
AcDbSpline
62
7
6
CONTINUOUS
70
0
71
3
72
12
73
8
74
6
42
0.0000001000
43
0.0000001000
44
0.0000000001
12
-1.7418635170
22
0.5211644260
32
0.0000000000
13
-1.1432110377
23
-1.4659868861
33
0.0000000000
40
0.0000000000
40
0.0000000000
40
0.0000000000
40
0.0000000000
40
0.2617876297
40
0.5287241651
40
0.7744612192
40
0.9801164893
40
1.0000000000
40
1.0000000000
40
1.0000000000
40
1.0000000000
10
234.2338594469
20
188.7386135396
30
0.0000000000
10
234.0818600065
20
188.7840916729
30
0.0000000000
10
233.7618717799
20
188.8349761812
30
0.0000000000
10
233.2897818959
20
188.8063272319
30
0.0000000000
10
232.8686379640
20
188.6785728965
30
0.0000000000
10
232.6257211620
20
188.5179222751
30
0.0000000000
10
232.5368772989
20
188.4102202852
30
0.0000000000
10
232.5293002826
20
188.4005039632
30
0.0000000000
11
234.2338594469
21
188.7386135396
31
0.0000000000
11
233.7644223130
21
188.8172111979
31
0.0000000000
11
233.2800961751
21
188.7859656484
31
0.0000000000
11
232.8546152973
21
188.6496337427
31
0.0000000000
11
232.5527552862
21
188.4289707776
31
0.0000000000
11
232.5293002826
21
188.4005039632
31
0.0000000000
0
SPLINE
5
414
100
AcDbEntity
8
0
100
AcDbSpline
62
7
6
CONTINUOUS
70
0
71
3
72
9
73
5
74
3
42
0.0000001000
43
0.0000001000
44
0.0000000001
12
-0.2005292679
22
-0.2571469898
32
0.0000000000
13
0.0022128335
23
-0.3216127107
33
0.0000000000
40
0.0000000000
40
0.0000000000
40
0.0000000000
40
0.0000000000
40
0.8333435558
40
1.0000000000
40
1.0000000000
40
1.0000000000
40
1.0000000000
10
232.5293002826
20
188.4005039632
30
0.0000000000
10
232.4735970249
20
188.3290733676
30
0.0000000000
10
232.4233219017
20
188.2290048066
30
0.0000000000
10
232.4172068476
20
188.1221400481
30
0.0000000000
10
232.4173297753
20
188.1042737712
30
0.0000000000
11
232.5293002826
21
188.4005039632
31
0.0000000000
11
232.4204715921
21
188.1575706893
31
0.0000000000
11
232.4173297753
21
188.1042737712
31
0.0000000000
0
SPLINE
5
415
100
AcDbEntity
8
0
100
AcDbSpline
62
7
6
CONTINUOUS
70
0
71
3
72
10
73
6
74
4
42
0.0000001000
43
0.0000001000
44
0.0000000001
12
-0.0069308128
22
1.0073227286
32
0.0000000000
13
-0.9569757022
23
0.2863265048
33
0.0000000000
40
0.0000000000
40
0.0000000000
40
0.0000000000
40
0.0000000000
40
0.2337403821
40
0.5777571393
40
1.0000000000
40
1.0000000000
40
1.0000000000
40
1.0000000000
10
234.9159169452
20
188.0871305843
30
0.0000000000
10
234.9153769416
20
188.1656145841
30
0.0000000000
10
234.8595684084
20
188.3623091593
30
0.0000000000
10
234.6056492993
20
188.5958052868
30
0.0000000000
10
234.3685514996
20
188.6983137655
30
0.0000000000
10
234.2338594469
20
188.7386135396
30
0.0000000000
11
234.9159169452
21
188.0871305843
31
0.0000000000
11
234.8553435122
21
188.3146526745
31
0.0000000000
11
234.6169400286
21
188.5621384545
31
0.0000000000
11
234.2338594469
21
188.7386135396
31
0.0000000000
0
ENDSEC
0
SECTION
2
OBJECTS
0
DICTIONARY
5
416
100
AcDbDictionary
3
ACAD_GROUP
350
417
3
ACAD_MLINESTYLE
350
418
0
DICTIONARY
5
417
102
{ACAD_REACTORS
330
416
102
}
100
AcDbDictionary
0
DICTIONARY
5
418
102
{ACAD_REACTORS
330
416
102
}
100
AcDbDictionary
3
STANDARD
350
419
0
MLINESTYLE
5
419
102
{ACAD_REACTORS
330
418
102
}
100
AcDbMlineStyle
2
STANDARD
70
0
3

62
256
51
90.0
52
90.0
71
2
49
0.5
62
256
6
BYLAYER
49
-0.5
62
256
6
BYLAYER
0
ENDSEC
0
EOF
