  0
SECTION
  2
HEADER
  9
$ACADVER
  1
AC1027
  9
$ACADMAINTVER
 70
   125
  9
$DWGCODEPAGE
  3
ANSI_1252
  9
$LASTSAVEDBY
  1
thangas
  9
$REQUIREDVERSIONS
160
                 0
  9
$INSBASE
 10
0.0
 20
0.0
 30
0.0
  9
$EXTMIN
 10
0.0
 20
0.0
 30
-41.25
  9
$EXTMAX
 10
420.0
 20
297.0
 30
51.25
  9
$LIMMIN
 10
0.0
 20
0.0
  9
$LIMMAX
 10
420.0
 20
297.0
  9
$ORTHOMODE
 70
     0
  9
$REGENMODE
 70
     1
  9
$FILLMODE
 70
     1
  9
$QTEXTMODE
 70
     0
  9
$MIRRTEXT
 70
     0
  9
$LTSCALE
 40
0.75
  9
$ATTMODE
 70
     1
  9
$TEXTSIZE
 40
3.5
  9
$TRACEWID
 40
1.0
  9
$TEXTSTYLE
  7
Standard
  9
$CLAYER
  8
0
  9
$CELTYPE
  6
ByLayer
  9
$CECOLOR
 62
   256
  9
$CELTSCALE
 40
1.0
  9
$DISPSILH
 70
     0
  9
$DIMSCALE
 40
1.0
  9
$DIMASZ
 40
3.5
  9
$DIMEXO
 40
2.0
  9
$DIMDLI
 40
9.899495
  9
$DIMRND
 40
0.0
  9
$DIMDLE
 40
0.0
  9
$DIMEXE
 40
2.0
  9
$DIMTP
 40
0.1
  9
$DIMTM
 40
0.1
  9
$DIMTXT
 40
3.5
  9
$DIMCEN
 40
0.0
  9
$DIMTSZ
 40
0.0
  9
$DIMTOL
 70
     0
  9
$DIMLIM
 70
     0
  9
$DIMTIH
 70
     0
  9
$DIMTOH
 70
     0
  9
$DIMSE1
 70
     0
  9
$DIMSE2
 70
     0
  9
$DIMTAD
 70
     1
  9
$DIMZIN
 70
    12
  9
$DIMBLK
  1

  9
$DIMASO
 70
     1
  9
$DIMSHO
 70
     1
  9
$DIMPOST
  1

  9
$DIMAPOST
  1
in
  9
$DIMALT
 70
     0
  9
$DIMALTD
 70
     4
  9
$DIMALTF
 40
0.03937
  9
$DIMLFAC
 40
1.0
  9
$DIMTOFL
 70
     1
  9
$DIMTVP
 40
0.0
  9
$DIMTIX
 70
     0
  9
$DIMSOXD
 70
     0
  9
$DIMSAH
 70
     0
  9
$DIMBLK1
  1

  9
$DIMBLK2
  1

  9
$DIMSTYLE
  2
ISO-25
  9
$DIMCLRD
 70
   256
  9
$DIMCLRE
 70
   256
  9
$DIMCLRT
 70
   256
  9
$DIMTFAC
 40
0.714
  9
$DIMGAP
 40
1.5
  9
$DIMJUST
 70
     0
  9
$DIMSD1
 70
     0
  9
$DIMSD2
 70
     0
  9
$DIMTOLJ
 70
     0
  9
$DIMTZIN
 70
    12
  9
$DIMALTZ
 70
    12
  9
$DIMALTTZ
 70
    12
  9
$DIMUPT
 70
     0
  9
$DIMDEC
 70
     2
  9
$DIMTDEC
 70
     2
  9
$DIMALTU
 70
     2
  9
$DIMALTTD
 70
     4
  9
$DIMTXSTY
  7
Standard
  9
$DIMAUNIT
 70
     0
  9
$DIMADEC
 70
     2
  9
$DIMALTRND
 40
0.0
  9
$DIMAZIN
 70
     3
  9
$DIMDSEP
 70
    46
  9
$DIMATFIT
 70
     3
  9
$DIMFRAC
 70
     0
  9
$DIMLDRBLK
  1

  9
$DIMLUNIT
 70
     2
  9
$DIMLWD
 70
    -2
  9
$DIMLWE
 70
    -2
  9
$DIMTMOVE
 70
     0
  9
$DIMFXL
 40
1.0
  9
$DIMFXLON
 70
     0
  9
$DIMJOGANG
 40
0.785398
  9
$DIMTFILL
 70
     0
  9
$DIMTFILLCLR
 70
     0
  9
$DIMARCSYM
 70
     0
  9
$DIMLTYPE
  6

  9
$DIMLTEX1
  6

  9
$DIMLTEX2
  6

  9
$DIMTXTDIRECTION
 70
     0
  9
$LUNITS
 70
     2
  9
$LUPREC
 70
     4
  9
$SKETCHINC
 40
1.0
  9
$FILLETRAD
 40
0.0
  9
$AUNITS
 70
     0
  9
$AUPREC
 70
     0
  9
$MENU
  1
.
  9
$ELEVATION
 40
0.0
  9
$PELEVATION
 40
0.0
  9
$THICKNESS
 40
0.0
  9
$LIMCHECK
 70
     0
  9
$CHAMFERA
 40
0.0
  9
$CHAMFERB
 40
0.0
  9
$CHAMFERC
 40
0.0
  9
$CHAMFERD
 40
0.0
  9
$SKPOLY
 70
     0
  9
$TDCREATE
 40
2459254.534074074
  9
$TDUCREATE
 40
2459254.492407408
  9
$TDUPDATE
 40
2459254.534074074
  9
$TDUUPDATE
 40
2459254.492407408
  9
$TDINDWG
 40
0.0000115741
  9
$TDUSRTIMER
 40
0.0000115741
  9
$USRTIMER
 70
     1
  9
$ANGBASE
 50
0.0
  9
$ANGDIR
 70
     0
  9
$PDMODE
 70
     0
  9
$PDSIZE
 40
0.0
  9
$PLINEWID
 40
0.0
  9
$SPLFRAME
 70
     0
  9
$SPLINETYPE
 70
     6
  9
$SPLINESEGS
 70
     8
  9
$HANDSEED
  5
854
  9
$SURFTAB1
 70
     6
  9
$SURFTAB2
 70
     6
  9
$SURFTYPE
 70
     6
  9
$SURFU
 70
     6
  9
$SURFV
 70
     6
  9
$UCSBASE
  2

  9
$UCSNAME
  2

  9
$UCSORG
 10
0.0
 20
0.0
 30
0.0
  9
$UCSXDIR
 10
1.0
 20
0.0
 30
0.0
  9
$UCSYDIR
 10
0.0
 20
1.0
 30
0.0
  9
$UCSORTHOREF
  2

  9
$UCSORTHOVIEW
 70
     0
  9
$UCSORGTOP
 10
0.0
 20
0.0
 30
0.0
  9
$UCSORGBOTTOM
 10
0.0
 20
0.0
 30
0.0
  9
$UCSORGLEFT
 10
0.0
 20
0.0
 30
0.0
  9
$UCSORGRIGHT
 10
0.0
 20
0.0
 30
0.0
  9
$UCSORGFRONT
 10
0.0
 20
0.0
 30
0.0
  9
$UCSORGBACK
 10
0.0
 20
0.0
 30
0.0
  9
$PUCSBASE
  2

  9
$PUCSNAME
  2

  9
$PUCSORG
 10
0.0
 20
0.0
 30
0.0
  9
$PUCSXDIR
 10
1.0
 20
0.0
 30
0.0
  9
$PUCSYDIR
 10
0.0
 20
1.0
 30
0.0
  9
$PUCSORTHOREF
  2

  9
$PUCSORTHOVIEW
 70
     0
  9
$PUCSORGTOP
 10
0.0
 20
0.0
 30
0.0
  9
$PUCSORGBOTTOM
 10
0.0
 20
0.0
 30
0.0
  9
$PUCSORGLEFT
 10
0.0
 20
0.0
 30
0.0
  9
$PUCSORGRIGHT
 10
0.0
 20
0.0
 30
0.0
  9
$PUCSORGFRONT
 10
0.0
 20
0.0
 30
0.0
  9
$PUCSORGBACK
 10
0.0
 20
0.0
 30
0.0
  9
$USERI1
 70
     0
  9
$USERI2
 70
     0
  9
$USERI3
 70
     0
  9
$USERI4
 70
     0
  9
$USERI5
 70
     0
  9
$USERR1
 40
0.0
  9
$USERR2
 40
0.0
  9
$USERR3
 40
0.0
  9
$USERR4
 40
0.0
  9
$USERR5
 40
0.0
  9
$WORLDVIEW
 70
     1
  9
$SHADEDGE
 70
     3
  9
$SHADEDIF
 70
    70
  9
$TILEMODE
 70
     1
  9
$MAXACTVP
 70
    64
  9
$PINSBASE
 10
0.0
 20
0.0
 30
0.0
  9
$PLIMCHECK
 70
     0
  9
$PEXTMIN
 10
1.000000E+20
 20
1.000000E+20
 30
1.000000E+20
  9
$PEXTMAX
 10
-1.000000E+20
 20
-1.000000E+20
 30
-1.000000E+20
  9
$PLIMMIN
 10
0.0
 20
0.0
  9
$PLIMMAX
 10
12.0
 20
9.0
  9
$UNITMODE
 70
     0
  9
$VISRETAIN
 70
     1
  9
$PLINEGEN
 70
     0
  9
$PSLTSCALE
 70
     1
  9
$TREEDEPTH
 70
  3020
  9
$CMLSTYLE
  2
Standard
  9
$CMLJUST
 70
     0
  9
$CMLSCALE
 40
20.0
  9
$PROXYGRAPHICS
 70
     1
  9
$MEASUREMENT
 70
     1
  9
$CELWEIGHT
370
    -1
  9
$ENDCAPS
280
     0
  9
$JOINSTYLE
280
     0
  9
$LWDISPLAY
290
     0
  9
$INSUNITS
 70
     4
  9
$HYPERLINKBASE
  1

  9
$STYLESHEET
  1

  9
$XEDIT
290
     1
  9
$CEPSNTYPE
380
     0
  9
$PSTYLEMODE
290
     1
  9
$FINGERPRINTGUID
  2
{8D8F96DD-7335-0A4F-A5B7-071C5885FAB5}
  9
$VERSIONGUID
  2
{984F1FB0-A713-6647-8AF7-4D3576224BAF}
  9
$EXTNAMES
290
     1
  9
$PSVPSCALE
 40
0.0
  9
$OLESTARTUP
290
     0
  9
$SORTENTS
280
   127
  9
$INDEXCTL
280
     0
  9
$HIDETEXT
280
     1
  9
$XCLIPFRAME
280
     0
  9
$HALOGAP
280
     0
  9
$OBSCOLOR
 70
   257
  9
$OBSLTYPE
280
     0
  9
$INTERSECTIONDISPLAY
280
     0
  9
$INTERSECTIONCOLOR
 70
   257
  9
$DIMASSOC
280
     2
  9
$PROJECTNAME
  1

  9
$CAMERADISPLAY
290
     0
  9
$LENSLENGTH
 40
50.0
  9
$CAMERAHEIGHT
 40
0.0
  9
$STEPSPERSEC
 40
2.0
  9
$STEPSIZE
 40
6.0
  9
$3DDWFPREC
 40
2.0
  9
$PSOLWIDTH
 40
5.0
  9
$PSOLHEIGHT
 40
80.0
  9
$LOFTANG1
 40
1.570796
  9
$LOFTANG2
 40
1.570796
  9
$LOFTMAG1
 40
0.0
  9
$LOFTMAG2
 40
0.0
  9
$LOFTPARAM
 70
     7
  9
$LOFTNORMALS
280
     1
  9
$LATITUDE
 40
37.795
  9
$LONGITUDE
 40
-122.394
  9
$NORTHDIRECTION
 40
0.0
  9
$TIMEZONE
 70
 -8000
  9
$LIGHTGLYPHDISPLAY
280
     1
  9
$TILEMODELIGHTSYNCH
280
     1
  9
$CMATERIAL
347
11
  9
$SOLIDHIST
280
     0
  9
$SHOWHIST
280
     1
  9
$DWFFRAME
280
     2
  9
$DGNFRAME
280
     0
  9
$REALWORLDSCALE
290
     1
  9
$INTERFERECOLOR
 62
     1
  9
$INTERFEREOBJVS
345
33
  9
$INTERFEREVPVS
346
30
  9
$CSHADOW
280
     0
  9
$SHADOWPLANELOCATION
 40
0.0
  0
ENDSEC
  0
SECTION
  2
CLASSES
  0
CLASS
  1
ACDBDICTIONARYWDFLT
  2
AcDbDictionaryWithDefault
  3
ObjectDBX Classes
 90
        0
 91
        1
280
     0
281
     0
  0
CLASS
  1
MATERIAL
  2
AcDbMaterial
  3
ObjectDBX Classes
 90
     1153
 91
        3
280
     0
281
     0
  0
CLASS
  1
VISUALSTYLE
  2
AcDbVisualStyle
  3
ObjectDBX Classes
 90
     4095
 91
       24
280
     0
281
     0
  0
CLASS
  1
SCALE
  2
AcDbScale
  3
ObjectDBX Classes
 90
     1153
 91
       33
280
     0
281
     0
  0
CLASS
  1
TABLESTYLE
  2
AcDbTableStyle
  3
ObjectDBX Classes
 90
     4095
 91
        1
280
     0
281
     0
  0
CLASS
  1
MLEADERSTYLE
  2
AcDbMLeaderStyle
  3
ACDB_MLEADERSTYLE_CLASS
 90
     4095
 91
        1
280
     0
281
     0
  0
CLASS
  1
ACDBSECTIONVIEWSTYLE
  2
AcDbSectionViewStyle
  3
ObjectDBX Classes
 90
     1025
 91
        1
280
     0
281
     0
  0
CLASS
  1
ACDBDETAILVIEWSTYLE
  2
AcDbDetailViewStyle
  3
ObjectDBX Classes
 90
     1025
 91
        1
280
     0
281
     0
  0
CLASS
  1
ACMESCOPE
  2
AcMeScope
  3
AcMeServices
 90
     1024
 91
        1
280
     0
281
     0
  0
CLASS
  1
ACMECOMMANDHISTORY
  2
AcMeCommandHistory
  3
AcMeServices
 90
     1024
 91
        1
280
     0
281
     0
  0
CLASS
  1
ACIMSYSVARMAN
  2
AcImSysVarManager
  3
AcMeServices
 90
     1024
 91
        1
280
     0
281
     0
  0
CLASS
  1
ACIMINTSYSVAR
  2
AcImIntSysVar
  3
AcMeServices
 90
     1024
 91
        1
280
     0
281
     0
  0
CLASS
  1
ACMESTATEMGR
  2
AcMeStateMgr
  3
AcMeServices
 90
     1024
 91
        1
280
     0
281
     0
  0
CLASS
  1
ACGREFMASTER
  2
AcGrefMaster
  3
AcAttribServices
 90
     1024
 91
        1
280
     0
281
     0
  0
CLASS
  1
SORTENTSTABLE
  2
AcDbSortentsTable
  3
ObjectDBX Classes
 90
        0
 91
        3
280
     0
281
     0
  0
CLASS
  1
MULTILEADER
  2
AcDbMLeader
  3
ACDB_MLEADER_CLASS
 90
     1025
 91
        2
280
     0
281
     1
  0
CLASS
  1
FIELD
  2
AcDbField
  3
ObjectDBX Classes
 90
     1152
 91
       12
280
     0
281
     0
  0
CLASS
  1
FIELDLIST
  2
AcDbFieldList
  3
ObjectDBX Classes
 90
     1152
 91
        1
280
     0
281
     0
  0
CLASS
  1
DICTIONARYVAR
  2
AcDbDictionaryVar
  3
ObjectDBX Classes
 90
        0
 91
        6
280
     0
281
     0
  0
CLASS
  1
CELLSTYLEMAP
  2
AcDbCellStyleMap
  3
ObjectDBX Classes
 90
     1152
 91
        1
280
     0
281
     0
  0
ENDSEC
  0
SECTION
  2
TABLES
  0
TABLE
  2
VPORT
  5
8
330
0
100
AcDbSymbolTable
 70
     1
1001
ACAD
1000
DbSaveVer
1071
      223
  0
VPORT
  5
57
330
8
100
AcDbSymbolTableRecord
100
AcDbViewportTableRecord
  2
*Active
 70
     0
 10
0.0
 20
0.0
 11
1.0
 21
1.0
 12
210.0
 22
148.5
 13
0.0
 23
0.0
 14
0.5
 24
0.5
 15
0.0
 25
0.0
 16
0.0
 26
0.0
 36
1.0
 17
0.0
 27
0.0
 37
0.0
 40
297.0
 41
2.093431
 42
50.0
 43
0.0
 44
0.0
 50
0.0
 51
0.0
 71
     0
 72
 20000
 73
     1
 74
     0
 75
     0
 76
     0
 77
     0
 78
     0
281
     0
 65
     1
110
0.0
120
0.0
130
0.0
111
1.0
121
0.0
131
0.0
112
0.0
122
1.0
132
0.0
 79
     0
146
0.0
348
2F
 60
     3
 61
     5
292
     1
282
     1
141
0.0
142
0.0
 63
   250
421
  3355443
  0
ENDTAB
  0
TABLE
  2
LTYPE
  5
5
330
0
100
AcDbSymbolTable
 70
    16
  0
LTYPE
  5
5B
330
5
100
AcDbSymbolTableRecord
100
AcDbLinetypeTableRecord
  2
ByBlock
 70
     0
  3

 72
    65
 73
     0
 40
0.0
  0
LTYPE
  5
5C
330
5
100
AcDbSymbolTableRecord
100
AcDbLinetypeTableRecord
  2
ByLayer
 70
     0
  3

 72
    65
 73
     0
 40
0.0
  0
LTYPE
  5
5D
330
5
100
AcDbSymbolTableRecord
100
AcDbLinetypeTableRecord
  2
Continuous
 70
     0
  3
Solid line
 72
    65
 73
     0
 40
0.0
  0
LTYPE
  5
81
330
5
100
AcDbSymbolTableRecord
100
AcDbLinetypeTableRecord
  2
HIDDEN
 70
     0
  3
Hidden __ __ __ __ __ __ __ __ __ __ __ __ __ _
 72
    65
 73
     2
 40
9.525
 49
6.35
 74
     0
 49
-3.175
 74
     0
  0
LTYPE
  5
82
330
5
100
AcDbSymbolTableRecord
100
AcDbLinetypeTableRecord
  2
PHANTOM2
 70
     0
  3
Phantom (.5x) ___ _ _ ___ _ _ ___ _ _ ___ _ _
 72
    65
 73
     6
 40
31.75
 49
15.875
 74
     0
 49
-3.175
 74
     0
 49
3.175
 74
     0
 49
-3.175
 74
     0
 49
3.175
 74
     0
 49
-3.175
 74
     0
  0
LTYPE
  5
83
330
5
100
AcDbSymbolTableRecord
100
AcDbLinetypeTableRecord
  2
CENTER
 70
     0
  3
Center ____ _ ____ _ ____ _ ____ _ ____ _ ____
 72
    65
 73
     4
 40
50.8
 49
31.75
 74
     0
 49
-6.35
 74
     0
 49
6.35
 74
     0
 49
-6.35
 74
     0
  0
LTYPE
  5
9D
330
5
100
AcDbSymbolTableRecord
100
AcDbLinetypeTableRecord
  2
CENTER2
 70
     0
  3
Center (.5x) ___ _ ___ _ ___ _ ___ _ ___ _ ___
 72
    65
 73
     4
 40
28.575
 49
19.05
 74
     0
 49
-3.175
 74
     0
 49
3.175
 74
     0
 49
-3.175
 74
     0
  0
LTYPE
  5
9E
330
5
100
AcDbSymbolTableRecord
100
AcDbLinetypeTableRecord
  2
HIDDEN2
 70
     0
  3
Hidden (.5x) _ _ _ _ _ _ _ _ _ _ _ _ _ _ _ _ _
 72
    65
 73
     2
 40
4.7625
 49
3.175
 74
     0
 49
-1.5875
 74
     0
  0
LTYPE
  5
9F
330
5
100
AcDbSymbolTableRecord
100
AcDbLinetypeTableRecord
  2
AM_ISO02W050
 70
     0
  3
__ __ __ __ __ __ __ __ __ __ __ __ __ __ __
 72
    65
 73
     2
 40
7.5
 49
6.0
 74
     0
 49
-1.5
 74
     0
  0
LTYPE
  5
A0
330
5
100
AcDbSymbolTableRecord
100
AcDbLinetypeTableRecord
  2
AM_ISO08W050
 70
     0
  3
____ . ____ . ____ . ____ . ____ . ____ . ____
 72
    65
 73
     4
 40
18.0
 49
12.0
 74
     0
 49
-1.5
 74
     0
 49
3.0
 74
     0
 49
-1.5
 74
     0
  0
LTYPE
  5
A1
330
5
100
AcDbSymbolTableRecord
100
AcDbLinetypeTableRecord
  2
AM_ISO09W050
 70
     0
  3
_____ . . _____ . . _____ . . ____ .. ____
 72
    65
 73
     6
 40
22.5
 49
12.0
 74
     0
 49
-1.5
 74
     0
 49
3.0
 74
     0
 49
-1.5
 74
     0
 49
3.0
 74
     0
 49
-1.5
 74
     0
  0
LTYPE
  5
A2
330
5
100
AcDbSymbolTableRecord
100
AcDbLinetypeTableRecord
  2
Amconstr
 70
     0
  3
_______________________
 72
    65
 73
     2
 40
9999.0
 49
9999.0
 74
     0
 49
0.0
 74
     0
  0
LTYPE
  5
A3
330
5
100
AcDbSymbolTableRecord
100
AcDbLinetypeTableRecord
  2
AM_ISO08W050x2
 70
     0
  3
__ . __ . __ . __ . __ . __
 72
    65
 73
     4
 40
9.0
 49
6.0
 74
     0
 49
-0.75
 74
     0
 49
1.5
 74
     0
 49
-0.75
 74
     0
  0
LTYPE
  5
A4
330
5
100
AcDbSymbolTableRecord
100
AcDbLinetypeTableRecord
  2
AM_ISO02W050x2
 70
     0
  3
 _ _ _ _ _ _ _ _ _ _ _ _
 72
    65
 73
     2
 40
3.75
 49
3.0
 74
     0
 49
-0.75
 74
     0
  0
LTYPE
  5
A5
330
5
100
AcDbSymbolTableRecord
100
AcDbLinetypeTableRecord
  2
Amzigzag
 70
     0
  3
/\/-/\/-/\/-/\/-/\/-/\/
 72
    65
 73
     2
 40
11.0001
 49
0.0001
 74
     4
 75
   136
340
9A
 46
0.04
 50
0.0
 44
0.0
 45
0.0
 49
-11.0
 74
     0
  0
LTYPE
  5
A6
330
5
100
AcDbSymbolTableRecord
100
AcDbLinetypeTableRecord
  2
ACISOWELD
 70
     0
  3
_ _ _ _ _
 72
    65
 73
     2
 40
2.0
 49
2.0
 74
     0
 49
-1.0
 74
     0
  0
LTYPE
  5
A7
330
5
100
AcDbSymbolTableRecord
100
AcDbLinetypeTableRecord
  2
ACISOTGL
 70
     0
  3
_ _ _ _ _
 72
    65
 73
     2
 40
3.0
 49
2.0
 74
     0
 49
-1.0
 74
     0
  0
LTYPE
  5
A8
330
5
100
AcDbSymbolTableRecord
100
AcDbLinetypeTableRecord
  2
ACISOTGB
 70
     0
  3
__ . . __ . .
 72
    65
 73
     6
 40
9.0
 49
4.0
 74
     0
 49
-1.0
 74
     0
 49
1.0
 74
     0
 49
-1.0
 74
     0
 49
1.0
 74
     0
 49
-1.0
 74
     0
  0
ENDTAB
  0
TABLE
  2
LAYER
  5
2
330
0
100
AcDbSymbolTable
 70
    15
  0
LAYER
  5
54
330
2
100
AcDbSymbolTableRecord
100
AcDbLayerTableRecord
  2
0
 70
     0
 62
     7
  6
Continuous
370
    -3
390
F
347
21
348
0
1001
AcAecLayerStandard
1000

1000

  0
LAYER
  5
79
330
2
100
AcDbSymbolTableRecord
100
AcDbLayerTableRecord
  2
Defpoints
 70
     0
 62
     7
  6
Continuous
290
     0
370
    -3
390
F
347
21
348
0
1001
AcAecLayerStandard
1000

1000

  0
LAYER
  5
C3
330
2
100
AcDbSymbolTableRecord
100
AcDbLayerTableRecord
  2
Visible
 70
     0
 62
     7
  6
Continuous
370
    50
390
F
347
21
348
0
  0
LAYER
  5
DC
330
2
100
AcDbSymbolTableRecord
100
AcDbLayerTableRecord
  2
Hidden
 70
     0
 62
     7
  6
HIDDEN2
370
    25
390
F
347
21
348
0
  0
LAYER
  5
E8
330
2
100
AcDbSymbolTableRecord
100
AcDbLayerTableRecord
  2
Hidden Narrow
 70
     0
 62
     7
  6
HIDDEN2
370
    25
390
F
347
21
348
0
  0
LAYER
  5
14A
330
2
100
AcDbSymbolTableRecord
100
AcDbLayerTableRecord
  2
Visible Narrow
 70
     0
 62
     7
  6
Continuous
370
    25
390
F
347
21
348
0
  0
LAYER
  5
1F9
330
2
100
AcDbSymbolTableRecord
100
AcDbLayerTableRecord
  2
Border
 70
     0
 62
     7
  6
Continuous
370
    25
390
F
347
21
348
0
1001
AcAecLayerStandard
1000

1000

1001
AcCmTransparency
1071
        0
  0
LAYER
  5
23F
330
2
100
AcDbSymbolTableRecord
100
AcDbLayerTableRecord
  2
TitleBlock
 70
     0
 62
     7
  6
Continuous
370
    35
390
F
347
21
348
0
1001
AcAecLayerStandard
1000

1000

1001
AcCmTransparency
1071
        0
  0
LAYER
  5
28B
330
2
100
AcDbSymbolTableRecord
100
AcDbLayerTableRecord
  2
Center Lines
 70
     0
 62
     7
  6
CENTER2
370
    25
390
F
347
21
348
0
  0
LAYER
  5
2A5
330
2
100
AcDbSymbolTableRecord
100
AcDbLayerTableRecord
  2
Dimensions
 70
     0
 62
     7
  6
Continuous
370
    25
390
F
347
21
348
0
  0
LAYER
  5
371
330
2
100
AcDbSymbolTableRecord
100
AcDbLayerTableRecord
  2
Annotations
 70
     0
 62
     7
  6
Continuous
370
    25
390
F
347
21
348
0
  0
ENDTAB
  0
TABLE
  2
STYLE
  5
3
330
0
100
AcDbSymbolTable
 70
     5
  0
STYLE
  5
55
330
3
100
AcDbSymbolTableRecord
100
AcDbTextStyleTableRecord
  2
Standard
 70
     0
 40
0.0
 41
1.0
 50
0.0
 71
     0
 42
3.5
  3
Arial.ttf
  4

1001
ACAD
1000
Arial
1071
       34
  0
STYLE
  5
5A
330
3
100
AcDbSymbolTableRecord
100
AcDbTextStyleTableRecord
  2
Annotative
 70
     0
 40
0.0
 41
1.0
 50
0.0
 71
     0
 42
0.2
  3
txt
  4

1001
AcadAnnotative
1000
AnnotativeData
1002
{
1070
     1
1070
     1
1002
}
  0
STYLE
  5
99
330
3
100
AcDbSymbolTableRecord
100
AcDbTextStyleTableRecord
  2
FusionTitle
 70
     0
 40
0.0
 41
1.0
 50
0.0
 71
     0
 42
2.5
  3
Arial.ttf
  4

1001
ACAD
1000
Arial
1071
       34
  0
STYLE
  5
9A
330
3
100
AcDbSymbolTableRecord
100
AcDbTextStyleTableRecord
  2

 70
     1
 40
0.0
 41
1.0
 50
0.0
 71
     0
 42
10.0
  3
genltshp.shx
  4

  0
STYLE
  5
9B
330
3
100
AcDbSymbolTableRecord
100
AcDbTextStyleTableRecord
  2
ACISOGDT
 70
     0
 40
0.0
 41
1.0
 50
0.0
 71
     0
 42
10.0
  3
amgdt.shx
  4

  0
ENDTAB
  0
TABLE
  2
VIEW
  5
6
330
0
100
AcDbSymbolTable
 70
     0
  0
ENDTAB
  0
TABLE
  2
UCS
  5
7
330
0
100
AcDbSymbolTable
 70
     0
  0
ENDTAB
  0
TABLE
  2
APPID
  5
9
330
0
100
AcDbSymbolTable
 70
    26
  0
APPID
  5
56
330
9
100
AcDbSymbolTableRecord
100
AcDbRegAppTableRecord
  2
ACAD
 70
     0
  0
APPID
  5
5E
330
9
100
AcDbSymbolTableRecord
100
AcDbRegAppTableRecord
  2
AcadAnnotative
 70
     0
  0
APPID
  5
78
330
9
100
AcDbSymbolTableRecord
100
AcDbRegAppTableRecord
  2
ACAD_PSEXT
 70
     0
  0
APPID
  5
7A
330
9
100
AcDbSymbolTableRecord
100
AcDbRegAppTableRecord
  2
MCAD_NO_VIS
 70
     0
  0
APPID
  5
7B
330
9
100
AcDbSymbolTableRecord
100
AcDbRegAppTableRecord
  2
ACAD_TEMP_GRAPHIC
 70
     0
  0
APPID
  5
84
330
9
100
AcDbSymbolTableRecord
100
AcDbRegAppTableRecord
  2
ACAD_DSTYLE_DIMJAG
 70
     0
  0
APPID
  5
85
330
9
100
AcDbSymbolTableRecord
100
AcDbRegAppTableRecord
  2
ACAD_DSTYLE_DIMTALN
 70
     0
  0
APPID
  5
86
330
9
100
AcDbSymbolTableRecord
100
AcDbRegAppTableRecord
  2
ACAD_NAV_VCDISPLAY
 70
     0
  0
APPID
  5
87
330
9
100
AcDbSymbolTableRecord
100
AcDbRegAppTableRecord
  2
AcAecLayerStandard
 70
     0
  0
APPID
  5
88
330
9
100
AcDbSymbolTableRecord
100
AcDbRegAppTableRecord
  2
AcCmTransparency
 70
     0
  0
APPID
  5
89
330
9
100
AcDbSymbolTableRecord
100
AcDbRegAppTableRecord
  2
AcDbDynamicBlockGUID
 70
     0
  0
APPID
  5
8A
330
9
100
AcDbSymbolTableRecord
100
AcDbRegAppTableRecord
  2
ACAD_DSTYLE_DIMBREAK
 70
     0
  0
APPID
  5
8B
330
9
100
AcDbSymbolTableRecord
100
AcDbRegAppTableRecord
  2
ACAD_DSTYLE_DIMRADIAL_EXTENSION
 70
     0
  0
APPID
  5
8C
330
9
100
AcDbSymbolTableRecord
100
AcDbRegAppTableRecord
  2
FUSIONTITLEBLOCK
 70
     0
  0
APPID
  5
8D
330
9
100
AcDbSymbolTableRecord
100
AcDbRegAppTableRecord
  2
FUSIONCURRENTTITLEBLOCK
 70
     0
  0
APPID
  5
8E
330
9
100
AcDbSymbolTableRecord
100
AcDbRegAppTableRecord
  2
AcSynergy
 70
     0
  0
APPID
  5
8F
330
9
100
AcDbSymbolTableRecord
100
AcDbRegAppTableRecord
  2
ACAD_VIEW_EDGE_ID
 70
     0
  0
APPID
  5
90
330
9
100
AcDbSymbolTableRecord
100
AcDbRegAppTableRecord
  2
GENIUS_GENSCREG_15
 70
     0
  0
APPID
  5
91
330
9
100
AcDbSymbolTableRecord
100
AcDbRegAppTableRecord
  2
GENIUS_GENOBJ-N-SDF_13
 70
     0
  0
APPID
  5
92
330
9
100
AcDbSymbolTableRecord
100
AcDbRegAppTableRecord
  2
GENIUS_GENODEF_13
 70
     0
  0
APPID
  5
93
330
9
100
AcDbSymbolTableRecord
100
AcDbRegAppTableRecord
  2
ACAD_DIMASSOC_CALC_DIMLFAC
 70
     0
  0
APPID
  5
94
330
9
100
AcDbSymbolTableRecord
100
AcDbRegAppTableRecord
  2
ACAD_DIMASSOC_DIMLFAC
 70
     0
  0
APPID
  5
95
330
9
100
AcDbSymbolTableRecord
100
AcDbRegAppTableRecord
  2
ACAD_DIMASSOC_OVERRIDDEN_DIMLFAC
 70
     0
  0
APPID
  5
96
330
9
100
AcDbSymbolTableRecord
100
AcDbRegAppTableRecord
  2
ACAD_DSTYLE_DIMJAG_POSITION
 70
     0
  0
APPID
  5
97
330
9
100
AcDbSymbolTableRecord
100
AcDbRegAppTableRecord
  2
MLEADERTYPE
 70
     0
  0
APPID
  5
98
330
9
100
AcDbSymbolTableRecord
100
AcDbRegAppTableRecord
  2
ACATTRIBSERVICES
 70
     0
  0
ENDTAB
  0
TABLE
  2
DIMSTYLE
  5
A
330
0
100
AcDbSymbolTable
 70
     3
100
AcDbDimStyleTable
 71
     1
340
AB
  0
DIMSTYLE
105
58
330
A
100
AcDbSymbolTableRecord
100
AcDbDimStyleTableRecord
  2
Standard
 70
     0
  4
in
 43
9.899495
 78
    12
 79
     3
140
3.5
143
0.03937
179
     2
271
     2
272
     2
284
    12
285
    12
286
    12
340
55
  0
DIMSTYLE
105
59
330
A
100
AcDbSymbolTableRecord
100
AcDbDimStyleTableRecord
  2
Annotative
 70
     0
  4
in
 40
0.0
 41
2.5
 42
0.625
 43
9.899495
 44
1.25
 73
     0
 74
     0
 77
     1
 78
    12
 79
     3
140
3.5
141
2.5
143
0.03937
147
0.625
171
     3
172
     1
179
     2
271
     2
272
     2
274
     3
278
    44
283
     0
284
    12
285
    12
286
    12
340
55
1001
AcadAnnotative
1000
AnnotativeData
1002
{
1070
     1
1070
     1
1002
}
  0
DIMSTYLE
105
AB
102
{ACAD_REACTORS
330
33E
330
34D
330
359
330
2A4
330
2B2
330
2BC
330
2C6
330
2D5
330
2E2
330
2EF
330
2FE
330
30B
330
318
330
324
330
331
102
}
330
A
100
AcDbSymbolTableRecord
100
AcDbDimStyleTableRecord
  2
ISO-25
 70
     0
  4
in
 41
3.5
 42
2.0
 43
9.899495
 44
2.0
 47
0.1
 48
0.1
 73
     0
 74
     0
 77
     1
 78
    12
 79
     3
140
3.5
141
0.0
143
0.03937
146
0.714
147
1.5
171
     4
172
     1
176
   256
177
   256
178
   256
179
     2
271
     2
272
     2
274
     4
283
     0
284
    12
285
    12
286
    12
340
55
1001
ACAD_DSTYLE_DIMBREAK
1070
   391
1040
3.5
1001
ACAD_DSTYLE_DIMJAG
1070
   388
1040
1.5
1001
ACAD_DSTYLE_DIMTALN
1070
   392
1070
     1
  0
ENDTAB
  0
TABLE
  2
BLOCK_RECORD
  5
1
330
0
100
AcDbSymbolTable
 70
    42
  0
BLOCK_RECORD
  5
70
102
{ACAD_XDICTIONARY
360
BC
102
}
330
1
100
AcDbSymbolTableRecord
100
AcDbBlockTableRecord
  2
*Model_Space
340
73
 70
     0
280
     1
281
     0
  0
BLOCK_RECORD
  5
6C
330
1
100
AcDbSymbolTableRecord
100
AcDbBlockTableRecord
  2
*Paper_Space
340
6F
 70
     0
280
     1
281
     0
  0
BLOCK_RECORD
  5
74
330
1
100
AcDbSymbolTableRecord
100
AcDbBlockTableRecord
  2
*Paper_Space0
340
77
 70
     0
280
     1
281
     0
  0
BLOCK_RECORD
  5
1FA
102
{ACAD_XDICTIONARY
360
1FB
102
}
330
1
100
AcDbSymbolTableRecord
100
AcDbBlockTableRecord
  2
ISO_A3_SHEET
340
0
310
2800000020000000200000000100080000000000000400000000000000000000000000000000000000000000000080000080000000808000800000008000800080800000C0C0C000C0DCC000F0CAA6000020400000206000002080000020A0000020C0000020E00000400000004020000040400000406000004080000040A0
310
000040C0000040E00000600000006020000060400000606000006080000060A0000060C0000060E00000800000008020000080400000806000008080000080A0000080C0000080E00000A0000000A0200000A0400000A0600000A0800000A0A00000A0C00000A0E00000C0000000C0200000C0400000C0600000C0800000C0
310
A00000C0C00000C0E00000E0000000E0200000E0400000E0600000E0800000E0A00000E0C00000E0E00040000000400020004000400040006000400080004000A0004000C0004000E00040200000402020004020400040206000402080004020A0004020C0004020E000404000004040200040404000404060004040800040
310
40A0004040C0004040E00040600000406020004060400040606000406080004060A0004060C0004060E00040800000408020004080400040806000408080004080A0004080C0004080E00040A0000040A0200040A0400040A0600040A0800040A0A00040A0C00040A0E00040C0000040C0200040C0400040C0600040C08000
310
40C0A00040C0C00040C0E00040E0000040E0200040E0400040E0600040E0800040E0A00040E0C00040E0E00080000000800020008000400080006000800080008000A0008000C0008000E00080200000802020008020400080206000802080008020A0008020C0008020E00080400000804020008040400080406000804080
310
008040A0008040C0008040E00080600000806020008060400080606000806080008060A0008060C0008060E00080800000808020008080400080806000808080008080A0008080C0008080E00080A0000080A0200080A0400080A0600080A0800080A0A00080A0C00080A0E00080C0000080C0200080C0400080C0600080C0
310
800080C0A00080C0C00080C0E00080E0000080E0200080E0400080E0600080E0800080E0A00080E0C00080E0E000C0000000C0002000C0004000C0006000C0008000C000A000C000C000C000E000C0200000C0202000C0204000C0206000C0208000C020A000C020C000C020E000C0400000C0402000C0404000C0406000C0
310
408000C040A000C040C000C040E000C0600000C0602000C0604000C0606000C0608000C060A000C060C000C060E000C0800000C0802000C0804000C0806000C0808000C080A000C080C000C080E000C0A00000C0A02000C0A04000C0A06000C0A08000C0A0A000C0A0C000C0A0E000C0C00000C0C02000C0C04000C0C06000
310
C0C08000C0C0A000F0FBFF00A4A0A000808080000000FF0000FF000000FFFF00FF000000FF00FF00FFFF0000FFFFFF0049494949494949494949494949494949494949494949494949494949494949494949494949494949494949494949494949494949494949494949494949494949494949494949494949494949494949
310
494949494949494949494949494949494949494949494949494949494949494949494949494949494949494949494949494949494949494949494949494949494949494949494949494949494949494949494949494949494949494949494949494949494949494949494949494949494949FFFFFFFFFFFFFFFFFFFFFFFFFF
310
FFFFFFFFFFFFFFFFFFFFFFFFFFFFFFFFFF4949FF49FF494949494949494949494949FF494949494949494949494949FFFF49494949FF49494949494949494949494949494949494949494949494949FF49494949FFFF49494949494949494949494949494949494949494949494949FF4949494949FF494949494949494949
310
49494949494949494949494949494949FF4949494949FF49494949494949494949494949494949494949494949494949FF49494949FFFF49494949494949494949494949494949494949494949494949FF4949494949FF49494949494949494949494949494949494949494949494949FF4949494949FF4949494949494949
310
4949494949494949494949494949494949FF4949494949FF49494949494949494949494949494949494949494949494949FF49494949FFFF49494949494949494949494949494949494949494949494949FF4949494949FF49494949494949494949494949494949494949494949494949FF4949494949FF49494949494949
310
494949494949494949494949494949494949FF49494949FFFF49494949494949494949494949494949494949494949494949FF4949494949FF49494949494949494949494949494949494949494949494949FF4949494949FF49494949494949494949494949494949494949494949494949FF49494949FFFF494949494949
310
49494949494949494949494949494949494949FF4949494949FF49494949494949494949494949494949494949494949494949FF494949FF49FF494949494949494949494949FF494949494949494949494949FFFF4949FFFFFFFFFFFFFFFFFFFFFFFFFFFFFFFFFFFFFFFFFFFFFFFFFFFFFFFFFFFF49494949494949494949
310
49494949494949494949494949494949494949494949494949494949494949494949494949494949494949494949494949494949494949494949494949494949494949494949494949494949494949494949494949494949494949494949494949494949494949494949494949494949494949494949494949494949494949
310
4949494949494949494949494949494949494949494949494949494949494949494949494949494949494949494949494949494949494949
102
{BLKREFS
331
1F8
102
}
 70
     4
280
     1
281
     0
1001
AcDbDynamicBlockGUID
1000
{B4874B5E-8040-BF49-A9B6-B81412F7B0AC}
  0
BLOCK_RECORD
  5
240
102
{ACAD_XDICTIONARY
360
241
102
}
330
1
100
AcDbSymbolTableRecord
100
AcDbBlockTableRecord
  2
ISO_TITLEBLOCK
340
0
310
2800000020000000200000000100080000000000000400000000000000000000000000000000000000000000000080000080000000808000800000008000800080800000C0C0C000C0DCC000F0CAA6000020400000206000002080000020A0000020C0000020E00000400000004020000040400000406000004080000040A0
310
000040C0000040E00000600000006020000060400000606000006080000060A0000060C0000060E00000800000008020000080400000806000008080000080A0000080C0000080E00000A0000000A0200000A0400000A0600000A0800000A0A00000A0C00000A0E00000C0000000C0200000C0400000C0600000C0800000C0
310
A00000C0C00000C0E00000E0000000E0200000E0400000E0600000E0800000E0A00000E0C00000E0E00040000000400020004000400040006000400080004000A0004000C0004000E00040200000402020004020400040206000402080004020A0004020C0004020E000404000004040200040404000404060004040800040
310
40A0004040C0004040E00040600000406020004060400040606000406080004060A0004060C0004060E00040800000408020004080400040806000408080004080A0004080C0004080E00040A0000040A0200040A0400040A0600040A0800040A0A00040A0C00040A0E00040C0000040C0200040C0400040C0600040C08000
310
40C0A00040C0C00040C0E00040E0000040E0200040E0400040E0600040E0800040E0A00040E0C00040E0E00080000000800020008000400080006000800080008000A0008000C0008000E00080200000802020008020400080206000802080008020A0008020C0008020E00080400000804020008040400080406000804080
310
008040A0008040C0008040E00080600000806020008060400080606000806080008060A0008060C0008060E00080800000808020008080400080806000808080008080A0008080C0008080E00080A0000080A0200080A0400080A0600080A0800080A0A00080A0C00080A0E00080C0000080C0200080C0400080C0600080C0
310
800080C0A00080C0C00080C0E00080E0000080E0200080E0400080E0600080E0800080E0A00080E0C00080E0E000C0000000C0002000C0004000C0006000C0008000C000A000C000C000C000E000C0200000C0202000C0204000C0206000C0208000C020A000C020C000C020E000C0400000C0402000C0404000C0406000C0
310
408000C040A000C040C000C040E000C0600000C0602000C0604000C0606000C0608000C060A000C060C000C060E000C0800000C0802000C0804000C0806000C0808000C080A000C080C000C080E000C0A00000C0A02000C0A04000C0A06000C0A08000C0A0A000C0A0C000C0A0E000C0C00000C0C02000C0C04000C0C06000
310
C0C08000C0C0A000F0FBFF00A4A0A000808080000000FF0000FF000000FFFF00FF000000FF00FF00FFFF0000FFFFFF0049494949494949494949494949494949494949494949494949494949494949494949494949494949494949494949494949494949494949494949494949494949494949494949494949494949494949
310
49494949494949494949494949494949494949494949494949494949494949494949494949494949494949494949494949494949494949494949494949494949494949494949494949494949494949494949494949494949494949494949494949494949494949494949494949494949494949494949494949494949494949
310
49494949494949494949494949494949494949494949494949494949494949494949494949494949494949494949494949494949494949494949494949494949494949494949494949494949494949494949494949494949494949494949494949494949494949494949494949494949494949494949494949494949494949
310
49494949494949494949494949494949494949494949494949494949494949494949494949494949494949494949494949494949FFFFFFFFFFFFFFFFFFFFFFFFFFFFFFFFFFFFFFFFFFFFFFFFFFFFFF4949494949FF4949494949494949FFFFFFFFFF49494949FFFFFFFFFFFFFFFFFFFF49494949FF4949494949494949FFFF
310
FFFFFF494949FFFFFFFFFFFFFFFFFFFF4949494949FF4949494949494949FFFFFFFFFF494949FFFFFFFFFFFFFFFFFFFF4949494949FF4949494949494949FFFFFFFFFFFFFFFFFFFFFFFFFFFFFFFFFFFF4949494949FFFFFFFFFFFFFFFFFFFFFFFFFFFFFFFFFFFFFFFFFFFFFFFFFFFFFF4949494949FFFFFF49FFFFFFFFFFFF
310
FFFFFFFFFFFFFFFFFFFFFFFFFFFFFFFFFFFFFFFF4949FFFFFFFFFFFFFFFFFFFFFFFFFFFFFFFFFFFFFFFFFFFFFFFFFFFFFF494949494949494949494949494949494949494949494949494949494949494949494949494949494949494949494949494949494949494949494949494949494949494949494949494949494949
310
49494949494949494949494949494949494949494949494949494949494949494949494949494949494949494949494949494949494949494949494949494949494949494949494949494949494949494949494949494949494949494949494949494949494949494949494949494949494949494949494949494949494949
310
49494949494949494949494949494949494949494949494949494949494949494949494949494949494949494949494949494949494949494949494949494949494949494949494949494949494949494949494949494949494949494949494949494949494949494949494949494949494949494949494949494949494949
310
4949494949494949494949494949494949494949494949494949494949494949494949494949494949494949494949494949494949494949
102
{BLKREFS
331
23E
102
}
 70
     4
280
     1
281
     0
1001
AcDbDynamicBlockGUID
1000
{4E801ACD-8F25-234B-AE99-A1285D258BA6}
1001
FUSIONTITLEBLOCK
1000
TitleBlock
  0
BLOCK_RECORD
  5
28C
330
1
100
AcDbSymbolTableRecord
100
AcDbBlockTableRecord
  2
*U7
340
0
102
{BLKREFS
331
28A
102
}
 70
     0
280
     1
281
     0
  0
BLOCK_RECORD
  5
291
330
1
100
AcDbSymbolTableRecord
100
AcDbBlockTableRecord
  2
*U8
340
0
102
{BLKREFS
331
290
102
}
 70
     0
280
     1
281
     0
  0
BLOCK_RECORD
  5
296
330
1
100
AcDbSymbolTableRecord
100
AcDbBlockTableRecord
  2
*U9
340
0
102
{BLKREFS
331
295
102
}
 70
     0
280
     1
281
     0
  0
BLOCK_RECORD
  5
29B
330
1
100
AcDbSymbolTableRecord
100
AcDbBlockTableRecord
  2
*U10
340
0
102
{BLKREFS
331
29A
102
}
 70
     0
280
     1
281
     0
  0
BLOCK_RECORD
  5
2A0
330
1
100
AcDbSymbolTableRecord
100
AcDbBlockTableRecord
  2
*U11
340
0
102
{BLKREFS
331
29F
102
}
 70
     0
280
     1
281
     0
  0
BLOCK_RECORD
  5
2A6
330
1
100
AcDbSymbolTableRecord
100
AcDbBlockTableRecord
  2
*D12
340
0
 70
     0
280
     1
281
     0
  0
BLOCK_RECORD
  5
2B3
330
1
100
AcDbSymbolTableRecord
100
AcDbBlockTableRecord
  2
*D13
340
0
 70
     0
280
     1
281
     0
  0
BLOCK_RECORD
  5
2BD
330
1
100
AcDbSymbolTableRecord
100
AcDbBlockTableRecord
  2
*D14
340
0
 70
     0
280
     1
281
     0
  0
BLOCK_RECORD
  5
2C7
330
1
100
AcDbSymbolTableRecord
100
AcDbBlockTableRecord
  2
*D15
340
0
 70
     0
280
     1
281
     0
  0
BLOCK_RECORD
  5
2D6
330
1
100
AcDbSymbolTableRecord
100
AcDbBlockTableRecord
  2
*D16
340
0
 70
     0
280
     1
281
     0
  0
BLOCK_RECORD
  5
2E3
330
1
100
AcDbSymbolTableRecord
100
AcDbBlockTableRecord
  2
*D17
340
0
 70
     0
280
     1
281
     0
  0
BLOCK_RECORD
  5
2F0
330
1
100
AcDbSymbolTableRecord
100
AcDbBlockTableRecord
  2
*D18
340
0
 70
     0
280
     1
281
     0
  0
BLOCK_RECORD
  5
2FF
330
1
100
AcDbSymbolTableRecord
100
AcDbBlockTableRecord
  2
*D19
340
0
 70
     0
280
     1
281
     0
  0
BLOCK_RECORD
  5
30C
330
1
100
AcDbSymbolTableRecord
100
AcDbBlockTableRecord
  2
*D20
340
0
 70
     0
280
     1
281
     0
  0
BLOCK_RECORD
  5
319
330
1
100
AcDbSymbolTableRecord
100
AcDbBlockTableRecord
  2
*D21
340
0
 70
     0
280
     1
281
     0
  0
BLOCK_RECORD
  5
325
330
1
100
AcDbSymbolTableRecord
100
AcDbBlockTableRecord
  2
*D22
340
0
 70
     0
280
     1
281
     0
  0
BLOCK_RECORD
  5
332
330
1
100
AcDbSymbolTableRecord
100
AcDbBlockTableRecord
  2
*D23
340
0
 70
     0
280
     1
281
     0
  0
BLOCK_RECORD
  5
33F
330
1
100
AcDbSymbolTableRecord
100
AcDbBlockTableRecord
  2
*D24
340
0
 70
     0
280
     1
281
     0
  0
BLOCK_RECORD
  5
34E
330
1
100
AcDbSymbolTableRecord
100
AcDbBlockTableRecord
  2
*D25
340
0
 70
     0
280
     1
281
     0
  0
BLOCK_RECORD
  5
35A
330
1
100
AcDbSymbolTableRecord
100
AcDbBlockTableRecord
  2
*D26
340
0
 70
     0
280
     1
281
     0
  0
BLOCK_RECORD
  5
37D
330
1
100
AcDbSymbolTableRecord
100
AcDbBlockTableRecord
  2
*D27
340
0
 70
     0
280
     1
281
     0
  0
BLOCK_RECORD
  5
389
330
1
100
AcDbSymbolTableRecord
100
AcDbBlockTableRecord
  2
*D28
340
0
 70
     0
280
     1
281
     0
  0
BLOCK_RECORD
  5
392
330
1
100
AcDbSymbolTableRecord
100
AcDbBlockTableRecord
  2
*D29
340
0
 70
     0
280
     1
281
     0
  0
BLOCK_RECORD
  5
39B
330
1
100
AcDbSymbolTableRecord
100
AcDbBlockTableRecord
  2
*D30
340
0
 70
     0
280
     1
281
     0
  0
BLOCK_RECORD
  5
3A9
330
1
100
AcDbSymbolTableRecord
100
AcDbBlockTableRecord
  2
*D31
340
0
 70
     0
280
     1
281
     0
  0
BLOCK_RECORD
  5
3B5
330
1
100
AcDbSymbolTableRecord
100
AcDbBlockTableRecord
  2
*D32
340
0
 70
     0
280
     1
281
     0
  0
BLOCK_RECORD
  5
3C1
330
1
100
AcDbSymbolTableRecord
100
AcDbBlockTableRecord
  2
*D33
340
0
 70
     0
280
     1
281
     0
  0
BLOCK_RECORD
  5
3CF
330
1
100
AcDbSymbolTableRecord
100
AcDbBlockTableRecord
  2
*D34
340
0
 70
     0
280
     1
281
     0
  0
BLOCK_RECORD
  5
3DB
330
1
100
AcDbSymbolTableRecord
100
AcDbBlockTableRecord
  2
*D35
340
0
 70
     0
280
     1
281
     0
  0
BLOCK_RECORD
  5
3E7
330
1
100
AcDbSymbolTableRecord
100
AcDbBlockTableRecord
  2
*D36
340
0
 70
     0
280
     1
281
     0
  0
BLOCK_RECORD
  5
3F2
330
1
100
AcDbSymbolTableRecord
100
AcDbBlockTableRecord
  2
*D37
340
0
 70
     0
280
     1
281
     0
  0
BLOCK_RECORD
  5
3FE
330
1
100
AcDbSymbolTableRecord
100
AcDbBlockTableRecord
  2
*D38
340
0
 70
     0
280
     1
281
     0
  0
BLOCK_RECORD
  5
40A
330
1
100
AcDbSymbolTableRecord
100
AcDbBlockTableRecord
  2
*D39
340
0
 70
     0
280
     1
281
     0
  0
BLOCK_RECORD
  5
418
330
1
100
AcDbSymbolTableRecord
100
AcDbBlockTableRecord
  2
*D40
340
0
 70
     0
280
     1
281
     0
  0
BLOCK_RECORD
  5
423
330
1
100
AcDbSymbolTableRecord
100
AcDbBlockTableRecord
  2
*D41
340
0
 70
     0
280
     1
281
     0
  0
ENDTAB
  0
ENDSEC
  0
SECTION
  2
BLOCKS
  0
BLOCK
  5
71
330
70
100
AcDbEntity
  8
0
100
AcDbBlockBegin
  2
*Model_Space
 70
     0
 10
0.0
 20
0.0
 30
0.0
  3
*Model_Space
  1

  0
ENDBLK
  5
72
330
70
100
AcDbEntity
  8
0
100
AcDbBlockEnd
  0
BLOCK
  5
6D
330
6C
100
AcDbEntity
 67
     1
  8
0
100
AcDbBlockBegin
  2
*Paper_Space
 70
     0
 10
0.0
 20
0.0
 30
0.0
  3
*Paper_Space
  1

  0
ENDBLK
  5
6E
330
6C
100
AcDbEntity
 67
     1
  8
0
100
AcDbBlockEnd
  0
BLOCK
  5
75
330
74
100
AcDbEntity
 67
     1
  8
0
100
AcDbBlockBegin
  2
*Paper_Space0
 70
     0
 10
0.0
 20
0.0
 30
0.0
  3
*Paper_Space0
  1

  0
ENDBLK
  5
76
330
74
100
AcDbEntity
 67
     1
  8
0
100
AcDbBlockEnd
  0
BLOCK
  5
1FC
330
1FA
100
AcDbEntity
  8
0
100
AcDbBlockBegin
  2
ISO_A3_SHEET
 70
     0
 10
0.0
 20
0.0
 30
0.0
  3
ISO_A3_SHEET
  1

  0
LINE
  5
1FD
330
1FA
100
AcDbEntity
  8
Defpoints
100
AcDbLine
 10
0.0
 20
0.0
 30
0.0
 11
15.0
 21
0.0
 31
0.0
  0
LINE
  5
1FE
330
1FA
100
AcDbEntity
  8
Defpoints
100
AcDbLine
 10
405.0
 20
0.0
 30
0.0
 11
420.0
 21
0.0
 31
0.0
  0
LINE
  5
1FF
330
1FA
100
AcDbEntity
  8
Border
100
AcDbLine
 10
20.0
 20
10.0
 30
0.0
 11
410.0
 21
10.0
 31
0.0
  0
LINE
  5
200
330
1FA
100
AcDbEntity
  8
Defpoints
100
AcDbLine
 10
420.0
 20
0.0
 30
0.0
 11
420.0
 21
15.0
 31
0.0
  0
LINE
  5
201
330
1FA
100
AcDbEntity
  8
Defpoints
100
AcDbLine
 10
420.0
 20
282.0
 30
0.0
 11
420.0
 21
297.0
 31
0.0
  0
LINE
  5
202
330
1FA
100
AcDbEntity
  8
Defpoints
100
AcDbLine
 10
420.0
 20
297.0
 30
0.0
 11
405.0
 21
297.0
 31
0.0
  0
LINE
  5
203
330
1FA
100
AcDbEntity
  8
Defpoints
100
AcDbLine
 10
15.0
 20
297.0
 30
0.0
 11
0.0
 21
297.0
 31
0.0
  0
LINE
  5
204
330
1FA
100
AcDbEntity
  8
Border
100
AcDbLine
 10
410.0
 20
287.0
 30
0.0
 11
20.0
 21
287.0
 31
0.0
  0
LINE
  5
205
330
1FA
100
AcDbEntity
  8
Defpoints
100
AcDbLine
 10
0.0
 20
297.0
 30
0.0
 11
0.0
 21
282.0
 31
0.0
  0
LINE
  5
206
330
1FA
100
AcDbEntity
  8
Defpoints
100
AcDbLine
 10
0.0
 20
15.0
 30
0.0
 11
0.0
 21
0.0
 31
0.0
  0
LINE
  5
207
330
1FA
100
AcDbEntity
  8
Border
100
AcDbLine
 10
20.0
 20
287.0
 30
0.0
 11
20.0
 21
10.0
 31
0.0
  0
LINE
  5
208
330
1FA
100
AcDbEntity
  8
Border
100
AcDbLine
 10
410.0
 20
287.0
 30
0.0
 11
410.0
 21
10.0
 31
0.0
  0
LINE
  5
209
330
1FA
100
AcDbEntity
  8
Border
100
AcDbLine
 10
215.0
 20
5.0
 30
0.0
 11
215.0
 21
15.0
 31
0.0
  0
LINE
  5
20A
330
1FA
100
AcDbEntity
  8
Border
100
AcDbLine
 10
215.0
 20
292.0
 30
0.0
 11
215.0
 21
282.0
 31
0.0
  0
LINE
  5
20B
330
1FA
100
AcDbEntity
  8
Border
100
AcDbLine
 10
265.0
 20
292.0
 30
0.0
 11
265.0
 21
287.0
 31
0.0
  0
LINE
  5
20C
330
1FA
100
AcDbEntity
  8
Border
100
AcDbLine
 10
315.0
 20
292.0
 30
0.0
 11
315.0
 21
287.0
 31
0.0
  0
LINE
  5
20D
330
1FA
100
AcDbEntity
  8
Border
100
AcDbLine
 10
365.0
 20
292.0
 30
0.0
 11
365.0
 21
287.0
 31
0.0
  0
LINE
  5
20E
330
1FA
100
AcDbEntity
  8
Border
100
AcDbLine
 10
165.0
 20
292.0
 30
0.0
 11
165.0
 21
287.0
 31
0.0
  0
LINE
  5
20F
330
1FA
100
AcDbEntity
  8
Border
100
AcDbLine
 10
115.0
 20
292.0
 30
0.0
 11
115.0
 21
287.0
 31
0.0
  0
LINE
  5
210
330
1FA
100
AcDbEntity
  8
Border
100
AcDbLine
 10
65.0
 20
292.0
 30
0.0
 11
65.0
 21
287.0
 31
0.0
  0
LINE
  5
211
330
1FA
100
AcDbEntity
  8
Border
100
AcDbLine
 10
15.0
 20
148.5
 30
0.0
 11
25.0
 21
148.5
 31
0.0
  0
LINE
  5
212
330
1FA
100
AcDbEntity
  8
Border
100
AcDbLine
 10
15.0
 20
100.66667
 30
0.0
 11
20.0
 21
100.66667
 31
0.0
  0
LINE
  5
213
330
1FA
100
AcDbEntity
  8
Border
100
AcDbLine
 10
15.0
 20
52.83334
 30
0.0
 11
20.0
 21
52.83334
 31
0.0
  0
LINE
  5
214
330
1FA
100
AcDbEntity
  8
Border
100
AcDbLine
 10
15.0
 20
196.33333
 30
0.0
 11
20.0
 21
196.33333
 31
0.0
  0
LINE
  5
215
330
1FA
100
AcDbEntity
  8
Border
100
AcDbLine
 10
15.0
 20
244.16666
 30
0.0
 11
20.0
 21
244.16666
 31
0.0
  0
LINE
  5
216
330
1FA
100
AcDbEntity
  8
Border
100
AcDbLine
 10
415.0
 20
148.5
 30
0.0
 11
405.0
 21
148.5
 31
0.0
  0
LINE
  5
217
330
1FA
100
AcDbEntity
  8
Border
100
AcDbLine
 10
265.0
 20
5.0
 30
0.0
 11
265.0
 21
10.0
 31
0.0
  0
LINE
  5
218
330
1FA
100
AcDbEntity
  8
Border
100
AcDbLine
 10
315.0
 20
5.0
 30
0.0
 11
315.0
 21
10.0
 31
0.0
  0
LINE
  5
219
330
1FA
100
AcDbEntity
  8
Border
100
AcDbLine
 10
365.0
 20
5.0
 30
0.0
 11
365.0
 21
10.0
 31
0.0
  0
LINE
  5
21A
330
1FA
100
AcDbEntity
  8
Border
100
AcDbLine
 10
165.0
 20
5.0
 30
0.0
 11
165.0
 21
10.0
 31
0.0
  0
LINE
  5
21B
330
1FA
100
AcDbEntity
  8
Border
100
AcDbLine
 10
115.0
 20
5.0
 30
0.0
 11
115.0
 21
10.0
 31
0.0
  0
LINE
  5
21C
330
1FA
100
AcDbEntity
  8
Border
100
AcDbLine
 10
65.0
 20
5.0
 30
0.0
 11
65.0
 21
10.0
 31
0.0
  0
LINE
  5
21D
330
1FA
100
AcDbEntity
  8
Border
100
AcDbLine
 10
415.0
 20
100.66667
 30
0.0
 11
410.0
 21
100.66667
 31
0.0
  0
LINE
  5
21E
330
1FA
100
AcDbEntity
  8
Border
100
AcDbLine
 10
415.0
 20
52.83334
 30
0.0
 11
410.0
 21
52.83334
 31
0.0
  0
LINE
  5
21F
330
1FA
100
AcDbEntity
  8
Border
100
AcDbLine
 10
415.0
 20
196.33333
 30
0.0
 11
410.0
 21
196.33333
 31
0.0
  0
LINE
  5
220
330
1FA
100
AcDbEntity
  8
Border
100
AcDbLine
 10
415.0
 20
244.16666
 30
0.0
 11
410.0
 21
244.16666
 31
0.0
  0
TEXT
  5
221
330
1FA
100
AcDbEntity
  8
Border
100
AcDbText
 10
39.02882
 20
288.244884
 30
0.0
 40
2.5
  1
1
  7
FusionTitle
 72
     4
 11
40.0
 21
289.5
 31
0.0
100
AcDbText
  0
TEXT
  5
222
330
1FA
100
AcDbEntity
  8
Border
100
AcDbText
 10
16.335266
 20
266.83333
 30
0.0
 40
2.5
  1
A
  7
FusionTitle
 72
     4
 11
17.5
 21
268.08333
 31
0.0
100
AcDbText
  0
TEXT
  5
223
330
1FA
100
AcDbEntity
  8
Border
100
AcDbText
 10
89.02882
 20
288.244884
 30
0.0
 40
2.5
  1
2
  7
FusionTitle
 72
     4
 11
90.0
 21
289.5
 31
0.0
100
AcDbText
  0
TEXT
  5
224
330
1FA
100
AcDbEntity
  8
Border
100
AcDbText
 10
139.02882
 20
288.267053
 30
0.0
 40
2.5
  1
3
  7
FusionTitle
 72
     4
 11
140.0
 21
289.5
 31
0.0
100
AcDbText
  0
TEXT
  5
225
330
1FA
100
AcDbEntity
  8
Border
100
AcDbText
 10
189.02882
 20
288.25
 30
0.0
 40
2.5
  1
4
  7
FusionTitle
 72
     4
 11
190.0
 21
289.5
 31
0.0
100
AcDbText
  0
TEXT
  5
226
330
1FA
100
AcDbEntity
  8
Border
100
AcDbText
 10
239.02882
 20
288.28837
 30
0.0
 40
2.5
  1
5
  7
FusionTitle
 72
     4
 11
240.0
 21
289.5
 31
0.0
100
AcDbText
  0
TEXT
  5
227
330
1FA
100
AcDbEntity
  8
Border
100
AcDbText
 10
289.02882
 20
288.266201
 30
0.0
 40
2.5
  1
6
  7
FusionTitle
 72
     4
 11
290.0
 21
289.5
 31
0.0
100
AcDbText
  0
TEXT
  5
228
330
1FA
100
AcDbEntity
  8
Border
100
AcDbText
 10
339.02882
 20
288.266201
 30
0.0
 40
2.5
  1
7
  7
FusionTitle
 72
     4
 11
340.0
 21
289.5
 31
0.0
100
AcDbText
  0
TEXT
  5
229
330
1FA
100
AcDbEntity
  8
Border
100
AcDbText
 10
389.02882
 20
288.266201
 30
0.0
 40
2.5
  1
8
  7
FusionTitle
 72
     4
 11
390.0
 21
289.5
 31
0.0
100
AcDbText
  0
TEXT
  5
22A
330
1FA
100
AcDbEntity
  8
Border
100
AcDbText
 10
39.02882
 20
6.244884
 30
0.0
 40
2.5
  1
1
  7
FusionTitle
 72
     4
 11
40.0
 21
7.5
 31
0.0
100
AcDbText
  0
TEXT
  5
22B
330
1FA
100
AcDbEntity
  8
Border
100
AcDbText
 10
89.02882
 20
6.244884
 30
0.0
 40
2.5
  1
2
  7
FusionTitle
 72
     4
 11
90.0
 21
7.5
 31
0.0
100
AcDbText
  0
TEXT
  5
22C
330
1FA
100
AcDbEntity
  8
Border
100
AcDbText
 10
139.02882
 20
6.267053
 30
0.0
 40
2.5
  1
3
  7
FusionTitle
 72
     4
 11
140.0
 21
7.5
 31
0.0
100
AcDbText
  0
TEXT
  5
22D
330
1FA
100
AcDbEntity
  8
Border
100
AcDbText
 10
189.02882
 20
6.25
 30
0.0
 40
2.5
  1
4
  7
FusionTitle
 72
     4
 11
190.0
 21
7.5
 31
0.0
100
AcDbText
  0
TEXT
  5
22E
330
1FA
100
AcDbEntity
  8
Border
100
AcDbText
 10
239.02882
 20
6.28837
 30
0.0
 40
2.5
  1
5
  7
FusionTitle
 72
     4
 11
240.0
 21
7.5
 31
0.0
100
AcDbText
  0
TEXT
  5
22F
330
1FA
100
AcDbEntity
  8
Border
100
AcDbText
 10
289.02882
 20
6.266201
 30
0.0
 40
2.5
  1
6
  7
FusionTitle
 72
     4
 11
290.0
 21
7.5
 31
0.0
100
AcDbText
  0
TEXT
  5
230
330
1FA
100
AcDbEntity
  8
Border
100
AcDbText
 10
339.02882
 20
6.266201
 30
0.0
 40
2.5
  1
7
  7
FusionTitle
 72
     4
 11
340.0
 21
7.5
 31
0.0
100
AcDbText
  0
TEXT
  5
231
330
1FA
100
AcDbEntity
  8
Border
100
AcDbText
 10
389.02882
 20
6.266201
 30
0.0
 40
2.5
  1
8
  7
FusionTitle
 72
     4
 11
390.0
 21
7.5
 31
0.0
100
AcDbText
  0
TEXT
  5
232
330
1FA
100
AcDbEntity
  8
Border
100
AcDbText
 10
16.335266
 20
219.0
 30
0.0
 40
2.5
  1
B
  7
FusionTitle
 72
     4
 11
17.5
 21
220.25
 31
0.0
100
AcDbText
  0
TEXT
  5
233
330
1FA
100
AcDbEntity
  8
Border
100
AcDbText
 10
16.238915
 20
171.16667
 30
0.0
 40
2.5
  1
C
  7
FusionTitle
 72
     4
 11
17.5
 21
172.41667
 31
0.0
100
AcDbText
  0
TEXT
  5
234
330
1FA
100
AcDbEntity
  8
Border
100
AcDbText
 10
16.238915
 20
123.33334
 30
0.0
 40
2.5
  1
D
  7
FusionTitle
 72
     4
 11
17.5
 21
124.58334
 31
0.0
100
AcDbText
  0
TEXT
  5
235
330
1FA
100
AcDbEntity
  8
Border
100
AcDbText
 10
16.335266
 20
75.50001
 30
0.0
 40
2.5
  1
E
  7
FusionTitle
 72
     4
 11
17.5
 21
76.75001
 31
0.0
100
AcDbText
  0
TEXT
  5
236
330
1FA
100
AcDbEntity
  8
Border
100
AcDbText
 10
16.433322
 20
27.66668
 30
0.0
 40
2.5
  1
F
  7
FusionTitle
 72
     4
 11
17.5
 21
28.91668
 31
0.0
100
AcDbText
  0
TEXT
  5
237
330
1FA
100
AcDbEntity
  8
Border
100
AcDbText
 10
411.335266
 20
266.83333
 30
0.0
 40
2.5
  1
A
  7
FusionTitle
 72
     4
 11
412.5
 21
268.08333
 31
0.0
100
AcDbText
  0
TEXT
  5
238
330
1FA
100
AcDbEntity
  8
Border
100
AcDbText
 10
411.335266
 20
219.0
 30
0.0
 40
2.5
  1
B
  7
FusionTitle
 72
     4
 11
412.5
 21
220.25
 31
0.0
100
AcDbText
  0
TEXT
  5
239
330
1FA
100
AcDbEntity
  8
Border
100
AcDbText
 10
411.238915
 20
171.16667
 30
0.0
 40
2.5
  1
C
  7
FusionTitle
 72
     4
 11
412.5
 21
172.41667
 31
0.0
100
AcDbText
  0
TEXT
  5
23A
330
1FA
100
AcDbEntity
  8
Border
100
AcDbText
 10
411.238915
 20
123.33334
 30
0.0
 40
2.5
  1
D
  7
FusionTitle
 72
     4
 11
412.5
 21
124.58334
 31
0.0
100
AcDbText
  0
TEXT
  5
23B
330
1FA
100
AcDbEntity
  8
Border
100
AcDbText
 10
411.335266
 20
75.50001
 30
0.0
 40
2.5
  1
E
  7
FusionTitle
 72
     4
 11
412.5
 21
76.75001
 31
0.0
100
AcDbText
  0
TEXT
  5
23C
330
1FA
100
AcDbEntity
  8
Border
100
AcDbText
 10
411.433322
 20
27.66668
 30
0.0
 40
2.5
  1
F
  7
FusionTitle
 72
     4
 11
412.5
 21
28.91668
 31
0.0
100
AcDbText
  0
ENDBLK
  5
23D
330
1FA
100
AcDbEntity
  8
0
100
AcDbBlockEnd
  0
BLOCK
  5
243
330
240
100
AcDbEntity
  8
0
100
AcDbBlockBegin
  2
ISO_TITLEBLOCK
 70
     2
 10
0.0
 20
0.0
 30
0.0
  3
ISO_TITLEBLOCK
  1

  0
LINE
  5
244
330
240
100
AcDbEntity
  8
TitleBlock
100
AcDbLine
 10
-180.0
 20
0.0
 30
0.0
 11
0.0
 21
0.0
 31
0.0
  0
LINE
  5
245
330
240
100
AcDbEntity
  8
TitleBlock
100
AcDbLine
 10
-61.0
 20
10.0
 30
0.0
 11
0.0
 21
10.0
 31
0.0
  0
LINE
  5
246
330
240
100
AcDbEntity
  8
TitleBlock
100
AcDbLine
 10
-122.0
 20
27.0
 30
0.0
 11
0.0
 21
27.0
 31
0.0
  0
LINE
  5
247
330
240
100
AcDbEntity
  8
TitleBlock
100
AcDbLine
 10
-180.0
 20
37.0
 30
0.0
 11
0.0
 21
37.0
 31
0.0
  0
LINE
  5
248
330
240
100
AcDbEntity
  8
TitleBlock
100
AcDbLine
 10
0.0
 20
0.0
 30
0.0
 11
0.0
 21
47.0
 31
0.0
  0
LINE
  5
249
330
240
100
AcDbEntity
  8
TitleBlock
100
AcDbLine
 10
-15.0
 20
0.0
 30
0.0
 11
-15.0
 21
10.0
 31
0.0
  0
LINE
  5
24A
330
240
100
AcDbEntity
  8
TitleBlock
100
AcDbLine
 10
-51.0
 20
0.0
 30
0.0
 11
-51.0
 21
10.0
 31
0.0
  0
LINE
  5
24B
330
240
100
AcDbEntity
  8
TitleBlock
100
AcDbLine
 10
-61.0
 20
0.0
 30
0.0
 11
-61.0
 21
47.0
 31
0.0
  0
LINE
  5
24C
330
240
100
AcDbEntity
  8
TitleBlock
100
AcDbLine
 10
-122.0
 20
0.0
 30
0.0
 11
-122.0
 21
47.0
 31
0.0
  0
LINE
  5
24D
330
240
100
AcDbEntity
  8
TitleBlock
100
AcDbLine
 10
-156.0
 20
37.0
 30
0.0
 11
-156.0
 21
47.0
 31
0.0
  0
LINE
  5
24E
330
240
100
AcDbEntity
  8
TitleBlock
100
AcDbLine
 10
0.0
 20
47.0
 30
0.0
 11
-180.0
 21
47.0
 31
0.0
  0
LINE
  5
24F
330
240
100
AcDbEntity
  8
TitleBlock
100
AcDbLine
 10
-180.0
 20
47.0
 30
0.0
 11
-180.0
 21
0.0
 31
0.0
  0
TEXT
  5
250
330
240
100
AcDbEntity
  8
TitleBlock
100
AcDbText
 10
-179.0
 20
44.2
 30
0.0
 40
1.8
  1
Dept.
  7
FusionTitle
 11
-179.0
 21
46.0
 31
0.0
100
AcDbText
 73
     3
  0
TEXT
  5
251
330
240
100
AcDbEntity
  8
TitleBlock
100
AcDbText
 10
-155.0
 20
44.2
 30
0.0
 40
1.8
  1
Technical reference
  7
FusionTitle
 11
-155.0
 21
46.0
 31
0.0
100
AcDbText
 73
     3
  0
TEXT
  5
252
330
240
100
AcDbEntity
  8
TitleBlock
100
AcDbText
 10
-121.0
 20
44.2
 30
0.0
 40
1.8
  1
Created by
  7
FusionTitle
 11
-121.0
 21
46.0
 31
0.0
100
AcDbText
 73
     3
  0
TEXT
  5
253
330
240
100
AcDbEntity
  8
TitleBlock
100
AcDbText
 10
-60.0
 20
44.2
 30
0.0
 40
1.8
  1
Approved by
  7
FusionTitle
 11
-60.0
 21
46.0
 31
0.0
100
AcDbText
 73
     3
  0
TEXT
  5
254
330
240
100
AcDbEntity
  8
TitleBlock
100
AcDbText
 10
-121.0
 20
34.2
 30
0.0
 40
1.8
  1
Document type
  7
FusionTitle
 11
-121.0
 21
36.0
 31
0.0
100
AcDbText
 73
     3
  0
TEXT
  5
255
330
240
100
AcDbEntity
  8
TitleBlock
100
AcDbText
 10
-60.0
 20
34.2
 30
0.0
 40
1.8
  1
Document status
  7
FusionTitle
 11
-60.0
 21
36.0
 31
0.0
100
AcDbText
 73
     3
  0
TEXT
  5
256
330
240
100
AcDbEntity
  8
TitleBlock
100
AcDbText
 10
-121.0
 20
24.2
 30
0.0
 40
1.8
  1
Title
  7
FusionTitle
 11
-121.0
 21
26.0
 31
0.0
100
AcDbText
 73
     3
  0
TEXT
  5
257
330
240
100
AcDbEntity
  8
TitleBlock
100
AcDbText
 10
-60.0
 20
24.2
 30
0.0
 40
1.8
  1
DWG No.
  7
FusionTitle
 11
-60.0
 21
26.0
 31
0.0
100
AcDbText
 73
     3
  0
TEXT
  5
258
330
240
100
AcDbEntity
  8
TitleBlock
100
AcDbText
 10
-60.0
 20
7.2
 30
0.0
 40
1.8
  1
Rev.
  7
FusionTitle
 11
-60.0
 21
9.0
 31
0.0
100
AcDbText
 73
     3
  0
TEXT
  5
259
330
240
100
AcDbEntity
  8
TitleBlock
100
AcDbText
 10
-50.0
 20
7.2
 30
0.0
 40
1.8
  1
Date of issue
  7
FusionTitle
 11
-50.0
 21
9.0
 31
0.0
100
AcDbText
 73
     3
  0
TEXT
  5
25A
330
240
100
AcDbEntity
  8
TitleBlock
100
AcDbText
 10
-14.0
 20
7.2
 30
0.0
 40
1.8
  1
Sheet
  7
FusionTitle
 11
-14.0
 21
9.0
 31
0.0
100
AcDbText
 73
     3
  0
ATTDEF
  5
25B
102
{ACAD_XDICTIONARY
360
25C
102
}
330
240
100
AcDbEntity
  8
TitleBlock
100
AcDbText
 10
-50.0
 20
1.5
 30
0.0
 40
3.5
  1

  7
FusionTitle
 11
-50.0
 21
5.0
 31
0.0
100
AcDbAttributeDefinition
280
     0
  3
Date of issue
  2
DATE_OF_ISSUE
 70
     0
 74
     3
280
     1
  0
ATTDEF
  5
25D
102
{ACAD_XDICTIONARY
360
25E
102
}
330
240
100
AcDbEntity
  8
TitleBlock
100
AcDbText
 10
-61.026774
 20
1.35
 30
0.0
 40
3.5
  1

  7
FusionTitle
 72
     1
 11
-56.0
 21
4.85
 31
0.0
100
AcDbAttributeDefinition
280
     0
  3
Revision
  2
REV
 70
     0
 74
     3
280
     1
  0
ATTDEF
  5
25F
102
{ACAD_XDICTIONARY
360
260
102
}
330
240
100
AcDbEntity
  8
TitleBlock
100
AcDbText
 10
-121.0
 20
1.5
 30
0.0
 40
5.0
  1

  7
FusionTitle
 11
-121.0
 21
6.5
 31
0.0
100
AcDbAttributeDefinition
280
     0
  3
3rd Title
  2
TITLE_3
 70
     0
 74
     3
280
     1
  0
ATTDEF
  5
261
102
{ACAD_XDICTIONARY
360
262
102
}
330
240
100
AcDbEntity
  8
TitleBlock
100
AcDbText
 10
-60.0
 20
28.5
 30
0.0
 40
3.5
  1

  7
FusionTitle
 11
-60.0
 21
32.0
 31
0.0
100
AcDbAttributeDefinition
280
     0
  3
Document status
  2
DOCUMENT_STATUS
 70
     0
 74
     3
280
     1
  0
ATTDEF
  5
263
102
{ACAD_XDICTIONARY
360
264
102
}
330
240
100
AcDbEntity
  8
TitleBlock
100
AcDbText
 10
-121.0
 20
28.5
 30
0.0
 40
3.5
  1

  7
FusionTitle
 11
-121.0
 21
32.0
 31
0.0
100
AcDbAttributeDefinition
280
     0
  3
Document type
  2
DOCUMENT_TYPE
 70
     0
 74
     3
280
     1
  0
ATTDEF
  5
265
102
{ACAD_XDICTIONARY
360
266
102
}
330
240
100
AcDbEntity
  8
TitleBlock
100
AcDbText
 10
-43.923943
 20
38.5
 30
0.0
 40
3.5
  1

  7
FusionTitle
 72
     2
 11
-0.992838
 21
42.0
 31
0.0
100
AcDbAttributeDefinition
280
     0
  3
Approved date
  2
APPROVED_DATE
 70
     0
 74
     3
280
     1
  0
ATTDEF
  5
267
102
{ACAD_XDICTIONARY
360
268
102
}
330
240
100
AcDbEntity
  8
TitleBlock
100
AcDbText
 10
-101.123124
 20
38.5
 30
0.0
 40
3.5
  1

  7
FusionTitle
 72
     2
 11
-62.0
 21
42.0
 31
0.0
100
AcDbAttributeDefinition
280
     0
  3
Created date
  2
CREATED_DATE
 70
     0
 74
     3
280
     1
  0
ATTDEF
  5
269
102
{ACAD_XDICTIONARY
360
26A
102
}
330
240
100
AcDbEntity
  8
TitleBlock
100
AcDbText
 10
-15.65075
 20
1.35
 30
0.0
 40
3.5
  1

  7
FusionTitle
 72
     1
 11
-7.5
 21
4.85
 31
0.0
100
AcDbAttributeDefinition
280
     0
  3
Sheet
  2
SHEET
 70
     0
 74
     3
280
     1
  0
ATTDEF
  5
26B
102
{ACAD_XDICTIONARY
360
26C
102
}
330
240
100
AcDbEntity
  8
TitleBlock
100
AcDbText
 10
-121.0
 20
9.0
 30
0.0
 40
5.0
  1

  7
FusionTitle
 11
-121.0
 21
14.0
 31
0.0
100
AcDbAttributeDefinition
280
     0
  3
2nd Title
  2
TITLE_2
 70
     0
 74
     3
280
     1
  0
ATTDEF
  5
26D
102
{ACAD_XDICTIONARY
360
26E
102
}
330
240
100
AcDbEntity
  8
TitleBlock
100
AcDbText
 10
-64.456344
 20
14.751432
 30
0.0
 40
5.0
  1

  7
FusionTitle
 72
     1
 11
-30.5
 21
19.751432
 31
0.0
100
AcDbAttributeDefinition
280
     0
  3
Drawing number
  2
DRAWING_NUMBER
 70
     0
 74
     3
280
     1
  0
ATTDEF
  5
26F
102
{ACAD_XDICTIONARY
360
270
102
}
330
240
100
AcDbEntity
  8
TitleBlock
100
AcDbText
 10
-121.0
 20
16.5
 30
0.0
 40
5.0
  1

  7
FusionTitle
 11
-121.0
 21
21.5
 31
0.0
100
AcDbAttributeDefinition
280
     0
  3
1st Title
  2
TITLE_1
 70
     0
 74
     3
280
     1
  0
ATTDEF
  5
271
102
{ACAD_XDICTIONARY
360
272
102
}
330
240
100
AcDbEntity
  8
TitleBlock
100
AcDbText
 10
-60.0
 20
38.5
 30
0.0
 40
3.5
  1

  7
FusionTitle
 11
-60.0
 21
42.0
 31
0.0
100
AcDbAttributeDefinition
280
     0
  3
Approved by
  2
APPROVED_BY
 70
     0
 74
     3
280
     1
  0
ATTDEF
  5
273
102
{ACAD_XDICTIONARY
360
274
102
}
330
240
100
AcDbEntity
  8
TitleBlock
100
AcDbText
 10
-121.0
 20
38.5
 30
0.0
 40
3.5
  1

  7
FusionTitle
 11
-121.0
 21
42.0
 31
0.0
100
AcDbAttributeDefinition
280
     0
  3
Created by
  2
CREATED_BY
 70
     0
 74
     3
280
     1
  0
ATTDEF
  5
275
102
{ACAD_XDICTIONARY
360
276
102
}
330
240
100
AcDbEntity
  8
TitleBlock
100
AcDbText
 10
-155.0
 20
38.5
 30
0.0
 40
3.5
  1

  7
FusionTitle
 11
-155.0
 21
42.0
 31
0.0
100
AcDbAttributeDefinition
280
     0
  3
Technical reference
  2
TECHNICAL_REFERENCE
 70
     0
 74
     3
280
     1
  0
ATTDEF
  5
277
102
{ACAD_XDICTIONARY
360
278
102
}
330
240
100
AcDbEntity
  8
TitleBlock
100
AcDbText
 10
-179.0
 20
38.5
 30
0.0
 40
3.5
  1

  7
FusionTitle
 11
-179.0
 21
42.0
 31
0.0
100
AcDbAttributeDefinition
280
     0
  3
Department
  2
DEPT
 70
     0
 74
     3
280
     1
  0
ENDBLK
  5
279
330
240
100
AcDbEntity
  8
0
100
AcDbBlockEnd
  0
BLOCK
  5
28D
330
28C
100
AcDbEntity
  8
0
100
AcDbBlockBegin
  2
*U7
 70
     1
 10
0.0
 20
0.0
 30
0.0
  3
*U7
  1

  0
LINE
  5
28E
330
28C
100
AcDbEntity
  8
Center Lines
 62
     0
440
 16777216
 48
0.75
100
AcDbLine
 10
0.0
 20
32.737821
 30
0.0
 11
0.0
 21
-32.737821
 31
0.0
  0
ENDBLK
  5
28F
330
28C
100
AcDbEntity
  8
0
100
AcDbBlockEnd
  0
BLOCK
  5
292
330
291
100
AcDbEntity
  8
0
100
AcDbBlockBegin
  2
*U8
 70
     1
 10
0.0
 20
0.0
 30
0.0
  3
*U8
  1

  0
LINE
  5
293
330
291
100
AcDbEntity
  8
Center Lines
 62
     0
440
 16777216
 48
0.75
100
AcDbLine
 10
0.0
 20
-32.737821
 30
0.0
 11
0.0
 21
32.737821
 31
0.0
  0
ENDBLK
  5
294
330
291
100
AcDbEntity
  8
0
100
AcDbBlockEnd
  0
BLOCK
  5
297
330
296
100
AcDbEntity
  8
0
100
AcDbBlockBegin
  2
*U9
 70
     1
 10
0.0
 20
0.0
 30
0.0
  3
*U9
  1

  0
LINE
  5
298
330
296
100
AcDbEntity
  8
Center Lines
 62
     0
440
 16777216
 48
0.75
100
AcDbLine
 10
0.0
 20
12.166061
 30
0.0
 11
0.0
 21
-12.166061
 31
0.0
  0
ENDBLK
  5
299
330
296
100
AcDbEntity
  8
0
100
AcDbBlockEnd
  0
BLOCK
  5
29C
330
29B
100
AcDbEntity
  8
0
100
AcDbBlockBegin
  2
*U10
 70
     1
 10
0.0
 20
0.0
 30
0.0
  3
*U10
  1

  0
LINE
  5
29D
330
29B
100
AcDbEntity
  8
Center Lines
 62
     0
440
 16777216
 48
0.75
100
AcDbLine
 10
0.0
 20
11.0
 30
0.0
 11
0.0
 21
-11.0
 31
0.0
  0
ENDBLK
  5
29E
330
29B
100
AcDbEntity
  8
0
100
AcDbBlockEnd
  0
BLOCK
  5
2A1
330
2A0
100
AcDbEntity
  8
0
100
AcDbBlockBegin
  2
*U11
 70
     1
 10
0.0
 20
0.0
 30
0.0
  3
*U11
  1

  0
LINE
  5
2A2
330
2A0
100
AcDbEntity
  8
Center Lines
 62
     0
440
 16777216
 48
0.75
100
AcDbLine
 10
13.5
 20
0.0
 30
0.0
 11
-13.5
 21
0.0
 31
0.0
  0
ENDBLK
  5
2A3
330
2A0
100
AcDbEntity
  8
0
100
AcDbBlockEnd
  0
BLOCK
  5
2A7
330
2A6
100
AcDbEntity
  8
0
100
AcDbBlockBegin
  2
*D12
 70
     1
 10
0.0
 20
0.0
 30
0.0
  3
*D12
  1

  0
LINE
  5
2A8
330
2A6
100
AcDbEntity
  8
Dimensions
440
 16777216
370
    -2
100
AcDbLine
 10
99.555835
 20
237.739277
 30
0.0
 11
59.957855
 21
237.739277
 31
0.0
  0
LINE
  5
2A9
330
2A6
100
AcDbEntity
  8
Dimensions
440
 16777216
370
    -2
100
AcDbLine
 10
99.555835
 20
157.739277
 30
0.0
 11
59.957855
 21
157.739277
 31
0.0
  0
LINE
  5
2AA
330
2A6
100
AcDbEntity
  8
Dimensions
440
 16777216
370
    -2
100
AcDbLine
 10
61.957855
 20
234.239277
 30
0.0
 11
61.957855
 21
161.239277
 31
0.0
  0
SOLID
  5
2AB
330
2A6
100
AcDbEntity
  8
Dimensions
440
 16777216
100
AcDbTrace
 10
61.374522
 20
234.239277
 30
0.0
 11
62.541188
 21
234.239277
 31
0.0
 12
61.957855
 22
237.739277
 32
0.0
 13
61.957855
 23
237.739277
 33
0.0
  0
SOLID
  5
2AC
330
2A6
100
AcDbEntity
  8
Dimensions
440
 16777216
100
AcDbTrace
 10
61.374522
 20
161.239277
 30
0.0
 11
62.541188
 21
161.239277
 31
0.0
 12
61.957855
 22
157.739277
 32
0.0
 13
61.957855
 23
157.739277
 33
0.0
  0
MTEXT
  5
2AD
330
2A6
100
AcDbEntity
  8
Dimensions
440
 16777216
100
AcDbMText
 10
58.67085
 20
197.739277
 30
0.0
 40
3.5
 41
0.0
 46
0.0
 71
     5
 72
     1
  1
80
 11
0.0
 21
1.0
 31
0.0
 73
     1
 44
1.0
  0
POINT
  5
2AE
330
2A6
100
AcDbEntity
  8
Defpoints
 62
     0
440
 16777216
100
AcDbPoint
 10
101.555835
 20
237.739277
 30
0.0
  0
POINT
  5
2AF
330
2A6
100
AcDbEntity
  8
Defpoints
 62
     0
440
 16777216
100
AcDbPoint
 10
101.555835
 20
157.739277
 30
0.0
  0
POINT
  5
2B0
330
2A6
100
AcDbEntity
  8
Defpoints
 62
     0
440
 16777216
100
AcDbPoint
 10
61.957855
 20
157.739277
 30
0.0
  0
ENDBLK
  5
2B1
330
2A6
100
AcDbEntity
  8
0
100
AcDbBlockEnd
  0
BLOCK
  5
2B4
330
2B3
100
AcDbEntity
  8
0
100
AcDbBlockBegin
  2
*D13
 70
     1
 10
0.0
 20
0.0
 30
0.0
  3
*D13
  1

  0
LINE
  5
2B5
330
2B3
100
AcDbEntity
  8
Dimensions
440
 16777216
370
    -2
100
AcDbLine
 10
71.553307
 20
139.748318
 30
0.0
 11
89.977883
 21
150.79658
 31
0.0
  0
MTEXT
  5
2B6
330
2B3
100
AcDbEntity
  8
Dimensions
440
 16777216
100
AcDbMText
 10
74.730469
 20
145.486176
 30
0.0
 40
3.5
 41
0.0
 46
0.0
 71
     5
 72
     1
  1
R10
 11
0.857626
 21
0.514274
 31
0.0
 73
     1
 44
1.0
  0
LINE
  5
2B7
330
2B3
100
AcDbEntity
  8
Dimensions
440
 16777216
370
    -2
100
AcDbLine
 10
101.555835
 20
157.739277
 30
0.0
 11
92.979574
 21
152.596538
 31
0.0
  0
SOLID
  5
2B8
330
2B3
100
AcDbEntity
  8
Dimensions
440
 16777216
100
AcDbTrace
 10
89.67789
 20
151.296862
 30
0.0
 11
90.277876
 21
150.296298
 31
0.0
 12
92.979574
 22
152.596538
 32
0.0
 13
92.979574
 23
152.596538
 33
0.0
  0
POINT
  5
2B9
330
2B3
100
AcDbEntity
  8
Defpoints
 62
     0
440
 16777216
100
AcDbPoint
 10
92.979574
 20
152.596538
 30
0.0
  0
POINT
  5
2BA
330
2B3
100
AcDbEntity
  8
Defpoints
 62
     0
440
 16777216
100
AcDbPoint
 10
101.555835
 20
157.739277
 30
0.0
  0
ENDBLK
  5
2BB
330
2B3
100
AcDbEntity
  8
0
100
AcDbBlockEnd
  0
BLOCK
  5
2BE
330
2BD
100
AcDbEntity
  8
0
100
AcDbBlockBegin
  2
*D14
 70
     1
 10
0.0
 20
0.0
 30
0.0
  3
*D14
  1

  0
LINE
  5
2BF
330
2BD
100
AcDbEntity
  8
Dimensions
440
 16777216
370
    -2
100
AcDbLine
 10
139.619026
 20
264.580452
 30
0.0
 11
114.631682
 21
246.960025
 31
0.0
  0
MTEXT
  5
2C0
330
2BD
100
AcDbEntity
  8
Dimensions
440
 16777216
100
AcDbMText
 10
131.4045
 20
262.809861
 30
0.0
 40
3.5
 41
0.0
 46
0.0
 71
     5
 72
     1
  1
R12.5
 11
0.81724
 21
0.576297
 31
0.0
 73
     1
 44
1.0
  0
LINE
  5
2C1
330
2BD
100
AcDbEntity
  8
Dimensions
440
 16777216
370
    -2
100
AcDbLine
 10
101.555835
 20
237.739277
 30
0.0
 11
111.771341
 21
244.942987
 31
0.0
  0
SOLID
  5
2C2
330
2BD
100
AcDbEntity
  8
Dimensions
440
 16777216
100
AcDbTrace
 10
114.295509
 20
247.436749
 30
0.0
 11
114.967856
 21
246.483302
 31
0.0
 12
111.771341
 22
244.942987
 32
0.0
 13
111.771341
 23
244.942987
 33
0.0
  0
POINT
  5
2C3
330
2BD
100
AcDbEntity
  8
Defpoints
 62
     0
440
 16777216
100
AcDbPoint
 10
111.771341
 20
244.942987
 30
0.0
  0
POINT
  5
2C4
330
2BD
100
AcDbEntity
  8
Defpoints
 62
     0
440
 16777216
100
AcDbPoint
 10
101.555835
 20
237.739277
 30
0.0
  0
ENDBLK
  5
2C5
330
2BD
100
AcDbEntity
  8
0
100
AcDbBlockEnd
  0
BLOCK
  5
2C8
330
2C7
100
AcDbEntity
  8
0
100
AcDbBlockBegin
  2
*D15
 70
     1
 10
0.0
 20
0.0
 30
0.0
  3
*D15
  1

  0
LINE
  5
2C9
330
2C7
100
AcDbEntity
  8
Dimensions
440
 16777216
370
    -2
100
AcDbLine
 10
206.134818
 20
224.739277
 30
0.0
 11
206.134818
 21
264.337256
 31
0.0
  0
LINE
  5
2CA
330
2C7
100
AcDbEntity
  8
Dimensions
440
 16777216
370
    -2
100
AcDbLine
 10
198.134818
 20
224.739277
 30
0.0
 11
198.134818
 21
264.337256
 31
0.0
  0
LINE
  5
2CB
330
2C7
100
AcDbEntity
  8
Dimensions
440
 16777216
370
    -2
100
AcDbLine
 10
209.634818
 20
262.337256
 30
0.0
 11
213.134818
 21
262.337256
 31
0.0
  0
LINE
  5
2CC
330
2C7
100
AcDbEntity
  8
Dimensions
440
 16777216
370
    -2
100
AcDbLine
 10
194.634818
 20
262.337256
 30
0.0
 11
191.134818
 21
262.337256
 31
0.0
  0
LINE
  5
2CD
330
2C7
100
AcDbEntity
  8
Dimensions
440
 16777216
370
    -2
100
AcDbLine
 10
206.134818
 20
262.337256
 30
0.0
 11
198.134818
 21
262.337256
 31
0.0
  0
SOLID
  5
2CE
330
2C7
100
AcDbEntity
  8
Dimensions
440
 16777216
100
AcDbTrace
 10
209.634818
 20
262.92059
 30
0.0
 11
209.634818
 21
261.753923
 31
0.0
 12
206.134818
 22
262.337256
 32
0.0
 13
206.134818
 23
262.337256
 33
0.0
  0
SOLID
  5
2CF
330
2C7
100
AcDbEntity
  8
Dimensions
440
 16777216
100
AcDbTrace
 10
194.634818
 20
262.92059
 30
0.0
 11
194.634818
 21
261.753923
 31
0.0
 12
198.134818
 22
262.337256
 32
0.0
 13
198.134818
 23
262.337256
 33
0.0
  0
MTEXT
  5
2D0
330
2C7
100
AcDbEntity
  8
Dimensions
440
 16777216
100
AcDbMText
 10
202.134818
 20
265.624262
 30
0.0
 40
3.5
 41
0.0
 46
0.0
 71
     5
 72
     1
  1
8
 73
     1
 44
1.0
  0
POINT
  5
2D1
330
2C7
100
AcDbEntity
  8
Defpoints
 62
     0
440
 16777216
100
AcDbPoint
 10
206.134818
 20
222.739277
 30
0.0
  0
POINT
  5
2D2
330
2C7
100
AcDbEntity
  8
Defpoints
 62
     0
440
 16777216
100
AcDbPoint
 10
198.134818
 20
222.739277
 30
0.0
  0
POINT
  5
2D3
330
2C7
100
AcDbEntity
  8
Defpoints
 62
     0
440
 16777216
100
AcDbPoint
 10
198.134818
 20
262.337256
 30
0.0
  0
ENDBLK
  5
2D4
330
2C7
100
AcDbEntity
  8
0
100
AcDbBlockEnd
  0
BLOCK
  5
2D7
330
2D6
100
AcDbEntity
  8
0
100
AcDbBlockBegin
  2
*D16
 70
     1
 10
0.0
 20
0.0
 30
0.0
  3
*D16
  1

  0
LINE
  5
2D8
330
2D6
100
AcDbEntity
  8
Dimensions
440
 16777216
370
    -2
100
AcDbLine
 10
204.134818
 20
250.239277
 30
0.0
 11
188.77836
 21
250.239277
 31
0.0
  0
LINE
  5
2D9
330
2D6
100
AcDbEntity
  8
Dimensions
440
 16777216
370
    -2
100
AcDbLine
 10
196.134818
 20
222.739277
 30
0.0
 11
188.77836
 21
222.739277
 31
0.0
  0
LINE
  5
2DA
330
2D6
100
AcDbEntity
  8
Dimensions
440
 16777216
370
    -2
100
AcDbLine
 10
190.77836
 20
246.739277
 30
0.0
 11
190.77836
 21
226.239277
 31
0.0
  0
SOLID
  5
2DB
330
2D6
100
AcDbEntity
  8
Dimensions
440
 16777216
100
AcDbTrace
 10
190.195027
 20
246.739277
 30
0.0
 11
191.361693
 21
246.739277
 31
0.0
 12
190.77836
 22
250.239277
 32
0.0
 13
190.77836
 23
250.239277
 33
0.0
  0
SOLID
  5
2DC
330
2D6
100
AcDbEntity
  8
Dimensions
440
 16777216
100
AcDbTrace
 10
190.195027
 20
226.239277
 30
0.0
 11
191.361693
 21
226.239277
 31
0.0
 12
190.77836
 22
222.739277
 32
0.0
 13
190.77836
 23
222.739277
 33
0.0
  0
MTEXT
  5
2DD
330
2D6
100
AcDbEntity
  8
Dimensions
440
 16777216
100
AcDbMText
 10
187.491355
 20
236.489277
 30
0.0
 40
3.5
 41
0.0
 46
0.0
 71
     5
 72
     1
  1
27.5
 11
0.0
 21
1.0
 31
0.0
 73
     1
 44
1.0
  0
POINT
  5
2DE
330
2D6
100
AcDbEntity
  8
Defpoints
 62
     0
440
 16777216
100
AcDbPoint
 10
206.134818
 20
250.239277
 30
0.0
  0
POINT
  5
2DF
330
2D6
100
AcDbEntity
  8
Defpoints
 62
     0
440
 16777216
100
AcDbPoint
 10
198.134818
 20
222.739277
 30
0.0
  0
POINT
  5
2E0
330
2D6
100
AcDbEntity
  8
Defpoints
 62
     0
440
 16777216
100
AcDbPoint
 10
190.77836
 20
222.739277
 30
0.0
  0
ENDBLK
  5
2E1
330
2D6
100
AcDbEntity
  8
0
100
AcDbBlockEnd
  0
BLOCK
  5
2E4
330
2E3
100
AcDbEntity
  8
0
100
AcDbBlockBegin
  2
*D17
 70
     1
 10
0.0
 20
0.0
 30
0.0
  3
*D17
  1

  0
LINE
  5
2E5
330
2E3
100
AcDbEntity
  8
Dimensions
440
 16777216
370
    -2
100
AcDbLine
 10
104.155835
 20
220.239277
 30
0.0
 11
133.10746
 21
220.239277
 31
0.0
  0
LINE
  5
2E6
330
2E3
100
AcDbEntity
  8
Dimensions
440
 16777216
370
    -2
100
AcDbLine
 10
104.155835
 20
198.989277
 30
0.0
 11
133.10746
 21
198.989277
 31
0.0
  0
LINE
  5
2E7
330
2E3
100
AcDbEntity
  8
Dimensions
440
 16777216
370
    -2
100
AcDbLine
 10
131.10746
 20
216.739277
 30
0.0
 11
131.10746
 21
202.489277
 31
0.0
  0
SOLID
  5
2E8
330
2E3
100
AcDbEntity
  8
Dimensions
440
 16777216
100
AcDbTrace
 10
130.524127
 20
216.739277
 30
0.0
 11
131.690794
 21
216.739277
 31
0.0
 12
131.10746
 22
220.239277
 32
0.0
 13
131.10746
 23
220.239277
 33
0.0
  0
SOLID
  5
2E9
330
2E3
100
AcDbEntity
  8
Dimensions
440
 16777216
100
AcDbTrace
 10
130.524127
 20
202.489277
 30
0.0
 11
131.690794
 21
202.489277
 31
0.0
 12
131.10746
 22
198.989277
 32
0.0
 13
131.10746
 23
198.989277
 33
0.0
  0
MTEXT
  5
2EA
330
2E3
100
AcDbEntity
  8
Dimensions
440
 16777216
100
AcDbMText
 10
127.820455
 20
209.614277
 30
0.0
 40
3.5
 41
0.0
 46
0.0
 71
     5
 72
     1
  1
21.25
 11
0.0
 21
1.0
 31
0.0
 73
     1
 44
1.0
  0
POINT
  5
2EB
330
2E3
100
AcDbEntity
  8
Defpoints
 62
     0
440
 16777216
100
AcDbPoint
 10
102.155835
 20
220.239277
 30
0.0
  0
POINT
  5
2EC
330
2E3
100
AcDbEntity
  8
Defpoints
 62
     0
440
 16777216
100
AcDbPoint
 10
102.155835
 20
198.989277
 30
0.0
  0
POINT
  5
2ED
330
2E3
100
AcDbEntity
  8
Defpoints
 62
     0
440
 16777216
100
AcDbPoint
 10
131.10746
 20
198.989277
 30
0.0
  0
ENDBLK
  5
2EE
330
2E3
100
AcDbEntity
  8
0
100
AcDbBlockEnd
  0
BLOCK
  5
2F1
330
2F0
100
AcDbEntity
  8
0
100
AcDbBlockBegin
  2
*D18
 70
     1
 10
0.0
 20
0.0
 30
0.0
  3
*D18
  1

  0
LINE
  5
2F2
330
2F0
100
AcDbEntity
  8
Dimensions
440
 16777216
370
    -2
100
AcDbLine
 10
104.155835
 20
198.989277
 30
0.0
 11
133.085774
 21
198.989277
 31
0.0
  0
LINE
  5
2F3
330
2F0
100
AcDbEntity
  8
Dimensions
440
 16777216
370
    -2
100
AcDbLine
 10
104.155835
 20
196.489277
 30
0.0
 11
133.085774
 21
196.489277
 31
0.0
  0
LINE
  5
2F4
330
2F0
100
AcDbEntity
  8
Dimensions
440
 16777216
370
    -2
100
AcDbLine
 10
131.085774
 20
202.489277
 30
0.0
 11
131.085774
 21
205.989277
 31
0.0
  0
LINE
  5
2F5
330
2F0
100
AcDbEntity
  8
Dimensions
440
 16777216
370
    -2
100
AcDbLine
 10
131.085774
 20
192.989277
 30
0.0
 11
131.085774
 21
180.031227
 31
0.0
  0
LINE
  5
2F6
330
2F0
100
AcDbEntity
  8
Dimensions
440
 16777216
370
    -2
100
AcDbLine
 10
131.085774
 20
198.989277
 30
0.0
 11
131.085774
 21
196.489277
 31
0.0
  0
SOLID
  5
2F7
330
2F0
100
AcDbEntity
  8
Dimensions
440
 16777216
100
AcDbTrace
 10
130.502441
 20
202.489277
 30
0.0
 11
131.669108
 21
202.489277
 31
0.0
 12
131.085774
 22
198.989277
 32
0.0
 13
131.085774
 23
198.989277
 33
0.0
  0
SOLID
  5
2F8
330
2F0
100
AcDbEntity
  8
Dimensions
440
 16777216
100
AcDbTrace
 10
130.502441
 20
192.989277
 30
0.0
 11
131.669108
 21
192.989277
 31
0.0
 12
131.085774
 22
196.489277
 32
0.0
 13
131.085774
 23
196.489277
 33
0.0
  0
MTEXT
  5
2F9
330
2F0
100
AcDbEntity
  8
Dimensions
440
 16777216
100
AcDbMText
 10
127.798769
 20
184.760252
 30
0.0
 40
3.5
 41
0.0
 46
0.0
 71
     5
 72
     1
  1
2.5
 11
0.0
 21
1.0
 31
0.0
 73
     1
 44
1.0
  0
POINT
  5
2FA
330
2F0
100
AcDbEntity
  8
Defpoints
 62
     0
440
 16777216
100
AcDbPoint
 10
102.155835
 20
198.989277
 30
0.0
  0
POINT
  5
2FB
330
2F0
100
AcDbEntity
  8
Defpoints
 62
     0
440
 16777216
100
AcDbPoint
 10
102.155835
 20
196.489277
 30
0.0
  0
POINT
  5
2FC
330
2F0
100
AcDbEntity
  8
Defpoints
 62
     0
440
 16777216
100
AcDbPoint
 10
131.085774
 20
196.489277
 30
0.0
  0
ENDBLK
  5
2FD
330
2F0
100
AcDbEntity
  8
0
100
AcDbBlockEnd
  0
BLOCK
  5
300
330
2FF
100
AcDbEntity
  8
0
100
AcDbBlockBegin
  2
*D19
 70
     1
 10
0.0
 20
0.0
 30
0.0
  3
*D19
  1

  0
LINE
  5
301
330
2FF
100
AcDbEntity
  8
Dimensions
440
 16777216
370
    -2
100
AcDbLine
 10
104.155835
 20
196.489277
 30
0.0
 11
123.124859
 21
196.489277
 31
0.0
  0
LINE
  5
302
330
2FF
100
AcDbEntity
  8
Dimensions
440
 16777216
370
    -2
100
AcDbLine
 10
104.155835
 20
175.239277
 30
0.0
 11
123.124859
 21
175.239277
 31
0.0
  0
LINE
  5
303
330
2FF
100
AcDbEntity
  8
Dimensions
440
 16777216
370
    -2
100
AcDbLine
 10
121.124859
 20
192.989277
 30
0.0
 11
121.124859
 21
178.739277
 31
0.0
  0
SOLID
  5
304
330
2FF
100
AcDbEntity
  8
Dimensions
440
 16777216
100
AcDbTrace
 10
120.541526
 20
192.989277
 30
0.0
 11
121.708192
 21
192.989277
 31
0.0
 12
121.124859
 22
196.489277
 32
0.0
 13
121.124859
 23
196.489277
 33
0.0
  0
SOLID
  5
305
330
2FF
100
AcDbEntity
  8
Dimensions
440
 16777216
100
AcDbTrace
 10
120.541526
 20
178.739277
 30
0.0
 11
121.708192
 21
178.739277
 31
0.0
 12
121.124859
 22
175.239277
 32
0.0
 13
121.124859
 23
175.239277
 33
0.0
  0
MTEXT
  5
306
330
2FF
100
AcDbEntity
  8
Dimensions
440
 16777216
100
AcDbMText
 10
117.837854
 20
185.864277
 30
0.0
 40
3.5
 41
0.0
 46
0.0
 71
     5
 72
     1
  1
21.25
 11
0.0
 21
1.0
 31
0.0
 73
     1
 44
1.0
  0
POINT
  5
307
330
2FF
100
AcDbEntity
  8
Defpoints
 62
     0
440
 16777216
100
AcDbPoint
 10
102.155835
 20
196.489277
 30
0.0
  0
POINT
  5
308
330
2FF
100
AcDbEntity
  8
Defpoints
 62
     0
440
 16777216
100
AcDbPoint
 10
102.155835
 20
175.239277
 30
0.0
  0
POINT
  5
309
330
2FF
100
AcDbEntity
  8
Defpoints
 62
     0
440
 16777216
100
AcDbPoint
 10
121.124859
 20
175.239277
 30
0.0
  0
ENDBLK
  5
30A
330
2FF
100
AcDbEntity
  8
0
100
AcDbBlockEnd
  0
BLOCK
  5
30D
330
30C
100
AcDbEntity
  8
0
100
AcDbBlockBegin
  2
*D20
 70
     1
 10
0.0
 20
0.0
 30
0.0
  3
*D20
  1

  0
LINE
  5
30E
330
30C
100
AcDbEntity
  8
Dimensions
440
 16777216
370
    -2
100
AcDbLine
 10
104.155835
 20
175.239277
 30
0.0
 11
123.354825
 21
175.239277
 31
0.0
  0
LINE
  5
30F
330
30C
100
AcDbEntity
  8
Dimensions
440
 16777216
370
    -2
100
AcDbLine
 10
103.555835
 20
157.739277
 30
0.0
 11
123.354825
 21
157.739277
 31
0.0
  0
LINE
  5
310
330
30C
100
AcDbEntity
  8
Dimensions
440
 16777216
370
    -2
100
AcDbLine
 10
121.354825
 20
171.739277
 30
0.0
 11
121.354825
 21
161.239277
 31
0.0
  0
SOLID
  5
311
330
30C
100
AcDbEntity
  8
Dimensions
440
 16777216
100
AcDbTrace
 10
120.771491
 20
171.739277
 30
0.0
 11
121.938158
 21
171.739277
 31
0.0
 12
121.354825
 22
175.239277
 32
0.0
 13
121.354825
 23
175.239277
 33
0.0
  0
SOLID
  5
312
330
30C
100
AcDbEntity
  8
Dimensions
440
 16777216
100
AcDbTrace
 10
120.771491
 20
161.239277
 30
0.0
 11
121.938158
 21
161.239277
 31
0.0
 12
121.354825
 22
157.739277
 32
0.0
 13
121.354825
 23
157.739277
 33
0.0
  0
MTEXT
  5
313
330
30C
100
AcDbEntity
  8
Dimensions
440
 16777216
100
AcDbMText
 10
118.067819
 20
166.489277
 30
0.0
 40
3.5
 41
0.0
 46
0.0
 71
     5
 72
     1
  1
17.5
 11
0.0
 21
1.0
 31
0.0
 73
     1
 44
1.0
  0
POINT
  5
314
330
30C
100
AcDbEntity
  8
Defpoints
 62
     0
440
 16777216
100
AcDbPoint
 10
102.155835
 20
175.239277
 30
0.0
  0
POINT
  5
315
330
30C
100
AcDbEntity
  8
Defpoints
 62
     0
440
 16777216
100
AcDbPoint
 10
101.555835
 20
157.739277
 30
0.0
  0
POINT
  5
316
330
30C
100
AcDbEntity
  8
Defpoints
 62
     0
440
 16777216
100
AcDbPoint
 10
121.354825
 20
157.739277
 30
0.0
  0
ENDBLK
  5
317
330
30C
100
AcDbEntity
  8
0
100
AcDbBlockEnd
  0
BLOCK
  5
31A
330
319
100
AcDbEntity
  8
0
100
AcDbBlockBegin
  2
*D21
 70
     1
 10
0.0
 20
0.0
 30
0.0
  3
*D21
  1

  0
LINE
  5
31B
330
319
100
AcDbEntity
  8
Dimensions
440
 16777216
370
    -2
100
AcDbLine
 10
73.768518
 20
252.371943
 30
0.0
 11
94.919712
 21
241.233826
 31
0.0
  0
LINE
  5
31C
330
319
100
AcDbEntity
  8
Dimensions
440
 16777216
370
    -2
100
AcDbLine
 10
108.191957
 20
234.244727
 30
0.0
 11
111.288814
 21
232.613937
 31
0.0
  0
MTEXT
  5
31D
330
319
100
AcDbEntity
  8
Dimensions
440
 16777216
100
AcDbMText
 10
79.375783
 20
253.244714
 30
0.0
 40
3.5
 41
0.0
 46
0.0
 71
     5
 72
     1
  1
∅8
 11
0.884816
 21
-0.46594
 31
0.0
 73
     1
 44
1.0
  0
LINE
  5
31E
330
319
100
AcDbEntity
  8
Dimensions
440
 16777216
370
    -2
100
AcDbLine
 10
105.0951
 20
235.875517
 30
0.0
 11
98.016569
 21
239.603036
 31
0.0
  0
SOLID
  5
31F
330
319
100
AcDbEntity
  8
Dimensions
440
 16777216
100
AcDbTrace
 10
108.463756
 20
234.76087
 30
0.0
 11
107.920159
 21
233.728584
 31
0.0
 12
105.0951
 22
235.875517
 32
0.0
 13
105.0951
 23
235.875517
 33
0.0
  0
SOLID
  5
320
330
319
100
AcDbEntity
  8
Dimensions
440
 16777216
100
AcDbTrace
 10
95.191511
 20
241.749969
 30
0.0
 11
94.647914
 21
240.717684
 31
0.0
 12
98.016569
 22
239.603036
 32
0.0
 13
98.016569
 23
239.603036
 33
0.0
  0
POINT
  5
321
330
319
100
AcDbEntity
  8
Defpoints
 62
     0
440
 16777216
100
AcDbPoint
 10
98.016569
 20
239.603036
 30
0.0
  0
POINT
  5
322
330
319
100
AcDbEntity
  8
Defpoints
 62
     0
440
 16777216
100
AcDbPoint
 10
105.0951
 20
235.875517
 30
0.0
  0
ENDBLK
  5
323
330
319
100
AcDbEntity
  8
0
100
AcDbBlockEnd
  0
BLOCK
  5
326
330
325
100
AcDbEntity
  8
0
100
AcDbBlockBegin
  2
*D22
 70
     1
 10
0.0
 20
0.0
 30
0.0
  3
*D22
  1

  0
LINE
  5
327
330
325
100
AcDbEntity
  8
Dimensions
440
 16777216
370
    -2
100
AcDbLine
 10
91.555835
 20
247.239277
 30
0.0
 11
91.555835
 21
279.06889
 31
0.0
  0
LINE
  5
328
330
325
100
AcDbEntity
  8
Dimensions
440
 16777216
370
    -2
100
AcDbLine
 10
111.555835
 20
247.239277
 30
0.0
 11
111.555835
 21
279.06889
 31
0.0
  0
LINE
  5
329
330
325
100
AcDbEntity
  8
Dimensions
440
 16777216
370
    -2
100
AcDbLine
 10
95.055835
 20
277.06889
 30
0.0
 11
108.055835
 21
277.06889
 31
0.0
  0
SOLID
  5
32A
330
325
100
AcDbEntity
  8
Dimensions
440
 16777216
100
AcDbTrace
 10
95.055835
 20
277.652223
 30
0.0
 11
95.055835
 21
276.485556
 31
0.0
 12
91.555835
 22
277.06889
 32
0.0
 13
91.555835
 23
277.06889
 33
0.0
  0
SOLID
  5
32B
330
325
100
AcDbEntity
  8
Dimensions
440
 16777216
100
AcDbTrace
 10
108.055835
 20
277.652223
 30
0.0
 11
108.055835
 21
276.485556
 31
0.0
 12
111.555835
 22
277.06889
 32
0.0
 13
111.555835
 23
277.06889
 33
0.0
  0
MTEXT
  5
32C
330
325
100
AcDbEntity
  8
Dimensions
440
 16777216
100
AcDbMText
 10
101.555835
 20
280.355895
 30
0.0
 40
3.5
 41
0.0
 46
0.0
 71
     5
 72
     1
  1
20
 73
     1
 44
1.0
  0
POINT
  5
32D
330
325
100
AcDbEntity
  8
Defpoints
 62
     0
440
 16777216
100
AcDbPoint
 10
91.555835
 20
245.239277
 30
0.0
  0
POINT
  5
32E
330
325
100
AcDbEntity
  8
Defpoints
 62
     0
440
 16777216
100
AcDbPoint
 10
111.555835
 20
245.239277
 30
0.0
  0
POINT
  5
32F
330
325
100
AcDbEntity
  8
Defpoints
 62
     0
440
 16777216
100
AcDbPoint
 10
111.555835
 20
277.06889
 30
0.0
  0
ENDBLK
  5
330
330
325
100
AcDbEntity
  8
0
100
AcDbBlockEnd
  0
BLOCK
  5
333
330
332
100
AcDbEntity
  8
0
100
AcDbBlockBegin
  2
*D23
 70
     1
 10
0.0
 20
0.0
 30
0.0
  3
*D23
  1

  0
LINE
  5
334
330
332
100
AcDbEntity
  8
Dimensions
440
 16777216
370
    -2
100
AcDbLine
 10
196.134818
 20
247.239277
 30
0.0
 11
196.134818
 21
274.236751
 31
0.0
  0
LINE
  5
335
330
332
100
AcDbEntity
  8
Dimensions
440
 16777216
370
    -2
100
AcDbLine
 10
208.134818
 20
247.239277
 30
0.0
 11
208.134818
 21
274.236751
 31
0.0
  0
LINE
  5
336
330
332
100
AcDbEntity
  8
Dimensions
440
 16777216
370
    -2
100
AcDbLine
 10
199.634818
 20
272.236751
 30
0.0
 11
204.634818
 21
272.236751
 31
0.0
  0
SOLID
  5
337
330
332
100
AcDbEntity
  8
Dimensions
440
 16777216
100
AcDbTrace
 10
199.634818
 20
272.820085
 30
0.0
 11
199.634818
 21
271.653418
 31
0.0
 12
196.134818
 22
272.236751
 32
0.0
 13
196.134818
 23
272.236751
 33
0.0
  0
SOLID
  5
338
330
332
100
AcDbEntity
  8
Dimensions
440
 16777216
100
AcDbTrace
 10
204.634818
 20
272.820085
 30
0.0
 11
204.634818
 21
271.653418
 31
0.0
 12
208.134818
 22
272.236751
 32
0.0
 13
208.134818
 23
272.236751
 33
0.0
  0
MTEXT
  5
339
330
332
100
AcDbEntity
  8
Dimensions
440
 16777216
100
AcDbMText
 10
202.134818
 20
275.493914
 30
0.0
 40
3.5
 41
0.0
 46
0.0
 71
     5
 72
     1
  1
12
 73
     1
 44
1.0
  0
POINT
  5
33A
330
332
100
AcDbEntity
  8
Defpoints
 62
     0
440
 16777216
100
AcDbPoint
 10
196.134818
 20
245.239277
 30
0.0
  0
POINT
  5
33B
330
332
100
AcDbEntity
  8
Defpoints
 62
     0
440
 16777216
100
AcDbPoint
 10
208.134818
 20
245.239277
 30
0.0
  0
POINT
  5
33C
330
332
100
AcDbEntity
  8
Defpoints
 62
     0
440
 16777216
100
AcDbPoint
 10
208.134818
 20
272.236751
 30
0.0
  0
ENDBLK
  5
33D
330
332
100
AcDbEntity
  8
0
100
AcDbBlockEnd
  0
BLOCK
  5
340
330
33F
100
AcDbEntity
  8
0
100
AcDbBlockBegin
  2
*D24
 70
     1
 10
0.0
 20
0.0
 30
0.0
  3
*D24
  1

  0
LINE
  5
341
330
33F
100
AcDbEntity
  8
Dimensions
440
 16777216
370
    -2
100
AcDbLine
 10
101.555835
 20
155.739277
 30
0.0
 11
101.555835
 21
132.938585
 31
0.0
  0
LINE
  5
342
330
33F
100
AcDbEntity
  8
Dimensions
440
 16777216
370
    -2
100
AcDbLine
 10
109.555835
 20
149.739277
 30
0.0
 11
109.555835
 21
132.938585
 31
0.0
  0
LINE
  5
343
330
33F
100
AcDbEntity
  8
Dimensions
440
 16777216
370
    -2
100
AcDbLine
 10
98.055835
 20
134.938585
 30
0.0
 11
94.555835
 21
134.938585
 31
0.0
  0
LINE
  5
344
330
33F
100
AcDbEntity
  8
Dimensions
440
 16777216
370
    -2
100
AcDbLine
 10
113.055835
 20
134.938585
 30
0.0
 11
116.555835
 21
134.938585
 31
0.0
  0
LINE
  5
345
330
33F
100
AcDbEntity
  8
Dimensions
440
 16777216
370
    -2
100
AcDbLine
 10
101.555835
 20
134.938585
 30
0.0
 11
109.555835
 21
134.938585
 31
0.0
  0
SOLID
  5
346
330
33F
100
AcDbEntity
  8
Dimensions
440
 16777216
100
AcDbTrace
 10
98.055835
 20
135.521918
 30
0.0
 11
98.055835
 21
134.355251
 31
0.0
 12
101.555835
 22
134.938585
 32
0.0
 13
101.555835
 23
134.938585
 33
0.0
  0
SOLID
  5
347
330
33F
100
AcDbEntity
  8
Dimensions
440
 16777216
100
AcDbTrace
 10
113.055835
 20
135.521918
 30
0.0
 11
113.055835
 21
134.355251
 31
0.0
 12
109.555835
 22
134.938585
 32
0.0
 13
109.555835
 23
134.938585
 33
0.0
  0
MTEXT
  5
348
330
33F
100
AcDbEntity
  8
Dimensions
440
 16777216
100
AcDbMText
 10
105.555835
 20
138.22559
 30
0.0
 40
3.5
 41
0.0
 46
0.0
 71
     5
 72
     1
  1
8
 73
     1
 44
1.0
  0
POINT
  5
349
330
33F
100
AcDbEntity
  8
Defpoints
 62
     0
440
 16777216
100
AcDbPoint
 10
101.555835
 20
157.739277
 30
0.0
  0
POINT
  5
34A
330
33F
100
AcDbEntity
  8
Defpoints
 62
     0
440
 16777216
100
AcDbPoint
 10
109.555835
 20
151.739277
 30
0.0
  0
POINT
  5
34B
330
33F
100
AcDbEntity
  8
Defpoints
 62
     0
440
 16777216
100
AcDbPoint
 10
109.555835
 20
134.938585
 30
0.0
  0
ENDBLK
  5
34C
330
33F
100
AcDbEntity
  8
0
100
AcDbBlockEnd
  0
BLOCK
  5
34F
330
34E
100
AcDbEntity
  8
0
100
AcDbBlockBegin
  2
*D25
 70
     1
 10
0.0
 20
0.0
 30
0.0
  3
*D25
  1

  0
LINE
  5
350
330
34E
100
AcDbEntity
  8
Dimensions
440
 16777216
370
    -2
100
AcDbLine
 10
32.123003
 20
247.608349
 30
0.0
 11
97.474844
 21
163.02143
 31
0.0
  0
LINE
  5
351
330
34E
100
AcDbEntity
  8
Dimensions
440
 16777216
370
    -2
100
AcDbLine
 10
105.636825
 20
152.457124
 30
0.0
 11
107.776671
 21
149.687455
 31
0.0
  0
MTEXT
  5
352
102
{ACAD_XDICTIONARY
360
7C4
102
}
330
34E
100
AcDbEntity
  8
Dimensions
440
 16777216
100
AcDbMText
 10
65.884082
 20
212.025575
 30
0.0
 40
3.5
 41
0.0
 46
0.0
 71
     5
 72
     1
  1
Ø6.35{\H0.714x;\S+.2^ -0;} (Montage gras pour potentiometre)      
 11
0.611384
 21
-0.791334
 31
0.0
 73
     1
 44
1.0
  0
LINE
  5
353
330
34E
100
AcDbEntity
  8
Dimensions
440
 16777216
370
    -2
100
AcDbLine
 10
103.49698
 20
155.226792
 30
0.0
 11
99.614689
 21
160.251761
 31
0.0
  0
SOLID
  5
354
330
34E
100
AcDbEntity
  8
Dimensions
440
 16777216
100
AcDbTrace
 10
106.098437
 20
152.813764
 30
0.0
 11
105.175214
 21
152.100483
 31
0.0
 12
103.49698
 22
155.226792
 32
0.0
 13
103.49698
 23
155.226792
 33
0.0
  0
SOLID
  5
355
330
34E
100
AcDbEntity
  8
Dimensions
440
 16777216
100
AcDbTrace
 10
97.936456
 20
163.37807
 30
0.0
 11
97.013233
 21
162.664789
 31
0.0
 12
99.614689
 22
160.251761
 32
0.0
 13
99.614689
 23
160.251761
 33
0.0
  0
POINT
  5
356
330
34E
100
AcDbEntity
  8
Defpoints
 62
     0
440
 16777216
100
AcDbPoint
 10
99.614689
 20
160.251761
 30
0.0
  0
POINT
  5
357
330
34E
100
AcDbEntity
  8
Defpoints
 62
     0
440
 16777216
100
AcDbPoint
 10
103.49698
 20
155.226792
 30
0.0
  0
ENDBLK
  5
358
330
34E
100
AcDbEntity
  8
0
100
AcDbBlockEnd
  0
BLOCK
  5
35B
330
35A
100
AcDbEntity
  8
0
100
AcDbBlockBegin
  2
*D26
 70
     1
 10
0.0
 20
0.0
 30
0.0
  3
*D26
  1

  0
LINE
  5
35C
330
35A
100
AcDbEntity
  8
Dimensions
440
 16777216
370
    -2
100
AcDbLine
 10
98.455835
 20
219.739277
 30
0.0
 11
98.455835
 21
230.23959
 31
0.0
  0
LINE
  5
35D
330
35A
100
AcDbEntity
  8
Dimensions
440
 16777216
370
    -2
100
AcDbLine
 10
104.655835
 20
219.739277
 30
0.0
 11
104.655835
 21
230.23959
 31
0.0
  0
LINE
  5
35E
330
35A
100
AcDbEntity
  8
Dimensions
440
 16777216
370
    -2
100
AcDbLine
 10
94.955835
 20
228.23959
 30
0.0
 11
91.455835
 21
228.23959
 31
0.0
  0
LINE
  5
35F
330
35A
100
AcDbEntity
  8
Dimensions
440
 16777216
370
    -2
100
AcDbLine
 10
108.155835
 20
228.23959
 30
0.0
 11
121.011224
 21
228.23959
 31
0.0
  0
LINE
  5
360
330
35A
100
AcDbEntity
  8
Dimensions
440
 16777216
370
    -2
100
AcDbLine
 10
98.455835
 20
228.23959
 30
0.0
 11
104.655835
 21
228.23959
 31
0.0
  0
SOLID
  5
361
330
35A
100
AcDbEntity
  8
Dimensions
440
 16777216
100
AcDbTrace
 10
94.955835
 20
228.822923
 30
0.0
 11
94.955835
 21
227.656256
 31
0.0
 12
98.455835
 22
228.23959
 32
0.0
 13
98.455835
 23
228.23959
 33
0.0
  0
SOLID
  5
362
330
35A
100
AcDbEntity
  8
Dimensions
440
 16777216
100
AcDbTrace
 10
108.155835
 20
228.822923
 30
0.0
 11
108.155835
 21
227.656256
 31
0.0
 12
104.655835
 22
228.23959
 32
0.0
 13
104.655835
 23
228.23959
 33
0.0
  0
MTEXT
  5
363
330
35A
100
AcDbEntity
  8
Dimensions
440
 16777216
100
AcDbMText
 10
116.333529
 20
231.526595
 30
0.0
 40
3.5
 41
0.0
 46
0.0
 71
     5
 72
     1
  1
6.2
 73
     1
 44
1.0
  0
POINT
  5
364
330
35A
100
AcDbEntity
  8
Defpoints
 62
     0
440
 16777216
100
AcDbPoint
 10
98.455835
 20
217.739277
 30
0.0
  0
POINT
  5
365
330
35A
100
AcDbEntity
  8
Defpoints
 62
     0
440
 16777216
100
AcDbPoint
 10
104.655835
 20
217.739277
 30
0.0
  0
POINT
  5
366
330
35A
100
AcDbEntity
  8
Defpoints
 62
     0
440
 16777216
100
AcDbPoint
 10
104.655835
 20
228.23959
 30
0.0
  0
ENDBLK
  5
367
330
35A
100
AcDbEntity
  8
0
100
AcDbBlockEnd
  0
BLOCK
  5
37E
330
37D
100
AcDbEntity
  8
0
100
AcDbBlockBegin
  2
*D27
 70
     1
 10
0.0
 20
0.0
 30
0.0
  3
*D27
  1

  0
LINE
  5
7CD
330
37D
100
AcDbEntity
  8
Dimensions
440
 16777216
370
    -2
100
AcDbLine
 10
99.555835
 20
237.739277
 30
0.0
 11
59.957855
 21
237.739277
 31
0.0
  0
LINE
  5
7CE
330
37D
100
AcDbEntity
  8
Dimensions
440
 16777216
370
    -2
100
AcDbLine
 10
99.555835
 20
157.739277
 30
0.0
 11
59.957855
 21
157.739277
 31
0.0
  0
LINE
  5
7CF
330
37D
100
AcDbEntity
  8
Dimensions
440
 16777216
370
    -2
100
AcDbLine
 10
61.957855
 20
234.239277
 30
0.0
 11
61.957855
 21
161.239277
 31
0.0
  0
SOLID
  5
7D0
330
37D
100
AcDbEntity
  8
Dimensions
440
 16777216
100
AcDbTrace
 10
61.374522
 20
234.239277
 30
0.0
 11
62.541188
 21
234.239277
 31
0.0
 12
61.957855
 22
237.739277
 32
0.0
 13
61.957855
 23
237.739277
 33
0.0
  0
SOLID
  5
7D1
330
37D
100
AcDbEntity
  8
Dimensions
440
 16777216
100
AcDbTrace
 10
61.374522
 20
161.239277
 30
0.0
 11
62.541188
 21
161.239277
 31
0.0
 12
61.957855
 22
157.739277
 32
0.0
 13
61.957855
 23
157.739277
 33
0.0
  0
MTEXT
  5
7D2
330
37D
100
AcDbEntity
  8
Dimensions
440
 16777216
100
AcDbMText
 10
58.67085
 20
197.739277
 30
0.0
 40
3.5
 41
0.0
 46
0.0
 71
     5
 72
     1
  1
80
 11
0.0
 21
1.0
 31
0.0
 73
     1
 44
1.0
  0
POINT
  5
7D3
330
37D
100
AcDbEntity
  8
Defpoints
 62
     0
440
 16777216
100
AcDbPoint
 10
101.555835
 20
237.739277
 30
0.0
  0
POINT
  5
7D4
330
37D
100
AcDbEntity
  8
Defpoints
 62
     0
440
 16777216
100
AcDbPoint
 10
101.555835
 20
157.739277
 30
0.0
  0
POINT
  5
7D5
330
37D
100
AcDbEntity
  8
Defpoints
 62
     0
440
 16777216
100
AcDbPoint
 10
61.957855
 20
157.739277
 30
0.0
  0
ENDBLK
  5
37F
330
37D
100
AcDbEntity
  8
0
100
AcDbBlockEnd
  0
BLOCK
  5
38A
330
389
100
AcDbEntity
  8
0
100
AcDbBlockBegin
  2
*D28
 70
     1
 10
0.0
 20
0.0
 30
0.0
  3
*D28
  1

  0
LINE
  5
7D6
330
389
100
AcDbEntity
  8
Dimensions
440
 16777216
370
    -2
100
AcDbLine
 10
71.553307
 20
139.748318
 30
0.0
 11
89.977883
 21
150.79658
 31
0.0
  0
MTEXT
  5
7D7
330
389
100
AcDbEntity
  8
Dimensions
440
 16777216
100
AcDbMText
 10
74.730469
 20
145.486176
 30
0.0
 40
3.5
 41
0.0
 46
0.0
 71
     5
 72
     1
  1
R10
 11
0.857626
 21
0.514274
 31
0.0
 73
     1
 44
1.0
  0
LINE
  5
7D8
330
389
100
AcDbEntity
  8
Dimensions
440
 16777216
370
    -2
100
AcDbLine
 10
101.555835
 20
157.739277
 30
0.0
 11
92.979574
 21
152.596538
 31
0.0
  0
SOLID
  5
7D9
330
389
100
AcDbEntity
  8
Dimensions
440
 16777216
100
AcDbTrace
 10
89.67789
 20
151.296862
 30
0.0
 11
90.277876
 21
150.296298
 31
0.0
 12
92.979574
 22
152.596538
 32
0.0
 13
92.979574
 23
152.596538
 33
0.0
  0
POINT
  5
7DA
330
389
100
AcDbEntity
  8
Defpoints
 62
     0
440
 16777216
100
AcDbPoint
 10
92.979574
 20
152.596538
 30
0.0
  0
POINT
  5
7DB
330
389
100
AcDbEntity
  8
Defpoints
 62
     0
440
 16777216
100
AcDbPoint
 10
101.555835
 20
157.739277
 30
0.0
  0
ENDBLK
  5
38B
330
389
100
AcDbEntity
  8
0
100
AcDbBlockEnd
  0
BLOCK
  5
393
330
392
100
AcDbEntity
  8
0
100
AcDbBlockBegin
  2
*D29
 70
     1
 10
0.0
 20
0.0
 30
0.0
  3
*D29
  1

  0
LINE
  5
7DC
330
392
100
AcDbEntity
  8
Dimensions
440
 16777216
370
    -2
100
AcDbLine
 10
139.619026
 20
264.580452
 30
0.0
 11
114.631682
 21
246.960025
 31
0.0
  0
MTEXT
  5
7DD
330
392
100
AcDbEntity
  8
Dimensions
440
 16777216
100
AcDbMText
 10
131.4045
 20
262.809861
 30
0.0
 40
3.5
 41
0.0
 46
0.0
 71
     5
 72
     1
  1
R12.5
 11
0.81724
 21
0.576297
 31
0.0
 73
     1
 44
1.0
  0
LINE
  5
7DE
330
392
100
AcDbEntity
  8
Dimensions
440
 16777216
370
    -2
100
AcDbLine
 10
101.555835
 20
237.739277
 30
0.0
 11
111.771341
 21
244.942987
 31
0.0
  0
SOLID
  5
7DF
330
392
100
AcDbEntity
  8
Dimensions
440
 16777216
100
AcDbTrace
 10
114.295509
 20
247.436749
 30
0.0
 11
114.967856
 21
246.483302
 31
0.0
 12
111.771341
 22
244.942987
 32
0.0
 13
111.771341
 23
244.942987
 33
0.0
  0
POINT
  5
7E0
330
392
100
AcDbEntity
  8
Defpoints
 62
     0
440
 16777216
100
AcDbPoint
 10
111.771341
 20
244.942987
 30
0.0
  0
POINT
  5
7E1
330
392
100
AcDbEntity
  8
Defpoints
 62
     0
440
 16777216
100
AcDbPoint
 10
101.555835
 20
237.739277
 30
0.0
  0
ENDBLK
  5
394
330
392
100
AcDbEntity
  8
0
100
AcDbBlockEnd
  0
BLOCK
  5
39C
330
39B
100
AcDbEntity
  8
0
100
AcDbBlockBegin
  2
*D30
 70
     1
 10
0.0
 20
0.0
 30
0.0
  3
*D30
  1

  0
LINE
  5
7E2
330
39B
100
AcDbEntity
  8
Dimensions
440
 16777216
370
    -2
100
AcDbLine
 10
206.134818
 20
224.739277
 30
0.0
 11
206.134818
 21
264.337256
 31
0.0
  0
LINE
  5
7E3
330
39B
100
AcDbEntity
  8
Dimensions
440
 16777216
370
    -2
100
AcDbLine
 10
198.134818
 20
224.739277
 30
0.0
 11
198.134818
 21
264.337256
 31
0.0
  0
LINE
  5
7E4
330
39B
100
AcDbEntity
  8
Dimensions
440
 16777216
370
    -2
100
AcDbLine
 10
209.634818
 20
262.337256
 30
0.0
 11
213.134818
 21
262.337256
 31
0.0
  0
LINE
  5
7E5
330
39B
100
AcDbEntity
  8
Dimensions
440
 16777216
370
    -2
100
AcDbLine
 10
194.634818
 20
262.337256
 30
0.0
 11
191.134818
 21
262.337256
 31
0.0
  0
LINE
  5
7E6
330
39B
100
AcDbEntity
  8
Dimensions
440
 16777216
370
    -2
100
AcDbLine
 10
206.134818
 20
262.337256
 30
0.0
 11
198.134818
 21
262.337256
 31
0.0
  0
SOLID
  5
7E7
330
39B
100
AcDbEntity
  8
Dimensions
440
 16777216
100
AcDbTrace
 10
209.634818
 20
262.92059
 30
0.0
 11
209.634818
 21
261.753923
 31
0.0
 12
206.134818
 22
262.337256
 32
0.0
 13
206.134818
 23
262.337256
 33
0.0
  0
SOLID
  5
7E8
330
39B
100
AcDbEntity
  8
Dimensions
440
 16777216
100
AcDbTrace
 10
194.634818
 20
262.92059
 30
0.0
 11
194.634818
 21
261.753923
 31
0.0
 12
198.134818
 22
262.337256
 32
0.0
 13
198.134818
 23
262.337256
 33
0.0
  0
MTEXT
  5
7E9
330
39B
100
AcDbEntity
  8
Dimensions
440
 16777216
100
AcDbMText
 10
202.134818
 20
265.624262
 30
0.0
 40
3.5
 41
0.0
 46
0.0
 71
     5
 72
     1
  1
8
 73
     1
 44
1.0
  0
POINT
  5
7EA
330
39B
100
AcDbEntity
  8
Defpoints
 62
     0
440
 16777216
100
AcDbPoint
 10
206.134818
 20
222.739277
 30
0.0
  0
POINT
  5
7EB
330
39B
100
AcDbEntity
  8
Defpoints
 62
     0
440
 16777216
100
AcDbPoint
 10
198.134818
 20
222.739277
 30
0.0
  0
POINT
  5
7EC
330
39B
100
AcDbEntity
  8
Defpoints
 62
     0
440
 16777216
100
AcDbPoint
 10
198.134818
 20
262.337256
 30
0.0
  0
ENDBLK
  5
39D
330
39B
100
AcDbEntity
  8
0
100
AcDbBlockEnd
  0
BLOCK
  5
3AA
330
3A9
100
AcDbEntity
  8
0
100
AcDbBlockBegin
  2
*D31
 70
     1
 10
0.0
 20
0.0
 30
0.0
  3
*D31
  1

  0
LINE
  5
7ED
330
3A9
100
AcDbEntity
  8
Dimensions
440
 16777216
370
    -2
100
AcDbLine
 10
204.134818
 20
250.239277
 30
0.0
 11
188.77836
 21
250.239277
 31
0.0
  0
LINE
  5
7EE
330
3A9
100
AcDbEntity
  8
Dimensions
440
 16777216
370
    -2
100
AcDbLine
 10
196.134818
 20
222.739277
 30
0.0
 11
188.77836
 21
222.739277
 31
0.0
  0
LINE
  5
7EF
330
3A9
100
AcDbEntity
  8
Dimensions
440
 16777216
370
    -2
100
AcDbLine
 10
190.77836
 20
246.739277
 30
0.0
 11
190.77836
 21
226.239277
 31
0.0
  0
SOLID
  5
7F0
330
3A9
100
AcDbEntity
  8
Dimensions
440
 16777216
100
AcDbTrace
 10
190.195027
 20
246.739277
 30
0.0
 11
191.361693
 21
246.739277
 31
0.0
 12
190.77836
 22
250.239277
 32
0.0
 13
190.77836
 23
250.239277
 33
0.0
  0
SOLID
  5
7F1
330
3A9
100
AcDbEntity
  8
Dimensions
440
 16777216
100
AcDbTrace
 10
190.195027
 20
226.239277
 30
0.0
 11
191.361693
 21
226.239277
 31
0.0
 12
190.77836
 22
222.739277
 32
0.0
 13
190.77836
 23
222.739277
 33
0.0
  0
MTEXT
  5
7F2
330
3A9
100
AcDbEntity
  8
Dimensions
440
 16777216
100
AcDbMText
 10
187.491355
 20
236.489277
 30
0.0
 40
3.5
 41
0.0
 46
0.0
 71
     5
 72
     1
  1
27.5
 11
0.0
 21
1.0
 31
0.0
 73
     1
 44
1.0
  0
POINT
  5
7F3
330
3A9
100
AcDbEntity
  8
Defpoints
 62
     0
440
 16777216
100
AcDbPoint
 10
206.134818
 20
250.239277
 30
0.0
  0
POINT
  5
7F4
330
3A9
100
AcDbEntity
  8
Defpoints
 62
     0
440
 16777216
100
AcDbPoint
 10
198.134818
 20
222.739277
 30
0.0
  0
POINT
  5
7F5
330
3A9
100
AcDbEntity
  8
Defpoints
 62
     0
440
 16777216
100
AcDbPoint
 10
190.77836
 20
222.739277
 30
0.0
  0
ENDBLK
  5
3AB
330
3A9
100
AcDbEntity
  8
0
100
AcDbBlockEnd
  0
BLOCK
  5
3B6
330
3B5
100
AcDbEntity
  8
0
100
AcDbBlockBegin
  2
*D32
 70
     1
 10
0.0
 20
0.0
 30
0.0
  3
*D32
  1

  0
LINE
  5
7F6
330
3B5
100
AcDbEntity
  8
Dimensions
440
 16777216
370
    -2
100
AcDbLine
 10
104.155835
 20
220.239277
 30
0.0
 11
133.10746
 21
220.239277
 31
0.0
  0
LINE
  5
7F7
330
3B5
100
AcDbEntity
  8
Dimensions
440
 16777216
370
    -2
100
AcDbLine
 10
104.155835
 20
198.989277
 30
0.0
 11
133.10746
 21
198.989277
 31
0.0
  0
LINE
  5
7F8
330
3B5
100
AcDbEntity
  8
Dimensions
440
 16777216
370
    -2
100
AcDbLine
 10
131.10746
 20
216.739277
 30
0.0
 11
131.10746
 21
202.489277
 31
0.0
  0
SOLID
  5
7F9
330
3B5
100
AcDbEntity
  8
Dimensions
440
 16777216
100
AcDbTrace
 10
130.524127
 20
216.739277
 30
0.0
 11
131.690794
 21
216.739277
 31
0.0
 12
131.10746
 22
220.239277
 32
0.0
 13
131.10746
 23
220.239277
 33
0.0
  0
SOLID
  5
7FA
330
3B5
100
AcDbEntity
  8
Dimensions
440
 16777216
100
AcDbTrace
 10
130.524127
 20
202.489277
 30
0.0
 11
131.690794
 21
202.489277
 31
0.0
 12
131.10746
 22
198.989277
 32
0.0
 13
131.10746
 23
198.989277
 33
0.0
  0
MTEXT
  5
7FB
330
3B5
100
AcDbEntity
  8
Dimensions
440
 16777216
100
AcDbMText
 10
127.820455
 20
209.614277
 30
0.0
 40
3.5
 41
0.0
 46
0.0
 71
     5
 72
     1
  1
21.25
 11
0.0
 21
1.0
 31
0.0
 73
     1
 44
1.0
  0
POINT
  5
7FC
330
3B5
100
AcDbEntity
  8
Defpoints
 62
     0
440
 16777216
100
AcDbPoint
 10
102.155835
 20
220.239277
 30
0.0
  0
POINT
  5
7FD
330
3B5
100
AcDbEntity
  8
Defpoints
 62
     0
440
 16777216
100
AcDbPoint
 10
102.155835
 20
198.989277
 30
0.0
  0
POINT
  5
7FE
330
3B5
100
AcDbEntity
  8
Defpoints
 62
     0
440
 16777216
100
AcDbPoint
 10
131.10746
 20
198.989277
 30
0.0
  0
ENDBLK
  5
3B7
330
3B5
100
AcDbEntity
  8
0
100
AcDbBlockEnd
  0
BLOCK
  5
3C2
330
3C1
100
AcDbEntity
  8
0
100
AcDbBlockBegin
  2
*D33
 70
     1
 10
0.0
 20
0.0
 30
0.0
  3
*D33
  1

  0
LINE
  5
7FF
330
3C1
100
AcDbEntity
  8
Dimensions
440
 16777216
370
    -2
100
AcDbLine
 10
104.155835
 20
198.989277
 30
0.0
 11
133.085774
 21
198.989277
 31
0.0
  0
LINE
  5
800
330
3C1
100
AcDbEntity
  8
Dimensions
440
 16777216
370
    -2
100
AcDbLine
 10
104.155835
 20
196.489277
 30
0.0
 11
133.085774
 21
196.489277
 31
0.0
  0
LINE
  5
801
330
3C1
100
AcDbEntity
  8
Dimensions
440
 16777216
370
    -2
100
AcDbLine
 10
131.085774
 20
202.489277
 30
0.0
 11
131.085774
 21
205.989277
 31
0.0
  0
LINE
  5
802
330
3C1
100
AcDbEntity
  8
Dimensions
440
 16777216
370
    -2
100
AcDbLine
 10
131.085774
 20
192.989277
 30
0.0
 11
131.085774
 21
180.031227
 31
0.0
  0
LINE
  5
803
330
3C1
100
AcDbEntity
  8
Dimensions
440
 16777216
370
    -2
100
AcDbLine
 10
131.085774
 20
198.989277
 30
0.0
 11
131.085774
 21
196.489277
 31
0.0
  0
SOLID
  5
804
330
3C1
100
AcDbEntity
  8
Dimensions
440
 16777216
100
AcDbTrace
 10
130.502441
 20
202.489277
 30
0.0
 11
131.669108
 21
202.489277
 31
0.0
 12
131.085774
 22
198.989277
 32
0.0
 13
131.085774
 23
198.989277
 33
0.0
  0
SOLID
  5
805
330
3C1
100
AcDbEntity
  8
Dimensions
440
 16777216
100
AcDbTrace
 10
130.502441
 20
192.989277
 30
0.0
 11
131.669108
 21
192.989277
 31
0.0
 12
131.085774
 22
196.489277
 32
0.0
 13
131.085774
 23
196.489277
 33
0.0
  0
MTEXT
  5
806
330
3C1
100
AcDbEntity
  8
Dimensions
440
 16777216
100
AcDbMText
 10
127.798769
 20
184.760252
 30
0.0
 40
3.5
 41
0.0
 46
0.0
 71
     5
 72
     1
  1
2.5
 11
0.0
 21
1.0
 31
0.0
 73
     1
 44
1.0
  0
POINT
  5
807
330
3C1
100
AcDbEntity
  8
Defpoints
 62
     0
440
 16777216
100
AcDbPoint
 10
102.155835
 20
198.989277
 30
0.0
  0
POINT
  5
808
330
3C1
100
AcDbEntity
  8
Defpoints
 62
     0
440
 16777216
100
AcDbPoint
 10
102.155835
 20
196.489277
 30
0.0
  0
POINT
  5
809
330
3C1
100
AcDbEntity
  8
Defpoints
 62
     0
440
 16777216
100
AcDbPoint
 10
131.085774
 20
196.489277
 30
0.0
  0
ENDBLK
  5
3C3
330
3C1
100
AcDbEntity
  8
0
100
AcDbBlockEnd
  0
BLOCK
  5
3D0
330
3CF
100
AcDbEntity
  8
0
100
AcDbBlockBegin
  2
*D34
 70
     1
 10
0.0
 20
0.0
 30
0.0
  3
*D34
  1

  0
LINE
  5
80A
330
3CF
100
AcDbEntity
  8
Dimensions
440
 16777216
370
    -2
100
AcDbLine
 10
104.155835
 20
196.489277
 30
0.0
 11
123.124859
 21
196.489277
 31
0.0
  0
LINE
  5
80B
330
3CF
100
AcDbEntity
  8
Dimensions
440
 16777216
370
    -2
100
AcDbLine
 10
104.155835
 20
175.239277
 30
0.0
 11
123.124859
 21
175.239277
 31
0.0
  0
LINE
  5
80C
330
3CF
100
AcDbEntity
  8
Dimensions
440
 16777216
370
    -2
100
AcDbLine
 10
121.124859
 20
192.989277
 30
0.0
 11
121.124859
 21
178.739277
 31
0.0
  0
SOLID
  5
80D
330
3CF
100
AcDbEntity
  8
Dimensions
440
 16777216
100
AcDbTrace
 10
120.541526
 20
192.989277
 30
0.0
 11
121.708192
 21
192.989277
 31
0.0
 12
121.124859
 22
196.489277
 32
0.0
 13
121.124859
 23
196.489277
 33
0.0
  0
SOLID
  5
80E
330
3CF
100
AcDbEntity
  8
Dimensions
440
 16777216
100
AcDbTrace
 10
120.541526
 20
178.739277
 30
0.0
 11
121.708192
 21
178.739277
 31
0.0
 12
121.124859
 22
175.239277
 32
0.0
 13
121.124859
 23
175.239277
 33
0.0
  0
MTEXT
  5
80F
330
3CF
100
AcDbEntity
  8
Dimensions
440
 16777216
100
AcDbMText
 10
117.837854
 20
185.864277
 30
0.0
 40
3.5
 41
0.0
 46
0.0
 71
     5
 72
     1
  1
21.25
 11
0.0
 21
1.0
 31
0.0
 73
     1
 44
1.0
  0
POINT
  5
810
330
3CF
100
AcDbEntity
  8
Defpoints
 62
     0
440
 16777216
100
AcDbPoint
 10
102.155835
 20
196.489277
 30
0.0
  0
POINT
  5
811
330
3CF
100
AcDbEntity
  8
Defpoints
 62
     0
440
 16777216
100
AcDbPoint
 10
102.155835
 20
175.239277
 30
0.0
  0
POINT
  5
812
330
3CF
100
AcDbEntity
  8
Defpoints
 62
     0
440
 16777216
100
AcDbPoint
 10
121.124859
 20
175.239277
 30
0.0
  0
ENDBLK
  5
3D1
330
3CF
100
AcDbEntity
  8
0
100
AcDbBlockEnd
  0
BLOCK
  5
3DC
330
3DB
100
AcDbEntity
  8
0
100
AcDbBlockBegin
  2
*D35
 70
     1
 10
0.0
 20
0.0
 30
0.0
  3
*D35
  1

  0
LINE
  5
813
330
3DB
100
AcDbEntity
  8
Dimensions
440
 16777216
370
    -2
100
AcDbLine
 10
104.155835
 20
175.239277
 30
0.0
 11
123.354825
 21
175.239277
 31
0.0
  0
LINE
  5
814
330
3DB
100
AcDbEntity
  8
Dimensions
440
 16777216
370
    -2
100
AcDbLine
 10
103.555835
 20
157.739277
 30
0.0
 11
123.354825
 21
157.739277
 31
0.0
  0
LINE
  5
815
330
3DB
100
AcDbEntity
  8
Dimensions
440
 16777216
370
    -2
100
AcDbLine
 10
121.354825
 20
171.739277
 30
0.0
 11
121.354825
 21
161.239277
 31
0.0
  0
SOLID
  5
816
330
3DB
100
AcDbEntity
  8
Dimensions
440
 16777216
100
AcDbTrace
 10
120.771491
 20
171.739277
 30
0.0
 11
121.938158
 21
171.739277
 31
0.0
 12
121.354825
 22
175.239277
 32
0.0
 13
121.354825
 23
175.239277
 33
0.0
  0
SOLID
  5
817
330
3DB
100
AcDbEntity
  8
Dimensions
440
 16777216
100
AcDbTrace
 10
120.771491
 20
161.239277
 30
0.0
 11
121.938158
 21
161.239277
 31
0.0
 12
121.354825
 22
157.739277
 32
0.0
 13
121.354825
 23
157.739277
 33
0.0
  0
MTEXT
  5
818
330
3DB
100
AcDbEntity
  8
Dimensions
440
 16777216
100
AcDbMText
 10
118.067819
 20
166.489277
 30
0.0
 40
3.5
 41
0.0
 46
0.0
 71
     5
 72
     1
  1
17.5
 11
0.0
 21
1.0
 31
0.0
 73
     1
 44
1.0
  0
POINT
  5
819
330
3DB
100
AcDbEntity
  8
Defpoints
 62
     0
440
 16777216
100
AcDbPoint
 10
102.155835
 20
175.239277
 30
0.0
  0
POINT
  5
81A
330
3DB
100
AcDbEntity
  8
Defpoints
 62
     0
440
 16777216
100
AcDbPoint
 10
101.555835
 20
157.739277
 30
0.0
  0
POINT
  5
81B
330
3DB
100
AcDbEntity
  8
Defpoints
 62
     0
440
 16777216
100
AcDbPoint
 10
121.354825
 20
157.739277
 30
0.0
  0
ENDBLK
  5
3DD
330
3DB
100
AcDbEntity
  8
0
100
AcDbBlockEnd
  0
BLOCK
  5
3E8
330
3E7
100
AcDbEntity
  8
0
100
AcDbBlockBegin
  2
*D36
 70
     1
 10
0.0
 20
0.0
 30
0.0
  3
*D36
  1

  0
LINE
  5
81C
330
3E7
100
AcDbEntity
  8
Dimensions
440
 16777216
370
    -2
100
AcDbLine
 10
73.768518
 20
252.371943
 30
0.0
 11
94.919712
 21
241.233826
 31
0.0
  0
LINE
  5
81D
330
3E7
100
AcDbEntity
  8
Dimensions
440
 16777216
370
    -2
100
AcDbLine
 10
108.191957
 20
234.244727
 30
0.0
 11
111.288814
 21
232.613937
 31
0.0
  0
MTEXT
  5
81E
330
3E7
100
AcDbEntity
  8
Dimensions
440
 16777216
100
AcDbMText
 10
79.375783
 20
253.244714
 30
0.0
 40
3.5
 41
0.0
 46
0.0
 71
     5
 72
     1
  1
∅8
 11
0.884816
 21
-0.46594
 31
0.0
 73
     1
 44
1.0
  0
LINE
  5
81F
330
3E7
100
AcDbEntity
  8
Dimensions
440
 16777216
370
    -2
100
AcDbLine
 10
105.0951
 20
235.875517
 30
0.0
 11
98.016569
 21
239.603036
 31
0.0
  0
SOLID
  5
820
330
3E7
100
AcDbEntity
  8
Dimensions
440
 16777216
100
AcDbTrace
 10
108.463756
 20
234.76087
 30
0.0
 11
107.920159
 21
233.728584
 31
0.0
 12
105.0951
 22
235.875517
 32
0.0
 13
105.0951
 23
235.875517
 33
0.0
  0
SOLID
  5
821
330
3E7
100
AcDbEntity
  8
Dimensions
440
 16777216
100
AcDbTrace
 10
95.191511
 20
241.749969
 30
0.0
 11
94.647914
 21
240.717684
 31
0.0
 12
98.016569
 22
239.603036
 32
0.0
 13
98.016569
 23
239.603036
 33
0.0
  0
POINT
  5
822
330
3E7
100
AcDbEntity
  8
Defpoints
 62
     0
440
 16777216
100
AcDbPoint
 10
98.016569
 20
239.603036
 30
0.0
  0
POINT
  5
823
330
3E7
100
AcDbEntity
  8
Defpoints
 62
     0
440
 16777216
100
AcDbPoint
 10
105.0951
 20
235.875517
 30
0.0
  0
ENDBLK
  5
3E9
330
3E7
100
AcDbEntity
  8
0
100
AcDbBlockEnd
  0
BLOCK
  5
3F3
330
3F2
100
AcDbEntity
  8
0
100
AcDbBlockBegin
  2
*D37
 70
     1
 10
0.0
 20
0.0
 30
0.0
  3
*D37
  1

  0
LINE
  5
824
330
3F2
100
AcDbEntity
  8
Dimensions
440
 16777216
370
    -2
100
AcDbLine
 10
91.555835
 20
247.239277
 30
0.0
 11
91.555835
 21
279.06889
 31
0.0
  0
LINE
  5
825
330
3F2
100
AcDbEntity
  8
Dimensions
440
 16777216
370
    -2
100
AcDbLine
 10
111.555835
 20
247.239277
 30
0.0
 11
111.555835
 21
279.06889
 31
0.0
  0
LINE
  5
826
330
3F2
100
AcDbEntity
  8
Dimensions
440
 16777216
370
    -2
100
AcDbLine
 10
95.055835
 20
277.06889
 30
0.0
 11
108.055835
 21
277.06889
 31
0.0
  0
SOLID
  5
827
330
3F2
100
AcDbEntity
  8
Dimensions
440
 16777216
100
AcDbTrace
 10
95.055835
 20
277.652223
 30
0.0
 11
95.055835
 21
276.485556
 31
0.0
 12
91.555835
 22
277.06889
 32
0.0
 13
91.555835
 23
277.06889
 33
0.0
  0
SOLID
  5
828
330
3F2
100
AcDbEntity
  8
Dimensions
440
 16777216
100
AcDbTrace
 10
108.055835
 20
277.652223
 30
0.0
 11
108.055835
 21
276.485556
 31
0.0
 12
111.555835
 22
277.06889
 32
0.0
 13
111.555835
 23
277.06889
 33
0.0
  0
MTEXT
  5
829
330
3F2
100
AcDbEntity
  8
Dimensions
440
 16777216
100
AcDbMText
 10
101.555835
 20
280.355895
 30
0.0
 40
3.5
 41
0.0
 46
0.0
 71
     5
 72
     1
  1
20
 73
     1
 44
1.0
  0
POINT
  5
82A
330
3F2
100
AcDbEntity
  8
Defpoints
 62
     0
440
 16777216
100
AcDbPoint
 10
91.555835
 20
245.239277
 30
0.0
  0
POINT
  5
82B
330
3F2
100
AcDbEntity
  8
Defpoints
 62
     0
440
 16777216
100
AcDbPoint
 10
111.555835
 20
245.239277
 30
0.0
  0
POINT
  5
82C
330
3F2
100
AcDbEntity
  8
Defpoints
 62
     0
440
 16777216
100
AcDbPoint
 10
111.555835
 20
277.06889
 30
0.0
  0
ENDBLK
  5
3F4
330
3F2
100
AcDbEntity
  8
0
100
AcDbBlockEnd
  0
BLOCK
  5
3FF
330
3FE
100
AcDbEntity
  8
0
100
AcDbBlockBegin
  2
*D38
 70
     1
 10
0.0
 20
0.0
 30
0.0
  3
*D38
  1

  0
LINE
  5
82D
330
3FE
100
AcDbEntity
  8
Dimensions
440
 16777216
370
    -2
100
AcDbLine
 10
196.134818
 20
247.239277
 30
0.0
 11
196.134818
 21
274.236751
 31
0.0
  0
LINE
  5
82E
330
3FE
100
AcDbEntity
  8
Dimensions
440
 16777216
370
    -2
100
AcDbLine
 10
208.134818
 20
247.239277
 30
0.0
 11
208.134818
 21
274.236751
 31
0.0
  0
LINE
  5
82F
330
3FE
100
AcDbEntity
  8
Dimensions
440
 16777216
370
    -2
100
AcDbLine
 10
199.634818
 20
272.236751
 30
0.0
 11
204.634818
 21
272.236751
 31
0.0
  0
SOLID
  5
830
330
3FE
100
AcDbEntity
  8
Dimensions
440
 16777216
100
AcDbTrace
 10
199.634818
 20
272.820085
 30
0.0
 11
199.634818
 21
271.653418
 31
0.0
 12
196.134818
 22
272.236751
 32
0.0
 13
196.134818
 23
272.236751
 33
0.0
  0
SOLID
  5
831
330
3FE
100
AcDbEntity
  8
Dimensions
440
 16777216
100
AcDbTrace
 10
204.634818
 20
272.820085
 30
0.0
 11
204.634818
 21
271.653418
 31
0.0
 12
208.134818
 22
272.236751
 32
0.0
 13
208.134818
 23
272.236751
 33
0.0
  0
MTEXT
  5
832
330
3FE
100
AcDbEntity
  8
Dimensions
440
 16777216
100
AcDbMText
 10
202.134818
 20
275.493914
 30
0.0
 40
3.5
 41
0.0
 46
0.0
 71
     5
 72
     1
  1
12
 73
     1
 44
1.0
  0
POINT
  5
833
330
3FE
100
AcDbEntity
  8
Defpoints
 62
     0
440
 16777216
100
AcDbPoint
 10
196.134818
 20
245.239277
 30
0.0
  0
POINT
  5
834
330
3FE
100
AcDbEntity
  8
Defpoints
 62
     0
440
 16777216
100
AcDbPoint
 10
208.134818
 20
245.239277
 30
0.0
  0
POINT
  5
835
330
3FE
100
AcDbEntity
  8
Defpoints
 62
     0
440
 16777216
100
AcDbPoint
 10
208.134818
 20
272.236751
 30
0.0
  0
ENDBLK
  5
400
330
3FE
100
AcDbEntity
  8
0
100
AcDbBlockEnd
  0
BLOCK
  5
40B
330
40A
100
AcDbEntity
  8
0
100
AcDbBlockBegin
  2
*D39
 70
     1
 10
0.0
 20
0.0
 30
0.0
  3
*D39
  1

  0
LINE
  5
836
330
40A
100
AcDbEntity
  8
Dimensions
440
 16777216
370
    -2
100
AcDbLine
 10
101.555835
 20
155.739277
 30
0.0
 11
101.555835
 21
132.938585
 31
0.0
  0
LINE
  5
837
330
40A
100
AcDbEntity
  8
Dimensions
440
 16777216
370
    -2
100
AcDbLine
 10
109.555835
 20
149.739277
 30
0.0
 11
109.555835
 21
132.938585
 31
0.0
  0
LINE
  5
838
330
40A
100
AcDbEntity
  8
Dimensions
440
 16777216
370
    -2
100
AcDbLine
 10
98.055835
 20
134.938585
 30
0.0
 11
94.555835
 21
134.938585
 31
0.0
  0
LINE
  5
839
330
40A
100
AcDbEntity
  8
Dimensions
440
 16777216
370
    -2
100
AcDbLine
 10
113.055835
 20
134.938585
 30
0.0
 11
116.555835
 21
134.938585
 31
0.0
  0
LINE
  5
83A
330
40A
100
AcDbEntity
  8
Dimensions
440
 16777216
370
    -2
100
AcDbLine
 10
101.555835
 20
134.938585
 30
0.0
 11
109.555835
 21
134.938585
 31
0.0
  0
SOLID
  5
83B
330
40A
100
AcDbEntity
  8
Dimensions
440
 16777216
100
AcDbTrace
 10
98.055835
 20
135.521918
 30
0.0
 11
98.055835
 21
134.355251
 31
0.0
 12
101.555835
 22
134.938585
 32
0.0
 13
101.555835
 23
134.938585
 33
0.0
  0
SOLID
  5
83C
330
40A
100
AcDbEntity
  8
Dimensions
440
 16777216
100
AcDbTrace
 10
113.055835
 20
135.521918
 30
0.0
 11
113.055835
 21
134.355251
 31
0.0
 12
109.555835
 22
134.938585
 32
0.0
 13
109.555835
 23
134.938585
 33
0.0
  0
MTEXT
  5
83D
330
40A
100
AcDbEntity
  8
Dimensions
440
 16777216
100
AcDbMText
 10
105.555835
 20
138.22559
 30
0.0
 40
3.5
 41
0.0
 46
0.0
 71
     5
 72
     1
  1
8
 73
     1
 44
1.0
  0
POINT
  5
83E
330
40A
100
AcDbEntity
  8
Defpoints
 62
     0
440
 16777216
100
AcDbPoint
 10
101.555835
 20
157.739277
 30
0.0
  0
POINT
  5
83F
330
40A
100
AcDbEntity
  8
Defpoints
 62
     0
440
 16777216
100
AcDbPoint
 10
109.555835
 20
151.739277
 30
0.0
  0
POINT
  5
840
330
40A
100
AcDbEntity
  8
Defpoints
 62
     0
440
 16777216
100
AcDbPoint
 10
109.555835
 20
134.938585
 30
0.0
  0
ENDBLK
  5
40C
330
40A
100
AcDbEntity
  8
0
100
AcDbBlockEnd
  0
BLOCK
  5
419
330
418
100
AcDbEntity
  8
0
100
AcDbBlockBegin
  2
*D40
 70
     1
 10
0.0
 20
0.0
 30
0.0
  3
*D40
  1

  0
LINE
  5
841
330
418
100
AcDbEntity
  8
Dimensions
440
 16777216
370
    -2
100
AcDbLine
 10
32.123003
 20
247.608349
 30
0.0
 11
97.474844
 21
163.02143
 31
0.0
  0
LINE
  5
842
330
418
100
AcDbEntity
  8
Dimensions
440
 16777216
370
    -2
100
AcDbLine
 10
105.636825
 20
152.457124
 30
0.0
 11
107.776671
 21
149.687455
 31
0.0
  0
MTEXT
  5
843
330
418
100
AcDbEntity
  8
Dimensions
440
 16777216
100
AcDbMText
 10
65.884082
 20
212.025575
 30
0.0
 40
3.5
 41
0.0
 46
0.0
 71
     5
 72
     1
  1
∅6.35{\H2.499;\S+.2~.-0;} (Montage gras pour potentiometre)      
 11
0.611384
 21
-0.791334
 31
0.0
 73
     1
 44
1.0
  0
LINE
  5
844
330
418
100
AcDbEntity
  8
Dimensions
440
 16777216
370
    -2
100
AcDbLine
 10
103.49698
 20
155.226792
 30
0.0
 11
99.614689
 21
160.251761
 31
0.0
  0
SOLID
  5
845
330
418
100
AcDbEntity
  8
Dimensions
440
 16777216
100
AcDbTrace
 10
106.098437
 20
152.813764
 30
0.0
 11
105.175214
 21
152.100483
 31
0.0
 12
103.49698
 22
155.226792
 32
0.0
 13
103.49698
 23
155.226792
 33
0.0
  0
SOLID
  5
846
330
418
100
AcDbEntity
  8
Dimensions
440
 16777216
100
AcDbTrace
 10
97.936456
 20
163.37807
 30
0.0
 11
97.013233
 21
162.664789
 31
0.0
 12
99.614689
 22
160.251761
 32
0.0
 13
99.614689
 23
160.251761
 33
0.0
  0
POINT
  5
847
330
418
100
AcDbEntity
  8
Defpoints
 62
     0
440
 16777216
100
AcDbPoint
 10
99.614689
 20
160.251761
 30
0.0
  0
POINT
  5
848
330
418
100
AcDbEntity
  8
Defpoints
 62
     0
440
 16777216
100
AcDbPoint
 10
103.49698
 20
155.226792
 30
0.0
  0
ENDBLK
  5
41A
330
418
100
AcDbEntity
  8
0
100
AcDbBlockEnd
  0
BLOCK
  5
424
330
423
100
AcDbEntity
  8
0
100
AcDbBlockBegin
  2
*D41
 70
     1
 10
0.0
 20
0.0
 30
0.0
  3
*D41
  1

  0
LINE
  5
849
330
423
100
AcDbEntity
  8
Dimensions
440
 16777216
370
    -2
100
AcDbLine
 10
98.455835
 20
219.739277
 30
0.0
 11
98.455835
 21
230.23959
 31
0.0
  0
LINE
  5
84A
330
423
100
AcDbEntity
  8
Dimensions
440
 16777216
370
    -2
100
AcDbLine
 10
104.655835
 20
219.739277
 30
0.0
 11
104.655835
 21
230.23959
 31
0.0
  0
LINE
  5
84B
330
423
100
AcDbEntity
  8
Dimensions
440
 16777216
370
    -2
100
AcDbLine
 10
94.955835
 20
228.23959
 30
0.0
 11
91.455835
 21
228.23959
 31
0.0
  0
LINE
  5
84C
330
423
100
AcDbEntity
  8
Dimensions
440
 16777216
370
    -2
100
AcDbLine
 10
108.155835
 20
228.23959
 30
0.0
 11
121.011224
 21
228.23959
 31
0.0
  0
LINE
  5
84D
330
423
100
AcDbEntity
  8
Dimensions
440
 16777216
370
    -2
100
AcDbLine
 10
98.455835
 20
228.23959
 30
0.0
 11
104.655835
 21
228.23959
 31
0.0
  0
SOLID
  5
84E
330
423
100
AcDbEntity
  8
Dimensions
440
 16777216
100
AcDbTrace
 10
94.955835
 20
228.822923
 30
0.0
 11
94.955835
 21
227.656256
 31
0.0
 12
98.455835
 22
228.23959
 32
0.0
 13
98.455835
 23
228.23959
 33
0.0
  0
SOLID
  5
84F
330
423
100
AcDbEntity
  8
Dimensions
440
 16777216
100
AcDbTrace
 10
108.155835
 20
228.822923
 30
0.0
 11
108.155835
 21
227.656256
 31
0.0
 12
104.655835
 22
228.23959
 32
0.0
 13
104.655835
 23
228.23959
 33
0.0
  0
MTEXT
  5
850
330
423
100
AcDbEntity
  8
Dimensions
440
 16777216
100
AcDbMText
 10
116.333529
 20
231.526595
 30
0.0
 40
3.5
 41
0.0
 46
0.0
 71
     5
 72
     1
  1
6.2
 73
     1
 44
1.0
  0
POINT
  5
851
330
423
100
AcDbEntity
  8
Defpoints
 62
     0
440
 16777216
100
AcDbPoint
 10
98.455835
 20
217.739277
 30
0.0
  0
POINT
  5
852
330
423
100
AcDbEntity
  8
Defpoints
 62
     0
440
 16777216
100
AcDbPoint
 10
104.655835
 20
217.739277
 30
0.0
  0
POINT
  5
853
330
423
100
AcDbEntity
  8
Defpoints
 62
     0
440
 16777216
100
AcDbPoint
 10
104.655835
 20
228.23959
 30
0.0
  0
ENDBLK
  5
425
330
423
100
AcDbEntity
  8
0
100
AcDbBlockEnd
  0
ENDSEC
  0
SECTION
  2
ENTITIES
  0
INSERT
  5
1F8
330
70
100
AcDbEntity
  8
Border
100
AcDbBlockReference
  2
ISO_A3_SHEET
 10
0.0
 20
0.0
 30
0.0
  0
INSERT
  5
23E
330
70
100
AcDbEntity
  8
TitleBlock
100
AcDbBlockReference
 66
     1
  2
ISO_TITLEBLOCK
 10
410.0
 20
10.0
 30
0.0
  0
ATTRIB
  5
27A
102
{ACAD_XDICTIONARY
360
797
102
}
330
23E
100
AcDbEntity
  8
TitleBlock
100
AcDbText
 10
360.0
 20
11.5
 30
0.0
 40
3.5
  1

  7
FusionTitle
 11
360.0
 21
15.0
 31
0.0
100
AcDbAttribute
280
     0
  2
DATE_OF_ISSUE
 70
     0
 74
     3
280
     1
  0
ATTRIB
  5
27B
102
{ACAD_XDICTIONARY
360
79A
102
}
330
23E
100
AcDbEntity
  8
TitleBlock
100
AcDbText
 10
348.973226
 20
11.35
 30
0.0
 40
3.5
  1

  7
FusionTitle
 72
     1
 11
354.0
 21
14.85
 31
0.0
100
AcDbAttribute
280
     0
  2
REV
 70
     0
 74
     3
280
     1
  0
ATTRIB
  5
27C
102
{ACAD_XDICTIONARY
360
79D
102
}
330
23E
100
AcDbEntity
  8
TitleBlock
100
AcDbText
 10
289.0
 20
11.5
 30
0.0
 40
5.0
  1

  7
FusionTitle
 11
289.0
 21
16.5
 31
0.0
100
AcDbAttribute
280
     0
  2
TITLE_3
 70
     0
 74
     3
280
     1
  0
ATTRIB
  5
27D
102
{ACAD_XDICTIONARY
360
7A0
102
}
330
23E
100
AcDbEntity
  8
TitleBlock
100
AcDbText
 10
350.0
 20
38.5
 30
0.0
 40
3.5
  1

  7
FusionTitle
 11
350.0
 21
42.0
 31
0.0
100
AcDbAttribute
280
     0
  2
DOCUMENT_STATUS
 70
     0
 74
     3
280
     1
  0
ATTRIB
  5
27E
102
{ACAD_XDICTIONARY
360
7A3
102
}
330
23E
100
AcDbEntity
  8
TitleBlock
100
AcDbText
 10
289.0
 20
38.5
 30
0.0
 40
3.5
  1

  7
FusionTitle
 11
289.0
 21
42.0
 31
0.0
100
AcDbAttribute
280
     0
  2
DOCUMENT_TYPE
 70
     0
 74
     3
280
     1
  0
ATTRIB
  5
27F
102
{ACAD_XDICTIONARY
360
7A6
102
}
330
23E
100
AcDbEntity
  8
TitleBlock
100
AcDbText
 10
366.076057
 20
48.5
 30
0.0
 40
3.5
  1

  7
FusionTitle
 72
     2
 11
409.007162
 21
52.0
 31
0.0
100
AcDbAttribute
280
     0
  2
APPROVED_DATE
 70
     0
 74
     3
280
     1
  0
ATTRIB
  5
280
102
{ACAD_XDICTIONARY
360
7A9
102
}
330
23E
100
AcDbEntity
  8
TitleBlock
100
AcDbText
 10
335.303547
 20
48.440314
 30
0.0
 40
3.5
  1
2/8/21
  7
FusionTitle
100
AcDbAttribute
280
     0
  2
CREATED_DATE_001
 70
     0
280
     1
  0
ATTRIB
  5
281
102
{ACAD_XDICTIONARY
360
7AC
102
}
330
23E
100
AcDbEntity
  8
TitleBlock
100
AcDbText
 10
399.284106
 20
11.290314
 30
0.0
 40
3.5
  1
1/1
  7
FusionTitle
100
AcDbAttribute
280
     0
  2
SHEET_001
 70
     0
280
     1
  0
ATTRIB
  5
282
102
{ACAD_XDICTIONARY
360
7AF
102
}
330
23E
100
AcDbEntity
  8
TitleBlock
100
AcDbText
 10
289.0
 20
19.0
 30
0.0
 40
5.0
  1

  7
FusionTitle
 11
289.0
 21
24.0
 31
0.0
100
AcDbAttribute
280
     0
  2
TITLE_2
 70
     0
 74
     3
280
     1
  0
ATTRIB
  5
283
102
{ACAD_XDICTIONARY
360
7B2
102
}
330
23E
100
AcDbEntity
  8
TitleBlock
100
AcDbText
 10
345.543656
 20
24.751432
 30
0.0
 40
5.0
  1

  7
FusionTitle
 72
     1
 11
379.5
 21
29.751432
 31
0.0
100
AcDbAttribute
280
     0
  2
DRAWING_NUMBER
 70
     0
 74
     3
280
     1
  0
ATTRIB
  5
284
102
{ACAD_XDICTIONARY
360
7B5
102
}
330
23E
100
AcDbEntity
  8
TitleBlock
100
AcDbText
 10
288.703683
 20
26.479536
 30
0.0
 40
5.0
  1
BrasLevierAccel_PedalierDev_v1
 41
0.5792
  7
FusionTitle
100
AcDbAttribute
280
     0
  2
TITLE_1_001
 70
     0
280
     1
  0
ATTRIB
  5
285
102
{ACAD_XDICTIONARY
360
7B8
102
}
330
23E
100
AcDbEntity
  8
TitleBlock
100
AcDbText
 10
350.0
 20
48.5
 30
0.0
 40
3.5
  1

  7
FusionTitle
 11
350.0
 21
52.0
 31
0.0
100
AcDbAttribute
280
     0
  2
APPROVED_BY
 70
     0
 74
     3
280
     1
  0
ATTRIB
  5
286
102
{ACAD_XDICTIONARY
360
7BB
102
}
330
23E
100
AcDbEntity
  8
TitleBlock
100
AcDbText
 10
288.86869
 20
48.5
 30
0.0
 40
3.5
  1
Jean-Baptiste Zurita
  7
FusionTitle
100
AcDbAttribute
280
     0
  2
CREATED_BY_001
 70
     0
280
     1
  0
ATTRIB
  5
287
102
{ACAD_XDICTIONARY
360
7BE
102
}
330
23E
100
AcDbEntity
  8
TitleBlock
100
AcDbText
 10
255.0
 20
48.5
 30
0.0
 40
3.5
  1

  7
FusionTitle
 11
255.0
 21
52.0
 31
0.0
100
AcDbAttribute
280
     0
  2
TECHNICAL_REFERENCE
 70
     0
 74
     3
280
     1
  0
ATTRIB
  5
288
102
{ACAD_XDICTIONARY
360
7C1
102
}
330
23E
100
AcDbEntity
  8
TitleBlock
100
AcDbText
 10
231.0
 20
48.5
 30
0.0
 40
3.5
  1

  7
FusionTitle
 11
231.0
 21
52.0
 31
0.0
100
AcDbAttribute
280
     0
  2
DEPT
 70
     0
 74
     3
280
     1
  0
SEQEND
  5
289
330
23E
100
AcDbEntity
  8
TitleBlock
  0
INSERT
  5
28A
330
70
100
AcDbEntity
  8
Center Lines
 48
0.75
100
AcDbBlockReference
  2
*U7
 10
101.555835
 20
196.142249
 30
0.0
  0
INSERT
  5
290
330
70
100
AcDbEntity
  8
Center Lines
 48
0.75
100
AcDbBlockReference
  2
*U8
 10
202.134818
 20
196.142249
 30
0.0
  0
INSERT
  5
295
330
70
100
AcDbEntity
  8
Center Lines
 48
0.75
100
AcDbBlockReference
  2
*U9
 10
202.134818
 20
156.405337
 30
0.0
  0
INSERT
  5
29A
330
70
100
AcDbEntity
  8
Center Lines
 48
0.75
100
AcDbBlockReference
  2
*U10
 10
101.555835
 20
237.739277
 30
0.0
  0
INSERT
  5
29F
330
70
100
AcDbEntity
  8
Center Lines
 48
0.75
100
AcDbBlockReference
  2
*U11
 10
101.555835
 20
95.15284
 30
0.0
  0
DIMENSION
  5
2A4
330
70
100
AcDbEntity
  8
Dimensions
100
AcDbDimension
280
     0
  2
*D27
 10
61.957855
 20
157.739277
 30
0.0
 11
58.67085
 21
197.739277
 31
0.0
 70
    33
 71
     5
 42
80.0
 73
     0
 74
     0
 75
     0
  3
ISO-25
100
AcDbAlignedDimension
 13
101.555835
 23
237.739277
 33
0.0
 14
101.555835
 24
157.739277
 34
0.0
1001
ACAD_DIMASSOC_CALC_DIMLFAC
1040
-1.0
1001
ACAD_DIMASSOC_DIMLFAC
1040
-1.0
1001
ACAD_DIMASSOC_OVERRIDDEN_DIMLFAC
1040
0.0
1001
ACAD_DSTYLE_DIMJAG_POSITION
1070
   387
1070
     0
1070
   389
1010
0.0
1020
0.0
1030
0.0
1001
ACAD
1000
DSTYLE
1002
{
1070
   144
1040
1.0
1070
   176
1070
   256
1070
   177
1070
   256
1002
}
  0
DIMENSION
  5
2B2
330
70
100
AcDbEntity
  8
Dimensions
100
AcDbDimension
280
     0
  2
*D28
 10
101.555835
 20
157.739277
 30
0.0
 11
76.42089
 21
142.667155
 31
0.0
 70
   164
 71
     5
 42
10.0
 73
     0
 74
     0
 75
     0
  3
ISO-25
100
AcDbRadialDimension
 15
92.979574
 25
152.596538
 35
0.0
 40
0.0
1001
ACAD_DIMASSOC_CALC_DIMLFAC
1040
-1.0
1001
ACAD_DIMASSOC_DIMLFAC
1040
-1.0
1001
ACAD_DIMASSOC_OVERRIDDEN_DIMLFAC
1040
0.0
1001
ACAD_DSTYLE_DIMJAG_POSITION
1070
   387
1070
     0
1070
   389
1010
0.0
1020
0.0
1030
0.0
1001
ACAD_DSTYLE_DIMRADIAL_EXTENSION
1070
   387
1070
     1
1070
   388
1040
2.318559
1070
   390
1040
5.639684
1001
ACAD
1000
DSTYLE
1002
{
1070
    75
1070
     1
1070
   144
1040
1.0
1070
   176
1070
   256
1070
   177
1070
   256
1002
}
  0
DIMENSION
  5
2BC
330
70
100
AcDbEntity
  8
Dimensions
100
AcDbDimension
280
     0
  2
*D29
 10
101.555835
 20
237.739277
 30
0.0
 11
133.298791
 21
260.123587
 31
0.0
 70
   164
 71
     5
 42
12.5
 73
     0
 74
     0
 75
     0
  3
ISO-25
100
AcDbRadialDimension
 15
111.771341
 25
244.942987
 35
0.0
 40
0.0
1001
ACAD_DIMASSOC_CALC_DIMLFAC
1040
-1.0
1001
ACAD_DIMASSOC_DIMLFAC
1040
-1.0
1001
ACAD_DIMASSOC_OVERRIDDEN_DIMLFAC
1040
0.0
1001
ACAD_DSTYLE_DIMJAG_POSITION
1070
   387
1070
     0
1070
   389
1010
0.0
1020
0.0
1030
0.0
1001
ACAD_DSTYLE_DIMRADIAL_EXTENSION
1070
   387
1070
     1
1070
   388
1040
0.643501
1070
   390
1040
2.498092
1001
ACAD
1000
DSTYLE
1002
{
1070
    75
1070
     1
1070
   144
1040
1.0
1002
}
  0
DIMENSION
  5
2C6
330
70
100
AcDbEntity
  8
Dimensions
100
AcDbDimension
280
     0
  2
*D30
 10
198.134818
 20
262.337256
 30
0.0
 11
202.134818
 21
265.624262
 31
0.0
 70
    33
 71
     5
 42
8.0
 73
     0
 74
     0
 75
     0
  3
ISO-25
100
AcDbAlignedDimension
 13
206.134818
 23
222.739277
 33
0.0
 14
198.134818
 24
222.739277
 34
0.0
1001
ACAD_DIMASSOC_CALC_DIMLFAC
1040
-1.0
1001
ACAD_DIMASSOC_DIMLFAC
1040
-1.0
1001
ACAD_DIMASSOC_OVERRIDDEN_DIMLFAC
1040
0.0
1001
ACAD_DSTYLE_DIMJAG_POSITION
1070
   387
1070
     0
1070
   389
1010
0.0
1020
0.0
1030
0.0
1001
ACAD
1000
DSTYLE
1002
{
1070
   144
1040
1.0
1070
   176
1070
   256
1070
   177
1070
   256
1002
}
  0
DIMENSION
  5
2D5
330
70
100
AcDbEntity
  8
Dimensions
100
AcDbDimension
280
     0
  2
*D31
 10
190.77836
 20
222.739277
 30
0.0
 11
187.491355
 21
236.489277
 31
0.0
 70
    32
 71
     5
 42
27.5
 73
     0
 74
     0
 75
     0
  3
ISO-25
100
AcDbAlignedDimension
 13
206.134818
 23
250.239277
 33
0.0
 14
198.134818
 24
222.739277
 34
0.0
 50
90.0
100
AcDbRotatedDimension
1001
ACAD_DIMASSOC_CALC_DIMLFAC
1040
-1.0
1001
ACAD_DIMASSOC_DIMLFAC
1040
-1.0
1001
ACAD_DIMASSOC_OVERRIDDEN_DIMLFAC
1040
0.0
1001
ACAD_DSTYLE_DIMJAG_POSITION
1070
   387
1070
     0
1070
   389
1010
0.0
1020
0.0
1030
0.0
1001
ACAD
1000
DSTYLE
1002
{
1070
   144
1040
1.0
1070
   176
1070
   256
1070
   177
1070
   256
1002
}
  0
DIMENSION
  5
2E2
330
70
100
AcDbEntity
  8
Dimensions
100
AcDbDimension
280
     0
  2
*D32
 10
131.10746
 20
198.989277
 30
0.0
 11
127.820455
 21
209.614277
 31
0.0
 70
    32
 71
     5
 42
21.25
 73
     0
 74
     0
 75
     0
  3
ISO-25
100
AcDbAlignedDimension
 13
102.155835
 23
220.239277
 33
0.0
 14
102.155835
 24
198.989277
 34
0.0
 50
90.0
100
AcDbRotatedDimension
1001
ACAD_DIMASSOC_CALC_DIMLFAC
1040
-1.0
1001
ACAD_DIMASSOC_DIMLFAC
1040
-1.0
1001
ACAD_DIMASSOC_OVERRIDDEN_DIMLFAC
1040
0.0
1001
ACAD_DSTYLE_DIMJAG_POSITION
1070
   387
1070
     0
1070
   389
1010
0.0
1020
0.0
1030
0.0
1001
ACAD
1000
DSTYLE
1002
{
1070
   144
1040
1.0
1070
   176
1070
   256
1070
   177
1070
   256
1002
}
  0
DIMENSION
  5
2EF
330
70
100
AcDbEntity
  8
Dimensions
100
AcDbDimension
280
     0
  2
*D33
 10
131.085774
 20
196.489277
 30
0.0
 11
127.798769
 21
184.760252
 31
0.0
 70
    32
 71
     5
 42
2.5
 73
     0
 74
     0
 75
     0
  3
ISO-25
100
AcDbAlignedDimension
 13
102.155835
 23
198.989277
 33
0.0
 14
102.155835
 24
196.489277
 34
0.0
 50
270.0
100
AcDbRotatedDimension
1001
ACAD_DIMASSOC_CALC_DIMLFAC
1040
-1.0
1001
ACAD_DIMASSOC_DIMLFAC
1040
-1.0
1001
ACAD_DIMASSOC_OVERRIDDEN_DIMLFAC
1040
0.0
1001
ACAD_DSTYLE_DIMJAG_POSITION
1070
   387
1070
     0
1070
   389
1010
0.0
1020
0.0
1030
0.0
1001
ACAD
1000
DSTYLE
1002
{
1070
   144
1040
1.0
1070
   176
1070
   256
1070
   177
1070
   256
1002
}
  0
DIMENSION
  5
2FE
330
70
100
AcDbEntity
  8
Dimensions
100
AcDbDimension
280
     0
  2
*D34
 10
121.124859
 20
175.239277
 30
0.0
 11
117.837854
 21
185.864277
 31
0.0
 70
    32
 71
     5
 42
21.25
 73
     0
 74
     0
 75
     0
  3
ISO-25
100
AcDbAlignedDimension
 13
102.155835
 23
196.489277
 33
0.0
 14
102.155835
 24
175.239277
 34
0.0
 50
90.0
100
AcDbRotatedDimension
1001
ACAD_DIMASSOC_CALC_DIMLFAC
1040
-1.0
1001
ACAD_DIMASSOC_DIMLFAC
1040
-1.0
1001
ACAD_DIMASSOC_OVERRIDDEN_DIMLFAC
1040
0.0
1001
ACAD_DSTYLE_DIMJAG_POSITION
1070
   387
1070
     0
1070
   389
1010
0.0
1020
0.0
1030
0.0
1001
ACAD
1000
DSTYLE
1002
{
1070
   144
1040
1.0
1070
   176
1070
   256
1070
   177
1070
   256
1002
}
  0
DIMENSION
  5
30B
330
70
100
AcDbEntity
  8
Dimensions
100
AcDbDimension
280
     0
  2
*D35
 10
121.354825
 20
157.739277
 30
0.0
 11
118.067819
 21
166.489277
 31
0.0
 70
    32
 71
     5
 42
17.5
 73
     0
 74
     0
 75
     0
  3
ISO-25
100
AcDbAlignedDimension
 13
102.155835
 23
175.239277
 33
0.0
 14
101.555835
 24
157.739277
 34
0.0
 50
270.0
100
AcDbRotatedDimension
1001
ACAD_DIMASSOC_CALC_DIMLFAC
1040
-1.0
1001
ACAD_DIMASSOC_DIMLFAC
1040
-1.0
1001
ACAD_DIMASSOC_OVERRIDDEN_DIMLFAC
1040
0.0
1001
ACAD_DSTYLE_DIMJAG_POSITION
1070
   387
1070
     0
1070
   389
1010
0.0
1020
0.0
1030
0.0
1001
ACAD
1000
DSTYLE
1002
{
1070
   144
1040
1.0
1070
   176
1070
   256
1070
   177
1070
   256
1002
}
  0
DIMENSION
  5
318
330
70
100
AcDbEntity
  8
Dimensions
100
AcDbDimension
280
     0
  2
*D36
 10
105.0951
 20
235.875517
 30
0.0
 11
77.798627
 21
250.249707
 31
0.0
 70
   163
 71
     5
 42
8.0
 73
     0
 74
     0
 75
     0
  3
ISO-25
100
AcDbDiametricDimension
 15
98.016569
 25
239.603036
 35
0.0
 40
0.0
1001
ACAD_DIMASSOC_CALC_DIMLFAC
1040
-1.0
1001
ACAD_DIMASSOC_DIMLFAC
1040
-1.0
1001
ACAD_DIMASSOC_OVERRIDDEN_DIMLFAC
1040
0.0
1001
ACAD_DSTYLE_DIMJAG_POSITION
1070
   387
1070
     0
1070
   389
1010
0.0
1020
0.0
1030
0.0
1001
ACAD_DSTYLE_DIMRADIAL_EXTENSION
1070
   387
1070
     1
1070
   388
1040
0.0
1070
   390
1040
0.0
1001
ACAD
1000
DSTYLE
1002
{
1070
   144
1040
1.0
1070
   176
1070
   256
1070
   177
1070
   256
1002
}
  0
DIMENSION
  5
324
330
70
100
AcDbEntity
  8
Dimensions
100
AcDbDimension
280
     0
  2
*D37
 10
111.555835
 20
277.06889
 30
0.0
 11
101.555835
 21
280.355895
 31
0.0
 70
    32
 71
     5
 42
20.0
 73
     0
 74
     0
 75
     0
  3
ISO-25
100
AcDbAlignedDimension
 13
91.555835
 23
245.239277
 33
0.0
 14
111.555835
 24
245.239277
 34
0.0
100
AcDbRotatedDimension
1001
ACAD_DIMASSOC_CALC_DIMLFAC
1040
-1.0
1001
ACAD_DIMASSOC_DIMLFAC
1040
-1.0
1001
ACAD_DIMASSOC_OVERRIDDEN_DIMLFAC
1040
0.0
1001
ACAD_DSTYLE_DIMJAG_POSITION
1070
   387
1070
     0
1070
   389
1010
0.0
1020
0.0
1030
0.0
1001
ACAD
1000
DSTYLE
1002
{
1070
   144
1040
1.0
1070
   176
1070
   256
1070
   177
1070
   256
1002
}
  0
DIMENSION
  5
331
330
70
100
AcDbEntity
  8
Dimensions
100
AcDbDimension
280
     0
  2
*D38
 10
208.134818
 20
272.236751
 30
0.0
 11
202.134818
 21
275.493914
 31
0.0
 70
    32
 71
     5
 42
12.0
 73
     0
 74
     0
 75
     0
  3
ISO-25
100
AcDbAlignedDimension
 13
196.134818
 23
245.239277
 33
0.0
 14
208.134818
 24
245.239277
 34
0.0
 50
180.0
100
AcDbRotatedDimension
1001
ACAD_DIMASSOC_CALC_DIMLFAC
1040
-1.0
1001
ACAD_DIMASSOC_DIMLFAC
1040
-1.0
1001
ACAD_DIMASSOC_OVERRIDDEN_DIMLFAC
1040
0.0
1001
ACAD_DSTYLE_DIMJAG_POSITION
1070
   387
1070
     0
1070
   389
1010
0.0
1020
0.0
1030
0.0
1001
ACAD
1000
DSTYLE
1002
{
1070
   144
1040
1.0
1070
   176
1070
   256
1070
   177
1070
   256
1002
}
  0
DIMENSION
  5
33E
330
70
100
AcDbEntity
  8
Dimensions
100
AcDbDimension
280
     0
  2
*D39
 10
109.555835
 20
134.938585
 30
0.0
 11
105.555835
 21
138.22559
 31
0.0
 70
    32
 71
     5
 42
8.0
 73
     0
 74
     0
 75
     0
  3
ISO-25
100
AcDbAlignedDimension
 13
101.555835
 23
157.739277
 33
0.0
 14
109.555835
 24
151.739277
 34
0.0
 50
180.0
100
AcDbRotatedDimension
1001
ACAD_DIMASSOC_CALC_DIMLFAC
1040
-1.0
1001
ACAD_DIMASSOC_DIMLFAC
1040
-1.0
1001
ACAD_DIMASSOC_OVERRIDDEN_DIMLFAC
1040
0.0
1001
ACAD_DSTYLE_DIMJAG_POSITION
1070
   387
1070
     0
1070
   389
1010
0.0
1020
0.0
1030
0.0
1001
ACAD
1000
DSTYLE
1002
{
1070
   144
1040
1.0
1070
   176
1070
   256
1070
   177
1070
   256
1002
}
  0
DIMENSION
  5
34D
330
70
100
AcDbEntity
  8
Dimensions
100
AcDbDimension
280
     0
  2
*D40
 10
103.49698
 20
155.226792
 30
0.0
 11
61.957855
 21
208.992172
 31
0.0
 70
   163
  1
<> (Montage gras pour potentiometre)      
 71
     5
 42
6.35
 73
     0
 74
     0
 75
     0
  3
ISO-25
100
AcDbDiametricDimension
 15
99.614689
 25
160.251761
 35
0.0
 40
0.0
1001
ACAD_DIMASSOC_CALC_DIMLFAC
1040
-1.0
1001
ACAD_DIMASSOC_DIMLFAC
1040
-1.0
1001
ACAD_DIMASSOC_OVERRIDDEN_DIMLFAC
1040
0.0
1001
ACAD_DSTYLE_DIMJAG_POSITION
1070
   387
1070
     0
1070
   389
1010
0.0
1020
0.0
1030
0.0
1001
ACAD_DSTYLE_DIMRADIAL_EXTENSION
1070
   387
1070
     1
1070
   388
1040
0.0
1070
   390
1040
0.0
1001
ACAD
1000
DSTYLE
1002
{
1070
    47
1040
0.2
1070
    48
1040
0.0
1070
   147
1040
1.5
1070
    72
1070
     0
1070
    71
1070
     1
1070
   144
1040
1.0
1002
}
  0
DIMENSION
  5
359
330
70
100
AcDbEntity
  8
Dimensions
100
AcDbDimension
280
     0
  2
*D41
 10
104.655835
 20
228.23959
 30
0.0
 11
116.333529
 21
231.526595
 31
0.0
 70
    32
 71
     5
 42
6.2
 73
     0
 74
     0
 75
     0
  3
ISO-25
100
AcDbAlignedDimension
 13
98.455835
 23
217.739277
 33
0.0
 14
104.655835
 24
217.739277
 34
0.0
 50
180.0
100
AcDbRotatedDimension
1001
ACAD_DIMASSOC_CALC_DIMLFAC
1040
-1.0
1001
ACAD_DIMASSOC_DIMLFAC
1040
-1.0
1001
ACAD_DIMASSOC_OVERRIDDEN_DIMLFAC
1040
0.0
1001
ACAD_DSTYLE_DIMJAG_POSITION
1070
   387
1070
     0
1070
   389
1010
0.0
1020
0.0
1030
0.0
1001
ACAD
1000
DSTYLE
1002
{
1070
   144
1040
1.0
1070
   176
1070
   256
1070
   177
1070
   256
1002
}
  0
MULTILEADER
  5
368
102
{ACAD_XDICTIONARY
360
369
102
}
330
70
100
AcDbEntity
  8
Annotations
160
               736
310
E0020000190000000C00000016000000000000C00C00000033000000000000000C00000013000000993A0000E000000026000000006013C4C4A46B40EF0BB7CCB6686540000000000000803D00000000000000000000000000000000000000000000F03F000000000000F03F0000000000000000000000000000000020004D
310
003400780030002E00370020003600480020007800200034002E00380033002F0034002E0038003300000000F016000000010000000000000000000C40000000000000F03F0000000000000000000000000000F03F000000000000000000000000000000000000000000000000000000000100000022000000410072006900
310
61006C00000000008548000000E00C00000033000000000000000C000000100000000E0000000C00000016000000000000C00C00000012000000FF7F00000C00000013000000010000000C0000001400000001000000540000000700000003000000BB89351F7DDD69400DA69E70D7146440000000000000803D80F82CD12C
310
7C69407EA229EA56DA6340000000000000803D0612694241C569402D6D7F903D316440000000000000803D0C00000014000000010000000C00000013000000891300003C0000000600000002000000E04DCF305FD169409D098F800A236440000000000000803D006013C4C4346B4088A5506650526540000000000000803D
310
0C00000013000000112700003C0000000600000002000000006013C4C4346B4088A5506650526540000000000000803D006013C4C4A46B4088A5506650526540000000000000803D0C00000016000000000000C00C00000012000000FF7F00000C00000017000000000000000C000000130000009A3A00003C000000060000
310
0002000000006013C4C4A46B4088A5506650526540000000000000803D1F03440FB3F7704088A5506650526540000000000000803D0C00000016000000000000C00C00000012000000FF7F00000C00000017000000FFFFFFFF0C0000003300000000000000
100
AcDbMLeader
270
     2
300
CONTEXT_DATA{
 40
1.0
 10
221.149019
 20
170.572314
 30
0.0
 41
3.5
140
3.5
145
0.0
174
     5
175
     5
176
     0
177
     0
290
     1
304

 11
0.0
 21
0.0
 31
1.0
340
55
 12
221.149019
 22
174.832001
 32
0.0
 13
1.0
 23
0.0
 33
0.0
 42
0.0
 43
0.0
 44
0.0
 45
1.0
170
     1
 90
-1073741824
171
     1
172
     5
 91
-1073741824
141
0.0
 92
        0
291
     0
292
     0
173
     0
293
     0
142
0.0
143
0.0
294
     0
295
     0
296
     0
110
203.880471
120
158.82311
130
0.0
111
1.0
121
0.0
131
0.0
112
0.0
122
1.0
132
0.0
297
     0
302
LEADER{
290
     1
291
     1
 10
217.649019
 20
170.572314
 30
0.0
 11
1.0
 21
0.0
 31
0.0
 90
        0
 40
3.5
304
LEADER_LINE{
 10
203.880471
 20
158.82311
 30
0.0
 91
        0
305
}
271
     0
303
}
272
     9
273
     9
301
}
340
67
 90
   312320
170
     1
 91
-1056964608
341
5B
171
    -2
290
     1
291
     1
 41
3.5
 42
3.5
172
     2
343
55
173
     5
 95
        5
174
     1
175
     0
 92
-1073741824
292
     0
 93
-1056964608
 10
1.0
 20
1.0
 30
1.0
 43
0.0
176
     0
293
     0
294
     0
178
     0
179
     1
 45
1.0
271
     0
272
     9
273
     9
295
     0
1001
MLEADERTYPE
1000
HoleThreadNote
  0
MULTILEADER
  5
372
102
{ACAD_XDICTIONARY
360
373
102
}
330
70
100
AcDbEntity
  8
Annotations
160
               736
310
E0020000190000000C00000016000000000000C00C00000033000000000000000C00000013000000993A0000E0000000260000002098A2B4C3626040DFF17B1A4EE46140000000000000000000000000000000000000000000000000000000000000F03F000000000000F03F0000000000000000000000000000000020004D
310
003400780030002E00370020003600480020007800200034002E00380033002F0034002E00380033000000000016000000010000000000000000000C40000000000000F03F0000000000000000000000000000F03F000000000000000000000000000000000000000000000000000000000100000022000000410072006900
310
61006C00000000000000000000000C00000033000000000000000C000000100000000E0000000C00000016000000000000C00C00000012000000FF7F00000C00000013000000010000000C0000001400000001000000540000000700000003000000CF01954D70E15B4000A7EF6DEF306340000000000000000080CF33D922
310
435B40EED41A485882634000000000000000002008EA20B00D5C40E9EF46A8014F634000000000000000000C00000014000000010000000C00000013000000891300003C0000000600000002000000F7843F3790F75B40754B1B8BF83F634000000000000000004030456987E55F40788B15B4E7CD61400000000000000000
310
0C00000013000000112700003C00000006000000020000004030456987E55F40788B15B4E7CD614000000000000000002098A2B4C3626040788B15B4E7CD614000000000000000000C00000016000000000000C00C00000012000000FF7F00000C00000017000000000000000C000000130000009A3A00003C000000060000
310
00020000002098A2B4C3626040788B15B4E7CD614000000000000000005E3E170F65AD6640788B15B4E7CD614000000000000000000C00000016000000000000C00C00000012000000FF7F00000C00000017000000FFFFFFFF0C0000003300000000000000
100
AcDbMLeader
270
     2
300
CONTEXT_DATA{
 40
1.0
 10
131.08639
 20
142.434534
 30
0.0
 41
3.5
140
3.5
145
0.0
174
     5
175
     5
176
     0
177
     0
290
     1
304

 11
0.0
 21
0.0
 31
1.0
340
55
 12
131.08639
 22
146.69422
 32
0.0
 13
1.0
 23
0.0
 33
0.0
 42
0.0
 43
0.0
 44
0.0
 45
1.0
170
     1
 90
-1073741824
171
     1
172
     5
 91
-1073741824
141
0.0
 92
        0
291
     0
292
     0
173
     0
293
     0
142
0.0
143
0.0
294
     0
295
     0
296
     0
110
109.049002
120
156.073277
130
0.0
111
1.0
121
0.0
131
0.0
112
0.0
122
1.0
132
0.0
297
     0
302
LEADER{
290
     1
291
     1
 10
127.58639
 20
142.434534
 30
0.0
 11
1.0
 21
0.0
 31
0.0
 90
        0
 40
3.5
304
LEADER_LINE{
 10
109.049002
 20
156.073277
 30
0.0
 91
        0
305
}
271
     0
303
}
272
     9
273
     9
301
}
340
67
 90
   312448
170
     1
 91
-1056964608
341
5B
171
    -2
290
     1
291
     1
 41
3.5
 42
3.5
172
     2
343
55
173
     5
 95
        5
174
     1
175
     0
 92
-1073741824
292
     0
 93
-1056964608
 10
1.0
 20
1.0
 30
1.0
 43
0.0
176
     0
293
     0
294
     0
178
     0
179
     1
 45
1.0
271
     0
272
     9
273
     9
295
     0
1001
MLEADERTYPE
1000
HoleThreadNote
  0
ARC
  5
5C7
330
70
100
AcDbEntity
  8
Visible
100
AcDbCircle
 10
102.155835
 20
177.739277
 30
6.0
 40
2.5
100
AcDbArc
 50
270.0
 51
0.0
  0
LINE
  5
5C8
330
70
100
AcDbEntity
  8
Visible
100
AcDbLine
 10
102.155835
 20
175.239277
 30
6.0
 11
100.955835
 21
175.239277
 31
6.0
210
0.0
220
1.0
230
0.0
  0
ARC
  5
5C9
330
70
100
AcDbEntity
  8
Visible
100
AcDbCircle
 10
100.955835
 20
177.739277
 30
6.0
 40
2.499999999999999
100
AcDbArc
 50
180.0
 51
270.0
  0
LINE
  5
5CA
330
70
100
AcDbEntity
  8
Visible
100
AcDbLine
 10
98.455835
 20
177.739277
 30
6.0
 11
98.455835
 21
193.989277
 31
6.0
210
0.0
220
1.0
230
0.0
  0
ARC
  5
5CB
330
70
100
AcDbEntity
  8
Visible
100
AcDbCircle
 10
102.155835
 20
193.989277
 30
6.0
 40
2.499999999999999
100
AcDbArc
 50
0.0
 51
90.0
  0
LINE
  5
5CC
330
70
100
AcDbEntity
  8
Visible
100
AcDbLine
 10
104.655835
 20
193.989277
 30
6.0
 11
104.655835
 21
177.739277
 31
6.0
210
0.0
220
1.0
230
0.0
  0
ARC
  5
5CD
330
70
100
AcDbEntity
  8
Visible
100
AcDbCircle
 10
100.955835
 20
193.989277
 30
6.0
 40
2.5
100
AcDbArc
 50
90.0
 51
180.0
  0
LINE
  5
5CE
330
70
100
AcDbEntity
  8
Visible
100
AcDbLine
 10
100.955835
 20
196.489277
 30
6.0
 11
102.155835
 21
196.489277
 31
6.0
210
0.0
220
1.0
230
0.0
  0
ARC
  5
5CF
330
70
100
AcDbEntity
  8
Visible
100
AcDbCircle
 10
102.155835
 20
201.489277
 30
6.0
 40
2.500000000000008
100
AcDbArc
 50
270.0
 51
0.0
  0
LINE
  5
5D0
330
70
100
AcDbEntity
  8
Visible
100
AcDbLine
 10
102.155835
 20
198.989277
 30
6.0
 11
100.955835
 21
198.989277
 31
6.0
210
0.0
220
1.0
230
0.0
  0
ARC
  5
5D1
330
70
100
AcDbEntity
  8
Visible
100
AcDbCircle
 10
100.955835
 20
201.489277
 30
6.0
 40
2.500000000000006
100
AcDbArc
 50
180.0
 51
270.0
  0
LINE
  5
5D2
330
70
100
AcDbEntity
  8
Visible
100
AcDbLine
 10
98.455835
 20
201.489277
 30
6.0
 11
98.455835
 21
217.739277
 31
6.0
210
0.0
220
1.0
230
0.0
  0
ARC
  5
5D3
330
70
100
AcDbEntity
  8
Visible
100
AcDbCircle
 10
102.155835
 20
217.739277
 30
6.0
 40
2.500000000000006
100
AcDbArc
 50
0.0
 51
90.0
  0
LINE
  5
5D4
330
70
100
AcDbEntity
  8
Visible
100
AcDbLine
 10
104.655835
 20
217.739277
 30
6.0
 11
104.655835
 21
201.489277
 31
6.0
210
0.0
220
1.0
230
0.0
  0
ARC
  5
5D5
330
70
100
AcDbEntity
  8
Visible
100
AcDbCircle
 10
100.955835
 20
217.739277
 30
6.0
 40
2.500000000000008
100
AcDbArc
 50
90.0
 51
180.0
  0
LINE
  5
5D6
330
70
100
AcDbEntity
  8
Visible
100
AcDbLine
 10
100.955835
 20
220.239277
 30
6.0
 11
102.155835
 21
220.239277
 31
6.0
210
0.0
220
1.0
230
0.0
  0
ARC
  5
5D7
330
70
100
AcDbEntity
  8
Visible
100
AcDbCircle
 10
110.055835
 20
166.904428
 30
6.0
 40
2.500000000000002
100
AcDbArc
 50
180.0
 51
227.156357
  0
ARC
  5
5D8
330
70
100
AcDbEntity
  8
Visible
100
AcDbCircle
 10
101.555835
 20
157.739277
 30
6.0
 40
9.999999999999818
100
AcDbArc
 50
36.869898
 51
47.156357
  0
ARC
  5
5D9
330
70
100
AcDbEntity
  8
Visible
100
AcDbCircle
 10
93.055835
 20
166.904428
 30
6.0
 40
2.499999999999996
100
AcDbArc
 50
312.843643
 51
0.0
  0
LINE
  5
5DA
330
70
100
AcDbEntity
  8
Visible
100
AcDbLine
 10
95.555835
 20
225.380069
 30
6.0
 11
95.555835
 21
166.904428
 31
6.0
210
0.0
220
1.0
230
0.0
  0
ARC
  5
5DB
330
70
100
AcDbEntity
  8
Visible
100
AcDbCircle
 10
93.055835
 20
225.380069
 30
6.0
 40
2.500000000000005
100
AcDbArc
 50
0.0
 51
55.481892
  0
LINE
  5
5DC
330
70
100
AcDbEntity
  8
Visible
100
AcDbLine
 10
107.555835
 20
166.904428
 30
6.0
 11
107.555835
 21
225.380069
 31
6.0
210
0.0
220
1.0
230
0.0
  0
ARC
  5
5DD
330
70
100
AcDbEntity
  8
Visible
100
AcDbCircle
 10
110.055835
 20
225.380069
 30
6.0
 40
2.5
100
AcDbArc
 50
124.518108
 51
180.0
  0
ARC
  5
5DE
330
70
100
AcDbEntity
  8
Visible
100
AcDbCircle
 10
101.555835
 20
237.739277
 30
6.0
 40
12.50000000000012
100
AcDbArc
 50
304.518108
 51
323.130102
  0
LINE
  5
5DF
330
70
100
AcDbEntity
  8
Hidden
100
AcDbLine
 10
107.555835
 20
222.739277
 30
4.0
 11
95.555835
 21
222.739277
 31
4.0
210
0.0
220
1.0
230
0.0
  0
LINE
  5
5E0
330
70
100
AcDbEntity
  8
Visible
100
AcDbLine
 10
111.555835
 20
230.239277
 30
6.0
 11
111.555835
 21
245.239277
 31
6.0
210
0.0
220
1.0
230
0.0
  0
ARC
  5
5E1
330
70
100
AcDbEntity
  8
Visible
100
AcDbCircle
 10
101.555835
 20
237.739277
 30
6.0
 40
12.5
100
AcDbArc
 50
36.869898
 51
143.130102
  0
LINE
  5
5E2
330
70
100
AcDbEntity
  8
Visible
100
AcDbLine
 10
91.555835
 20
245.239277
 30
6.0
 11
91.555835
 21
230.239277
 31
6.0
210
0.0
220
1.0
230
0.0
  0
CIRCLE
  5
5E3
330
70
100
AcDbEntity
  8
Visible
100
AcDbCircle
 10
-101.555835
 20
157.739277
 30
-6.0
 40
3.174999999999999
210
0.0000000000000001
220
0.0
230
-1.0
  0
CIRCLE
  5
5E4
330
70
100
AcDbEntity
  8
Visible
100
AcDbCircle
 10
-101.555835
 20
237.739277
 30
-6.0
 40
3.999999999999997
210
0.0000000000000001
220
0.0
230
-1.0
  0
LINE
  5
5E5
330
70
100
AcDbEntity
  8
Visible
100
AcDbLine
 10
109.555835
 20
151.739277
 30
6.0
 11
109.555835
 21
163.739277
 31
6.0
210
0.0
220
1.0
230
0.0
  0
ARC
  5
5E6
330
70
100
AcDbEntity
  8
Visible
100
AcDbCircle
 10
101.555835
 20
157.739277
 30
6.0
 40
10.0
100
AcDbArc
 50
132.843643
 51
323.130102
  0
ARC
  5
5E7
330
70
100
AcDbEntity
  8
Visible
100
AcDbCircle
 10
101.555835
 20
237.739277
 30
6.0
 40
12.50000000000009
100
AcDbArc
 50
216.869898
 51
235.481892
  0
LINE
  5
5E8
330
70
100
AcDbEntity
  8
Hidden
100
AcDbLine
 10
109.555835
 20
156.073277
 30
0.0
 11
104.258624
 21
156.073277
 31
0.0
210
0.0
220
1.0
230
0.0
  0
LINE
  5
5E9
330
70
100
AcDbEntity
  8
Hidden
100
AcDbLine
 10
109.555835
 20
159.405277
 30
0.0
 11
104.258624
 21
159.405277
 31
0.0
210
0.0
220
1.0
230
0.0
  0
LINE
  5
5EA
330
70
100
AcDbEntity
  8
Hidden Narrow
100
AcDbLine
 10
103.976295
 20
155.684527
 30
0.0
 11
109.555835
 21
155.684527
 31
0.0
210
0.0
220
1.0
230
0.0
  0
LINE
  5
5EB
330
70
100
AcDbEntity
  8
Hidden Narrow
100
AcDbLine
 10
109.555835
 20
159.794027
 30
0.0
 11
103.976295
 21
159.794027
 31
0.0
210
0.0
220
1.0
230
0.0
  0
LINE
  5
5EC
330
70
100
AcDbEntity
  8
Hidden
100
AcDbLine
 10
98.455835
 20
89.15284
 30
18.75
 11
98.455835
 21
101.15284
 31
18.75
  0
LINE
  5
5ED
330
70
100
AcDbEntity
  8
Hidden
100
AcDbLine
 10
104.655835
 20
101.15284
 30
18.75
 11
104.655835
 21
89.15284
 31
18.75
  0
LINE
  5
5EE
330
70
100
AcDbEntity
  8
Hidden
100
AcDbLine
 10
109.555835
 20
89.15284
 30
-35.25
 11
109.555835
 21
91.15284
 31
-35.25
  0
LINE
  5
5EF
330
70
100
AcDbEntity
  8
Visible
100
AcDbLine
 10
109.555835
 20
91.15284
 30
-35.25
 11
109.555835
 21
99.15284
 31
-35.25
  0
LINE
  5
5F0
330
70
100
AcDbEntity
  8
Hidden
100
AcDbLine
 10
109.555835
 20
99.15284
 30
-35.25
 11
109.555835
 21
101.15284
 31
-35.25
  0
LINE
  5
5F1
330
70
100
AcDbEntity
  8
Hidden
100
AcDbLine
 10
95.555835
 20
91.15284
 30
26.390793
 11
95.555835
 21
89.15284
 31
26.390793
  0
LINE
  5
5F2
330
70
100
AcDbEntity
  8
Visible
100
AcDbLine
 10
95.555835
 20
91.15284
 30
23.75
 11
95.555835
 21
99.15284
 31
23.75
  0
LINE
  5
5F3
330
70
100
AcDbEntity
  8
Hidden
100
AcDbLine
 10
95.555835
 20
101.15284
 30
26.390793
 11
95.555835
 21
99.15284
 31
26.390793
  0
LINE
  5
5F4
330
70
100
AcDbEntity
  8
Hidden
100
AcDbLine
 10
107.555835
 20
99.15284
 30
26.390793
 11
107.555835
 21
101.15284
 31
26.390793
  0
LINE
  5
5F5
330
70
100
AcDbEntity
  8
Visible
100
AcDbLine
 10
107.555835
 20
99.15284
 30
23.75
 11
107.555835
 21
91.15284
 31
23.75
  0
LINE
  5
5F6
330
70
100
AcDbEntity
  8
Hidden
100
AcDbLine
 10
107.555835
 20
89.15284
 30
26.390793
 11
107.555835
 21
91.15284
 31
26.390793
  0
SPLINE
  5
5F7
330
70
100
AcDbEntity
  8
Hidden
100
AcDbSpline
 70
     0
 71
     3
 72
    22
 73
    18
 74
     0
 42
0.000000001
 43
0.0000000001
 40
0.2567679515669846
 40
0.2567679515669846
 40
0.256767951569534
 40
0.256767951569534
 40
0.3208504759224037
 40
0.3208504759224037
 40
0.3849330002752735
 40
0.3849330002752735
 40
0.4492344517071708
 40
0.4492344517071708
 40
0.513535903139068
 40
0.513535903139068
 40
0.5778373545709652
 40
0.5778373545709652
 40
0.6421388060028624
 40
0.6421388060028624
 40
0.7062213303557322
 40
0.7062213303557322
 40
0.7703038547086019
 40
0.7703038547086019
 40
0.7703038547178683
 40
0.7703038547178683
 10
104.7308347875296
 20
96.81883996269972
 30
-41.25000000000849
 10
104.7308347875296
 20
96.81883996269972
 30
-41.03639158549043
 10
104.7073210970466
 20
96.7752911122152
 30
-40.81130154342503
 10
104.6225993823554
 20
96.60388329168018
 30
-40.40189789290315
 10
104.5622754835021
 20
96.47623388933062
 30
-40.21731413171625
 10
104.4459225691826
 20
96.18502925358917
 30
-39.9261094959748
 10
104.3814783801899
 20
96.00060640932497
 30
-39.79882053249362
 10
104.2868344440248
 20
95.59193333686016
 30
-39.62770979925521
 10
104.2586239025004
 20
95.36717813413998
 30
-39.58400000000001
 10
104.2586239025004
 20
94.93850179126093
 30
-39.58400000000001
 10
104.2868344440248
 20
94.71374658854074
 30
-39.62770979925521
 10
104.3814783801899
 20
94.30507351607593
 30
-39.79882053249362
 10
104.4459225691826
 20
94.12065067181174
 30
-39.9261094959748
 10
104.5622754835021
 20
93.82944603607029
 30
-40.21731413171625
 10
104.6225993823554
 20
93.70179663372073
 30
-40.40189789290315
 10
104.7073210970466
 20
93.53038881318571
 30
-40.81130154342503
 10
104.7308347875296
 20
93.4868399627012
 30
-41.03639158549043
 10
104.7308347875296
 20
93.4868399627012
 30
-41.25000000003089
1001
ACAD_VIEW_EDGE_ID
1071
       92
1071
       -1
1071
        2
1071
        0
  0
ARC
  5
5F8
330
70
100
AcDbEntity
  8
Visible
100
AcDbCircle
 10
101.555835
 20
38.75
 30
-91.15284
 40
12.5
210
0.0
220
-1.0
230
0.0
100
AcDbArc
 50
36.869898
 51
143.130102
  0
ARC
  5
5F9
330
70
100
AcDbEntity
  8
Visible
100
AcDbCircle
 10
-101.555835
 20
38.75
 30
99.15284
 40
12.5
210
0.0
220
1.0
230
0.0
100
AcDbArc
 50
36.869898
 51
143.130102
  0
LINE
  5
5FA
330
70
100
AcDbEntity
  8
Visible
100
AcDbLine
 10
111.555835
 20
89.15284
 30
46.25
 11
111.555835
 21
91.15284
 31
46.25
  0
LINE
  5
5FB
330
70
100
AcDbEntity
  8
Visible
100
AcDbLine
 10
91.555835
 20
89.15284
 30
46.25
 11
91.555835
 21
91.15284
 31
46.25
  0
ARC
  5
5FC
330
70
100
AcDbEntity
  8
Visible
100
AcDbCircle
 10
101.555835
 20
38.75
 30
-89.15284
 40
12.5
210
0.0
220
-1.0
230
0.0
100
AcDbArc
 50
36.869898
 51
143.130102
  0
ARC
  5
5FD
330
70
100
AcDbEntity
  8
Visible
100
AcDbCircle
 10
-101.555835
 20
38.75
 30
101.15284
 40
12.5
210
0.0
220
1.0
230
0.0
100
AcDbArc
 50
36.869898
 51
143.130102
  0
LINE
  5
5FE
330
70
100
AcDbEntity
  8
Visible
100
AcDbLine
 10
91.555835
 20
99.15284
 30
46.25
 11
91.555835
 21
101.15284
 31
46.25
  0
LINE
  5
5FF
330
70
100
AcDbEntity
  8
Visible
100
AcDbLine
 10
111.555835
 20
99.15284
 30
46.25
 11
111.555835
 21
101.15284
 31
46.25
  0
LINE
  5
600
330
70
100
AcDbEntity
  8
Hidden
100
AcDbLine
 10
109.555835
 20
93.48684
 30
-41.25
 11
104.730835
 21
93.48684
 31
-41.25
  0
LINE
  5
601
330
70
100
AcDbEntity
  8
Hidden
100
AcDbLine
 10
109.555835
 20
96.81884
 30
-41.25
 11
104.730835
 21
96.81884
 31
-41.25
  0
LINE
  5
602
330
70
100
AcDbEntity
  8
Hidden
100
AcDbLine
 10
105.555835
 20
101.15284
 30
38.75
 11
105.555835
 21
99.15284
 31
38.75
  0
LINE
  5
603
330
70
100
AcDbEntity
  8
Hidden
100
AcDbLine
 10
97.555835
 20
101.15284
 30
38.75
 11
97.555835
 21
99.15284
 31
38.75
  0
LINE
  5
604
330
70
100
AcDbEntity
  8
Hidden
100
AcDbLine
 10
104.730835
 20
101.15284
 30
-41.25
 11
104.730835
 21
96.81884
 31
-41.25
  0
LINE
  5
605
330
70
100
AcDbEntity
  8
Hidden
100
AcDbLine
 10
104.730835
 20
93.48684
 30
-41.25
 11
104.730835
 21
89.15284
 31
-41.25
  0
LINE
  5
606
330
70
100
AcDbEntity
  8
Hidden
100
AcDbLine
 10
98.380835
 20
101.15284
 30
-41.25
 11
98.380835
 21
89.15284
 31
-41.25
  0
LINE
  5
607
330
70
100
AcDbEntity
  8
Hidden
100
AcDbLine
 10
105.555835
 20
91.15284
 30
38.75
 11
105.555835
 21
89.15284
 31
38.75
  0
LINE
  5
608
330
70
100
AcDbEntity
  8
Hidden
100
AcDbLine
 10
97.555835
 20
91.15284
 30
38.75
 11
97.555835
 21
89.15284
 31
38.75
  0
LINE
  5
609
330
70
100
AcDbEntity
  8
Visible
100
AcDbLine
 10
91.555835
 20
99.15284
 30
-41.25
 11
91.555835
 21
91.15284
 31
-41.25
  0
LINE
  5
60A
330
70
100
AcDbEntity
  8
Hidden Narrow
100
AcDbLine
 10
104.730835
 20
93.09809
 30
-41.25
 11
109.555835
 21
93.09809
 31
-41.25
  0
LINE
  5
60B
330
70
100
AcDbEntity
  8
Hidden Narrow
100
AcDbLine
 10
109.555835
 20
97.20759
 30
-41.25
 11
104.730835
 21
97.20759
 31
-41.25
  0
LINE
  5
60C
330
70
100
AcDbEntity
  8
Hidden
100
AcDbLine
 10
208.134818
 20
175.239277
 30
0.6
 11
196.134818
 21
175.239277
 31
0.6
210
0.0
220
1.0
230
0.0
  0
LINE
  5
60D
330
70
100
AcDbEntity
  8
Hidden
100
AcDbLine
 10
196.134818
 20
196.489277
 30
0.6
 11
208.134818
 21
196.489277
 31
0.6
210
0.0
220
1.0
230
0.0
  0
LINE
  5
60E
330
70
100
AcDbEntity
  8
Hidden
100
AcDbLine
 10
208.134818
 20
198.989277
 30
0.6
 11
196.134818
 21
198.989277
 31
0.6
210
0.0
220
1.0
230
0.0
  0
LINE
  5
60F
330
70
100
AcDbEntity
  8
Hidden
100
AcDbLine
 10
196.134818
 20
220.239277
 30
0.6
 11
208.134818
 21
220.239277
 31
0.6
210
0.0
220
1.0
230
0.0
  0
LINE
  5
610
330
70
100
AcDbEntity
  8
Hidden
100
AcDbLine
 10
208.134818
 20
163.739277
 30
-8.0
 11
196.134818
 21
163.739277
 31
-8.0
210
0.0
220
1.0
230
0.0
  0
ARC
  5
611
330
70
100
AcDbEntity
  8
Visible
100
AcDbCircle
 10
166.904428
 20
8.5
 30
208.134818
 40
2.499999999999996
210
1.0
220
0.0
230
0.0000000000002969
100
AcDbArc
 50
222.843643
 51
270.0
  0
ARC
  5
612
330
70
100
AcDbEntity
  8
Visible
100
AcDbCircle
 10
-166.904428
 20
8.5
 30
-196.134818
 40
2.499999999999991
210
-1.0
220
0.0
230
-0.0000000000002969
100
AcDbArc
 50
270.0
 51
317.156357
  0
LINE
  5
613
330
70
100
AcDbEntity
  8
Visible
100
AcDbLine
 10
208.134818
 20
225.380069
 30
6.0
 11
208.134818
 21
166.904428
 31
6.0
210
0.0
220
1.0
230
0.0
  0
LINE
  5
614
330
70
100
AcDbEntity
  8
Visible
100
AcDbLine
 10
206.134818
 20
225.380069
 30
6.0
 11
206.134818
 21
222.739277
 31
6.0
210
0.0
220
1.0
230
0.0
  0
LINE
  5
615
330
70
100
AcDbEntity
  8
Visible
100
AcDbLine
 10
206.134818
 20
222.739277
 30
6.0
 11
198.134818
 21
222.739277
 31
6.0
210
0.0
220
1.0
230
0.0
  0
LINE
  5
616
330
70
100
AcDbEntity
  8
Visible
100
AcDbLine
 10
198.134818
 20
222.739277
 30
6.0
 11
198.134818
 21
225.380069
 31
6.0
210
0.0
220
1.0
230
0.0
  0
LINE
  5
617
330
70
100
AcDbEntity
  8
Visible
100
AcDbLine
 10
196.134818
 20
166.904428
 30
6.0
 11
196.134818
 21
225.380069
 31
6.0
210
0.0
220
1.0
230
0.0
  0
ARC
  5
618
330
70
100
AcDbEntity
  8
Visible
100
AcDbCircle
 10
-225.380069
 20
8.5
 30
-206.134818
 40
2.500000000000008
210
-1.0
220
0.0
230
-0.0000000000002969
100
AcDbArc
 50
214.518108
 51
270.0
  0
ARC
  5
619
330
70
100
AcDbEntity
  8
Visible
100
AcDbCircle
 10
225.380069
 20
8.5
 30
208.134818
 40
2.500000000000005
210
1.0
220
0.0
230
0.0000000000002969
100
AcDbArc
 50
270.0
 51
325.481892
  0
ARC
  5
61A
330
70
100
AcDbEntity
  8
Visible
100
AcDbCircle
 10
225.380069
 20
8.5
 30
198.134818
 40
2.500000000000005
210
1.0
220
0.0
230
0.0000000000002969
100
AcDbArc
 50
270.0
 51
325.481892
  0
ARC
  5
61B
330
70
100
AcDbEntity
  8
Visible
100
AcDbCircle
 10
-225.380069
 20
8.5
 30
-196.134818
 40
2.500000000000008
210
-1.0
220
0.0
230
-0.0000000000002969
100
AcDbArc
 50
214.518108
 51
270.0
  0
ARC
  5
61C
330
70
100
AcDbEntity
  8
Visible
100
AcDbCircle
 10
-237.739277
 20
0.0
 30
-198.134818
 40
12.5000000000003
210
-1.0
220
0.0
230
-0.0000000000002969
100
AcDbArc
 50
34.518108
 51
53.130102
  0
LINE
  5
61D
330
70
100
AcDbEntity
  8
Visible
100
AcDbLine
 10
198.134818
 20
230.239277
 30
10.0
 11
196.134818
 21
230.239277
 31
10.0
210
0.0
220
1.0
230
0.0
  0
ARC
  5
61E
330
70
100
AcDbEntity
  8
Visible
100
AcDbCircle
 10
-237.739277
 20
0.0
 30
-196.134818
 40
12.5000000000003
210
-1.0
220
0.0
230
-0.0000000000002969
100
AcDbArc
 50
34.518108
 51
53.130102
  0
SPLINE
  5
61F
330
70
100
AcDbEntity
  8
Hidden
100
AcDbSpline
 70
     3
 71
     3
 72
    38
 73
    34
 74
     0
 42
0.000000001
 43
0.0000000001
 40
0.0
 40
0.0
 40
0.0
 40
0.0
 40
0.0643014514318972
 40
0.0643014514318972
 40
0.1286029028637944
 40
0.1286029028637944
 40
0.1926854272166642
 40
0.1926854272166642
 40
0.256767951569534
 40
0.256767951569534
 40
0.3208504759224037
 40
0.3208504759224037
 40
0.3849330002752735
 40
0.3849330002752735
 40
0.4492344517071708
 40
0.4492344517071708
 40
0.513535903139068
 40
0.513535903139068
 40
0.5778373545709652
 40
0.5778373545709652
 40
0.6421388060028624
 40
0.6421388060028624
 40
0.7062213303557322
 40
0.7062213303557322
 40
0.7703038547086019
 40
0.7703038547086019
 40
0.8343863790614715
 40
0.8343863790614715
 40
0.8984689034143414
 40
0.8984689034143414
 40
0.9627703548462386
 40
0.9627703548462386
 40
1.027071806278135
 40
1.027071806278135
 40
1.027071806278135
 40
1.027071806278135
 10
202.1348181508292
 20
156.0732765697534
 30
-2.702789114966435
 10
201.9204799793897
 20
156.0732765697534
 30
-2.702789114966435
 10
201.6957247766695
 20
156.1169863690087
 30
-2.730999656490894
 10
201.2870517042047
 20
156.2880971022471
 30
-2.825643592657797
 10
201.1026288599405
 20
156.4153860657282
 30
-2.890087781650436
 10
200.8114242241991
 20
156.7065907014697
 30
-3.006440695970013
 10
200.6837748218495
 20
156.8911744626566
 30
-3.066764594823325
 10
200.5123670013145
 20
157.3005781131785
 30
-3.151486309514439
 10
200.46881815083
 20
157.5256681552439
 30
-3.174999999997453
 10
200.46881815083
 20
157.952884984263
 30
-3.174999999997453
 10
200.5123670013145
 20
158.1779750263284
 30
-3.151486309514439
 10
200.6837748218495
 20
158.5873786768503
 30
-3.066764594823325
 10
200.8114242241991
 20
158.7719624380372
 30
-3.006440695970013
 10
201.1026288599405
 20
159.0631670737786
 30
-2.890087781650436
 10
201.2870517042047
 20
159.1904560372598
 30
-2.825643592657797
 10
201.6957247766695
 20
159.3615667704982
 30
-2.730999656490894
 10
201.9204799793897
 20
159.4052765697534
 30
-2.702789114966435
 10
202.3491563222687
 20
159.4052765697534
 30
-2.702789114966435
 10
202.5739115249889
 20
159.3615667704982
 30
-2.730999656490894
 10
202.9825845974538
 20
159.1904560372598
 30
-2.825643592655978
 10
203.167007441718
 20
159.0631670737786
 30
-2.890087781648617
 10
203.4582120774594
 20
158.7719624380372
 30
-3.006440695968194
 10
203.5858614798089
 20
158.5873786768503
 30
-3.066764594821506
 10
203.757269300344
 20
158.1779750263284
 30
-3.15148630951262
 10
203.8008181508285
 20
157.952884984263
 30
-3.174999999995634
 10
203.8008181508285
 20
157.5256681552439
 30
-3.174999999995634
 10
203.757269300344
 20
157.3005781131785
 30
-3.15148630951262
 10
203.5858614798089
 20
156.8911744626566
 30
-3.066764594821506
 10
203.4582120774594
 20
156.7065907014697
 30
-3.006440695968194
 10
203.167007441718
 20
156.4153860657282
 30
-2.890087781648617
 10
202.9825845974538
 20
156.2880971022471
 30
-2.825643592655978
 10
202.5739115249889
 20
156.1169863690087
 30
-2.730999656490894
 10
202.3491563222687
 20
156.0732765697534
 30
-2.702789114966435
 10
202.1348181508292
 20
156.0732765697534
 30
-2.702789114966435
1001
ACAD_VIEW_EDGE_ID
1071
       92
1071
       -1
1071
        2
1071
        0
  0
ARC
  5
620
330
70
100
AcDbEntity
  8
Visible
100
AcDbCircle
 10
237.739277
 20
0.0
 30
206.134818
 40
12.50000000000009
210
1.0
220
0.0
230
0.0000000000002969
100
AcDbArc
 50
126.869898
 51
145.481892
  0
LINE
  5
621
330
70
100
AcDbEntity
  8
Visible
100
AcDbLine
 10
206.134818
 20
245.239277
 30
10.0
 11
206.134818
 21
230.239277
 31
10.0
210
0.0
220
1.0
230
0.0
  0
ARC
  5
622
330
70
100
AcDbEntity
  8
Visible
100
AcDbCircle
 10
237.739277
 20
0.0
 30
206.134818
 40
12.50000000000002
210
1.0
220
0.0
230
0.0000000000002969
100
AcDbArc
 50
0.0
 51
53.130102
  0
ARC
  5
623
330
70
100
AcDbEntity
  8
Visible
100
AcDbCircle
 10
-237.739277
 20
0.0
 30
-198.134818
 40
12.49999999999998
210
-1.0
220
0.0
230
-0.0000000000002969
100
AcDbArc
 50
126.869898
 51
180.0
  0
LINE
  5
624
330
70
100
AcDbEntity
  8
Visible
100
AcDbLine
 10
198.134818
 20
230.239277
 30
10.0
 11
198.134818
 21
245.239277
 31
10.0
210
0.0
220
1.0
230
0.0
  0
LINE
  5
625
330
70
100
AcDbEntity
  8
Visible
100
AcDbLine
 10
208.134818
 20
245.239277
 30
10.0
 11
206.134818
 21
245.239277
 31
10.0
210
0.0
220
1.0
230
0.0
  0
ARC
  5
626
330
70
100
AcDbEntity
  8
Visible
100
AcDbCircle
 10
237.739277
 20
0.0
 30
208.134818
 40
12.50000000000002
210
1.0
220
0.0
230
0.0000000000002969
100
AcDbArc
 50
0.0
 51
53.130102
  0
LINE
  5
627
330
70
100
AcDbEntity
  8
Visible
100
AcDbLine
 10
208.134818
 20
230.239277
 30
10.0
 11
206.134818
 21
230.239277
 31
10.0
210
0.0
220
1.0
230
0.0
  0
LINE
  5
628
330
70
100
AcDbEntity
  8
Visible
100
AcDbLine
 10
208.134818
 20
245.239277
 30
10.0
 11
208.134818
 21
230.239277
 31
10.0
210
0.0
220
1.0
230
0.0
  0
LINE
  5
629
330
70
100
AcDbEntity
  8
Visible
100
AcDbLine
 10
196.134818
 20
230.239277
 30
10.0
 11
196.134818
 21
245.239277
 31
10.0
210
0.0
220
1.0
230
0.0
  0
ARC
  5
62A
330
70
100
AcDbEntity
  8
Visible
100
AcDbCircle
 10
-237.739277
 20
0.0
 30
-196.134818
 40
12.49999999999998
210
-1.0
220
0.0
230
-0.0000000000002969
100
AcDbArc
 50
126.869898
 51
180.0
  0
ARC
  5
62B
330
70
100
AcDbEntity
  8
Visible
100
AcDbCircle
 10
-157.739277
 20
0.0
 30
-196.134818
 40
10.0
210
-1.0
220
0.0
230
-0.0000000000002969
100
AcDbArc
 50
0.0
 51
137.156357
  0
LINE
  5
62C
330
70
100
AcDbEntity
  8
Visible
100
AcDbLine
 10
198.134818
 20
245.239277
 30
10.0
 11
196.134818
 21
245.239277
 31
10.0
210
0.0
220
1.0
230
0.0
  0
LINE
  5
62D
330
70
100
AcDbEntity
  8
Hidden
100
AcDbLine
 10
208.134818
 20
151.739277
 30
-8.0
 11
196.134818
 21
151.739277
 31
-8.0
210
0.0
220
1.0
230
0.0
  0
ARC
  5
62E
330
70
100
AcDbEntity
  8
Visible
100
AcDbCircle
 10
157.739277
 20
0.0
 30
208.134818
 40
10.0
210
1.0
220
0.0
230
0.0000000000002969
100
AcDbArc
 50
42.843643
 51
180.0
  0
ARC
  5
62F
330
70
100
AcDbEntity
  8
Visible
100
AcDbCircle
 10
237.739277
 20
0.0
 30
208.134818
 40
12.50000000000009
210
1.0
220
0.0
230
0.0000000000002969
100
AcDbArc
 50
126.869898
 51
145.481892
  0
LINE
  5
630
330
70
100
AcDbEntity
  8
Visible
100
AcDbLine
 10
206.134818
 20
250.239277
 30
0.0
 11
208.134818
 21
250.239277
 31
0.0
210
0.0
220
1.0
230
0.0
  0
LINE
  5
631
330
70
100
AcDbEntity
  8
Hidden
100
AcDbLine
 10
196.134818
 20
241.739277
 30
0.0
 11
198.134818
 21
241.739277
 31
0.0
210
0.0
220
1.0
230
0.0
  0
LINE
  5
632
330
70
100
AcDbEntity
  8
Hidden
100
AcDbLine
 10
196.134818
 20
233.739277
 30
0.0
 11
198.134818
 21
233.739277
 31
0.0
210
0.0
220
1.0
230
0.0
  0
LINE
  5
633
330
70
100
AcDbEntity
  8
Hidden
100
AcDbLine
 10
196.134818
 20
160.914277
 30
0.0
 11
208.134818
 21
160.914277
 31
0.0
210
0.0
220
1.0
230
0.0
  0
LINE
  5
634
330
70
100
AcDbEntity
  8
Hidden
100
AcDbLine
 10
196.134818
 20
154.564277
 30
0.0
 11
208.134818
 21
154.564277
 31
0.0
210
0.0
220
1.0
230
0.0
  0
LINE
  5
635
330
70
100
AcDbEntity
  8
Hidden
100
AcDbLine
 10
206.134818
 20
241.739277
 30
0.0
 11
208.134818
 21
241.739277
 31
0.0
210
0.0
220
1.0
230
0.0
  0
LINE
  5
636
330
70
100
AcDbEntity
  8
Hidden
100
AcDbLine
 10
206.134818
 20
233.739277
 30
0.0
 11
208.134818
 21
233.739277
 31
0.0
210
0.0
220
1.0
230
0.0
  0
LINE
  5
637
330
70
100
AcDbEntity
  8
Visible
100
AcDbLine
 10
196.134818
 20
250.239277
 30
0.0
 11
198.134818
 21
250.239277
 31
0.0
210
0.0
220
1.0
230
0.0
  0
LINE
  5
638
330
70
100
AcDbEntity
  8
Visible
100
AcDbLine
 10
196.134818
 20
147.739277
 30
0.0
 11
208.134818
 21
147.739277
 31
0.0
210
0.0
220
1.0
230
0.0
  0
SPLINE
  5
639
330
70
100
AcDbEntity
  8
Hidden Narrow
100
AcDbSpline
 70
     0
 71
     3
 72
    32
 73
    28
 74
     0
 42
0.000000001
 43
0.0000000001
 40
0.2862209248566634
 40
0.2862209248566634
 40
0.2862209248566634
 40
0.2862209248566634
 40
0.3214978392890503
 40
0.3214978392890503
 40
0.4014914514110596
 40
0.4014914514110596
 40
0.4814850635330689
 40
0.4814850635330689
 40
0.5622403710555848
 40
0.5622403710555848
 40
0.6429956785781008
 40
0.6429956785781008
 40
0.7237509861006167
 40
0.7237509861006167
 40
0.8045062936231325
 40
0.8045062936231325
 40
0.8844999057451417
 40
0.8844999057451417
 40
0.9644935178671508
 40
0.9644935178671508
 40
1.04448712998916
 40
1.04448712998916
 40
1.124480742111169
 40
1.124480742111169
 40
1.205236049633685
 40
1.205236049633685
 40
1.250524435640107
 40
1.250524435640107
 40
1.250524435640107
 40
1.250524435640107
 10
204.1583518813204
 20
157.3824729766322
 30
-3.154887667717048
 10
204.1793475118575
 20
157.5015451143669
 30
-3.168354190476748
 10
204.1895681508286
 20
157.6216868549788
 30
-3.174999999995634
 10
204.1895681508286
 20
158.0059219434935
 30
-3.174999999995634
 10
204.1345822150924
 20
158.2850036090265
 30
-3.138579222102634
 10
203.9220684130996
 20
158.7893291959226
 30
-3.007638090950422
 10
203.7649244660333
 20
159.0150255718353
 30
-2.914240374893779
 10
203.408880066103
 20
159.3710699717661
 30
-2.730996623540704
 10
203.1835827662217
 20
159.5270796160623
 30
-2.627115151888574
 10
202.6817095215956
 20
159.7385399638252
 30
-2.470004404893188
 10
202.4040025092381
 20
159.7940265697535
 30
-2.420460170604201
 10
201.8656337924203
 20
159.7940265697535
 30
-2.420460170604201
 10
201.5879267800628
 20
159.7385399638252
 30
-2.470004404893188
 10
201.0860535354368
 20
159.5270796160623
 30
-2.627115151890393
 10
200.8607562355555
 20
159.3710699717661
 30
-2.730996623542523
 10
200.5047118356251
 20
159.0150255718353
 30
-2.914240374895598
 10
200.3475678885588
 20
158.7893291959226
 30
-3.007638090952241
 10
200.135054086566
 20
158.2850036090265
 30
-3.138579222104453
 10
200.0800681508299
 20
158.0059219434935
 30
-3.174999999997453
 10
200.0800681508299
 20
157.4726311960134
 30
-3.174999999997453
 10
200.135054086566
 20
157.1935495304803
 30
-3.138579222104453
 10
200.3475678885588
 20
156.6892239435842
 30
-3.007638090952241
 10
200.5047118356251
 20
156.4635275676715
 30
-2.914240374895598
 10
200.8607562355555
 20
156.1074831677408
 30
-2.730996623542523
 10
201.0860535354368
 20
155.9514735234445
 30
-2.627115151890393
 10
201.4777179311077
 20
155.786448808137
 30
-2.50450513744181
 10
201.6266435223188
 20
155.7424336369082
 30
-2.468692572518193
 10
201.7780145576507
 20
155.7157428392722
 30
-2.446617305911786
1001
ACAD_VIEW_EDGE_ID
1071
-1073741825
1071
      313
1071
        2
1071
        0
  0
ARC
  5
63A
330
70
100
AcDbEntity
  8
Hidden
100
AcDbCircle
 10
-148.556276
 20
-90.533727
 30
-100.019185
 40
2.499999999999999
210
-0.7071067811864423
220
0.4071957137923946
230
-0.5780931159158112
100
AcDbArc
 50
225.110793
 51
315.110793
  0
LINE
  5
63B
330
70
100
AcDbEntity
  8
Hidden Narrow
100
AcDbLine
 10
190.212922
 20
59.847346
 30
-17.49213
 11
196.081909
 21
56.467621
 31
-12.693957
210
-0.0000000000000001
220
0.8175471248425399
230
0.5758617009853117
  0
LINE
  5
63C
330
70
100
AcDbEntity
  8
Visible Narrow
100
AcDbLine
 10
196.081909
 20
56.467621
 30
-12.693957
 11
198.698204
 21
54.960997
 31
-10.555013
210
-0.0000000000000001
220
0.8175471248425399
230
0.5758617009853117
  0
ARC
  5
63D
330
70
100
AcDbEntity
  8
Visible
100
AcDbCircle
 10
148.556276
 20
-90.533727
 30
112.019185
 40
2.5
210
0.7071067811864423
220
-0.4071957137923946
230
0.5780931159158112
100
AcDbArc
 50
224.889207
 51
314.889207
  0
LINE
  5
63E
330
70
100
AcDbEntity
  8
Visible Narrow
100
AcDbLine
 10
200.465971
 20
58.022854
 30
-10.560591
 11
196.081909
 21
60.547468
 31
-14.144768
210
-0.0000000000000001
220
0.8175471248425399
230
0.5758617009853117
  0
LINE
  5
63F
330
70
100
AcDbEntity
  8
Hidden Narrow
100
AcDbLine
 10
196.081909
 20
60.547468
 30
-14.144768
 11
191.980689
 21
62.909203
 31
-17.497709
210
-0.0000000000000001
220
0.8175471248425399
230
0.5758617009853117
  0
LINE
  5
640
330
70
100
AcDbEntity
  8
Hidden
100
AcDbLine
 10
189.364394
 20
59.358711
 30
-16.798418
 11
190.212922
 21
59.847346
 31
-17.49213
210
-0.0000000000000001
220
0.8175471248425399
230
0.5758617009853117
  0
LINE
  5
641
330
70
100
AcDbEntity
  8
Visible Narrow
100
AcDbLine
 10
197.849676
 20
54.472362
 30
-9.861301
 11
196.081922
 21
55.490344
 31
-11.306523
210
-0.0000000000000001
220
0.8175471248425399
230
0.5758617009853117
  0
LINE
  5
642
330
70
100
AcDbEntity
  8
Hidden Narrow
100
AcDbLine
 10
196.081922
 20
55.490344
 30
-11.306523
 11
189.364394
 21
59.358711
 31
-16.798418
210
-0.0000000000000001
220
0.8175471248425399
230
0.5758617009853117
  0
LINE
  5
643
330
70
100
AcDbEntity
  8
Visible
100
AcDbLine
 10
198.698204
 20
54.960997
 30
-10.555013
 11
197.849676
 21
54.472362
 31
-9.861301
210
-0.0000000000000001
220
0.8175471248425399
230
0.5758617009853117
  0
ARC
  5
644
330
70
100
AcDbEntity
  8
Hidden
100
AcDbCircle
 10
-147.70939
 20
-89.68356
 30
-100.019185
 40
2.5
210
-0.7071067811864423
220
0.4071957137923946
230
-0.5780931159158112
100
AcDbArc
 50
315.110793
 51
45.110793
  0
LINE
  5
645
330
70
100
AcDbEntity
  8
Hidden Narrow
100
AcDbLine
 10
187.596627
 20
60.384589
 30
-13.913531
 11
196.081909
 21
55.498241
 31
-6.976414
210
-0.0000000000000001
220
0.8175471248425399
230
0.5758617009853117
  0
ARC
  5
646
330
70
100
AcDbEntity
  8
Visible
100
AcDbCircle
 10
147.70939
 20
-89.68356
 30
112.019185
 40
2.499999999999999
210
0.7071067811864423
220
-0.4071957137923946
230
0.5780931159158112
100
AcDbArc
 50
134.889207
 51
224.889207
  0
LINE
  5
647
330
70
100
AcDbEntity
  8
Hidden
100
AcDbLine
 10
187.596627
 20
73.66973
 30
-4.555779
 11
187.596627
 21
60.384589
 31
-13.913531
210
-0.0000000000000001
220
0.8175471248425399
230
0.5758617009853117
  0
LINE
  5
648
330
70
100
AcDbEntity
  8
Hidden Narrow
100
AcDbLine
 10
196.081909
 20
68.783382
 30
2.381339
 11
187.596627
 21
73.66973
 31
-4.555779
210
-0.0000000000000001
220
0.8175471248425399
230
0.5758617009853117
  0
LINE
  5
649
330
70
100
AcDbEntity
  8
Visible
100
AcDbLine
 10
196.081909
 20
55.498241
 30
-6.976414
 11
196.081909
 21
68.783382
 31
2.381339
210
-0.0000000000000001
220
0.8175471248425399
230
0.5758617009853117
  0
ARC
  5
64A
330
70
100
AcDbEntity
  8
Hidden
100
AcDbCircle
 10
-160.068959
 20
-79.065483
 30
-100.019185
 40
2.5
210
-0.7071067811864423
220
0.4071957137923946
230
-0.5780931159158112
100
AcDbArc
 50
135.110793
 51
225.110793
  0
LINE
  5
64B
330
70
100
AcDbEntity
  8
Hidden Narrow
100
AcDbLine
 10
191.980689
 20
76.194344
 30
-8.139956
 11
198.691354
 21
72.329929
 31
-2.653671
210
-0.0000000000000001
220
0.8175471248425399
230
0.5758617009853117
  0
LINE
  5
64C
330
70
100
AcDbEntity
  8
Visible Narrow
100
AcDbLine
 10
198.691354
 20
72.329929
 30
-2.653671
 11
200.465971
 21
71.307995
 31
-1.202838
210
-0.0000000000000001
220
0.8175471248425399
230
0.5758617009853117
  0
ARC
  5
64D
330
70
100
AcDbEntity
  8
Visible
100
AcDbCircle
 10
160.068959
 20
-79.065483
 30
112.019185
 40
2.499999999999999
210
0.7071067811864423
220
-0.4071957137923946
230
0.5780931159158112
100
AcDbArc
 50
314.889207
 51
44.889207
  0
LINE
  5
64E
330
70
100
AcDbEntity
  8
Hidden Narrow
100
AcDbLine
 10
198.698204
 20
72.333874
 30
1.682049
 11
190.212922
 21
77.220222
 31
-5.255069
210
-0.0000000000000001
220
0.8175471248425399
230
0.5758617009853117
  0
LINE
  5
64F
330
70
100
AcDbEntity
  8
Visible
100
AcDbLine
 10
200.465971
 20
71.307995
 30
-1.202838
 11
200.465971
 21
58.022854
 31
-10.560591
210
-0.0000000000000001
220
0.8175471248425399
230
0.5758617009853117
  0
LINE
  5
650
330
70
100
AcDbEntity
  8
Hidden
100
AcDbLine
 10
191.980689
 20
62.909203
 30
-17.497709
 11
191.980689
 21
76.194344
 31
-8.139956
210
-0.0000000000000001
220
0.8175471248425399
230
0.5758617009853117
  0
ARC
  5
651
330
70
100
AcDbEntity
  8
Hidden
100
AcDbCircle
 10
-159.222073
 20
-78.215315
 30
-100.019185
 40
2.499999999999999
210
-0.7071067811864423
220
0.4071957137923946
230
-0.5780931159158112
100
AcDbArc
 50
45.110793
 51
135.110793
  0
LINE
  5
652
330
70
100
AcDbEntity
  8
Hidden Narrow
100
AcDbLine
 10
189.364394
 20
76.731587
 30
-4.561357
 11
197.849676
 21
71.845239
 31
2.37576
210
-0.0000000000000001
220
0.8175471248425399
230
0.5758617009853117
  0
ARC
  5
653
330
70
100
AcDbEntity
  8
Visible
100
AcDbCircle
 10
159.222073
 20
-78.215315
 30
112.019185
 40
2.5
210
0.7071067811864423
220
-0.4071957137923946
230
0.5780931159158112
100
AcDbArc
 50
44.889207
 51
134.889207
  0
LINE
  5
654
330
70
100
AcDbEntity
  8
Visible
100
AcDbLine
 10
197.849676
 20
71.845239
 30
2.37576
 11
198.698204
 21
72.333874
 31
1.682049
210
-0.0000000000000001
220
0.8175471248425399
230
0.5758617009853117
  0
LINE
  5
655
330
70
100
AcDbEntity
  8
Hidden
100
AcDbLine
 10
190.212922
 20
77.220222
 30
-5.255069
 11
189.364394
 21
76.731587
 31
-4.561357
210
-0.0000000000000001
220
0.8175471248425399
230
0.5758617009853117
  0
ARC
  5
656
330
70
100
AcDbEntity
  8
Hidden
100
AcDbCircle
 10
-165.382505
 20
-73.772447
 30
-100.019185
 40
2.500000000000007
210
-0.7071067811864423
220
0.4071957137923946
230
-0.5780931159158112
100
AcDbArc
 50
225.110793
 51
315.110793
  0
LINE
  5
657
330
70
100
AcDbEntity
  8
Hidden Narrow
100
AcDbLine
 10
190.212922
 20
79.26409
 30
-3.815415
 11
196.081909
 21
75.884365
 31
0.982758
210
-0.0000000000000001
220
0.8175471248425399
230
0.5758617009853117
  0
LINE
  5
658
330
70
100
AcDbEntity
  8
Visible Narrow
100
AcDbLine
 10
196.081909
 20
75.884365
 30
0.982758
 11
198.698204
 21
74.377741
 31
3.121703
210
-0.0000000000000001
220
0.8175471248425399
230
0.5758617009853117
  0
ARC
  5
659
330
70
100
AcDbEntity
  8
Visible
100
AcDbCircle
 10
165.382505
 20
-73.772447
 30
112.019185
 40
2.500000000000009
210
0.7071067811864423
220
-0.4071957137923946
230
0.5780931159158112
100
AcDbArc
 50
224.889207
 51
314.889207
  0
LINE
  5
65A
330
70
100
AcDbEntity
  8
Visible Narrow
100
AcDbLine
 10
200.465971
 20
77.439598
 30
3.116124
 11
196.081909
 21
79.964212
 31
-0.468053
210
-0.0000000000000001
220
0.8175471248425399
230
0.5758617009853117
  0
LINE
  5
65B
330
70
100
AcDbEntity
  8
Hidden Narrow
100
AcDbLine
 10
196.081909
 20
79.964212
 30
-0.468053
 11
191.980689
 21
82.325947
 31
-3.820993
210
-0.0000000000000001
220
0.8175471248425399
230
0.5758617009853117
  0
LINE
  5
65C
330
70
100
AcDbEntity
  8
Hidden
100
AcDbLine
 10
189.364394
 20
78.775455
 30
-3.121703
 11
190.212922
 21
79.26409
 31
-3.815415
210
-0.0000000000000001
220
0.8175471248425399
230
0.5758617009853117
  0
LINE
  5
65D
330
70
100
AcDbEntity
  8
Visible Narrow
100
AcDbLine
 10
197.849676
 20
73.889106
 30
3.815415
 11
196.081922
 21
74.907088
 31
2.370193
210
-0.0000000000000001
220
0.8175471248425399
230
0.5758617009853117
  0
LINE
  5
65E
330
70
100
AcDbEntity
  8
Hidden Narrow
100
AcDbLine
 10
196.081922
 20
74.907088
 30
2.370193
 11
189.364394
 21
78.775455
 31
-3.121703
210
-0.0000000000000001
220
0.8175471248425399
230
0.5758617009853117
  0
LINE
  5
65F
330
70
100
AcDbEntity
  8
Visible
100
AcDbLine
 10
198.698204
 20
74.377741
 30
3.121703
 11
197.849676
 21
73.889106
 31
3.815415
210
-0.0000000000000001
220
0.8175471248425399
230
0.5758617009853117
  0
ARC
  5
660
330
70
100
AcDbEntity
  8
Hidden
100
AcDbCircle
 10
-164.535619
 20
-72.922279
 30
-100.019185
 40
2.500000000000009
210
-0.7071067811864423
220
0.4071957137923946
230
-0.5780931159158112
100
AcDbArc
 50
315.110793
 51
45.110793
  0
LINE
  5
661
330
70
100
AcDbEntity
  8
Hidden Narrow
100
AcDbLine
 10
187.596627
 20
79.801334
 30
-0.236816
 11
196.081909
 21
74.914985
 31
6.700302
210
-0.0000000000000001
220
0.8175471248425399
230
0.5758617009853117
  0
ARC
  5
662
330
70
100
AcDbEntity
  8
Visible
100
AcDbCircle
 10
164.535619
 20
-72.922279
 30
112.019185
 40
2.500000000000007
210
0.7071067811864423
220
-0.4071957137923946
230
0.5780931159158112
100
AcDbArc
 50
134.889207
 51
224.889207
  0
LINE
  5
663
330
70
100
AcDbEntity
  8
Hidden
100
AcDbLine
 10
187.596627
 20
93.086474
 30
9.120937
 11
187.596627
 21
79.801334
 31
-0.236816
210
-0.0000000000000001
220
0.8175471248425399
230
0.5758617009853117
  0
LINE
  5
664
330
70
100
AcDbEntity
  8
Hidden Narrow
100
AcDbLine
 10
196.081909
 20
88.200126
 30
16.058054
 11
187.596627
 21
93.086474
 31
9.120937
210
-0.0000000000000001
220
0.8175471248425399
230
0.5758617009853117
  0
LINE
  5
665
330
70
100
AcDbEntity
  8
Visible
100
AcDbLine
 10
196.081909
 20
74.914985
 30
6.700302
 11
196.081909
 21
88.200126
 31
16.058054
210
-0.0000000000000001
220
0.8175471248425399
230
0.5758617009853117
  0
ARC
  5
666
330
70
100
AcDbEntity
  8
Hidden
100
AcDbCircle
 10
-176.895188
 20
-62.304202
 30
-100.019185
 40
2.500000000000009
210
-0.7071067811864423
220
0.4071957137923946
230
-0.5780931159158112
100
AcDbArc
 50
135.110793
 51
225.110793
  0
LINE
  5
667
330
70
100
AcDbEntity
  8
Hidden Narrow
100
AcDbLine
 10
191.980689
 20
95.611088
 30
5.53676
 11
198.691354
 21
91.746673
 31
11.023044
210
-0.0000000000000001
220
0.8175471248425399
230
0.5758617009853117
  0
LINE
  5
668
330
70
100
AcDbEntity
  8
Visible Narrow
100
AcDbLine
 10
198.691354
 20
91.746673
 30
11.023044
 11
200.465971
 21
90.724739
 31
12.473877
210
-0.0000000000000001
220
0.8175471248425399
230
0.5758617009853117
  0
ARC
  5
669
330
70
100
AcDbEntity
  8
Visible
100
AcDbCircle
 10
176.895188
 20
-62.304202
 30
112.019185
 40
2.500000000000007
210
0.7071067811864423
220
-0.4071957137923946
230
0.5780931159158112
100
AcDbArc
 50
314.889207
 51
44.889207
  0
LINE
  5
66A
330
70
100
AcDbEntity
  8
Hidden Narrow
100
AcDbLine
 10
198.698204
 20
91.750618
 30
15.358764
 11
190.212922
 21
96.636966
 31
8.421647
210
-0.0000000000000001
220
0.8175471248425399
230
0.5758617009853117
  0
LINE
  5
66B
330
70
100
AcDbEntity
  8
Visible
100
AcDbLine
 10
200.465971
 20
90.724739
 30
12.473877
 11
200.465971
 21
77.439598
 31
3.116124
210
-0.0000000000000001
220
0.8175471248425399
230
0.5758617009853117
  0
LINE
  5
66C
330
70
100
AcDbEntity
  8
Hidden
100
AcDbLine
 10
191.980689
 20
82.325947
 30
-3.820993
 11
191.980689
 21
95.611088
 31
5.53676
210
-0.0000000000000001
220
0.8175471248425399
230
0.5758617009853117
  0
ARC
  5
66D
330
70
100
AcDbEntity
  8
Hidden
100
AcDbCircle
 10
-176.048302
 20
-61.454035
 30
-100.019185
 40
2.500000000000007
210
-0.7071067811864423
220
0.4071957137923946
230
-0.5780931159158112
100
AcDbArc
 50
45.110793
 51
135.110793
  0
LINE
  5
66E
330
70
100
AcDbEntity
  8
Hidden Narrow
100
AcDbLine
 10
189.364394
 20
96.148331
 30
9.115358
 11
197.849676
 21
91.261983
 31
16.052476
210
-0.0000000000000001
220
0.8175471248425399
230
0.5758617009853117
  0
ARC
  5
66F
330
70
100
AcDbEntity
  8
Visible
100
AcDbCircle
 10
176.048302
 20
-61.454035
 30
112.019185
 40
2.500000000000009
210
0.7071067811864423
220
-0.4071957137923946
230
0.5780931159158112
100
AcDbArc
 50
44.889207
 51
134.889207
  0
LINE
  5
670
330
70
100
AcDbEntity
  8
Visible
100
AcDbLine
 10
197.849676
 20
91.261983
 30
16.052476
 11
198.698204
 21
91.750618
 31
15.358764
210
-0.0000000000000001
220
0.8175471248425399
230
0.5758617009853117
  0
LINE
  5
671
330
70
100
AcDbEntity
  8
Hidden
100
AcDbLine
 10
190.212922
 20
96.636966
 30
8.421647
 11
189.364394
 21
96.148331
 31
9.115358
210
-0.0000000000000001
220
0.8175471248425399
230
0.5758617009853117
  0
ARC
  5
672
330
70
100
AcDbEntity
  8
Visible
100
AcDbCircle
 10
146.455411
 20
-103.777228
 30
112.019185
 40
2.500000000000002
210
0.7071067811864423
220
-0.4071957137923946
230
0.5780931159158112
100
AcDbArc
 50
134.889207
 51
182.045564
  0
LINE
  5
673
330
70
100
AcDbEntity
  8
Visible Narrow
100
AcDbLine
 10
203.082266
 20
49.17289
 30
-19.994482
 11
202.992858
 21
49.224377
 31
-20.067577
210
-0.0000000000000001
220
0.8175471248425399
230
0.5758617009853117
  0
LINE
  5
674
330
70
100
AcDbEntity
  8
Hidden Narrow
100
AcDbLine
 10
202.992858
 20
49.224377
 30
-20.067577
 11
194.596984
 21
54.059239
 31
-26.931599
210
-0.0000000000000001
220
0.8175471248425399
230
0.5758617009853117
  0
ARC
  5
675
330
70
100
AcDbEntity
  8
Hidden
100
AcDbCircle
 10
-146.455411
 20
-103.777228
 30
-100.019185
 40
2.500000000000003
210
-0.7071067811864423
220
0.4071957137923946
230
-0.5780931159158112
100
AcDbArc
 50
357.954436
 51
45.110793
  0
LINE
  5
676
330
70
100
AcDbEntity
  8
Hidden Narrow
100
AcDbLine
 10
194.031299
 20
55.232071
 30
-25.413553
 11
202.51658
 21
50.345722
 31
-18.476435
210
-0.0000000000000001
220
0.8175471248425399
230
0.5758617009853117
  0
ARC
  5
677
330
70
100
AcDbEntity
  8
Visible
100
AcDbCircle
 10
133.963377
 20
-104.223406
 30
112.019185
 40
9.99999999999982
210
0.7071067811864423
220
-0.4071957137923946
230
0.5780931159158112
100
AcDbArc
 50
351.759104
 51
2.045564
  0
LINE
  5
678
330
70
100
AcDbEntity
  8
Hidden
100
AcDbLine
 10
203.930794
 20
48.572453
 30
-21.455311
 11
195.445512
 21
53.458802
 31
-28.392429
210
-0.0000000000000001
220
0.8175471248425399
230
0.5758617009853117
  0
ARC
  5
679
330
70
100
AcDbEntity
  8
Hidden
100
AcDbCircle
 10
-133.963377
 20
-104.223406
 30
-100.019185
 40
10.00000000000006
210
-0.7071067811864423
220
0.4071957137923946
230
-0.5780931159158112
100
AcDbArc
 50
177.954436
 51
188.240896
  0
ARC
  5
67A
330
70
100
AcDbEntity
  8
Visible
100
AcDbCircle
 10
134.457863
 20
-91.73319
 30
112.019185
 40
2.499999999999997
210
0.7071067811864423
220
-0.4071957137923946
230
0.5780931159158112
100
AcDbArc
 50
267.73285
 51
314.889207
  0
LINE
  5
67B
330
70
100
AcDbEntity
  8
Visible Narrow
100
AcDbLine
 10
194.031299
 20
45.459374
 30
-11.539318
 11
185.546018
 21
50.345722
 31
-18.476435
210
-0.0000000000000001
220
0.8175471248425399
230
0.5758617009853117
  0
ARC
  5
67C
330
70
100
AcDbEntity
  8
Visible
100
AcDbCircle
 10
-134.457863
 20
-91.73319
 30
-100.019185
 40
2.499999999999991
210
-0.7071067811864423
220
0.4071957137923946
230
-0.5780931159158112
100
AcDbArc
 50
225.110793
 51
272.26715
  0
LINE
  5
67D
330
70
100
AcDbEntity
  8
Visible Narrow
100
AcDbLine
 10
184.980332
 20
48.521377
 30
-19.069533
 11
193.465613
 21
43.635029
 31
-12.132416
210
-0.0000000000000001
220
0.8175471248425399
230
0.5758617009853117
  0
LINE
  5
67E
330
70
100
AcDbEntity
  8
Visible
100
AcDbLine
 10
194.031299
 20
93.265966
 30
22.134564
 11
194.031299
 21
45.459374
 31
-11.539318
210
-0.0000000000000001
220
0.8175471248425399
230
0.5758617009853117
  0
LINE
  5
67F
330
70
100
AcDbEntity
  8
Visible Narrow
100
AcDbLine
 10
192.617085
 20
94.080358
 30
20.978378
 11
194.031299
 21
93.265966
 31
22.134564
210
-0.0000000000000001
220
0.8175471248425399
230
0.5758617009853117
  0
LINE
  5
680
330
70
100
AcDbEntity
  8
Visible
100
AcDbLine
 10
192.617085
 20
94.080358
 30
20.978378
 11
192.617085
 21
91.921385
 31
19.457647
210
-0.0000000000000001
220
0.8175471248425399
230
0.5758617009853117
  0
LINE
  5
681
330
70
100
AcDbEntity
  8
Visible
100
AcDbLine
 10
192.617085
 20
91.921385
 30
19.457647
 11
186.960231
 21
95.178951
 31
14.832902
210
-0.0000000000000001
220
0.8175471248425399
230
0.5758617009853117
  0
LINE
  5
682
330
70
100
AcDbEntity
  8
Visible
100
AcDbLine
 10
186.960231
 20
95.178951
 30
14.832902
 11
186.960231
 21
97.337924
 31
16.353633
210
-0.0000000000000001
220
0.8175471248425399
230
0.5758617009853117
  0
LINE
  5
683
330
70
100
AcDbEntity
  8
Visible Narrow
100
AcDbLine
 10
185.546018
 20
98.152315
 30
15.197447
 11
186.960231
 21
97.337924
 31
16.353633
210
-0.0000000000000001
220
0.8175471248425399
230
0.5758617009853117
  0
LINE
  5
684
330
70
100
AcDbEntity
  8
Visible
100
AcDbLine
 10
185.546018
 20
50.345722
 30
-18.476435
 11
185.546018
 21
98.152315
 31
15.197447
210
-0.0000000000000001
220
0.8175471248425399
230
0.5758617009853117
  0
ARC
  5
685
330
70
100
AcDbEntity
  8
Hidden
100
AcDbCircle
 10
-175.886265
 20
-50.464701
 30
-110.019185
 40
2.499999999999996
210
-0.7071067811864423
220
0.4071957137923946
230
-0.5780931159158112
100
AcDbArc
 50
169.628901
 51
203.849209
  0
ARC
  5
686
330
70
100
AcDbEntity
  8
Visible
100
AcDbCircle
 10
-175.886265
 20
-50.464701
 30
-110.019185
 40
2.499999999999992
210
-0.7071067811864423
220
0.4071957137923946
230
-0.5780931159158112
100
AcDbArc
 50
203.849209
 51
225.110793
  0
ARC
  5
687
330
70
100
AcDbEntity
  8
Visible
100
AcDbCircle
 10
175.886265
 20
-50.464701
 30
112.019185
 40
2.500000000000005
210
0.7071067811864423
220
-0.4071957137923946
230
0.5780931159158112
100
AcDbArc
 50
314.889207
 51
10.371099
  0
LINE
  5
688
330
70
100
AcDbEntity
  8
Hidden Narrow
100
AcDbLine
 10
193.265267
 20
94.508877
 30
23.947031
 11
191.851053
 21
95.323268
 31
22.790845
210
-0.0000000000000001
220
0.8175471248425399
230
0.5758617009853117
  0
ARC
  5
689
330
70
100
AcDbEntity
  8
Visible
100
AcDbCircle
 10
175.886265
 20
-50.464701
 30
102.019185
 40
2.500000000000005
210
0.7071067811864423
220
-0.4071957137923946
230
0.5780931159158112
100
AcDbArc
 50
314.889207
 51
10.371099
  0
LINE
  5
68A
330
70
100
AcDbEntity
  8
Hidden Narrow
100
AcDbLine
 10
186.194199
 20
98.580834
 30
18.1661
 11
184.779985
 21
99.395225
 31
17.009913
210
-0.0000000000000001
220
0.8175471248425399
230
0.5758617009853117
  0
ARC
  5
68B
330
70
100
AcDbEntity
  8
Hidden
100
AcDbCircle
 10
-175.886265
 20
-50.464701
 30
-100.019185
 40
2.499999999999996
210
-0.7071067811864423
220
0.4071957137923946
230
-0.5780931159158112
100
AcDbArc
 50
169.628901
 51
203.849209
  0
ARC
  5
68C
330
70
100
AcDbEntity
  8
Visible
100
AcDbCircle
 10
-175.886265
 20
-50.464701
 30
-100.019185
 40
2.499999999999992
210
-0.7071067811864423
220
0.4071957137923946
230
-0.5780931159158112
100
AcDbArc
 50
203.849209
 51
225.110793
  0
ARC
  5
68D
330
70
100
AcDbEntity
  8
Visible
100
AcDbCircle
 10
-190.641201
 20
-47.764356
 30
-102.019185
 40
12.5000000000003
210
-0.7071067811864423
220
0.4071957137923946
230
-0.5780931159158112
100
AcDbArc
 50
349.628901
 51
8.240896
  0
LINE
  5
68E
330
70
100
AcDbEntity
  8
Visible
100
AcDbLine
 10
184.131804
 20
99.681772
 30
21.464237
 11
182.71759
 21
100.496163
 31
20.308051
210
-0.0000000000000001
220
0.8175471248425399
230
0.5758617009853117
  0
ARC
  5
68F
330
70
100
AcDbEntity
  8
Hidden
100
AcDbCircle
 10
-190.641201
 20
-47.764356
 30
-100.019185
 40
12.50000000000005
210
-0.7071067811864423
220
0.4071957137923946
230
-0.5780931159158112
100
AcDbArc
 50
349.628901
 51
360.0
  0
ARC
  5
690
330
70
100
AcDbEntity
  8
Visible
100
AcDbCircle
 10
-190.641201
 20
-47.764356
 30
-100.019185
 40
12.50000000000045
210
-0.7071067811864423
220
0.4071957137923946
230
-0.5780931159158112
100
AcDbArc
 50
360.0
 51
8.240896
  0
ARC
  5
691
330
70
100
AcDbEntity
  8
Visible
100
AcDbCircle
 10
187.883813
 20
-62.508738
 30
102.019185
 40
2.499999999999958
210
0.7071067811864423
220
-0.4071957137923946
230
0.5780931159158112
100
AcDbArc
 50
79.407315
 51
109.970855
  0
ARC
  5
692
330
70
100
AcDbEntity
  8
Hidden
100
AcDbCircle
 10
187.883813
 20
-62.508738
 30
102.019185
 40
2.500000000000011
210
0.7071067811864423
220
-0.4071957137923946
230
0.5780931159158112
100
AcDbArc
 50
109.970855
 51
134.889207
  0
LINE
  5
693
330
70
100
AcDbEntity
  8
Hidden Narrow
100
AcDbLine
 10
195.445512
 20
102.224272
 30
9.416516
 11
194.031299
 21
103.038664
 31
8.26033
210
-0.0000000000000001
220
0.8175471248425399
230
0.5758617009853117
  0
ARC
  5
694
330
70
100
AcDbEntity
  8
Hidden
100
AcDbCircle
 10
-187.883813
 20
-62.508738
 30
-100.019185
 40
2.500000000000002
210
-0.7071067811864423
220
0.4071957137923946
230
-0.5780931159158112
100
AcDbArc
 50
45.110793
 51
100.592685
  0
LINE
  5
695
330
70
100
AcDbEntity
  8
Hidden Narrow
100
AcDbLine
 10
194.797331
 20
105.163831
 30
8.820261
 11
196.211545
 21
104.34944
 31
9.976447
210
-0.0000000000000001
220
0.8175471248425399
230
0.5758617009853117
  0
LINE
  5
696
330
70
100
AcDbEntity
  8
Hidden
100
AcDbLine
 10
194.031299
 20
103.038664
 30
8.26033
 11
194.031299
 21
93.265966
 31
1.376663
210
-0.0000000000000001
220
0.8175471248425399
230
0.5758617009853117
  0
LINE
  5
697
330
70
100
AcDbEntity
  8
Hidden
100
AcDbLine
 10
195.445512
 20
102.224272
 30
9.416516
 11
195.445512
 21
100.0653
 31
7.895784
210
-0.0000000000000001
220
0.8175471248425399
230
0.5758617009853117
  0
LINE
  5
698
330
70
100
AcDbEntity
  8
Hidden
100
AcDbLine
 10
195.445512
 20
100.0653
 30
7.895784
 11
201.102367
 21
96.807734
 31
12.520529
210
-0.0000000000000001
220
0.8175471248425399
230
0.5758617009853117
  0
LINE
  5
699
330
70
100
AcDbEntity
  8
Hidden
100
AcDbLine
 10
201.102367
 20
96.807734
 30
12.520529
 11
201.102367
 21
98.966706
 31
14.041261
210
-0.0000000000000001
220
0.8175471248425399
230
0.5758617009853117
  0
LINE
  5
69A
330
70
100
AcDbEntity
  8
Hidden Narrow
100
AcDbLine
 10
202.51658
 20
98.152315
 30
15.197447
 11
201.102367
 21
98.966706
 31
14.041261
210
-0.0000000000000001
220
0.8175471248425399
230
0.5758617009853117
  0
LINE
  5
69B
330
70
100
AcDbEntity
  8
Visible
100
AcDbLine
 10
202.51658
 20
50.345722
 30
-18.476435
 11
202.51658
 21
98.152315
 31
15.197447
210
-0.0000000000000001
220
0.8175471248425399
230
0.5758617009853117
  0
ARC
  5
69C
330
70
100
AcDbEntity
  8
Hidden
100
AcDbCircle
 10
-187.883813
 20
-62.508738
 30
-110.019185
 40
2.500000000000002
210
-0.7071067811864423
220
0.4071957137923946
230
-0.5780931159158112
100
AcDbArc
 50
45.110793
 51
100.592685
  0
LINE
  5
69D
330
70
100
AcDbEntity
  8
Hidden Narrow
100
AcDbLine
 10
201.868399
 20
101.091874
 30
14.601192
 11
203.282613
 21
100.277483
 31
15.757378
210
-0.0000000000000001
220
0.8175471248425399
230
0.5758617009853117
  0
ARC
  5
69E
330
70
100
AcDbEntity
  8
Visible
100
AcDbCircle
 10
187.883813
 20
-62.508738
 30
112.019185
 40
2.5
210
0.7071067811864423
220
-0.4071957137923946
230
0.5780931159158112
100
AcDbArc
 50
79.407315
 51
134.889207
  0
ARC
  5
69F
330
70
100
AcDbEntity
  8
Hidden
100
AcDbCircle
 10
190.641201
 20
-47.764356
 30
110.019185
 40
12.50000000000015
210
0.7071067811864423
220
-0.4071957137923946
230
0.5780931159158112
100
AcDbArc
 50
259.407315
 51
278.019309
  0
LINE
  5
6A0
330
70
100
AcDbEntity
  8
Hidden
100
AcDbLine
 10
205.345007
 20
103.753729
 30
15.683306
 11
203.930794
 21
104.56812
 31
14.527119
210
-0.0000000000000001
220
0.8175471248425399
230
0.5758617009853117
  0
ARC
  5
6A1
330
70
100
AcDbEntity
  8
Visible
100
AcDbCircle
 10
190.641201
 20
-47.764356
 30
112.019185
 40
12.50000000000012
210
0.7071067811864423
220
-0.4071957137923946
230
0.5780931159158112
100
AcDbArc
 50
259.407315
 51
278.019309
  0
CIRCLE
  5
6A2
330
70
100
AcDbEntity
  8
Hidden
100
AcDbCircle
 10
59.692359
 20
90.18273
 30
-176.38251
 40
1.666
210
-0.7071067811866531
220
-0.4071957137922733
230
0.5780931159156388
  0
SPLINE
  5
6A3
330
70
100
AcDbEntity
  8
Hidden
100
AcDbSpline
 70
     1
 71
     3
 72
    38
 73
    34
 74
     0
 42
0.000000001
 43
0.0000000001
 40
0.0
 40
0.0
 40
0.0
 40
0.0
 40
0.0643014514318972
 40
0.0643014514318972
 40
0.1286029028637944
 40
0.1286029028637944
 40
0.1926854272166642
 40
0.1926854272166642
 40
0.256767951569534
 40
0.256767951569534
 40
0.3208504759224037
 40
0.3208504759224037
 40
0.3849330002752735
 40
0.3849330002752735
 40
0.4492344517071708
 40
0.4492344517071708
 40
0.513535903139068
 40
0.513535903139068
 40
0.5778373545709652
 40
0.5778373545709652
 40
0.6421388060028624
 40
0.6421388060028624
 40
0.7062213303557322
 40
0.7062213303557322
 40
0.7703038547086019
 40
0.7703038547086019
 40
0.8343863790614715
 40
0.8343863790614715
 40
0.8984689034143414
 40
0.8984689034143414
 40
0.9627703548462386
 40
0.9627703548462386
 40
1.027071806278135
 40
1.027071806278135
 40
1.027071806278135
 40
1.027071806278135
 10
195.9424594304662
 20
42.59130992113386
 30
-26.27614454061768
 10
195.7908994559746
 20
42.67858750584582
 30
-26.40005196200582
 10
195.6519213932368
 20
42.81732889334671
 30
-26.52111891796812
 10
195.4298692614691
 20
43.16216850992804
 30
-26.71354689787768
 10
195.3450315407297
 20
43.36757082529402
 30
-26.78411437755495
 10
195.2213927028095
 20
43.77160002549226
 30
-26.85202699471484
 10
195.17378638274
 20
43.99904787130071
 30
-26.85439834742465
 10
195.112490049464
 20
44.43804949760488
 30
-26.76670518594074
 10
195.0983230519639
 20
44.64937879356511
 30
-26.6758528447117
 10
195.0983230519639
 20
44.99864868381337
 30
-26.42983503486358
 10
195.112490049464
 20
45.15536282129687
 30
-26.26144590709555
 10
195.17378638274
 20
45.38577474976046
 30
-25.87761930341912
 10
195.2213927028095
 20
45.46013875045446
 30
-25.66265851332719
 10
195.3450315407297
 20
45.5322565756378
 30
-25.25935870242392
 10
195.4298692614691
 20
45.53498371250952
 30
-25.04218954469252
 10
195.6519213932368
 20
45.46992627190411
 30
-24.65268932898107
 10
195.7908994559746
 20
45.40265452582116
 30
-24.48128077432193
 10
196.0940194049588
 20
45.22809935639634
 30
-24.23346593154747
 10
196.2728931981217
 20
45.11233239208013
 30
-24.1450156152896
 10
196.6287920680104
 20
44.8445699857848
 30
-24.06201365129891
 10
196.8047676348404
 20
44.69165046549278
 30
-24.06595565565658
 10
197.0929543422115
 20
44.38237808128997
 30
-24.13256867606833
 10
197.2258715381738
 20
44.20405750158534
 30
-24.1999429846619
 10
197.406982469395
 20
43.8340525134563
 30
-24.38559022620757
 10
197.4544028468761
 20
43.64187256545756
 30
-24.50362877263251
 10
197.4544028468761
 20
43.29260267520931
 30
-24.74964658248064
 10
197.406982469395
 20
43.1167391897643
 30
-24.89084950505276
 10
197.2258715381738
 20
42.8173306231256
 30
-25.17672202866743
 10
197.0929543422115
 20
42.69383935632776
 30
-25.32193715745598
 10
196.8047676348404
 20
42.52696471514901
 30
-25.5907113307876
 10
196.6287920680104
 20
42.47175478320332
 30
-25.73337100448407
 10
196.2728931981217
 20
42.45973501352273
 30
-26.01344520427665
 10
196.0940194049588
 20
42.504032336421
 30
-26.15223711923136
 10
195.9424594304662
 20
42.59130992113386
 30
-26.27614454061768
1001
ACAD_VIEW_EDGE_ID
1071
       92
1071
       -1
1071
        2
1071
        0
  0
LINE
  5
6A4
330
70
100
AcDbEntity
  8
Hidden
100
AcDbLine
 10
201.102367
 20
96.807734
 30
12.520529
 11
192.617085
 21
91.921385
 31
19.457647
210
-0.0000000000000001
220
0.8175471248425399
230
0.5758617009853117
  0
ARC
  5
6A5
330
70
100
AcDbEntity
  8
Visible
100
AcDbCircle
 10
190.641201
 20
-47.764356
 30
110.019185
 40
12.50000000000016
210
0.7071067811864423
220
-0.4071957137923946
230
0.5780931159158112
100
AcDbArc
 50
171.759104
 51
180.0
  0
ARC
  5
6A6
330
70
100
AcDbEntity
  8
Hidden
100
AcDbCircle
 10
190.641201
 20
-47.764356
 30
110.019185
 40
12.50000000000004
210
0.7071067811864423
220
-0.4071957137923946
230
0.5780931159158112
100
AcDbArc
 50
180.0
 51
190.371099
  0
LINE
  5
6A7
330
70
100
AcDbEntity
  8
Visible
100
AcDbLine
 10
189.788658
 20
108.687413
 30
34.726907
 11
189.788658
 21
96.424206
 31
26.088982
210
-0.0000000000000001
220
0.8175471248425399
230
0.5758617009853117
  0
ARC
  5
6A8
330
70
100
AcDbEntity
  8
Hidden
100
AcDbCircle
 10
190.641201
 20
-47.764356
 30
110.019185
 40
12.49999999999935
210
0.7071067811864423
220
-0.4071957137923946
230
0.5780931159158112
100
AcDbArc
 50
351.759104
 51
0.0
  0
ARC
  5
6A9
330
70
100
AcDbEntity
  8
Visible
100
AcDbCircle
 10
190.641201
 20
-47.764356
 30
110.019185
 40
12.49999999999999
210
0.7071067811864423
220
-0.4071957137923946
230
0.5780931159158112
100
AcDbArc
 50
0.0
 51
98.019309
  0
LINE
  5
6AA
330
70
100
AcDbEntity
  8
Hidden
100
AcDbLine
 10
203.930794
 20
104.56812
 30
14.527119
 11
203.930794
 21
116.831327
 31
23.165045
210
-0.0000000000000001
220
0.8175471248425399
230
0.5758617009853117
  0
ARC
  5
6AB
330
70
100
AcDbEntity
  8
Hidden
100
AcDbCircle
 10
-190.641201
 20
-47.764356
 30
-110.019185
 40
3.999999999999997
210
-0.7071067811864423
220
0.4071957137923946
230
-0.5780931159158112
100
AcDbArc
 50
339.336938
 51
200.663062
  0
ARC
  5
6AC
330
70
100
AcDbEntity
  8
Visible
100
AcDbCircle
 10
-190.641201
 20
-47.764356
 30
-110.019185
 40
3.999999999999996
210
-0.7071067811864423
220
0.4071957137923946
230
-0.5780931159158112
100
AcDbArc
 50
200.663062
 51
339.336938
  0
ARC
  5
6AD
330
70
100
AcDbEntity
  8
Visible
100
AcDbCircle
 10
190.641201
 20
-47.764356
 30
102.019185
 40
3.999999999999996
210
0.7071067811864423
220
-0.4071957137923946
230
0.5780931159158112
100
AcDbArc
 50
8.109473
 51
194.889207
  0
ARC
  5
6AE
330
70
100
AcDbEntity
  8
Hidden
100
AcDbCircle
 10
190.641201
 20
-47.764356
 30
102.019185
 40
3.999999999999994
210
0.7071067811864423
220
-0.4071957137923946
230
0.5780931159158112
100
AcDbArc
 50
194.889207
 51
8.109473
  0
LINE
  5
6AF
330
70
100
AcDbEntity
  8
Visible
100
AcDbLine
 10
186.960231
 20
95.178951
 30
14.832902
 11
189.788658
 21
96.807734
 31
12.520529
210
-0.0000000000000001
220
0.8175471248425399
230
0.5758617009853117
  0
LINE
  5
6B0
330
70
100
AcDbEntity
  8
Hidden
100
AcDbLine
 10
189.788658
 20
96.807734
 30
12.520529
 11
195.445512
 21
100.0653
 31
7.895784
210
-0.0000000000000001
220
0.8175471248425399
230
0.5758617009853117
  0
ARC
  5
6B1
330
70
100
AcDbEntity
  8
Visible
100
AcDbCircle
 10
-190.641201
 20
-47.764356
 30
-102.019185
 40
12.49999999999998
210
-0.7071067811864423
220
0.4071957137923946
230
-0.5780931159158112
100
AcDbArc
 50
261.980691
 51
280.592685
  0
LINE
  5
6B2
330
70
100
AcDbEntity
  8
Visible
100
AcDbLine
 10
198.27394
 20
120.088893
 30
18.5403
 11
198.27394
 21
117.529841
 31
16.737762
210
-0.0000000000000001
220
0.8175471248425399
230
0.5758617009853117
  0
LINE
  5
6B3
330
70
100
AcDbEntity
  8
Hidden
100
AcDbLine
 10
198.27394
 20
117.529841
 30
16.737762
 11
198.27394
 21
109.083563
 31
10.788395
210
-0.0000000000000001
220
0.8175471248425399
230
0.5758617009853117
  0
LINE
  5
6B4
330
70
100
AcDbEntity
  8
Visible
100
AcDbLine
 10
198.27394
 20
109.083563
 30
10.788395
 11
198.27394
 21
107.825686
 31
9.902375
210
-0.0000000000000001
220
0.8175471248425399
230
0.5758617009853117
  0
ARC
  5
6B5
330
70
100
AcDbEntity
  8
Visible
100
AcDbCircle
 10
-190.641201
 20
-47.764356
 30
-102.019185
 40
12.5
210
-0.7071067811864423
220
0.4071957137923946
230
-0.5780931159158112
100
AcDbArc
 50
81.980691
 51
188.240896
  0
LINE
  5
6B6
330
70
100
AcDbEntity
  8
Visible
100
AcDbLine
 10
184.131804
 20
99.681772
 30
21.464237
 11
184.131804
 21
111.944978
 31
30.102162
210
-0.0000000000000001
220
0.8175471248425399
230
0.5758617009853117
  0
LINE
  5
6B7
330
70
100
AcDbEntity
  8
Hidden
100
AcDbLine
 10
205.345007
 20
116.016936
 30
24.321231
 11
203.930794
 21
116.831327
 31
23.165045
210
-0.0000000000000001
220
0.8175471248425399
230
0.5758617009853117
  0
LINE
  5
6B8
330
70
100
AcDbEntity
  8
Visible
100
AcDbLine
 10
205.345007
 20
103.753729
 30
15.683306
 11
205.345007
 21
116.016936
 31
24.321231
210
-0.0000000000000001
220
0.8175471248425399
230
0.5758617009853117
  0
LINE
  5
6B9
330
70
100
AcDbEntity
  8
Visible
100
AcDbLine
 10
191.202872
 20
107.873021
 30
35.883094
 11
189.788658
 21
108.687413
 31
34.726907
210
-0.0000000000000001
220
0.8175471248425399
230
0.5758617009853117
  0
ARC
  5
6BA
330
70
100
AcDbEntity
  8
Visible
100
AcDbCircle
 10
190.641201
 20
-47.764356
 30
112.019185
 40
12.5
210
0.7071067811864423
220
-0.4071957137923946
230
0.5780931159158112
100
AcDbArc
 50
351.759104
 51
98.019309
  0
LINE
  5
6BB
330
70
100
AcDbEntity
  8
Visible
100
AcDbLine
 10
191.202872
 20
95.609814
 30
27.245168
 11
189.788658
 21
96.424206
 31
26.088982
210
-0.0000000000000001
220
0.8175471248425399
230
0.5758617009853117
  0
LINE
  5
6BC
330
70
100
AcDbEntity
  8
Visible
100
AcDbLine
 10
191.202872
 20
107.873021
 30
35.883094
 11
191.202872
 21
95.609814
 31
27.245168
210
-0.0000000000000001
220
0.8175471248425399
230
0.5758617009853117
  0
ARC
  5
6BD
330
70
100
AcDbEntity
  8
Visible
100
AcDbCircle
 10
190.641201
 20
-47.764356
 30
100.019185
 40
3.999999999999978
210
0.7071067811864423
220
-0.4071957137923946
230
0.5780931159158112
100
AcDbArc
 50
200.663062
 51
224.889207
  0
ARC
  5
6BE
330
70
100
AcDbEntity
  8
Hidden
100
AcDbCircle
 10
190.641201
 20
-47.764356
 30
100.019185
 40
3.999999999999995
210
0.7071067811864423
220
-0.4071957137923946
230
0.5780931159158112
100
AcDbArc
 50
224.889207
 51
328.512191
  0
ARC
  5
6BF
330
70
100
AcDbEntity
  8
Visible
100
AcDbCircle
 10
190.641201
 20
-47.764356
 30
100.019185
 40
3.99999999999994
210
0.7071067811864423
220
-0.4071957137923946
230
0.5780931159158112
100
AcDbArc
 50
328.512191
 51
339.336938
  0
ARC
  5
6C0
330
70
100
AcDbEntity
  8
Hidden
100
AcDbCircle
 10
190.641201
 20
-47.764356
 30
100.019185
 40
3.999999999999999
210
0.7071067811864423
220
-0.4071957137923946
230
0.5780931159158112
100
AcDbArc
 50
339.336938
 51
200.663062
  0
CIRCLE
  5
6C1
330
70
100
AcDbEntity
  8
Hidden
100
AcDbCircle
 10
133.963377
 20
-104.223406
 30
100.019185
 40
3.175
210
0.7071067811864423
220
-0.4071957137923946
230
0.5780931159158112
  0
LINE
  5
6C2
330
70
100
AcDbEntity
  8
Visible
100
AcDbLine
 10
182.71759
 20
100.496163
 30
20.308051
 11
182.71759
 21
112.75937
 31
28.945976
210
-0.0000000000000001
220
0.8175471248425399
230
0.5758617009853117
  0
ARC
  5
6C3
330
70
100
AcDbEntity
  8
Visible
100
AcDbCircle
 10
-190.641201
 20
-47.764356
 30
-100.019185
 40
12.49999999999999
210
-0.7071067811864423
220
0.4071957137923946
230
-0.5780931159158112
100
AcDbArc
 50
81.980691
 51
180.0
  0
ARC
  5
6C4
330
70
100
AcDbEntity
  8
Hidden
100
AcDbCircle
 10
-190.641201
 20
-47.764356
 30
-100.019185
 40
12.49999999999964
210
-0.7071067811864423
220
0.4071957137923946
230
-0.5780931159158112
100
AcDbArc
 50
180.0
 51
188.240896
  0
LINE
  5
6C5
330
70
100
AcDbEntity
  8
Hidden
100
AcDbLine
 10
196.859726
 20
120.903284
 30
17.384114
 11
196.859726
 21
108.640077
 31
8.746188
210
-0.0000000000000001
220
0.8175471248425399
230
0.5758617009853117
  0
ARC
  5
6C6
330
70
100
AcDbEntity
  8
Hidden
100
AcDbCircle
 10
-190.641201
 20
-47.764356
 30
-100.019185
 40
12.50000000000012
210
-0.7071067811864423
220
0.4071957137923946
230
-0.5780931159158112
100
AcDbArc
 50
261.980691
 51
280.592685
  0
LINE
  5
6C7
330
70
100
AcDbEntity
  8
Hidden
100
AcDbLine
 10
195.445512
 20
53.458802
 30
-28.392429
 11
195.445512
 21
43.648237
 31
-35.302769
210
-0.0000000000000001
220
0.8175471248425399
230
0.5758617009853117
  0
ARC
  5
6C8
330
70
100
AcDbEntity
  8
Hidden
100
AcDbCircle
 10
-133.963377
 20
-104.223406
 30
-100.019185
 40
10.0
210
-0.7071067811864423
220
0.4071957137923946
230
-0.5780931159158112
100
AcDbArc
 50
261.980691
 51
360.0
  0
ARC
  5
6C9
330
70
100
AcDbEntity
  8
Visible
100
AcDbCircle
 10
-133.963377
 20
-104.223406
 30
-100.019185
 40
10.0
210
-0.7071067811864423
220
0.4071957137923946
230
-0.5780931159158112
100
AcDbArc
 50
360.0
 51
92.26715
  0
CIRCLE
  5
6CA
330
70
100
AcDbEntity
  8
Visible
100
AcDbCircle
 10
-133.963377
 20
-104.223406
 30
-112.019185
 40
3.175
210
-0.7071067811864423
220
0.4071957137923946
230
-0.5780931159158112
  0
CIRCLE
  5
6CB
330
70
100
AcDbEntity
  8
Visible
100
AcDbCircle
 10
-190.641201
 20
-47.764356
 30
-112.019185
 40
3.999999999999998
210
-0.7071067811864423
220
0.4071957137923946
230
-0.5780931159158112
  0
LINE
  5
6CC
330
70
100
AcDbEntity
  8
Visible
100
AcDbLine
 10
184.131804
 20
111.944978
 30
30.102162
 11
182.71759
 21
112.75937
 31
28.945976
210
-0.0000000000000001
220
0.8175471248425399
230
0.5758617009853117
  0
LINE
  5
6CD
330
70
100
AcDbEntity
  8
Hidden
100
AcDbLine
 10
198.27394
 20
120.088893
 30
18.5403
 11
196.859726
 21
120.903284
 31
17.384114
210
-0.0000000000000001
220
0.8175471248425399
230
0.5758617009853117
  0
LINE
  5
6CE
330
70
100
AcDbEntity
  8
Hidden
100
AcDbLine
 10
198.27394
 20
107.825686
 30
9.902375
 11
196.859726
 21
108.640077
 31
8.746188
210
-0.0000000000000001
220
0.8175471248425399
230
0.5758617009853117
  0
LINE
  5
6CF
330
70
100
AcDbEntity
  8
Visible
100
AcDbLine
 10
203.930794
 20
38.761888
 30
-28.365652
 11
203.930794
 21
48.572453
 31
-21.455311
210
-0.0000000000000001
220
0.8175471248425399
230
0.5758617009853117
  0
LINE
  5
6D0
330
70
100
AcDbEntity
  8
Hidden
100
AcDbLine
 10
203.930794
 20
38.761888
 30
-28.365652
 11
195.445512
 21
43.648237
 31
-35.302769
210
-0.0000000000000001
220
0.8175471248425399
230
0.5758617009853117
  0
ARC
  5
6D1
330
70
100
AcDbEntity
  8
Visible
100
AcDbCircle
 10
133.963377
 20
-104.223406
 30
112.019185
 40
10.0
210
0.7071067811864423
220
-0.4071957137923946
230
0.5780931159158112
100
AcDbArc
 50
87.73285
 51
278.019309
  0
ARC
  5
6D2
330
70
100
AcDbEntity
  8
Visible
100
AcDbCircle
 10
190.641201
 20
-47.764356
 30
112.019185
 40
12.5000000000001
210
0.7071067811864423
220
-0.4071957137923946
230
0.5780931159158112
100
AcDbArc
 50
171.759104
 51
190.371099
  0
LINE
  5
6D3
330
70
100
AcDbEntity
  8
Hidden
100
AcDbLine
 10
188.116814
 20
59.23612
 30
-15.358764
 11
196.602095
 21
54.349771
 31
-8.421647
210
-0.0000000000000001
220
0.8175471248425399
230
0.5758617009853117
  0
LINE
  5
6D4
330
70
100
AcDbEntity
  8
Hidden
100
AcDbLine
 10
191.460503
 20
77.342813
 30
-6.694723
 11
199.945784
 21
72.456464
 31
0.242394
210
-0.0000000000000001
220
0.8175471248425399
230
0.5758617009853117
  0
LINE
  5
6D5
330
70
100
AcDbEntity
  8
Hidden
100
AcDbLine
 10
188.116814
 20
78.652864
 30
-1.682049
 11
196.602095
 21
73.766516
 31
5.255069
210
-0.0000000000000001
220
0.8175471248425399
230
0.5758617009853117
  0
LINE
  5
6D6
330
70
100
AcDbEntity
  8
Hidden
100
AcDbLine
 10
191.460503
 20
96.759557
 30
6.981992
 11
199.945784
 21
91.873209
 31
13.91911
210
-0.0000000000000001
220
0.8175471248425399
230
0.5758617009853117
  0
LINE
  5
6D7
330
70
100
AcDbEntity
  8
Hidden
100
AcDbLine
 10
203.036767
 20
49.197253
 30
-19.921668
 11
194.551485
 21
54.083602
 31
-26.858786
210
-0.0000000000000001
220
0.8175471248425399
230
0.5758617009853117
  0
LINE
  5
6D8
330
70
100
AcDbEntity
  8
Hidden
100
AcDbLine
 10
194.77898
 20
53.961788
 30
-27.222854
 11
202.940844
 21
49.261683
 31
-20.550145
210
-0.0000000000000001
220
0.8175471248425399
230
0.5758617009853117
  0
LINE
  5
6D9
330
70
100
AcDbEntity
  8
Visible
100
AcDbLine
 10
202.940844
 20
49.261683
 30
-20.550145
 11
203.264262
 21
49.075439
 31
-20.285736
210
-0.0000000000000001
220
0.8175471248425399
230
0.5758617009853117
  0
LINE
  5
6DA
330
70
100
AcDbEntity
  8
Hidden
100
AcDbLine
 10
192.096899
 20
95.228827
 30
22.423611
 11
193.511112
 21
94.414436
 31
23.579797
210
-0.0000000000000001
220
0.8175471248425399
230
0.5758617009853117
  0
LINE
  5
6DB
330
70
100
AcDbEntity
  8
Hidden
100
AcDbLine
 10
185.025831
 20
99.300784
 30
16.64268
 11
186.440045
 21
98.486393
 31
17.798866
210
-0.0000000000000001
220
0.8175471248425399
230
0.5758617009853117
  0
LINE
  5
6DC
330
70
100
AcDbEntity
  8
Visible
100
AcDbLine
 10
183.550756
 20
99.867431
 30
18.846082
 11
184.964969
 21
99.053039
 31
20.002268
210
-0.0000000000000001
220
0.8175471248425399
230
0.5758617009853117
  0
LINE
  5
6DD
330
70
100
AcDbEntity
  8
Hidden
100
AcDbLine
 10
200.519541
 20
44.666617
 30
-28.37904
 11
196.946851
 21
42.609242
 31
-25.458198
210
-0.0000000000000001
220
0.8175471248425399
230
0.5758617009853117
  0
LINE
  5
6DE
330
70
100
AcDbEntity
  8
Hidden
100
AcDbLine
 10
198.856766
 20
47.554073
 30
-28.37904
 11
195.284075
 21
45.496698
 31
-25.458198
210
-0.0000000000000001
220
0.8175471248425399
230
0.5758617009853117
  0
LINE
  5
6DF
330
70
100
AcDbEntity
  8
Visible
100
AcDbLine
 10
203.097629
 20
117.460059
 30
24.627013
 11
204.511842
 21
116.645668
 31
25.7832
210
-0.0000000000000001
220
0.8175471248425399
230
0.5758617009853117
  0
LINE
  5
6E0
330
70
100
AcDbEntity
  8
Hidden
100
AcDbLine
 10
191.784787
 20
114.166057
 30
18.846082
 11
193.199001
 21
113.351666
 31
20.002268
210
-0.0000000000000001
220
0.8175471248425399
230
0.5758617009853117
  0
LINE
  5
6E1
330
70
100
AcDbEntity
  8
Hidden
100
AcDbLine
 10
187.792529
 20
107.23339
 30
18.846082
 11
189.206743
 21
106.418998
 31
20.002268
210
-0.0000000000000001
220
0.8175471248425399
230
0.5758617009853117
  0
LINE
  5
6E2
330
70
100
AcDbEntity
  8
Hidden
100
AcDbLine
 10
191.373086
 20
48.047356
 30
-27.222854
 11
199.858367
 21
43.161007
 31
-20.285736
210
-0.0000000000000001
220
0.8175471248425399
230
0.5758617009853117
  0
LINE
  5
6E3
330
70
100
AcDbEntity
  8
Hidden
100
AcDbLine
 10
188.204231
 20
42.544551
 30
-27.222854
 11
196.689512
 21
37.658203
 31
-20.285736
210
-0.0000000000000001
220
0.8175471248425399
230
0.5758617009853117
  0
LINE
  5
6E4
330
70
100
AcDbEntity
  8
Hidden
100
AcDbLine
 10
198.855855
 20
110.0941
 30
24.627013
 11
200.270068
 21
109.279709
 31
25.7832
210
-0.0000000000000001
220
0.8175471248425399
230
0.5758617009853117
  0
LINE
  5
6E5
330
70
100
AcDbEntity
  8
Hidden
100
AcDbLine
 10
194.863597
 20
103.161433
 30
24.627013
 11
196.277811
 21
102.347041
 31
25.7832
210
-0.0000000000000001
220
0.8175471248425399
230
0.5758617009853117
  0
LINE
  5
6E6
330
70
100
AcDbEntity
  8
Visible
100
AcDbLine
 10
196.026561
 20
121.532017
 30
18.846082
 11
197.440774
 21
120.717625
 31
20.002268
210
-0.0000000000000001
220
0.8175471248425399
230
0.5758617009853117
  0
LINE
  5
6E7
330
70
100
AcDbEntity
  8
Visible
100
AcDbLine
 10
184.798336
 20
36.630119
 30
-27.222854
 11
193.283617
 21
31.743771
 31
-20.285736
210
-0.0000000000000001
220
0.8175471248425399
230
0.5758617009853117
  0
LINE
  5
6E8
330
70
100
AcDbEntity
  8
Visible
100
AcDbLine
 10
190.621823
 20
95.795473
 30
24.627013
 11
192.036037
 21
94.981082
 31
25.7832
210
-0.0000000000000001
220
0.8175471248425399
230
0.5758617009853117
  0
ENDSEC
  0
SECTION
  2
OBJECTS
  0
DICTIONARY
  5
C
330
0
100
AcDbDictionary
281
     1
  3
ACAD_COLOR
350
63
  3
ACAD_DETAILVIEWSTYLE
350
6A
  3
ACAD_FIELDLIST
350
37B
  3
ACAD_GROUP
350
D
  3
ACAD_LAYOUT
350
62
  3
ACAD_MATERIAL
350
10
  3
ACAD_MLEADERSTYLE
350
66
  3
ACAD_MLINESTYLE
350
5F
  3
ACAD_PLOTSETTINGS
350
61
  3
ACAD_PLOTSTYLENAME
350
E
  3
ACAD_SCALELIST
350
42
  3
ACAD_SECTIONVIEWSTYLE
350
68
  3
ACAD_TABLESTYLE
350
64
  3
ACAD_VISUALSTYLE
350
29
  3
ACDB_RECOMPOSE_DATA
350
7C8
  3
AcDbVariableDictionary
350
770
  0
DICTIONARY
  5
BC
330
70
100
AcDbDictionary
280
     1
281
     1
  3
ACAD_SORTENTS
360
BD
  0
DICTIONARY
  5
1FB
330
1FA
100
AcDbDictionary
280
     1
281
     1
  0
DICTIONARY
  5
241
330
240
100
AcDbDictionary
280
     1
281
     1
  3
ACAD_SORTENTS
360
5C6
  0
DICTIONARY
  5
25C
330
25B
100
AcDbDictionary
280
     1
281
     1
  3
ACAD_MLATT
360
77A
  3
ACAD_XREC_ROUNDTRIP
360
779
  0
DICTIONARY
  5
25E
330
25D
100
AcDbDictionary
280
     1
281
     1
  3
ACAD_MLATT
360
77C
  3
ACAD_XREC_ROUNDTRIP
360
77B
  0
DICTIONARY
  5
260
330
25F
100
AcDbDictionary
280
     1
281
     1
  3
ACAD_MLATT
360
77E
  3
ACAD_XREC_ROUNDTRIP
360
77D
  0
DICTIONARY
  5
262
330
261
100
AcDbDictionary
280
     1
281
     1
  3
ACAD_MLATT
360
780
  3
ACAD_XREC_ROUNDTRIP
360
77F
  0
DICTIONARY
  5
264
330
263
100
AcDbDictionary
280
     1
281
     1
  3
ACAD_MLATT
360
782
  3
ACAD_XREC_ROUNDTRIP
360
781
  0
DICTIONARY
  5
266
330
265
100
AcDbDictionary
280
     1
281
     1
  3
ACAD_MLATT
360
784
  3
ACAD_XREC_ROUNDTRIP
360
783
  0
DICTIONARY
  5
268
330
267
100
AcDbDictionary
280
     1
281
     1
  3
ACAD_MLATT
360
786
  3
ACAD_XREC_ROUNDTRIP
360
785
  0
DICTIONARY
  5
26A
330
269
100
AcDbDictionary
280
     1
281
     1
  3
ACAD_MLATT
360
788
  3
ACAD_XREC_ROUNDTRIP
360
787
  0
DICTIONARY
  5
26C
330
26B
100
AcDbDictionary
280
     1
281
     1
  3
ACAD_MLATT
360
78A
  3
ACAD_XREC_ROUNDTRIP
360
789
  0
DICTIONARY
  5
26E
330
26D
100
AcDbDictionary
280
     1
281
     1
  3
ACAD_MLATT
360
78C
  3
ACAD_XREC_ROUNDTRIP
360
78B
  0
DICTIONARY
  5
270
330
26F
100
AcDbDictionary
280
     1
281
     1
  3
ACAD_MLATT
360
78E
  3
ACAD_XREC_ROUNDTRIP
360
78D
  0
DICTIONARY
  5
272
330
271
100
AcDbDictionary
280
     1
281
     1
  3
ACAD_MLATT
360
790
  3
ACAD_XREC_ROUNDTRIP
360
78F
  0
DICTIONARY
  5
274
330
273
100
AcDbDictionary
280
     1
281
     1
  3
ACAD_MLATT
360
792
  3
ACAD_XREC_ROUNDTRIP
360
791
  0
DICTIONARY
  5
276
330
275
100
AcDbDictionary
280
     1
281
     1
  3
ACAD_MLATT
360
794
  3
ACAD_XREC_ROUNDTRIP
360
793
  0
DICTIONARY
  5
278
330
277
100
AcDbDictionary
280
     1
281
     1
  3
ACAD_MLATT
360
796
  3
ACAD_XREC_ROUNDTRIP
360
795
  0
DICTIONARY
  5
7C4
330
352
100
AcDbDictionary
280
     1
281
     1
  3
ACAD_MTEXT_2008_RT
360
7C5
  0
DICTIONARY
  5
797
330
27A
100
AcDbDictionary
280
     1
281
     1
  3
ACAD_MLATT
360
799
  3
ACAD_XREC_ROUNDTRIP
360
798
  0
DICTIONARY
  5
79A
330
27B
100
AcDbDictionary
280
     1
281
     1
  3
ACAD_MLATT
360
79C
  3
ACAD_XREC_ROUNDTRIP
360
79B
  0
DICTIONARY
  5
79D
330
27C
100
AcDbDictionary
280
     1
281
     1
  3
ACAD_MLATT
360
79F
  3
ACAD_XREC_ROUNDTRIP
360
79E
  0
DICTIONARY
  5
7A0
330
27D
100
AcDbDictionary
280
     1
281
     1
  3
ACAD_MLATT
360
7A2
  3
ACAD_XREC_ROUNDTRIP
360
7A1
  0
DICTIONARY
  5
7A3
330
27E
100
AcDbDictionary
280
     1
281
     1
  3
ACAD_MLATT
360
7A5
  3
ACAD_XREC_ROUNDTRIP
360
7A4
  0
DICTIONARY
  5
7A6
330
27F
100
AcDbDictionary
280
     1
281
     1
  3
ACAD_MLATT
360
7A8
  3
ACAD_XREC_ROUNDTRIP
360
7A7
  0
DICTIONARY
  5
7A9
330
280
100
AcDbDictionary
280
     1
281
     1
  3
ACAD_MLATT
360
7AB
  3
ACAD_XREC_ROUNDTRIP
360
7AA
  0
DICTIONARY
  5
7AC
330
281
100
AcDbDictionary
280
     1
281
     1
  3
ACAD_MLATT
360
7AE
  3
ACAD_XREC_ROUNDTRIP
360
7AD
  0
DICTIONARY
  5
7AF
330
282
100
AcDbDictionary
280
     1
281
     1
  3
ACAD_MLATT
360
7B1
  3
ACAD_XREC_ROUNDTRIP
360
7B0
  0
DICTIONARY
  5
7B2
330
283
100
AcDbDictionary
280
     1
281
     1
  3
ACAD_MLATT
360
7B4
  3
ACAD_XREC_ROUNDTRIP
360
7B3
  0
DICTIONARY
  5
7B5
330
284
100
AcDbDictionary
280
     1
281
     1
  3
ACAD_MLATT
360
7B7
  3
ACAD_XREC_ROUNDTRIP
360
7B6
  0
DICTIONARY
  5
7B8
330
285
100
AcDbDictionary
280
     1
281
     1
  3
ACAD_MLATT
360
7BA
  3
ACAD_XREC_ROUNDTRIP
360
7B9
  0
DICTIONARY
  5
7BB
330
286
100
AcDbDictionary
280
     1
281
     1
  3
ACAD_MLATT
360
7BD
  3
ACAD_XREC_ROUNDTRIP
360
7BC
  0
DICTIONARY
  5
7BE
330
287
100
AcDbDictionary
280
     1
281
     1
  3
ACAD_MLATT
360
7C0
  3
ACAD_XREC_ROUNDTRIP
360
7BF
  0
DICTIONARY
  5
7C1
330
288
100
AcDbDictionary
280
     1
281
     1
  3
ACAD_MLATT
360
7C3
  3
ACAD_XREC_ROUNDTRIP
360
7C2
  0
DICTIONARY
  5
369
330
368
100
AcDbDictionary
280
     1
281
     1
  3
ACAD_FIELD
360
36A
  0
DICTIONARY
  5
373
330
372
100
AcDbDictionary
280
     1
281
     1
  3
ACAD_FIELD
360
374
  0
DICTIONARY
  5
63
102
{ACAD_REACTORS
330
C
102
}
330
C
100
AcDbDictionary
281
     1
  0
DICTIONARY
  5
6A
102
{ACAD_REACTORS
330
C
102
}
330
C
100
AcDbDictionary
281
     1
  3
Imperial24
350
6B
  0
FIELDLIST
  5
37B
102
{ACAD_REACTORS
330
C
102
}
330
C
100
AcDbIdSet
 90
       12
330
36B
330
36C
330
36D
330
36E
330
36F
330
370
330
375
330
376
330
377
330
378
330
379
330
37A
100
AcDbFieldList
  0
DICTIONARY
  5
D
102
{ACAD_REACTORS
330
C
102
}
330
C
100
AcDbDictionary
281
     1
  0
DICTIONARY
  5
62
102
{ACAD_REACTORS
330
C
102
}
330
C
100
AcDbDictionary
281
     1
  3
Model
350
73
  3
Sheet1
350
6F
  3
Sheet2
350
77
  0
DICTIONARY
  5
10
102
{ACAD_REACTORS
330
C
102
}
330
C
100
AcDbDictionary
281
     1
  3
ByBlock
350
19
  3
ByLayer
350
11
  3
Global
350
21
  0
DICTIONARY
  5
66
102
{ACAD_REACTORS
330
C
102
}
330
C
100
AcDbDictionary
281
     1
  3
Standard
350
67
  0
DICTIONARY
  5
5F
102
{ACAD_REACTORS
330
C
102
}
330
C
100
AcDbDictionary
281
     1
  3
Standard
350
60
  0
DICTIONARY
  5
61
102
{ACAD_REACTORS
330
C
102
}
330
C
100
AcDbDictionary
281
     1
  0
ACDBDICTIONARYWDFLT
  5
E
102
{ACAD_REACTORS
330
C
102
}
330
C
100
AcDbDictionary
281
     1
  3
Normal
350
F
100
AcDbDictionaryWithDefault
340
F
  0
DICTIONARY
  5
42
102
{ACAD_REACTORS
330
C
102
}
330
C
100
AcDbDictionary
281
     1
  3
*A1
350
AC
  3
*A10
350
B5
  3
*A11
350
B6
  3
*A12
350
B7
  3
*A13
350
B8
  3
*A14
350
B9
  3
*A15
350
BA
  3
*A16
350
BB
  3
*A2
350
AD
  3
*A3
350
AE
  3
*A4
350
AF
  3
*A5
350
B0
  3
*A6
350
B1
  3
*A7
350
B2
  3
*A8
350
B3
  3
*A9
350
B4
  3
A0
350
43
  3
A1
350
44
  3
A2
350
45
  3
A3
350
46
  3
A4
350
47
  3
A5
350
48
  3
A6
350
49
  3
A7
350
4A
  3
A8
350
4B
  3
A9
350
4C
  3
B0
350
4D
  3
B1
350
4E
  3
B2
350
4F
  3
B3
350
50
  3
B4
350
51
  3
B5
350
52
  3
B6
350
53
  0
DICTIONARY
  5
68
102
{ACAD_REACTORS
330
C
102
}
330
C
100
AcDbDictionary
281
     1
  3
Imperial24
350
69
  0
DICTIONARY
  5
64
102
{ACAD_REACTORS
330
C
102
}
330
C
100
AcDbDictionary
281
     1
  3
Standard
350
65
  0
DICTIONARY
  5
29
102
{ACAD_REACTORS
330
C
102
}
330
C
100
AcDbDictionary
281
     1
  3
2dWireframe
350
2F
  3
Basic
350
2E
  3
Brighten
350
35
  3
ColorChange
350
39
  3
Conceptual
350
32
  3
Dim
350
34
  3
EdgeColorOff
350
41
  3
Facepattern
350
38
  3
Flat
350
2A
  3
FlatWithEdges
350
2B
  3
Gouraud
350
2C
  3
GouraudWithEdges
350
2D
  3
Hidden
350
31
  3
JitterOff
350
3F
  3
Linepattern
350
37
  3
OverhangOff
350
40
  3
Realistic
350
33
  3
Shaded
350
3E
  3
Shaded with edges
350
3D
  3
Shades of Gray
350
3A
  3
Sketchy
350
3B
  3
Thicken
350
36
  3
Wireframe
350
30
  3
X-Ray
350
3C
  0
XRECORD
  5
7C8
102
{ACAD_REACTORS
330
C
102
}
330
C
100
AcDbXrecord
280
     1
 90
        1
330
65
330
25B
330
25D
330
25F
330
261
330
263
330
265
330
267
330
269
330
26B
330
26D
330
26F
330
271
330
273
330
275
330
277
330
27A
330
27B
330
27C
330
27D
330
27E
330
27F
330
280
330
281
330
282
330
283
330
284
330
285
330
286
330
287
330
288
330
352
330
75F
  0
DICTIONARY
  5
770
102
{ACAD_REACTORS
330
C
102
}
330
C
100
AcDbDictionary
281
     1
  3
ANNOALLVISIBLE
350
775
  3
CANNOSCALE
350
776
  3
CMLEADERSTYLE
350
772
  3
CTABLESTYLE
350
771
  3
CVIEWDETAILSTYLE
350
773
  3
CVIEWSECTIONSTYLE
350
774
  0
SORTENTSTABLE
  5
BD
102
{ACAD_REACTORS
330
BC
102
}
330
BC
100
AcDbSortentsTable
330
70
  0
SORTENTSTABLE
  5
5C6
102
{ACAD_REACTORS
330
241
102
}
330
241
100
AcDbSortentsTable
330
240
  0
XRECORD
  5
77A
102
{ACAD_REACTORS
330
25C
102
}
330
25C
100
AcDbXrecord
280
     1
 70
     4
 70
     0
 70
     0
 40
1.0
  2
DATE_OF_ISSUE
  1
Embedded Object
 10
-50.0
 20
5.0
 30
0.0
 40
3.5
 41
0.0
 46
0.0
 71
     1
 72
     5
  1

  7
FusionTitle
 73
     1
 44
1.0
  0
XRECORD
  5
779
102
{ACAD_REACTORS
330
25C
102
}
330
25C
100
AcDbXrecord
280
     1
102
ACAD_MATT_HEIGHT
140
3.5
  0
XRECORD
  5
77C
102
{ACAD_REACTORS
330
25E
102
}
330
25E
100
AcDbXrecord
280
     1
 70
     4
 70
     0
 70
     0
 40
1.0
  2
REV
  1
Embedded Object
 10
-56.0
 20
4.85
 30
0.0
 40
3.5
 41
0.0
 46
0.0
 71
     2
 72
     5
  1

  7
FusionTitle
 73
     1
 44
1.0
  0
XRECORD
  5
77B
102
{ACAD_REACTORS
330
25E
102
}
330
25E
100
AcDbXrecord
280
     1
102
ACAD_MATT_HEIGHT
140
3.5
  0
XRECORD
  5
77E
102
{ACAD_REACTORS
330
260
102
}
330
260
100
AcDbXrecord
280
     1
 70
     4
 70
     0
 70
     0
 40
1.0
  2
TITLE_3
  1
Embedded Object
 10
-121.0
 20
6.5
 30
0.0
 40
5.0
 41
0.0
 46
0.0
 71
     1
 72
     5
  1

  7
FusionTitle
 73
     1
 44
1.0
  0
XRECORD
  5
77D
102
{ACAD_REACTORS
330
260
102
}
330
260
100
AcDbXrecord
280
     1
102
ACAD_MATT_HEIGHT
140
5.0
  0
XRECORD
  5
780
102
{ACAD_REACTORS
330
262
102
}
330
262
100
AcDbXrecord
280
     1
 70
     4
 70
     0
 70
     0
 40
1.0
  2
DOCUMENT_STATUS
  1
Embedded Object
 10
-60.0
 20
32.0
 30
0.0
 40
3.5
 41
0.0
 46
0.0
 71
     1
 72
     5
  1

  7
FusionTitle
 73
     1
 44
1.0
  0
XRECORD
  5
77F
102
{ACAD_REACTORS
330
262
102
}
330
262
100
AcDbXrecord
280
     1
102
ACAD_MATT_HEIGHT
140
3.5
  0
XRECORD
  5
782
102
{ACAD_REACTORS
330
264
102
}
330
264
100
AcDbXrecord
280
     1
 70
     4
 70
     0
 70
     0
 40
1.0
  2
DOCUMENT_TYPE
  1
Embedded Object
 10
-121.0
 20
32.0
 30
0.0
 40
3.5
 41
0.0
 46
0.0
 71
     1
 72
     5
  1

  7
FusionTitle
 73
     1
 44
1.0
  0
XRECORD
  5
781
102
{ACAD_REACTORS
330
264
102
}
330
264
100
AcDbXrecord
280
     1
102
ACAD_MATT_HEIGHT
140
3.5
  0
XRECORD
  5
784
102
{ACAD_REACTORS
330
266
102
}
330
266
100
AcDbXrecord
280
     1
 70
     4
 70
     0
 70
     0
 40
1.0
  2
APPROVED_DATE
  1
Embedded Object
 10
-0.992838
 20
42.0
 30
0.0
 40
3.5
 41
0.0
 46
0.0
 71
     3
 72
     5
  1

  7
FusionTitle
 73
     1
 44
1.0
  0
XRECORD
  5
783
102
{ACAD_REACTORS
330
266
102
}
330
266
100
AcDbXrecord
280
     1
102
ACAD_MATT_HEIGHT
140
3.5
  0
XRECORD
  5
786
102
{ACAD_REACTORS
330
268
102
}
330
268
100
AcDbXrecord
280
     1
 70
     4
 70
     0
 70
     0
 40
1.0
  2
CREATED_DATE
  1
Embedded Object
 10
-62.0
 20
42.0
 30
0.0
 40
3.5
 41
0.0
 46
0.0
 71
     3
 72
     5
  1

  7
FusionTitle
 73
     1
 44
1.0
  0
XRECORD
  5
785
102
{ACAD_REACTORS
330
268
102
}
330
268
100
AcDbXrecord
280
     1
102
ACAD_MATT_HEIGHT
140
3.5
  0
XRECORD
  5
788
102
{ACAD_REACTORS
330
26A
102
}
330
26A
100
AcDbXrecord
280
     1
 70
     4
 70
     0
 70
     0
 40
1.0
  2
SHEET
  1
Embedded Object
 10
-7.5
 20
4.85
 30
0.0
 40
3.5
 41
0.0
 46
0.0
 71
     2
 72
     5
  1

  7
FusionTitle
 73
     1
 44
1.0
  0
XRECORD
  5
787
102
{ACAD_REACTORS
330
26A
102
}
330
26A
100
AcDbXrecord
280
     1
102
ACAD_MATT_HEIGHT
140
3.5
  0
XRECORD
  5
78A
102
{ACAD_REACTORS
330
26C
102
}
330
26C
100
AcDbXrecord
280
     1
 70
     4
 70
     0
 70
     0
 40
1.0
  2
TITLE_2
  1
Embedded Object
 10
-121.0
 20
14.0
 30
0.0
 40
5.0
 41
0.0
 46
0.0
 71
     1
 72
     5
  1

  7
FusionTitle
 73
     1
 44
1.0
  0
XRECORD
  5
789
102
{ACAD_REACTORS
330
26C
102
}
330
26C
100
AcDbXrecord
280
     1
102
ACAD_MATT_HEIGHT
140
5.0
  0
XRECORD
  5
78C
102
{ACAD_REACTORS
330
26E
102
}
330
26E
100
AcDbXrecord
280
     1
 70
     4
 70
     0
 70
     0
 40
1.0
  2
DRAWING_NUMBER
  1
Embedded Object
 10
-30.5
 20
19.751432
 30
0.0
 40
5.0
 41
0.0
 46
0.0
 71
     2
 72
     5
  1

  7
FusionTitle
 73
     1
 44
1.0
  0
XRECORD
  5
78B
102
{ACAD_REACTORS
330
26E
102
}
330
26E
100
AcDbXrecord
280
     1
102
ACAD_MATT_HEIGHT
140
5.0
  0
XRECORD
  5
78E
102
{ACAD_REACTORS
330
270
102
}
330
270
100
AcDbXrecord
280
     1
 70
     4
 70
     0
 70
     0
 40
1.0
  2
TITLE_1
  1
Embedded Object
 10
-121.0
 20
21.5
 30
0.0
 40
5.0
 41
0.0
 46
0.0
 71
     1
 72
     5
  1

  7
FusionTitle
 73
     1
 44
1.0
  0
XRECORD
  5
78D
102
{ACAD_REACTORS
330
270
102
}
330
270
100
AcDbXrecord
280
     1
102
ACAD_MATT_HEIGHT
140
5.0
  0
XRECORD
  5
790
102
{ACAD_REACTORS
330
272
102
}
330
272
100
AcDbXrecord
280
     1
 70
     4
 70
     0
 70
     0
 40
1.0
  2
APPROVED_BY
  1
Embedded Object
 10
-60.0
 20
42.0
 30
0.0
 40
3.5
 41
0.0
 46
0.0
 71
     1
 72
     5
  1

  7
FusionTitle
 73
     1
 44
1.0
  0
XRECORD
  5
78F
102
{ACAD_REACTORS
330
272
102
}
330
272
100
AcDbXrecord
280
     1
102
ACAD_MATT_HEIGHT
140
3.5
  0
XRECORD
  5
792
102
{ACAD_REACTORS
330
274
102
}
330
274
100
AcDbXrecord
280
     1
 70
     4
 70
     0
 70
     0
 40
1.0
  2
CREATED_BY
  1
Embedded Object
 10
-121.0
 20
42.0
 30
0.0
 40
3.5
 41
0.0
 46
0.0
 71
     1
 72
     5
  1

  7
FusionTitle
 73
     1
 44
1.0
  0
XRECORD
  5
791
102
{ACAD_REACTORS
330
274
102
}
330
274
100
AcDbXrecord
280
     1
102
ACAD_MATT_HEIGHT
140
3.5
  0
XRECORD
  5
794
102
{ACAD_REACTORS
330
276
102
}
330
276
100
AcDbXrecord
280
     1
 70
     4
 70
     0
 70
     0
 40
1.0
  2
TECHNICAL_REFERENCE
  1
Embedded Object
 10
-155.0
 20
42.0
 30
0.0
 40
3.5
 41
0.0
 46
0.0
 71
     1
 72
     5
  1

  7
FusionTitle
 73
     1
 44
1.0
  0
XRECORD
  5
793
102
{ACAD_REACTORS
330
276
102
}
330
276
100
AcDbXrecord
280
     1
102
ACAD_MATT_HEIGHT
140
3.5
  0
XRECORD
  5
796
102
{ACAD_REACTORS
330
278
102
}
330
278
100
AcDbXrecord
280
     1
 70
     4
 70
     0
 70
     0
 40
1.0
  2
DEPT
  1
Embedded Object
 10
-179.0
 20
42.0
 30
0.0
 40
3.5
 41
0.0
 46
0.0
 71
     1
 72
     5
  1

  7
FusionTitle
 73
     1
 44
1.0
  0
XRECORD
  5
795
102
{ACAD_REACTORS
330
278
102
}
330
278
100
AcDbXrecord
280
     1
102
ACAD_MATT_HEIGHT
140
3.5
  0
XRECORD
  5
7C5
102
{ACAD_REACTORS
330
7C4
102
}
330
7C4
100
AcDbXrecord
280
     1
 40
174070.0
  1
∅6.35{\H2.499;\S+.2~.-0;} (Montage gras pour potentiometre)      
  0
XRECORD
  5
799
102
{ACAD_REACTORS
330
797
102
}
330
797
100
AcDbXrecord
280
     1
 70
     2
 70
     0
 70
     0
 40
1.0
  2
DATE_OF_ISSUE
  1
Embedded Object
 10
360.0
 20
15.0
 30
0.0
 40
3.5
 41
0.0
 46
0.0
 71
     1
 72
     5
  1

  7
FusionTitle
 73
     1
 44
1.0
  0
XRECORD
  5
798
102
{ACAD_REACTORS
330
797
102
}
330
797
100
AcDbXrecord
280
     1
102
ACAD_MATT_HEIGHT
140
3.5
  0
XRECORD
  5
79C
102
{ACAD_REACTORS
330
79A
102
}
330
79A
100
AcDbXrecord
280
     1
 70
     2
 70
     0
 70
     0
 40
1.0
  2
REV
  1
Embedded Object
 10
354.0
 20
14.85
 30
0.0
 40
3.5
 41
0.0
 46
0.0
 71
     2
 72
     5
  1

  7
FusionTitle
 73
     1
 44
1.0
  0
XRECORD
  5
79B
102
{ACAD_REACTORS
330
79A
102
}
330
79A
100
AcDbXrecord
280
     1
102
ACAD_MATT_HEIGHT
140
3.5
  0
XRECORD
  5
79F
102
{ACAD_REACTORS
330
79D
102
}
330
79D
100
AcDbXrecord
280
     1
 70
     2
 70
     0
 70
     0
 40
1.0
  2
TITLE_3
  1
Embedded Object
 10
289.0
 20
16.5
 30
0.0
 40
5.0
 41
0.0
 46
0.0
 71
     1
 72
     5
  1

  7
FusionTitle
 73
     1
 44
1.0
  0
XRECORD
  5
79E
102
{ACAD_REACTORS
330
79D
102
}
330
79D
100
AcDbXrecord
280
     1
102
ACAD_MATT_HEIGHT
140
5.0
  0
XRECORD
  5
7A2
102
{ACAD_REACTORS
330
7A0
102
}
330
7A0
100
AcDbXrecord
280
     1
 70
     2
 70
     0
 70
     0
 40
1.0
  2
DOCUMENT_STATUS
  1
Embedded Object
 10
350.0
 20
42.0
 30
0.0
 40
3.5
 41
0.0
 46
0.0
 71
     1
 72
     5
  1

  7
FusionTitle
 73
     1
 44
1.0
  0
XRECORD
  5
7A1
102
{ACAD_REACTORS
330
7A0
102
}
330
7A0
100
AcDbXrecord
280
     1
102
ACAD_MATT_HEIGHT
140
3.5
  0
XRECORD
  5
7A5
102
{ACAD_REACTORS
330
7A3
102
}
330
7A3
100
AcDbXrecord
280
     1
 70
     2
 70
     0
 70
     0
 40
1.0
  2
DOCUMENT_TYPE
  1
Embedded Object
 10
289.0
 20
42.0
 30
0.0
 40
3.5
 41
0.0
 46
0.0
 71
     1
 72
     5
  1

  7
FusionTitle
 73
     1
 44
1.0
  0
XRECORD
  5
7A4
102
{ACAD_REACTORS
330
7A3
102
}
330
7A3
100
AcDbXrecord
280
     1
102
ACAD_MATT_HEIGHT
140
3.5
  0
XRECORD
  5
7A8
102
{ACAD_REACTORS
330
7A6
102
}
330
7A6
100
AcDbXrecord
280
     1
 70
     2
 70
     0
 70
     0
 40
1.0
  2
APPROVED_DATE
  1
Embedded Object
 10
409.007162
 20
52.0
 30
0.0
 40
3.5
 41
0.0
 46
0.0
 71
     3
 72
     5
  1

  7
FusionTitle
 73
     1
 44
1.0
  0
XRECORD
  5
7A7
102
{ACAD_REACTORS
330
7A6
102
}
330
7A6
100
AcDbXrecord
280
     1
102
ACAD_MATT_HEIGHT
140
3.5
  0
XRECORD
  5
7AB
102
{ACAD_REACTORS
330
7A9
102
}
330
7A9
100
AcDbXrecord
280
     1
 70
     2
 70
     0
 70
     0
 40
1.0
  2
CREATED_DATE
  1
Embedded Object
 10
348.0
 20
52.0
 30
0.0
 40
3.5
 41
0.0
 46
0.0
 71
     3
 72
     5
  1
2/8/21
  7
FusionTitle
 73
     1
 44
1.0
  0
XRECORD
  5
7AA
102
{ACAD_REACTORS
330
7A9
102
}
330
7A9
100
AcDbXrecord
280
     1
102
ACAD_MATT_HEIGHT
140
3.5
  0
XRECORD
  5
7AE
102
{ACAD_REACTORS
330
7AC
102
}
330
7AC
100
AcDbXrecord
280
     1
 70
     2
 70
     0
 70
     0
 40
1.0
  2
SHEET
  1
Embedded Object
 10
402.5
 20
14.85
 30
0.0
 40
3.5
 41
0.0
 46
0.0
 71
     2
 72
     5
  1
1/1
  7
FusionTitle
 73
     1
 44
1.0
  0
XRECORD
  5
7AD
102
{ACAD_REACTORS
330
7AC
102
}
330
7AC
100
AcDbXrecord
280
     1
102
ACAD_MATT_HEIGHT
140
3.5
  0
XRECORD
  5
7B1
102
{ACAD_REACTORS
330
7AF
102
}
330
7AF
100
AcDbXrecord
280
     1
 70
     2
 70
     0
 70
     0
 40
1.0
  2
TITLE_2
  1
Embedded Object
 10
289.0
 20
24.0
 30
0.0
 40
5.0
 41
0.0
 46
0.0
 71
     1
 72
     5
  1

  7
FusionTitle
 73
     1
 44
1.0
  0
XRECORD
  5
7B0
102
{ACAD_REACTORS
330
7AF
102
}
330
7AF
100
AcDbXrecord
280
     1
102
ACAD_MATT_HEIGHT
140
5.0
  0
XRECORD
  5
7B4
102
{ACAD_REACTORS
330
7B2
102
}
330
7B2
100
AcDbXrecord
280
     1
 70
     2
 70
     0
 70
     0
 40
1.0
  2
DRAWING_NUMBER
  1
Embedded Object
 10
379.5
 20
29.751432
 30
0.0
 40
5.0
 41
0.0
 46
0.0
 71
     2
 72
     5
  1

  7
FusionTitle
 73
     1
 44
1.0
  0
XRECORD
  5
7B3
102
{ACAD_REACTORS
330
7B2
102
}
330
7B2
100
AcDbXrecord
280
     1
102
ACAD_MATT_HEIGHT
140
5.0
  0
XRECORD
  5
7B7
102
{ACAD_REACTORS
330
7B5
102
}
330
7B5
100
AcDbXrecord
280
     1
 70
     2
 70
     0
 70
     0
 40
1.0
  2
TITLE_1
  1
Embedded Object
 10
289.0
 20
31.5
 30
0.0
 40
5.0
 41
0.0
 46
0.0
 71
     1
 72
     5
  1
\W0.5792;BrasLevierAccel_PedalierDev_v1
  7
FusionTitle
 73
     1
 44
1.0
  0
XRECORD
  5
7B6
102
{ACAD_REACTORS
330
7B5
102
}
330
7B5
100
AcDbXrecord
280
     1
102
ACAD_MATT_HEIGHT
140
5.0
  0
XRECORD
  5
7BA
102
{ACAD_REACTORS
330
7B8
102
}
330
7B8
100
AcDbXrecord
280
     1
 70
     2
 70
     0
 70
     0
 40
1.0
  2
APPROVED_BY
  1
Embedded Object
 10
350.0
 20
52.0
 30
0.0
 40
3.5
 41
0.0
 46
0.0
 71
     1
 72
     5
  1

  7
FusionTitle
 73
     1
 44
1.0
  0
XRECORD
  5
7B9
102
{ACAD_REACTORS
330
7B8
102
}
330
7B8
100
AcDbXrecord
280
     1
102
ACAD_MATT_HEIGHT
140
3.5
  0
XRECORD
  5
7BD
102
{ACAD_REACTORS
330
7BB
102
}
330
7BB
100
AcDbXrecord
280
     1
 70
     2
 70
     0
 70
     0
 40
1.0
  2
CREATED_BY
  1
Embedded Object
 10
289.0
 20
52.0
 30
0.0
 40
3.5
 41
0.0
 46
0.0
 71
     1
 72
     5
  1
Jean-Baptiste Zurita
  7
FusionTitle
 73
     1
 44
1.0
  0
XRECORD
  5
7BC
102
{ACAD_REACTORS
330
7BB
102
}
330
7BB
100
AcDbXrecord
280
     1
102
ACAD_MATT_HEIGHT
140
3.5
  0
XRECORD
  5
7C0
102
{ACAD_REACTORS
330
7BE
102
}
330
7BE
100
AcDbXrecord
280
     1
 70
     2
 70
     0
 70
     0
 40
1.0
  2
TECHNICAL_REFERENCE
  1
Embedded Object
 10
255.0
 20
52.0
 30
0.0
 40
3.5
 41
0.0
 46
0.0
 71
     1
 72
     5
  1

  7
FusionTitle
 73
     1
 44
1.0
  0
XRECORD
  5
7BF
102
{ACAD_REACTORS
330
7BE
102
}
330
7BE
100
AcDbXrecord
280
     1
102
ACAD_MATT_HEIGHT
140
3.5
  0
XRECORD
  5
7C3
102
{ACAD_REACTORS
330
7C1
102
}
330
7C1
100
AcDbXrecord
280
     1
 70
     2
 70
     0
 70
     0
 40
1.0
  2
DEPT
  1
Embedded Object
 10
231.0
 20
52.0
 30
0.0
 40
3.5
 41
0.0
 46
0.0
 71
     1
 72
     5
  1

  7
FusionTitle
 73
     1
 44
1.0
  0
XRECORD
  5
7C2
102
{ACAD_REACTORS
330
7C1
102
}
330
7C1
100
AcDbXrecord
280
     1
102
ACAD_MATT_HEIGHT
140
3.5
  0
DICTIONARY
  5
36A
102
{ACAD_REACTORS
330
369
102
}
330
369
100
AcDbDictionary
280
     1
281
     1
  3
TEXT
360
36B
  0
DICTIONARY
  5
374
102
{ACAD_REACTORS
330
373
102
}
330
373
100
AcDbDictionary
280
     1
281
     1
  3
TEXT
360
375
  0
ACDBDETAILVIEWSTYLE
  5
6B
102
{ACAD_XDICTIONARY
360
7CB
102
}
102
{ACAD_REACTORS
330
6A
102
}
330
6A
100
AcDbModelDocViewStyle
 70
     0
  3
Imperial24
290
     0
100
AcDbDetailViewStyle
 70
     0
 71
     0
 90
        3
 71
     1
340
55
 62
   256
 40
0.24
340
0
 62
   256
 40
0.24
300

 40
0.36
280
     3
 71
     2
340
5D
 90
       25
 62
   256
 71
     3
340
55
 62
   256
 40
0.24
 90
        1
 40
0.75
 90
        1
300
%<\AcVar ViewType \f "%tc1">% %<\AcVar ViewDetailId>%\PSCALE %<\AcVar ViewScale \f "%sn">%
 71
     4
340
5D
 90
       25
 62
   256
340
5D
 90
       25
 62
   256
280
     0
  0
LAYOUT
  5
73
102
{ACAD_REACTORS
330
62
102
}
330
62
100
AcDbPlotSettings
  1

  2
AutoCAD PDF (High Quality Print).pc3
  4
ISO_full_bleed_A3_(420.00_x_297.00_MM)
  6

 40
0.0
 41
0.0
 42
0.0
 43
0.0
 44
420.0
 45
297.0
 46
0.0
 47
0.0
 48
0.0
 49
0.0
140
0.0
141
0.0
142
1.0
143
1.628231
 70
 11952
 72
     1
 73
     0
 74
     0
  7

 75
     0
147
0.614163
 76
     0
 77
     2
 78
   300
148
148.04329
149
17.202709
100
AcDbLayout
  1
Model
 70
     1
 71
     0
 10
0.0
 20
0.0
 11
12.0
 21
9.0
 12
0.0
 22
0.0
 32
0.0
 14
0.0
 24
0.0
 34
0.0
 15
0.0
 25
0.0
 35
0.0
146
0.0
 13
0.0
 23
0.0
 33
0.0
 16
1.0
 26
0.0
 36
0.0
 17
0.0
 27
1.0
 37
0.0
 76
     0
330
70
1001
ACAD_PSEXT
1000
AutoCAD PDF (High Quality Print).pc3
1000
DWG To PDF
1000
File
1000

1070
     0
  0
LAYOUT
  5
6F
102
{ACAD_REACTORS
330
62
102
}
330
62
100
AcDbPlotSettings
  1

  2

  4

  6

 40
0.0
 41
0.0
 42
0.0
 43
0.0
 44
0.0
 45
0.0
 46
0.0
 47
0.0
 48
0.0
 49
0.0
140
0.0
141
0.0
142
1.0
143
1.0
 70
   688
 72
     0
 73
     0
 74
     5
  7

 75
    16
147
1.0
 76
     0
 77
     2
 78
   300
148
0.0
149
0.0
100
AcDbLayout
  1
Sheet1
 70
     1
 71
     1
 10
0.0
 20
0.0
 11
12.0
 21
9.0
 12
0.0
 22
0.0
 32
0.0
 14
0.0
 24
0.0
 34
0.0
 15
0.0
 25
0.0
 35
0.0
146
0.0
 13
0.0
 23
0.0
 33
0.0
 16
1.0
 26
0.0
 36
0.0
 17
0.0
 27
1.0
 37
0.0
 76
     0
330
6C
  0
LAYOUT
  5
77
102
{ACAD_REACTORS
330
62
102
}
330
62
100
AcDbPlotSettings
  1

  2

  4

  6

 40
0.0
 41
0.0
 42
0.0
 43
0.0
 44
0.0
 45
0.0
 46
0.0
 47
0.0
 48
0.0
 49
0.0
140
0.0
141
0.0
142
1.0
143
1.0
 70
   688
 72
     0
 73
     0
 74
     5
  7

 75
    16
147
1.0
 76
     0
 77
     2
 78
   300
148
0.0
149
0.0
100
AcDbLayout
  1
Sheet2
 70
     1
 71
     2
 10
0.0
 20
0.0
 11
12.0
 21
9.0
 12
0.0
 22
0.0
 32
0.0
 14
0.0
 24
0.0
 34
0.0
 15
0.0
 25
0.0
 35
0.0
146
0.0
 13
0.0
 23
0.0
 33
0.0
 16
1.0
 26
0.0
 36
0.0
 17
0.0
 27
1.0
 37
0.0
 76
     0
330
74
  0
MATERIAL
  5
19
102
{ACAD_XDICTIONARY
360
1A
102
}
102
{ACAD_REACTORS
330
10
102
}
330
10
100
AcDbMaterial
  1
ByBlock
 72
     0
 43
0.020833
 43
0.0
 43
0.0
 43
0.0
 43
0.0
 43
0.020833
 43
0.0
 43
0.0
 43
0.0
 43
0.0
 43
1.0
 43
0.0
 43
0.0
 43
0.0
 43
0.0
 43
1.0
 77
     0
 47
0.020833
 47
0.0
 47
0.0
 47
0.0
 47
0.0
 47
0.020833
 47
0.0
 47
0.0
 47
0.0
 47
0.0
 47
1.0
 47
0.0
 47
0.0
 47
0.0
 47
0.0
 47
1.0
171
     0
 49
0.020833
 49
0.0
 49
0.0
 49
0.0
 49
0.0
 49
0.020833
 49
0.0
 49
0.0
 49
0.0
 49
0.0
 49
1.0
 49
0.0
 49
0.0
 49
0.0
 49
0.0
 49
1.0
175
     0
142
0.020833
142
0.0
142
0.0
142
0.0
142
0.0
142
0.020833
142
0.0
142
0.0
142
0.0
142
0.0
142
1.0
142
0.0
142
0.0
142
0.0
142
0.0
142
1.0
179
     0
144
0.020833
144
0.0
144
0.0
144
0.0
144
0.0
144
0.020833
144
0.0
144
0.0
144
0.0
144
0.0
144
1.0
144
0.0
144
0.0
144
0.0
144
0.0
144
1.0
147
0.020833
147
0.0
147
0.0
147
0.0
147
0.0
147
0.020833
147
0.0
147
0.0
147
0.0
147
0.0
147
1.0
147
0.0
147
0.0
147
0.0
147
0.0
147
1.0
  0
MATERIAL
  5
11
102
{ACAD_XDICTIONARY
360
12
102
}
102
{ACAD_REACTORS
330
10
102
}
330
10
100
AcDbMaterial
  1
ByLayer
 72
     0
 43
0.020833
 43
0.0
 43
0.0
 43
0.0
 43
0.0
 43
0.020833
 43
0.0
 43
0.0
 43
0.0
 43
0.0
 43
1.0
 43
0.0
 43
0.0
 43
0.0
 43
0.0
 43
1.0
 77
     0
 47
0.020833
 47
0.0
 47
0.0
 47
0.0
 47
0.0
 47
0.020833
 47
0.0
 47
0.0
 47
0.0
 47
0.0
 47
1.0
 47
0.0
 47
0.0
 47
0.0
 47
0.0
 47
1.0
171
     0
 49
0.020833
 49
0.0
 49
0.0
 49
0.0
 49
0.0
 49
0.020833
 49
0.0
 49
0.0
 49
0.0
 49
0.0
 49
1.0
 49
0.0
 49
0.0
 49
0.0
 49
0.0
 49
1.0
175
     0
142
0.020833
142
0.0
142
0.0
142
0.0
142
0.0
142
0.020833
142
0.0
142
0.0
142
0.0
142
0.0
142
1.0
142
0.0
142
0.0
142
0.0
142
0.0
142
1.0
179
     0
144
0.020833
144
0.0
144
0.0
144
0.0
144
0.0
144
0.020833
144
0.0
144
0.0
144
0.0
144
0.0
144
1.0
144
0.0
144
0.0
144
0.0
144
0.0
144
1.0
147
0.020833
147
0.0
147
0.0
147
0.0
147
0.0
147
0.020833
147
0.0
147
0.0
147
0.0
147
0.0
147
1.0
147
0.0
147
0.0
147
0.0
147
0.0
147
1.0
  0
MATERIAL
  5
21
102
{ACAD_XDICTIONARY
360
22
102
}
102
{ACAD_REACTORS
330
10
102
}
330
10
100
AcDbMaterial
  1
Global
 72
     0
 43
0.020833
 43
0.0
 43
0.0
 43
0.0
 43
0.0
 43
0.020833
 43
0.0
 43
0.0
 43
0.0
 43
0.0
 43
1.0
 43
0.0
 43
0.0
 43
0.0
 43
0.0
 43
1.0
 77
     0
 47
0.020833
 47
0.0
 47
0.0
 47
0.0
 47
0.0
 47
0.020833
 47
0.0
 47
0.0
 47
0.0
 47
0.0
 47
1.0
 47
0.0
 47
0.0
 47
0.0
 47
0.0
 47
1.0
171
     0
 49
0.020833
 49
0.0
 49
0.0
 49
0.0
 49
0.0
 49
0.020833
 49
0.0
 49
0.0
 49
0.0
 49
0.0
 49
1.0
 49
0.0
 49
0.0
 49
0.0
 49
0.0
 49
1.0
175
     0
142
0.020833
142
0.0
142
0.0
142
0.0
142
0.0
142
0.020833
142
0.0
142
0.0
142
0.0
142
0.0
142
1.0
142
0.0
142
0.0
142
0.0
142
0.0
142
1.0
179
     0
144
0.020833
144
0.0
144
0.0
144
0.0
144
0.0
144
0.020833
144
0.0
144
0.0
144
0.0
144
0.0
144
1.0
144
0.0
144
0.0
144
0.0
144
0.0
144
1.0
147
0.020833
147
0.0
147
0.0
147
0.0
147
0.0
147
0.020833
147
0.0
147
0.0
147
0.0
147
0.0
147
1.0
147
0.0
147
0.0
147
0.0
147
0.0
147
1.0
  0
MLEADERSTYLE
  5
67
102
{ACAD_REACTORS
330
66
330
368
330
372
102
}
330
66
100
AcDbMLeaderStyle
179
     2
170
     2
171
     1
172
     0
 90
        2
 40
0.0
 41
0.0
173
     1
 91
-1056964608
340
5B
 92
       -2
290
     1
 42
0.0
291
     1
 43
3.5
  3
Standard
 44
3.5
300

342
55
174
     5
178
     5
175
     1
176
     0
 93
-1056964608
 45
3.5
292
     0
297
     0
 46
0.18
 94
-1056964608
 47
1.0
 49
1.0
140
1.0
293
     1
141
0.0
294
     1
177
     0
142
1.0
295
     0
296
     0
143
3.5
271
     0
272
     9
273
     9
298
     1
  0
MLINESTYLE
  5
60
102
{ACAD_REACTORS
330
5F
102
}
330
5F
100
AcDbMlineStyle
  2
STANDARD
 70
     0
  3

 62
   256
 51
90.0
 52
90.0
 71
     0
  0
ACDBPLACEHOLDER
  5
F
102
{ACAD_REACTORS
330
E
102
}
330
E
  0
SCALE
  5
AC
102
{ACAD_REACTORS
330
42
102
}
330
42
100
AcDbScale
 70
     0
300
1:2
140
1.0
141
2.0
290
     0
  0
SCALE
  5
B5
102
{ACAD_REACTORS
330
42
102
}
330
42
100
AcDbScale
 70
     0
300
1:50
140
1.0
141
50.0
290
     0
  0
SCALE
  5
B6
102
{ACAD_REACTORS
330
42
102
}
330
42
100
AcDbScale
 70
     0
300
1:100
140
1.0
141
100.0
290
     0
  0
SCALE
  5
B7
102
{ACAD_REACTORS
330
42
102
}
330
42
100
AcDbScale
 70
     0
300
2:1
140
2.0
141
1.0
290
     0
  0
SCALE
  5
B8
102
{ACAD_REACTORS
330
42
102
}
330
42
100
AcDbScale
 70
     0
300
4:1
140
4.0
141
1.0
290
     0
  0
SCALE
  5
B9
102
{ACAD_REACTORS
330
42
102
}
330
42
100
AcDbScale
 70
     0
300
8:1
140
8.0
141
1.0
290
     0
  0
SCALE
  5
BA
102
{ACAD_REACTORS
330
42
102
}
330
42
100
AcDbScale
 70
     0
300
10:1
140
10.0
141
1.0
290
     0
  0
SCALE
  5
BB
102
{ACAD_REACTORS
330
42
102
}
330
42
100
AcDbScale
 70
     0
300
100:1
140
100.0
141
1.0
290
     0
  0
SCALE
  5
AD
102
{ACAD_REACTORS
330
42
102
}
330
42
100
AcDbScale
 70
     0
300
1:4
140
1.0
141
4.0
290
     0
  0
SCALE
  5
AE
102
{ACAD_REACTORS
330
42
102
}
330
42
100
AcDbScale
 70
     0
300
1:5
140
1.0
141
5.0
290
     0
  0
SCALE
  5
AF
102
{ACAD_REACTORS
330
42
102
}
330
42
100
AcDbScale
 70
     0
300
1:8
140
1.0
141
8.0
290
     0
  0
SCALE
  5
B0
102
{ACAD_REACTORS
330
42
102
}
330
42
100
AcDbScale
 70
     0
300
1:10
140
1.0
141
10.0
290
     0
  0
SCALE
  5
B1
102
{ACAD_REACTORS
330
42
102
}
330
42
100
AcDbScale
 70
     0
300
1:16
140
1.0
141
16.0
290
     0
  0
SCALE
  5
B2
102
{ACAD_REACTORS
330
42
102
}
330
42
100
AcDbScale
 70
     0
300
1:20
140
1.0
141
20.0
290
     0
  0
SCALE
  5
B3
102
{ACAD_REACTORS
330
42
102
}
330
42
100
AcDbScale
 70
     0
300
1:30
140
1.0
141
30.0
290
     0
  0
SCALE
  5
B4
102
{ACAD_REACTORS
330
42
102
}
330
42
100
AcDbScale
 70
     0
300
1:40
140
1.0
141
40.0
290
     0
  0
SCALE
  5
43
102
{ACAD_REACTORS
330
42
102
}
330
42
100
AcDbScale
 70
     0
300
1:1
140
1.0
141
1.0
290
     1
  0
SCALE
  5
44
102
{ACAD_REACTORS
330
42
102
}
330
42
100
AcDbScale
 70
     0
300
1/128" = 1'-0"
140
0.007813
141
12.0
290
     0
  0
SCALE
  5
45
102
{ACAD_REACTORS
330
42
102
}
330
42
100
AcDbScale
 70
     0
300
1/64" = 1'-0"
140
0.015625
141
12.0
290
     0
  0
SCALE
  5
46
102
{ACAD_REACTORS
330
42
102
}
330
42
100
AcDbScale
 70
     0
300
1/32" = 1'-0"
140
0.03125
141
12.0
290
     0
  0
SCALE
  5
47
102
{ACAD_REACTORS
330
42
102
}
330
42
100
AcDbScale
 70
     0
300
1/16" = 1'-0"
140
0.0625
141
12.0
290
     0
  0
SCALE
  5
48
102
{ACAD_REACTORS
330
42
102
}
330
42
100
AcDbScale
 70
     0
300
3/32" = 1'-0"
140
0.09375
141
12.0
290
     0
  0
SCALE
  5
49
102
{ACAD_REACTORS
330
42
102
}
330
42
100
AcDbScale
 70
     0
300
1/8" = 1'-0"
140
0.125
141
12.0
290
     0
  0
SCALE
  5
4A
102
{ACAD_REACTORS
330
42
102
}
330
42
100
AcDbScale
 70
     0
300
3/16" = 1'-0"
140
0.1875
141
12.0
290
     0
  0
SCALE
  5
4B
102
{ACAD_REACTORS
330
42
102
}
330
42
100
AcDbScale
 70
     0
300
1/4" = 1'-0"
140
0.25
141
12.0
290
     0
  0
SCALE
  5
4C
102
{ACAD_REACTORS
330
42
102
}
330
42
100
AcDbScale
 70
     0
300
3/8" = 1'-0"
140
0.375
141
12.0
290
     0
  0
SCALE
  5
4D
102
{ACAD_REACTORS
330
42
102
}
330
42
100
AcDbScale
 70
     0
300
1/2" = 1'-0"
140
0.5
141
12.0
290
     0
  0
SCALE
  5
4E
102
{ACAD_REACTORS
330
42
102
}
330
42
100
AcDbScale
 70
     0
300
3/4" = 1'-0"
140
0.75
141
12.0
290
     0
  0
SCALE
  5
4F
102
{ACAD_REACTORS
330
42
102
}
330
42
100
AcDbScale
 70
     0
300
1" = 1'-0"
140
1.0
141
12.0
290
     0
  0
SCALE
  5
50
102
{ACAD_REACTORS
330
42
102
}
330
42
100
AcDbScale
 70
     0
300
1-1/2" = 1'-0"
140
1.5
141
12.0
290
     0
  0
SCALE
  5
51
102
{ACAD_REACTORS
330
42
102
}
330
42
100
AcDbScale
 70
     0
300
3" = 1'-0"
140
3.0
141
12.0
290
     0
  0
SCALE
  5
52
102
{ACAD_REACTORS
330
42
102
}
330
42
100
AcDbScale
 70
     0
300
6" = 1'-0"
140
6.0
141
12.0
290
     0
  0
SCALE
  5
53
102
{ACAD_REACTORS
330
42
102
}
330
42
100
AcDbScale
 70
     0
300
1'-0" = 1'-0"
140
12.0
141
12.0
290
     0
  0
ACDBSECTIONVIEWSTYLE
  5
69
102
{ACAD_XDICTIONARY
360
7C9
102
}
102
{ACAD_REACTORS
330
68
102
}
330
68
100
AcDbModelDocViewStyle
 70
     0
  3
Imperial24
290
     0
100
AcDbSectionViewStyle
 70
     0
 71
     0
 90
       78
 71
     1
340
55
 62
   256
 40
0.24
340
0
340
0
 62
   256
 40
0.24
300
I, O, Q, S, X, Z
 40
0.48
 90
        3
 40
0.18
 90
        1
 71
     2
340
5D
 90
       25
 62
   256
340
5D
 90
       50
 62
   256
 40
0.24
 40
0.0
 40
0.24
 71
     3
340
55
 62
   256
 40
0.24
 90
        1
 40
0.75
 90
        1
300
%<\AcVar ViewType \f "%tc1">% %<\AcVar ViewSectionStartId>%-%<\AcVar ViewSectionEndId>%\PSCALE %<\AcVar ViewScale \f "%sn">%
 71
     4
 62
   256
 62
   257
300
ANSI31
 40
1.0
 90
        0
290
     0
290
     0
 90
        6
 40
0.0
 40
1.570796
 40
0.261799
 40
1.308997
 40
-0.261799
 40
1.832596
  0
TABLESTYLE
  5
65
102
{ACAD_XDICTIONARY
360
777
102
}
102
{ACAD_REACTORS
330
64
102
}
330
64
100
AcDbTableStyle
280
     0
  3
Standard
 70
     0
 71
     0
 40
1.5
 41
1.5
280
     0
281
     0
  7
Standard
140
0.18
170
     2
 62
     0
 63
     7
283
     0
 90
      512
 91
        0
  1

274
    -2
284
     1
 64
     0
275
    -2
285
     1
 65
     0
276
    -2
286
     1
 66
     0
277
    -2
287
     1
 67
     0
278
    -2
288
     1
 68
     0
279
    -2
289
     1
 69
     0
  7
Standard
140
0.25
170
     5
 62
     0
 63
     7
283
     0
 90
      512
 91
        0
  1

274
    -2
284
     1
 64
     0
275
    -2
285
     1
 65
     0
276
    -2
286
     1
 66
     0
277
    -2
287
     1
 67
     0
278
    -2
288
     1
 68
     0
279
    -2
289
     1
 69
     0
  7
Standard
140
0.18
170
     5
 62
     0
 63
     7
283
     0
 90
      512
 91
        0
  1

274
    -2
284
     1
 64
     0
275
    -2
285
     1
 65
     0
276
    -2
286
     1
 66
     0
277
    -2
287
     1
 67
     0
278
    -2
288
     1
 68
     0
279
    -2
289
     1
 69
     0
  0
VISUALSTYLE
  5
2F
102
{ACAD_REACTORS
330
29
102
}
330
29
100
AcDbVisualStyle
  2
2dWireframe
 70
     4
177
     3
291
     0
 70
    58
 90
        0
176
     1
 90
        2
176
     1
 90
        0
176
     1
 90
        0
176
     1
 40
0.6
176
     1
 40
30.0
176
     1
 62
     7
420
 16777215
176
     1
 90
        1
176
     1
 90
        4
176
     1
 62
     7
176
     1
 62
   257
176
     1
 90
        1
176
     1
 90
        1
176
     1
 40
1.0
176
     1
 90
        0
176
     1
 62
   257
176
     1
 40
1.0
176
     1
 90
        1
176
     1
 90
        6
176
     1
 90
        2
176
     1
 62
     7
176
     1
 90
        5
176
     1
 90
        0
176
     1
 90
        0
176
     1
290
     0
176
     1
 90
        1
176
     1
 40
0.0
176
     1
 90
        0
176
     1
290
     1
176
     1
290
     1
176
     1
290
     0
176
     1
290
     0
176
     1
290
     0
176
     1
290
     0
176
     1
290
     0
176
     1
290
     0
176
     1
290
     0
176
     1
 90
       50
176
     1
 40
0.0
176
     1
 40
1.0
176
     1
 90
        0
176
     1
 62
    18
420
        0
176
     1
 90
       50
176
     1
 90
        3
176
     1
 62
     5
420
      255
176
     1
290
     0
176
     1
 90
       50
176
     1
 90
       50
176
     1
 90
       50
176
     1
290
     0
176
     1
 90
       50
176
     1
 62
   256
176
     0
 40
1.0
176
     0
 90
        2
176
     1
  1
strokes_ogs.tif
176
     1
290
     0
176
     1
 40
1.0
176
     1
 40
1.0
176
     1
1001
ACAD
1000
AcDbSavedByObjectVersion
1070
     0
  0
VISUALSTYLE
  5
2E
102
{ACAD_REACTORS
330
29
102
}
330
29
100
AcDbVisualStyle
  2
Basic
 70
     7
177
     3
291
     1
 70
    58
 90
        1
176
     1
 90
        0
176
     1
 90
        1
176
     1
 90
        0
176
     1
 40
0.6
176
     1
 40
30.0
176
     1
 62
     7
420
 16777215
176
     1
 90
        0
176
     1
 90
        4
176
     1
 62
     7
176
     1
 62
   257
176
     1
 90
        1
176
     1
 90
        1
176
     1
 40
1.0
176
     1
 90
        8
176
     1
 62
     7
176
     1
 40
1.0
176
     1
 90
        1
176
     1
 90
        6
176
     1
 90
        2
176
     1
 62
     7
176
     1
 90
        5
176
     1
 90
        0
176
     1
 90
        0
176
     1
290
     0
176
     1
 90
        1
176
     1
 40
0.0
176
     1
 90
        0
176
     1
290
     0
176
     1
290
     1
176
     1
290
     1
176
     1
290
     0
176
     1
290
     0
176
     1
290
     0
176
     1
290
     0
176
     1
290
     0
176
     1
290
     0
176
     1
 90
       50
176
     1
 40
0.0
176
     1
 40
1.0
176
     1
 90
        0
176
     1
 62
    18
420
        0
176
     1
 90
       50
176
     1
 90
        3
176
     1
 62
     5
420
      255
176
     1
290
     0
176
     1
 90
       50
176
     1
 90
       50
176
     1
 90
       50
176
     1
290
     0
176
     1
 90
       50
176
     1
 62
   256
176
     0
 40
1.0
176
     0
 90
        2
176
     1
  1
strokes_ogs.tif
176
     1
290
     0
176
     1
 40
1.0
176
     1
 40
1.0
176
     1
1001
ACAD
1000
AcDbSavedByObjectVersion
1070
     0
  0
VISUALSTYLE
  5
35
102
{ACAD_REACTORS
330
29
102
}
330
29
100
AcDbVisualStyle
  2
Brighten
 70
    12
177
     3
291
     1
 70
    58
 90
        2
176
     1
 90
        2
176
     1
 90
        0
176
     1
 90
        0
176
     1
 40
0.6
176
     1
 40
30.0
176
     1
 62
     7
420
 16777215
176
     1
 90
        1
176
     1
 90
        4
176
     1
 62
     7
176
     1
 62
   257
176
     1
 90
        1
176
     1
 90
        1
176
     1
 40
1.0
176
     1
 90
        8
176
     1
 62
     7
176
     1
 40
1.0
176
     1
 90
        1
176
     1
 90
        6
176
     1
 90
        2
176
     1
 62
     7
176
     1
 90
        5
176
     1
 90
        0
176
     1
 90
        0
176
     1
290
     0
176
     1
 90
        1
176
     1
 40
50.0
176
     1
 90
        0
176
     1
290
     0
176
     1
290
     1
176
     1
290
     1
176
     1
290
     0
176
     1
290
     0
176
     1
290
     0
176
     1
290
     0
176
     1
290
     0
176
     1
290
     0
176
     1
 90
       50
176
     1
 40
0.0
176
     1
 40
1.0
176
     1
 90
        0
176
     1
 62
    18
420
        0
176
     1
 90
       50
176
     1
 90
        3
176
     1
 62
     5
420
      255
176
     1
290
     0
176
     1
 90
       50
176
     1
 90
       50
176
     1
 90
       50
176
     1
290
     0
176
     1
 90
       50
176
     1
 62
   256
176
     0
 40
1.0
176
     0
 90
        2
176
     1
  1
strokes_ogs.tif
176
     1
290
     0
176
     1
 40
1.0
176
     1
 40
1.0
176
     1
1001
ACAD
1000
AcDbSavedByObjectVersion
1070
     0
  0
VISUALSTYLE
  5
39
102
{ACAD_REACTORS
330
29
102
}
330
29
100
AcDbVisualStyle
  2
ColorChange
 70
    16
177
     3
291
     1
 70
    58
 90
        2
176
     1
 90
        2
176
     1
 90
        3
176
     1
 90
        0
176
     1
 40
0.6
176
     1
 40
30.0
176
     1
 62
     8
420
  8421504
176
     1
 90
        1
176
     1
 90
        4
176
     1
 62
     7
176
     1
 62
   257
176
     1
 90
        1
176
     1
 90
        1
176
     1
 40
1.0
176
     1
 90
        8
176
     1
 62
     8
420
  8421504
176
     1
 40
1.0
176
     1
 90
        1
176
     1
 90
        6
176
     1
 90
        2
176
     1
 62
     7
176
     1
 90
        5
176
     1
 90
        0
176
     1
 90
        0
176
     1
290
     0
176
     1
 90
        1
176
     1
 40
0.0
176
     1
 90
        0
176
     1
290
     0
176
     1
290
     1
176
     1
290
     1
176
     1
290
     0
176
     1
290
     0
176
     1
290
     0
176
     1
290
     0
176
     1
290
     0
176
     1
290
     0
176
     1
 90
       50
176
     1
 40
0.0
176
     1
 40
1.0
176
     1
 90
        0
176
     1
 62
    18
420
        0
176
     1
 90
       50
176
     1
 90
        3
176
     1
 62
     5
420
      255
176
     1
290
     0
176
     1
 90
       50
176
     1
 90
       50
176
     1
 90
       50
176
     1
290
     0
176
     1
 90
       50
176
     1
 62
   256
176
     0
 40
1.0
176
     0
 90
        2
176
     1
  1
strokes_ogs.tif
176
     1
290
     0
176
     1
 40
1.0
176
     1
 40
1.0
176
     1
1001
ACAD
1000
AcDbSavedByObjectVersion
1070
     0
  0
VISUALSTYLE
  5
32
102
{ACAD_REACTORS
330
29
102
}
330
29
100
AcDbVisualStyle
  2
Conceptual
 70
     9
177
     3
291
     0
 70
    58
 90
        3
176
     1
 90
        2
176
     1
 90
        0
176
     1
 90
        0
176
     1
 40
0.6
176
     1
 40
30.0
176
     1
 62
     7
420
 16777215
176
     1
 90
        2
176
     1
 90
        2
176
     1
 62
     7
176
     1
 62
   257
176
     1
 90
        1
176
     1
 90
        1
176
     1
 40
179.0
176
     1
 90
        8
176
     1
 62
     7
176
     1
 40
1.0
176
     1
 90
        1
176
     1
 90
        6
176
     1
 90
        2
176
     1
 62
     7
176
     1
 90
        3
176
     1
 90
        0
176
     1
 90
        0
176
     1
290
     0
176
     1
 90
        1
176
     1
 40
0.0
176
     1
 90
        0
176
     1
290
     0
176
     1
290
     1
176
     1
290
     1
176
     1
290
     0
176
     1
290
     0
176
     1
290
     0
176
     1
290
     0
176
     1
290
     0
176
     1
290
     0
176
     1
 90
       50
176
     1
 40
0.0
176
     1
 40
1.0
176
     1
 90
        0
176
     1
 62
    18
420
        0
176
     1
 90
       50
176
     1
 90
        3
176
     1
 62
     5
420
      255
176
     1
290
     0
176
     1
 90
       50
176
     1
 90
       50
176
     1
 90
       50
176
     1
290
     0
176
     1
 90
       50
176
     1
 62
   256
176
     0
 40
1.0
176
     0
 90
        2
176
     1
  1
strokes_ogs.tif
176
     1
290
     0
176
     1
 40
1.0
176
     1
 40
1.0
176
     1
1001
ACAD
1000
AcDbSavedByObjectVersion
1070
     0
  0
VISUALSTYLE
  5
34
102
{ACAD_REACTORS
330
29
102
}
330
29
100
AcDbVisualStyle
  2
Dim
 70
    11
177
     3
291
     1
 70
    58
 90
        2
176
     1
 90
        2
176
     1
 90
        0
176
     1
 90
        0
176
     1
 40
0.6
176
     1
 40
30.0
176
     1
 62
     7
420
 16777215
176
     1
 90
        1
176
     1
 90
        4
176
     1
 62
     7
176
     1
 62
   257
176
     1
 90
        1
176
     1
 90
        1
176
     1
 40
1.0
176
     1
 90
        8
176
     1
 62
     7
176
     1
 40
1.0
176
     1
 90
        1
176
     1
 90
        6
176
     1
 90
        2
176
     1
 62
     7
176
     1
 90
        5
176
     1
 90
        0
176
     1
 90
        0
176
     1
290
     0
176
     1
 90
        1
176
     1
 40
-50.0
176
     1
 90
        0
176
     1
290
     0
176
     1
290
     1
176
     1
290
     1
176
     1
290
     0
176
     1
290
     0
176
     1
290
     0
176
     1
290
     0
176
     1
290
     0
176
     1
290
     0
176
     1
 90
       50
176
     1
 40
0.0
176
     1
 40
1.0
176
     1
 90
        0
176
     1
 62
    18
420
        0
176
     1
 90
       50
176
     1
 90
        3
176
     1
 62
     5
420
      255
176
     1
290
     0
176
     1
 90
       50
176
     1
 90
       50
176
     1
 90
       50
176
     1
290
     0
176
     1
 90
       50
176
     1
 62
   256
176
     0
 40
1.0
176
     0
 90
        2
176
     1
  1
strokes_ogs.tif
176
     1
290
     0
176
     1
 40
1.0
176
     1
 40
1.0
176
     1
1001
ACAD
1000
AcDbSavedByObjectVersion
1070
     0
  0
VISUALSTYLE
  5
41
102
{ACAD_REACTORS
330
29
102
}
330
29
100
AcDbVisualStyle
  2
EdgeColorOff
 70
    22
177
     3
291
     1
 70
    58
 90
        2
176
     0
 90
        2
176
     0
 90
        0
176
     0
 90
        0
176
     0
 40
0.6
176
     0
 40
30.0
176
     0
 62
     7
420
 16777215
176
     0
 90
        1
176
     0
 90
        4
176
     0
 62
     7
176
     0
 62
   257
176
     0
 90
        1
176
     0
 90
        1
176
     0
 40
1.0
176
     0
 90
        8
176
     2
 62
     7
176
     0
 40
1.0
176
     0
 90
        1
176
     0
 90
        6
176
     0
 90
        2
176
     0
 62
     7
176
     0
 90
        5
176
     0
 90
        0
176
     0
 90
        0
176
     0
290
     0
176
     0
 90
        1
176
     0
 40
0.0
176
     0
 90
        0
176
     0
290
     0
176
     0
290
     1
176
     0
290
     1
176
     0
290
     0
176
     0
290
     0
176
     0
290
     0
176
     0
290
     0
176
     0
290
     0
176
     0
290
     0
176
     0
 90
       50
176
     0
 40
0.0
176
     0
 40
1.0
176
     0
 90
        0
176
     0
 62
    18
420
        0
176
     0
 90
       50
176
     0
 90
        3
176
     0
 62
     5
420
      255
176
     0
290
     0
176
     0
 90
       50
176
     0
 90
       50
176
     0
 90
       50
176
     0
290
     0
176
     0
 90
       50
176
     0
 62
   256
176
     0
 40
1.0
176
     0
 90
        2
176
     0
  1
strokes_ogs.tif
176
     0
290
     0
176
     0
 40
1.0
176
     0
 40
1.0
176
     0
1001
ACAD
1000
AcDbSavedByObjectVersion
1070
     0
  0
VISUALSTYLE
  5
38
102
{ACAD_REACTORS
330
29
102
}
330
29
100
AcDbVisualStyle
  2
Facepattern
 70
    15
177
     3
291
     1
 70
    58
 90
        2
176
     1
 90
        2
176
     1
 90
        0
176
     1
 90
        0
176
     1
 40
0.6
176
     1
 40
30.0
176
     1
 62
     7
420
 16777215
176
     1
 90
        1
176
     1
 90
        4
176
     1
 62
     7
176
     1
 62
   257
176
     1
 90
        1
176
     1
 90
        1
176
     1
 40
1.0
176
     1
 90
        8
176
     1
 62
     7
176
     1
 40
1.0
176
     1
 90
        1
176
     1
 90
        6
176
     1
 90
        2
176
     1
 62
     7
176
     1
 90
        5
176
     1
 90
        0
176
     1
 90
        0
176
     1
290
     0
176
     1
 90
        1
176
     1
 40
0.0
176
     1
 90
        0
176
     1
290
     0
176
     1
290
     1
176
     1
290
     1
176
     1
290
     0
176
     1
290
     0
176
     1
290
     0
176
     1
290
     0
176
     1
290
     0
176
     1
290
     0
176
     1
 90
       50
176
     1
 40
0.0
176
     1
 40
1.0
176
     1
 90
        0
176
     1
 62
    18
420
        0
176
     1
 90
       50
176
     1
 90
        3
176
     1
 62
     5
420
      255
176
     1
290
     0
176
     1
 90
       50
176
     1
 90
       50
176
     1
 90
       50
176
     1
290
     0
176
     1
 90
       50
176
     1
 62
   256
176
     0
 40
1.0
176
     0
 90
        2
176
     1
  1
strokes_ogs.tif
176
     1
290
     0
176
     1
 40
1.0
176
     1
 40
1.0
176
     1
1001
ACAD
1000
AcDbSavedByObjectVersion
1070
     0
  0
VISUALSTYLE
  5
2A
102
{ACAD_REACTORS
330
29
102
}
330
29
100
AcDbVisualStyle
  2
Flat
 70
     0
177
     3
291
     1
 70
    58
 90
        2
176
     1
 90
        1
176
     1
 90
        1
176
     1
 90
        2
176
     1
 40
0.6
176
     1
 40
30.0
176
     1
 62
     7
420
 16777215
176
     1
 90
        0
176
     1
 90
        0
176
     1
 62
     7
176
     1
 62
   257
176
     1
 90
        1
176
     1
 90
        1
176
     1
 40
1.0
176
     1
 90
        8
176
     1
 62
     7
176
     1
 40
1.0
176
     1
 90
        1
176
     1
 90
        6
176
     1
 90
        2
176
     1
 62
     7
176
     1
 90
        5
176
     1
 90
        0
176
     1
 90
        0
176
     1
290
     0
176
     1
 90
       13
176
     1
 40
0.0
176
     1
 90
        0
176
     1
290
     0
176
     1
290
     1
176
     1
290
     1
176
     1
290
     0
176
     1
290
     0
176
     1
290
     0
176
     1
290
     0
176
     1
290
     0
176
     1
290
     0
176
     1
 90
       50
176
     1
 40
0.0
176
     1
 40
1.0
176
     1
 90
        0
176
     1
 62
    18
420
        0
176
     1
 90
       50
176
     1
 90
        3
176
     1
 62
     5
420
      255
176
     1
290
     0
176
     1
 90
       50
176
     1
 90
       50
176
     1
 90
       50
176
     1
290
     0
176
     1
 90
       50
176
     1
 62
   256
176
     0
 40
1.0
176
     0
 90
        2
176
     1
  1
strokes_ogs.tif
176
     1
290
     0
176
     1
 40
1.0
176
     1
 40
1.0
176
     1
1001
ACAD
1000
AcDbSavedByObjectVersion
1070
     0
  0
VISUALSTYLE
  5
2B
102
{ACAD_REACTORS
330
29
102
}
330
29
100
AcDbVisualStyle
  2
FlatWithEdges
 70
     1
177
     3
291
     1
 70
    58
 90
        2
176
     1
 90
        1
176
     1
 90
        1
176
     1
 90
        2
176
     1
 40
0.6
176
     1
 40
30.0
176
     1
 62
     7
420
 16777215
176
     1
 90
        1
176
     1
 90
        0
176
     1
 62
     7
176
     1
 62
   257
176
     1
 90
        1
176
     1
 90
        1
176
     1
 40
1.0
176
     1
 90
        0
176
     1
 62
   257
176
     1
 40
1.0
176
     1
 90
        1
176
     1
 90
        6
176
     1
 90
        2
176
     1
 62
     7
176
     1
 90
        5
176
     1
 90
        0
176
     1
 90
        0
176
     1
290
     0
176
     1
 90
       13
176
     1
 40
0.0
176
     1
 90
        0
176
     1
290
     0
176
     1
290
     1
176
     1
290
     1
176
     1
290
     0
176
     1
290
     0
176
     1
290
     0
176
     1
290
     0
176
     1
290
     0
176
     1
290
     0
176
     1
 90
       50
176
     1
 40
0.0
176
     1
 40
1.0
176
     1
 90
        0
176
     1
 62
    18
420
        0
176
     1
 90
       50
176
     1
 90
        3
176
     1
 62
     5
420
      255
176
     1
290
     0
176
     1
 90
       50
176
     1
 90
       50
176
     1
 90
       50
176
     1
290
     0
176
     1
 90
       50
176
     1
 62
   256
176
     0
 40
1.0
176
     0
 90
        2
176
     1
  1
strokes_ogs.tif
176
     1
290
     0
176
     1
 40
1.0
176
     1
 40
1.0
176
     1
1001
ACAD
1000
AcDbSavedByObjectVersion
1070
     0
  0
VISUALSTYLE
  5
2C
102
{ACAD_REACTORS
330
29
102
}
330
29
100
AcDbVisualStyle
  2
Gouraud
 70
     2
177
     3
291
     1
 70
    58
 90
        2
176
     1
 90
        2
176
     1
 90
        1
176
     1
 90
        2
176
     1
 40
0.6
176
     1
 40
30.0
176
     1
 62
     7
420
 16777215
176
     1
 90
        0
176
     1
 90
        0
176
     1
 62
     7
176
     1
 62
   257
176
     1
 90
        1
176
     1
 90
        1
176
     1
 40
1.0
176
     1
 90
        0
176
     1
 62
     7
176
     1
 40
1.0
176
     1
 90
        1
176
     1
 90
        6
176
     1
 90
        2
176
     1
 62
     7
176
     1
 90
        5
176
     1
 90
        0
176
     1
 90
        0
176
     1
290
     0
176
     1
 90
       13
176
     1
 40
0.0
176
     1
 90
        0
176
     1
290
     0
176
     1
290
     1
176
     1
290
     1
176
     1
290
     0
176
     1
290
     0
176
     1
290
     0
176
     1
290
     0
176
     1
290
     0
176
     1
290
     0
176
     1
 90
       50
176
     1
 40
0.0
176
     1
 40
1.0
176
     1
 90
        0
176
     1
 62
    18
420
        0
176
     1
 90
       50
176
     1
 90
        3
176
     1
 62
     5
420
      255
176
     1
290
     0
176
     1
 90
       50
176
     1
 90
       50
176
     1
 90
       50
176
     1
290
     0
176
     1
 90
       50
176
     1
 62
   256
176
     0
 40
1.0
176
     0
 90
        2
176
     1
  1
strokes_ogs.tif
176
     1
290
     0
176
     1
 40
1.0
176
     1
 40
1.0
176
     1
1001
ACAD
1000
AcDbSavedByObjectVersion
1070
     0
  0
VISUALSTYLE
  5
2D
102
{ACAD_REACTORS
330
29
102
}
330
29
100
AcDbVisualStyle
  2
GouraudWithEdges
 70
     3
177
     3
291
     1
 70
    58
 90
        2
176
     1
 90
        2
176
     1
 90
        1
176
     1
 90
        2
176
     1
 40
0.6
176
     1
 40
30.0
176
     1
 62
     7
420
 16777215
176
     1
 90
        1
176
     1
 90
        0
176
     1
 62
     7
176
     1
 62
   257
176
     1
 90
        1
176
     1
 90
        1
176
     1
 40
1.0
176
     1
 90
        0
176
     1
 62
   257
176
     1
 40
1.0
176
     1
 90
        1
176
     1
 90
        6
176
     1
 90
        2
176
     1
 62
     7
176
     1
 90
        5
176
     1
 90
        0
176
     1
 90
        0
176
     1
290
     0
176
     1
 90
       13
176
     1
 40
0.0
176
     1
 90
        0
176
     1
290
     0
176
     1
290
     1
176
     1
290
     1
176
     1
290
     0
176
     1
290
     0
176
     1
290
     0
176
     1
290
     0
176
     1
290
     0
176
     1
290
     0
176
     1
 90
       50
176
     1
 40
0.0
176
     1
 40
1.0
176
     1
 90
        0
176
     1
 62
    18
420
        0
176
     1
 90
       50
176
     1
 90
        3
176
     1
 62
     5
420
      255
176
     1
290
     0
176
     1
 90
       50
176
     1
 90
       50
176
     1
 90
       50
176
     1
290
     0
176
     1
 90
       50
176
     1
 62
   256
176
     0
 40
1.0
176
     0
 90
        2
176
     1
  1
strokes_ogs.tif
176
     1
290
     0
176
     1
 40
1.0
176
     1
 40
1.0
176
     1
1001
ACAD
1000
AcDbSavedByObjectVersion
1070
     0
  0
VISUALSTYLE
  5
31
102
{ACAD_REACTORS
330
29
102
}
330
29
100
AcDbVisualStyle
  2
Hidden
 70
     6
177
     3
291
     0
 70
    58
 90
        1
176
     1
 90
        2
176
     1
 90
        2
176
     1
 90
        0
176
     1
 40
0.6
176
     1
 40
30.0
176
     1
 62
     7
420
 16777215
176
     1
 90
        2
176
     1
 90
        2
176
     1
 62
     7
176
     1
 62
   257
176
     1
 90
        2
176
     1
 90
        1
176
     1
 40
40.0
176
     1
 90
        0
176
     1
 62
   257
176
     1
 40
1.0
176
     1
 90
        1
176
     1
 90
        6
176
     1
 90
        2
176
     1
 62
     7
176
     1
 90
        3
176
     1
 90
        0
176
     1
 90
        0
176
     1
290
     0
176
     1
 90
        1
176
     1
 40
0.0
176
     1
 90
        0
176
     1
290
     0
176
     1
290
     1
176
     1
290
     1
176
     1
290
     0
176
     1
290
     0
176
     1
290
     0
176
     1
290
     0
176
     1
290
     0
176
     1
290
     0
176
     1
 90
       50
176
     1
 40
0.0
176
     1
 40
1.0
176
     1
 90
        0
176
     1
 62
    18
420
        0
176
     1
 90
       50
176
     1
 90
        3
176
     1
 62
     5
420
      255
176
     1
290
     0
176
     1
 90
       50
176
     1
 90
       50
176
     1
 90
       50
176
     1
290
     0
176
     1
 90
       50
176
     1
 62
   256
176
     0
 40
1.0
176
     0
 90
        2
176
     1
  1
strokes_ogs.tif
176
     1
290
     0
176
     1
 40
1.0
176
     1
 40
1.0
176
     1
1001
ACAD
1000
AcDbSavedByObjectVersion
1070
     0
  0
VISUALSTYLE
  5
3F
102
{ACAD_REACTORS
330
29
102
}
330
29
100
AcDbVisualStyle
  2
JitterOff
 70
    20
177
     3
291
     1
 70
    58
 90
        2
176
     0
 90
        2
176
     0
 90
        0
176
     0
 90
        0
176
     0
 40
0.6
176
     0
 40
30.0
176
     0
 62
     7
420
 16777215
176
     0
 90
        1
176
     0
 90
        4
176
     0
 62
     7
176
     0
 62
   257
176
     0
 90
        1
176
     0
 90
        1
176
     0
 40
1.0
176
     0
 90
       10
176
     2
 62
     7
176
     0
 40
1.0
176
     0
 90
        1
176
     0
 90
        6
176
     0
 90
        2
176
     0
 62
     7
176
     0
 90
        5
176
     0
 90
        0
176
     0
 90
        0
176
     0
290
     0
176
     0
 90
        1
176
     0
 40
0.0
176
     0
 90
        0
176
     0
290
     0
176
     0
290
     1
176
     0
290
     1
176
     0
290
     0
176
     0
290
     0
176
     0
290
     0
176
     0
290
     0
176
     0
290
     0
176
     0
290
     0
176
     0
 90
       50
176
     0
 40
0.0
176
     0
 40
1.0
176
     0
 90
        0
176
     0
 62
    18
420
        0
176
     0
 90
       50
176
     0
 90
        3
176
     0
 62
     5
420
      255
176
     0
290
     0
176
     0
 90
       50
176
     0
 90
       50
176
     0
 90
       50
176
     0
290
     0
176
     0
 90
       50
176
     0
 62
   256
176
     0
 40
1.0
176
     0
 90
        2
176
     0
  1
strokes_ogs.tif
176
     0
290
     0
176
     0
 40
1.0
176
     0
 40
1.0
176
     0
1001
ACAD
1000
AcDbSavedByObjectVersion
1070
     0
  0
VISUALSTYLE
  5
37
102
{ACAD_REACTORS
330
29
102
}
330
29
100
AcDbVisualStyle
  2
Linepattern
 70
    14
177
     3
291
     1
 70
    58
 90
        2
176
     1
 90
        2
176
     1
 90
        0
176
     1
 90
        0
176
     1
 40
0.6
176
     1
 40
30.0
176
     1
 62
     7
420
 16777215
176
     1
 90
        1
176
     1
 90
        4
176
     1
 62
     7
176
     1
 62
   257
176
     1
 90
        7
176
     1
 90
        7
176
     1
 40
1.0
176
     1
 90
        8
176
     1
 62
     7
176
     1
 40
1.0
176
     1
 90
        1
176
     1
 90
        6
176
     1
 90
        2
176
     1
 62
     7
176
     1
 90
        5
176
     1
 90
        0
176
     1
 90
        0
176
     1
290
     0
176
     1
 90
        1
176
     1
 40
0.0
176
     1
 90
        0
176
     1
290
     0
176
     1
290
     1
176
     1
290
     1
176
     1
290
     0
176
     1
290
     0
176
     1
290
     0
176
     1
290
     0
176
     1
290
     0
176
     1
290
     0
176
     1
 90
       50
176
     1
 40
0.0
176
     1
 40
1.0
176
     1
 90
        0
176
     1
 62
    18
420
        0
176
     1
 90
       50
176
     1
 90
        3
176
     1
 62
     5
420
      255
176
     1
290
     0
176
     1
 90
       50
176
     1
 90
       50
176
     1
 90
       50
176
     1
290
     0
176
     1
 90
       50
176
     1
 62
   256
176
     0
 40
1.0
176
     0
 90
        2
176
     1
  1
strokes_ogs.tif
176
     1
290
     0
176
     1
 40
1.0
176
     1
 40
1.0
176
     1
1001
ACAD
1000
AcDbSavedByObjectVersion
1070
     0
  0
VISUALSTYLE
  5
40
102
{ACAD_REACTORS
330
29
102
}
330
29
100
AcDbVisualStyle
  2
OverhangOff
 70
    21
177
     3
291
     1
 70
    58
 90
        2
176
     0
 90
        2
176
     0
 90
        0
176
     0
 90
        0
176
     0
 40
0.6
176
     0
 40
30.0
176
     0
 62
     7
420
 16777215
176
     0
 90
        1
176
     0
 90
        4
176
     0
 62
     7
176
     0
 62
   257
176
     0
 90
        1
176
     0
 90
        1
176
     0
 40
1.0
176
     0
 90
        9
176
     2
 62
     7
176
     0
 40
1.0
176
     0
 90
        1
176
     0
 90
        6
176
     0
 90
        2
176
     0
 62
     7
176
     0
 90
        5
176
     0
 90
        0
176
     0
 90
        0
176
     0
290
     0
176
     0
 90
        1
176
     0
 40
0.0
176
     0
 90
        0
176
     0
290
     0
176
     0
290
     1
176
     0
290
     1
176
     0
290
     0
176
     0
290
     0
176
     0
290
     0
176
     0
290
     0
176
     0
290
     0
176
     0
290
     0
176
     0
 90
       50
176
     0
 40
0.0
176
     0
 40
1.0
176
     0
 90
        0
176
     0
 62
    18
420
        0
176
     0
 90
       50
176
     0
 90
        3
176
     0
 62
     5
420
      255
176
     0
290
     0
176
     0
 90
       50
176
     0
 90
       50
176
     0
 90
       50
176
     0
290
     0
176
     0
 90
       50
176
     0
 62
   256
176
     0
 40
1.0
176
     0
 90
        2
176
     0
  1
strokes_ogs.tif
176
     0
290
     0
176
     0
 40
1.0
176
     0
 40
1.0
176
     0
1001
ACAD
1000
AcDbSavedByObjectVersion
1070
     0
  0
VISUALSTYLE
  5
33
102
{ACAD_REACTORS
330
29
102
}
330
29
100
AcDbVisualStyle
  2
Realistic
 70
     8
177
     3
291
     0
 70
    58
 90
        2
176
     1
 90
        3
176
     1
 90
        0
176
     1
 90
        2
176
     1
 40
0.6
176
     1
 40
30.0
176
     1
 62
     7
420
 16777215
176
     1
 90
        0
176
     1
 90
        0
176
     1
 62
     7
176
     1
 62
   257
176
     1
 90
        1
176
     1
 90
        1
176
     1
 40
1.0
176
     1
 90
        8
176
     1
 62
   257
176
     1
 40
1.0
176
     1
 90
        1
176
     1
 90
        6
176
     1
 90
        2
176
     1
 62
     7
176
     1
 90
        3
176
     1
 90
        0
176
     1
 90
        0
176
     1
290
     0
176
     1
 90
       13
176
     1
 40
0.0
176
     1
 90
        0
176
     1
290
     0
176
     1
290
     1
176
     1
290
     1
176
     1
290
     0
176
     1
290
     0
176
     1
290
     0
176
     1
290
     0
176
     1
290
     0
176
     1
290
     0
176
     1
 90
       50
176
     1
 40
0.0
176
     1
 40
1.0
176
     1
 90
        0
176
     1
 62
    18
420
        0
176
     1
 90
       50
176
     1
 90
        3
176
     1
 62
     5
420
      255
176
     1
290
     0
176
     1
 90
       50
176
     1
 90
       50
176
     1
 90
       50
176
     1
290
     0
176
     1
 90
       50
176
     1
 62
   256
176
     0
 40
1.0
176
     0
 90
        2
176
     1
  1
strokes_ogs.tif
176
     1
290
     0
176
     1
 40
1.0
176
     1
 40
1.0
176
     1
1001
ACAD
1000
AcDbSavedByObjectVersion
1070
     0
  0
VISUALSTYLE
  5
3E
102
{ACAD_REACTORS
330
29
102
}
330
29
100
AcDbVisualStyle
  2
Shaded
 70
    27
177
     3
291
     0
 70
    58
 90
        2
176
     1
 90
        2
176
     1
 90
        1
176
     1
 90
        2
176
     1
 40
0.6
176
     1
 40
30.0
176
     1
 62
     7
420
 16777215
176
     1
 90
        0
176
     1
 90
        4
176
     1
 62
     7
176
     1
 62
   257
176
     1
 90
        1
176
     1
 90
        1
176
     1
 40
1.0
176
     1
 90
        8
176
     1
 62
   257
176
     1
 40
1.0
176
     1
 90
        1
176
     1
 90
        6
176
     1
 90
        2
176
     1
 62
     8
420
  7895160
176
     1
 90
        3
176
     1
 90
        0
176
     1
 90
        0
176
     1
290
     0
176
     1
 90
        5
176
     1
 40
0.0
176
     1
 90
        0
176
     1
290
     0
176
     1
290
     1
176
     1
290
     1
176
     1
290
     0
176
     1
290
     0
176
     1
290
     0
176
     1
290
     0
176
     1
290
     0
176
     1
290
     0
176
     1
 90
       50
176
     1
 40
0.0
176
     1
 40
1.0
176
     1
 90
        0
176
     1
 62
    18
420
        0
176
     1
 90
       50
176
     1
 90
        3
176
     1
 62
     5
420
      255
176
     1
290
     0
176
     1
 90
       50
176
     1
 90
       50
176
     1
 90
       50
176
     1
290
     0
176
     1
 90
       50
176
     1
 62
   256
176
     0
 40
1.0
176
     0
 90
        2
176
     1
  1
strokes_ogs.tif
176
     1
290
     0
176
     1
 40
1.0
176
     1
 40
1.0
176
     1
1001
ACAD
1000
AcDbSavedByObjectVersion
1070
     0
  0
VISUALSTYLE
  5
3D
102
{ACAD_REACTORS
330
29
102
}
330
29
100
AcDbVisualStyle
  2
Shaded with edges
 70
    26
177
     3
291
     0
 70
    58
 90
        2
176
     1
 90
        2
176
     1
 90
        1
176
     1
 90
        2
176
     1
 40
0.6
176
     1
 40
30.0
176
     1
 62
     7
420
 16777215
176
     1
 90
        1
176
     1
 90
        2
176
     1
 62
     7
176
     1
 62
   257
176
     1
 90
        2
176
     1
 90
        1
176
     1
 40
1.0
176
     1
 90
        8
176
     1
 62
   257
176
     1
 40
1.0
176
     1
 90
        1
176
     1
 90
        6
176
     1
 90
        2
176
     1
 62
     7
176
     1
 90
        3
176
     1
 90
        0
176
     1
 90
        0
176
     1
290
     0
176
     1
 90
        5
176
     1
 40
0.0
176
     1
 90
        0
176
     1
290
     0
176
     1
290
     1
176
     1
290
     1
176
     1
290
     0
176
     1
290
     0
176
     1
290
     0
176
     1
290
     0
176
     1
290
     0
176
     1
290
     0
176
     1
 90
       50
176
     1
 40
0.0
176
     1
 40
1.0
176
     1
 90
        0
176
     1
 62
    18
420
        0
176
     1
 90
       50
176
     1
 90
        3
176
     1
 62
     5
420
      255
176
     1
290
     0
176
     1
 90
       50
176
     1
 90
       50
176
     1
 90
       50
176
     1
290
     0
176
     1
 90
       50
176
     1
 62
   256
176
     0
 40
1.0
176
     0
 90
        2
176
     1
  1
strokes_ogs.tif
176
     1
290
     0
176
     1
 40
1.0
176
     1
 40
1.0
176
     1
1001
ACAD
1000
AcDbSavedByObjectVersion
1070
     0
  0
VISUALSTYLE
  5
3A
102
{ACAD_REACTORS
330
29
102
}
330
29
100
AcDbVisualStyle
  2
Shades of Gray
 70
    23
177
     3
291
     0
 70
    58
 90
        2
176
     1
 90
        2
176
     1
 90
        3
176
     1
 90
        0
176
     1
 40
0.6
176
     1
 40
30.0
176
     1
 62
     7
420
 16777215
176
     1
 90
        2
176
     1
 90
        2
176
     1
 62
     7
176
     1
 62
     7
176
     1
 90
        1
176
     1
 90
        1
176
     1
 40
40.0
176
     1
 90
        8
176
     1
 62
     7
176
     1
 40
1.0
176
     1
 90
        1
176
     1
 90
        6
176
     1
 90
        2
176
     1
 62
     7
176
     1
 90
        3
176
     1
 90
        0
176
     1
 90
        0
176
     1
290
     0
176
     1
 90
        1
176
     1
 40
0.0
176
     1
 90
        0
176
     1
290
     0
176
     1
290
     1
176
     1
290
     1
176
     1
290
     0
176
     1
290
     0
176
     1
290
     0
176
     1
290
     0
176
     1
290
     0
176
     1
290
     0
176
     1
 90
       50
176
     1
 40
0.0
176
     1
 40
1.0
176
     1
 90
        0
176
     1
 62
    18
420
        0
176
     1
 90
       50
176
     1
 90
        3
176
     1
 62
     5
420
      255
176
     1
290
     0
176
     1
 90
       50
176
     1
 90
       50
176
     1
 90
       50
176
     1
290
     0
176
     1
 90
       50
176
     1
 62
   256
176
     0
 40
1.0
176
     0
 90
        2
176
     1
  1
strokes_ogs.tif
176
     1
290
     0
176
     1
 40
1.0
176
     1
 40
1.0
176
     1
1001
ACAD
1000
AcDbSavedByObjectVersion
1070
     0
  0
VISUALSTYLE
  5
3B
102
{ACAD_REACTORS
330
29
102
}
330
29
100
AcDbVisualStyle
  2
Sketchy
 70
    24
177
     3
291
     0
 70
    58
 90
        1
176
     1
 90
        2
176
     1
 90
        2
176
     1
 90
        0
176
     1
 40
0.6
176
     1
 40
30.0
176
     1
 62
     7
420
 16777215
176
     1
 90
        2
176
     1
 90
        2
176
     1
 62
     7
176
     1
 62
     7
176
     1
 90
        1
176
     1
 90
        1
176
     1
 40
40.0
176
     1
 90
       11
176
     1
 62
     7
176
     1
 40
1.0
176
     1
 90
        1
176
     1
 90
        6
176
     1
 90
        2
176
     1
 62
     7
176
     1
 90
        6
176
     1
 90
        0
176
     1
 90
        0
176
     1
290
     0
176
     1
 90
        1
176
     1
 40
0.0
176
     1
 90
        0
176
     1
290
     0
176
     1
290
     1
176
     1
290
     1
176
     1
290
     0
176
     1
290
     0
176
     1
290
     0
176
     1
290
     0
176
     1
290
     0
176
     1
290
     0
176
     1
 90
       50
176
     1
 40
0.0
176
     1
 40
1.0
176
     1
 90
        0
176
     1
 62
    18
420
        0
176
     1
 90
       50
176
     1
 90
        3
176
     1
 62
     5
420
      255
176
     1
290
     0
176
     1
 90
       50
176
     1
 90
       50
176
     1
 90
       50
176
     1
290
     0
176
     1
 90
       50
176
     1
 62
   256
176
     0
 40
1.0
176
     0
 90
        2
176
     1
  1
strokes_ogs.tif
176
     1
290
     0
176
     1
 40
1.0
176
     1
 40
1.0
176
     1
1001
ACAD
1000
AcDbSavedByObjectVersion
1070
     0
  0
VISUALSTYLE
  5
36
102
{ACAD_REACTORS
330
29
102
}
330
29
100
AcDbVisualStyle
  2
Thicken
 70
    13
177
     3
291
     1
 70
    58
 90
        2
176
     1
 90
        2
176
     1
 90
        0
176
     1
 90
        0
176
     1
 40
0.6
176
     1
 40
30.0
176
     1
 62
     7
420
 16777215
176
     1
 90
        1
176
     1
 90
        4
176
     1
 62
     7
176
     1
 62
   257
176
     1
 90
        1
176
     1
 90
        1
176
     1
 40
1.0
176
     1
 90
       12
176
     1
 62
     7
176
     1
 40
1.0
176
     1
 90
        1
176
     1
 90
        6
176
     1
 90
        2
176
     1
 62
     7
176
     1
 90
        5
176
     1
 90
        0
176
     1
 90
        0
176
     1
290
     0
176
     1
 90
        1
176
     1
 40
0.0
176
     1
 90
        0
176
     1
290
     0
176
     1
290
     1
176
     1
290
     1
176
     1
290
     0
176
     1
290
     0
176
     1
290
     0
176
     1
290
     0
176
     1
290
     0
176
     1
290
     0
176
     1
 90
       50
176
     1
 40
0.0
176
     1
 40
1.0
176
     1
 90
        0
176
     1
 62
    18
420
        0
176
     1
 90
       50
176
     1
 90
        3
176
     1
 62
     5
420
      255
176
     1
290
     0
176
     1
 90
       50
176
     1
 90
       50
176
     1
 90
       50
176
     1
290
     0
176
     1
 90
       50
176
     1
 62
   256
176
     0
 40
1.0
176
     0
 90
        2
176
     1
  1
strokes_ogs.tif
176
     1
290
     0
176
     1
 40
1.0
176
     1
 40
1.0
176
     1
1001
ACAD
1000
AcDbSavedByObjectVersion
1070
     0
  0
VISUALSTYLE
  5
30
102
{ACAD_REACTORS
330
29
102
}
330
29
100
AcDbVisualStyle
  2
Wireframe
 70
     5
177
     3
291
     0
 70
    58
 90
        0
176
     1
 90
        2
176
     1
 90
        0
176
     1
 90
        0
176
     1
 40
0.6
176
     1
 40
30.0
176
     1
 62
     7
420
 16777215
176
     1
 90
        1
176
     1
 90
        4
176
     1
 62
     7
176
     1
 62
   257
176
     1
 90
        1
176
     1
 90
        1
176
     1
 40
1.0
176
     1
 90
        0
176
     1
 62
   257
176
     1
 40
1.0
176
     1
 90
        1
176
     1
 90
        6
176
     1
 90
        2
176
     1
 62
     7
176
     1
 90
        3
176
     1
 90
        0
176
     1
 90
        0
176
     1
290
     0
176
     1
 90
        1
176
     1
 40
0.0
176
     1
 90
        0
176
     1
290
     0
176
     1
290
     1
176
     1
290
     1
176
     1
290
     0
176
     1
290
     0
176
     1
290
     0
176
     1
290
     0
176
     1
290
     0
176
     1
290
     0
176
     1
 90
       50
176
     1
 40
0.0
176
     1
 40
1.0
176
     1
 90
        0
176
     1
 62
    18
420
        0
176
     1
 90
       50
176
     1
 90
        3
176
     1
 62
     5
420
      255
176
     1
290
     0
176
     1
 90
       50
176
     1
 90
       50
176
     1
 90
       50
176
     1
290
     0
176
     1
 90
       50
176
     1
 62
   256
176
     0
 40
1.0
176
     0
 90
        2
176
     1
  1
strokes_ogs.tif
176
     1
290
     0
176
     1
 40
1.0
176
     1
 40
1.0
176
     1
1001
ACAD
1000
AcDbSavedByObjectVersion
1070
     0
  0
VISUALSTYLE
  5
3C
102
{ACAD_REACTORS
330
29
102
}
330
29
100
AcDbVisualStyle
  2
X-Ray
 70
    25
177
     3
291
     0
 70
    58
 90
        2
176
     1
 90
        2
176
     1
 90
        1
176
     1
 90
        1
176
     1
 40
0.5
176
     1
 40
30.0
176
     1
 62
     7
420
 16777215
176
     1
 90
        1
176
     1
 90
        0
176
     1
 62
     7
176
     1
 62
   257
176
     1
 90
        1
176
     1
 90
        1
176
     1
 40
1.0
176
     1
 90
        8
176
     1
 62
     7
176
     1
 40
1.0
176
     1
 90
        1
176
     1
 90
        6
176
     1
 90
        2
176
     1
 62
     7
176
     1
 90
        3
176
     1
 90
        0
176
     1
 90
        0
176
     1
290
     0
176
     1
 90
       13
176
     1
 40
0.0
176
     1
 90
        0
176
     1
290
     0
176
     1
290
     1
176
     1
290
     1
176
     1
290
     0
176
     1
290
     0
176
     1
290
     0
176
     1
290
     0
176
     1
290
     0
176
     1
290
     0
176
     1
 90
       50
176
     1
 40
0.0
176
     1
 40
1.0
176
     1
 90
        0
176
     1
 62
    18
420
        0
176
     1
 90
       50
176
     1
 90
        3
176
     1
 62
     5
420
      255
176
     1
290
     0
176
     1
 90
       50
176
     1
 90
       50
176
     1
 90
       50
176
     1
290
     0
176
     1
 90
       50
176
     1
 62
   256
176
     0
 40
1.0
176
     0
 90
        2
176
     1
  1
strokes_ogs.tif
176
     1
290
     0
176
     1
 40
1.0
176
     1
 40
1.0
176
     1
1001
ACAD
1000
AcDbSavedByObjectVersion
1070
     0
  0
DICTIONARYVAR
  5
775
102
{ACAD_REACTORS
330
770
102
}
330
770
100
DictionaryVariables
280
     0
  1
0
  0
DICTIONARYVAR
  5
776
102
{ACAD_REACTORS
330
770
102
}
330
770
100
DictionaryVariables
280
     0
  1
1:1
  0
DICTIONARYVAR
  5
772
102
{ACAD_REACTORS
330
770
102
}
330
770
100
DictionaryVariables
280
     0
  1
STANDARD
  0
DICTIONARYVAR
  5
771
102
{ACAD_REACTORS
330
770
102
}
330
770
100
DictionaryVariables
280
     0
  1
STANDARD
  0
DICTIONARYVAR
  5
773
102
{ACAD_REACTORS
330
770
102
}
330
770
100
DictionaryVariables
280
     0
  1
Imperial24
  0
DICTIONARYVAR
  5
774
102
{ACAD_REACTORS
330
770
102
}
330
770
100
DictionaryVariables
280
     0
  1
Imperial24
  0
FIELD
  5
36B
102
{ACAD_REACTORS
330
36A
102
}
330
36A
100
AcDbField
  1
_text
  2
 M4x0.7 6H x 4.83/4.83
 90
        0
 97
        0
 91
       63
 92
        0
 94
        5
 95
        1
 96
        0
300

 93
        0
  7
ACFD_FIELD_VALUE
 93
        3
 90
        0
 94
        0
300

302

304
ACVALUE_END
301

 98
        0
  0
FIELD
  5
375
102
{ACAD_REACTORS
330
374
102
}
330
374
100
AcDbField
  1
_text
  2
 M4x0.7 6H x 4.83/4.83
 90
        0
 97
        0
 91
       63
 92
        0
 94
        5
 95
        1
 96
        0
300

 93
        0
  7
ACFD_FIELD_VALUE
 93
        3
 90
        0
 94
        0
300

302

304
ACVALUE_END
301

 98
        0
  0
DICTIONARY
  5
7CB
330
6B
100
AcDbDictionary
280
     1
281
     1
  3
ACAD_XREC_ROUNDTRIP
360
7CC
  0
DICTIONARY
  5
1A
330
19
100
AcDbDictionary
280
     1
281
     1
  3
BUMPTILE
360
1C
  3
DIFFUSETILE
360
1B
  3
OPACITYTILE
360
1F
  3
REFLECTIONTILE
360
1E
  3
REFRACTIONTILE
360
20
  3
SPECULARTILE
360
1D
  0
DICTIONARY
  5
12
330
11
100
AcDbDictionary
280
     1
281
     1
  3
BUMPTILE
360
14
  3
DIFFUSETILE
360
13
  3
OPACITYTILE
360
17
  3
REFLECTIONTILE
360
16
  3
REFRACTIONTILE
360
18
  3
SPECULARTILE
360
15
  0
DICTIONARY
  5
22
330
21
100
AcDbDictionary
280
     1
281
     1
  3
BUMPTILE
360
24
  3
DIFFUSETILE
360
23
  3
OPACITYTILE
360
27
  3
REFLECTIONTILE
360
26
  3
REFRACTIONTILE
360
28
  3
SPECULARTILE
360
25
  0
DICTIONARY
  5
7C9
330
69
100
AcDbDictionary
280
     1
281
     1
  3
ACAD_XREC_ROUNDTRIP
360
7CA
  0
DICTIONARY
  5
777
330
65
100
AcDbDictionary
280
     1
281
     1
  3
ACAD_ROUNDTRIP_2008_TABLESTYLE_CELLSTYLEMAP
360
778
  0
XRECORD
  5
7CC
102
{ACAD_REACTORS
330
7CB
102
}
330
7CB
100
AcDbXrecord
280
     1
102
DISPLAYNAME
  1
Imperial24
102
FLAGS
 90
        0
  0
XRECORD
  5
1C
102
{ACAD_REACTORS
330
1A
102
}
330
1A
100
AcDbXrecord
280
     1
270
     1
271
     1
  0
XRECORD
  5
1B
102
{ACAD_REACTORS
330
1A
102
}
330
1A
100
AcDbXrecord
280
     1
270
     1
271
     1
  0
XRECORD
  5
1F
102
{ACAD_REACTORS
330
1A
102
}
330
1A
100
AcDbXrecord
280
     1
270
     1
271
     1
  0
XRECORD
  5
1E
102
{ACAD_REACTORS
330
1A
102
}
330
1A
100
AcDbXrecord
280
     1
270
     1
271
     1
  0
XRECORD
  5
20
102
{ACAD_REACTORS
330
1A
102
}
330
1A
100
AcDbXrecord
280
     1
270
     1
271
     1
  0
XRECORD
  5
1D
102
{ACAD_REACTORS
330
1A
102
}
330
1A
100
AcDbXrecord
280
     1
270
     1
271
     1
  0
XRECORD
  5
14
102
{ACAD_REACTORS
330
12
102
}
330
12
100
AcDbXrecord
280
     1
270
     1
271
     1
  0
XRECORD
  5
13
102
{ACAD_REACTORS
330
12
102
}
330
12
100
AcDbXrecord
280
     1
270
     1
271
     1
  0
XRECORD
  5
17
102
{ACAD_REACTORS
330
12
102
}
330
12
100
AcDbXrecord
280
     1
270
     1
271
     1
  0
XRECORD
  5
16
102
{ACAD_REACTORS
330
12
102
}
330
12
100
AcDbXrecord
280
     1
270
     1
271
     1
  0
XRECORD
  5
18
102
{ACAD_REACTORS
330
12
102
}
330
12
100
AcDbXrecord
280
     1
270
     1
271
     1
  0
XRECORD
  5
15
102
{ACAD_REACTORS
330
12
102
}
330
12
100
AcDbXrecord
280
     1
270
     1
271
     1
  0
XRECORD
  5
24
102
{ACAD_REACTORS
330
22
102
}
330
22
100
AcDbXrecord
280
     1
270
     1
271
     1
  0
XRECORD
  5
23
102
{ACAD_REACTORS
330
22
102
}
330
22
100
AcDbXrecord
280
     1
270
     1
271
     1
  0
XRECORD
  5
27
102
{ACAD_REACTORS
330
22
102
}
330
22
100
AcDbXrecord
280
     1
270
     1
271
     1
  0
XRECORD
  5
26
102
{ACAD_REACTORS
330
22
102
}
330
22
100
AcDbXrecord
280
     1
270
     1
271
     1
  0
XRECORD
  5
28
102
{ACAD_REACTORS
330
22
102
}
330
22
100
AcDbXrecord
280
     1
270
     1
271
     1
  0
XRECORD
  5
25
102
{ACAD_REACTORS
330
22
102
}
330
22
100
AcDbXrecord
280
     1
270
     1
271
     1
  0
XRECORD
  5
7CA
102
{ACAD_REACTORS
330
7C9
102
}
330
7C9
100
AcDbXrecord
280
     1
102
DISPLAYNAME
  1
Imperial24
102
FLAGS
 90
        0
  0
CELLSTYLEMAP
  5
778
102
{ACAD_REACTORS
330
777
102
}
330
777
100
AcDbCellStyleMap
 90
        3
300
CELLSTYLE
  1
TABLEFORMAT_BEGIN
 90
        5
170
     1
 91
        0
 92
    32768
 62
   257
 93
        1
300
CONTENTFORMAT
  1
CONTENTFORMAT_BEGIN
 90
        0
 91
        0
 92
      512
 93
        0
300

 40
0.0
140
1.0
 94
        5
 62
     0
340
55
144
0.25
309
CONTENTFORMAT_END
171
     1
301
MARGIN
  1
CELLMARGIN_BEGIN
 40
1.5
 40
1.5
 40
1.5
 40
1.5
 40
0.18
 40
0.18
309
CELLMARGIN_END
 94
        0
309
TABLEFORMAT_END
  1
CELLSTYLE_BEGIN
 90
        1
 91
        1
300
_TITLE
309
CELLSTYLE_END
300
CELLSTYLE
  1
TABLEFORMAT_BEGIN
 90
        5
170
     1
 91
        0
 92
        0
 62
   257
 93
        1
300
CONTENTFORMAT
  1
CONTENTFORMAT_BEGIN
 90
        0
 91
        0
 92
      512
 93
        0
300

 40
0.0
140
1.0
 94
        5
 62
     0
340
55
144
0.18
309
CONTENTFORMAT_END
171
     1
301
MARGIN
  1
CELLMARGIN_BEGIN
 40
1.5
 40
1.5
 40
1.5
 40
1.5
 40
0.18
 40
0.18
309
CELLMARGIN_END
 94
        0
309
TABLEFORMAT_END
  1
CELLSTYLE_BEGIN
 90
        2
 91
        1
300
_HEADER
309
CELLSTYLE_END
300
CELLSTYLE
  1
TABLEFORMAT_BEGIN
 90
        5
170
     1
 91
        0
 92
        0
 62
   257
 93
        1
300
CONTENTFORMAT
  1
CONTENTFORMAT_BEGIN
 90
        0
 91
        0
 92
      512
 93
        0
300

 40
0.0
140
1.0
 94
        2
 62
     0
340
55
144
0.18
309
CONTENTFORMAT_END
171
     1
301
MARGIN
  1
CELLMARGIN_BEGIN
 40
1.5
 40
1.5
 40
1.5
 40
1.5
 40
0.18
 40
0.18
309
CELLMARGIN_END
 94
        0
309
TABLEFORMAT_END
  1
CELLSTYLE_BEGIN
 90
        3
 91
        2
300
_DATA
309
CELLSTYLE_END
  0
ENDSEC
  0
EOF
