  0
SECTION
  2
HEADER
  9
$ACADVER
  1
AC1021
  9
$ACADMAINTVER
 70
    25
  9
$DWGCODEPAGE
  3
ANSI_1252
  9
$INSBASE
 10
0.0
 20
0.0
 30
0.0
  9
$EXTMIN
 10
1.000000000000000E+20
 20
1.000000000000000E+20
 30
1.000000000000000E+20
  9
$EXTMAX
 10
-1.000000000000000E+20
 20
-1.000000000000000E+20
 30
-1.000000000000000E+20
  9
$LIMMIN
 10
0.0
 20
0.0
  9
$LIMMAX
 10
12.0
 20
9.0
  9
$ORTHOMODE
 70
     0
  9
$REGENMODE
 70
     1
  9
$FILLMODE
 70
     1
  9
$QTEXTMODE
 70
     0
  9
$MIRRTEXT
 70
     1
  9
$LTSCALE
 40
1.0
  9
$ATTMODE
 70
     1
  9
$TEXTSIZE
 40
0.2
  9
$TRACEWID
 40
0.05
  9
$TEXTSTYLE
  7
Standard
  9
$CLAYER
  8
Piece
  9
$CELTYPE
  6
ByLayer
  9
$CECOLOR
 62
   256
  9
$CELTSCALE
 40
1.0
  9
$DISPSILH
 70
     0
  9
$DIMSCALE
 40
1.0
  9
$DIMASZ
 40
0.18
  9
$DIMEXO
 40
0.0625
  9
$DIMDLI
 40
0.38
  9
$DIMRND
 40
0.0
  9
$DIMDLE
 40
0.0
  9
$DIMEXE
 40
0.18
  9
$DIMTP
 40
0.0
  9
$DIMTM
 40
0.0
  9
$DIMTXT
 40
0.18
  9
$DIMCEN
 40
0.09
  9
$DIMTSZ
 40
0.0
  9
$DIMTOL
 70
     0
  9
$DIMLIM
 70
     0
  9
$DIMTIH
 70
     1
  9
$DIMTOH
 70
     1
  9
$DIMSE1
 70
     0
  9
$DIMSE2
 70
     0
  9
$DIMTAD
 70
     0
  9
$DIMZIN
 70
     0
  9
$DIMBLK
  1

  9
$DIMASO
 70
     1
  9
$DIMSHO
 70
     1
  9
$DIMPOST
  1

  9
$DIMAPOST
  1

  9
$DIMALT
 70
     0
  9
$DIMALTD
 70
     2
  9
$DIMALTF
 40
25.4
  9
$DIMLFAC
 40
1.0
  9
$DIMTOFL
 70
     0
  9
$DIMTVP
 40
0.0
  9
$DIMTIX
 70
     0
  9
$DIMSOXD
 70
     0
  9
$DIMSAH
 70
     0
  9
$DIMBLK1
  1

  9
$DIMBLK2
  1

  9
$DIMSTYLE
  2
STANDARD_ACAD
  9
$DIMCLRD
 70
     0
  9
$DIMCLRE
 70
     0
  9
$DIMCLRT
 70
     0
  9
$DIMTFAC
 40
1.0
  9
$DIMGAP
 40
0.09
  9
$DIMJUST
 70
     0
  9
$DIMSD1
 70
     0
  9
$DIMSD2
 70
     0
  9
$DIMTOLJ
 70
     1
  9
$DIMTZIN
 70
     0
  9
$DIMALTZ
 70
     0
  9
$DIMALTTZ
 70
     0
  9
$DIMUPT
 70
     0
  9
$DIMDEC
 70
     4
  9
$DIMTDEC
 70
     4
  9
$DIMALTU
 70
     2
  9
$DIMALTTD
 70
     2
  9
$DIMTXSTY
  7
Standard
  9
$DIMAUNIT
 70
     0
  9
$DIMADEC
 70
     0
  9
$DIMALTRND
 40
0.0
  9
$DIMAZIN
 70
     0
  9
$DIMDSEP
 70
    46
  9
$DIMATFIT
 70
     3
  9
$DIMFRAC
 70
     0
  9
$DIMLDRBLK
  1

  9
$DIMLUNIT
 70
     2
  9
$DIMLWD
 70
    -2
  9
$DIMLWE
 70
    -2
  9
$DIMTMOVE
 70
     2
  9
$DIMFXL
 40
1.0
  9
$DIMFXLON
 70
     0
  9
$DIMJOGANG
 40
0.7853981633974483
  9
$DIMTFILL
 70
     0
  9
$DIMTFILLCLR
 70
     0
  9
$DIMARCSYM
 70
     0
  9
$DIMLTYPE
  6

  9
$DIMLTEX1
  6

  9
$DIMLTEX2
  6

  9
$LUNITS
 70
     2
  9
$LUPREC
 70
     3
  9
$SKETCHINC
 40
0.1
  9
$FILLETRAD
 40
0.5
  9
$AUNITS
 70
     0
  9
$AUPREC
 70
     0
  9
$MENU
  1
.
  9
$ELEVATION
 40
0.0
  9
$PELEVATION
 40
0.0
  9
$THICKNESS
 40
0.0
  9
$LIMCHECK
 70
     0
  9
$CHAMFERA
 40
0.0
  9
$CHAMFERB
 40
0.0
  9
$CHAMFERC
 40
0.0
  9
$CHAMFERD
 40
0.0
  9
$SKPOLY
 70
     0
  9
$TDCREATE
 40
2458859.762636134
  9
$TDUCREATE
 40
2458859.720969467
  9
$TDUPDATE
 40
2458859.762667569
  9
$TDUUPDATE
 40
2458859.721000903
  9
$TDINDWG
 40
0.0000000116
  9
$TDUSRTIMER
 40
0.0000000116
  9
$USRTIMER
 70
     1
  9
$ANGBASE
 50
0.0
  9
$ANGDIR
 70
     0
  9
$PDMODE
 70
     0
  9
$PDSIZE
 40
0.0
  9
$PLINEWID
 40
0.0
  9
$SPLFRAME
 70
     0
  9
$SPLINETYPE
 70
     6
  9
$SPLINESEGS
 70
     8
  9
$HANDSEED
  5
1D6
  9
$SURFTAB1
 70
     6
  9
$SURFTAB2
 70
     6
  9
$SURFTYPE
 70
     6
  9
$SURFU
 70
     6
  9
$SURFV
 70
     6
  9
$UCSBASE
  2

  9
$UCSNAME
  2

  9
$UCSORG
 10
0.0
 20
0.0
 30
0.0
  9
$UCSXDIR
 10
1.0
 20
0.0
 30
0.0
  9
$UCSYDIR
 10
0.0
 20
1.0
 30
0.0
  9
$UCSORTHOREF
  2

  9
$UCSORTHOVIEW
 70
     0
  9
$UCSORGTOP
 10
0.0
 20
0.0
 30
0.0
  9
$UCSORGBOTTOM
 10
0.0
 20
0.0
 30
0.0
  9
$UCSORGLEFT
 10
0.0
 20
0.0
 30
0.0
  9
$UCSORGRIGHT
 10
0.0
 20
0.0
 30
0.0
  9
$UCSORGFRONT
 10
0.0
 20
0.0
 30
0.0
  9
$UCSORGBACK
 10
0.0
 20
0.0
 30
0.0
  9
$PUCSBASE
  2

  9
$PUCSNAME
  2

  9
$PUCSORG
 10
0.0
 20
0.0
 30
0.0
  9
$PUCSXDIR
 10
1.0
 20
0.0
 30
0.0
  9
$PUCSYDIR
 10
0.0
 20
1.0
 30
0.0
  9
$PUCSORTHOREF
  2

  9
$PUCSORTHOVIEW
 70
     0
  9
$PUCSORGTOP
 10
0.0
 20
0.0
 30
0.0
  9
$PUCSORGBOTTOM
 10
0.0
 20
0.0
 30
0.0
  9
$PUCSORGLEFT
 10
0.0
 20
0.0
 30
0.0
  9
$PUCSORGRIGHT
 10
0.0
 20
0.0
 30
0.0
  9
$PUCSORGFRONT
 10
0.0
 20
0.0
 30
0.0
  9
$PUCSORGBACK
 10
0.0
 20
0.0
 30
0.0
  9
$USERI1
 70
     0
  9
$USERI2
 70
     0
  9
$USERI3
 70
     0
  9
$USERI4
 70
     0
  9
$USERI5
 70
     0
  9
$USERR1
 40
0.0
  9
$USERR2
 40
0.0
  9
$USERR3
 40
0.0
  9
$USERR4
 40
0.0
  9
$USERR5
 40
0.0
  9
$WORLDVIEW
 70
     1
  9
$SHADEDGE
 70
     3
  9
$SHADEDIF
 70
    70
  9
$TILEMODE
 70
     1
  9
$MAXACTVP
 70
    64
  9
$PINSBASE
 10
0.0
 20
0.0
 30
0.0
  9
$PLIMCHECK
 70
     0
  9
$PEXTMIN
 10
1.000000000000000E+20
 20
1.000000000000000E+20
 30
1.000000000000000E+20
  9
$PEXTMAX
 10
-1.000000000000000E+20
 20
-1.000000000000000E+20
 30
-1.000000000000000E+20
  9
$PLIMMIN
 10
0.0
 20
0.0
  9
$PLIMMAX
 10
12.0
 20
9.0
  9
$UNITMODE
 70
     0
  9
$VISRETAIN
 70
     1
  9
$PLINEGEN
 70
     0
  9
$PSLTSCALE
 70
     1
  9
$TREEDEPTH
 70
  3020
  9
$CMLSTYLE
  2
Standard
  9
$CMLJUST
 70
     0
  9
$CMLSCALE
 40
1.0
  9
$PROXYGRAPHICS
 70
     1
  9
$MEASUREMENT
 70
     1
  9
$CELWEIGHT
370
    -1
  9
$ENDCAPS
280
     0
  9
$JOINSTYLE
280
     0
  9
$LWDISPLAY
290
     0
  9
$INSUNITS
 70
     4
  9
$HYPERLINKBASE
  1

  9
$STYLESHEET
  1

  9
$XEDIT
290
     1
  9
$CEPSNTYPE
380
     0
  9
$PSTYLEMODE
290
     1
  9
$FINGERPRINTGUID
  2
{0a694fcd-3f7d-814c-97a0-5e9d14b705ad}
  9
$VERSIONGUID
  2
{FAEB1C32-E019-11D5-929B-00C0DF256EC4}
  9
$EXTNAMES
290
     1
  9
$PSVPSCALE
 40
0.0
  9
$OLESTARTUP
290
     0
  9
$SORTENTS
280
   127
  9
$INDEXCTL
280
     0
  9
$HIDETEXT
280
     1
  9
$XCLIPFRAME
290
     0
  9
$HALOGAP
280
     0
  9
$OBSCOLOR
 70
   257
  9
$OBSLTYPE
280
     0
  9
$INTERSECTIONDISPLAY
280
     0
  9
$INTERSECTIONCOLOR
 70
   257
  9
$DIMASSOC
280
     2
  9
$PROJECTNAME
  1

  9
$CAMERADISPLAY
290
     0
  9
$LENSLENGTH
 40
50.0
  9
$CAMERAHEIGHT
 40
0.0
  9
$STEPSPERSEC
 40
2.0
  9
$STEPSIZE
 40
6.0
  9
$3DDWFPREC
 40
2.0
  9
$PSOLWIDTH
 40
0.25
  9
$PSOLHEIGHT
 40
4.0
  9
$LOFTANG1
 40
1.570796326794897
  9
$LOFTANG2
 40
1.570796326794897
  9
$LOFTMAG1
 40
0.0
  9
$LOFTMAG2
 40
0.0
  9
$LOFTPARAM
 70
     7
  9
$LOFTNORMALS
280
     1
  9
$LATITUDE
 40
37.795
  9
$LONGITUDE
 40
-122.394
  9
$NORTHDIRECTION
 40
0.0
  9
$TIMEZONE
 70
 -8000
  9
$LIGHTGLYPHDISPLAY
280
     1
  9
$TILEMODELIGHTSYNCH
280
     1
  9
$CMATERIAL
347
44
  9
$SOLIDHIST
280
     0
  9
$SHOWHIST
280
     1
  9
$DWFFRAME
280
     2
  9
$DGNFRAME
280
     2
  9
$REALWORLDSCALE
290
     1
  9
$INTERFERECOLOR
 62
   256
  9
$CSHADOW
280
     0
  9
$SHADOWPLANELOCATION
 40
0.0
  0
ENDSEC
  0
SECTION
  2
CLASSES
  0
CLASS
  1
ACDBDICTIONARYWDFLT
  2
AcDbDictionaryWithDefault
  3
ObjectDBX Classes
 90
        0
 91
        3
280
     0
281
     0
  0
CLASS
  1
VISUALSTYLE
  2
AcDbVisualStyle
  3
ObjectDBX Classes
 90
     4095
 91
        3
280
     0
281
     0
  0
CLASS
  1
MATERIAL
  2
AcDbMaterial
  3
ObjectDBX Classes
 90
     1153
 91
        3
280
     0
281
     0
  0
CLASS
  1
SCALE
  2
AcDbScale
  3
ObjectDBX Classes
 90
     1153
 91
        3
280
     0
281
     0
  0
CLASS
  1
TABLESTYLE
  2
AcDbTableStyle
  3
ObjectDBX Classes
 90
     4095
 91
        3
280
     0
281
     0
  0
CLASS
  1
MLEADERSTYLE
  2
AcDbMLeaderStyle
  3
ACDB_MLEADERSTYLE_CLASS
 90
     4095
 91
        3
280
     0
281
     0
  0
CLASS
  1
SUN
  2
AcDbSun
  3
SCENEOE
 90
     1153
 91
        3
280
     0
281
     0
  0
CLASS
  1
MULTILEADER
  2
AcDbMLeader
  3
ACDB_MLEADER_CLASS
 90
     1025
 91
        3
280
     0
281
     1
  0
CLASS
  1
DICTIONARYVAR
  2
AcDbDictionaryVar
  3
ObjectDBX Classes
 90
        0
 91
        3
280
     0
281
     0
  0
CLASS
  1
CELLSTYLEMAP
  2
AcDbCellStyleMap
  3
ObjectDBX Classes
 90
     1152
 91
        3
280
     0
281
     0
  0
ENDSEC
  0
SECTION
  2
TABLES
  0
TABLE
  2
VPORT
  5
8
330
0
100
AcDbSymbolTable
 70
     1
  0
VPORT
  5
29
330
8
100
AcDbSymbolTableRecord
100
AcDbViewportTableRecord
  2
*Active
 70
     0
 10
0.0
 20
0.0
 11
1.0
 21
1.0
 12
10.42990654205607
 22
4.5
 13
0.0
 23
0.0
 14
0.5
 24
0.5
 15
0.5
 25
0.5
 16
0.0
 26
0.0
 36
1.0
 17
0.0
 27
0.0
 37
0.0
 40
9.0
 41
1.972972972850329
 42
50.0
 43
0.0
 44
0.0
 50
0.0
 51
0.0
 71
     0
 72
   100
 73
     1
 74
     3
 75
     0
 76
     0
 77
     0
 78
     0
281
     0
 65
     1
110
0.0
120
0.0
130
0.0
111
1.0
121
0.0
131
0.0
112
0.0
122
1.0
132
0.0
 79
     0
146
0.0
348
2F
 60
     3
 61
     5
292
     1
282
     1
141
0.0
142
0.0
 63
   250
361
6D
  0
ENDTAB
  0
TABLE
  2
LTYPE
  5
5
330
0
100
AcDbSymbolTable
 70
     1
  0
LTYPE
  5
14
330
5
100
AcDbSymbolTableRecord
100
AcDbLinetypeTableRecord
  2
ByBlock
 70
     0
  3

 72
    65
 73
     0
 40
0.0
  0
LTYPE
  5
15
330
5
100
AcDbSymbolTableRecord
100
AcDbLinetypeTableRecord
  2
ByLayer
 70
     0
  3

 72
    65
 73
     0
 40
0.0
  0
LTYPE
  5
16
330
5
100
AcDbSymbolTableRecord
100
AcDbLinetypeTableRecord
  2
Continuous
 70
     0
  3
Solid line
 72
    65
 73
     0
 40
0.0
  0
ENDTAB
  0
TABLE
  2
LAYER
  5
2
330
0
100
AcDbSymbolTable
 70
     7
  0
LAYER
  5
10
330
2
100
AcDbSymbolTableRecord
100
AcDbLayerTableRecord
  2
0
 70
     0
 62
     7
  6
Continuous
370
    -3
390
F
347
46
  0
LAYER
  5
6E
330
2
100
AcDbSymbolTableRecord
100
AcDbLayerTableRecord
  2
Dessin2D$caché$lignes
 70
     0
 62
     7
420
 16777215
  6
Continuous
370
    -3
390
F
347
46
  0
LAYER
  5
77
330
2
100
AcDbSymbolTableRecord
100
AcDbLayerTableRecord
  2
Dessin2D$visible$lignes
 70
     0
 62
   178
420
        0
  6
Continuous
370
    -3
390
F
347
46
  0
LAYER
  5
E1
330
2
100
AcDbSymbolTableRecord
100
AcDbLayerTableRecord
  2
Dessin2D$cotes
 70
     0
 62
   178
420
        0
  6
Continuous
370
    -3
390
F
347
46
  0
LAYER
  5
E5
330
2
100
AcDbSymbolTableRecord
100
AcDbLayerTableRecord
  2
Defpoints
 70
     0
 62
     7
  6
Continuous
290
     0
370
    -3
390
F
347
46
  0
LAYER
  5
133
330
2
100
AcDbSymbolTableRecord
100
AcDbLayerTableRecord
  2
Piece
 70
     0
 62
    21
420
 16753456
  6
Continuous
370
    -3
390
F
347
46
  0
LAYER
  5
17E
330
2
100
AcDbSymbolTableRecord
100
AcDbLayerTableRecord
  2
volumes base
 70
     0
 62
   -74
420
  6067735
  6
Continuous
370
    -3
390
F
347
46
  0
ENDTAB
  0
TABLE
  2
STYLE
  5
3
330
0
100
AcDbSymbolTable
 70
     2
  0
STYLE
  5
11
330
3
100
AcDbSymbolTableRecord
100
AcDbTextStyleTableRecord
  2
Standard
 70
     0
 40
0.0
 41
1.0
 50
0.0
 71
     0
 42
0.2
  3
txt
  4

  0
STYLE
  5
E3
330
3
100
AcDbSymbolTableRecord
100
AcDbTextStyleTableRecord
  2
Arial Regular
 70
     0
 40
0.0
 41
1.0
 50
0.0
 71
     0
 42
0.2
  3

  4

1001
ACAD
1000
Arial
1071
      256
  0
ENDTAB
  0
TABLE
  2
VIEW
  5
6
330
0
100
AcDbSymbolTable
 70
     0
  0
ENDTAB
  0
TABLE
  2
UCS
  5
7
330
0
100
AcDbSymbolTable
 70
     0
  0
ENDTAB
  0
TABLE
  2
APPID
  5
9
330
0
100
AcDbSymbolTable
 70
     2
  0
APPID
  5
12
330
9
100
AcDbSymbolTableRecord
100
AcDbRegAppTableRecord
  2
ACAD
 70
     0
  0
APPID
  5
197
330
9
100
AcDbSymbolTableRecord
100
AcDbRegAppTableRecord
  2
ACAD_MLEADERVER
 70
     0
  0
ENDTAB
  0
TABLE
  2
DIMSTYLE
  5
A
330
0
100
AcDbSymbolTable
 70
     2
100
AcDbDimStyleTable
  0
DIMSTYLE
105
27
330
A
100
AcDbSymbolTableRecord
100
AcDbDimStyleTableRecord
  2
STANDARD_ACAD
 70
     0
178
     0
340
11
  0
DIMSTYLE
105
E2
102
{ACAD_REACTORS
330
E4
330
F2
330
FE
330
10A
330
117
330
125
102
}
330
A
100
AcDbSymbolTableRecord
100
AcDbDimStyleTableRecord
  2
Défaut
 70
     0
 41
1.0
 42
0.5
 44
0.5
 73
     0
 77
     1
 78
     1
 79
     1
140
1.0
141
0.5
143
1.0
147
0.25
174
     1
178
     0
179
     2
271
     2
279
     1
284
     1
340
E3
  0
ENDTAB
  0
TABLE
  2
BLOCK_RECORD
  5
1
330
0
100
AcDbSymbolTable
 70
     7
  0
BLOCK_RECORD
  5
1F
330
1
100
AcDbSymbolTableRecord
100
AcDbBlockTableRecord
  2
*Model_Space
340
22
 70
     0
280
     1
281
     0
  0
BLOCK_RECORD
  5
1B
330
1
100
AcDbSymbolTableRecord
100
AcDbBlockTableRecord
  2
*Paper_Space
340
1E
 70
     0
280
     1
281
     0
  0
BLOCK_RECORD
  5
23
330
1
100
AcDbSymbolTableRecord
100
AcDbBlockTableRecord
  2
*Paper_Space0
340
26
 70
     0
280
     1
281
     0
  0
BLOCK_RECORD
  5
E6
330
1
100
AcDbSymbolTableRecord
100
AcDbBlockTableRecord
  2
*D1
340
0
 70
     0
280
     1
281
     0
  0
BLOCK_RECORD
  5
F3
330
1
100
AcDbSymbolTableRecord
100
AcDbBlockTableRecord
  2
*D2
340
0
 70
     0
280
     1
281
     0
  0
BLOCK_RECORD
  5
FF
330
1
100
AcDbSymbolTableRecord
100
AcDbBlockTableRecord
  2
*D3
340
0
 70
     0
280
     1
281
     0
  0
BLOCK_RECORD
  5
10B
330
1
100
AcDbSymbolTableRecord
100
AcDbBlockTableRecord
  2
*D4
340
0
 70
     0
280
     1
281
     0
  0
BLOCK_RECORD
  5
118
330
1
100
AcDbSymbolTableRecord
100
AcDbBlockTableRecord
  2
*D5
340
0
 70
     0
280
     1
281
     0
  0
BLOCK_RECORD
  5
126
330
1
100
AcDbSymbolTableRecord
100
AcDbBlockTableRecord
  2
*D6
340
0
 70
     0
280
     1
281
     0
  0
ENDTAB
  0
ENDSEC
  0
SECTION
  2
BLOCKS
  0
BLOCK
  5
20
330
1F
100
AcDbEntity
  8
0
100
AcDbBlockBegin
  2
*Model_Space
 70
     0
 10
0.0
 20
0.0
 30
0.0
  3
*Model_Space
  1

  0
ENDBLK
  5
21
330
1F
100
AcDbEntity
  8
0
100
AcDbBlockEnd
  0
BLOCK
  5
1C
330
1B
100
AcDbEntity
 67
     1
  8
0
100
AcDbBlockBegin
  2
*Paper_Space
 70
     0
 10
0.0
 20
0.0
 30
0.0
  3
*Paper_Space
  1

  0
ENDBLK
  5
1D
330
1B
100
AcDbEntity
 67
     1
  8
0
100
AcDbBlockEnd
  0
BLOCK
  5
24
330
23
100
AcDbEntity
  8
0
100
AcDbBlockBegin
  2
*Paper_Space0
 70
     0
 10
0.0
 20
0.0
 30
0.0
  3
*Paper_Space0
  1

  0
ENDBLK
  5
25
330
23
100
AcDbEntity
  8
0
100
AcDbBlockEnd
  0
BLOCK
  5
E7
330
E6
100
AcDbEntity
  8
0
100
AcDbBlockBegin
  2
*D1
 70
     1
 10
0.0
 20
0.0
 30
0.0
  3
*D1
  1

  0
LINE
  5
E9
330
E6
100
AcDbEntity
  8
Dessin2D$cotes
 62
     0
370
    -2
100
AcDbLine
 10
-18.22949016875157
 20
57.27050983124843
 30
0.0
 11
-14.22949016875157
 21
57.27050983124843
 31
0.0
  0
LINE
  5
EA
330
E6
100
AcDbEntity
  8
Dessin2D$cotes
 62
     0
370
    -2
100
AcDbLine
 10
-18.22949016875157
 20
51.27050983124843
 30
0.0
 11
-14.22949016875157
 21
51.27050983124843
 31
0.0
  0
LINE
  5
EB
330
E6
100
AcDbEntity
  8
Dessin2D$cotes
 62
     0
370
    -2
100
AcDbLine
 10
-14.72949016875157
 20
56.27050983124843
 30
0.0
 11
-14.72949016875157
 21
52.27050983124843
 31
0.0
  0
SOLID
  5
EC
330
E6
100
AcDbEntity
  8
Dessin2D$cotes
 62
     0
100
AcDbTrace
 10
-14.56282350208491
 20
56.27050983124843
 30
0.0
 11
-14.89615683541824
 21
56.27050983124843
 31
0.0
 12
-14.72949016875157
 22
57.27050983124843
 32
0.0
 13
-14.72949016875157
 23
57.27050983124843
 33
0.0
  0
SOLID
  5
ED
330
E6
100
AcDbEntity
  8
Dessin2D$cotes
 62
     0
100
AcDbTrace
 10
-14.89615683541824
 20
52.27050983124843
 30
0.0
 11
-14.56282350208491
 21
52.27050983124843
 31
0.0
 12
-14.72949016875157
 22
51.27050983124843
 32
0.0
 13
-14.72949016875157
 23
51.27050983124843
 33
0.0
  0
MTEXT
  5
EE
330
E6
100
AcDbEntity
  8
Dessin2D$cotes
 62
     0
100
AcDbMText
 10
-15.47949016875157
 20
54.27050983124843
 30
0.0
 40
1.0
 41
0.0
 46
0.0
 71
     5
 72
     1
  1
\A1;6.00
  7
Arial Regular
 11
0.0
 21
1.0
 31
0.0
 73
     1
 44
1.0
  0
POINT
  5
EF
330
E6
100
AcDbEntity
  8
Defpoints
 62
     0
100
AcDbPoint
 10
-18.72949016875157
 20
57.27050983124843
 30
0.0
  0
POINT
  5
F0
330
E6
100
AcDbEntity
  8
Defpoints
 62
     0
100
AcDbPoint
 10
-18.72949016875157
 20
51.27050983124843
 30
0.0
  0
POINT
  5
F1
330
E6
100
AcDbEntity
  8
Defpoints
 62
     0
100
AcDbPoint
 10
-14.72949016875157
 20
51.27050983124843
 30
0.0
  0
ENDBLK
  5
E8
330
E6
100
AcDbEntity
  8
0
100
AcDbBlockEnd
  0
BLOCK
  5
F4
330
F3
100
AcDbEntity
  8
0
100
AcDbBlockBegin
  2
*D2
 70
     1
 10
0.0
 20
0.0
 30
0.0
  3
*D2
  1

  0
LINE
  5
F6
330
F3
100
AcDbEntity
  8
Dessin2D$cotes
 62
     0
370
    -2
100
AcDbLine
 10
-12.75943928466058
 20
39.17988779430976
 30
0.0
 11
-13.75943928466058
 21
39.17988779430976
 31
0.0
  0
LINE
  5
F7
330
F3
100
AcDbEntity
  8
Dessin2D$cotes
 62
     0
370
    -2
100
AcDbLine
 10
-13.75943928466058
 20
39.17988779430976
 30
0.0
 11
-18.27145165908291
 21
37.48657380264252
 31
0.0
  0
MTEXT
  5
F8
330
F3
100
AcDbEntity
  8
Dessin2D$cotes
 62
     0
100
AcDbMText
 10
-10.05705833227963
 20
39.17988779430976
 30
0.0
 40
1.0
 41
0.0
 46
0.0
 71
     5
 72
     1
  1
\A1;Ø15.00
  7
Arial Regular
 73
     1
 44
1.0
  0
SOLID
  5
F9
330
F3
100
AcDbEntity
  8
Dessin2D$cotes
 62
     0
100
AcDbTrace
 10
-18.33001192972296
 20
37.64261377342034
 30
0.0
 11
-18.21289138844286
 21
37.3305338318647
 31
0.0
 12
-19.20769148374981
 22
37.13521217880222
 32
0.0
 13
-19.20769148374981
 23
37.13521217880222
 33
0.0
  0
LINE
  5
FA
330
F3
100
AcDbEntity
  8
Dessin2D$cotes
 62
     0
100
AcDbLine
 10
-26.72949016875155
 20
34.5
 30
0.0
 11
-25.72949016875155
 21
34.5
 31
0.0
  0
LINE
  5
FB
330
F3
100
AcDbEntity
  8
Dessin2D$cotes
 62
     0
100
AcDbLine
 10
-26.22949016875155
 20
34.0
 30
0.0
 11
-26.22949016875155
 21
35.0
 31
0.0
  0
POINT
  5
FC
330
F3
100
AcDbEntity
  8
Defpoints
 62
     0
100
AcDbPoint
 10
-19.20769148374981
 20
37.13521217880222
 30
0.0
  0
POINT
  5
FD
330
F3
100
AcDbEntity
  8
Defpoints
 62
     0
100
AcDbPoint
 10
-33.25128885375328
 20
31.86478782119778
 30
0.0
  0
ENDBLK
  5
F5
330
F3
100
AcDbEntity
  8
0
100
AcDbBlockEnd
  0
BLOCK
  5
100
330
FF
100
AcDbEntity
  8
0
100
AcDbBlockBegin
  2
*D3
 70
     1
 10
0.0
 20
0.0
 30
0.0
  3
*D3
  1

  0
LINE
  5
102
330
FF
100
AcDbEntity
  8
Dessin2D$cotes
 62
     0
370
    -2
100
AcDbLine
 10
-11.45538799307743
 20
43.67658965002513
 30
0.0
 11
-12.45538799307743
 21
43.67658965002513
 31
0.0
  0
LINE
  5
103
330
FF
100
AcDbEntity
  8
Dessin2D$cotes
 62
     0
370
    -2
100
AcDbLine
 10
-12.45538799307743
 20
43.67658965002513
 30
0.0
 11
-21.73019359597224
 21
39.18090127015787
 31
0.0
  0
MTEXT
  5
104
330
FF
100
AcDbEntity
  8
Dessin2D$cotes
 62
     0
100
AcDbMText
 10
-9.229197516886957
 20
43.67658965002513
 30
0.0
 40
1.0
 41
0.0
 46
0.0
 71
     5
 72
     1
  1
\A1;Ø8.00
  7
Arial Regular
 73
     1
 44
1.0
  0
SOLID
  5
105
330
FF
100
AcDbEntity
  8
Dessin2D$cotes
 62
     0
100
AcDbTrace
 10
-21.80289030497751
 20
39.33087782258384
 30
0.0
 11
-21.65749688696698
 21
39.03092471773189
 31
0.0
 12
-22.63005291052811
 22
38.74472101612629
 32
0.0
 13
-22.63005291052811
 23
38.74472101612629
 33
0.0
  0
LINE
  5
106
330
FF
100
AcDbEntity
  8
Dessin2D$cotes
 62
     0
100
AcDbLine
 10
-26.72949016875165
 20
36.99999999999996
 30
0.0
 11
-25.72949016875165
 21
36.99999999999996
 31
0.0
  0
LINE
  5
107
330
FF
100
AcDbEntity
  8
Dessin2D$cotes
 62
     0
100
AcDbLine
 10
-26.22949016875165
 20
36.49999999999996
 30
0.0
 11
-26.22949016875165
 21
37.49999999999996
 31
0.0
  0
POINT
  5
108
330
FF
100
AcDbEntity
  8
Defpoints
 62
     0
100
AcDbPoint
 10
-22.63005291052811
 20
38.74472101612629
 30
0.0
  0
POINT
  5
109
330
FF
100
AcDbEntity
  8
Defpoints
 62
     0
100
AcDbPoint
 10
-29.82892742697518
 20
35.25527898387362
 30
0.0
  0
ENDBLK
  5
101
330
FF
100
AcDbEntity
  8
0
100
AcDbBlockEnd
  0
BLOCK
  5
10C
330
10B
100
AcDbEntity
  8
0
100
AcDbBlockBegin
  2
*D4
 70
     1
 10
0.0
 20
0.0
 30
0.0
  3
*D4
  1

  0
LINE
  5
10E
330
10B
100
AcDbEntity
  8
Dessin2D$cotes
 62
     0
370
    -2
100
AcDbLine
 10
-42.50073480823785
 20
56.25327239201457
 30
0.0
 11
-39.50073480823785
 21
56.25327239201457
 31
0.0
  0
LINE
  5
10F
330
10B
100
AcDbEntity
  8
Dessin2D$cotes
 62
     0
370
    -2
100
AcDbLine
 10
-42.50073480823902
 20
52.25327239201457
 30
0.0
 11
-39.50073480823785
 21
52.25327239201457
 31
0.0
  0
LINE
  5
110
330
10B
100
AcDbEntity
  8
Dessin2D$cotes
 62
     0
370
    -2
100
AcDbLine
 10
-40.00073480823785
 20
55.25327239201457
 30
0.0
 11
-40.00073480823785
 21
53.25327239201457
 31
0.0
  0
SOLID
  5
111
330
10B
100
AcDbEntity
  8
Dessin2D$cotes
 62
     0
100
AcDbTrace
 10
-39.83406814157119
 20
55.25327239201457
 30
0.0
 11
-40.16740147490452
 21
55.25327239201457
 31
0.0
 12
-40.00073480823785
 22
56.25327239201457
 32
0.0
 13
-40.00073480823785
 23
56.25327239201457
 33
0.0
  0
SOLID
  5
112
330
10B
100
AcDbEntity
  8
Dessin2D$cotes
 62
     0
100
AcDbTrace
 10
-40.16740147490452
 20
53.25327239201457
 30
0.0
 11
-39.83406814157119
 21
53.25327239201457
 31
0.0
 12
-40.00073480823785
 22
52.25327239201457
 32
0.0
 13
-40.00073480823785
 23
52.25327239201457
 33
0.0
  0
MTEXT
  5
113
330
10B
100
AcDbEntity
  8
Dessin2D$cotes
 62
     0
100
AcDbMText
 10
-40.75073480823785
 20
54.25327239201457
 30
0.0
 40
1.0
 41
0.0
 46
0.0
 71
     5
 72
     1
  1
\A1;4.00
  7
Arial Regular
 11
0.0
 21
1.0
 31
0.0
 73
     1
 44
1.0
  0
POINT
  5
114
330
10B
100
AcDbEntity
  8
Defpoints
 62
     0
100
AcDbPoint
 10
-43.00073480823785
 20
56.25327239201457
 30
0.0
  0
POINT
  5
115
330
10B
100
AcDbEntity
  8
Defpoints
 62
     0
100
AcDbPoint
 10
-43.00073480823902
 20
52.25327239201457
 30
0.0
  0
POINT
  5
116
330
10B
100
AcDbEntity
  8
Defpoints
 62
     0
100
AcDbPoint
 10
-40.00073480823785
 20
52.25327239201457
 30
0.0
  0
ENDBLK
  5
10D
330
10B
100
AcDbEntity
  8
0
100
AcDbBlockEnd
  0
BLOCK
  5
119
330
118
100
AcDbEntity
  8
0
100
AcDbBlockBegin
  2
*D5
 70
     1
 10
0.0
 20
0.0
 30
0.0
  3
*D5
  1

  0
LINE
  5
11B
330
118
100
AcDbEntity
  8
Dessin2D$cotes
 62
     0
370
    -2
100
AcDbLine
 10
-43.00073480823785
 20
56.75327239201457
 30
0.0
 11
-43.00073480823785
 21
62.75327239201457
 31
0.0
  0
LINE
  5
11C
330
118
100
AcDbEntity
  8
Dessin2D$cotes
 62
     0
370
    -2
100
AcDbLine
 10
-46.0
 20
56.75327239201457
 30
0.0
 11
-46.0
 21
62.75327239201457
 31
0.0
  0
LINE
  5
11D
330
118
100
AcDbEntity
  8
Dessin2D$cotes
 62
     0
370
    -2
100
AcDbLine
 10
-46.0
 20
62.25327239201457
 30
0.0
 11
-50.54761904761905
 21
62.25327239201457
 31
0.0
  0
LINE
  5
11E
330
118
100
AcDbEntity
  8
Dessin2D$cotes
 62
     0
370
    -2
100
AcDbLine
 10
-44.00073480823785
 20
62.25327239201457
 30
0.0
 11
-45.0
 21
62.25327239201457
 31
0.0
  0
SOLID
  5
11F
330
118
100
AcDbEntity
  8
Dessin2D$cotes
 62
     0
100
AcDbTrace
 10
-44.00073480823785
 20
62.0866057253479
 30
0.0
 11
-44.00073480823785
 21
62.41993905868123
 31
0.0
 12
-43.00073480823785
 22
62.25327239201457
 32
0.0
 13
-43.00073480823785
 23
62.25327239201457
 33
0.0
  0
SOLID
  5
120
330
118
100
AcDbEntity
  8
Dessin2D$cotes
 62
     0
100
AcDbTrace
 10
-45.0
 20
62.41993905868123
 30
0.0
 11
-45.0
 21
62.0866057253479
 31
0.0
 12
-46.0
 22
62.25327239201457
 32
0.0
 13
-46.0
 23
62.25327239201457
 33
0.0
  0
MTEXT
  5
121
330
118
100
AcDbEntity
  8
Dessin2D$cotes
 62
     0
100
AcDbMText
 10
-48.77380952380953
 20
63.00327239201457
 30
0.0
 40
1.0
 41
0.0
 46
0.0
 71
     5
 72
     1
  1
\A1;3.00
  7
Arial Regular
 73
     1
 44
1.0
  0
POINT
  5
122
330
118
100
AcDbEntity
  8
Defpoints
 62
     0
100
AcDbPoint
 10
-43.00073480823785
 20
56.25327239201457
 30
0.0
  0
POINT
  5
123
330
118
100
AcDbEntity
  8
Defpoints
 62
     0
100
AcDbPoint
 10
-46.0
 20
56.25327239201457
 30
0.0
  0
POINT
  5
124
330
118
100
AcDbEntity
  8
Defpoints
 62
     0
100
AcDbPoint
 10
-46.0
 20
62.25327239201457
 30
0.0
  0
ENDBLK
  5
11A
330
118
100
AcDbEntity
  8
0
100
AcDbBlockEnd
  0
BLOCK
  5
127
330
126
100
AcDbEntity
  8
0
100
AcDbBlockBegin
  2
*D6
 70
     1
 10
0.0
 20
0.0
 30
0.0
  3
*D6
  1

  0
LINE
  5
129
330
126
100
AcDbEntity
  8
Dessin2D$cotes
 62
     0
370
    -2
100
AcDbLine
 10
-56.89809782649087
 20
61.72703157037862
 30
0.0
 11
-55.89809782649087
 21
61.72703157037862
 31
0.0
  0
LINE
  5
12A
330
126
100
AcDbEntity
  8
Dessin2D$cotes
 62
     0
370
    -2
100
AcDbLine
 10
-55.89809782649087
 20
61.72703157037862
 30
0.0
 11
-54.96072134184293
 21
56.72769029917183
 31
0.0
  0
MTEXT
  5
12B
330
126
100
AcDbEntity
  8
Dessin2D$cotes
 62
     0
100
AcDbMText
 10
-59.12428830268134
 20
61.72703157037862
 30
0.0
 40
1.0
 41
0.0
 46
0.0
 71
     5
 72
     1
  1
\A1;Ø3.00
  7
Arial Regular
 73
     1
 44
1.0
  0
SOLID
  5
12C
330
126
100
AcDbEntity
  8
Dessin2D$cotes
 62
     0
100
AcDbTrace
 10
-55.12453337302063
 20
56.69697554344736
 30
0.0
 11
-54.79690931066523
 21
56.75840505489631
 31
0.0
 12
-54.77643280749609
 22
55.74481811210563
 32
0.0
 13
-54.77643280749609
 23
55.74481811210563
 33
0.0
  0
LINE
  5
12D
330
126
100
AcDbEntity
  8
Dessin2D$cotes
 62
     0
100
AcDbLine
 10
-55.00000000875072
 20
54.27050984630569
 30
0.0
 11
-54.00000000875072
 21
54.27050984630569
 31
0.0
  0
LINE
  5
12E
330
126
100
AcDbEntity
  8
Dessin2D$cotes
 62
     0
100
AcDbLine
 10
-54.50000000875072
 20
53.77050984630569
 30
0.0
 11
-54.50000000875072
 21
54.77050984630569
 31
0.0
  0
POINT
  5
12F
330
126
100
AcDbEntity
  8
Defpoints
 62
     0
100
AcDbPoint
 10
-54.77643280749609
 20
55.74481811210563
 30
0.0
  0
POINT
  5
130
330
126
100
AcDbEntity
  8
Defpoints
 62
     0
100
AcDbPoint
 10
-54.22356721000534
 20
52.79620158050574
 30
0.0
  0
ENDBLK
  5
128
330
126
100
AcDbEntity
  8
0
100
AcDbBlockEnd
  0
ENDSEC
  0
SECTION
  2
ENTITIES
  0
LINE
  5
6F
330
1F
100
AcDbEntity
  8
Dessin2D$caché$lignes
100
AcDbLine
 10
-53.67016136284654
 20
55.52050983124843
 30
0.0
 11
-52.0
 21
55.52050983124843
 31
0.0
  0
LINE
  5
70
330
1F
100
AcDbEntity
  8
Dessin2D$caché$lignes
100
AcDbLine
 10
-53.67020216214453
 20
53.02050983124843
 30
0.0
 11
-52.0
 21
53.02050983124843
 31
0.0
  0
LINE
  5
71
330
1F
100
AcDbEntity
  8
Dessin2D$caché$lignes
100
AcDbLine
 10
-58.0
 20
55.52050983124843
 30
0.0
 11
-55.32986044671982
 21
55.52050983124843
 31
0.0
  0
LINE
  5
72
330
1F
100
AcDbEntity
  8
Dessin2D$caché$lignes
100
AcDbLine
 10
-58.0
 20
53.02050983124843
 30
0.0
 11
-55.32981900298797
 21
53.02050983124843
 31
0.0
  0
LINE
  5
73
330
1F
100
AcDbEntity
  8
Dessin2D$caché$lignes
100
AcDbLine
 10
-44.0
 20
52.25327239201457
 30
0.0
 11
-44.0
 21
51.27050983124843
 31
0.0
  0
LINE
  5
74
330
1F
100
AcDbEntity
  8
Dessin2D$caché$lignes
100
AcDbLine
 10
-44.0
 20
57.27050983124843
 30
0.0
 11
-44.0
 21
56.25327239201457
 31
0.0
  0
LINE
  5
75
330
1F
100
AcDbEntity
  8
Dessin2D$caché$lignes
100
AcDbLine
 10
-52.0
 20
53.02050983124842
 30
0.0
 11
-52.0
 21
51.27050983124843
 31
0.0
  0
LINE
  5
76
330
1F
100
AcDbEntity
  8
Dessin2D$caché$lignes
100
AcDbLine
 10
-52.0
 20
57.27050983124843
 30
0.0
 11
-52.0
 21
55.52050983124843
 31
0.0
  0
LINE
  5
78
330
1F
100
AcDbEntity
  8
Dessin2D$visible$lignes
100
AcDbLine
 10
-43.0
 20
52.25327239201457
 30
0.0
 11
-43.0
 21
51.27050983124843
 31
0.0
  0
LINE
  5
79
330
1F
100
AcDbEntity
  8
Dessin2D$visible$lignes
100
AcDbLine
 10
-43.0
 20
57.27050983124843
 30
0.0
 11
-43.0
 21
56.25327239201457
 31
0.0
  0
LINE
  5
7A
330
1F
100
AcDbEntity
  8
Dessin2D$visible$lignes
100
AcDbLine
 10
-58.0
 20
53.02050983124842
 30
0.0
 11
-58.0
 21
51.27050983124843
 31
0.0
  0
LINE
  5
7B
330
1F
100
AcDbEntity
  8
Dessin2D$visible$lignes
100
AcDbLine
 10
-58.0
 20
57.27050983124843
 30
0.0
 11
-58.0
 21
55.52050983124843
 31
0.0
  0
SPLINE
  5
7C
330
1F
100
AcDbEntity
  8
Dessin2D$caché$lignes
100
AcDbSpline
210
0.0
220
0.0
230
1.0
 70
     8
 71
     3
 72
    11
 73
     7
 74
     0
 42
0.000000001
 43
0.0000000001
 40
0.0
 40
0.0
 40
0.0
 40
0.0
 40
0.1672000837096241
 40
0.3278425403602337
 40
0.6558539421219299
 40
1.270877041934123
 40
1.270877041934123
 40
1.270877041934123
 40
1.270877041934123
 10
-52.0
 20
55.52050983124843
 30
0.0
 10
-51.98333477464764
 20
55.46732958492902
 30
0.0
 10
-51.95246184344563
 20
55.36247541580154
 30
0.0
 10
-51.89796642882348
 20
55.15073669683247
 30
0.0
 10
-51.8254856036607
 20
54.78977332262012
 30
0.0
 10
-51.79969167359745
 20
54.47553866155451
 30
0.0
 10
-51.79967103839267
 20
54.27050983124843
 30
0.0
  0
SPLINE
  5
7D
330
1F
100
AcDbEntity
  8
Dessin2D$caché$lignes
100
AcDbSpline
210
0.0
220
0.0
230
1.0
 70
     8
 71
     3
 72
    11
 73
     7
 74
     0
 42
0.000000001
 43
0.0000000001
 40
0.0
 40
0.0
 40
0.0
 40
0.0
 40
0.1481234226959811
 40
0.3175625744659744
 40
0.6150230998121855
 40
1.270877041934123
 40
1.270877041934123
 40
1.270877041934123
 40
1.270877041934123
 10
-51.79967103839266
 20
54.27050983124843
 30
0.0
 10
-51.79964615345364
 20
54.22113765458252
 30
0.0
 10
-51.80184937923836
 20
54.11527784613816
 30
0.0
 10
-51.81426675085174
 20
53.91061457547865
 30
0.0
 10
-51.8596550486694
 20
53.53881012913314
 30
0.0
 10
-51.93471287685274
 20
53.22911437800695
 30
0.0
 10
-52.0
 20
53.02050983124843
 30
0.0
  0
ARC
  5
7E
330
1F
100
AcDbEntity
  8
Dessin2D$visible$lignes
100
AcDbCircle
 10
65.52280820623164
 20
54.25979250812865
 30
0.0
 40
7.627716006548781
210
0.0
220
0.0
230
-1.0
100
AcDbArc
 50
170.4864352402274
 51
179.9194965329128
  0
ARC
  5
7F
330
1F
100
AcDbEntity
  8
Dessin2D$visible$lignes
100
AcDbCircle
 10
65.52280820623359
 20
54.28122715436837
 30
0.0
 40
7.627716006550727
210
0.0
220
0.0
230
-1.0
100
AcDbArc
 50
180.0805034670883
 51
189.5135647597714
  0
SPLINE
  5
80
330
1F
100
AcDbEntity
  8
Dessin2D$visible$lignes
100
AcDbSpline
210
0.0
220
0.0
230
1.0
 70
    15
 71
     2
 72
    16
 73
    13
 74
     0
 42
0.000000001
 43
0.0000000001
 40
0.0
 40
0.0
 40
0.0
 40
2.356194468985843
 40
2.356194468985843
 40
3.935558733357774
 40
3.935558733357774
 40
4.712423002289706
 40
4.712423002289706
 40
5.489287271221633
 40
5.489287271221633
 40
7.068651535593563
 40
7.068651535593563
 40
9.424846004579408
 40
9.424846004579408
 40
9.424846004579408
 10
-53.0
 20
54.27050983124843
 30
0.0
 41
1.0
 10
-53.00000004940893
 20
52.77050988065738
 30
0.0
 41
0.7071068044781461
 10
-54.5
 20
52.77050983124843
 30
0.0
 41
1.0
 10
-55.37174681361014
 20
52.77050982616277
 30
0.0
 41
0.8645938815577011
 10
-55.80330085889911
 20
53.52794207596084
 30
0.0
 41
1.0
 10
-56.00020064497242
 20
53.87312093812204
 30
0.0
 41
0.9665316579148919
 10
-56.0
 20
54.27050983124843
 30
0.0
 41
1.0
 10
-56.00020064497242
 20
54.66789872437482
 30
0.0
 41
0.966531657914893
 10
-55.80330085889911
 20
55.01307758653601
 30
0.0
 41
1.0
 10
-55.37174681361011
 20
55.77050983633407
 30
0.0
 41
0.8645938815577083
 10
-54.5
 20
55.77050983124843
 30
0.0
 41
1.0
 10
-53.00000004940895
 20
55.77050978183948
 30
0.0
 41
0.7071068044781487
 10
-53.0
 20
54.27050983124843
 30
0.0
 41
1.0
  0
LINE
  5
81
330
1F
100
AcDbEntity
  8
Dessin2D$visible$lignes
100
AcDbLine
 10
-46.0
 20
56.25327239201457
 30
0.0
 11
-43.00073480823785
 21
56.25327239201457
 31
0.0
  0
LINE
  5
82
330
1F
100
AcDbEntity
  8
Dessin2D$visible$lignes
100
AcDbLine
 10
-46.0
 20
52.25327239201457
 30
0.0
 11
-43.00073480823902
 21
52.25327239201457
 31
0.0
  0
LINE
  5
83
330
1F
100
AcDbEntity
  8
Dessin2D$visible$lignes
100
AcDbLine
 10
-46.0
 20
52.25327239201457
 30
0.0
 11
-46.0
 21
56.25327239201457
 31
0.0
  0
LINE
  5
84
330
1F
100
AcDbEntity
  8
Dessin2D$visible$lignes
100
AcDbLine
 10
-43.0
 20
51.27050983124843
 30
0.0
 11
-50.5
 21
51.27050983124843
 31
0.0
  0
LINE
  5
85
330
1F
100
AcDbEntity
  8
Dessin2D$visible$lignes
100
AcDbLine
 10
-50.5
 20
51.27050983124843
 30
0.0
 11
-58.0
 21
51.27050983124843
 31
0.0
  0
LINE
  5
86
330
1F
100
AcDbEntity
  8
Dessin2D$visible$lignes
100
AcDbLine
 10
-43.0
 20
57.27050983124843
 30
0.0
 11
-50.5
 21
57.27050983124843
 31
0.0
  0
LINE
  5
87
330
1F
100
AcDbEntity
  8
Dessin2D$visible$lignes
100
AcDbLine
 10
-50.5
 20
57.27050983124843
 30
0.0
 11
-58.0
 21
57.27050983124843
 31
0.0
  0
LINE
  5
88
330
1F
100
AcDbEntity
  8
Dessin2D$caché$lignes
100
AcDbLine
 10
-19.91688981818374
 20
55.77050983124843
 30
0.0
 11
-32.54209051931943
 21
55.77050983124843
 31
0.0
  0
LINE
  5
89
330
1F
100
AcDbEntity
  8
Dessin2D$caché$lignes
100
AcDbLine
 10
-19.91688981818373
 20
52.77050983124843
 30
0.0
 11
-32.54209051931942
 21
52.77050983124843
 31
0.0
  0
LINE
  5
8A
330
1F
100
AcDbEntity
  8
Dessin2D$caché$lignes
100
AcDbLine
 10
-30.22949016875157
 20
57.27050983124843
 30
0.0
 11
-30.22949016875157
 21
51.27050983124843
 31
0.0
  0
LINE
  5
8B
330
1F
100
AcDbEntity
  8
Dessin2D$visible$lignes
100
AcDbLine
 10
-33.72949016875157
 20
57.27050983124843
 30
0.0
 11
-33.72949016875157
 21
51.27050983124843
 31
0.0
  0
CIRCLE
  5
8C
330
1F
100
AcDbEntity
  8
Dessin2D$visible$lignes
100
AcDbCircle
 10
26.22949016875159
 20
54.27050983124845
 30
0.0
 40
1.250000000000018
210
0.0
220
0.0
230
-1.0
  0
SPLINE
  5
8D
330
1F
100
AcDbEntity
  8
Dessin2D$visible$lignes
100
AcDbSpline
210
0.0
220
0.0
230
1.0
 70
    15
 71
     3
 72
    40
 73
    36
 74
     0
 42
0.000000001
 43
0.0000000001
 40
0.0
 40
0.0
 40
0.0
 40
0.0
 40
0.3426912926435643
 40
0.6396110287453877
 40
0.9102401591277721
 40
1.148336475617701
 40
1.332317793830401
 40
1.510942448026449
 40
1.674034373271361
 40
1.836015171007768
 40
1.836015171007768
 40
1.836015171007768
 40
2.795141799219133
 40
2.795141799219133
 40
3.745893518872198
 40
3.745893518872198
 40
3.745893518872198
 40
4.572719296356362
 40
4.572719296356362
 40
4.572719296356362
 40
5.399545073840524
 40
5.399545073840524
 40
5.399545073840524
 40
6.350296793493592
 40
6.350296793493592
 40
7.309423421704955
 40
7.309423421704955
 40
7.309423421704955
 40
7.471404219441384
 40
7.634496144686289
 40
7.813120798882326
 40
7.99710211709503
 40
8.235198433584959
 40
8.505827563967333
 40
9.145438592712742
 40
9.145438592712742
 40
9.145438592712742
 40
9.145438592712742
 10
-19.1584223568861
 20
54.27050983124843
 30
0.0
 41
1.0
 10
-19.15842403435911
 20
54.15627459959168
 30
0.0
 41
1.0
 10
-19.16674183723907
 20
53.94306520063753
 30
0.0
 41
1.0
 10
-19.20409909547652
 20
53.6416456520499
 30
0.0
 41
1.0
 10
-19.26317720560129
 20
53.37928593938409
 30
0.0
 41
1.0
 10
-19.34390428298314
 20
53.16211862566435
 30
0.0
 41
1.0
 10
-19.44673290332533
 20
52.98925267411599
 30
0.0
 41
1.0
 10
-19.57077802184605
 20
52.86284272958289
 30
0.0
 41
1.0
 10
-19.72249690005054
 20
52.78543949605228
 30
0.0
 41
1.0
 10
-19.83128110831156
 20
52.77052296272834
 30
0.0
 41
1.0
 10
-19.88520139852681
 20
52.77050983124843
 30
0.0
 41
1.0
 10
-20.05309747177962
 20
52.77050983124843
 30
0.0
 41
1.0
 10
-20.23920491880871
 20
52.84112057060777
 30
0.0
 41
1.0
 10
-20.60112893680767
 20
53.09447665771972
 30
0.0
 41
1.0
 10
-20.78698149044651
 20
53.28361464684026
 30
0.0
 41
1.0
 10
-20.92618930985247
 20
53.52794207596084
 30
0.0
 41
1.0
 10
-21.04700109899503
 20
53.7399821321489
 30
0.0
 41
1.0
 10
-21.13047065515879
 20
53.9932296205851
 30
0.0
 41
1.0
 10
-21.13047065515879
 20
54.27050983124843
 30
0.0
 41
1.0
 10
-21.13047065515879
 20
54.54779004191175
 30
0.0
 41
1.0
 10
-21.04700109899502
 20
54.80103753034795
 30
0.0
 41
1.0
 10
-20.92618930985247
 20
55.01307758653601
 30
0.0
 41
1.0
 10
-20.78698149044651
 20
55.2574050156566
 30
0.0
 41
1.0
 10
-20.60112893680768
 20
55.44654300477711
 30
0.0
 41
1.0
 10
-20.23920491880871
 20
55.69989909188908
 30
0.0
 41
1.0
 10
-20.05309747177964
 20
55.77050983124843
 30
0.0
 41
1.0
 10
-19.88520139852682
 20
55.77050983124843
 30
0.0
 41
1.0
 10
-19.8312868959246
 20
55.77049431803425
 30
0.0
 41
1.0
 10
-19.72248551744494
 20
55.75558485064546
 30
0.0
 41
1.0
 10
-19.570793621062
 20
55.67817051348207
 30
0.0
 41
1.0
 10
-19.44670640670073
 20
55.55177789234403
 30
0.0
 41
1.0
 10
-19.34395397988782
 20
55.37888058542696
 30
0.0
 41
1.0
 10
-19.26308366076577
 20
55.16177221893845
 30
0.0
 41
1.0
 10
-19.17922798479888
 20
54.78766963226653
 30
0.0
 41
1.0
 10
-19.15881492044837
 20
54.48356220743968
 30
0.0
 41
1.0
 10
-19.1584223568861
 20
54.27050983124842
 30
0.0
 41
1.0
  0
SPLINE
  5
8E
330
1F
100
AcDbEntity
  8
Dessin2D$visible$lignes
100
AcDbSpline
210
0.0
220
0.0
230
1.0
 70
    15
 71
     3
 72
    40
 73
    36
 74
     0
 42
0.000000001
 43
0.0000000001
 40
0.0
 40
0.0
 40
0.0
 40
0.0
 40
0.3426912926435684
 40
0.6396110287453944
 40
0.910240159127775
 40
1.148336475617689
 40
1.332317793830403
 40
1.51094244802645
 40
1.674034373271357
 40
1.836015171007771
 40
1.836015171007771
 40
1.836015171007771
 40
2.795141812980895
 40
2.795141812980895
 40
3.745893546275584
 40
3.745893546275584
 40
3.745893546275584
 40
4.572719335623233
 40
4.572719335623233
 40
4.572719335623233
 40
5.399545124970887
 40
5.399545124970887
 40
5.399545124970887
 40
6.350296858265574
 40
6.350296858265574
 40
7.309423500238696
 40
7.309423500238696
 40
7.309423500238696
 40
7.471404297975111
 40
7.634496223220013
 40
7.813120877416061
 40
7.997102195628763
 40
8.235198512118693
 40
8.505827642501082
 40
9.145438671071831
 40
9.145438671071831
 40
9.145438671071831
 40
9.145438671071831
 10
-33.30055798061704
 20
54.27050983124843
 30
0.0
 41
1.0
 10
-33.30055630314408
 20
54.38474506290514
 30
0.0
 41
1.0
 10
-33.29223850026412
 20
54.59795446185927
 30
0.0
 41
1.0
 10
-33.25488124202656
 20
54.899374010447
 30
0.0
 41
1.0
 10
-33.19580313190187
 20
55.16173372311272
 30
0.0
 41
1.0
 10
-33.1150760545199
 20
55.37890103683257
 30
0.0
 41
1.0
 10
-33.01224743417784
 20
55.55176698838085
 30
0.0
 41
1.0
 10
-32.88820231565711
 20
55.67817693291398
 30
0.0
 41
1.0
 10
-32.73648343745259
 20
55.75558016644457
 30
0.0
 41
1.0
 10
-32.62769922919159
 20
55.77049669976854
 30
0.0
 41
1.0
 10
-32.57377893897635
 20
55.77050983124843
 30
0.0
 41
1.0
 10
-32.40588286572353
 20
55.77050983124843
 30
0.0
 41
1.0
 10
-32.21977541869444
 20
55.69989909188908
 30
0.0
 41
1.0
 10
-31.85785140069547
 20
55.44654300477711
 30
0.0
 41
1.0
 10
-31.67199884705664
 20
55.25740501565659
 30
0.0
 41
1.0
 10
-31.53279102765069
 20
55.01307758653601
 30
0.0
 41
1.0
 10
-31.41197923850812
 20
54.80103753034794
 30
0.0
 41
1.0
 10
-31.32850968234436
 20
54.54779004191175
 30
0.0
 41
1.0
 10
-31.32850968234436
 20
54.27050983124843
 30
0.0
 41
1.0
 10
-31.32850968234436
 20
53.9932296205851
 30
0.0
 41
1.0
 10
-31.41197923850812
 20
53.7399821321489
 30
0.0
 41
1.0
 10
-31.53279102765069
 20
53.52794207596084
 30
0.0
 41
1.0
 10
-31.67199884705664
 20
53.28361464684025
 30
0.0
 41
1.0
 10
-31.85785140069547
 20
53.09447665771972
 30
0.0
 41
1.0
 10
-32.21977541869444
 20
52.84112057060777
 30
0.0
 41
1.0
 10
-32.40588286572353
 20
52.77050983124843
 30
0.0
 41
1.0
 10
-32.57377893897633
 20
52.77050983124843
 30
0.0
 41
1.0
 10
-32.62769344162263
 20
52.77052534446076
 30
0.0
 41
1.0
 10
-32.73649481997155
 20
52.78543481185496
 30
0.0
 41
1.0
 10
-32.8881867165598
 20
52.86284914900992
 30
0.0
 41
1.0
 10
-33.01227393060068
 20
52.98924177016114
 30
0.0
 41
1.0
 10
-33.1150263579941
 20
53.16213907705426
 30
0.0
 41
1.0
 10
-33.19589667601961
 20
53.37924744358901
 30
0.0
 41
1.0
 10
-33.27975235472563
 20
53.75335003007663
 30
0.0
 41
1.0
 10
-33.30016541240263
 20
54.05745745523366
 30
0.0
 41
1.0
 10
-33.30055798061704
 20
54.27050983124843
 30
0.0
 41
1.0
  0
LINE
  5
8F
330
1F
100
AcDbEntity
  8
Dessin2D$caché$lignes
100
AcDbLine
 10
-22.76538855361382
 20
56.25327239201457
 30
0.0
 11
-20.22949016875157
 21
56.25327239201457
 31
0.0
  0
LINE
  5
90
330
1F
100
AcDbEntity
  8
Dessin2D$caché$lignes
100
AcDbLine
 10
-22.76538855361382
 20
52.25327239201457
 30
0.0
 11
-20.22949016875158
 21
52.25327239201457
 31
0.0
  0
LINE
  5
91
330
1F
100
AcDbEntity
  8
Dessin2D$caché$lignes
100
AcDbLine
 10
-22.76538855361382
 20
56.25327239201457
 30
0.0
 11
-22.76538855361382
 21
52.25327239201457
 31
0.0
  0
LINE
  5
92
330
1F
100
AcDbEntity
  8
Dessin2D$caché$lignes
100
AcDbLine
 10
-29.69359178388933
 20
56.25327239201457
 30
0.0
 11
-22.76538855361382
 21
56.25327239201457
 31
0.0
  0
LINE
  5
93
330
1F
100
AcDbEntity
  8
Dessin2D$caché$lignes
100
AcDbLine
 10
-29.69359178388933
 20
52.25327239201457
 30
0.0
 11
-22.76538855361382
 21
52.25327239201457
 31
0.0
  0
LINE
  5
94
330
1F
100
AcDbEntity
  8
Dessin2D$caché$lignes
100
AcDbLine
 10
-22.22949016875157
 20
57.27050983124843
 30
0.0
 11
-22.22949016875157
 21
51.27050983124843
 31
0.0
  0
LINE
  5
95
330
1F
100
AcDbEntity
  8
Dessin2D$caché$lignes
100
AcDbLine
 10
-32.22949016875157
 20
52.25327239201457
 30
0.0
 11
-29.69359178388933
 21
52.25327239201457
 31
0.0
  0
LINE
  5
96
330
1F
100
AcDbEntity
  8
Dessin2D$caché$lignes
100
AcDbLine
 10
-32.22949016875157
 20
56.25327239201457
 30
0.0
 11
-29.69359178388933
 21
56.25327239201457
 31
0.0
  0
LINE
  5
97
330
1F
100
AcDbEntity
  8
Dessin2D$caché$lignes
100
AcDbLine
 10
-29.69359178388933
 20
52.25327239201457
 30
0.0
 11
-29.69359178388933
 21
56.25327239201457
 31
0.0
  0
LINE
  5
98
330
1F
100
AcDbEntity
  8
Dessin2D$caché$lignes
100
AcDbLine
 10
-20.22949016875158
 20
52.25327239201457
 30
0.0
 11
-20.22949016875157
 21
56.25327239201457
 31
0.0
  0
LINE
  5
99
330
1F
100
AcDbEntity
  8
Dessin2D$caché$lignes
100
AcDbLine
 10
-32.22949016875157
 20
56.25327239201457
 30
0.0
 11
-32.22949016875157
 21
52.25327239201457
 31
0.0
  0
LINE
  5
9A
330
1F
100
AcDbEntity
  8
Dessin2D$visible$lignes
100
AcDbLine
 10
-18.72949016875157
 20
51.27050983124843
 30
0.0
 11
-33.72949016875157
 21
51.27050983124843
 31
0.0
  0
LINE
  5
9B
330
1F
100
AcDbEntity
  8
Dessin2D$visible$lignes
100
AcDbLine
 10
-18.72949016875157
 20
57.27050983124843
 30
0.0
 11
-18.72949016875157
 21
51.27050983124843
 31
0.0
  0
LINE
  5
9C
330
1F
100
AcDbEntity
  8
Dessin2D$visible$lignes
100
AcDbLine
 10
-18.72949016875157
 20
57.27050983124843
 30
0.0
 11
-33.72949016875157
 21
57.27050983124843
 31
0.0
  0
LINE
  5
9D
330
1F
100
AcDbEntity
  8
Dessin2D$caché$lignes
100
AcDbLine
 10
-27.47949016875157
 20
32.0
 30
0.0
 11
-27.47949016875157
 21
33.20032896160733
 31
0.0
  0
LINE
  5
9E
330
1F
100
AcDbEntity
  8
Dessin2D$caché$lignes
100
AcDbLine
 10
-27.47949016875157
 20
27.10490224451829
 30
0.0
 11
-27.47949016875157
 21
29.0
 31
0.0
  0
LINE
  5
9F
330
1F
100
AcDbEntity
  8
Dessin2D$caché$lignes
100
AcDbLine
 10
-27.47949016875157
 20
29.0
 30
0.0
 11
-31.32850968234436
 21
29.0
 31
0.0
  0
LINE
  5
A0
330
1F
100
AcDbEntity
  8
Dessin2D$caché$lignes
100
AcDbLine
 10
-21.1304706551588
 20
29.0
 30
0.0
 11
-24.97949016875158
 21
29.0
 31
0.0
  0
SPLINE
  5
A1
330
1F
100
AcDbEntity
  8
Dessin2D$caché$lignes
100
AcDbSpline
210
0.0
220
0.0
230
1.0
 70
     8
 71
     3
 72
    19
 73
    15
 74
     0
 42
0.000000001
 43
0.0000000001
 40
0.0
 40
0.0
 40
0.0
 40
0.0
 40
0.2716501221770617
 40
0.4995584850175414
 40
0.8832130413364817
 40
1.189002605388338
 40
1.445158297096478
 40
1.445158297096478
 40
1.445158297096478
 40
1.567265184045674
 40
1.701313988804615
 40
2.007103552856441
 40
2.39075810917543
 40
2.89031659419296
 40
2.89031659419296
 40
2.89031659419296
 40
2.89031659419296
 10
-24.97949016875157
 20
32.0
 30
0.0
 10
-25.04903892616916
 20
31.94200960358463
 30
0.0
 10
-25.17823506477299
 20
31.83693799752722
 30
0.0
 10
-25.41320400800955
 20
31.65944368341572
 30
0.0
 10
-25.66848534521878
 20
31.49045891334691
 30
0.0
 10
-25.95731939065448
 20
31.35985967989888
 30
0.0
 10
-26.14405306711079
 20
31.32885237166104
 30
0.0
 10
-26.22949016875157
 20
31.32915619758885
 30
0.0
 10
-26.27023264636453
 20
31.32921905784045
 30
0.0
 10
-26.35549418721386
 20
31.33543969651586
 30
0.0
 10
-26.53896090430213
 20
31.37681982565568
 30
0.0
 10
-26.79049861350096
 20
31.49037090293415
 30
0.0
 10
-27.12135704281842
 20
31.70959038538182
 30
0.0
 10
-27.35156635032182
 20
31.89342515938034
 30
0.0
 10
-27.47949016875157
 20
32.0
 30
0.0
  0
LINE
  5
A2
330
1F
100
AcDbEntity
  8
Dessin2D$caché$lignes
100
AcDbLine
 10
-24.97949016875157
 20
32.0
 30
0.0
 11
-24.97949016875157
 21
33.20032896160733
 31
0.0
  0
SPLINE
  5
A3
330
1F
100
AcDbEntity
  8
Dessin2D$caché$lignes
100
AcDbSpline
210
0.0
220
0.0
230
1.0
 70
    12
 71
     3
 72
    22
 73
    18
 74
     0
 42
0.000000001
 43
0.0000000001
 40
4.190315613486972
 40
4.190315613486972
 40
4.190315613486972
 40
4.190315613486972
 40
4.223667483020774
 40
4.223667483020774
 40
4.223667483020774
 40
4.495317605197836
 40
4.723225968038314
 40
5.106880524357261
 40
5.412670088409115
 40
5.66882578011725
 40
5.66882578011725
 40
5.66882578011725
 40
5.790932667066448
 40
5.924981471825392
 40
6.230771035877219
 40
6.614425592196202
 40
7.113984077213733
 40
7.113984077213733
 40
7.113984077213733
 40
7.113984077213733
 10
-27.47905001178005
 20
29.00037077928486
 30
0.0
 41
1.0
 10
-27.47934281992787
 20
29.00012431077472
 30
0.0
 41
1.0
 10
-27.47949016875157
 20
29.0
 30
0.0
 41
1.0
 10
-27.47949016875157
 20
29.0
 30
0.0
 41
1.0
 10
-27.40994141133398
 20
29.05799039641537
 30
0.0
 41
1.0
 10
-27.28074527273013
 20
29.16306200247278
 30
0.0
 41
1.0
 10
-27.04577632949358
 20
29.34055631658428
 30
0.0
 41
1.0
 10
-26.79049499228438
 20
29.50954108665309
 30
0.0
 41
1.0
 10
-26.50166094684867
 20
29.64014032010113
 30
0.0
 41
1.0
 10
-26.31492727039233
 20
29.67114762833897
 30
0.0
 41
1.0
 10
-26.22949016875158
 20
29.67084380241115
 30
0.0
 41
1.0
 10
-26.18874769113867
 20
29.67078094215953
 30
0.0
 41
1.0
 10
-26.10348615028919
 20
29.66456030348415
 30
0.0
 41
1.0
 10
-25.92001943320113
 20
29.62318017434431
 30
0.0
 41
1.0
 10
-25.66848172400219
 20
29.50962909706585
 30
0.0
 41
1.0
 10
-25.33762329468476
 20
29.29040961461817
 30
0.0
 41
1.0
 10
-25.10741398718133
 20
29.10657484061966
 30
0.0
 41
1.0
 10
-24.97949016875157
 20
29.0
 30
0.0
 41
1.0
  0
LINE
  5
A4
330
1F
100
AcDbEntity
  8
Dessin2D$caché$lignes
100
AcDbLine
 10
-24.97949016875157
 20
27.10495568929534
 30
0.0
 11
-24.97949016875157
 21
29.0
 31
0.0
  0
LINE
  5
A5
330
1F
100
AcDbEntity
  8
Dessin2D$caché$lignes
100
AcDbLine
 10
-19.15850738643724
 20
32.0
 30
0.0
 11
-24.97949016875157
 21
32.0
 31
0.0
  0
LINE
  5
A6
330
1F
100
AcDbEntity
  8
Dessin2D$caché$lignes
100
AcDbLine
 10
-27.47949016875157
 20
32.0
 30
0.0
 11
-33.3004729510659
 21
32.0
 31
0.0
  0
LINE
  5
A7
330
1F
100
AcDbEntity
  8
Dessin2D$caché$lignes
100
AcDbLine
 10
-22.76538855361382
 20
39.0
 30
0.0
 11
-20.22949486663963
 21
39.0
 31
0.0
  0
CIRCLE
  5
A8
330
1F
100
AcDbEntity
  8
Dessin2D$visible$lignes
100
AcDbCircle
 10
26.22949016875157
 20
37.0
 30
0.0
 40
4.0
210
0.0
220
0.0
230
-1.0
  0
LINE
  5
A9
330
1F
100
AcDbEntity
  8
Dessin2D$caché$lignes
100
AcDbLine
 10
-32.22948547086352
 20
39.0
 30
0.0
 11
-29.69359178388933
 21
39.0
 31
0.0
  0
CIRCLE
  5
AA
330
1F
100
AcDbEntity
  8
Dessin2D$visible$lignes
100
AcDbCircle
 10
26.22949016875157
 20
34.50000000000001
 30
0.0
 40
7.5
210
0.0
220
0.0
230
-1.0
  0
LINE
  5
AB
330
1F
100
AcDbEntity
  8
Dessin2D$caché$lignes
100
AcDbLine
 10
-50.08650505218695
 20
33.17830432253617
 30
0.0
 11
-50.6029571146556
 21
32.29349470923829
 31
0.0
  0
LINE
  5
AC
330
1F
100
AcDbEntity
  8
Dessin2D$caché$lignes
100
AcDbLine
 10
-52.68876639333727
 20
33.52758578139591
 30
0.0
 11
-52.14696500880936
 21
34.40866543703756
 31
0.0
  0
LINE
  5
AD
330
1F
100
AcDbEntity
  8
Dessin2D$caché$lignes
100
AcDbLine
 10
-51.90165377354027
 20
30.06850739280411
 30
0.0
 11
-52.78693448760757
 21
28.55180343672005
 31
0.0
  0
LINE
  5
AE
330
1F
100
AcDbEntity
  8
Dessin2D$caché$lignes
100
AcDbLine
 10
-54.95607947640598
 20
29.84047185457832
 30
0.0
 11
-54.02422752412113
 21
31.35585335908204
 31
0.0
  0
LINE
  5
AF
330
1F
100
AcDbEntity
  8
Dessin2D$caché$lignes
100
AcDbLine
 10
-50.85627971882178
 20
32.80218448919942
 30
0.0
 11
-45.45862287967039
 21
30.55990316848516
 31
0.0
  0
LINE
  5
B0
330
1F
100
AcDbEntity
  8
Dessin2D$caché$lignes
100
AcDbLine
 10
-57.68119643250932
 20
35.63737459456708
 30
0.0
 11
-52.61718454610069
 21
33.53369523903505
 31
0.0
  0
LINE
  5
B1
330
1F
100
AcDbEntity
  8
Dessin2D$caché$lignes
100
AcDbLine
 10
-53.81262554490742
 20
30.84594516475007
 30
0.0
 11
-57.38379993081995
 21
32.38236467740499
 31
0.0
  0
LINE
  5
B2
330
1F
100
AcDbEntity
  8
Dessin2D$caché$lignes
100
AcDbLine
 10
-48.21171060983427
 20
28.43627426519588
 30
0.0
 11
-51.96770622467305
 21
30.05220906100116
 31
0.0
  0
LINE
  5
B3
330
1F
100
AcDbEntity
  8
Dessin2D$caché$lignes
100
AcDbLine
 10
-53.13075370333446
 20
34.60505413999766
 30
0.0
 11
-53.36661438588369
 21
37.84606418464431
 31
0.0
  0
LINE
  5
B4
330
1F
100
AcDbEntity
  8
Dessin2D$caché$lignes
100
AcDbLine
 10
-45.65596385488674
 20
37.74174002895815
 30
0.0
 11
-45.95397307620485
 21
34.532285164111
 31
0.0
  0
LINE
  5
B5
330
1F
100
AcDbEntity
  8
Dessin2D$visible$lignes
100
AcDbLine
 10
-57.75266593350526
 20
34.1321184151669
 30
0.0
 11
-57.91364698305078
 21
35.01996576852997
 31
0.0
  0
LINE
  5
B6
330
1F
100
AcDbEntity
  8
Dessin2D$visible$lignes
100
AcDbLine
 10
-57.34720155920969
 20
31.89588953842866
 30
0.0
 11
-57.49076884476773
 21
32.68769599559908
 31
0.0
  0
LINE
  5
B7
330
1F
100
AcDbEntity
  8
Dessin2D$visible$lignes
100
AcDbLine
 10
-43.24252077365895
 20
35.17366473890229
 30
0.0
 11
-43.71512810489499
 21
32.08887792739654
 31
0.0
  0
SPLINE
  5
B8
330
1F
100
AcDbEntity
  8
Dessin2D$caché$lignes
100
AcDbSpline
210
0.0
220
0.0
230
1.0
 70
    12
 71
     3
 72
    10
 73
     6
 74
     0
 42
0.000000001
 43
0.0000000001
 40
3.42673044296386
 40
3.42673044296386
 40
3.42673044296386
 40
3.42673044296386
 40
3.690341076839005
 40
3.690341076839005
 40
4.223766943679405
 40
4.223766943679405
 40
4.223766943679405
 40
4.223766943679405
 10
-52.62490412844446
 20
33.53660351561152
 30
0.0
 41
64.24157990867644
 10
-52.64618045500213
 20
33.54406877948195
 30
0.0
 41
64.32505108940029
 10
-52.66395484362935
 20
33.54421166662666
 30
0.0
 41
64.40988628903166
 10
-52.70637533449806
 20
33.51769819210759
 30
0.0
 41
64.6657097604634
 10
-52.71866931019571
 20
33.46418198186854
 30
0.0
 41
64.830343097202
 10
-52.71256840315951
 20
33.37029574240132
 30
0.0
 41
64.97479304900055
  0
SPLINE
  5
B9
330
1F
100
AcDbEntity
  8
Dessin2D$caché$lignes
100
AcDbSpline
210
0.0
220
0.0
230
1.0
 70
     8
 71
     3
 72
    22
 73
    18
 74
     0
 42
0.000000001
 43
0.0000000001
 40
0.0
 40
0.0
 40
0.0
 40
0.0
 40
0.1210945298699508
 40
0.2607293193749095
 40
0.7570235492095335
 40
0.8957370036767484
 40
1.148582652289186
 40
1.148582652289186
 40
1.148582652289186
 40
1.212767639755482
 40
1.286388691226224
 40
1.431767824209381
 40
1.572802608572812
 40
1.793885750788214
 40
1.841501256190115
 40
1.897607483388126
 40
1.940832299004824
 40
1.940832299004824
 40
1.940832299004824
 40
1.940832299004824
 10
-50.85629936111761
 20
32.80213718342039
 30
0.0
 10
-50.89361199746172
 20
32.81755981297886
 30
0.0
 10
-50.97551690196565
 20
32.8467950395552
 30
0.0
 10
-51.21951719485413
 20
32.91207398118905
 30
0.0
 10
-51.47496090762188
 20
32.95216728877958
 30
0.0
 10
-51.76373214841999
 20
33.01693698645775
 30
0.0
 10
-51.88863127595982
 20
33.05585902548896
 30
0.0
 10
-51.96649074301054
 20
33.08822748928169
 30
0.0
 10
-51.98625462054672
 20
33.09643291730799
 30
0.0
 10
-52.02821279168509
 20
33.11513492618207
 30
0.0
 10
-52.11245442019303
 20
33.15783918749831
 30
0.0
 10
-52.21459969357242
 20
33.22115480435593
 30
0.0
 10
-52.34941672150538
 20
33.32356746978051
 30
0.0
 10
-52.4517401501774
 20
33.41412271884841
 30
0.0
 10
-52.53529152405896
 20
33.48297195848767
 30
0.0
 10
-52.57504738859443
 20
33.51169112619243
 30
0.0
 10
-52.60387061568645
 20
33.52811225253606
 30
0.0
 10
-52.61720405814739
 20
33.53364832718287
 30
0.0
  0
SPLINE
  5
BA
330
1F
100
AcDbEntity
  8
Dessin2D$caché$lignes
100
AcDbSpline
210
0.0
220
0.0
230
1.0
 70
    12
 71
     3
 72
    10
 73
     6
 74
     0
 42
0.000000001
 43
0.0000000001
 40
0.0
 40
0.0
 40
0.0
 40
0.0
 40
0.5334258668402703
 40
0.5334258668402703
 40
0.7970365007153482
 40
0.7970365007153482
 40
0.7970365007153482
 40
0.7970365007153482
 10
-50.55351818535725
 20
32.47136006746963
 30
0.0
 41
64.33207104959254
 10
-50.55482138362256
 20
32.56416341179013
 30
0.0
 41
64.187621097794
 10
-50.60303043660804
 20
32.64341552893138
 30
0.0
 41
64.04240766602385
 10
-50.72947557621828
 20
32.74051528506313
 30
0.0
 41
63.83856240209861
 10
-50.77959697183476
 20
32.76864282641479
 30
0.0
 41
63.77437889239889
 10
-50.83601633348385
 20
32.79346567967236
 30
0.0
 41
63.71437760741752
  0
SPLINE
  5
BB
330
1F
100
AcDbEntity
  8
Dessin2D$caché$lignes
100
AcDbSpline
210
0.0
220
0.0
230
1.0
 70
     8
 71
     3
 72
    26
 73
    22
 74
     0
 42
0.000000001
 43
0.0000000001
 40
0.0
 40
0.0
 40
0.0
 40
0.0
 40
0.0930906582186131
 40
0.2220050907365103
 40
0.5297713606309817
 40
0.8456772156724889
 40
1.119588061654164
 40
1.343614168661319
 40
1.518000530128051
 40
1.678591569438106
 40
1.837714291682654
 40
1.837714291682654
 40
1.837714291682654
 40
2.020331224961729
 40
2.214413584633693
 40
2.440531637444352
 40
2.695943561266071
 40
2.959230773674662
 40
3.179217836312349
 40
3.369874575643362
 40
3.516297424713756
 40
3.516297424713756
 40
3.516297424713756
 40
3.516297424713756
 10
-52.71256840315951
 20
33.37029574240132
 30
0.0
 10
-52.71046264309678
 20
33.33934159898051
 30
0.0
 10
-52.70202991521255
 20
33.26575157122053
 30
0.0
 10
-52.66874221972407
 20
33.09223701502157
 30
0.0
 10
-52.60267832474149
 20
32.84997287526245
 30
0.0
 10
-52.50223918770097
 20
32.56795365123961
 30
0.0
 10
-52.39145675387094
 20
32.32002235506386
 30
0.0
 10
-52.27942840208807
 20
32.12550250680098
 30
0.0
 10
-52.16653231608329
 20
31.97670910143997
 30
0.0
 10
-52.04607167553827
 20
31.86325986733502
 30
0.0
 10
-51.95352095168008
 20
31.8087978708302
 30
0.0
 10
-51.90461800558069
 20
31.78822933978517
 30
0.0
 10
-51.84858662187725
 20
31.76447049584579
 30
0.0
 10
-51.72549837266706
 20
31.73346977133279
 30
0.0
 10
-51.52330260134575
 20
31.737269973546
 30
0.0
 10
-51.30270913726285
 20
31.7872213198593
 30
0.0
 10
-51.0724735610317
 20
31.88194697685987
 30
0.0
 10
-50.86122253004349
 20
32.010258097734
 30
0.0
 10
-50.69173702553942
 20
32.15897787582528
 30
0.0
 10
-50.58233091991397
 20
32.31152160760815
 30
0.0
 10
-50.55258479049135
 20
32.42231422600489
 30
0.0
 10
-50.55351818535725
 20
32.47136006746963
 30
0.0
  0
SPLINE
  5
BC
330
1F
100
AcDbEntity
  8
Dessin2D$caché$lignes
100
AcDbSpline
210
0.0
220
0.0
230
1.0
 70
     8
 71
     3
 72
    23
 73
    19
 74
     0
 42
0.000000001
 43
0.0000000001
 40
0.0
 40
0.0
 40
0.0
 40
0.0
 40
0.0712266796046425
 40
0.139607367672353
 40
0.217991537932374
 40
0.3246517253551683
 40
0.5976855962986488
 40
0.9861795456472541
 40
0.9861795456472541
 40
0.9861795456472541
 40
1.272021203503019
 40
1.536166117651103
 40
1.788825079526031
 40
2.001114262138573
 40
2.173126850721192
 40
2.326054880526752
 40
2.460545598034791
 40
2.581703663621203
 40
2.581703663621203
 40
2.581703663621203
 40
2.581703663621203
 10
-52.14697025683597
 20
34.40866966203762
 30
0.0
 10
-52.13460281184058
 20
34.42888917589767
 30
0.0
 10
-52.10234571404577
 20
34.46390720412487
 30
0.0
 10
-52.03588446700219
 20
34.49541972125807
 30
0.0
 10
-51.95219582170307
 20
34.51036521073055
 30
0.0
 10
-51.79888935841385
 20
34.5052414901607
 30
0.0
 10
-51.54862661936116
 20
34.44642240571801
 30
0.0
 10
-51.34146020052492
 20
34.37082476450327
 30
0.0
 10
-51.22155165602533
 20
34.32170632695816
 30
0.0
 10
-51.13335817925557
 20
34.2856402109711
 30
0.0
 10
-50.96571336666251
 20
34.21127075661433
 30
0.0
 10
-50.72749999039871
 20
34.08922289827842
 30
0.0
 10
-50.51867600875542
 20
33.96457135642111
 30
0.0
 10
-50.34633107556887
 20
33.84011389289172
 30
0.0
 10
-50.21355982218691
 20
33.71943021312796
 30
0.0
 10
-50.11649970142054
 20
33.60021526264284
 30
0.0
 10
-50.05427541260219
 20
33.47786759739303
 30
0.0
 10
-50.03862177485689
 20
33.39300185011688
 30
0.0
 10
-50.0386327214099
 20
33.35258230220819
 30
0.0
  0
SPLINE
  5
BD
330
1F
100
AcDbEntity
  8
Dessin2D$caché$lignes
100
AcDbSpline
210
0.0
220
0.0
230
1.0
 70
    12
 71
     3
 72
    23
 73
    19
 74
     0
 42
0.000000001
 43
0.0000000001
 40
0.0
 40
0.0
 40
0.0
 40
0.0
 40
0.1111853377318326
 40
0.2473294216489755
 40
0.5415196200964724
 40
0.8601164585792745
 40
1.188153848801151
 40
1.188153848801151
 40
1.188153848801151
 40
1.394488056789434
 40
1.603969569299424
 40
2.042178024673705
 40
2.483664088343174
 40
2.679804221834766
 40
2.842440094239771
 40
2.842440094239771
 40
2.842440094239771
 40
3.215939523979015
 40
3.215939523979015
 40
3.215939523979015
 40
3.215939523979015
 10
-50.09254353838978
 20
33.16829269744493
 30
0.0
 41
1.0
 10
-50.11226756529597
 20
33.13687424405754
 30
0.0
 41
1.0
 10
-50.16570897847652
 20
33.07335949143864
 30
0.0
 41
1.0
 10
-50.31435207582871
 20
32.96801206058825
 30
0.0
 41
1.0
 10
-50.55700310192633
 20
32.89398820652545
 30
0.0
 41
1.0
 10
-50.87355713753584
 20
32.89909511721124
 30
0.0
 41
1.0
 10
-51.08239081382963
 20
32.95925937995582
 30
0.0
 41
1.0
 10
-51.18332961022611
 20
33.0011254510414
 30
0.0
 41
1.0
 10
-51.24690379341277
 20
33.02752432642005
 30
0.0
 41
1.0
 10
-51.37092286309135
 20
33.08978475664311
 30
0.0
 41
1.0
 10
-51.60733656118325
 20
33.24983709693901
 30
0.0
 41
1.0
 10
-51.86645719190336
 20
33.50737801358823
 30
0.0
 41
1.0
 10
-52.05976080099177
 20
33.81243529452653
 30
0.0
 41
1.0
 10
-52.15603688757388
 20
34.062114711494
 30
0.0
 41
1.0
 10
-52.17901455778787
 20
34.18005513793987
 30
0.0
 41
1.0
 10
-52.18199612389154
 20
34.2342532095109
 30
0.0
 41
1.0
 10
-52.18539260938103
 20
34.30041290858362
 30
0.0
 41
0.9984637975533316
 10
-52.17581858780726
 20
34.35502067789655
 30
0.0
 41
0.996823516792266
 10
-52.1533529609797
 20
34.39749166742227
 30
0.0
 41
0.9951387202421305
  0
ARC
  5
BE
330
1F
100
AcDbEntity
  8
Dessin2D$caché$lignes
100
AcDbCircle
 10
50.37992174772481
 20
33.35259126589823
 30
0.0
 40
0.341289026432623
210
0.0
220
0.0
230
-1.0
100
AcDbArc
 50
180.0015048289532
 51
210.709929491023
  0
SPLINE
  5
BF
330
1F
100
AcDbEntity
  8
Dessin2D$caché$lignes
100
AcDbSpline
210
0.0
220
0.0
230
1.0
 70
     8
 71
     3
 72
    24
 73
    20
 74
     0
 42
0.000000001
 43
0.0000000001
 40
0.0
 40
0.0
 40
0.0
 40
0.0
 40
0.1747123938586496
 40
0.3609061162025251
 40
0.7745682757346207
 40
1.15031097755219
 40
1.315445132961397
 40
1.47232767540824
 40
1.47232767540824
 40
1.47232767540824
 40
1.630403591963507
 40
1.799748558071431
 40
1.990036177764368
 40
2.225686083728236
 40
2.513406016071941
 40
2.842919077858828
 40
3.158038593252738
 40
3.286644474938738
 40
3.377160125776987
 40
3.377160125776987
 40
3.377160125776987
 40
3.377160125776987
 10
-54.02423910107055
 20
31.35586052203153
 30
0.0
 10
-53.99351135450543
 20
31.40541138464205
 30
0.0
 10
-53.915974876527
 20
31.49823374768239
 30
0.0
 10
-53.71532569193786
 20
31.66236196796591
 30
0.0
 10
-53.42517466283788
 20
31.81401629373782
 30
0.0
 10
-53.1127558743177
 20
31.8898785337924
 30
0.0
 10
-52.87849565165001
 20
31.87990132416681
 30
0.0
 10
-52.7747996091007
 20
31.85000525467065
 30
0.0
 10
-52.72653837534777
 20
31.82973174581333
 30
0.0
 10
-52.67799369958406
 20
31.80923130288912
 30
0.0
 10
-52.58297315712025
 20
31.75396891200548
 30
0.0
 10
-52.45593204932098
 20
31.63592510367165
 30
0.0
 10
-52.33557258137911
 20
31.47752400032724
 30
0.0
 10
-52.21678543024676
 20
31.2709901732747
 30
0.0
 10
-52.10063324240696
 20
31.01118702920948
 30
0.0
 10
-51.99607523020958
 20
30.71833366619482
 30
0.0
 10
-51.92801197128421
 20
30.46946059269571
 30
0.0
 10
-51.89486096191146
 20
30.29439134061855
 30
0.0
 10
-51.88716843595117
 20
30.22167339851756
 30
0.0
 10
-51.88557947630009
 20
30.19154812907432
 30
0.0
  0
SPLINE
  5
C0
330
1F
100
AcDbEntity
  8
Dessin2D$caché$lignes
100
AcDbSpline
210
0.0
220
0.0
230
1.0
 70
    12
 71
     3
 72
    31
 73
    27
 74
     0
 42
0.000000001
 43
0.0000000001
 40
0.0
 40
0.0
 40
0.0
 40
0.0
 40
0.0223406456345
 40
0.0450575579622757
 40
0.0697581658079331
 40
0.1089545966383507
 40
0.1914742431162381
 40
0.2412315197132189
 40
0.3901583950383342
 40
0.4584835810550947
 40
0.6019462994983059
 40
0.9088012310588722
 40
0.9088012310588722
 40
0.9088012310588722
 40
1.034658537392603
 40
1.16257197512686
 40
1.314768068716701
 40
1.808720458016595
 40
2.092981704923225
 40
2.234310149549583
 40
2.344777479251512
 40
2.443483403416551
 40
2.537877201352857
 40
2.537877201352857
 40
2.537877201352857
 40
2.937946601483071
 40
2.937946601483071
 40
2.937946601483071
 40
2.937946601483071
 10
-51.90689005150467
 20
30.06088711171719
 30
0.0
 41
1.0
 10
-51.91149989023755
 20
30.05512423868792
 30
0.0
 41
1.0
 10
-51.92422022573268
 20
30.04567914984583
 30
0.0
 41
1.0
 10
-51.94822201047759
 20
30.04513829860073
 30
0.0
 41
1.0
 10
-51.97571165818043
 20
30.05455115565449
 30
0.0
 41
1.0
 10
-52.01766049857456
 20
30.07983673984189
 30
0.0
 41
1.0
 10
-52.06177078623764
 20
30.11635531304375
 30
0.0
 41
1.0
 10
-52.13081552662966
 20
30.17971321186727
 30
0.0
 41
1.0
 10
-52.19478562128701
 20
30.24164897588573
 30
0.0
 41
1.0
 10
-52.28380398618796
 20
30.32245117277947
 30
0.0
 41
1.0
 10
-52.41604004448737
 20
30.43402957953795
 30
0.0
 41
1.0
 10
-52.54572925240609
 20
30.511697101634
 30
0.0
 41
1.0
 10
-52.63990447653481
 20
30.55179450037372
 30
0.0
 41
1.0
 10
-52.67845234194431
 20
30.56836123634837
 30
0.0
 41
1.0
 10
-52.75788076265052
 20
30.59769765124638
 30
0.0
 41
1.0
 10
-52.88822072724666
 20
30.63438307462287
 30
0.0
 41
1.0
 10
-53.14070818519318
 20
30.68801930722213
 30
0.0
 41
1.0
 10
-53.44804919321363
 20
30.73142036434187
 30
0.0
 41
1.0
 10
-53.74479372423789
 20
30.81179307435342
 30
0.0
 41
1.0
 10
-53.90657705197619
 20
30.88953708621098
 30
0.0
 41
1.0
 10
-54.0001589480008
 20
30.96059561058313
 30
0.0
 41
1.0
 10
-54.062586673803
 20
31.04183487879303
 30
0.0
 41
1.0
 10
-54.08160823796514
 20
31.10463803595108
 30
0.0
 41
1.0
 10
-54.08474090787952
 20
31.13591839564105
 30
0.0
 41
1.0
 10
-54.0917765558351
 20
31.20421987709063
 30
0.0
 41
0.9982912177497902
 10
-54.07161688342389
 20
31.27627530092427
 30
0.0
 41
0.9967000725503532
 10
-54.02863550410542
 20
31.34859181499705
 30
0.0
 41
0.9952546870872222
  0
SPLINE
  5
C1
330
1F
100
AcDbEntity
  8
Dessin2D$caché$lignes
100
AcDbSpline
210
0.0
220
0.0
230
1.0
 70
    12
 71
     3
 72
     8
 73
     4
 74
     0
 42
0.000000001
 43
0.0000000001
 40
0.0
 40
0.0
 40
0.0
 40
0.0
 40
0.3564288782851942
 40
0.3564288782851942
 40
0.3564288782851942
 40
0.3564288782851942
 10
-51.88557947630009
 20
30.19154812907431
 30
0.0
 41
62.75766961609764
 10
-51.88264774488771
 20
30.13178569445841
 30
0.0
 41
62.85408873524111
 10
-51.88827492900396
 20
30.09134583770755
 30
0.0
 41
62.95954378118358
 10
-51.90163000917803
 20
30.06850062625154
 30
0.0
 41
63.07000327268465
  0
SPLINE
  5
C2
330
1F
100
AcDbEntity
  8
Dessin2D$visible$lignes
100
AcDbSpline
210
0.0
220
0.0
230
1.0
 70
    11
 71
     3
 72
    41
 73
    37
 74
     0
 42
0.000000001
 43
0.0000000001
 40
0.0
 40
0.0
 40
0.0
 40
0.0
 40
0.1154010431916976
 40
0.2293320163446867
 40
0.3697935885825808
 40
0.5199290091392152
 40
0.6936245922413257
 40
0.8900511610728508
 40
1.313012294939171
 40
1.313012294939171
 40
1.313012294939171
 40
1.528505996801726
 40
1.772083412513585
 40
2.224998727665124
 40
2.664968273328986
 40
2.836781898860723
 40
2.991288539283536
 40
2.991288539283536
 40
2.991288539283536
 40
3.101865411407594
 40
3.194863591899369
 40
3.280629393286413
 40
3.396568151007575
 40
3.543839182342484
 40
3.72376307515836
 40
3.933349235444867
 40
4.190051170372023
 40
4.190051170372023
 40
4.190051170372023
 40
4.463297198291562
 40
4.740584794323422
 40
5.214264878922794
 40
5.420692080884265
 40
5.583722967935412
 40
5.73792243372986
 40
5.85528632176195
 40
5.85528632176195
 40
5.85528632176195
 40
5.85528632176195
 10
-52.76204195080705
 20
28.69148981605019
 30
0.0
 10
-52.7591838880127
 20
28.65330986243784
 30
0.0
 10
-52.76781631972582
 20
28.57513537777358
 30
0.0
 10
-52.83705980818374
 20
28.46943265648402
 30
0.0
 10
-52.95251516366159
 20
28.39533503921944
 30
0.0
 10
-53.10223688006322
 20
28.35253284332644
 30
0.0
 10
-53.27605159332349
 20
28.34063252633249
 30
0.0
 10
-53.539858354868
 20
28.36748581423279
 30
0.0
 10
-53.7379053534945
 20
28.43195662211597
 30
0.0
 10
-53.86681874073143
 20
28.48865366867162
 30
0.0
 10
-53.93257938902426
 20
28.51767537137854
 30
0.0
 10
-54.06911504630638
 20
28.58691846805249
 30
0.0
 10
-54.32535650570593
 20
28.75163646883846
 30
0.0
 10
-54.61182283504328
 20
29.00154155965672
 30
0.0
 10
-54.83272859949905
 20
29.28206713547598
 30
0.0
 10
-54.94914779794669
 20
29.51039816903292
 30
0.0
 10
-54.98024028578591
 20
29.61524488577932
 30
0.0
 10
-54.9872242253367
 20
29.66635952208905
 30
0.0
 10
-54.99160187426055
 20
29.70284692628586
 30
0.0
 10
-54.99347786460017
 20
29.77192752627068
 30
0.0
 10
-54.94955644355302
 20
29.86210812347766
 30
0.0
 10
-54.86351413486356
 20
29.9154486469408
 30
0.0
 10
-54.74739772375629
 20
29.93376146619339
 30
0.0
 10
-54.59954365389237
 20
29.92298741822252
 30
0.0
 10
-54.42446323977885
 20
29.8847002640267
 30
0.0
 10
-54.21902941509168
 20
29.81944407844736
 30
0.0
 10
-54.07467850287573
 20
29.76151529805143
 30
0.0
 10
-53.99623637539921
 20
29.7273509731225
 30
0.0
 10
-53.91281564004203
 20
29.69090578323956
 30
0.0
 10
-53.74670077793257
 20
29.61239621338907
 30
0.0
 10
-53.44796498995217
 20
29.4472483226386
 30
0.0
 10
-53.18238598320676
 20
29.26855001713132
 30
0.0
 10
-52.97410934198714
 20
29.07897512334345
 30
0.0
 10
-52.86142145017254
 20
28.94516856084958
 30
0.0
 10
-52.78835893366521
 20
28.81902149958196
 30
0.0
 10
-52.76492392514997
 20
28.73054947097805
 30
0.0
 10
-52.76204195080705
 20
28.69148981605019
 30
0.0
  0
SPLINE
  5
C3
330
1F
100
AcDbEntity
  8
Dessin2D$visible$lignes
100
AcDbSpline
210
0.0
220
0.0
230
1.0
 70
    15
 71
     3
 72
    38
 73
    34
 74
     0
 42
0.000000001
 43
0.0000000001
 40
0.0
 40
0.0
 40
0.0
 40
0.0
 40
0.2037076040570236
 40
0.4598127106361235
 40
1.020259598182569
 40
2.170076378596281
 40
2.170076378596281
 40
2.170076378596281
 40
3.129203006807645
 40
3.129203006807645
 40
4.079954726460711
 40
4.079954726460711
 40
4.079954726460711
 40
4.906780503944875
 40
4.906780503944875
 40
4.906780503944875
 40
5.733606281429036
 40
5.733606281429036
 40
5.733606281429036
 40
6.684358001082105
 40
6.684358001082105
 40
7.643484629293468
 40
7.643484629293468
 40
7.643484629293468
 40
7.9935708807411
 40
8.281114828846686
 40
8.503358309442248
 40
8.682005101221524
 40
8.754117569888654
 40
8.81566988388268
 40
8.910340590971494
 40
9.008255534399755
 40
9.134036013975635
 40
9.134036013975635
 40
9.134036013975635
 40
9.134036013975635
 10
-45.35517498279499
 20
30.30699347849856
 30
0.0
 41
1.0
 10
-45.36352544649938
 20
30.23946385780528
 30
0.0
 41
1.0
 10
-45.40402943060246
 20
30.09104862485298
 30
0.0
 41
1.0
 10
-45.54640596833472
 20
29.78102041364894
 30
0.0
 41
1.0
 10
-45.91869898420586
 20
29.23820949722244
 30
0.0
 41
1.0
 10
-46.36092491743477
 20
28.86367972077664
 30
0.0
 41
1.0
 10
-46.69606105892973
 20
28.67713959070744
 30
0.0
 41
1.0
 10
-46.95600819304009
 20
28.53281183223621
 30
0.0
 41
0.998477792764924
 10
-47.22631254238645
 20
28.43705740167609
 30
0.0
 41
0.996213445436243
 10
-47.72938371323256
 20
28.34814354949314
 30
0.0
 41
0.990775099267179
 10
-47.97625468558721
 20
28.35319976390822
 30
0.0
 41
0.9874638279227099
 10
-48.15565381701341
 20
28.41438655125179
 30
0.0
 41
0.9837518660243856
 10
-48.31244662575533
 20
28.46786311030326
 30
0.0
 41
0.9805304323428635
 10
-48.41593744592742
 20
28.56318343581561
 30
0.0
 41
0.977002270177081
 10
-48.41026025098913
 20
28.69916648938073
 30
0.0
 41
0.9734562159361357
 10
-48.40454154366753
 20
28.83614386861194
 30
0.0
 41
0.9699101616951904
 10
-48.28912373214922
 20
28.9903809281635
 30
0.0
 41
0.9669609100691294
 10
-48.11984803627042
 20
29.14635955058299
 30
0.0
 41
0.9647589091773925
 10
-47.92383600271052
 20
29.32697429751165
 30
0.0
 41
0.9622216092611817
 10
-47.6590901074043
 20
29.51022687580505
 30
0.0
 41
0.9606952214965477
 10
-47.12161705211471
 20
29.85441233180864
 30
0.0
 41
0.9596533762013638
 10
-46.83539189569146
 20
30.02329937232287
 30
0.0
 41
0.9601116839921887
 10
-46.56526463262427
 20
30.17102599557304
 30
0.0
 41
0.9616338912272647
 10
-46.46288265260412
 20
30.22706019706331
 30
0.0
 41
0.9616338912272647
 10
-46.27497715638221
 20
30.3263532428287
 30
0.0
 41
0.9616338912272647
 10
-46.01568998287287
 20
30.4489345605951
 30
0.0
 41
0.9616338912272647
 10
-45.80163596329379
 20
30.53197394399539
 30
0.0
 41
0.9616338912272647
 10
-45.64839785505364
 20
30.57152157771938
 30
0.0
 41
0.9616338912272647
 10
-45.54396313520107
 20
30.5776282587703
 30
0.0
 41
0.9616338912272647
 10
-45.46832592616704
 20
30.56887573699704
 30
0.0
 41
0.9616338912272647
 10
-45.39005868960697
 20
30.52632235309915
 30
0.0
 41
0.9616338912272647
 10
-45.34746458931523
 20
30.42353953785966
 30
0.0
 41
0.9616338912272647
 10
-45.3507793026229
 20
30.3488763460382
 30
0.0
 41
0.9616338912272647
 10
-45.35517498279498
 20
30.30699347849855
 30
0.0
 41
0.9616338912272647
  0
SPLINE
  5
C4
330
1F
100
AcDbEntity
  8
Dessin2D$caché$lignes
100
AcDbSpline
210
0.0
220
0.0
230
1.0
 70
    12
 71
     3
 72
    16
 73
    12
 74
     0
 42
0.000000001
 43
0.0000000001
 40
7.922270536694613
 40
7.922270536694613
 40
7.922270536694613
 40
7.922270536694613
 40
7.991507304212989
 40
7.991507304212989
 40
7.991507304212989
 40
8.219953909252856
 40
8.463866077536151
 40
9.29906447858878
 40
9.599331125657724
 40
9.865919944909049
 40
10.08338387805548
 40
10.08338387805548
 40
10.08338387805548
 40
10.08338387805548
 10
-57.55449221445747
 20
33.25326782622012
 30
0.0
 41
66.6740034147486
 10
-57.55540797627155
 20
33.2707120758276
 30
0.0
 41
66.68778506651906
 10
-57.55625646189565
 20
33.28834962345065
 30
0.0
 41
66.70128347114095
 10
-57.55703533926193
 20
33.30617427026562
 30
0.0
 41
66.71448769123856
 10
-57.56037734198072
 20
33.3822586264105
 30
0.0
 41
66.71448769123856
 10
-57.56442953794177
 20
33.53965437937129
 30
0.0
 41
66.71448769123856
 10
-57.56504729132777
 20
33.97557510358678
 30
0.0
 41
66.71448769123856
 10
-57.54651638496529
 20
34.43508834991163
 30
0.0
 41
66.71448769123856
 10
-57.54170766041761
 20
34.90243934016174
 30
0.0
 41
66.71448769123856
 10
-57.54975250561503
 20
35.16385480754155
 30
0.0
 41
66.71448769123856
 10
-57.56581190979284
 20
35.32454713667531
 30
0.0
 41
66.71448769123856
 10
-57.5779688961
 20
35.39603930309836
 30
0.0
 41
66.71448769123856
  0
SPLINE
  5
C5
330
1F
100
AcDbEntity
  8
Dessin2D$visible$lignes
100
AcDbSpline
210
0.0
220
0.0
230
1.0
 70
    12
 71
     3
 72
    21
 73
    17
 74
     0
 42
0.000000001
 43
0.0000000001
 40
3.397982088289281
 40
3.397982088289281
 40
3.397982088289281
 40
3.397982088289281
 40
3.477225616955188
 40
3.477225616955188
 40
4.427977350249876
 40
4.427977350249876
 40
4.427977350249876
 40
5.254803139597526
 40
5.254803139597526
 40
5.254803139597526
 40
6.08162892894518
 40
6.08162892894518
 40
6.08162892894518
 40
7.032380662239867
 40
7.032380662239867
 40
7.922270536694613
 40
7.922270536694613
 40
7.922270536694613
 40
7.922270536694613
 10
-57.75264649166481
 20
34.13212198285977
 30
0.0
 41
63.92837387932635
 10
-57.74821771160846
 20
34.10762886725021
 30
0.0
 41
63.92251829505106
 10
-57.74365762188799
 20
34.08307976694832
 30
0.0
 41
63.91709951933609
 10
-57.68269143467915
 20
33.7632113355933
 30
0.0
 41
63.85239139741261
 10
-57.6046520880316
 20
33.44747006824196
 30
0.0
 41
63.85368313920259
 10
-57.53149879771043
 20
33.16354920303537
 30
0.0
 41
63.94310335716038
 10
-57.46817819529507
 20
32.91779073961909
 30
0.0
 41
64.02070687514592
 10
-57.41074263999189
 20
32.6979155215067
 30
0.0
 41
64.16492578274011
 10
-57.38475702164251
 20
32.55302086582699
 30
0.0
 41
64.38993142252035
 10
-57.35895238035348
 20
32.40913533021097
 30
0.0
 41
64.6149370623006
 10
-57.36873174948793
 20
32.36461390747069
 30
0.0
 41
64.88172558305484
 10
-57.39170394076583
 20
32.38790137965557
 30
0.0
 41
65.1482519861156
 10
-57.41794213232365
 20
32.41449967620868
 30
0.0
 41
65.45536240677514
 10
-57.45896778819206
 20
32.52883025458839
 30
0.0
 41
65.76103172900775
 10
-57.51968061280905
 20
32.83535653301646
 30
0.0
 41
66.27294513899497
 10
-57.54268827150145
 20
33.02841576959471
 30
0.0
 41
66.49686989446212
 10
-57.55449221445747
 20
33.25326782622012
 30
0.0
 41
66.6740034147486
  0
SPLINE
  5
C6
330
1F
100
AcDbEntity
  8
Dessin2D$caché$lignes
100
AcDbSpline
210
0.0
220
0.0
230
1.0
 70
    12
 71
     3
 72
    21
 73
    17
 74
     0
 42
0.000000001
 43
0.0000000001
 40
0.0
 40
0.0
 40
0.0
 40
0.0
 40
0.1213810654885587
 40
0.2090627440722145
 40
0.2409341843005472
 40
0.2660823377847113
 40
0.2870741905298635
 40
0.3140388948736945
 40
0.357000721765545
 40
0.4161461754032189
 40
0.5854326589266836
 40
0.8169436985525644
 40
1.072936475289541
 40
1.072936475289541
 40
1.072936475289541
 40
1.912172287016024
 40
1.912172287016024
 40
1.912172287016024
 40
1.912172287016024
 10
-57.5779688961
 20
35.39603930309838
 30
0.0
 41
1.0
 10
-57.58480117003536
 20
35.43595960106697
 30
0.0
 41
1.0
 10
-57.59960544207037
 20
35.50405181649977
 30
0.0
 41
1.0
 10
-57.62786024852626
 20
35.57974287811594
 30
0.0
 41
1.0
 10
-57.65548872877667
 20
35.61975740466488
 30
0.0
 41
1.0
 10
-57.67561950410858
 20
35.63650891557293
 30
0.0
 41
1.0
 10
-57.70019821210761
 20
35.64347928547285
 30
0.0
 41
1.0
 10
-57.72946434722047
 20
35.63163768497617
 30
0.0
 41
1.0
 10
-57.75784868015957
 20
35.59834830703721
 30
0.0
 41
1.0
 10
-57.79663281179516
 20
35.51614430586606
 30
0.0
 41
1.0
 10
-57.83059282532732
 20
35.36581036408229
 30
0.0
 41
1.0
 10
-57.84911833535418
 20
35.14752708022462
 30
0.0
 41
1.0
 10
-57.84765854646918
 20
34.98477343543627
 30
0.0
 41
1.0
 10
-57.84420456368142
 20
34.89956007669197
 30
0.0
 41
1.0
 10
-57.83510034744738
 20
34.67878269122867
 30
0.0
 41
0.9975100899165324
 10
-57.80476147697117
 20
34.42817226924259
 30
0.0
 41
0.9957127087170814
 10
-57.75935625979577
 20
34.16976026819473
 30
0.0
 41
0.9946742860145059
  0
LINE
  5
C7
330
1F
100
AcDbEntity
  8
Dessin2D$caché$lignes
100
AcDbLine
 10
-45.7171020158479
 20
37.76496736752661
 30
0.0
 11
-43.48541621391951
 21
36.90888412413818
 31
0.0
  0
LINE
  5
C8
330
1F
100
AcDbEntity
  8
Dessin2D$caché$lignes
100
AcDbLine
 10
-45.91716231288241
 20
35.57835534996389
 30
0.0
 11
-43.79325337749248
 21
34.74204942561559
 31
0.0
  0
LINE
  5
C9
330
1F
100
AcDbEntity
  8
Dessin2D$caché$lignes
100
AcDbLine
 10
-45.76402500027773
 20
37.25211017809407
 30
0.0
 11
-45.91716231288241
 21
35.57835534996389
 31
0.0
  0
LINE
  5
CA
330
1F
100
AcDbEntity
  8
Dessin2D$visible$lignes
100
AcDbLine
 10
-45.7171020158479
 20
37.76496736752661
 30
0.0
 11
-45.76402500027773
 21
37.25211017809407
 31
0.0
  0
SPLINE
  5
CB
330
1F
100
AcDbEntity
  8
Dessin2D$visible$lignes
100
AcDbSpline
210
0.0
220
0.0
230
1.0
 70
    12
 71
     2
 72
     8
 73
     5
 74
     0
 42
0.000000001
 43
0.0000000001
 40
14.70944811340468
 40
14.70944811340468
 40
14.70944811340468
 40
18.84955542799939
 40
18.84955542799939
 40
22.98966372967284
 40
22.98966372967284
 40
22.98966372967284
 10
-51.59475805628218
 20
40.01965879508717
 30
0.0
 41
67.60865715390412
 10
-49.8202254727909
 20
40.93719844323221
 30
0.0
 41
59.20271112344975
 10
-47.90155271639903
 20
40.21519073431774
 30
0.0
 41
67.76767638307386
 10
-45.94896277290005
 20
39.48041979077952
 30
0.0
 41
58.1743517036583
 10
-45.71710201584791
 20
37.7649673675266
 30
0.0
 41
65.82749370091705
  0
ARC
  5
CC
330
1F
100
AcDbEntity
  8
Dessin2D$caché$lignes
100
AcDbCircle
 10
48.47480161867148
 20
35.24009303059572
 30
0.0
 40
2.579910892884007
210
0.0
220
0.0
230
-1.0
100
AcDbArc
 50
152.2306461017093
 51
172.4660317841781
  0
SPLINE
  5
CD
330
1F
100
AcDbEntity
  8
Dessin2D$visible$lignes
100
AcDbSpline
210
0.0
220
0.0
230
1.0
 70
    12
 71
     2
 72
     8
 73
     5
 74
     0
 42
0.000000001
 43
0.0000000001
 40
14.70944811340468
 40
14.70944811340468
 40
14.70944811340468
 40
18.84955592153876
 40
18.84955592153876
 40
21.77899503269681
 40
21.77899503269681
 40
21.77899503269681
 10
-51.52052974278281
 20
37.78472554778298
 30
0.0
 41
70.85455254964072
 10
-49.82721544802349
 20
38.684167687151
 30
0.0
 41
62.01373920180392
 10
-47.99630001751607
 20
37.97632473370962
 30
0.0
 41
71.01357177881046
 10
-46.73938265496186
 20
37.49039289692592
 30
0.0
 41
63.91787133352064
 10
-46.19201827026151
 20
36.4421081716999
 30
0.0
 41
65.89228133114038
  0
ARC
  5
CE
330
1F
100
AcDbEntity
  8
Dessin2D$caché$lignes
100
AcDbCircle
 10
48.50071163104616
 20
34.77687080647001
 30
0.0
 40
2.558456449338929
210
0.0
220
0.0
230
-1.0
100
AcDbArc
 50
185.4857915996512
 51
208.7535544421824
  0
SPLINE
  5
CF
330
1F
100
AcDbEntity
  8
Dessin2D$caché$lignes
100
AcDbSpline
210
0.0
220
0.0
230
1.0
 70
    12
 71
     2
 72
     6
 73
     3
 74
     0
 42
0.000000001
 43
0.0000000001
 40
21.4489847389314
 40
21.4489847389314
 40
21.4489847389314
 40
23.66011967234813
 40
23.66011967234813
 40
23.66011967234813
 10
-46.39467903861543
 20
36.2010402109792
 30
0.0
 41
60.71972405941885
 10
-45.88162785902486
 20
35.43530319222186
 30
0.0
 41
58.94284955582248
 10
-45.95125009314302
 20
34.56381268317781
 30
0.0
 41
62.16832010365408
  0
SPLINE
  5
D0
330
1F
100
AcDbEntity
  8
Dessin2D$visible$lignes
100
AcDbSpline
210
0.0
220
0.0
230
1.0
 70
    12
 71
     2
 72
     8
 73
     5
 74
     0
 42
0.000000001
 43
0.0000000001
 40
12.74952956051044
 40
12.74952956051044
 40
12.74952956051044
 40
18.84955592153876
 40
18.84955592153876
 40
21.4489847389314
 40
21.4489847389314
 40
21.4489847389314
 10
-52.65769024055579
 20
36.26335422602511
 30
0.0
 41
69.65238766191365
 10
-51.01029680993472
 20
38.62111410509222
 30
0.0
 41
52.09717067594229
 10
-48.01826782581303
 20
37.45722837398116
 30
0.0
 41
71.81105789658373
 10
-46.96070345090954
 20
37.04584061931244
 30
0.0
 41
62.80863266455832
 10
-46.39467903861541
 20
36.20104021097919
 30
0.0
 41
60.71972405941887
  0
SPLINE
  5
D1
330
1F
100
AcDbEntity
  8
Dessin2D$caché$lignes
100
AcDbSpline
210
0.0
220
0.0
230
1.0
 70
    12
 71
     2
 72
     8
 73
     5
 74
     0
 42
0.000000001
 43
0.0000000001
 40
10.40652566501619
 40
10.40652566501619
 40
10.40652566501619
 40
12.56637061435917
 40
12.56637061435917
 40
12.69411005984134
 40
12.69411005984134
 40
12.69411005984134
 10
-53.13391125154384
 20
34.65563811106828
 30
0.0
 41
60.352966756549
 10
-53.17538839997022
 20
35.4520750304388
 30
0.0
 41
63.10769341372119
 10
-52.72848886583731
 20
36.15704249823051
 30
0.0
 41
70.74021118431
 10
-52.69428222630087
 20
36.21099262648555
 30
0.0
 41
70.72241147516343
 10
-52.65769024055579
 20
36.26335422602511
 30
0.0
 41
70.74021118431
  0
SPLINE
  5
D2
330
1F
100
AcDbEntity
  8
Dessin2D$caché$lignes
100
AcDbSpline
210
0.0
220
0.0
230
1.0
 70
    12
 71
     2
 72
     8
 73
     5
 74
     0
 42
0.000000001
 43
0.0000000001
 40
0.0
 40
0.0
 40
0.0
 40
6.283185307179586
 40
6.283185307179586
 40
10.34099415613563
 40
10.34099415613563
 40
10.34099415613563
 10
-46.25772075460743
 20
33.54614283840537
 30
0.0
 41
68.68350078620438
 10
-47.79629674666002
 20
30.71497398387662
 30
0.0
 41
47.08220925497792
 10
-51.15793891038069
 20
32.12387066415376
 30
0.0
 41
67.61265407393063
 10
-53.00657172401225
 20
32.89865052094083
 30
0.0
 41
55.29290076626727
 10
-53.1307536545084
 20
34.60505346907016
 30
0.0
 41
60.19029564927611
  0
SPLINE
  5
D3
330
1F
100
AcDbEntity
  8
Dessin2D$visible$lignes
100
AcDbSpline
210
0.0
220
0.0
230
1.0
 70
    15
 71
     2
 72
    12
 73
     9
 74
     0
 42
0.000000001
 43
0.0000000001
 40
0.0
 40
0.0
 40
0.0
 40
6.283185307179586
 40
6.283185307179586
 40
12.56637061435917
 40
12.56637061435917
 40
18.84955592153876
 40
18.84955592153876
 40
25.13274122871834
 40
25.13274122871834
 40
25.13274122871834
 10
-45.97414834426132
 20
36.77446477596771
 30
0.0
 41
63.81465769259949
 10
-47.62445986933069
 20
33.82974871914121
 30
0.0
 41
43.63941728695661
 10
-51.24977772185166
 20
35.29692369047769
 30
0.0
 41
62.74381098032575
 10
-54.75817577423999
 20
36.71678093371785
 30
0.0
 41
45.09373115639399
 10
-52.93205346028925
 20
39.47754921433057
 30
0.0
 41
65.8713680907051
 10
-51.21872700641872
 20
42.06779045504296
 30
0.0
 41
48.06245096955152
 10
-47.87599215004211
 20
40.81918348448674
 30
0.0
 41
66.94221480297885
 10
-44.42895392592872
 20
39.53161622614095
 30
0.0
 41
46.60813710011415
 10
-45.97414834426132
 20
36.77446477596771
 30
0.0
 41
63.81465769259949
  0
SPLINE
  5
D4
330
1F
100
AcDbEntity
  8
Dessin2D$caché$lignes
100
AcDbSpline
210
0.0
220
0.0
230
1.0
 70
    12
 71
     2
 72
     8
 73
     5
 74
     0
 42
0.000000001
 43
0.0000000001
 40
-42.24405123671475
 40
-42.24405123671475
 40
-42.24405123671475
 40
-35.34291735288516
 40
-35.34291735288516
 40
-28.44178346905559
 40
-28.44178346905559
 40
-28.44178346905559
 10
-43.48541621391951
 20
36.90888412413819
 30
0.0
 41
65.17554262883137
 10
-44.34500940450514
 20
39.67279562300875
 30
0.0
 41
60.22034991075041
 10
-47.51389750253002
 20
40.85403019038549
 30
0.0
 41
68.29247686090551
 10
-50.59456088132053
 20
42.00237811587618
 30
0.0
 41
61.94495361125519
 10
-53.66944494585649
 20
40.81551665281406
 30
0.0
 41
68.2606082259898
  0
ARC
  5
D5
330
1F
100
AcDbEntity
  8
Dessin2D$caché$lignes
100
AcDbCircle
 10
-50.55669743798741
 20
31.10765235816357
 30
0.0
 40
8.017648964963746
100
AcDbArc
 50
97.2098908060354
 51
111.5502516144261
  0
SPLINE
  5
D6
330
1F
100
AcDbEntity
  8
Dessin2D$visible$lignes
100
AcDbSpline
210
0.0
220
0.0
230
1.0
 70
    12
 71
     2
 72
     8
 73
     5
 74
     0
 42
0.000000001
 43
0.0000000001
 40
-37.94132846200397
 40
-37.94132846200397
 40
-37.94132846200397
 40
-35.3429165302058
 40
-35.3429165302058
 40
-30.768845870329
 40
-30.768845870329
 40
-30.768845870329
 10
-45.73823993715241
 20
37.53393485672681
 30
0.0
 41
67.14569791983985
 10
-46.57514325705576
 20
38.20016792420419
 30
0.0
 41
68.3700324207596
 10
-47.62553874191835
 20
38.60260242643558
 30
0.0
 41
71.53837225664209
 10
-49.50946717669267
 20
39.3243856145908
 30
0.0
 41
67.10410710671346
 10
-51.56294844335241
 20
39.06190617857853
 30
0.0
 41
68.53390339987344
  0
SPLINE
  5
D7
330
1F
100
AcDbEntity
  8
Dessin2D$caché$lignes
100
AcDbSpline
210
0.0
220
0.0
230
1.0
 70
    12
 71
     2
 72
     6
 73
     3
 74
     0
 42
0.000000001
 43
0.0000000001
 40
-42.24405123671474
 40
-42.24405123671474
 40
-42.24405123671474
 40
-37.94132846200397
 40
-37.94132846200397
 40
-37.94132846200397
 10
-43.79325337749248
 20
34.74204942561559
 30
0.0
 41
68.42143802456796
 10
-44.28320548907973
 20
36.37562655447669
 30
0.0
 41
65.11831655027925
 10
-45.73823993715241
 20
37.53393485672681
 30
0.0
 41
67.14569791983985
  0
LINE
  5
D8
330
1F
100
AcDbEntity
  8
Dessin2D$caché$lignes
100
AcDbLine
 10
-53.50171711755401
 20
38.56483372999232
 30
0.0
 11
-51.52052974278281
 21
37.78472554778298
 31
0.0
  0
LINE
  5
D9
330
1F
100
AcDbEntity
  8
Dessin2D$caché$lignes
100
AcDbLine
 10
-53.6694449458565
 20
40.81551665281407
 30
0.0
 11
-51.59475805628219
 21
40.01965879508717
 31
0.0
  0
LINE
  5
DA
330
1F
100
AcDbEntity
  8
Dessin2D$visible$lignes
100
AcDbLine
 10
-51.52052974278281
 20
37.78472554778298
 30
0.0
 11
-51.59475805628219
 21
40.01965879508717
 31
0.0
  0
LINE
  5
DB
330
1F
100
AcDbEntity
  8
Dessin2D$caché$lignes
100
AcDbLine
 10
-43.79325337749248
 20
34.74204942561559
 30
0.0
 11
-43.48541621391951
 21
36.90888412413818
 31
0.0
  0
LINE
  5
DC
330
1F
100
AcDbEntity
  8
Dessin2D$caché$lignes
100
AcDbLine
 10
-53.6694449458565
 20
40.81551665281407
 30
0.0
 11
-53.50171711755401
 21
38.56483372999232
 31
0.0
  0
ARC
  5
DD
330
1F
100
AcDbEntity
  8
Dessin2D$visible$lignes
100
AcDbCircle
 10
48.78045802587083
 20
32.87558493436067
 30
0.0
 40
5.126058439291255
210
0.0
220
0.0
230
-1.0
100
AcDbArc
 50
188.8281943553379
 51
206.8791170136161
  0
SPLINE
  5
DE
330
1F
100
AcDbEntity
  8
Dessin2D$caché$lignes
100
AcDbSpline
210
0.0
220
0.0
230
1.0
 70
    12
 71
     2
 72
    10
 73
     7
 74
     0
 42
0.000000001
 43
0.0000000001
 40
18.49980830190083
 40
18.49980830190083
 40
18.49980830190083
 40
23.56194490192345
 40
23.56194490192345
 40
35.34291735288517
 40
35.34291735288517
 40
44.91495746929157
 40
44.91495746929157
 40
44.91495746929157
 10
-57.35370307393017
 20
31.93253179698602
 30
0.0
 41
57.78561552196875
 10
-57.69622717754186
 20
33.90614249261365
 30
0.0
 41
60.2811642548694
 10
-56.52438835538769
 20
35.64602127949047
 30
0.0
 41
70.32802078890211
 10
-53.39374704736851
 20
40.29421717312874
 30
0.0
 41
52.51259523209636
 10
-47.65143472996449
 20
38.08036757145324
 30
0.0
 41
72.33585837441538
 10
-43.11548618890465
 20
36.33161074392743
 30
0.0
 41
54.01390078581018
 10
-43.7067019738471
 20
32.1461105642956
 30
0.0
 41
61.59385607809679
  0
SPLINE
  5
DF
330
1F
100
AcDbEntity
  8
Dessin2D$visible$lignes
100
AcDbSpline
210
0.0
220
0.0
230
1.0
 70
    12
 71
     2
 72
     8
 73
     5
 74
     0
 42
0.000000001
 43
0.0000000001
 40
0.0
 40
0.0
 40
0.0
 40
11.78097245096172
 40
11.78097245096172
 40
18.45475668614144
 40
18.45475668614144
 40
18.45475668614144
 10
-44.20820677953735
 20
30.5580445003162
 30
0.0
 41
66.47168879245407
 10
-47.15080646427818
 20
24.71785858483753
 30
0.0
 41
44.21940707723093
 10
-53.78107301355046
 20
27.66795406772525
 30
0.0
 41
64.4638512069408
 10
-56.82628237763608
 20
29.02290085948317
 30
0.0
 41
54.54033082340585
 10
-57.34720156248727
 20
31.89588955650524
 30
0.0
 41
57.74179423677565
  0
SPLINE
  5
E0
330
1F
100
AcDbEntity
  8
Dessin2D$visible$lignes
100
AcDbSpline
210
0.0
220
0.0
230
1.0
 70
    15
 71
     2
 72
    12
 73
     9
 74
     0
 42
0.000000001
 43
0.0000000001
 40
0.0
 40
0.0
 40
0.0
 40
11.78097245096172
 40
11.78097245096172
 40
23.56194490192345
 40
23.56194490192345
 40
35.34291735288517
 40
35.34291735288517
 40
47.12388980384689
 40
47.12388980384689
 40
47.12388980384689
 10
-43.75246747169248
 20
33.66610996772381
 30
0.0
 41
61.60284569884919
 10
-46.91240634380112
 20
27.54497244387719
 30
0.0
 41
40.77661510920962
 10
-54.09207129975193
 20
30.64461748608833
 30
0.0
 41
59.59500811333591
 10
-60.82170791933626
 20
33.54997378220463
 30
0.0
 41
43.50345361440468
 10
-57.01157316992262
 20
38.94942724372203
 30
0.0
 41
65.45917769529721
 10
-53.6336501029863
 20
43.73638088081212
 30
0.0
 41
49.06980326407506
 10
-47.48379278542539
 20
41.46114093446695
 30
0.0
 41
67.46701528081049
 10
-40.97207541376066
 20
39.05202496343214
 30
0.0
 41
46.34296475887999
 10
-43.75246747169248
 20
33.66610996772381
 30
0.0
 41
61.60284569884919
  0
DIMENSION
  5
E4
330
1F
100
AcDbEntity
  8
Dessin2D$cotes
100
AcDbDimension
  2
*D1
 10
-14.72949016875157
 20
51.27050983124843
 30
0.0
 11
-15.47949016875157
 21
54.27050983124843
 31
0.0
 70
    32
  1
<>
 71
     5
 42
6.0
 73
     0
 74
     0
 75
     0
  3
Défaut
100
AcDbAlignedDimension
 13
-18.72949016875157
 23
57.27050983124843
 33
0.0
 14
-18.72949016875157
 24
51.27050983124843
 34
0.0
 50
90.0
100
AcDbRotatedDimension
1001
ACAD
1000
DSTYLE
1002
{
1070
   173
1070
     0
1070
   342
1005
0
1070
   179
1070
     2
1070
   143
1040
1.0
1070
    41
1040
1.0
1070
    79
1070
     1
1070
   141
1040
0.5
1070
   271
1070
     2
1070
    44
1040
0.5
1070
    42
1040
0.5
1070
   147
1040
0.25
1070
    77
1070
     1
1070
    73
1070
     0
1070
   174
1070
     0
1070
   279
1070
     0
1070
   340
1005
E3
1070
   140
1040
1.0
1070
   284
1070
     1
1070
    78
1070
     1
1002
}
  0
DIMENSION
  5
F2
330
1F
100
AcDbEntity
  8
Dessin2D$cotes
100
AcDbDimension
  2
*D2
 10
-33.25128885375328
 20
31.86478782119778
 30
0.0
 11
-13.75943928466058
 21
39.17988779430976
 31
0.0
 70
   163
  1
Ø15.00
 71
     5
 42
14.99999999999995
 73
     0
 74
     0
 75
     0
  3
Défaut
100
AcDbDiametricDimension
 15
-19.20769148374981
 25
37.13521217880222
 35
0.0
 40
7.366068747318521
1001
ACAD
1000
DSTYLE
1002
{
1070
    41
1040
1.0
1070
   173
1070
     0
1070
   342
1005
0
1070
   340
1005
E3
1070
    40
1040
1.0
1070
   144
1040
1.0
1070
    77
1070
     0
1070
    73
1070
     0
1070
    74
1070
     1
1002
}
  0
DIMENSION
  5
FE
330
1F
100
AcDbEntity
  8
Dessin2D$cotes
100
AcDbDimension
  2
*D3
 10
-29.82892742697518
 20
35.25527898387362
 30
0.0
 11
-12.45538799307743
 21
43.67658965002513
 31
0.0
 70
   163
  1
Ø8.00
 71
     5
 42
8.000000000000172
 73
     0
 74
     0
 75
     0
  3
Défaut
100
AcDbDiametricDimension
 15
-22.63005291052811
 25
38.74472101612629
 35
0.0
 40
12.55294535724685
1001
ACAD
1000
DSTYLE
1002
{
1070
    41
1040
1.0
1070
   173
1070
     0
1070
   342
1005
0
1070
   340
1005
E3
1070
    40
1040
1.0
1070
   144
1040
1.0
1070
    77
1070
     0
1070
    73
1070
     0
1070
    74
1070
     1
1002
}
  0
DIMENSION
  5
10A
330
1F
100
AcDbEntity
  8
Dessin2D$cotes
100
AcDbDimension
  2
*D4
 10
-40.00073480823785
 20
52.25327239201457
 30
0.0
 11
-40.75073480823785
 21
54.25327239201457
 31
0.0
 70
    32
  1
<>
 71
     5
 42
4.0
 73
     0
 74
     0
 75
     0
  3
Défaut
100
AcDbAlignedDimension
 13
-43.00073480823785
 23
56.25327239201457
 33
0.0
 14
-43.00073480823902
 24
52.25327239201457
 34
0.0
 50
90.0
100
AcDbRotatedDimension
1001
ACAD
1000
DSTYLE
1002
{
1070
   173
1070
     0
1070
   342
1005
0
1070
   179
1070
     2
1070
   143
1040
1.0
1070
    41
1040
1.0
1070
    79
1070
     1
1070
   141
1040
0.5
1070
   271
1070
     2
1070
    44
1040
0.5
1070
    42
1040
0.5
1070
   147
1040
0.25
1070
    77
1070
     1
1070
    73
1070
     0
1070
   174
1070
     0
1070
   279
1070
     0
1070
   340
1005
E3
1070
   140
1040
1.0
1070
   284
1070
     1
1070
    78
1070
     1
1002
}
  0
DIMENSION
  5
117
330
1F
100
AcDbEntity
  8
Dessin2D$cotes
100
AcDbDimension
  2
*D5
 10
-46.0
 20
62.25327239201457
 30
0.0
 11
-48.77380952380953
 21
63.00327239201457
 31
0.0
 70
    32
  1
<>
 71
     5
 42
2.999265191762149
 73
     0
 74
     0
 75
     0
  3
Défaut
100
AcDbAlignedDimension
 13
-43.00073480823785
 23
56.25327239201457
 33
0.0
 14
-46.0
 24
56.25327239201457
 34
0.0
100
AcDbRotatedDimension
1001
ACAD
1000
DSTYLE
1002
{
1070
   173
1070
     0
1070
   342
1005
0
1070
   179
1070
     2
1070
   143
1040
1.0
1070
    41
1040
1.0
1070
    79
1070
     1
1070
   141
1040
0.5
1070
   271
1070
     2
1070
    44
1040
0.5
1070
    42
1040
0.5
1070
   147
1040
0.25
1070
    77
1070
     1
1070
    73
1070
     0
1070
   174
1070
     0
1070
   279
1070
     0
1070
   340
1005
E3
1070
   140
1040
1.0
1070
   284
1070
     1
1070
    78
1070
     1
1002
}
  0
DIMENSION
  5
125
330
1F
100
AcDbEntity
  8
Dessin2D$cotes
100
AcDbDimension
  2
*D6
 10
-54.22356721000534
 20
52.79620158050574
 30
0.0
 11
-55.89809782649087
 21
61.72703157037862
 31
0.0
 70
   163
  1
Ø3.00
 71
     5
 42
2.999999969885501
 73
     0
 74
     0
 75
     0
  3
Défaut
100
AcDbDiametricDimension
 15
-54.77643280749609
 25
55.74481811210563
 35
0.0
 40
6.63941029669509
1001
ACAD
1000
DSTYLE
1002
{
1070
    41
1040
1.0
1070
   173
1070
     0
1070
   342
1005
0
1070
   340
1005
E3
1070
    40
1040
1.0
1070
   144
1040
1.0
1070
    77
1070
     0
1070
    73
1070
     0
1070
    74
1070
     1
1002
}
  0
MULTILEADER
  5
132
330
1F
100
AcDbEntity
  8
Dessin2D$cotes
 92
      468
310
D40100000A0000000C00000013000000993A00000C0000001200000000000000B8000000260000000CC3300CC3F031C00000000000803640000000000000000000000000000000000000000000000000000000000000F03F000000000000F03F000000000000000000000000000000004D004D000000000002000000010000
310
00000000000000F03F000000000000F03F0000000000000000000000000000F03F00000000000000000000000000000000000000000000000000000000010000000000000041004100410041004100000000000000000000000C00000013000000112700000C00000013000000010000000C00000012000000FF7F00000C00
310
000014000000010000005400000007000000030000007267D375FCB138C064DCF50DBF213A400000000000000000A28A21DEBFFA38C0780D4560DE1A3B400000000000000000B39786751F6538C01460C7B0CF463A4000000000000000000C00000013000000891300006C000000200000000300000092FFACF58D8B38C03C
310
9E5E5F47343A40000000000000000000000000000037C00000000000003740000000000000000000000000000032C00000000000003740000000000000000000000000000000000000000000000000000000000000F03F
100
AcDbMLeader
300
CONTEXT_DATA{
 40
1.0
 10
-18.0
 20
23.0
 30
0.0
 41
1.0
140
1.0
145
0.25
174
     1
175
     1
176
     0
177
     0
290
     1
304
M3
 11
0.0
 21
0.0
 31
1.0
340
E3
 12
-17.75
 22
23.5
 32
0.0
 13
1.0
 23
0.0
 33
0.0
 42
0.0
 43
0.0
 44
0.0
 45
1.0
170
     1
 90
-1073741824
171
     1
172
     1
 91
-939524096
141
1.5
 92
        0
291
     0
292
     0
173
     0
293
     0
142
0.0
143
0.0
294
     0
295
     0
296
     0
110
0.0
120
0.0
130
0.0
111
1.0
121
0.0
131
0.0
112
0.0
122
1.0
132
0.0
297
     0
302
LEADER{
290
     1
291
     1
 10
-19.0
 20
23.0
 30
0.0
 11
1.0
 21
0.0
 31
0.0
 90
        0
 40
1.0
304
LEADER_LINE{
 10
-24.97949016875157
 20
27.10495568929534
 30
0.0
 10
-23.0
 20
23.0
 30
0.0
 91
        0
305
}
303
}
301
}
340
131
 90
 50649200
170
     1
 91
-1056964608
341
14
171
    -2
290
     0
291
     0
 41
1.0
 42
1.0
172
     2
343
E3
173
     1
 95
        1
174
     2
175
     0
 92
-1073741824
292
     0
 93
-1056964608
 10
1.0
 20
1.0
 30
1.0
 43
0.0
176
     0
293
     0
294
     0
178
     0
179
     1
 45
1.0
1001
ACAD_MLEADERVER
1070
     2
  0
SPLINE
  5
134
330
1F
100
AcDbEntity
  8
Piece
100
AcDbSpline
210
0.0
220
0.0
230
1.0
 70
    15
 71
     2
 72
    12
 73
     9
 74
     0
 42
0.000000001
 43
0.0000000001
 40
0.0
 40
0.0
 40
0.0
 40
11.78097245096172
 40
11.78097245096172
 40
23.56194490192345
 40
23.56194490192345
 40
35.34291735288517
 40
35.34291735288517
 40
47.12388980384689
 40
47.12388980384689
 40
47.12388980384689
 10
7.5
 20
0.0
 30
6.0
 41
1.0
 10
7.5
 20
-7.499999999999998
 30
6.0
 41
0.7071067811865476
 10
0.0000000000000005
 20
-7.5
 30
6.0
 41
1.0
 10
-7.499999999999998
 20
-7.5
 30
6.0
 41
0.7071067811865476
 10
-7.5
 20
-0.0000000000000009
 30
6.0
 41
1.0
 10
-7.5
 20
7.499999999999998
 30
6.0
 41
0.7071067811865476
 10
-0.0000000000000014
 20
7.5
 30
6.0
 41
1.0
 10
7.499999999999998
 20
7.5
 30
6.0
 41
0.7071067811865476
 10
7.5
 20
0.0
 30
6.0
 41
1.0
  0
SPLINE
  5
135
330
1F
100
AcDbEntity
  8
Piece
100
AcDbSpline
210
0.0
220
0.0
230
1.0
 70
    28
 71
     2
 72
     6
 73
     3
 74
     0
 42
0.000000001
 43
0.0000000001
 40
0.0
 40
0.0
 40
0.0
 40
6.0
 40
6.0
 40
6.0
 10
7.5
 20
0.0
 30
6.0
 41
1.0
 10
7.5
 20
0.0
 30
3.0
 41
1.0
 10
7.5
 20
0.0
 30
0.0
 41
1.0
  0
SPLINE
  5
136
330
1F
100
AcDbEntity
  8
Piece
100
AcDbSpline
210
0.0
220
0.0
230
1.0
 70
    15
 71
     2
 72
    12
 73
     9
 74
     0
 42
0.000000001
 43
0.0000000001
 40
0.0
 40
0.0
 40
0.0
 40
11.78097245096172
 40
11.78097245096172
 40
23.56194490192345
 40
23.56194490192345
 40
35.34291735288517
 40
35.34291735288517
 40
47.12388980384689
 40
47.12388980384689
 40
47.12388980384689
 10
7.5
 20
0.0
 30
0.0
 41
1.0
 10
7.5
 20
-7.499999999999998
 30
0.0
 41
0.7071067811865476
 10
0.0000000000000005
 20
-7.5
 30
0.0
 41
1.0
 10
-7.499999999999998
 20
-7.5
 30
0.0
 41
0.7071067811865476
 10
-7.5
 20
-0.0000000000000009
 30
0.0
 41
1.0
 10
-7.5
 20
7.499999999999998
 30
0.0
 41
0.7071067811865476
 10
-0.0000000000000014
 20
7.5
 30
0.0
 41
1.0
 10
7.499999999999998
 20
7.5
 30
0.0
 41
0.7071067811865476
 10
7.5
 20
0.0
 30
0.0
 41
1.0
  0
SPLINE
  5
137
330
1F
100
AcDbEntity
  8
Piece
100
AcDbSpline
210
0.0
220
0.0
230
1.0
 70
    24
 71
     2
 72
     6
 73
     3
 74
     0
 42
0.000000001
 43
0.0000000001
 40
-4.0
 40
-4.0
 40
-4.0
 40
0.0
 40
0.0
 40
0.0
 10
-6.0
 20
4.5
 30
4.982762560766147
 10
-6.0
 20
4.5
 30
2.982762560766147
 10
-6.0
 20
4.5
 30
0.9827625607661474
  0
SPLINE
  5
138
330
1F
100
AcDbEntity
  8
Piece
100
AcDbSpline
210
0.0
220
0.0
230
1.0
 70
    24
 71
     2
 72
     6
 73
     3
 74
     0
 42
0.000000001
 43
0.0000000001
 40
0.0
 40
0.0
 40
0.0
 40
4.0
 40
4.0
 40
4.0
 10
5.999999999999998
 20
4.500000000000002
 30
0.9827625607661474
 10
5.999999999999999
 20
4.5
 30
2.982762560766147
 10
6.0
 20
4.499999999999999
 30
4.982762560766147
  0
SPLINE
  5
139
330
1F
100
AcDbEntity
  8
Piece
100
AcDbSpline
210
0.0
220
0.0
230
1.0
 70
    12
 71
     2
 72
     8
 73
     5
 74
     0
 42
0.000000001
 43
0.0000000001
 40
-42.24405123671474
 40
-42.24405123671474
 40
-42.24405123671474
 40
-35.3429165302058
 40
-35.3429165302058
 40
-28.44178346905559
 40
-28.44178346905559
 40
-28.44178346905559
 10
5.999999999999999
 20
4.500000000000002
 30
0.9827625607661475
 41
0.8578643762690497
 10
3.749999999999992
 20
7.499999999999999
 30
0.982762560766147
 41
0.8284271247461903
 10
-0.0000000000000032
 20
7.5
 30
0.9827625607661474
 41
1.0
 10
-3.749998920762491
 20
7.5
 30
0.9827625607661474
 41
0.8284271656523512
 10
-6.0
 20
4.5
 30
0.9827625607661474
 41
0.8578643622322856
  0
SPLINE
  5
13A
330
1F
100
AcDbEntity
  8
Piece
100
AcDbSpline
210
0.0
220
0.0
230
1.0
 70
    12
 71
     2
 72
     8
 73
     5
 74
     0
 42
0.000000001
 43
0.0000000001
 40
-42.24405123671475
 40
-42.24405123671475
 40
-42.24405123671475
 40
-35.34291735288516
 40
-35.34291735288516
 40
-28.44178346905559
 40
-28.44178346905559
 40
-28.44178346905559
 10
6.000000000000001
 20
4.499999999999999
 30
4.982762560766149
 41
0.8578643622322858
 10
3.749998920762488
 20
7.499999999999998
 30
4.98276256076614
 41
0.8284271656523511
 10
-0.0000000000000014
 20
7.5
 30
4.982762560766143
 41
1.0
 10
-3.749998920762489
 20
7.5
 30
4.982762560766148
 41
0.8284271656523512
 10
-6.000000000000001
 20
4.5
 30
4.982762560766148
 41
0.8578643622322855
  0
SPLINE
  5
13B
330
1F
100
AcDbEntity
  8
Piece
100
AcDbSpline
210
0.0
220
0.0
230
1.0
 70
    24
 71
     2
 72
     6
 73
     3
 74
     0
 42
0.000000001
 43
0.0000000001
 40
3.0
 40
3.0
 40
3.0
 40
5.535898384862247
 40
5.535898384862247
 40
5.535898384862247
 10
-6.0
 20
4.5
 30
0.9827625607661474
 10
-4.732050807568877
 20
4.5
 30
0.9827625607661474
 10
-3.464101615137754
 20
4.5
 30
0.9827625607661474
  0
SPLINE
  5
13C
330
1F
100
AcDbEntity
  8
Piece
100
AcDbSpline
210
0.0
220
0.0
230
1.0
 70
    24
 71
     2
 72
     6
 73
     3
 74
     0
 42
0.000000001
 43
0.0000000001
 40
3.0
 40
3.0
 40
3.0
 40
5.535898384862246
 40
5.535898384862246
 40
5.535898384862246
 10
-6.0
 20
4.5
 30
4.982762560766147
 10
-4.732050807568877
 20
4.5
 30
4.982762560766147
 10
-3.464101615137754
 20
4.499999999999999
 30
4.982762560766147
  0
SPLINE
  5
13D
330
1F
100
AcDbEntity
  8
Piece
100
AcDbSpline
210
0.0
220
0.0
230
1.0
 70
    15
 71
     2
 72
    12
 73
     9
 74
     0
 42
0.000000001
 43
0.0000000001
 40
0.0
 40
0.0
 40
0.0
 40
6.283185307179586
 40
6.283185307179586
 40
12.56637061435917
 40
12.56637061435917
 40
18.84955592153876
 40
18.84955592153876
 40
25.13274122871834
 40
25.13274122871834
 40
25.13274122871834
 10
4.000000000000001
 20
2.5
 30
6.0
 41
1.0
 10
4.000000000000001
 20
-1.5
 30
6.0
 41
0.7071067811865476
 10
0.000000000000001
 20
-1.5
 30
6.0
 41
1.0
 10
-3.999999999999999
 20
-1.5
 30
6.0
 41
0.7071067811865476
 10
-3.999999999999999
 20
2.5
 30
6.0
 41
1.0
 10
-4.0
 20
6.499999999999999
 30
6.0
 41
0.7071067811865476
 10
0.0
 20
6.5
 30
6.0
 41
1.0
 10
4.0
 20
6.499999999999999
 30
6.0
 41
0.7071067811865476
 10
4.000000000000001
 20
2.5
 30
6.0
 41
1.0
  0
SPLINE
  5
13E
330
1F
100
AcDbEntity
  8
Piece
100
AcDbSpline
210
0.0
220
0.0
230
1.0
 70
    28
 71
     2
 72
     6
 73
     3
 74
     0
 42
0.000000001
 43
0.0000000001
 40
0.0
 40
0.0
 40
0.0
 40
6.0
 40
6.0
 40
6.0
 10
4.000000000000001
 20
2.5
 30
6.0
 41
1.0
 10
4.000000000000001
 20
2.5
 30
3.0
 41
1.0
 10
4.000000000000001
 20
2.5
 30
0.0
 41
1.0
  0
SPLINE
  5
13F
330
1F
100
AcDbEntity
  8
Piece
100
AcDbSpline
210
0.0
220
0.0
230
1.0
 70
    15
 71
     2
 72
    12
 73
     9
 74
     0
 42
0.000000001
 43
0.0000000001
 40
0.0
 40
0.0
 40
0.0
 40
6.283185307179586
 40
6.283185307179586
 40
12.56637061435917
 40
12.56637061435917
 40
18.84955592153876
 40
18.84955592153876
 40
25.13274122871834
 40
25.13274122871834
 40
25.13274122871834
 10
4.000000000000001
 20
2.5
 30
0.0
 41
1.0
 10
4.000000000000001
 20
-1.5
 30
0.0
 41
0.7071067811865476
 10
0.000000000000001
 20
-1.5
 30
0.0
 41
1.0
 10
-3.999999999999999
 20
-1.5
 30
0.0
 41
0.7071067811865476
 10
-3.999999999999999
 20
2.5
 30
0.0
 41
1.0
 10
-4.0
 20
6.499999999999999
 30
0.0
 41
0.7071067811865476
 10
0.0
 20
6.5
 30
0.0
 41
1.0
 10
4.0
 20
6.499999999999999
 30
0.0
 41
0.7071067811865476
 10
4.000000000000001
 20
2.5
 30
0.0
 41
1.0
  0
SPLINE
  5
140
330
1F
100
AcDbEntity
  8
Piece
100
AcDbSpline
210
0.0
220
0.0
230
1.0
 70
    24
 71
     2
 72
     6
 73
     3
 74
     0
 42
0.000000001
 43
0.0000000001
 40
0.0
 40
0.0
 40
0.0
 40
4.0
 40
4.0
 40
4.0
 10
-3.464101615137754
 20
4.5
 30
0.9827625607661474
 10
-3.464101615137754
 20
4.5
 30
2.982762560766147
 10
-3.464101615137754
 20
4.499999999999999
 30
4.982762560766147
  0
SPLINE
  5
141
330
1F
100
AcDbEntity
  8
Piece
100
AcDbSpline
210
0.0
220
0.0
230
1.0
 70
    24
 71
     2
 72
     6
 73
     3
 74
     0
 42
0.000000001
 43
0.0000000001
 40
-4.0
 40
-4.0
 40
-4.0
 40
0.0
 40
0.0
 40
0.0
 10
3.464101615137757
 20
4.499999999999998
 30
4.982762560766147
 10
3.464101615137756
 20
4.5
 30
2.982762560766147
 10
3.464101615137754
 20
4.500000000000001
 30
0.9827625607661474
  0
SPLINE
  5
142
330
1F
100
AcDbEntity
  8
Piece
100
AcDbSpline
210
0.0
220
0.0
230
1.0
 70
    12
 71
     2
 72
     8
 73
     5
 74
     0
 42
0.000000001
 43
0.0000000001
 40
14.70944811340468
 40
14.70944811340468
 40
14.70944811340468
 40
18.84955592153876
 40
18.84955592153876
 40
22.98966372967284
 40
22.98966372967284
 40
22.98966372967284
 10
-3.464101615137754
 20
4.5
 30
0.9827625607661473
 41
0.8683474731632849
 10
-2.309400394479475
 20
6.499999999999999
 30
0.9827625607661474
 41
0.8070072497042454
 10
0.0
 20
6.5
 30
0.9827625607661474
 41
1.0
 10
2.309400394479475
 20
6.5
 30
0.9827625607661475
 41
0.8070072497042453
 10
3.464101615137754
 20
4.500000000000001
 30
0.9827625607661474
 41
0.868347473163285
  0
SPLINE
  5
143
330
1F
100
AcDbEntity
  8
Piece
100
AcDbSpline
210
0.0
220
0.0
230
1.0
 70
    12
 71
     2
 72
     8
 73
     5
 74
     0
 42
0.000000001
 43
0.0000000001
 40
14.70944811340468
 40
14.70944811340468
 40
14.70944811340468
 40
18.84955542799939
 40
18.84955542799939
 40
22.98966372967284
 40
22.98966372967284
 40
22.98966372967284
 10
-3.464101615137754
 20
4.499999999999999
 30
4.982762560766148
 41
0.8683474731632849
 10
-2.309400394479475
 20
6.499999999999999
 30
4.982762560766146
 41
0.8070072497042454
 10
-0.0000000000000007
 20
6.5
 30
4.982762560766147
 41
1.0
 10
2.309401076758505
 20
6.500000000000001
 30
4.982762560766149
 41
0.8070072036911771
 10
3.464101615137758
 20
4.499999999999998
 30
4.982762560766147
 41
0.8683475024126042
  0
SPLINE
  5
144
330
1F
100
AcDbEntity
  8
Piece
100
AcDbSpline
210
0.0
220
0.0
230
1.0
 70
    24
 71
     2
 72
     6
 73
     3
 74
     0
 42
0.000000001
 43
0.0000000001
 40
12.46410161513776
 40
12.46410161513776
 40
12.46410161513776
 40
15.0
 40
15.0
 40
15.0
 10
3.464101615137754
 20
4.500000000000001
 30
0.9827625607661474
 10
4.732050807568877
 20
4.500000000000002
 30
0.9827625607661474
 10
5.999999999999998
 20
4.500000000000002
 30
0.9827625607661474
  0
SPLINE
  5
145
330
1F
100
AcDbEntity
  8
Piece
100
AcDbSpline
210
0.0
220
0.0
230
1.0
 70
    24
 71
     2
 72
     6
 73
     3
 74
     0
 42
0.000000001
 43
0.0000000001
 40
12.46410161513776
 40
12.46410161513776
 40
12.46410161513776
 40
15.0
 40
15.0
 40
15.0
 10
3.464101615137757
 20
4.499999999999998
 30
4.982762560766147
 10
4.732050807568879
 20
4.499999999999998
 30
4.982762560766147
 10
6.0
 20
4.499999999999999
 30
4.982762560766147
  0
SPLINE
  5
146
330
1F
100
AcDbEntity
  8
Piece
100
AcDbSpline
 70
     3
 71
     3
 72
    39
 73
    35
 74
     0
 42
0.000000001
 43
0.0000000001
 40
0.0
 40
0.0
 40
0.0
 40
0.0
 40
0.6324770279030487
 40
0.6324770279030487
 40
1.265291469322031
 40
1.265291469322031
 40
1.892491219543316
 40
1.892491219543316
 40
2.518098938851796
 40
2.518098938851796
 40
2.518098938851796
 40
3.477225567063161
 40
3.477225567063161
 40
4.427977286716226
 40
4.427977286716226
 40
4.427977286716226
 40
5.25480306420039
 40
5.25480306420039
 40
5.25480306420039
 40
6.081628841684552
 40
6.081628841684552
 40
6.081628841684552
 40
7.03238056133762
 40
7.03238056133762
 40
7.991507189548983
 40
7.991507189548983
 40
7.991507189548983
 40
8.617114908857484
 40
8.617114908857484
 40
9.244314659078727
 40
9.244314659078727
 40
9.877129100497726
 40
9.877129100497726
 40
10.50960612840078
 40
10.50960612840078
 40
10.50960612840078
 40
10.50960612840078
 10
7.071067811865476
 20
-2.5
 30
3.0
 10
7.071067811865475
 20
-2.5
 30
2.789385794748975
 10
7.055764456077696
 20
-2.544467421956409
 30
2.581953544497593
 10
6.992550905915279
 20
-2.713368206161401
 30
2.20127426239724
 10
6.945412164073209
 20
-2.834966396307427
 30
2.034122433129339
 10
6.818275885623675
 20
-3.128329110412206
 30
1.763188761458144
 10
6.74030712767619
 20
-3.295037133767155
 30
1.662817437272812
 10
6.557770197539558
 20
-3.644785609208727
 30
1.530757005298709
 10
6.454929221071812
 20
-3.824516257539612
 30
1.5
 10
6.344288770224761
 20
-4.0
 30
1.5
 10
6.176392696971952
 20
-4.266295293025657
 30
1.5
 10
5.99028524994286
 20
-4.522060373221932
 30
1.570610739359342
 10
5.6283612319439
 20
-4.965144706395636
 30
1.8239668264713
 10
5.44250867830506
 20
-5.164093039493153
 30
2.013104815591837
 10
5.303300858899107
 20
-5.303300858899107
 30
2.257432244712408
 10
5.182489069756552
 20
-5.424112648041661
 30
2.469472300900478
 10
5.099019513592785
 20
-5.5
 30
2.722719789336673
 10
5.099019513592785
 20
-5.5
 30
3.0
 10
5.099019513592785
 20
-5.5
 30
3.277280210663319
 10
5.182489069756556
 20
-5.424112648041658
 30
3.530527699099528
 10
5.303300858899107
 20
-5.303300858899107
 30
3.742567755287591
 10
5.442508678305068
 20
-5.164093039493145
 30
3.986895184408177
 10
5.628361231943889
 20
-4.965144706395648
 30
4.176033173528691
 10
5.990285249942869
 20
-4.52206037322192
 30
4.429389260640663
 10
6.176392696971942
 20
-4.266295293025673
 30
4.5
 10
6.344288770224761
 20
-4.0
 30
4.5
 10
6.454929221071822
 20
-3.824516257539597
 30
4.5
 10
6.557770197539548
 20
-3.644785609208743
 30
4.469242994701297
 10
6.740307127676188
 20
-3.295037133767158
 30
4.337182562727189
 10
6.818275885623676
 20
-3.128329110412205
 30
4.236811238541855
 10
6.945412164073214
 20
-2.834966396307416
 30
3.965877566870651
 10
6.992550905915276
 20
-2.713368206161409
 30
3.798725737602775
 10
7.055764456077696
 20
-2.544467421956405
 30
3.418046455502396
 10
7.071067811865475
 20
-2.5
 30
3.210614205251038
 10
7.071067811865476
 20
-2.5
 30
3.0
  0
SPLINE
  5
147
330
1F
100
AcDbEntity
  8
Piece
100
AcDbSpline
 70
     3
 71
     3
 72
    39
 73
    35
 74
     0
 42
0.000000001
 43
0.0000000001
 40
0.0
 40
0.0
 40
0.0
 40
0.0
 40
0.6324770369779867
 40
0.6324770369779867
 40
1.265291487476785
 40
1.265291487476785
 40
1.892491246697257
 40
1.892491246697257
 40
2.518098974982064
 40
2.518098974982064
 40
2.518098974982064
 40
3.477225616955188
 40
3.477225616955188
 40
4.427977350249876
 40
4.427977350249876
 40
4.427977350249876
 40
5.254803139597526
 40
5.254803139597526
 40
5.254803139597526
 40
6.08162892894518
 40
6.08162892894518
 40
6.08162892894518
 40
7.032380662239867
 40
7.032380662239867
 40
7.991507304212989
 40
7.991507304212989
 40
7.991507304212989
 40
8.6171150324978
 40
8.6171150324978
 40
9.244314791718281
 40
9.244314791718281
 40
9.877129242217057
 40
9.877129242217057
 40
10.50960612840078
 40
10.50960612840078
 40
10.50960612840078
 40
10.50960612840078
 10
-7.071067811865475
 20
-2.5
 30
3.0
 10
-7.071067811865476
 20
-2.5
 30
3.210614205251025
 10
-7.055764456077695
 20
-2.544467421956411
 30
3.418046455502406
 10
-6.992550905915276
 20
-2.713368206161407
 30
3.79872573760277
 10
-6.945412164073213
 20
-2.834966396307418
 30
3.965877566870652
 10
-6.818275885623677
 20
-3.128329110412198
 30
4.236811238541849
 10
-6.740307127676188
 20
-3.295037133767163
 30
4.337182562727191
 10
-6.557770197539567
 20
-3.644785609208713
 30
4.469242994701286
 10
-6.454929221071806
 20
-3.824516257539626
 30
4.5
 10
-6.344288770224764
 20
-4.0
 30
4.5
 10
-6.176392696971955
 20
-4.266295293025657
 30
4.5
 10
-5.990285249942859
 20
-4.522060373221932
 30
4.429389260640656
 10
-5.628361231943895
 20
-4.965144706395642
 30
4.176033173528695
 10
-5.442508678305064
 20
-5.164093039493149
 30
3.986895184408169
 10
-5.303300858899107
 20
-5.303300858899107
 30
3.74256775528759
 10
-5.182489069756553
 20
-5.42411264804166
 30
3.530527699099522
 10
-5.099019513592784
 20
-5.5
 30
3.277280210663323
 10
-5.099019513592784
 20
-5.5
 30
3.0
 10
-5.099019513592784
 20
-5.5
 30
2.722719789336672
 10
-5.182489069756551
 20
-5.424112648041662
 30
2.469472300900478
 10
-5.303300858899107
 20
-5.303300858899107
 30
2.257432244712408
 10
-5.442508678305066
 20
-5.164093039493148
 30
2.013104815591828
 10
-5.628361231943892
 20
-4.965144706395644
 30
1.823966826471305
 10
-5.990285249942859
 20
-4.52206037322193
 30
1.570610739359342
 10
-6.17639269697195
 20
-4.26629529302566
 30
1.5
 10
-6.344288770224761
 20
-4.0
 30
1.5
 10
-6.454929221071807
 20
-3.824516257539621
 30
1.5
 10
-6.557770197539562
 20
-3.644785609208721
 30
1.530757005298711
 10
-6.740307127676191
 20
-3.295037133767158
 30
1.66281743727281
 10
-6.818275885623673
 20
-3.128329110412205
 30
1.763188761458145
 10
-6.94541216407321
 20
-2.834966396307419
 30
2.034122433129345
 10
-6.992550905915277
 20
-2.713368206161406
 30
2.20127426239723
 10
-7.055764448544062
 20
-2.54446744208558
 30
2.581953499129195
 10
-7.071067804568265
 20
-2.500000021203721
 30
2.789385695837562
 10
-7.071067811865475
 20
-2.5
 30
3.0
  0
SPLINE
  5
148
330
1F
100
AcDbEntity
  8
Piece
100
AcDbSpline
210
0.0
220
0.0
230
1.0
 70
    28
 71
     2
 72
     6
 73
     3
 74
     0
 42
0.000000001
 43
0.0000000001
 40
2.928932188134524
 40
2.928932188134524
 40
2.928932188134524
 40
8.75
 40
8.75
 40
8.75
 10
7.071067811865476
 20
-2.5
 30
3.0
 41
1.0
 10
4.160533905932738
 20
-2.5
 30
3.0
 41
1.0
 10
1.25
 20
-2.5
 30
3.0
 41
1.0
  0
SPLINE
  5
149
330
1F
100
AcDbEntity
  8
Piece
100
AcDbSpline
 70
     3
 71
     3
 72
    41
 73
    37
 74
     0
 42
0.000000001
 43
0.0000000001
 40
0.0
 40
0.0
 40
0.0
 40
0.0
 40
0.4951185666701503
 40
0.4951185666701503
 40
0.9898738441389932
 40
0.9898738441389932
 40
1.484638231173069
 40
1.484638231173069
 40
1.979749381935789
 40
1.979749381935789
 40
1.979749381935789
 40
2.474860532699066
 40
2.474860532699066
 40
2.969624919731499
 40
2.969624919731499
 40
3.464380197200864
 40
3.464380197200864
 40
3.959498763871551
 40
3.959498763871551
 40
3.959498763871551
 40
4.454617330541711
 40
4.454617330541711
 40
4.949372608010548
 40
4.949372608010548
 40
5.444136995044622
 40
5.444136995044622
 40
5.939248145807341
 40
5.939248145807341
 40
5.939248145807341
 40
6.434359296570626
 40
6.434359296570626
 40
6.92912368360305
 40
6.92912368360305
 40
7.42387896107242
 40
7.42387896107242
 40
7.918997527743102
 40
7.918997527743102
 40
7.918997527743102
 40
7.918997527743102
 10
1.25
 20
-7.39509972887452
 30
3.0
 10
1.25
 20
-7.39509972887452
 30
2.835453108164012
 10
1.217543037664359
 20
-7.400786710445575
 30
2.672799241474864
 10
1.091749992468029
 20
-7.420386175097766
 30
2.369513066475819
 10
0.9997156858103934
 20
-7.433987679122465
 30
2.231950753895497
 10
0.7680645569596428
 20
-7.461479853428384
 30
2.00029558303914
 10
0.6305011508263023
 20
-7.474994551575169
 30
1.90825686825266
 10
0.3272041278067062
 20
-7.494400914194761
 30
1.782457395310813
 10
0.1645435052581387
 20
-7.5
 30
1.75
 10
0.0000000000000003
 20
-7.5
 30
1.75
 10
-0.1645435052581439
 20
-7.5
 30
1.75
 10
-0.3272041278067006
 20
-7.494400914194761
 30
1.78245739531081
 10
-0.6305011508256333
 20
-7.474994551575211
 30
1.908256868252383
 10
-0.768064556960151
 20
-7.461479853428324
 30
2.000295583039649
 10
-0.9997156858103916
 20
-7.433987679122466
 30
2.231950753895495
 10
-1.091749992468029
 20
-7.420386175097764
 30
2.369513066475822
 10
-1.217543037664361
 20
-7.400786710445573
 30
2.672799241474867
 10
-1.25
 20
-7.395099728874521
 30
2.835453108164011
 10
-1.25
 20
-7.395099728874521
 30
3.0
 10
-1.25
 20
-7.395099728874521
 30
3.16454689183599
 10
-1.217543037664361
 20
-7.400786710445577
 30
3.327200758525133
 10
-1.091749992468029
 20
-7.420386175097768
 30
3.630486933524181
 10
-0.9997156858103923
 20
-7.433987679122466
 30
3.768049246104504
 10
-0.7680645569596415
 20
-7.461479853428385
 30
3.99970441696086
 10
-0.6305011508263021
 20
-7.474994551575169
 30
4.09174313174734
 10
-0.3272041278067061
 20
-7.494400914194761
 30
4.217542604689188
 10
-0.1645435052581377
 20
-7.5
 30
4.25
 10
0.0000000000000001
 20
-7.5
 30
4.25
 10
0.1645435052581446
 20
-7.5
 30
4.25
 10
0.3272041278067007
 20
-7.494400914194761
 30
4.21754260468919
 10
0.6305011508256295
 20
-7.474994551575211
 30
4.09174313174762
 10
0.7680645569601547
 20
-7.461479853428322
 30
3.999704416960347
 10
0.9997156858103916
 20
-7.433987679122465
 30
3.768049246104505
 10
1.09174999246803
 20
-7.420386175097764
 30
3.630486933524178
 10
1.217543037664359
 20
-7.400786710445574
 30
3.327200758525138
 10
1.25
 20
-7.39509972887452
 30
3.164546891835983
 10
1.25
 20
-7.39509972887452
 30
3.0
  0
SPLINE
  5
14A
330
1F
100
AcDbEntity
  8
Piece
100
AcDbSpline
 70
     3
 71
     3
 72
    41
 73
    37
 74
     0
 42
0.000000001
 43
0.0000000001
 40
0.0
 40
0.0
 40
0.0
 40
0.0
 40
0.4979992396523358
 40
0.4979992396523358
 40
0.9946214904070526
 40
0.9946214904070526
 40
1.491360176305734
 40
1.491360176305734
 40
1.989271011995158
 40
1.989271011995158
 40
1.989271011995158
 40
2.487181847684587
 40
2.487181847684587
 40
2.983920533583257
 40
2.983920533583257
 40
3.480542784337978
 40
3.480542784337978
 40
3.978542023990316
 40
3.978542023990316
 40
3.978542023990316
 40
4.476541263642641
 40
4.476541263642641
 40
4.973163514397354
 40
4.973163514397354
 40
5.469902200296028
 40
5.469902200296028
 40
5.967813035985476
 40
5.967813035985476
 40
5.967813035985476
 40
6.4657238716749
 40
6.4657238716749
 40
6.962462557573563
 40
6.962462557573563
 40
7.459084808328297
 40
7.459084808328297
 40
7.957084047980633
 40
7.957084047980633
 40
7.957084047980633
 40
7.957084047980633
 10
1.25
 20
-1.299671038392667
 30
3.0
 10
1.25
 20
-1.299671038392666
 30
2.834404783134671
 10
1.21721109587278
 20
-1.310872535853288
 30
2.671483087330821
 10
1.091052007780934
 20
-1.348887347954201
 30
2.368349400753305
 10
0.9991438750248928
 20
-1.375003754931337
 30
2.231403312294479
 10
0.7687985081266431
 20
-1.427199762705406
 30
2.001005181922931
 10
0.6318378691375628
 20
-1.452727778501123
 30
1.909038835128641
 10
0.3285594734262859
 20
-1.489415324843239
 30
1.782793689521091
 10
0.1655532591680673
 20
-1.5
 30
1.75
 10
0.0000000000000005
 20
-1.5
 30
1.75
 10
-0.1655532591680688
 20
-1.5
 30
1.75
 10
-0.3285594734262826
 20
-1.489415324843239
 30
1.78279368952109
 10
-0.6318378691375602
 20
-1.452727778501123
 30
1.90903883512864
 10
-0.768798508126644
 20
-1.427199762705406
 30
2.001005181922932
 10
-0.9991438750248944
 20
-1.375003754931336
 30
2.231403312294481
 10
-1.091052007780932
 20
-1.348887347954202
 30
2.368349400753304
 10
-1.21721109587278
 20
-1.310872535853288
 30
2.671483087330824
 10
-1.25
 20
-1.299671038392666
 30
2.83440478313467
 10
-1.25
 20
-1.299671038392666
 30
3.0
 10
-1.25
 20
-1.299671038392666
 30
3.165595216865325
 10
-1.217211095872779
 20
-1.310872535853289
 30
3.328516912669179
 10
-1.091052007780933
 20
-1.348887347954202
 30
3.631650599246694
 10
-0.9991438750248933
 20
-1.375003754931337
 30
3.768596687705521
 10
-0.7687985081266429
 20
-1.427199762705406
 30
3.998994818077069
 10
-0.6318378691375628
 20
-1.452727778501123
 30
4.090961164871359
 10
-0.3285594734262767
 20
-1.489415324843241
 30
4.217206310478912
 10
-0.1655532591680757
 20
-1.5
 30
4.25
 10
0.0000000000000004
 20
-1.5
 30
4.25
 10
0.1655532591680677
 20
-1.5
 30
4.25
 10
0.3285594734262854
 20
-1.489415324843239
 30
4.21720631047891
 10
0.6318378691375586
 20
-1.452727778501124
 30
4.090961164871362
 10
0.7687985081266466
 20
-1.427199762705405
 30
3.998994818077064
 10
0.9991438750248974
 20
-1.375003754931336
 30
3.768596687705516
 10
1.091052007780932
 20
-1.348887347954203
 30
3.631650599246699
 10
1.21721109587278
 20
-1.310872535853289
 30
3.328516912669176
 10
1.25
 20
-1.299671038392666
 30
3.165595216865328
 10
1.25
 20
-1.299671038392667
 30
3.0
  0
SPLINE
  5
14B
330
1F
100
AcDbEntity
  8
Piece
100
AcDbSpline
 70
     0
 71
     3
 72
    27
 73
    23
 74
     0
 42
0.000000001
 43
0.0000000001
 40
0.0
 40
0.0
 40
0.0
 40
0.0
 40
0.5336299137828335
 40
0.5336299137828335
 40
1.060754888172964
 40
1.060754888172964
 40
1.580944543891148
 40
1.580944543891148
 40
1.84453778286692
 40
1.84453778286692
 40
2.111833741495012
 40
2.111833741495012
 40
2.111833741495012
 40
2.379129699855096
 40
2.379129699855096
 40
2.642722942481741
 40
2.642722942481741
 40
3.162912597438043
 40
3.162912597438043
 40
3.690037570479942
 40
3.690037570479942
 40
4.223667483020775
 40
4.223667483020775
 40
4.223667483020775
 40
4.223667483020775
 10
-1.25
 20
-2.5
 30
3.0
 10
-1.25
 20
-2.5
 30
2.822108206324899
 10
-1.212278701151492
 20
-2.531823558317969
 30
2.651788938799678
 10
-1.077697587177002
 20
-2.64081173816665
 30
2.345209159586527
 10
-0.9839019658308937
 20
-2.715573063477736
 30
2.213634073836385
 10
-0.7639561026066591
 20
-2.875068760110704
 30
1.998910663622318
 10
-0.63430492624936
 20
-2.963364155787905
 30
1.911664426458088
 10
-0.4182237159272078
 20
-3.073446842760714
 30
1.819393026078246
 10
-0.3400479411338033
 20
-3.107263510151119
 30
1.794215201479885
 10
-0.174583046652319
 20
-3.156405922461195
 30
1.759326881972112
 10
-0.0889005157132686
 20
-3.17084380241115
 30
1.75
 10
0.0000000000000002
 20
-3.17084380241115
 30
1.75
 10
0.0889005157554993
 20
-3.17084380241115
 30
1.75
 10
0.1745830466128362
 20
-3.156405922472924
 30
1.759326881963786
 10
0.3400479423930015
 20
-3.107263509777144
 30
1.794215201745387
 10
0.4182237148144424
 20
-3.073446843327613
 30
1.81939302560307
 10
0.6343049262490095
 20
-2.963364155788083
 30
1.911664426457938
 10
0.7639561026069228
 20
-2.875068760110511
 30
1.998910663622576
 10
0.9839019657096197
 20
-2.715573063565678
 30
2.213634073717992
 10
1.077697587274085
 20
-2.640811738082513
 30
2.345209159709162
 10
1.212278701130381
 20
-2.531823558327596
 30
2.651788938626019
 10
1.25
 20
-2.5
 30
2.822108206483753
 10
1.25
 20
-2.5
 30
3.0
  0
SPLINE
  5
14C
330
1F
100
AcDbEntity
  8
Piece
100
AcDbSpline
 70
     3
 71
     3
 72
    49
 73
    45
 74
     0
 42
0.000000001
 43
0.0000000001
 40
0.0
 40
0.0
 40
0.0
 40
0.0
 40
0.5336299137828149
 40
0.5336299137828149
 40
1.060754888172941
 40
1.060754888172941
 40
1.580944543891142
 40
1.580944543891142
 40
1.844537782866914
 40
1.844537782866914
 40
2.111833741495012
 40
2.111833741495012
 40
2.111833741495012
 40
2.37912969985507
 40
2.37912969985507
 40
2.642722942481742
 40
2.642722942481742
 40
3.162912597438031
 40
3.162912597438031
 40
3.690037570479941
 40
3.690037570479941
 40
4.223667483020774
 40
4.223667483020774
 40
4.223667483020774
 40
4.757093349861059
 40
4.757093349861059
 40
5.284314617611231
 40
5.284314617611231
 40
5.80447127284451
 40
5.80447127284451
 40
6.060095039090024
 40
6.060095039090024
 40
6.335550954860481
 40
6.335550954860481
 40
6.335550954860481
 40
6.611006870630966
 40
6.611006870630966
 40
6.866630636876534
 40
6.866630636876534
 40
7.38678729210946
 40
7.38678729210946
 40
7.914008559859754
 40
7.914008559859754
 40
8.447434426700182
 40
8.447434426700182
 40
8.447434426700182
 40
8.447434426700182
 10
1.25
 20
-5.5
 30
3.0
 10
1.25
 20
-5.5
 30
2.822108206324901
 10
1.212278701151491
 20
-5.468176441682028
 30
2.651788938799675
 10
1.077697587177002
 20
-5.359188261833348
 30
2.345209159586527
 10
0.9839019658308936
 20
-5.284426936522264
 30
2.213634073836387
 10
0.7639561026066534
 20
-5.124931239889293
 30
1.998910663622314
 10
0.6343049262493655
 20
-5.036635844212096
 30
1.91166442645809
 10
0.4182237159272079
 20
-4.926553157239285
 30
1.819393026078246
 10
0.3400479411338033
 20
-4.892736489848879
 30
1.794215201479885
 10
0.1745830466523164
 20
-4.843594077538802
 30
1.759326881972111
 10
0.0889005157132713
 20
-4.82915619758885
 30
1.75
 10
0.0000000000000003
 20
-4.82915619758885
 30
1.75
 10
-0.0889005157554898
 20
-4.82915619758885
 30
1.75
 10
-0.1745830466128435
 20
-4.843594077527079
 30
1.759326881963788
 10
-0.340047942393008
 20
-4.892736490222858
 30
1.794215201745389
 10
-0.4182237148144342
 20
-4.926553156672383
 30
1.819393025603067
 10
-0.6343049262490048
 20
-5.036635844211914
 30
1.911664426457936
 10
-0.7639561026069258
 20
-5.124931239889488
 30
1.998910663622579
 10
-0.9839019657096222
 20
-5.284426936434321
 30
2.213634073717994
 10
-1.077697587274084
 20
-5.359188261917486
 30
2.345209159709158
 10
-1.212278701130381
 20
-5.468176441672403
 30
2.651788938626019
 10
-1.25
 20
-5.5
 30
2.822108206483754
 10
-1.25
 20
-5.5
 30
3.0
 10
-1.25
 20
-5.5
 30
3.178009373916721
 10
-1.21223113378267
 20
-5.468137920073778
 30
3.348319421080774
 10
-1.077706797316784
 20
-5.359195720505215
 30
3.654769859441146
 10
-0.9839174646422639
 20
-5.284438175623015
 30
3.786350795360138
 10
-0.7639676934153009
 20
-5.124939645067151
 30
4.001078020784279
 10
-0.6343140222358123
 20
-5.036640478167207
 30
4.088331689356859
 10
-0.4204118797856861
 20
-4.927667918475205
 30
4.17967258012055
 10
-0.3447679034774824
 20
-4.894788004574768
 30
4.204258194049437
 10
-0.1797975846749588
 20
-4.844503381500562
 30
4.240096688427943
 10
-0.0916333416291565
 20
-4.829156197588851
 30
4.25
 10
-0.0000000000000002
 20
-4.829156197588851
 30
4.25
 10
0.0916333416291413
 20
-4.829156197588851
 30
4.25
 10
0.1797975846749733
 20
-4.844503381500564
 30
4.240096688427941
 10
0.3447679034774793
 20
-4.894788004574766
 30
4.204258194049439
 10
0.4204118797856889
 20
-4.927667918475209
 30
4.179672580120547
 10
0.6343140222356745
 20
-5.036640478167139
 30
4.088331689356917
 10
0.7639676934154067
 20
-5.124939645067228
 30
4.001078020784176
 10
0.9839174646422577
 20
-5.28443817562301
 30
3.786350795360144
 10
1.077706797316788
 20
-5.35919572050522
 30
3.654769859441137
 10
1.212231133782669
 20
-5.468137920073779
 30
3.348319421080777
 10
1.25
 20
-5.5
 30
3.178009373916717
 10
1.25
 20
-5.5
 30
3.0
  0
SPLINE
  5
14D
330
1F
100
AcDbEntity
  8
Piece
100
AcDbSpline
 70
     0
 71
     3
 72
    27
 73
    23
 74
     0
 42
0.000000001
 43
0.0000000001
 40
0.0
 40
0.0
 40
0.0
 40
0.0
 40
0.5334258668402703
 40
0.5334258668402703
 40
1.060647134590426
 40
1.060647134590426
 40
1.580803789823779
 40
1.580803789823779
 40
1.836427556069277
 40
1.836427556069277
 40
2.111883471839705
 40
2.111883471839705
 40
2.111883471839705
 40
2.387339387610174
 40
2.387339387610174
 40
2.642963153855773
 40
2.642963153855773
 40
3.163119809088716
 40
3.163119809088716
 40
3.690341076839005
 40
3.690341076839005
 40
4.223766943679405
 40
4.223766943679405
 40
4.223766943679405
 40
4.223766943679405
 10
1.25
 20
-2.5
 30
3.0
 10
1.25
 20
-2.5
 30
3.178009373916713
 10
1.212231133782669
 20
-2.531862079926225
 30
3.34831942108078
 10
1.077706797316788
 20
-2.640804279494783
 30
3.65476985944114
 10
0.9839174646422585
 20
-2.715561824376988
 30
3.786350795360142
 10
0.7639676934152854
 20
-2.875060354932859
 30
4.001078020784293
 10
0.6343140222358286
 20
-2.963359521832784
 30
4.088331689356852
 10
0.4204118797856903
 20
-3.072332081524791
 30
4.179672580120547
 10
0.3447679034774739
 20
-3.105211995425231
 30
4.204258194049438
 10
0.179797584674967
 20
-3.155496618499432
 30
4.240096688427939
 10
0.0916333416291455
 20
-3.17084380241115
 30
4.25
 10
-0.0000000000000002
 20
-3.17084380241115
 30
4.25
 10
-0.091633341629138
 20
-3.17084380241115
 30
4.25
 10
-0.1797975846749763
 20
-3.155496618499433
 30
4.240096688427937
 10
-0.3447679034774884
 20
-3.10521199542523
 30
4.204258194049435
 10
-0.4204118797856788
 20
-3.072332081524796
 30
4.179672580120552
 10
-0.6343140222356816
 20
-2.963359521832857
 30
4.088331689356915
 10
-0.7639676934153997
 20
-2.875060354932776
 30
4.001078020784181
 10
-0.9839174646422584
 20
-2.715561824376988
 30
3.786350795360143
 10
-1.077706797316788
 20
-2.640804279494783
 30
3.654769859441141
 10
-1.212231133782668
 20
-2.531862079926224
 30
3.348319421080781
 10
-1.25
 20
-2.5
 30
3.178009373916713
 10
-1.25
 20
-2.5
 30
3.0
  0
SPLINE
  5
14E
330
1F
100
AcDbEntity
  8
Piece
100
AcDbSpline
210
0.0
220
0.0
230
1.0
 70
    28
 71
     2
 72
     6
 73
     3
 74
     0
 42
0.000000001
 43
0.0000000001
 40
11.25
 40
11.25
 40
11.25
 40
17.07106781186548
 40
17.07106781186548
 40
17.07106781186548
 10
-1.25
 20
-2.5
 30
3.0
 41
1.0
 10
-4.160533905932738
 20
-2.5
 30
3.0
 41
1.0
 10
-7.071067811865475
 20
-2.5
 30
3.0
 41
1.0
  0
SPLINE
  5
14F
330
1F
100
AcDbEntity
  8
Piece
100
AcDbSpline
210
0.0
220
0.0
230
1.0
 70
    28
 71
     2
 72
     6
 73
     3
 74
     0
 42
0.000000001
 43
0.0000000001
 40
10.5
 40
10.5
 40
10.5
 40
11.70032896160733
 40
11.70032896160733
 40
11.70032896160733
 10
1.25
 20
-2.5
 30
3.0
 41
1.0
 10
1.25
 20
-1.899835519196333
 30
3.0
 41
1.0
 10
1.25
 20
-1.299671038392667
 30
3.0
 41
1.0
  0
SPLINE
  5
150
330
1F
100
AcDbEntity
  8
Piece
100
AcDbSpline
210
0.0
220
0.0
230
1.0
 70
    28
 71
     2
 72
     6
 73
     3
 74
     0
 42
0.000000001
 43
0.0000000001
 40
5.604900271125479
 40
5.604900271125479
 40
5.604900271125479
 40
7.500000000000001
 40
7.500000000000001
 40
7.500000000000001
 10
1.25
 20
-7.39509972887452
 30
3.0
 41
1.0
 10
1.25
 20
-6.44754986443726
 30
3.0
 41
1.0
 10
1.25
 20
-5.5
 30
3.0
 41
1.0
  0
SPLINE
  5
151
330
1F
100
AcDbEntity
  8
Piece
100
AcDbSpline
210
0.0
220
0.0
230
1.0
 70
    12
 71
     2
 72
     6
 73
     3
 74
     0
 42
0.000000001
 43
0.0000000001
 40
0.0
 40
0.0
 40
0.0
 40
2.668872333541614
 40
2.668872333541614
 40
2.668872333541614
 10
7.5
 20
0.0
 30
3.0
 41
1.0
 10
7.500000000000001
 20
-1.286796564403574
 30
3.0
 41
0.9336477008475339
 10
7.071067811865476
 20
-2.5
 30
3.0
 41
0.897358423438309
  0
SPLINE
  5
152
330
1F
100
AcDbEntity
  8
Piece
100
AcDbSpline
210
0.0
220
0.0
230
1.0
 70
    12
 71
     2
 72
     6
 73
     3
 74
     0
 42
0.000000001
 43
0.0000000001
 40
6.159391343733848
 40
6.159391343733848
 40
6.159391343733848
 40
10.42976282834466
 40
10.42976282834466
 40
10.42976282834466
 10
5.099019513592788
 20
-5.5
 30
3.0
 41
0.8538585840152015
 10
3.457341064425182
 20
-7.021990990427337
 30
2.999999999999999
 41
0.8587052351119102
 10
1.249999999999999
 20
-7.395099728874519
 30
2.999999999999999
 41
0.9405195570871256
  0
SPLINE
  5
153
330
1F
100
AcDbEntity
  8
Piece
100
AcDbSpline
210
0.0
220
0.0
230
1.0
 70
    12
 71
     2
 72
     6
 73
     3
 74
     0
 42
0.000000001
 43
0.0000000001
 40
13.13218207357879
 40
13.13218207357879
 40
13.13218207357879
 40
17.40255355818959
 40
17.40255355818959
 40
17.40255355818959
 10
-1.249999999999998
 20
-7.395099728874519
 30
3.0
 41
0.9405195570871256
 10
-3.457341064425177
 20
-7.021990990427338
 30
3.0
 41
0.8587052351119102
 10
-5.099019513592782
 20
-5.500000000000004
 30
3.0
 41
0.8538585840152015
  0
SPLINE
  5
154
330
1F
100
AcDbEntity
  8
Piece
100
AcDbSpline
210
0.0
220
0.0
230
1.0
 70
    12
 71
     2
 72
     8
 73
     5
 74
     0
 42
0.000000001
 43
0.0000000001
 40
20.89307256838183
 40
20.89307256838183
 40
20.89307256838183
 40
23.56194490192345
 40
23.56194490192345
 40
28.44178346905559
 40
28.44178346905559
 40
28.44178346905559
 10
-7.071067811865474
 20
-2.5
 30
3.0
 41
0.897358423438309
 10
-7.499999999999999
 20
-1.286796564403575
 30
3.0
 41
0.9336477008475339
 10
-7.5
 20
-0.0000000000000009
 30
3.0
 41
1.0
 10
-7.499999999999998
 20
2.499999999999999
 30
3.0
 41
0.8786796564403574
 10
-5.999999999999999
 20
4.5
 30
3.0
 41
0.8578643762690494
  0
SPLINE
  5
155
330
1F
100
AcDbEntity
  8
Piece
100
AcDbSpline
210
0.0
220
0.0
230
1.0
 70
    12
 71
     2
 72
     6
 73
     3
 74
     0
 42
0.000000001
 43
0.0000000001
 40
42.24405123671474
 40
42.24405123671474
 40
42.24405123671474
 40
47.12388980384689
 40
47.12388980384689
 40
47.12388980384689
 10
5.999999999999996
 20
4.500000000000003
 30
3.0
 41
0.8578643762690497
 10
7.499999999999998
 20
2.500000000000002
 30
3.0
 41
0.8786796564403574
 10
7.5
 20
0.0
 30
3.0
 41
1.0
  0
SPLINE
  5
156
330
1F
100
AcDbEntity
  8
Piece
100
AcDbSpline
210
0.0
220
0.0
230
1.0
 70
    28
 71
     2
 72
     6
 73
     3
 74
     0
 42
0.000000001
 43
0.0000000001
 40
0.0
 40
0.0
 40
0.0
 40
1.75
 40
1.75
 40
1.75
 10
0.0000000000000005
 20
-7.5
 30
6.0
 41
1.0
 10
0.0000000000000005
 20
-7.5
 30
5.125
 41
1.0
 10
0.0000000000000005
 20
-7.499999999999999
 30
4.25
 41
1.0
  0
SPLINE
  5
157
330
1F
100
AcDbEntity
  8
Piece
100
AcDbSpline
210
0.0
220
0.0
230
1.0
 70
    28
 71
     2
 72
     6
 73
     3
 74
     0
 42
0.000000001
 43
0.0000000001
 40
4.25
 40
4.25
 40
4.25
 40
6.0
 40
6.0
 40
6.0
 10
0.0000000000000005
 20
-7.5
 30
1.75
 41
1.0
 10
0.0000000000000005
 20
-7.5
 30
0.875
 41
1.0
 10
0.0000000000000005
 20
-7.5
 30
0.0
 41
1.0
  0
SPLINE
  5
158
330
1F
100
AcDbEntity
  8
Piece
100
AcDbSpline
210
0.0
220
0.0
230
1.0
 70
    28
 71
     2
 72
     6
 73
     3
 74
     0
 42
0.000000001
 43
0.0000000001
 40
0.0
 40
0.0
 40
0.0
 40
6.0
 40
6.0
 40
6.0
 10
-7.5
 20
-0.0000000000000009
 30
6.0
 41
1.0
 10
-7.5
 20
-0.0000000000000009
 30
3.0
 41
1.0
 10
-7.5
 20
-0.0000000000000009
 30
0.0
 41
1.0
  0
SPLINE
  5
159
330
1F
100
AcDbEntity
  8
Piece
100
AcDbSpline
210
0.0
220
0.0
230
1.0
 70
    28
 71
     2
 72
     6
 73
     3
 74
     0
 42
0.000000001
 43
0.0000000001
 40
0.0
 40
0.0
 40
0.0
 40
1.017237439233853
 40
1.017237439233853
 40
1.017237439233853
 10
-0.0000000000000014
 20
7.5
 30
6.0
 41
1.0
 10
-0.0000000000000014
 20
7.5
 30
5.491381280383074
 41
1.0
 10
-0.0000000000000014
 20
7.5
 30
4.982762560766147
 41
1.0
  0
SPLINE
  5
15A
330
1F
100
AcDbEntity
  8
Piece
100
AcDbSpline
210
0.0
220
0.0
230
1.0
 70
    28
 71
     2
 72
     6
 73
     3
 74
     0
 42
0.000000001
 43
0.0000000001
 40
5.017237439233853
 40
5.017237439233853
 40
5.017237439233853
 40
6.0
 40
6.0
 40
6.0
 10
-0.0000000000000014
 20
7.5
 30
0.9827625607661473
 41
1.0
 10
-0.0000000000000014
 20
7.5
 30
0.4913812803830737
 41
1.0
 10
-0.0000000000000014
 20
7.5
 30
0.0
 41
1.0
  0
LINE
  5
15B
330
1F
100
AcDbEntity
  8
Piece
100
AcDbLine
 10
-7.499999999999999
 20
0.0
 30
6.0
 11
-3.122498999199198
 21
0.0
 31
6.0
  0
LINE
  5
15C
330
1F
100
AcDbEntity
  8
Piece
100
AcDbLine
 10
3.122498594265366
 20
0.0
 30
6.0
 11
7.5
 21
0.0
 31
6.0
  0
LINE
  5
15D
330
1F
100
AcDbEntity
  8
Piece
100
AcDbLine
 10
0.0
 20
7.5
 30
6.0
 11
0.0
 21
6.5
 31
6.0
  0
LINE
  5
15E
330
1F
100
AcDbEntity
  8
Piece
100
AcDbLine
 10
0.0
 20
-1.5
 30
6.0
 11
0.0
 21
-7.499999999999998
 31
6.0
  0
LINE
  5
15F
330
1F
100
AcDbEntity
  8
Piece
100
AcDbLine
 10
-7.499999999999999
 20
0.0
 30
0.0
 11
-3.122498999199198
 21
0.0
 31
0.0
  0
LINE
  5
160
330
1F
100
AcDbEntity
  8
Piece
100
AcDbLine
 10
3.122498594265366
 20
0.0
 30
0.0
 11
7.5
 21
0.0
 31
0.0
  0
LINE
  5
161
330
1F
100
AcDbEntity
  8
Piece
100
AcDbLine
 10
0.0
 20
7.5
 30
0.0
 11
0.0
 21
6.5
 31
0.0
  0
LINE
  5
162
330
1F
100
AcDbEntity
  8
Piece
100
AcDbLine
 10
0.0
 20
-1.5
 30
0.0
 11
0.0
 21
-7.499999999999998
 31
0.0
  0
SPLINE
  5
163
330
1F
100
AcDbEntity
  8
Piece
100
AcDbSpline
210
0.0
220
0.0
230
1.0
 70
    24
 71
     2
 72
     6
 73
     3
 74
     0
 42
0.000000001
 43
0.0000000001
 40
3.0
 40
3.0
 40
3.0
 40
5.535898384862246
 40
5.535898384862246
 40
5.535898384862246
 10
-6.0
 20
4.5
 30
2.982762560766147
 10
-4.732050807568878
 20
4.5
 30
2.982762560766147
 10
-3.464101615137755
 20
4.5
 30
2.982762560766148
  0
LINE
  5
164
330
1F
100
AcDbEntity
  8
Piece
100
AcDbLine
 10
-2.692582403567251
 20
7.0
 30
0.9827625607661474
 11
2.692581977689228
 21
7.0
 31
0.9827625607661474
  0
LINE
  5
165
330
1F
100
AcDbEntity
  8
Piece
100
AcDbLine
 10
0.0
 20
6.499999999999999
 30
0.9827625607661474
 11
0.0
 21
7.499999999999999
 31
0.9827625607661474
  0
LINE
  5
166
330
1F
100
AcDbEntity
  8
Piece
100
AcDbLine
 10
-2.692581977689238
 20
7.0
 30
4.982762560766147
 11
2.692581977689236
 21
7.0
 31
4.982762560766147
  0
LINE
  5
167
330
1F
100
AcDbEntity
  8
Piece
100
AcDbLine
 10
0.0
 20
6.5
 30
4.982762560766147
 11
0.0
 21
7.499999999999999
 31
4.982762560766147
  0
SPLINE
  5
168
330
1F
100
AcDbEntity
  8
Piece
100
AcDbSpline
210
0.0
220
0.0
230
1.0
 70
    12
 71
     2
 72
     6
 73
     3
 74
     0
 42
0.000000001
 43
0.0000000001
 40
0.0
 40
0.0
 40
0.0
 40
4.947773205888882
 40
4.947773205888882
 40
4.947773205888882
 10
4.000000000000001
 20
2.5
 30
3.0
 41
1.0
 10
4.000000000000001
 20
-0.394987457822984
 30
3.0
 41
0.7693575552234896
 10
1.25
 20
-1.299671038392666
 30
3.0
 41
0.9019596918544228
  0
SPLINE
  5
169
330
1F
100
AcDbEntity
  8
Piece
100
AcDbSpline
210
0.0
220
0.0
230
1.0
 70
    12
 71
     2
 72
     8
 73
     5
 74
     0
 42
0.000000001
 43
0.0000000001
 40
7.618597408470296
 40
7.618597408470296
 40
7.618597408470296
 40
12.56637061435917
 40
12.56637061435917
 40
14.70944811340468
 40
14.70944811340468
 40
14.70944811340468
 10
-1.250000000000003
 20
-1.299671038392664
 30
3.0
 41
0.9019596918544226
 10
-3.999999999999999
 20
-0.3949874578229808
 30
3.0
 41
0.7693575552234898
 10
-3.999999999999999
 20
2.5
 30
3.0
 41
1.0
 10
-3.999999999999999
 20
3.57179676972449
 30
3.0
 41
0.9000995774953704
 10
-3.464101615137754
 20
4.5
 30
3.0
 41
0.868347502412604
  0
SPLINE
  5
16A
330
1F
100
AcDbEntity
  8
Piece
100
AcDbSpline
210
0.0
220
0.0
230
1.0
 70
    12
 71
     2
 72
     6
 73
     3
 74
     0
 42
0.000000001
 43
0.0000000001
 40
22.98966372967284
 40
22.98966372967284
 40
22.98966372967284
 40
25.13274122871834
 40
25.13274122871834
 40
25.13274122871834
 10
3.464101615137756
 20
4.499999999999998
 30
3.0
 41
0.8683475024126044
 10
4.0
 20
3.571796769724489
 30
3.0
 41
0.9000995774953706
 10
4.000000000000001
 20
2.5
 30
3.0
 41
1.0
  0
SPLINE
  5
16B
330
1F
100
AcDbEntity
  8
Piece
100
AcDbSpline
210
0.0
220
0.0
230
1.0
 70
    28
 71
     2
 72
     6
 73
     3
 74
     0
 42
0.000000001
 43
0.0000000001
 40
0.0
 40
0.0
 40
0.0
 40
1.75
 40
1.75
 40
1.75
 10
0.000000000000001
 20
-1.5
 30
6.0
 41
1.0
 10
0.000000000000001
 20
-1.5
 30
5.125
 41
1.0
 10
0.000000000000001
 20
-1.5
 30
4.250000000000001
 41
1.0
  0
SPLINE
  5
16C
330
1F
100
AcDbEntity
  8
Piece
100
AcDbSpline
210
0.0
220
0.0
230
1.0
 70
    28
 71
     2
 72
     6
 73
     3
 74
     0
 42
0.000000001
 43
0.0000000001
 40
4.25
 40
4.25
 40
4.25
 40
6.0
 40
6.0
 40
6.0
 10
0.000000000000001
 20
-1.5
 30
1.75
 41
1.0
 10
0.000000000000001
 20
-1.5
 30
0.875
 41
1.0
 10
0.000000000000001
 20
-1.5
 30
0.0
 41
1.0
  0
SPLINE
  5
16D
330
1F
100
AcDbEntity
  8
Piece
100
AcDbSpline
210
0.0
220
0.0
230
1.0
 70
    28
 71
     2
 72
     6
 73
     3
 74
     0
 42
0.000000001
 43
0.0000000001
 40
0.0
 40
0.0
 40
0.0
 40
6.0
 40
6.0
 40
6.0
 10
-3.999999999999999
 20
2.5
 30
6.0
 41
1.0
 10
-3.999999999999999
 20
2.5
 30
3.0
 41
1.0
 10
-3.999999999999999
 20
2.5
 30
0.0
 41
1.0
  0
SPLINE
  5
16E
330
1F
100
AcDbEntity
  8
Piece
100
AcDbSpline
210
0.0
220
0.0
230
1.0
 70
    28
 71
     2
 72
     6
 73
     3
 74
     0
 42
0.000000001
 43
0.0000000001
 40
0.0
 40
0.0
 40
0.0
 40
1.017237439233854
 40
1.017237439233854
 40
1.017237439233854
 10
0.0
 20
6.5
 30
6.0
 41
1.0
 10
0.0
 20
6.5
 30
5.491381280383074
 41
1.0
 10
0.0
 20
6.5
 30
4.982762560766147
 41
1.0
  0
SPLINE
  5
16F
330
1F
100
AcDbEntity
  8
Piece
100
AcDbSpline
210
0.0
220
0.0
230
1.0
 70
    28
 71
     2
 72
     6
 73
     3
 74
     0
 42
0.000000001
 43
0.0000000001
 40
5.017237439233853
 40
5.017237439233853
 40
5.017237439233853
 40
6.0
 40
6.0
 40
6.0
 10
0.0
 20
6.5
 30
0.9827625607661474
 41
1.0
 10
0.0
 20
6.5
 30
0.4913812803830737
 41
1.0
 10
0.0
 20
6.5
 30
0.0
 41
1.0
  0
SPLINE
  5
170
330
1F
100
AcDbEntity
  8
Piece
100
AcDbSpline
210
0.0
220
0.0
230
1.0
 70
    24
 71
     2
 72
     6
 73
     3
 74
     0
 42
0.000000001
 43
0.0000000001
 40
12.46410161513775
 40
12.46410161513775
 40
12.46410161513775
 40
15.0
 40
15.0
 40
15.0
 10
3.464101615137754
 20
4.5
 30
2.982762560766147
 10
4.732050807568876
 20
4.5
 30
2.982762560766147
 10
5.999999999999998
 20
4.5
 30
2.982762560766147
  0
SPLINE
  5
171
330
1F
100
AcDbEntity
  8
Piece
100
AcDbSpline
210
-1.0
220
0.0
230
0.0
 70
    12
 71
     2
 72
     8
 73
     5
 74
     0
 42
0.000000001
 43
0.0000000001
 40
1.463054158561026
 40
1.463054158561026
 40
1.463054158561026
 40
2.356194490192345
 40
2.356194490192345
 40
3.249334821823665
 40
3.249334821823665
 40
3.249334821823665
 10
0.0
 20
-3.170843802411151
 30
1.75
 41
0.862121311257104
 10
0.0
 20
-3.547732983133355
 30
1.5
 41
0.8889757413182575
 10
0.0
 20
-4.0
 30
1.5
 41
1.0
 10
0.0
 20
-4.452267016866646
 30
1.5
 41
0.8889757413182573
 10
0.0
 20
-4.82915619758885
 30
1.75
 41
0.8621213112571038
  0
SPLINE
  5
172
330
1F
100
AcDbEntity
  8
Piece
100
AcDbSpline
210
1.0
220
0.0
230
0.0
 70
    12
 71
     2
 72
     8
 73
     5
 74
     0
 42
0.000000001
 43
0.0000000001
 40
6.175443138945714
 40
6.175443138945714
 40
6.175443138945714
 40
7.068583470577035
 40
7.068583470577035
 40
7.961723802208354
 40
7.961723802208354
 40
7.961723802208354
 10
0.0
 20
-4.82915619758885
 30
4.25
 41
0.8621213112571038
 10
0.0
 20
-4.452267016866646
 30
4.5
 41
0.8889757413182573
 10
0.0
 20
-4.0
 30
4.5
 41
1.0
 10
0.0
 20
-3.547732983133355
 30
4.5
 41
0.8889757413182575
 10
0.0
 20
-3.170843802411151
 30
4.25
 41
0.862121311257104
  0
SPLINE
  5
173
330
1F
100
AcDbEntity
  8
Piece
100
AcDbSpline
210
0.0
220
0.0
230
1.0
 70
    28
 71
     2
 72
     6
 73
     3
 74
     0
 42
0.000000001
 43
0.0000000001
 40
3.655711229775237
 40
3.655711229775237
 40
3.655711229775237
 40
16.34428877022476
 40
16.34428877022476
 40
16.34428877022476
 10
6.344288770224762
 20
-4.0
 30
1.5
 41
1.0
 10
0.0000000000000004
 20
-4.0
 30
1.5
 41
1.0
 10
-6.344288770224761
 20
-4.0
 30
1.5
 41
1.0
  0
SPLINE
  5
174
330
1F
100
AcDbEntity
  8
Piece
100
AcDbSpline
210
0.0
220
0.0
230
1.0
 70
    28
 71
     2
 72
     6
 73
     3
 74
     0
 42
0.000000001
 43
0.0000000001
 40
4.900980486407213
 40
4.900980486407213
 40
4.900980486407213
 40
8.75
 40
8.75
 40
8.75
 10
5.099019513592787
 20
-5.5
 30
3.0
 41
1.0
 10
3.174509756796394
 20
-5.5
 30
3.0
 41
1.0
 10
1.25
 20
-5.5
 30
3.0
 41
1.0
  0
SPLINE
  5
175
330
1F
100
AcDbEntity
  8
Piece
100
AcDbSpline
210
0.0
220
0.0
230
1.0
 70
    28
 71
     2
 72
     6
 73
     3
 74
     0
 42
0.000000001
 43
0.0000000001
 40
11.25
 40
11.25
 40
11.25
 40
15.09901951359278
 40
15.09901951359278
 40
15.09901951359278
 10
-1.25
 20
-5.5
 30
3.0
 41
1.0
 10
-3.174509756796392
 20
-5.5
 30
3.0
 41
1.0
 10
-5.099019513592784
 20
-5.5
 30
3.0
 41
1.0
  0
SPLINE
  5
176
330
1F
100
AcDbEntity
  8
Piece
100
AcDbSpline
210
0.0
220
0.0
230
1.0
 70
    28
 71
     2
 72
     6
 73
     3
 74
     0
 42
0.000000001
 43
0.0000000001
 40
3.655711229775239
 40
3.655711229775239
 40
3.655711229775239
 40
16.34428877022476
 40
16.34428877022476
 40
16.34428877022476
 10
6.344288770224761
 20
-4.0
 30
4.5
 41
1.0
 10
-0.0000000000000018
 20
-4.0
 30
4.5
 41
1.0
 10
-6.344288770224765
 20
-4.0
 30
4.5
 41
1.0
  0
SPLINE
  5
177
330
1F
100
AcDbEntity
  8
Piece
100
AcDbSpline
210
0.0
220
1.0
230
3.552713678800501E-16
 70
    15
 71
     2
 72
    12
 73
     9
 74
     0
 42
0.000000001
 43
0.0000000001
 40
0.0
 40
0.0
 40
0.0
 40
1.963495408493621
 40
1.963495408493621
 40
3.926990816987241
 40
3.926990816987241
 40
5.890486225480862
 40
5.890486225480862
 40
7.853981633974483
 40
7.853981633974483
 40
7.853981633974483
 10
1.25
 20
-6.5
 30
3.0
 41
1.0
 10
1.25
 20
-6.500000000000001
 30
1.75
 41
0.7071067811865476
 10
0.0000000000000001
 20
-6.5
 30
1.75
 41
1.0
 10
-1.25
 20
-6.500000000000001
 30
1.75
 41
0.7071067811865476
 10
-1.25
 20
-6.5
 30
3.0
 41
1.0
 10
-1.25
 20
-6.500000000000001
 30
4.25
 41
0.7071067811865476
 10
-0.0000000000000002
 20
-6.5
 30
4.25
 41
1.0
 10
1.25
 20
-6.500000000000001
 30
4.25
 41
0.7071067811865476
 10
1.25
 20
-6.5
 30
3.0
 41
1.0
  0
SPLINE
  5
178
330
1F
100
AcDbEntity
  8
Piece
100
AcDbSpline
210
0.0
220
0.0
230
1.0
 70
    28
 71
     2
 72
     6
 73
     3
 74
     0
 42
0.000000001
 43
0.0000000001
 40
5.500000000000001
 40
5.500000000000001
 40
5.500000000000001
 40
8.170843802411149
 40
8.170843802411149
 40
8.170843802411149
 10
0.0000000000000001
 20
-7.5
 30
1.75
 41
1.0
 10
0.0000000000000001
 20
-6.164578098794426
 30
1.75
 41
1.0
 10
0.0000000000000001
 20
-4.829156197588852
 30
1.75
 41
1.0
  0
SPLINE
  5
179
330
1F
100
AcDbEntity
  8
Piece
100
AcDbSpline
210
0.0
220
0.0
230
1.0
 70
    28
 71
     2
 72
     6
 73
     3
 74
     0
 42
0.000000001
 43
0.0000000001
 40
5.604900271125479
 40
5.604900271125479
 40
5.604900271125479
 40
7.500000000000001
 40
7.500000000000001
 40
7.500000000000001
 10
-1.25
 20
-7.395099728874521
 30
3.0
 41
1.0
 10
-1.25
 20
-6.44754986443726
 30
3.0
 41
1.0
 10
-1.25
 20
-5.499999999999999
 30
3.0
 41
1.0
  0
SPLINE
  5
17A
330
1F
100
AcDbEntity
  8
Piece
100
AcDbSpline
210
0.0
220
0.0
230
1.0
 70
    28
 71
     2
 72
     6
 73
     3
 74
     0
 42
0.000000001
 43
0.0000000001
 40
5.500000000000001
 40
5.500000000000001
 40
5.500000000000001
 40
8.170843802411149
 40
8.170843802411149
 40
8.170843802411149
 10
-0.0000000000000002
 20
-7.5
 30
4.25
 41
1.0
 10
-0.0000000000000002
 20
-6.164578098794426
 30
4.25
 41
1.0
 10
-0.0000000000000002
 20
-4.829156197588852
 30
4.25
 41
1.0
  0
SPLINE
  5
17B
330
1F
100
AcDbEntity
  8
Piece
100
AcDbSpline
210
0.0
220
0.0
230
1.0
 70
    28
 71
     2
 72
     6
 73
     3
 74
     0
 42
0.000000001
 43
0.0000000001
 40
9.82915619758885
 40
9.82915619758885
 40
9.82915619758885
 40
11.5
 40
11.5
 40
11.5
 10
0.0000000000000001
 20
-3.170843802411151
 30
1.75
 41
1.0
 10
0.0000000000000001
 20
-2.335421901205576
 30
1.75
 41
1.0
 10
0.0000000000000001
 20
-1.5
 30
1.75
 41
1.0
  0
SPLINE
  5
17C
330
1F
100
AcDbEntity
  8
Piece
100
AcDbSpline
210
0.0
220
0.0
230
1.0
 70
    28
 71
     2
 72
     6
 73
     3
 74
     0
 42
0.000000001
 43
0.0000000001
 40
10.5
 40
10.5
 40
10.5
 40
11.70032896160733
 40
11.70032896160733
 40
11.70032896160733
 10
-1.25
 20
-2.5
 30
3.0
 41
1.0
 10
-1.25
 20
-1.899835519196333
 30
3.0
 41
1.0
 10
-1.25
 20
-1.299671038392665
 30
3.0
 41
1.0
  0
SPLINE
  5
17D
330
1F
100
AcDbEntity
  8
Piece
100
AcDbSpline
210
0.0
220
0.0
230
1.0
 70
    28
 71
     2
 72
     6
 73
     3
 74
     0
 42
0.000000001
 43
0.0000000001
 40
9.82915619758885
 40
9.82915619758885
 40
9.82915619758885
 40
11.5
 40
11.5
 40
11.5
 10
-0.0000000000000002
 20
-3.170843802411151
 30
4.25
 41
1.0
 10
-0.0000000000000002
 20
-2.335421901205576
 30
4.25
 41
1.0
 10
-0.0000000000000002
 20
-1.5
 30
4.25
 41
1.0
  0
SPLINE
  5
17F
330
1F
100
AcDbEntity
  8
volumes base
100
AcDbSpline
210
0.0
220
1.0
230
7.105427357601002E-16
 70
    15
 71
     2
 72
    12
 73
     9
 74
     0
 42
0.000000001
 43
0.0000000001
 40
0.0
 40
0.0
 40
0.0
 40
1.963495408493621
 40
1.963495408493621
 40
3.926990816987241
 40
3.926990816987241
 40
5.890486225480862
 40
5.890486225480862
 40
7.853981633974483
 40
7.853981633974483
 40
7.853981633974483
 10
1.25
 20
-13.0
 30
3.0
 41
1.0
 10
1.25
 20
-13.0
 30
1.75
 41
0.7071067811865476
 10
0.0000000000000001
 20
-13.0
 30
1.75
 41
1.0
 10
-1.25
 20
-13.0
 30
1.75
 41
0.7071067811865476
 10
-1.25
 20
-13.0
 30
3.0
 41
1.0
 10
-1.25
 20
-13.0
 30
4.25
 41
0.7071067811865476
 10
-0.0000000000000002
 20
-13.0
 30
4.25
 41
1.0
 10
1.25
 20
-13.0
 30
4.25
 41
0.7071067811865476
 10
1.25
 20
-13.0
 30
3.0
 41
1.0
  0
SPLINE
  5
180
330
1F
100
AcDbEntity
  8
volumes base
100
AcDbSpline
210
0.0
220
0.0
230
1.0
 70
    28
 71
     2
 72
     6
 73
     3
 74
     0
 42
0.000000001
 43
0.0000000001
 40
0.0
 40
0.0
 40
0.0
 40
13.0
 40
13.0
 40
13.0
 10
1.25
 20
-13.0
 30
3.0
 41
1.0
 10
1.25
 20
-6.5
 30
3.0
 41
1.0
 10
1.25
 20
0.0
 30
3.0
 41
1.0
  0
SPLINE
  5
181
330
1F
100
AcDbEntity
  8
volumes base
100
AcDbSpline
210
0.0
220
1.0
230
0.0
 70
    15
 71
     2
 72
    12
 73
     9
 74
     0
 42
0.000000001
 43
0.0000000001
 40
0.0
 40
0.0
 40
0.0
 40
1.963495408493621
 40
1.963495408493621
 40
3.926990816987241
 40
3.926990816987241
 40
5.890486225480862
 40
5.890486225480862
 40
7.853981633974483
 40
7.853981633974483
 40
7.853981633974483
 10
1.25
 20
0.0
 30
3.0
 41
1.0
 10
1.25
 20
0.0
 30
1.75
 41
0.7071067811865476
 10
0.0000000000000001
 20
0.0
 30
1.75
 41
1.0
 10
-1.25
 20
0.0
 30
1.75
 41
0.7071067811865476
 10
-1.25
 20
0.0
 30
3.0
 41
1.0
 10
-1.25
 20
0.0
 30
4.25
 41
0.7071067811865476
 10
-0.0000000000000002
 20
0.0
 30
4.25
 41
1.0
 10
1.25
 20
0.0
 30
4.25
 41
0.7071067811865476
 10
1.25
 20
0.0
 30
3.0
 41
1.0
  0
SPLINE
  5
182
330
1F
100
AcDbEntity
  8
volumes base
100
AcDbSpline
210
-1.0
220
0.0
230
0.0
 70
    15
 71
     2
 72
    12
 73
     9
 74
     0
 42
0.000000001
 43
0.0000000001
 40
0.0
 40
0.0
 40
0.0
 40
2.356194490192345
 40
2.356194490192345
 40
4.71238898038469
 40
4.71238898038469
 40
7.068583470577035
 40
7.068583470577035
 40
9.42477796076938
 40
9.42477796076938
 40
9.42477796076938
 10
10.0
 20
-2.5
 30
3.0
 41
1.0
 10
10.0
 20
-2.5
 30
1.5
 41
0.7071067811865476
 10
10.0
 20
-4.0
 30
1.5
 41
1.0
 10
10.0
 20
-5.5
 30
1.5
 41
0.7071067811865476
 10
10.0
 20
-5.5
 30
3.0
 41
1.0
 10
10.0
 20
-5.5
 30
4.499999999999999
 41
0.7071067811865476
 10
10.0
 20
-4.0
 30
4.5
 41
1.0
 10
10.0
 20
-2.5
 30
4.5
 41
0.7071067811865476
 10
10.0
 20
-2.5
 30
3.0
 41
1.0
  0
SPLINE
  5
183
330
1F
100
AcDbEntity
  8
volumes base
100
AcDbSpline
210
0.0
220
0.0
230
1.0
 70
    28
 71
     2
 72
     6
 73
     3
 74
     0
 42
0.000000001
 43
0.0000000001
 40
0.0
 40
0.0
 40
0.0
 40
20.0
 40
20.0
 40
20.0
 10
10.0
 20
-2.5
 30
3.0
 41
1.0
 10
0.0
 20
-2.5
 30
3.0
 41
1.0
 10
-10.0
 20
-2.5
 30
3.0
 41
1.0
  0
SPLINE
  5
184
330
1F
100
AcDbEntity
  8
volumes base
100
AcDbSpline
210
-1.0
220
0.0
230
0.0
 70
    15
 71
     2
 72
    12
 73
     9
 74
     0
 42
0.000000001
 43
0.0000000001
 40
0.0
 40
0.0
 40
0.0
 40
2.356194490192345
 40
2.356194490192345
 40
4.71238898038469
 40
4.71238898038469
 40
7.068583470577035
 40
7.068583470577035
 40
9.42477796076938
 40
9.42477796076938
 40
9.42477796076938
 10
-10.0
 20
-2.5
 30
3.0
 41
1.0
 10
-10.0
 20
-2.5
 30
1.5
 41
0.7071067811865476
 10
-10.0
 20
-4.0
 30
1.5
 41
1.0
 10
-10.0
 20
-5.5
 30
1.5
 41
0.7071067811865476
 10
-10.0
 20
-5.5
 30
3.0
 41
1.0
 10
-10.0
 20
-5.5
 30
4.499999999999999
 41
0.7071067811865476
 10
-10.0
 20
-4.0
 30
4.5
 41
1.0
 10
-10.0
 20
-2.5
 30
4.5
 41
0.7071067811865476
 10
-10.0
 20
-2.5
 30
3.0
 41
1.0
  0
SPLINE
  5
185
330
1F
100
AcDbEntity
  8
volumes base
100
AcDbSpline
210
0.0
220
0.0
230
1.0
 70
    24
 71
     2
 72
     6
 73
     3
 74
     0
 42
0.000000001
 43
0.0000000001
 40
0.0
 40
0.0
 40
0.0
 40
18.0
 40
18.0
 40
18.0
 10
-9.0
 20
4.5
 30
0.9827625607661474
 10
0.0
 20
4.5
 30
0.9827625607661474
 10
9.0
 20
4.5
 30
0.9827625607661474
  0
SPLINE
  5
186
330
1F
100
AcDbEntity
  8
volumes base
100
AcDbSpline
210
0.0
220
0.0
230
1.0
 70
    24
 71
     2
 72
     6
 73
     3
 74
     0
 42
0.000000001
 43
0.0000000001
 40
0.0
 40
0.0
 40
0.0
 40
4.0
 40
4.0
 40
4.0
 10
9.0
 20
4.5
 30
0.9827625607661474
 10
9.0
 20
4.5
 30
2.982762560766147
 10
9.0
 20
4.5
 30
4.982762560766147
  0
SPLINE
  5
187
330
1F
100
AcDbEntity
  8
volumes base
100
AcDbSpline
210
0.0
220
0.0
230
1.0
 70
    24
 71
     2
 72
     6
 73
     3
 74
     0
 42
0.000000001
 43
0.0000000001
 40
0.0
 40
0.0
 40
0.0
 40
18.0
 40
18.0
 40
18.0
 10
-9.0
 20
4.5
 30
4.982762560766147
 10
0.0
 20
4.5
 30
4.982762560766147
 10
9.0
 20
4.5
 30
4.982762560766147
  0
SPLINE
  5
188
330
1F
100
AcDbEntity
  8
volumes base
100
AcDbSpline
210
0.0
220
0.0
230
1.0
 70
    24
 71
     2
 72
     6
 73
     3
 74
     0
 42
0.000000001
 43
0.0000000001
 40
0.0
 40
0.0
 40
0.0
 40
4.0
 40
4.0
 40
4.0
 10
-9.0
 20
4.5
 30
0.9827625607661474
 10
-9.0
 20
4.5
 30
2.982762560766147
 10
-9.0
 20
4.5
 30
4.982762560766147
  0
SPLINE
  5
189
330
1F
100
AcDbEntity
  8
volumes base
100
AcDbSpline
210
0.0
220
0.0
230
1.0
 70
    24
 71
     2
 72
     6
 73
     3
 74
     0
 42
0.000000001
 43
0.0000000001
 40
18.0
 40
18.0
 40
18.0
 40
23.0
 40
23.0
 40
23.0
 10
9.0
 20
4.5
 30
0.9827625607661474
 10
9.0
 20
7.0
 30
0.9827625607661474
 10
9.0
 20
9.5
 30
0.9827625607661474
  0
SPLINE
  5
18A
330
1F
100
AcDbEntity
  8
volumes base
100
AcDbSpline
210
0.0
220
0.0
230
1.0
 70
    24
 71
     2
 72
     6
 73
     3
 74
     0
 42
0.000000001
 43
0.0000000001
 40
0.0
 40
0.0
 40
0.0
 40
4.0
 40
4.0
 40
4.0
 10
9.0
 20
9.5
 30
0.9827625607661474
 10
9.0
 20
9.5
 30
2.982762560766147
 10
9.0
 20
9.5
 30
4.982762560766147
  0
SPLINE
  5
18B
330
1F
100
AcDbEntity
  8
volumes base
100
AcDbSpline
210
0.0
220
0.0
230
1.0
 70
    24
 71
     2
 72
     6
 73
     3
 74
     0
 42
0.000000001
 43
0.0000000001
 40
18.0
 40
18.0
 40
18.0
 40
23.0
 40
23.0
 40
23.0
 10
9.0
 20
4.5
 30
4.982762560766147
 10
9.0
 20
7.0
 30
4.982762560766147
 10
9.0
 20
9.5
 30
4.982762560766147
  0
SPLINE
  5
18C
330
1F
100
AcDbEntity
  8
volumes base
100
AcDbSpline
210
0.0
220
0.0
230
1.0
 70
    24
 71
     2
 72
     6
 73
     3
 74
     0
 42
0.000000001
 43
0.0000000001
 40
23.0
 40
23.0
 40
23.0
 40
41.0
 40
41.0
 40
41.0
 10
9.0
 20
9.5
 30
0.9827625607661474
 10
0.0
 20
9.5
 30
0.9827625607661474
 10
-9.0
 20
9.5
 30
0.9827625607661474
  0
SPLINE
  5
18D
330
1F
100
AcDbEntity
  8
volumes base
100
AcDbSpline
210
0.0
220
0.0
230
1.0
 70
    24
 71
     2
 72
     6
 73
     3
 74
     0
 42
0.000000001
 43
0.0000000001
 40
0.0
 40
0.0
 40
0.0
 40
4.0
 40
4.0
 40
4.0
 10
-9.0
 20
9.5
 30
0.9827625607661474
 10
-9.0
 20
9.5
 30
2.982762560766147
 10
-9.0
 20
9.5
 30
4.982762560766147
  0
SPLINE
  5
18E
330
1F
100
AcDbEntity
  8
volumes base
100
AcDbSpline
210
0.0
220
0.0
230
1.0
 70
    24
 71
     2
 72
     6
 73
     3
 74
     0
 42
0.000000001
 43
0.0000000001
 40
23.0
 40
23.0
 40
23.0
 40
41.0
 40
41.0
 40
41.0
 10
9.0
 20
9.5
 30
4.982762560766147
 10
0.0
 20
9.5
 30
4.982762560766147
 10
-9.0
 20
9.5
 30
4.982762560766147
  0
SPLINE
  5
18F
330
1F
100
AcDbEntity
  8
volumes base
100
AcDbSpline
210
0.0
220
0.0
230
1.0
 70
    24
 71
     2
 72
     6
 73
     3
 74
     0
 42
0.000000001
 43
0.0000000001
 40
41.0
 40
41.0
 40
41.0
 40
46.0
 40
46.0
 40
46.0
 10
-9.0
 20
9.5
 30
0.9827625607661474
 10
-9.0
 20
7.0
 30
0.9827625607661474
 10
-9.0
 20
4.5
 30
0.9827625607661474
  0
SPLINE
  5
190
330
1F
100
AcDbEntity
  8
volumes base
100
AcDbSpline
210
0.0
220
0.0
230
1.0
 70
    24
 71
     2
 72
     6
 73
     3
 74
     0
 42
0.000000001
 43
0.0000000001
 40
41.0
 40
41.0
 40
41.0
 40
46.0
 40
46.0
 40
46.0
 10
-9.0
 20
9.5
 30
4.982762560766147
 10
-9.0
 20
7.0
 30
4.982762560766147
 10
-9.0
 20
4.5
 30
4.982762560766147
  0
SPLINE
  5
191
330
1F
100
AcDbEntity
  8
volumes base
100
AcDbSpline
210
0.0
220
0.0
230
1.0
 70
    15
 71
     2
 72
    12
 73
     9
 74
     0
 42
0.000000001
 43
0.0000000001
 40
0.0
 40
0.0
 40
0.0
 40
6.283185307179586
 40
6.283185307179586
 40
12.56637061435917
 40
12.56637061435917
 40
18.84955592153876
 40
18.84955592153876
 40
25.13274122871834
 40
25.13274122871834
 40
25.13274122871834
 10
4.000000000000001
 20
2.5
 30
6.0
 41
1.0
 10
4.000000000000001
 20
-1.5
 30
6.0
 41
0.7071067811865476
 10
0.000000000000001
 20
-1.5
 30
6.0
 41
1.0
 10
-3.999999999999999
 20
-1.5
 30
6.0
 41
0.7071067811865476
 10
-3.999999999999999
 20
2.5
 30
6.0
 41
1.0
 10
-4.0
 20
6.499999999999999
 30
6.0
 41
0.7071067811865476
 10
0.0
 20
6.5
 30
6.0
 41
1.0
 10
4.0
 20
6.499999999999999
 30
6.0
 41
0.7071067811865476
 10
4.000000000000001
 20
2.5
 30
6.0
 41
1.0
  0
SPLINE
  5
192
330
1F
100
AcDbEntity
  8
volumes base
100
AcDbSpline
210
0.0
220
0.0
230
1.0
 70
    28
 71
     2
 72
     6
 73
     3
 74
     0
 42
0.000000001
 43
0.0000000001
 40
0.0
 40
0.0
 40
0.0
 40
6.0
 40
6.0
 40
6.0
 10
4.000000000000001
 20
2.5
 30
6.0
 41
1.0
 10
4.000000000000001
 20
2.5
 30
3.0
 41
1.0
 10
4.000000000000001
 20
2.5
 30
0.0
 41
1.0
  0
SPLINE
  5
193
330
1F
100
AcDbEntity
  8
volumes base
100
AcDbSpline
210
0.0
220
0.0
230
1.0
 70
    15
 71
     2
 72
    12
 73
     9
 74
     0
 42
0.000000001
 43
0.0000000001
 40
0.0
 40
0.0
 40
0.0
 40
6.283185307179586
 40
6.283185307179586
 40
12.56637061435917
 40
12.56637061435917
 40
18.84955592153876
 40
18.84955592153876
 40
25.13274122871834
 40
25.13274122871834
 40
25.13274122871834
 10
4.000000000000001
 20
2.5
 30
0.0
 41
1.0
 10
4.000000000000001
 20
-1.5
 30
0.0
 41
0.7071067811865476
 10
0.000000000000001
 20
-1.5
 30
0.0
 41
1.0
 10
-3.999999999999999
 20
-1.5
 30
0.0
 41
0.7071067811865476
 10
-3.999999999999999
 20
2.5
 30
0.0
 41
1.0
 10
-4.0
 20
6.499999999999999
 30
0.0
 41
0.7071067811865476
 10
0.0
 20
6.5
 30
0.0
 41
1.0
 10
4.0
 20
6.499999999999999
 30
0.0
 41
0.7071067811865476
 10
4.000000000000001
 20
2.5
 30
0.0
 41
1.0
  0
SPLINE
  5
194
330
1F
100
AcDbEntity
  8
volumes base
100
AcDbSpline
210
0.0
220
0.0
230
1.0
 70
    15
 71
     2
 72
    12
 73
     9
 74
     0
 42
0.000000001
 43
0.0000000001
 40
0.0
 40
0.0
 40
0.0
 40
11.78097245096172
 40
11.78097245096172
 40
23.56194490192345
 40
23.56194490192345
 40
35.34291735288517
 40
35.34291735288517
 40
47.12388980384689
 40
47.12388980384689
 40
47.12388980384689
 10
7.5
 20
0.0
 30
6.0
 41
1.0
 10
7.5
 20
-7.499999999999998
 30
6.0
 41
0.7071067811865476
 10
0.0000000000000005
 20
-7.5
 30
6.0
 41
1.0
 10
-7.499999999999998
 20
-7.5
 30
6.0
 41
0.7071067811865476
 10
-7.5
 20
-0.0000000000000009
 30
6.0
 41
1.0
 10
-7.5
 20
7.499999999999998
 30
6.0
 41
0.7071067811865476
 10
-0.0000000000000014
 20
7.5
 30
6.0
 41
1.0
 10
7.499999999999998
 20
7.5
 30
6.0
 41
0.7071067811865476
 10
7.5
 20
0.0
 30
6.0
 41
1.0
  0
SPLINE
  5
195
330
1F
100
AcDbEntity
  8
volumes base
100
AcDbSpline
210
0.0
220
0.0
230
1.0
 70
    28
 71
     2
 72
     6
 73
     3
 74
     0
 42
0.000000001
 43
0.0000000001
 40
0.0
 40
0.0
 40
0.0
 40
6.0
 40
6.0
 40
6.0
 10
7.5
 20
0.0
 30
6.0
 41
1.0
 10
7.5
 20
0.0
 30
3.0
 41
1.0
 10
7.5
 20
0.0
 30
0.0
 41
1.0
  0
SPLINE
  5
196
330
1F
100
AcDbEntity
  8
volumes base
100
AcDbSpline
210
0.0
220
0.0
230
1.0
 70
    15
 71
     2
 72
    12
 73
     9
 74
     0
 42
0.000000001
 43
0.0000000001
 40
0.0
 40
0.0
 40
0.0
 40
11.78097245096172
 40
11.78097245096172
 40
23.56194490192345
 40
23.56194490192345
 40
35.34291735288517
 40
35.34291735288517
 40
47.12388980384689
 40
47.12388980384689
 40
47.12388980384689
 10
7.5
 20
0.0
 30
0.0
 41
1.0
 10
7.5
 20
-7.499999999999998
 30
0.0
 41
0.7071067811865476
 10
0.0000000000000005
 20
-7.5
 30
0.0
 41
1.0
 10
-7.499999999999998
 20
-7.5
 30
0.0
 41
0.7071067811865476
 10
-7.5
 20
-0.0000000000000009
 30
0.0
 41
1.0
 10
-7.5
 20
7.499999999999998
 30
0.0
 41
0.7071067811865476
 10
-0.0000000000000014
 20
7.5
 30
0.0
 41
1.0
 10
7.499999999999998
 20
7.5
 30
0.0
 41
0.7071067811865476
 10
7.5
 20
0.0
 30
0.0
 41
1.0
  0
ENDSEC
  0
SECTION
  2
OBJECTS
  0
DICTIONARY
  5
C
330
0
100
AcDbDictionary
281
     1
  3
ACAD_DETAILVIEWSTYLE
350
1D4
  3
ACAD_GROUP
350
D
  3
ACAD_LAYOUT
350
1A
  3
ACAD_MATERIAL
350
43
  3
ACAD_MLEADERSTYLE
350
6B
  3
ACAD_MLINESTYLE
350
17
  3
ACAD_PLOTSETTINGS
350
19
  3
ACAD_PLOTSTYLENAME
350
E
  3
ACAD_SCALELIST
350
47
  3
ACAD_SECTIONVIEWSTYLE
350
1D5
  3
ACAD_TABLESTYLE
350
69
  3
ACAD_VISUALSTYLE
350
2A
  3
AcDbVariableDictionary
350
198
  3
ACDB_RECOMPOSE_DATA
350
1D1
  0
SUN
  5
6D
330
29
100
AcDbSun
 90
        1
290
     0
 63
     7
421
 16777215
 40
1.0
291
     1
 91
  2455826
 92
 54000000
292
     0
 70
     2
 71
   256
280
     1
  0
DICTIONARY
  5
1D4
102
{ACAD_REACTORS
330
C
102
}
330
C
100
AcDbDictionary
281
     1
  0
DICTIONARY
  5
D
102
{ACAD_REACTORS
330
C
102
}
330
C
100
AcDbDictionary
281
     1
  0
DICTIONARY
  5
1A
102
{ACAD_REACTORS
330
C
102
}
330
C
100
AcDbDictionary
281
     1
  3
Layout1
350
1E
  3
Layout2
350
26
  3
Model
350
22
  0
DICTIONARY
  5
43
102
{ACAD_REACTORS
330
C
102
}
330
C
100
AcDbDictionary
281
     1
  3
ByBlock
350
45
  3
ByLayer
350
44
  3
Global
350
46
  0
DICTIONARY
  5
6B
102
{ACAD_REACTORS
330
C
102
}
330
C
100
AcDbDictionary
281
     1
  3
Défaut
350
131
  3
Standard
350
6C
  0
DICTIONARY
  5
17
102
{ACAD_REACTORS
330
C
102
}
330
C
100
AcDbDictionary
281
     1
  3
Standard
350
18
  0
DICTIONARY
  5
19
102
{ACAD_REACTORS
330
C
102
}
330
C
100
AcDbDictionary
281
     1
  0
ACDBDICTIONARYWDFLT
  5
E
102
{ACAD_REACTORS
330
C
102
}
330
C
100
AcDbDictionary
281
     1
  3
Normal
350
F
100
AcDbDictionaryWithDefault
340
F
  0
DICTIONARY
  5
47
102
{ACAD_REACTORS
330
C
102
}
330
C
100
AcDbDictionary
281
     1
  3
A0
350
48
  3
A1
350
49
  3
A2
350
4A
  3
A3
350
4B
  3
A4
350
4C
  3
A5
350
4D
  3
A6
350
4E
  3
A7
350
4F
  3
A8
350
50
  3
A9
350
51
  3
B0
350
52
  3
B1
350
53
  3
B2
350
54
  3
B3
350
55
  3
B4
350
56
  3
B5
350
57
  3
B6
350
58
  3
B7
350
59
  3
B8
350
5A
  3
B9
350
5B
  3
C0
350
5C
  3
C1
350
5D
  3
C2
350
5E
  3
C3
350
5F
  3
C4
350
60
  3
C5
350
61
  3
C6
350
62
  3
C7
350
63
  3
C8
350
64
  3
C9
350
65
  3
D0
350
66
  3
D1
350
67
  3
D2
350
68
  0
DICTIONARY
  5
1D5
102
{ACAD_REACTORS
330
C
102
}
330
C
100
AcDbDictionary
281
     1
  0
DICTIONARY
  5
69
102
{ACAD_REACTORS
330
C
102
}
330
C
100
AcDbDictionary
281
     1
  3
Standard
350
6A
  0
DICTIONARY
  5
2A
102
{ACAD_REACTORS
330
C
102
}
330
C
100
AcDbDictionary
281
     1
  3
2dWireframe
350
2F
  3
Basic
350
32
  3
Brighten
350
36
  3
ColorChange
350
3A
  3
Conceptual
350
34
  3
Dim
350
35
  3
EdgeColorOff
350
3D
  3
Facepattern
350
39
  3
Flat
350
2B
  3
FlatWithEdges
350
2C
  3
Gouraud
350
2D
  3
GouraudWithEdges
350
2E
  3
Hidden
350
31
  3
JitterOff
350
3B
  3
Linepattern
350
38
  3
OverhangOff
350
3C
  3
Realistic
350
33
  3
Shaded
350
42
  3
Shaded with edges
350
41
  3
Shades of Gray
350
3E
  3
Sketchy
350
3F
  3
Thicken
350
37
  3
Wireframe
350
30
  3
X-Ray
350
40
  0
DICTIONARY
  5
198
102
{ACAD_REACTORS
330
C
102
}
330
C
100
AcDbDictionary
281
     1
  3
CANNOSCALE
350
199
  3
CMLEADERSTYLE
350
1D3
  3
CTABLESTYLE
350
1D2
  3
XCLIPFRAME
350
19A
  0
XRECORD
  5
1D1
102
{ACAD_REACTORS
330
C
102
}
330
C
100
AcDbXrecord
280
     1
 90
        1
330
6A
  0
LAYOUT
  5
1E
102
{ACAD_REACTORS
330
1A
102
}
330
1A
100
AcDbPlotSettings
  1

  2
none_device
  4

  6

 40
0.0
 41
0.0
 42
0.0
 43
0.0
 44
0.0
 45
0.0
 46
0.0
 47
0.0
 48
0.0
 49
0.0
140
0.0
141
0.0
142
1.0
143
1.0
 70
   688
 72
     0
 73
     0
 74
     5
  7

 75
    16
 76
     0
 77
     2
 78
   300
147
1.0
148
0.0
149
0.0
100
AcDbLayout
  1
Layout1
 70
     1
 71
     1
 10
0.0
 20
0.0
 11
12.0
 21
9.0
 12
0.0
 22
0.0
 32
0.0
 14
1.000000000000000E+20
 24
1.000000000000000E+20
 34
1.000000000000000E+20
 15
-1.000000000000000E+20
 25
-1.000000000000000E+20
 35
-1.000000000000000E+20
146
0.0
 13
0.0
 23
0.0
 33
0.0
 16
1.0
 26
0.0
 36
0.0
 17
0.0
 27
1.0
 37
0.0
 76
     0
330
1B
  0
LAYOUT
  5
26
102
{ACAD_REACTORS
330
1A
102
}
330
1A
100
AcDbPlotSettings
  1

  2
none_device
  4

  6

 40
0.0
 41
0.0
 42
0.0
 43
0.0
 44
0.0
 45
0.0
 46
0.0
 47
0.0
 48
0.0
 49
0.0
140
0.0
141
0.0
142
1.0
143
1.0
 70
   688
 72
     0
 73
     0
 74
     5
  7

 75
    16
 76
     0
 77
     2
 78
   300
147
1.0
148
0.0
149
0.0
100
AcDbLayout
  1
Layout2
 70
     1
 71
     2
 10
0.0
 20
0.0
 11
0.0
 21
0.0
 12
0.0
 22
0.0
 32
0.0
 14
0.0
 24
0.0
 34
0.0
 15
0.0
 25
0.0
 35
0.0
146
0.0
 13
0.0
 23
0.0
 33
0.0
 16
1.0
 26
0.0
 36
0.0
 17
0.0
 27
1.0
 37
0.0
 76
     0
330
23
  0
LAYOUT
  5
22
102
{ACAD_REACTORS
330
1A
102
}
330
1A
100
AcDbPlotSettings
  1

  2
none_device
  4
Letter_(8.50_x_11.00_Inches)
  6

 40
6.35
 41
6.35
 42
6.35000508
 43
6.35000508
 44
215.9
 45
279.4
 46
0.0
 47
0.0
 48
0.0
 49
0.0
140
0.0
141
0.0
142
1.0
143
1.0
 70
  1712
 72
     0
 73
     0
 74
     0
  7

 75
     0
 76
     0
 77
     2
 78
   300
147
1.0
148
0.0
149
0.0
100
AcDbLayout
  1
Model
 70
     1
 71
     0
 10
0.0
 20
0.0
 11
12.0
 21
9.0
 12
0.0
 22
0.0
 32
0.0
 14
1.000000000000000E+20
 24
1.000000000000000E+20
 34
1.000000000000000E+20
 15
-1.000000000000000E+20
 25
-1.000000000000000E+20
 35
-1.000000000000000E+20
146
0.0
 13
0.0
 23
0.0
 33
0.0
 16
1.0
 26
0.0
 36
0.0
 17
0.0
 27
1.0
 37
0.0
 76
     0
330
1F
331
29
  0
MATERIAL
  5
45
102
{ACAD_REACTORS
330
43
102
}
330
43
100
AcDbMaterial
  1
ByBlock
 72
     1
 94
      127
  0
MATERIAL
  5
44
102
{ACAD_REACTORS
330
43
102
}
330
43
100
AcDbMaterial
  1
ByLayer
 72
     1
 94
      127
  0
MATERIAL
  5
46
102
{ACAD_REACTORS
330
43
102
}
330
43
100
AcDbMaterial
  1
Global
 72
     1
 94
      127
  0
MLEADERSTYLE
  5
131
102
{ACAD_REACTORS
330
6B
330
132
102
}
102
{ACAD_XDICTIONARY
360
1CF
102
}
330
6B
100
AcDbMLeaderStyle
170
     2
171
     1
172
     0
 90
        0
 40
0.0
 41
0.0
173
     1
 91
-1056964608
340
14
 92
       -2
290
     0
 42
0.25
291
     0
 43
1.0
  3

341
0
 44
1.0
300

342
11
174
     1
178
     1
175
     2
176
     0
 93
-1056964608
 45
1.0
292
     0
297
     0
 46
5.0
343
0
 94
-1056964608
 47
1.0
 49
1.0
140
1.0
293
     1
141
0.0
294
     1
177
     0
142
1.0
295
     0
296
     0
143
0.125
1001
ACAD_MLEADERVER
1070
     2
  0
MLEADERSTYLE
  5
6C
102
{ACAD_REACTORS
330
6B
102
}
102
{ACAD_XDICTIONARY
360
1CD
102
}
330
6B
100
AcDbMLeaderStyle
170
     2
171
     1
172
     0
 90
        2
 40
0.0
 41
0.0
173
     1
 91
-1056964608
340
14
 92
       -2
290
     1
 42
0.09
291
     1
 43
0.36
  3
Standard
341
0
 44
0.18
300

342
11
174
     1
178
     6
175
     1
176
     0
 93
-1056964608
 45
0.18
292
     0
297
     0
 46
0.18
343
0
 94
-1056964608
 47
1.0
 49
1.0
140
1.0
293
     1
141
0.0
294
     1
177
     0
142
1.0
295
     0
296
     0
143
0.125
1001
ACAD_MLEADERVER
1070
     2
  0
MLINESTYLE
  5
18
102
{ACAD_REACTORS
330
17
102
}
330
17
100
AcDbMlineStyle
  2
Standard
 70
     0
  3

 62
   256
 51
90.0
 52
90.0
 71
     2
 49
0.5
 62
   256
  6
BYLAYER
 49
-0.5
 62
   256
  6
BYLAYER
  0
ACDBPLACEHOLDER
  5
F
102
{ACAD_REACTORS
330
E
102
}
330
E
  0
SCALE
  5
48
102
{ACAD_REACTORS
330
47
102
}
330
47
100
AcDbScale
 70
     0
300
1:1
140
1.0
141
1.0
290
     1
  0
SCALE
  5
49
102
{ACAD_REACTORS
330
47
102
}
330
47
100
AcDbScale
 70
     0
300
1:2
140
1.0
141
2.0
290
     0
  0
SCALE
  5
4A
102
{ACAD_REACTORS
330
47
102
}
330
47
100
AcDbScale
 70
     0
300
1:4
140
1.0
141
4.0
290
     0
  0
SCALE
  5
4B
102
{ACAD_REACTORS
330
47
102
}
330
47
100
AcDbScale
 70
     0
300
1:5
140
1.0
141
5.0
290
     0
  0
SCALE
  5
4C
102
{ACAD_REACTORS
330
47
102
}
330
47
100
AcDbScale
 70
     0
300
1:8
140
1.0
141
8.0
290
     0
  0
SCALE
  5
4D
102
{ACAD_REACTORS
330
47
102
}
330
47
100
AcDbScale
 70
     0
300
1:10
140
1.0
141
10.0
290
     0
  0
SCALE
  5
4E
102
{ACAD_REACTORS
330
47
102
}
330
47
100
AcDbScale
 70
     0
300
1:16
140
1.0
141
16.0
290
     0
  0
SCALE
  5
4F
102
{ACAD_REACTORS
330
47
102
}
330
47
100
AcDbScale
 70
     0
300
1:20
140
1.0
141
20.0
290
     0
  0
SCALE
  5
50
102
{ACAD_REACTORS
330
47
102
}
330
47
100
AcDbScale
 70
     0
300
1:30
140
1.0
141
30.0
290
     0
  0
SCALE
  5
51
102
{ACAD_REACTORS
330
47
102
}
330
47
100
AcDbScale
 70
     0
300
1:40
140
1.0
141
40.0
290
     0
  0
SCALE
  5
52
102
{ACAD_REACTORS
330
47
102
}
330
47
100
AcDbScale
 70
     0
300
1:50
140
1.0
141
50.0
290
     0
  0
SCALE
  5
53
102
{ACAD_REACTORS
330
47
102
}
330
47
100
AcDbScale
 70
     0
300
1:100
140
1.0
141
100.0
290
     0
  0
SCALE
  5
54
102
{ACAD_REACTORS
330
47
102
}
330
47
100
AcDbScale
 70
     0
300
2:1
140
2.0
141
1.0
290
     0
  0
SCALE
  5
55
102
{ACAD_REACTORS
330
47
102
}
330
47
100
AcDbScale
 70
     0
300
4:1
140
4.0
141
1.0
290
     0
  0
SCALE
  5
56
102
{ACAD_REACTORS
330
47
102
}
330
47
100
AcDbScale
 70
     0
300
8:1
140
8.0
141
1.0
290
     0
  0
SCALE
  5
57
102
{ACAD_REACTORS
330
47
102
}
330
47
100
AcDbScale
 70
     0
300
10:1
140
10.0
141
1.0
290
     0
  0
SCALE
  5
58
102
{ACAD_REACTORS
330
47
102
}
330
47
100
AcDbScale
 70
     0
300
100:1
140
100.0
141
1.0
290
     0
  0
SCALE
  5
59
102
{ACAD_REACTORS
330
47
102
}
330
47
100
AcDbScale
 70
     0
300
1/128" = 1'-0"
140
0.0078125
141
12.0
290
     0
  0
SCALE
  5
5A
102
{ACAD_REACTORS
330
47
102
}
330
47
100
AcDbScale
 70
     0
300
1/64" = 1'-0"
140
0.015625
141
12.0
290
     0
  0
SCALE
  5
5B
102
{ACAD_REACTORS
330
47
102
}
330
47
100
AcDbScale
 70
     0
300
1/32" = 1'-0"
140
0.03125
141
12.0
290
     0
  0
SCALE
  5
5C
102
{ACAD_REACTORS
330
47
102
}
330
47
100
AcDbScale
 70
     0
300
1/16" = 1'-0"
140
0.0625
141
12.0
290
     0
  0
SCALE
  5
5D
102
{ACAD_REACTORS
330
47
102
}
330
47
100
AcDbScale
 70
     0
300
3/32" = 1'-0"
140
0.09375
141
12.0
290
     0
  0
SCALE
  5
5E
102
{ACAD_REACTORS
330
47
102
}
330
47
100
AcDbScale
 70
     0
300
1/8" = 1'-0"
140
0.125
141
12.0
290
     0
  0
SCALE
  5
5F
102
{ACAD_REACTORS
330
47
102
}
330
47
100
AcDbScale
 70
     0
300
3/16" = 1'-0"
140
0.1875
141
12.0
290
     0
  0
SCALE
  5
60
102
{ACAD_REACTORS
330
47
102
}
330
47
100
AcDbScale
 70
     0
300
1/4" = 1'-0"
140
0.25
141
12.0
290
     0
  0
SCALE
  5
61
102
{ACAD_REACTORS
330
47
102
}
330
47
100
AcDbScale
 70
     0
300
3/8" = 1'-0"
140
0.375
141
12.0
290
     0
  0
SCALE
  5
62
102
{ACAD_REACTORS
330
47
102
}
330
47
100
AcDbScale
 70
     0
300
1/2" = 1'-0"
140
0.5
141
12.0
290
     0
  0
SCALE
  5
63
102
{ACAD_REACTORS
330
47
102
}
330
47
100
AcDbScale
 70
     0
300
3/4" = 1'-0"
140
0.75
141
12.0
290
     0
  0
SCALE
  5
64
102
{ACAD_REACTORS
330
47
102
}
330
47
100
AcDbScale
 70
     0
300
1" = 1'-0"
140
1.0
141
12.0
290
     0
  0
SCALE
  5
65
102
{ACAD_REACTORS
330
47
102
}
330
47
100
AcDbScale
 70
     0
300
1-1/2" = 1'-0"
140
1.5
141
12.0
290
     0
  0
SCALE
  5
66
102
{ACAD_REACTORS
330
47
102
}
330
47
100
AcDbScale
 70
     0
300
3" = 1'-0"
140
3.0
141
12.0
290
     0
  0
SCALE
  5
67
102
{ACAD_REACTORS
330
47
102
}
330
47
100
AcDbScale
 70
     0
300
6" = 1'-0"
140
6.0
141
12.0
290
     0
  0
SCALE
  5
68
102
{ACAD_REACTORS
330
47
102
}
330
47
100
AcDbScale
 70
     0
300
1'-0" = 1'-0"
140
12.0
141
12.0
290
     0
  0
TABLESTYLE
  5
6A
102
{ACAD_REACTORS
330
69
102
}
102
{ACAD_XDICTIONARY
360
1CB
102
}
330
69
100
AcDbTableStyle
  3
Standard
 70
     0
 71
     0
 40
0.06
 41
0.06
280
     0
281
     0
  7
Standard
140
0.18
170
     2
 62
     0
 63
   257
283
     0
 90
        4
 91
        0
  1

274
    -2
284
     1
 64
     0
275
    -2
285
     1
 65
     0
276
    -2
286
     1
 66
     0
277
    -2
287
     1
 67
     0
278
    -2
288
     1
 68
     0
279
    -2
289
     1
 69
     0
  7
Standard
140
0.25
170
     5
 62
     0
 63
   257
283
     0
 90
        4
 91
        0
  1

274
    -2
284
     1
 64
     0
275
    -2
285
     1
 65
     0
276
    -2
286
     1
 66
     0
277
    -2
287
     1
 67
     0
278
    -2
288
     1
 68
     0
279
    -2
289
     1
 69
     0
  7
Standard
140
0.18
170
     5
 62
     0
 63
   257
283
     0
 90
        4
 91
        0
  1

274
    -2
284
     1
 64
     0
275
    -2
285
     1
 65
     0
276
    -2
286
     1
 66
     0
277
    -2
287
     1
 67
     0
278
    -2
288
     1
 68
     0
279
    -2
289
     1
 69
     0
  0
VISUALSTYLE
  5
2F
102
{ACAD_REACTORS
330
2A
102
}
102
{ACAD_XDICTIONARY
360
1A3
102
}
330
2A
100
AcDbVisualStyle
  2
2dWireframe
 70
     4
 71
     0
 72
     2
 73
     0
 90
        0
 40
0.6
 41
30.0
 62
     5
 63
     7
421
 16777215
 74
     1
 91
        4
 64
     7
 65
   257
 75
     1
175
     1
 42
1.0
 92
        0
 66
   257
 43
1.0
 76
     1
 77
     6
 78
     2
 67
     7
 79
     5
170
     0
171
     0
290
     0
174
     0
 93
        1
 44
0.0
173
     0
291
     0
 45
0.0
  0
VISUALSTYLE
  5
32
102
{ACAD_REACTORS
330
2A
102
}
102
{ACAD_XDICTIONARY
360
1A9
102
}
330
2A
100
AcDbVisualStyle
  2
Basic
 70
     7
 71
     1
 72
     0
 73
     1
 90
        0
 40
0.6
 41
30.0
 62
     5
 63
     7
421
 16777215
 74
     0
 91
        4
 64
     7
 65
   257
 75
     1
175
     1
 42
1.0
 92
        8
 66
     7
 43
1.0
 76
     1
 77
     6
 78
     2
 67
     7
 79
     5
170
     0
171
     0
290
     0
174
     0
 93
        1
 44
0.0
173
     0
291
     1
 45
0.0
  0
VISUALSTYLE
  5
36
102
{ACAD_REACTORS
330
2A
102
}
102
{ACAD_XDICTIONARY
360
1B1
102
}
330
2A
100
AcDbVisualStyle
  2
Brighten
 70
    12
 71
     2
 72
     2
 73
     0
 90
        0
 40
0.6
 41
30.0
 62
     5
 63
     7
421
 16777215
 74
     1
 91
        4
 64
     7
 65
   257
 75
     1
175
     1
 42
1.0
 92
        8
 66
     7
 43
1.0
 76
     1
 77
     6
 78
     2
 67
     7
 79
     5
170
     0
171
     0
290
     0
174
     0
 93
        1
 44
50.0
173
     0
291
     1
 45
0.0
  0
VISUALSTYLE
  5
3A
102
{ACAD_REACTORS
330
2A
102
}
102
{ACAD_XDICTIONARY
360
1B9
102
}
330
2A
100
AcDbVisualStyle
  2
ColorChange
 70
    16
 71
     2
 72
     2
 73
     3
 90
        0
 40
0.6
 41
30.0
 62
     5
 63
     8
421
  8421504
 74
     1
 91
        4
 64
     7
 65
   257
 75
     1
175
     1
 42
1.0
 92
        8
 66
     8
424
  8421504
 43
1.0
 76
     1
 77
     6
 78
     2
 67
     7
 79
     5
170
     0
171
     0
290
     0
174
     0
 93
        1
 44
0.0
173
     0
291
     1
 45
0.0
  0
VISUALSTYLE
  5
34
102
{ACAD_REACTORS
330
2A
102
}
102
{ACAD_XDICTIONARY
360
1AD
102
}
330
2A
100
AcDbVisualStyle
  2
Conceptual
 70
     9
 71
     3
 72
     2
 73
     0
 90
        0
 40
0.6
 41
30.0
 62
     5
 63
     7
421
 16777215
 74
     2
 91
        2
 64
     7
 65
   257
 75
     1
175
     1
 42
179.0
 92
        8
 66
     7
 43
1.0
 76
     1
 77
     6
 78
     2
 67
     7
 79
     3
170
     0
171
     0
290
     0
174
     0
 93
        1
 44
0.0
173
     0
291
     0
 45
0.0
  0
VISUALSTYLE
  5
35
102
{ACAD_REACTORS
330
2A
102
}
102
{ACAD_XDICTIONARY
360
1AF
102
}
330
2A
100
AcDbVisualStyle
  2
Dim
 70
    11
 71
     2
 72
     2
 73
     0
 90
        0
 40
0.6
 41
30.0
 62
     5
 63
     7
421
 16777215
 74
     1
 91
        4
 64
     7
 65
   257
 75
     1
175
     1
 42
1.0
 92
        8
 66
     7
 43
1.0
 76
     1
 77
     6
 78
     2
 67
     7
 79
     5
170
     0
171
     0
290
     0
174
     0
 93
        1
 44
-50.0
173
     0
291
     1
 45
0.0
  0
VISUALSTYLE
  5
3D
102
{ACAD_REACTORS
330
2A
102
}
102
{ACAD_XDICTIONARY
360
1BF
102
}
330
2A
100
AcDbVisualStyle
  2
EdgeColorOff
 70
    22
 71
     2
 72
     2
 73
     0
 90
        0
 40
0.6
 41
30.0
 62
     5
 63
     7
421
 16777215
 74
     1
 91
        4
 64
     7
 65
   257
 75
     1
175
     1
 42
1.0
 92
        8
 66
     7
 43
1.0
 76
     1
 77
     6
 78
     2
 67
     7
 79
     5
170
     0
171
     0
290
     0
174
     0
 93
        1
 44
0.0
173
     0
291
     1
 45
0.0
  0
VISUALSTYLE
  5
39
102
{ACAD_REACTORS
330
2A
102
}
102
{ACAD_XDICTIONARY
360
1B7
102
}
330
2A
100
AcDbVisualStyle
  2
Facepattern
 70
    15
 71
     2
 72
     2
 73
     0
 90
        0
 40
0.6
 41
30.0
 62
     5
 63
     7
421
 16777215
 74
     1
 91
        4
 64
     7
 65
   257
 75
     1
175
     1
 42
1.0
 92
        8
 66
     7
 43
1.0
 76
     1
 77
     6
 78
     2
 67
     7
 79
     5
170
     0
171
     0
290
     0
174
     0
 93
        1
 44
0.0
173
     0
291
     1
 45
0.0
  0
VISUALSTYLE
  5
2B
102
{ACAD_REACTORS
330
2A
102
}
102
{ACAD_XDICTIONARY
360
19B
102
}
330
2A
100
AcDbVisualStyle
  2
Flat
 70
     0
 71
     2
 72
     1
 73
     1
 90
        2
 40
0.6
 41
30.0
 62
     5
 63
     7
421
 16777215
 74
     0
 91
        0
 64
     7
 65
   257
 75
     1
175
     1
 42
1.0
 92
        8
 66
     7
 43
1.0
 76
     1
 77
     6
 78
     2
 67
     7
 79
     5
170
     0
171
     0
290
     0
174
     0
 93
       13
 44
0.0
173
     0
291
     1
 45
0.0
  0
VISUALSTYLE
  5
2C
102
{ACAD_REACTORS
330
2A
102
}
102
{ACAD_XDICTIONARY
360
19D
102
}
330
2A
100
AcDbVisualStyle
  2
FlatWithEdges
 70
     1
 71
     2
 72
     1
 73
     1
 90
        2
 40
0.6
 41
30.0
 62
     5
 63
     7
421
 16777215
 74
     1
 91
        0
 64
     7
 65
   257
 75
     1
175
     1
 42
1.0
 92
        0
 66
   257
 43
1.0
 76
     1
 77
     6
 78
     2
 67
     7
 79
     5
170
     0
171
     0
290
     0
174
     0
 93
       13
 44
0.0
173
     0
291
     1
 45
0.0
  0
VISUALSTYLE
  5
2D
102
{ACAD_REACTORS
330
2A
102
}
102
{ACAD_XDICTIONARY
360
19F
102
}
330
2A
100
AcDbVisualStyle
  2
Gouraud
 70
     2
 71
     2
 72
     2
 73
     1
 90
        2
 40
0.6
 41
30.0
 62
     5
 63
     7
421
 16777215
 74
     0
 91
        0
 64
     7
 65
   257
 75
     1
175
     1
 42
1.0
 92
        0
 66
     7
 43
1.0
 76
     1
 77
     6
 78
     2
 67
     7
 79
     5
170
     0
171
     0
290
     0
174
     0
 93
       13
 44
0.0
173
     0
291
     1
 45
0.0
  0
VISUALSTYLE
  5
2E
102
{ACAD_REACTORS
330
2A
102
}
102
{ACAD_XDICTIONARY
360
1A1
102
}
330
2A
100
AcDbVisualStyle
  2
GouraudWithEdges
 70
     3
 71
     2
 72
     2
 73
     1
 90
        2
 40
0.6
 41
30.0
 62
     5
 63
     7
421
 16777215
 74
     1
 91
        0
 64
     7
 65
   257
 75
     1
175
     1
 42
1.0
 92
        0
 66
   257
 43
1.0
 76
     1
 77
     6
 78
     2
 67
     7
 79
     5
170
     0
171
     0
290
     0
174
     0
 93
       13
 44
0.0
173
     0
291
     1
 45
0.0
  0
VISUALSTYLE
  5
31
102
{ACAD_REACTORS
330
2A
102
}
102
{ACAD_XDICTIONARY
360
1A7
102
}
330
2A
100
AcDbVisualStyle
  2
Hidden
 70
     6
 71
     1
 72
     2
 73
     2
 90
        0
 40
0.6
 41
30.0
 62
     5
 63
     7
421
 16777215
 74
     2
 91
        2
 64
     7
 65
   257
 75
     2
175
     1
 42
40.0
 92
        0
 66
   257
 43
1.0
 76
     1
 77
     6
 78
     2
 67
     7
 79
     3
170
     0
171
     0
290
     0
174
     0
 93
        1
 44
0.0
173
     0
291
     0
 45
0.0
  0
VISUALSTYLE
  5
3B
102
{ACAD_REACTORS
330
2A
102
}
102
{ACAD_XDICTIONARY
360
1BB
102
}
330
2A
100
AcDbVisualStyle
  2
JitterOff
 70
    20
 71
     2
 72
     2
 73
     0
 90
        0
 40
0.6
 41
30.0
 62
     5
 63
     7
421
 16777215
 74
     1
 91
        4
 64
     7
 65
   257
 75
     1
175
     1
 42
1.0
 92
       10
 66
     7
 43
1.0
 76
     1
 77
     6
 78
     2
 67
     7
 79
     5
170
     0
171
     0
290
     0
174
     0
 93
        1
 44
0.0
173
     0
291
     1
 45
0.0
  0
VISUALSTYLE
  5
38
102
{ACAD_REACTORS
330
2A
102
}
102
{ACAD_XDICTIONARY
360
1B5
102
}
330
2A
100
AcDbVisualStyle
  2
Linepattern
 70
    14
 71
     2
 72
     2
 73
     0
 90
        0
 40
0.6
 41
30.0
 62
     5
 63
     7
421
 16777215
 74
     1
 91
        4
 64
     7
 65
   257
 75
     7
175
     7
 42
1.0
 92
        8
 66
     7
 43
1.0
 76
     1
 77
     6
 78
     2
 67
     7
 79
     5
170
     0
171
     0
290
     0
174
     0
 93
        1
 44
0.0
173
     0
291
     1
 45
0.0
  0
VISUALSTYLE
  5
3C
102
{ACAD_REACTORS
330
2A
102
}
102
{ACAD_XDICTIONARY
360
1BD
102
}
330
2A
100
AcDbVisualStyle
  2
OverhangOff
 70
    21
 71
     2
 72
     2
 73
     0
 90
        0
 40
0.6
 41
30.0
 62
     5
 63
     7
421
 16777215
 74
     1
 91
        4
 64
     7
 65
   257
 75
     1
175
     1
 42
1.0
 92
        9
 66
     7
 43
1.0
 76
     1
 77
     6
 78
     2
 67
     7
 79
     5
170
     0
171
     0
290
     0
174
     0
 93
        1
 44
0.0
173
     0
291
     1
 45
0.0
  0
VISUALSTYLE
  5
33
102
{ACAD_REACTORS
330
2A
102
}
102
{ACAD_XDICTIONARY
360
1AB
102
}
330
2A
100
AcDbVisualStyle
  2
Realistic
 70
     8
 71
     2
 72
     3
 73
     0
 90
        2
 40
0.6
 41
30.0
 62
     5
 63
     7
421
 16777215
 74
     0
 91
        0
 64
     7
 65
   257
 75
     1
175
     1
 42
1.0
 92
        8
 66
   257
 43
1.0
 76
     1
 77
     6
 78
     2
 67
     7
 79
     3
170
     0
171
     0
290
     0
174
     0
 93
       13
 44
0.0
173
     0
291
     0
 45
0.0
  0
VISUALSTYLE
  5
42
102
{ACAD_REACTORS
330
2A
102
}
102
{ACAD_XDICTIONARY
360
1C9
102
}
330
2A
100
AcDbVisualStyle
  2
Shaded
 70
    27
 71
     2
 72
     2
 73
     1
 90
        2
 40
0.6
 41
30.0
 62
     5
 63
     7
421
 16777215
 74
     0
 91
        4
 64
     7
 65
   257
 75
     1
175
     1
 42
1.0
 92
        8
 66
   257
 43
1.0
 76
     1
 77
     6
 78
     2
 67
     8
425
  7895160
 79
     3
170
     0
171
     0
290
     0
174
     0
 93
        5
 44
0.0
173
     0
291
     0
 45
0.0
  0
VISUALSTYLE
  5
41
102
{ACAD_REACTORS
330
2A
102
}
102
{ACAD_XDICTIONARY
360
1C7
102
}
330
2A
100
AcDbVisualStyle
  2
Shaded with edges
 70
    26
 71
     2
 72
     2
 73
     1
 90
        2
 40
0.6
 41
30.0
 62
     5
 63
     7
421
 16777215
 74
     1
 91
       10
 64
     7
 65
   257
 75
     2
175
     1
 42
1.0
 92
        8
 66
   257
 43
1.0
 76
     1
 77
     6
 78
     2
 67
     7
 79
     3
170
     0
171
     0
290
     0
174
     0
 93
        5
 44
0.0
173
     0
291
     0
 45
0.0
  0
VISUALSTYLE
  5
3E
102
{ACAD_REACTORS
330
2A
102
}
102
{ACAD_XDICTIONARY
360
1C1
102
}
330
2A
100
AcDbVisualStyle
  2
Shades of Gray
 70
    23
 71
     2
 72
     2
 73
     3
 90
        0
 40
0.6
 41
30.0
 62
     5
 63
     7
421
 16777215
 74
     2
 91
        2
 64
     7
 65
     7
 75
     1
175
     1
 42
40.0
 92
        8
 66
     7
 43
1.0
 76
     1
 77
     6
 78
     2
 67
     7
 79
     3
170
     0
171
     0
290
     0
174
     0
 93
        1
 44
0.0
173
     0
291
     0
 45
0.0
  0
VISUALSTYLE
  5
3F
102
{ACAD_REACTORS
330
2A
102
}
102
{ACAD_XDICTIONARY
360
1C3
102
}
330
2A
100
AcDbVisualStyle
  2
Sketchy
 70
    24
 71
     1
 72
     2
 73
     2
 90
        0
 40
0.6
 41
30.0
 62
     5
 63
     7
421
 16777215
 74
     2
 91
        2
 64
     7
 65
     7
 75
     1
175
     1
 42
40.0
 92
       11
 66
     7
 43
1.0
 76
     1
 77
     6
 78
     2
 67
     7
 79
     6
170
     0
171
     0
290
     0
174
     0
 93
        1
 44
0.0
173
     0
291
     0
 45
0.0
  0
VISUALSTYLE
  5
37
102
{ACAD_REACTORS
330
2A
102
}
102
{ACAD_XDICTIONARY
360
1B3
102
}
330
2A
100
AcDbVisualStyle
  2
Thicken
 70
    13
 71
     2
 72
     2
 73
     0
 90
        0
 40
0.6
 41
30.0
 62
     5
 63
     7
421
 16777215
 74
     1
 91
        4
 64
     7
 65
   257
 75
     1
175
     1
 42
1.0
 92
       12
 66
     7
 43
1.0
 76
     1
 77
     6
 78
     2
 67
     7
 79
     5
170
     0
171
     0
290
     0
174
     0
 93
        1
 44
0.0
173
     0
291
     1
 45
0.0
  0
VISUALSTYLE
  5
30
102
{ACAD_REACTORS
330
2A
102
}
102
{ACAD_XDICTIONARY
360
1A5
102
}
330
2A
100
AcDbVisualStyle
  2
Wireframe
 70
     5
 71
     0
 72
     2
 73
     0
 90
        0
 40
0.6
 41
30.0
 62
     5
 63
     7
421
 16777215
 74
     1
 91
        4
 64
     7
 65
   257
 75
     1
175
     1
 42
1.0
 92
        0
 66
   257
 43
1.0
 76
     1
 77
     6
 78
     2
 67
     7
 79
     3
170
     0
171
     0
290
     0
174
     0
 93
        1
 44
0.0
173
     0
291
     0
 45
0.0
  0
VISUALSTYLE
  5
40
102
{ACAD_REACTORS
330
2A
102
}
102
{ACAD_XDICTIONARY
360
1C5
102
}
330
2A
100
AcDbVisualStyle
  2
X-Ray
 70
    25
 71
     2
 72
     2
 73
     1
 90
        1
 40
0.5
 41
30.0
 62
     5
 63
     7
421
 16777215
 74
     1
 91
        0
 64
     7
 65
   257
 75
     1
175
     1
 42
1.0
 92
        8
 66
     7
 43
1.0
 76
     1
 77
     6
 78
     2
 67
     7
 79
     3
170
     0
171
     0
290
     0
174
     0
 93
       13
 44
0.0
173
     0
291
     0
 45
0.0
  0
DICTIONARYVAR
  5
199
102
{ACAD_REACTORS
330
198
102
}
330
198
100
DictionaryVariables
280
     0
  1
1:1
  0
DICTIONARYVAR
  5
1D3
102
{ACAD_REACTORS
330
198
102
}
330
198
100
DictionaryVariables
280
     0
  1
Standard
  0
DICTIONARYVAR
  5
1D2
102
{ACAD_REACTORS
330
198
102
}
330
198
100
DictionaryVariables
280
     0
  1
Standard
  0
DICTIONARYVAR
  5
19A
102
{ACAD_REACTORS
330
198
102
}
330
198
100
DictionaryVariables
280
     0
  1
2
  0
DICTIONARY
  5
1CF
330
131
100
AcDbDictionary
280
     1
281
     1
  3
ACAD_XREC_ROUNDTRIP
360
1D0
  0
DICTIONARY
  5
1CD
330
6C
100
AcDbDictionary
280
     1
281
     1
  3
ACAD_XREC_ROUNDTRIP
360
1CE
  0
DICTIONARY
  5
1CB
330
6A
100
AcDbDictionary
280
     1
281
     1
  3
ACAD_ROUNDTRIP_2008_TABLESTYLE_CELLSTYLEMAP
360
1CC
  0
DICTIONARY
  5
1A3
330
2F
100
AcDbDictionary
280
     1
281
     1
  3
ACAD_XREC_ROUNDTRIP
360
1A4
  0
DICTIONARY
  5
1A9
330
32
100
AcDbDictionary
280
     1
281
     1
  3
ACAD_XREC_ROUNDTRIP
360
1AA
  0
DICTIONARY
  5
1B1
330
36
100
AcDbDictionary
280
     1
281
     1
  3
ACAD_XREC_ROUNDTRIP
360
1B2
  0
DICTIONARY
  5
1B9
330
3A
100
AcDbDictionary
280
     1
281
     1
  3
ACAD_XREC_ROUNDTRIP
360
1BA
  0
DICTIONARY
  5
1AD
330
34
100
AcDbDictionary
280
     1
281
     1
  3
ACAD_XREC_ROUNDTRIP
360
1AE
  0
DICTIONARY
  5
1AF
330
35
100
AcDbDictionary
280
     1
281
     1
  3
ACAD_XREC_ROUNDTRIP
360
1B0
  0
DICTIONARY
  5
1BF
330
3D
100
AcDbDictionary
280
     1
281
     1
  3
ACAD_XREC_ROUNDTRIP
360
1C0
  0
DICTIONARY
  5
1B7
330
39
100
AcDbDictionary
280
     1
281
     1
  3
ACAD_XREC_ROUNDTRIP
360
1B8
  0
DICTIONARY
  5
19B
330
2B
100
AcDbDictionary
280
     1
281
     1
  3
ACAD_XREC_ROUNDTRIP
360
19C
  0
DICTIONARY
  5
19D
330
2C
100
AcDbDictionary
280
     1
281
     1
  3
ACAD_XREC_ROUNDTRIP
360
19E
  0
DICTIONARY
  5
19F
330
2D
100
AcDbDictionary
280
     1
281
     1
  3
ACAD_XREC_ROUNDTRIP
360
1A0
  0
DICTIONARY
  5
1A1
330
2E
100
AcDbDictionary
280
     1
281
     1
  3
ACAD_XREC_ROUNDTRIP
360
1A2
  0
DICTIONARY
  5
1A7
330
31
100
AcDbDictionary
280
     1
281
     1
  3
ACAD_XREC_ROUNDTRIP
360
1A8
  0
DICTIONARY
  5
1BB
330
3B
100
AcDbDictionary
280
     1
281
     1
  3
ACAD_XREC_ROUNDTRIP
360
1BC
  0
DICTIONARY
  5
1B5
330
38
100
AcDbDictionary
280
     1
281
     1
  3
ACAD_XREC_ROUNDTRIP
360
1B6
  0
DICTIONARY
  5
1BD
330
3C
100
AcDbDictionary
280
     1
281
     1
  3
ACAD_XREC_ROUNDTRIP
360
1BE
  0
DICTIONARY
  5
1AB
330
33
100
AcDbDictionary
280
     1
281
     1
  3
ACAD_XREC_ROUNDTRIP
360
1AC
  0
DICTIONARY
  5
1C9
330
42
100
AcDbDictionary
280
     1
281
     1
  3
ACAD_XREC_ROUNDTRIP
360
1CA
  0
DICTIONARY
  5
1C7
330
41
100
AcDbDictionary
280
     1
281
     1
  3
ACAD_XREC_ROUNDTRIP
360
1C8
  0
DICTIONARY
  5
1C1
330
3E
100
AcDbDictionary
280
     1
281
     1
  3
ACAD_XREC_ROUNDTRIP
360
1C2
  0
DICTIONARY
  5
1C3
330
3F
100
AcDbDictionary
280
     1
281
     1
  3
ACAD_XREC_ROUNDTRIP
360
1C4
  0
DICTIONARY
  5
1B3
330
37
100
AcDbDictionary
280
     1
281
     1
  3
ACAD_XREC_ROUNDTRIP
360
1B4
  0
DICTIONARY
  5
1A5
330
30
100
AcDbDictionary
280
     1
281
     1
  3
ACAD_XREC_ROUNDTRIP
360
1A6
  0
DICTIONARY
  5
1C5
330
40
100
AcDbDictionary
280
     1
281
     1
  3
ACAD_XREC_ROUNDTRIP
360
1C6
  0
XRECORD
  5
1D0
102
{ACAD_REACTORS
330
1CF
102
}
330
1CF
100
AcDbXrecord
280
     1
102
ACAD_ROUNDTRIP_2010_MLEADER_STYLE
  0
XRECORD
  5
1CE
102
{ACAD_REACTORS
330
1CD
102
}
330
1CD
100
AcDbXrecord
280
     1
102
ACAD_ROUNDTRIP_2010_MLEADER_STYLE
  0
CELLSTYLEMAP
  5
1CC
102
{ACAD_REACTORS
330
1CB
102
}
330
1CB
100
AcDbCellStyleMap
 90
        3
300
CELLSTYLE
  1
TABLEFORMAT_BEGIN
 90
        5
170
     1
 91
        0
 92
    32768
 62
   257
 93
        1
300
CONTENTFORMAT
  1
CONTENTFORMAT_BEGIN
 90
        0
 91
        0
 92
        4
 93
        0
300

 40
0.0
140
1.0
 94
        5
 62
     0
340
11
144
0.25
309
CONTENTFORMAT_END
171
     1
301
MARGIN
  1
CELLMARGIN_BEGIN
 40
0.06
 40
0.06
 40
0.06
 40
0.06
 40
0.06
 40
0.06
309
CELLMARGIN_END
 94
        6
 95
        1
302
GRIDFORMAT
  1
GRIDFORMAT_BEGIN
 90
        0
 91
        1
 62
     0
 92
       -2
340
14
 93
        0
 40
0.045
309
GRIDFORMAT_END
 95
        2
302
GRIDFORMAT
  1
GRIDFORMAT_BEGIN
 90
        0
 91
        1
 62
     0
 92
       -2
340
14
 93
        0
 40
0.045
309
GRIDFORMAT_END
 95
        4
302
GRIDFORMAT
  1
GRIDFORMAT_BEGIN
 90
        0
 91
        1
 62
     0
 92
       -2
340
14
 93
        0
 40
0.045
309
GRIDFORMAT_END
 95
        8
302
GRIDFORMAT
  1
GRIDFORMAT_BEGIN
 90
        0
 91
        1
 62
     0
 92
       -2
340
14
 93
        0
 40
0.045
309
GRIDFORMAT_END
 95
       16
302
GRIDFORMAT
  1
GRIDFORMAT_BEGIN
 90
        0
 91
        1
 62
     0
 92
       -2
340
14
 93
        0
 40
0.045
309
GRIDFORMAT_END
 95
       32
302
GRIDFORMAT
  1
GRIDFORMAT_BEGIN
 90
        0
 91
        1
 62
     0
 92
       -2
340
14
 93
        0
 40
0.045
309
GRIDFORMAT_END
309
TABLEFORMAT_END
  1
CELLSTYLE_BEGIN
 90
        1
 91
        1
300
_TITLE
309
CELLSTYLE_END
300
CELLSTYLE
  1
TABLEFORMAT_BEGIN
 90
        5
170
     1
 91
        0
 92
        0
 62
   257
 93
        1
300
CONTENTFORMAT
  1
CONTENTFORMAT_BEGIN
 90
        0
 91
        0
 92
        4
 93
        0
300

 40
0.0
140
1.0
 94
        5
 62
     0
340
11
144
0.18
309
CONTENTFORMAT_END
171
     1
301
MARGIN
  1
CELLMARGIN_BEGIN
 40
0.06
 40
0.06
 40
0.06
 40
0.06
 40
0.06
 40
0.06
309
CELLMARGIN_END
 94
        6
 95
        1
302
GRIDFORMAT
  1
GRIDFORMAT_BEGIN
 90
        0
 91
        1
 62
     0
 92
       -2
340
14
 93
        0
 40
0.045
309
GRIDFORMAT_END
 95
        2
302
GRIDFORMAT
  1
GRIDFORMAT_BEGIN
 90
        0
 91
        1
 62
     0
 92
       -2
340
14
 93
        0
 40
0.045
309
GRIDFORMAT_END
 95
        4
302
GRIDFORMAT
  1
GRIDFORMAT_BEGIN
 90
        0
 91
        1
 62
     0
 92
       -2
340
14
 93
        0
 40
0.045
309
GRIDFORMAT_END
 95
        8
302
GRIDFORMAT
  1
GRIDFORMAT_BEGIN
 90
        0
 91
        1
 62
     0
 92
       -2
340
14
 93
        0
 40
0.045
309
GRIDFORMAT_END
 95
       16
302
GRIDFORMAT
  1
GRIDFORMAT_BEGIN
 90
        0
 91
        1
 62
     0
 92
       -2
340
14
 93
        0
 40
0.045
309
GRIDFORMAT_END
 95
       32
302
GRIDFORMAT
  1
GRIDFORMAT_BEGIN
 90
        0
 91
        1
 62
     0
 92
       -2
340
14
 93
        0
 40
0.045
309
GRIDFORMAT_END
309
TABLEFORMAT_END
  1
CELLSTYLE_BEGIN
 90
        2
 91
        1
300
_HEADER
309
CELLSTYLE_END
300
CELLSTYLE
  1
TABLEFORMAT_BEGIN
 90
        5
170
     1
 91
        0
 92
        0
 62
   257
 93
        1
300
CONTENTFORMAT
  1
CONTENTFORMAT_BEGIN
 90
        0
 91
        0
 92
        4
 93
        0
300

 40
0.0
140
1.0
 94
        2
 62
     0
340
11
144
0.18
309
CONTENTFORMAT_END
171
     1
301
MARGIN
  1
CELLMARGIN_BEGIN
 40
0.06
 40
0.06
 40
0.06
 40
0.06
 40
0.06
 40
0.06
309
CELLMARGIN_END
 94
        6
 95
        1
302
GRIDFORMAT
  1
GRIDFORMAT_BEGIN
 90
        0
 91
        1
 62
     0
 92
       -2
340
14
 93
        0
 40
0.045
309
GRIDFORMAT_END
 95
        2
302
GRIDFORMAT
  1
GRIDFORMAT_BEGIN
 90
        0
 91
        1
 62
     0
 92
       -2
340
14
 93
        0
 40
0.045
309
GRIDFORMAT_END
 95
        4
302
GRIDFORMAT
  1
GRIDFORMAT_BEGIN
 90
        0
 91
        1
 62
     0
 92
       -2
340
14
 93
        0
 40
0.045
309
GRIDFORMAT_END
 95
        8
302
GRIDFORMAT
  1
GRIDFORMAT_BEGIN
 90
        0
 91
        1
 62
     0
 92
       -2
340
14
 93
        0
 40
0.045
309
GRIDFORMAT_END
 95
       16
302
GRIDFORMAT
  1
GRIDFORMAT_BEGIN
 90
        0
 91
        1
 62
     0
 92
       -2
340
14
 93
        0
 40
0.045
309
GRIDFORMAT_END
 95
       32
302
GRIDFORMAT
  1
GRIDFORMAT_BEGIN
 90
        0
 91
        1
 62
     0
 92
       -2
340
14
 93
        0
 40
0.045
309
GRIDFORMAT_END
309
TABLEFORMAT_END
  1
CELLSTYLE_BEGIN
 90
        3
 91
        2
300
_DATA
309
CELLSTYLE_END
  0
XRECORD
  5
1A4
102
{ACAD_REACTORS
330
1A3
102
}
330
1A3
100
AcDbXrecord
280
     1
102
RTVSPropertyOp0
 70
     1
102
RTVSPropertyOp1
 70
     1
102
RTVSPropertyOp2
 70
     1
102
RTVSPropertyOp3
 70
     1
102
RTVSPropertyOp4
 70
     1
102
RTVSPropertyOp5
 70
     1
102
RTVSPropertyOp6
 70
     1
102
RTVSPropertyOp7
 70
     1
102
RTVSPropertyOp8
 70
     1
102
RTVSPropertyOp9
 70
     1
102
RTVSPropertyOp10
 70
     1
102
RTVSPropertyOp11
 70
     1
102
RTVSPropertyOp12
 70
     1
102
RTVSPropertyOp13
 70
     1
102
RTVSPropertyOp14
 70
     1
102
RTVSPropertyOp15
 70
     1
102
RTVSPropertyOp16
 70
     1
102
RTVSPropertyOp17
 70
     1
102
RTVSPropertyOp18
 70
     1
102
RTVSPropertyOp19
 70
     1
102
RTVSPropertyOp20
 70
     1
102
RTVSPropertyOp21
 70
     1
102
RTVSPropertyOp22
 70
     1
102
RTVSPropertyOp23
 70
     1
102
RTVSPropertyOp24
 70
     1
102
RTVSPropertyOp25
 70
     1
102
RTVSPropertyOp26
 70
     1
102
RTVSPropertyOp27
 70
     1
102
RTVSPropertyOp28
 70
     1
102
RTVSPropertyOp29
 70
     1
102
RTVSPropertyOp30
 70
     1
102
RTVSPropertyOp31
 70
     1
102
RTVSPropertyOp32
 70
     1
102
RTVSPropertyOp33
 70
     1
102
RTVSPropertyOp34
 70
     1
102
RTVSPropertyOp35
 70
     1
102
RTVSPropertyOp36
 70
     1
102
RTVSPropertyOp37
 70
     1
102
RTVSPropertyOp38
 70
     1
102
RTVSPropertyOp39
 70
     1
102
RTVSPropertyOp40
 70
     1
102
RTVSPropertyOp41
 70
     1
102
RTVSPropertyOp42
 70
     1
102
RTVSPropertyOp43
 70
     1
102
RTVSPropertyOp44
 70
     1
102
RTVSPropertyOp45
 70
     1
102
RTVSPropertyOp46
 70
     1
102
RTVSPropertyOp47
 70
     1
102
RTVSPropertyOp48
 70
     1
102
RTVSPropertyOp49
 70
     1
102
RTVSPropertyOp50
 70
     1
102
RTVSPropertyOp51
 70
     0
102
RTVSPropertyOp52
 70
     0
102
RTVSPropertyOp53
 70
     1
102
RTVSPropertyOp54
 70
     1
102
RTVSPropertyOp55
 70
     1
102
RTVSPropertyOp56
 70
     1
102
RTVSPropertyOp57
 70
     1
102
RTVSPost2010Prop28
280
     1
102
RTVSPost2010PropOp28
 70
     1
102
RTVSPost2010Prop29
280
     1
102
RTVSPost2010PropOp29
 70
     1
102
RTVSPost2010Prop30
280
     0
102
RTVSPost2010PropOp30
 70
     1
102
RTVSPost2010Prop31
280
     0
102
RTVSPost2010PropOp31
 70
     1
102
RTVSPost2010Prop32
280
     0
102
RTVSPost2010PropOp32
 70
     1
102
RTVSPost2010Prop33
280
     0
102
RTVSPost2010PropOp33
 70
     1
102
RTVSPost2010Prop34
280
     0
102
RTVSPost2010PropOp34
 70
     1
102
RTVSPost2010Prop35
280
     0
102
RTVSPost2010PropOp35
 70
     1
102
RTVSPost2010Prop36
280
     0
102
RTVSPost2010PropOp36
 70
     1
102
RTVSPost2010Prop37
 90
       50
102
RTVSPost2010PropOp37
 70
     1
102
RTVSPost2010Prop38
140
0.0
102
RTVSPost2010PropOp38
 70
     1
102
RTVSPost2010Prop39
140
1.0
102
RTVSPost2010PropOp39
 70
     1
102
RTVSPost2010Prop40
 90
        0
102
RTVSPost2010PropOp40
 70
     1
102
RTVSPost2010Prop41ColorIndex
 90
      178
102
RTVSPost2010Prop41ColorRGB
 90
        0
102
RTVSPost2010PropOp41
 70
     1
102
RTVSPost2010Prop42
 90
       50
102
RTVSPost2010PropOp42
 70
     1
102
RTVSPost2010Prop43
 90
        3
102
RTVSPost2010PropOp43
 70
     1
102
RTVSPost2010Prop44ColorIndex
 90
        5
102
RTVSPost2010Prop44ColorRGB
 90
      255
102
RTVSPost2010PropOp44
 70
     1
102
RTVSPost2010Prop45
280
     0
102
RTVSPost2010PropOp45
 70
     1
102
RTVSPost2010Prop46
 90
       50
102
RTVSPost2010PropOp46
 70
     1
102
RTVSPost2010Prop47
 90
       50
102
RTVSPost2010PropOp47
 70
     1
102
RTVSPost2010Prop48
 90
       50
102
RTVSPost2010PropOp48
 70
     1
102
RTVSPost2010Prop49
280
     0
102
RTVSPost2010PropOp49
 70
     1
102
RTVSPost2010Prop50
 90
       50
102
RTVSPost2010PropOp50
 70
     1
102
RTVSPost2010Prop51ColorIndex
 90
      256
102
RTVSPost2010Prop51ColorRGB
 90
-16777216
102
RTVSPost2010PropOp51
 70
     0
102
RTVSPost2010Prop52
140
1.0
102
RTVSPost2010PropOp52
 70
     0
102
RTVSPost2010Prop53
 90
        2
102
RTVSPost2010PropOp53
 70
     1
102
RTVSPost2010Prop54
  1
strokes_ogs.tif
102
RTVSPost2010PropOp54
 70
     1
102
RTVSPost2010Prop55
280
     0
102
RTVSPost2010PropOp55
 70
     1
102
RTVSPost2010Prop56
140
1.0
102
RTVSPost2010PropOp56
 70
     1
102
RTVSPost2010Prop57
140
1.0
102
RTVSPost2010PropOp57
 70
     1
  0
XRECORD
  5
1AA
102
{ACAD_REACTORS
330
1A9
102
}
330
1A9
100
AcDbXrecord
280
     1
102
RTVSPropertyOp0
 70
     1
102
RTVSPropertyOp1
 70
     1
102
RTVSPropertyOp2
 70
     1
102
RTVSPropertyOp3
 70
     1
102
RTVSPropertyOp4
 70
     1
102
RTVSPropertyOp5
 70
     1
102
RTVSPropertyOp6
 70
     1
102
RTVSPropertyOp7
 70
     1
102
RTVSPropertyOp8
 70
     1
102
RTVSPropertyOp9
 70
     1
102
RTVSPropertyOp10
 70
     1
102
RTVSPropertyOp11
 70
     1
102
RTVSPropertyOp12
 70
     1
102
RTVSPropertyOp13
 70
     1
102
RTVSPropertyOp14
 70
     1
102
RTVSPropertyOp15
 70
     1
102
RTVSPropertyOp16
 70
     1
102
RTVSPropertyOp17
 70
     1
102
RTVSPropertyOp18
 70
     1
102
RTVSPropertyOp19
 70
     1
102
RTVSPropertyOp20
 70
     1
102
RTVSPropertyOp21
 70
     1
102
RTVSPropertyOp22
 70
     1
102
RTVSPropertyOp23
 70
     1
102
RTVSPropertyOp24
 70
     1
102
RTVSPropertyOp25
 70
     1
102
RTVSPropertyOp26
 70
     1
102
RTVSPropertyOp27
 70
     1
102
RTVSPropertyOp28
 70
     1
102
RTVSPropertyOp29
 70
     1
102
RTVSPropertyOp30
 70
     1
102
RTVSPropertyOp31
 70
     1
102
RTVSPropertyOp32
 70
     1
102
RTVSPropertyOp33
 70
     1
102
RTVSPropertyOp34
 70
     1
102
RTVSPropertyOp35
 70
     1
102
RTVSPropertyOp36
 70
     1
102
RTVSPropertyOp37
 70
     1
102
RTVSPropertyOp38
 70
     1
102
RTVSPropertyOp39
 70
     1
102
RTVSPropertyOp40
 70
     1
102
RTVSPropertyOp41
 70
     1
102
RTVSPropertyOp42
 70
     1
102
RTVSPropertyOp43
 70
     1
102
RTVSPropertyOp44
 70
     1
102
RTVSPropertyOp45
 70
     1
102
RTVSPropertyOp46
 70
     1
102
RTVSPropertyOp47
 70
     1
102
RTVSPropertyOp48
 70
     1
102
RTVSPropertyOp49
 70
     1
102
RTVSPropertyOp50
 70
     1
102
RTVSPropertyOp51
 70
     0
102
RTVSPropertyOp52
 70
     0
102
RTVSPropertyOp53
 70
     1
102
RTVSPropertyOp54
 70
     1
102
RTVSPropertyOp55
 70
     1
102
RTVSPropertyOp56
 70
     1
102
RTVSPropertyOp57
 70
     1
102
RTVSPost2010Prop28
280
     0
102
RTVSPost2010PropOp28
 70
     1
102
RTVSPost2010Prop29
280
     1
102
RTVSPost2010PropOp29
 70
     1
102
RTVSPost2010Prop30
280
     1
102
RTVSPost2010PropOp30
 70
     1
102
RTVSPost2010Prop31
280
     0
102
RTVSPost2010PropOp31
 70
     1
102
RTVSPost2010Prop32
280
     0
102
RTVSPost2010PropOp32
 70
     1
102
RTVSPost2010Prop33
280
     0
102
RTVSPost2010PropOp33
 70
     1
102
RTVSPost2010Prop34
280
     0
102
RTVSPost2010PropOp34
 70
     1
102
RTVSPost2010Prop35
280
     0
102
RTVSPost2010PropOp35
 70
     1
102
RTVSPost2010Prop36
280
     0
102
RTVSPost2010PropOp36
 70
     1
102
RTVSPost2010Prop37
 90
       50
102
RTVSPost2010PropOp37
 70
     1
102
RTVSPost2010Prop38
140
0.0
102
RTVSPost2010PropOp38
 70
     1
102
RTVSPost2010Prop39
140
1.0
102
RTVSPost2010PropOp39
 70
     1
102
RTVSPost2010Prop40
 90
        0
102
RTVSPost2010PropOp40
 70
     1
102
RTVSPost2010Prop41ColorIndex
 90
      178
102
RTVSPost2010Prop41ColorRGB
 90
        0
102
RTVSPost2010PropOp41
 70
     1
102
RTVSPost2010Prop42
 90
       50
102
RTVSPost2010PropOp42
 70
     1
102
RTVSPost2010Prop43
 90
        3
102
RTVSPost2010PropOp43
 70
     1
102
RTVSPost2010Prop44ColorIndex
 90
        5
102
RTVSPost2010Prop44ColorRGB
 90
      255
102
RTVSPost2010PropOp44
 70
     1
102
RTVSPost2010Prop45
280
     0
102
RTVSPost2010PropOp45
 70
     1
102
RTVSPost2010Prop46
 90
       50
102
RTVSPost2010PropOp46
 70
     1
102
RTVSPost2010Prop47
 90
       50
102
RTVSPost2010PropOp47
 70
     1
102
RTVSPost2010Prop48
 90
       50
102
RTVSPost2010PropOp48
 70
     1
102
RTVSPost2010Prop49
280
     0
102
RTVSPost2010PropOp49
 70
     1
102
RTVSPost2010Prop50
 90
       50
102
RTVSPost2010PropOp50
 70
     1
102
RTVSPost2010Prop51ColorIndex
 90
      256
102
RTVSPost2010Prop51ColorRGB
 90
-16777216
102
RTVSPost2010PropOp51
 70
     0
102
RTVSPost2010Prop52
140
1.0
102
RTVSPost2010PropOp52
 70
     0
102
RTVSPost2010Prop53
 90
        2
102
RTVSPost2010PropOp53
 70
     1
102
RTVSPost2010Prop54
  1
strokes_ogs.tif
102
RTVSPost2010PropOp54
 70
     1
102
RTVSPost2010Prop55
280
     0
102
RTVSPost2010PropOp55
 70
     1
102
RTVSPost2010Prop56
140
1.0
102
RTVSPost2010PropOp56
 70
     1
102
RTVSPost2010Prop57
140
1.0
102
RTVSPost2010PropOp57
 70
     1
  0
XRECORD
  5
1B2
102
{ACAD_REACTORS
330
1B1
102
}
330
1B1
100
AcDbXrecord
280
     1
102
RTVSPropertyOp0
 70
     1
102
RTVSPropertyOp1
 70
     1
102
RTVSPropertyOp2
 70
     1
102
RTVSPropertyOp3
 70
     1
102
RTVSPropertyOp4
 70
     1
102
RTVSPropertyOp5
 70
     1
102
RTVSPropertyOp6
 70
     1
102
RTVSPropertyOp7
 70
     1
102
RTVSPropertyOp8
 70
     1
102
RTVSPropertyOp9
 70
     1
102
RTVSPropertyOp10
 70
     1
102
RTVSPropertyOp11
 70
     1
102
RTVSPropertyOp12
 70
     1
102
RTVSPropertyOp13
 70
     1
102
RTVSPropertyOp14
 70
     1
102
RTVSPropertyOp15
 70
     1
102
RTVSPropertyOp16
 70
     1
102
RTVSPropertyOp17
 70
     1
102
RTVSPropertyOp18
 70
     1
102
RTVSPropertyOp19
 70
     1
102
RTVSPropertyOp20
 70
     1
102
RTVSPropertyOp21
 70
     1
102
RTVSPropertyOp22
 70
     1
102
RTVSPropertyOp23
 70
     1
102
RTVSPropertyOp24
 70
     1
102
RTVSPropertyOp25
 70
     1
102
RTVSPropertyOp26
 70
     1
102
RTVSPropertyOp27
 70
     1
102
RTVSPropertyOp28
 70
     1
102
RTVSPropertyOp29
 70
     1
102
RTVSPropertyOp30
 70
     1
102
RTVSPropertyOp31
 70
     1
102
RTVSPropertyOp32
 70
     1
102
RTVSPropertyOp33
 70
     1
102
RTVSPropertyOp34
 70
     1
102
RTVSPropertyOp35
 70
     1
102
RTVSPropertyOp36
 70
     1
102
RTVSPropertyOp37
 70
     1
102
RTVSPropertyOp38
 70
     1
102
RTVSPropertyOp39
 70
     1
102
RTVSPropertyOp40
 70
     1
102
RTVSPropertyOp41
 70
     1
102
RTVSPropertyOp42
 70
     1
102
RTVSPropertyOp43
 70
     1
102
RTVSPropertyOp44
 70
     1
102
RTVSPropertyOp45
 70
     1
102
RTVSPropertyOp46
 70
     1
102
RTVSPropertyOp47
 70
     1
102
RTVSPropertyOp48
 70
     1
102
RTVSPropertyOp49
 70
     1
102
RTVSPropertyOp50
 70
     1
102
RTVSPropertyOp51
 70
     0
102
RTVSPropertyOp52
 70
     0
102
RTVSPropertyOp53
 70
     1
102
RTVSPropertyOp54
 70
     1
102
RTVSPropertyOp55
 70
     1
102
RTVSPropertyOp56
 70
     1
102
RTVSPropertyOp57
 70
     1
102
RTVSPost2010Prop28
280
     0
102
RTVSPost2010PropOp28
 70
     1
102
RTVSPost2010Prop29
280
     1
102
RTVSPost2010PropOp29
 70
     1
102
RTVSPost2010Prop30
280
     1
102
RTVSPost2010PropOp30
 70
     1
102
RTVSPost2010Prop31
280
     0
102
RTVSPost2010PropOp31
 70
     1
102
RTVSPost2010Prop32
280
     0
102
RTVSPost2010PropOp32
 70
     1
102
RTVSPost2010Prop33
280
     0
102
RTVSPost2010PropOp33
 70
     1
102
RTVSPost2010Prop34
280
     0
102
RTVSPost2010PropOp34
 70
     1
102
RTVSPost2010Prop35
280
     0
102
RTVSPost2010PropOp35
 70
     1
102
RTVSPost2010Prop36
280
     0
102
RTVSPost2010PropOp36
 70
     1
102
RTVSPost2010Prop37
 90
       50
102
RTVSPost2010PropOp37
 70
     1
102
RTVSPost2010Prop38
140
0.0
102
RTVSPost2010PropOp38
 70
     1
102
RTVSPost2010Prop39
140
1.0
102
RTVSPost2010PropOp39
 70
     1
102
RTVSPost2010Prop40
 90
        0
102
RTVSPost2010PropOp40
 70
     1
102
RTVSPost2010Prop41ColorIndex
 90
      178
102
RTVSPost2010Prop41ColorRGB
 90
        0
102
RTVSPost2010PropOp41
 70
     1
102
RTVSPost2010Prop42
 90
       50
102
RTVSPost2010PropOp42
 70
     1
102
RTVSPost2010Prop43
 90
        3
102
RTVSPost2010PropOp43
 70
     1
102
RTVSPost2010Prop44ColorIndex
 90
        5
102
RTVSPost2010Prop44ColorRGB
 90
      255
102
RTVSPost2010PropOp44
 70
     1
102
RTVSPost2010Prop45
280
     0
102
RTVSPost2010PropOp45
 70
     1
102
RTVSPost2010Prop46
 90
       50
102
RTVSPost2010PropOp46
 70
     1
102
RTVSPost2010Prop47
 90
       50
102
RTVSPost2010PropOp47
 70
     1
102
RTVSPost2010Prop48
 90
       50
102
RTVSPost2010PropOp48
 70
     1
102
RTVSPost2010Prop49
280
     0
102
RTVSPost2010PropOp49
 70
     1
102
RTVSPost2010Prop50
 90
       50
102
RTVSPost2010PropOp50
 70
     1
102
RTVSPost2010Prop51ColorIndex
 90
      256
102
RTVSPost2010Prop51ColorRGB
 90
-16777216
102
RTVSPost2010PropOp51
 70
     0
102
RTVSPost2010Prop52
140
1.0
102
RTVSPost2010PropOp52
 70
     0
102
RTVSPost2010Prop53
 90
        2
102
RTVSPost2010PropOp53
 70
     1
102
RTVSPost2010Prop54
  1
strokes_ogs.tif
102
RTVSPost2010PropOp54
 70
     1
102
RTVSPost2010Prop55
280
     0
102
RTVSPost2010PropOp55
 70
     1
102
RTVSPost2010Prop56
140
1.0
102
RTVSPost2010PropOp56
 70
     1
102
RTVSPost2010Prop57
140
1.0
102
RTVSPost2010PropOp57
 70
     1
  0
XRECORD
  5
1BA
102
{ACAD_REACTORS
330
1B9
102
}
330
1B9
100
AcDbXrecord
280
     1
102
RTVSPropertyOp0
 70
     1
102
RTVSPropertyOp1
 70
     1
102
RTVSPropertyOp2
 70
     1
102
RTVSPropertyOp3
 70
     1
102
RTVSPropertyOp4
 70
     1
102
RTVSPropertyOp5
 70
     1
102
RTVSPropertyOp6
 70
     1
102
RTVSPropertyOp7
 70
     1
102
RTVSPropertyOp8
 70
     1
102
RTVSPropertyOp9
 70
     1
102
RTVSPropertyOp10
 70
     1
102
RTVSPropertyOp11
 70
     1
102
RTVSPropertyOp12
 70
     1
102
RTVSPropertyOp13
 70
     1
102
RTVSPropertyOp14
 70
     1
102
RTVSPropertyOp15
 70
     1
102
RTVSPropertyOp16
 70
     1
102
RTVSPropertyOp17
 70
     1
102
RTVSPropertyOp18
 70
     1
102
RTVSPropertyOp19
 70
     1
102
RTVSPropertyOp20
 70
     1
102
RTVSPropertyOp21
 70
     1
102
RTVSPropertyOp22
 70
     1
102
RTVSPropertyOp23
 70
     1
102
RTVSPropertyOp24
 70
     1
102
RTVSPropertyOp25
 70
     1
102
RTVSPropertyOp26
 70
     1
102
RTVSPropertyOp27
 70
     1
102
RTVSPropertyOp28
 70
     1
102
RTVSPropertyOp29
 70
     1
102
RTVSPropertyOp30
 70
     1
102
RTVSPropertyOp31
 70
     1
102
RTVSPropertyOp32
 70
     1
102
RTVSPropertyOp33
 70
     1
102
RTVSPropertyOp34
 70
     1
102
RTVSPropertyOp35
 70
     1
102
RTVSPropertyOp36
 70
     1
102
RTVSPropertyOp37
 70
     1
102
RTVSPropertyOp38
 70
     1
102
RTVSPropertyOp39
 70
     1
102
RTVSPropertyOp40
 70
     1
102
RTVSPropertyOp41
 70
     1
102
RTVSPropertyOp42
 70
     1
102
RTVSPropertyOp43
 70
     1
102
RTVSPropertyOp44
 70
     1
102
RTVSPropertyOp45
 70
     1
102
RTVSPropertyOp46
 70
     1
102
RTVSPropertyOp47
 70
     1
102
RTVSPropertyOp48
 70
     1
102
RTVSPropertyOp49
 70
     1
102
RTVSPropertyOp50
 70
     1
102
RTVSPropertyOp51
 70
     0
102
RTVSPropertyOp52
 70
     0
102
RTVSPropertyOp53
 70
     1
102
RTVSPropertyOp54
 70
     1
102
RTVSPropertyOp55
 70
     1
102
RTVSPropertyOp56
 70
     1
102
RTVSPropertyOp57
 70
     1
102
RTVSPost2010Prop28
280
     0
102
RTVSPost2010PropOp28
 70
     1
102
RTVSPost2010Prop29
280
     1
102
RTVSPost2010PropOp29
 70
     1
102
RTVSPost2010Prop30
280
     1
102
RTVSPost2010PropOp30
 70
     1
102
RTVSPost2010Prop31
280
     0
102
RTVSPost2010PropOp31
 70
     1
102
RTVSPost2010Prop32
280
     0
102
RTVSPost2010PropOp32
 70
     1
102
RTVSPost2010Prop33
280
     0
102
RTVSPost2010PropOp33
 70
     1
102
RTVSPost2010Prop34
280
     0
102
RTVSPost2010PropOp34
 70
     1
102
RTVSPost2010Prop35
280
     0
102
RTVSPost2010PropOp35
 70
     1
102
RTVSPost2010Prop36
280
     0
102
RTVSPost2010PropOp36
 70
     1
102
RTVSPost2010Prop37
 90
       50
102
RTVSPost2010PropOp37
 70
     1
102
RTVSPost2010Prop38
140
0.0
102
RTVSPost2010PropOp38
 70
     1
102
RTVSPost2010Prop39
140
1.0
102
RTVSPost2010PropOp39
 70
     1
102
RTVSPost2010Prop40
 90
        0
102
RTVSPost2010PropOp40
 70
     1
102
RTVSPost2010Prop41ColorIndex
 90
      178
102
RTVSPost2010Prop41ColorRGB
 90
        0
102
RTVSPost2010PropOp41
 70
     1
102
RTVSPost2010Prop42
 90
       50
102
RTVSPost2010PropOp42
 70
     1
102
RTVSPost2010Prop43
 90
        3
102
RTVSPost2010PropOp43
 70
     1
102
RTVSPost2010Prop44ColorIndex
 90
        5
102
RTVSPost2010Prop44ColorRGB
 90
      255
102
RTVSPost2010PropOp44
 70
     1
102
RTVSPost2010Prop45
280
     0
102
RTVSPost2010PropOp45
 70
     1
102
RTVSPost2010Prop46
 90
       50
102
RTVSPost2010PropOp46
 70
     1
102
RTVSPost2010Prop47
 90
       50
102
RTVSPost2010PropOp47
 70
     1
102
RTVSPost2010Prop48
 90
       50
102
RTVSPost2010PropOp48
 70
     1
102
RTVSPost2010Prop49
280
     0
102
RTVSPost2010PropOp49
 70
     1
102
RTVSPost2010Prop50
 90
       50
102
RTVSPost2010PropOp50
 70
     1
102
RTVSPost2010Prop51ColorIndex
 90
      256
102
RTVSPost2010Prop51ColorRGB
 90
-16777216
102
RTVSPost2010PropOp51
 70
     0
102
RTVSPost2010Prop52
140
1.0
102
RTVSPost2010PropOp52
 70
     0
102
RTVSPost2010Prop53
 90
        2
102
RTVSPost2010PropOp53
 70
     1
102
RTVSPost2010Prop54
  1
strokes_ogs.tif
102
RTVSPost2010PropOp54
 70
     1
102
RTVSPost2010Prop55
280
     0
102
RTVSPost2010PropOp55
 70
     1
102
RTVSPost2010Prop56
140
1.0
102
RTVSPost2010PropOp56
 70
     1
102
RTVSPost2010Prop57
140
1.0
102
RTVSPost2010PropOp57
 70
     1
  0
XRECORD
  5
1AE
102
{ACAD_REACTORS
330
1AD
102
}
330
1AD
100
AcDbXrecord
280
     1
102
RTVSPropertyOp0
 70
     1
102
RTVSPropertyOp1
 70
     1
102
RTVSPropertyOp2
 70
     1
102
RTVSPropertyOp3
 70
     1
102
RTVSPropertyOp4
 70
     1
102
RTVSPropertyOp5
 70
     1
102
RTVSPropertyOp6
 70
     1
102
RTVSPropertyOp7
 70
     1
102
RTVSPropertyOp8
 70
     1
102
RTVSPropertyOp9
 70
     1
102
RTVSPropertyOp10
 70
     1
102
RTVSPropertyOp11
 70
     1
102
RTVSPropertyOp12
 70
     1
102
RTVSPropertyOp13
 70
     1
102
RTVSPropertyOp14
 70
     1
102
RTVSPropertyOp15
 70
     1
102
RTVSPropertyOp16
 70
     1
102
RTVSPropertyOp17
 70
     1
102
RTVSPropertyOp18
 70
     1
102
RTVSPropertyOp19
 70
     1
102
RTVSPropertyOp20
 70
     1
102
RTVSPropertyOp21
 70
     1
102
RTVSPropertyOp22
 70
     1
102
RTVSPropertyOp23
 70
     1
102
RTVSPropertyOp24
 70
     1
102
RTVSPropertyOp25
 70
     1
102
RTVSPropertyOp26
 70
     1
102
RTVSPropertyOp27
 70
     1
102
RTVSPropertyOp28
 70
     1
102
RTVSPropertyOp29
 70
     1
102
RTVSPropertyOp30
 70
     1
102
RTVSPropertyOp31
 70
     1
102
RTVSPropertyOp32
 70
     1
102
RTVSPropertyOp33
 70
     1
102
RTVSPropertyOp34
 70
     1
102
RTVSPropertyOp35
 70
     1
102
RTVSPropertyOp36
 70
     1
102
RTVSPropertyOp37
 70
     1
102
RTVSPropertyOp38
 70
     1
102
RTVSPropertyOp39
 70
     1
102
RTVSPropertyOp40
 70
     1
102
RTVSPropertyOp41
 70
     1
102
RTVSPropertyOp42
 70
     1
102
RTVSPropertyOp43
 70
     1
102
RTVSPropertyOp44
 70
     1
102
RTVSPropertyOp45
 70
     1
102
RTVSPropertyOp46
 70
     1
102
RTVSPropertyOp47
 70
     1
102
RTVSPropertyOp48
 70
     1
102
RTVSPropertyOp49
 70
     1
102
RTVSPropertyOp50
 70
     1
102
RTVSPropertyOp51
 70
     0
102
RTVSPropertyOp52
 70
     0
102
RTVSPropertyOp53
 70
     1
102
RTVSPropertyOp54
 70
     1
102
RTVSPropertyOp55
 70
     1
102
RTVSPropertyOp56
 70
     1
102
RTVSPropertyOp57
 70
     1
102
RTVSPost2010Prop28
280
     0
102
RTVSPost2010PropOp28
 70
     1
102
RTVSPost2010Prop29
280
     1
102
RTVSPost2010PropOp29
 70
     1
102
RTVSPost2010Prop30
280
     1
102
RTVSPost2010PropOp30
 70
     1
102
RTVSPost2010Prop31
280
     0
102
RTVSPost2010PropOp31
 70
     1
102
RTVSPost2010Prop32
280
     0
102
RTVSPost2010PropOp32
 70
     1
102
RTVSPost2010Prop33
280
     0
102
RTVSPost2010PropOp33
 70
     1
102
RTVSPost2010Prop34
280
     0
102
RTVSPost2010PropOp34
 70
     1
102
RTVSPost2010Prop35
280
     0
102
RTVSPost2010PropOp35
 70
     1
102
RTVSPost2010Prop36
280
     0
102
RTVSPost2010PropOp36
 70
     1
102
RTVSPost2010Prop37
 90
       50
102
RTVSPost2010PropOp37
 70
     1
102
RTVSPost2010Prop38
140
0.0
102
RTVSPost2010PropOp38
 70
     1
102
RTVSPost2010Prop39
140
1.0
102
RTVSPost2010PropOp39
 70
     1
102
RTVSPost2010Prop40
 90
        0
102
RTVSPost2010PropOp40
 70
     1
102
RTVSPost2010Prop41ColorIndex
 90
      178
102
RTVSPost2010Prop41ColorRGB
 90
        0
102
RTVSPost2010PropOp41
 70
     1
102
RTVSPost2010Prop42
 90
       50
102
RTVSPost2010PropOp42
 70
     1
102
RTVSPost2010Prop43
 90
        3
102
RTVSPost2010PropOp43
 70
     1
102
RTVSPost2010Prop44ColorIndex
 90
        5
102
RTVSPost2010Prop44ColorRGB
 90
      255
102
RTVSPost2010PropOp44
 70
     1
102
RTVSPost2010Prop45
280
     0
102
RTVSPost2010PropOp45
 70
     1
102
RTVSPost2010Prop46
 90
       50
102
RTVSPost2010PropOp46
 70
     1
102
RTVSPost2010Prop47
 90
       50
102
RTVSPost2010PropOp47
 70
     1
102
RTVSPost2010Prop48
 90
       50
102
RTVSPost2010PropOp48
 70
     1
102
RTVSPost2010Prop49
280
     0
102
RTVSPost2010PropOp49
 70
     1
102
RTVSPost2010Prop50
 90
       50
102
RTVSPost2010PropOp50
 70
     1
102
RTVSPost2010Prop51ColorIndex
 90
      256
102
RTVSPost2010Prop51ColorRGB
 90
-16777216
102
RTVSPost2010PropOp51
 70
     0
102
RTVSPost2010Prop52
140
1.0
102
RTVSPost2010PropOp52
 70
     0
102
RTVSPost2010Prop53
 90
        2
102
RTVSPost2010PropOp53
 70
     1
102
RTVSPost2010Prop54
  1
strokes_ogs.tif
102
RTVSPost2010PropOp54
 70
     1
102
RTVSPost2010Prop55
280
     0
102
RTVSPost2010PropOp55
 70
     1
102
RTVSPost2010Prop56
140
1.0
102
RTVSPost2010PropOp56
 70
     1
102
RTVSPost2010Prop57
140
1.0
102
RTVSPost2010PropOp57
 70
     1
  0
XRECORD
  5
1B0
102
{ACAD_REACTORS
330
1AF
102
}
330
1AF
100
AcDbXrecord
280
     1
102
RTVSPropertyOp0
 70
     1
102
RTVSPropertyOp1
 70
     1
102
RTVSPropertyOp2
 70
     1
102
RTVSPropertyOp3
 70
     1
102
RTVSPropertyOp4
 70
     1
102
RTVSPropertyOp5
 70
     1
102
RTVSPropertyOp6
 70
     1
102
RTVSPropertyOp7
 70
     1
102
RTVSPropertyOp8
 70
     1
102
RTVSPropertyOp9
 70
     1
102
RTVSPropertyOp10
 70
     1
102
RTVSPropertyOp11
 70
     1
102
RTVSPropertyOp12
 70
     1
102
RTVSPropertyOp13
 70
     1
102
RTVSPropertyOp14
 70
     1
102
RTVSPropertyOp15
 70
     1
102
RTVSPropertyOp16
 70
     1
102
RTVSPropertyOp17
 70
     1
102
RTVSPropertyOp18
 70
     1
102
RTVSPropertyOp19
 70
     1
102
RTVSPropertyOp20
 70
     1
102
RTVSPropertyOp21
 70
     1
102
RTVSPropertyOp22
 70
     1
102
RTVSPropertyOp23
 70
     1
102
RTVSPropertyOp24
 70
     1
102
RTVSPropertyOp25
 70
     1
102
RTVSPropertyOp26
 70
     1
102
RTVSPropertyOp27
 70
     1
102
RTVSPropertyOp28
 70
     1
102
RTVSPropertyOp29
 70
     1
102
RTVSPropertyOp30
 70
     1
102
RTVSPropertyOp31
 70
     1
102
RTVSPropertyOp32
 70
     1
102
RTVSPropertyOp33
 70
     1
102
RTVSPropertyOp34
 70
     1
102
RTVSPropertyOp35
 70
     1
102
RTVSPropertyOp36
 70
     1
102
RTVSPropertyOp37
 70
     1
102
RTVSPropertyOp38
 70
     1
102
RTVSPropertyOp39
 70
     1
102
RTVSPropertyOp40
 70
     1
102
RTVSPropertyOp41
 70
     1
102
RTVSPropertyOp42
 70
     1
102
RTVSPropertyOp43
 70
     1
102
RTVSPropertyOp44
 70
     1
102
RTVSPropertyOp45
 70
     1
102
RTVSPropertyOp46
 70
     1
102
RTVSPropertyOp47
 70
     1
102
RTVSPropertyOp48
 70
     1
102
RTVSPropertyOp49
 70
     1
102
RTVSPropertyOp50
 70
     1
102
RTVSPropertyOp51
 70
     0
102
RTVSPropertyOp52
 70
     0
102
RTVSPropertyOp53
 70
     1
102
RTVSPropertyOp54
 70
     1
102
RTVSPropertyOp55
 70
     1
102
RTVSPropertyOp56
 70
     1
102
RTVSPropertyOp57
 70
     1
102
RTVSPost2010Prop28
280
     0
102
RTVSPost2010PropOp28
 70
     1
102
RTVSPost2010Prop29
280
     1
102
RTVSPost2010PropOp29
 70
     1
102
RTVSPost2010Prop30
280
     1
102
RTVSPost2010PropOp30
 70
     1
102
RTVSPost2010Prop31
280
     0
102
RTVSPost2010PropOp31
 70
     1
102
RTVSPost2010Prop32
280
     0
102
RTVSPost2010PropOp32
 70
     1
102
RTVSPost2010Prop33
280
     0
102
RTVSPost2010PropOp33
 70
     1
102
RTVSPost2010Prop34
280
     0
102
RTVSPost2010PropOp34
 70
     1
102
RTVSPost2010Prop35
280
     0
102
RTVSPost2010PropOp35
 70
     1
102
RTVSPost2010Prop36
280
     0
102
RTVSPost2010PropOp36
 70
     1
102
RTVSPost2010Prop37
 90
       50
102
RTVSPost2010PropOp37
 70
     1
102
RTVSPost2010Prop38
140
0.0
102
RTVSPost2010PropOp38
 70
     1
102
RTVSPost2010Prop39
140
1.0
102
RTVSPost2010PropOp39
 70
     1
102
RTVSPost2010Prop40
 90
        0
102
RTVSPost2010PropOp40
 70
     1
102
RTVSPost2010Prop41ColorIndex
 90
      178
102
RTVSPost2010Prop41ColorRGB
 90
        0
102
RTVSPost2010PropOp41
 70
     1
102
RTVSPost2010Prop42
 90
       50
102
RTVSPost2010PropOp42
 70
     1
102
RTVSPost2010Prop43
 90
        3
102
RTVSPost2010PropOp43
 70
     1
102
RTVSPost2010Prop44ColorIndex
 90
        5
102
RTVSPost2010Prop44ColorRGB
 90
      255
102
RTVSPost2010PropOp44
 70
     1
102
RTVSPost2010Prop45
280
     0
102
RTVSPost2010PropOp45
 70
     1
102
RTVSPost2010Prop46
 90
       50
102
RTVSPost2010PropOp46
 70
     1
102
RTVSPost2010Prop47
 90
       50
102
RTVSPost2010PropOp47
 70
     1
102
RTVSPost2010Prop48
 90
       50
102
RTVSPost2010PropOp48
 70
     1
102
RTVSPost2010Prop49
280
     0
102
RTVSPost2010PropOp49
 70
     1
102
RTVSPost2010Prop50
 90
       50
102
RTVSPost2010PropOp50
 70
     1
102
RTVSPost2010Prop51ColorIndex
 90
      256
102
RTVSPost2010Prop51ColorRGB
 90
-16777216
102
RTVSPost2010PropOp51
 70
     0
102
RTVSPost2010Prop52
140
1.0
102
RTVSPost2010PropOp52
 70
     0
102
RTVSPost2010Prop53
 90
        2
102
RTVSPost2010PropOp53
 70
     1
102
RTVSPost2010Prop54
  1
strokes_ogs.tif
102
RTVSPost2010PropOp54
 70
     1
102
RTVSPost2010Prop55
280
     0
102
RTVSPost2010PropOp55
 70
     1
102
RTVSPost2010Prop56
140
1.0
102
RTVSPost2010PropOp56
 70
     1
102
RTVSPost2010Prop57
140
1.0
102
RTVSPost2010PropOp57
 70
     1
  0
XRECORD
  5
1C0
102
{ACAD_REACTORS
330
1BF
102
}
330
1BF
100
AcDbXrecord
280
     1
102
RTVSPropertyOp0
 70
     0
102
RTVSPropertyOp1
 70
     0
102
RTVSPropertyOp2
 70
     0
102
RTVSPropertyOp3
 70
     0
102
RTVSPropertyOp4
 70
     0
102
RTVSPropertyOp5
 70
     0
102
RTVSPropertyOp6
 70
     0
102
RTVSPropertyOp7
 70
     0
102
RTVSPropertyOp8
 70
     0
102
RTVSPropertyOp9
 70
     0
102
RTVSPropertyOp10
 70
     0
102
RTVSPropertyOp11
 70
     0
102
RTVSPropertyOp12
 70
     0
102
RTVSPropertyOp13
 70
     0
102
RTVSPropertyOp14
 70
     2
102
RTVSPropertyOp15
 70
     0
102
RTVSPropertyOp16
 70
     0
102
RTVSPropertyOp17
 70
     0
102
RTVSPropertyOp18
 70
     0
102
RTVSPropertyOp19
 70
     0
102
RTVSPropertyOp20
 70
     0
102
RTVSPropertyOp21
 70
     0
102
RTVSPropertyOp22
 70
     0
102
RTVSPropertyOp23
 70
     0
102
RTVSPropertyOp24
 70
     0
102
RTVSPropertyOp25
 70
     0
102
RTVSPropertyOp26
 70
     0
102
RTVSPropertyOp27
 70
     0
102
RTVSPropertyOp28
 70
     0
102
RTVSPropertyOp29
 70
     0
102
RTVSPropertyOp30
 70
     0
102
RTVSPropertyOp31
 70
     0
102
RTVSPropertyOp32
 70
     0
102
RTVSPropertyOp33
 70
     0
102
RTVSPropertyOp34
 70
     0
102
RTVSPropertyOp35
 70
     0
102
RTVSPropertyOp36
 70
     0
102
RTVSPropertyOp37
 70
     0
102
RTVSPropertyOp38
 70
     0
102
RTVSPropertyOp39
 70
     0
102
RTVSPropertyOp40
 70
     0
102
RTVSPropertyOp41
 70
     0
102
RTVSPropertyOp42
 70
     0
102
RTVSPropertyOp43
 70
     0
102
RTVSPropertyOp44
 70
     0
102
RTVSPropertyOp45
 70
     0
102
RTVSPropertyOp46
 70
     0
102
RTVSPropertyOp47
 70
     0
102
RTVSPropertyOp48
 70
     0
102
RTVSPropertyOp49
 70
     0
102
RTVSPropertyOp50
 70
     0
102
RTVSPropertyOp51
 70
     0
102
RTVSPropertyOp52
 70
     0
102
RTVSPropertyOp53
 70
     0
102
RTVSPropertyOp54
 70
     0
102
RTVSPropertyOp55
 70
     0
102
RTVSPropertyOp56
 70
     0
102
RTVSPropertyOp57
 70
     0
102
RTVSPost2010Prop28
280
     0
102
RTVSPost2010PropOp28
 70
     0
102
RTVSPost2010Prop29
280
     1
102
RTVSPost2010PropOp29
 70
     0
102
RTVSPost2010Prop30
280
     1
102
RTVSPost2010PropOp30
 70
     0
102
RTVSPost2010Prop31
280
     0
102
RTVSPost2010PropOp31
 70
     0
102
RTVSPost2010Prop32
280
     0
102
RTVSPost2010PropOp32
 70
     0
102
RTVSPost2010Prop33
280
     0
102
RTVSPost2010PropOp33
 70
     0
102
RTVSPost2010Prop34
280
     0
102
RTVSPost2010PropOp34
 70
     0
102
RTVSPost2010Prop35
280
     0
102
RTVSPost2010PropOp35
 70
     0
102
RTVSPost2010Prop36
280
     0
102
RTVSPost2010PropOp36
 70
     0
102
RTVSPost2010Prop37
 90
       50
102
RTVSPost2010PropOp37
 70
     0
102
RTVSPost2010Prop38
140
0.0
102
RTVSPost2010PropOp38
 70
     0
102
RTVSPost2010Prop39
140
1.0
102
RTVSPost2010PropOp39
 70
     0
102
RTVSPost2010Prop40
 90
        0
102
RTVSPost2010PropOp40
 70
     0
102
RTVSPost2010Prop41ColorIndex
 90
      178
102
RTVSPost2010Prop41ColorRGB
 90
        0
102
RTVSPost2010PropOp41
 70
     0
102
RTVSPost2010Prop42
 90
       50
102
RTVSPost2010PropOp42
 70
     0
102
RTVSPost2010Prop43
 90
        3
102
RTVSPost2010PropOp43
 70
     0
102
RTVSPost2010Prop44ColorIndex
 90
        5
102
RTVSPost2010Prop44ColorRGB
 90
      255
102
RTVSPost2010PropOp44
 70
     0
102
RTVSPost2010Prop45
280
     0
102
RTVSPost2010PropOp45
 70
     0
102
RTVSPost2010Prop46
 90
       50
102
RTVSPost2010PropOp46
 70
     0
102
RTVSPost2010Prop47
 90
       50
102
RTVSPost2010PropOp47
 70
     0
102
RTVSPost2010Prop48
 90
       50
102
RTVSPost2010PropOp48
 70
     0
102
RTVSPost2010Prop49
280
     0
102
RTVSPost2010PropOp49
 70
     0
102
RTVSPost2010Prop50
 90
       50
102
RTVSPost2010PropOp50
 70
     0
102
RTVSPost2010Prop51ColorIndex
 90
      256
102
RTVSPost2010Prop51ColorRGB
 90
-16777216
102
RTVSPost2010PropOp51
 70
     0
102
RTVSPost2010Prop52
140
1.0
102
RTVSPost2010PropOp52
 70
     0
102
RTVSPost2010Prop53
 90
        2
102
RTVSPost2010PropOp53
 70
     0
102
RTVSPost2010Prop54
  1
strokes_ogs.tif
102
RTVSPost2010PropOp54
 70
     0
102
RTVSPost2010Prop55
280
     0
102
RTVSPost2010PropOp55
 70
     0
102
RTVSPost2010Prop56
140
1.0
102
RTVSPost2010PropOp56
 70
     0
102
RTVSPost2010Prop57
140
1.0
102
RTVSPost2010PropOp57
 70
     0
  0
XRECORD
  5
1B8
102
{ACAD_REACTORS
330
1B7
102
}
330
1B7
100
AcDbXrecord
280
     1
102
RTVSPropertyOp0
 70
     1
102
RTVSPropertyOp1
 70
     1
102
RTVSPropertyOp2
 70
     1
102
RTVSPropertyOp3
 70
     1
102
RTVSPropertyOp4
 70
     1
102
RTVSPropertyOp5
 70
     1
102
RTVSPropertyOp6
 70
     1
102
RTVSPropertyOp7
 70
     1
102
RTVSPropertyOp8
 70
     1
102
RTVSPropertyOp9
 70
     1
102
RTVSPropertyOp10
 70
     1
102
RTVSPropertyOp11
 70
     1
102
RTVSPropertyOp12
 70
     1
102
RTVSPropertyOp13
 70
     1
102
RTVSPropertyOp14
 70
     1
102
RTVSPropertyOp15
 70
     1
102
RTVSPropertyOp16
 70
     1
102
RTVSPropertyOp17
 70
     1
102
RTVSPropertyOp18
 70
     1
102
RTVSPropertyOp19
 70
     1
102
RTVSPropertyOp20
 70
     1
102
RTVSPropertyOp21
 70
     1
102
RTVSPropertyOp22
 70
     1
102
RTVSPropertyOp23
 70
     1
102
RTVSPropertyOp24
 70
     1
102
RTVSPropertyOp25
 70
     1
102
RTVSPropertyOp26
 70
     1
102
RTVSPropertyOp27
 70
     1
102
RTVSPropertyOp28
 70
     1
102
RTVSPropertyOp29
 70
     1
102
RTVSPropertyOp30
 70
     1
102
RTVSPropertyOp31
 70
     1
102
RTVSPropertyOp32
 70
     1
102
RTVSPropertyOp33
 70
     1
102
RTVSPropertyOp34
 70
     1
102
RTVSPropertyOp35
 70
     1
102
RTVSPropertyOp36
 70
     1
102
RTVSPropertyOp37
 70
     1
102
RTVSPropertyOp38
 70
     1
102
RTVSPropertyOp39
 70
     1
102
RTVSPropertyOp40
 70
     1
102
RTVSPropertyOp41
 70
     1
102
RTVSPropertyOp42
 70
     1
102
RTVSPropertyOp43
 70
     1
102
RTVSPropertyOp44
 70
     1
102
RTVSPropertyOp45
 70
     1
102
RTVSPropertyOp46
 70
     1
102
RTVSPropertyOp47
 70
     1
102
RTVSPropertyOp48
 70
     1
102
RTVSPropertyOp49
 70
     1
102
RTVSPropertyOp50
 70
     1
102
RTVSPropertyOp51
 70
     0
102
RTVSPropertyOp52
 70
     0
102
RTVSPropertyOp53
 70
     1
102
RTVSPropertyOp54
 70
     1
102
RTVSPropertyOp55
 70
     1
102
RTVSPropertyOp56
 70
     1
102
RTVSPropertyOp57
 70
     1
102
RTVSPost2010Prop28
280
     0
102
RTVSPost2010PropOp28
 70
     1
102
RTVSPost2010Prop29
280
     1
102
RTVSPost2010PropOp29
 70
     1
102
RTVSPost2010Prop30
280
     1
102
RTVSPost2010PropOp30
 70
     1
102
RTVSPost2010Prop31
280
     0
102
RTVSPost2010PropOp31
 70
     1
102
RTVSPost2010Prop32
280
     0
102
RTVSPost2010PropOp32
 70
     1
102
RTVSPost2010Prop33
280
     0
102
RTVSPost2010PropOp33
 70
     1
102
RTVSPost2010Prop34
280
     0
102
RTVSPost2010PropOp34
 70
     1
102
RTVSPost2010Prop35
280
     0
102
RTVSPost2010PropOp35
 70
     1
102
RTVSPost2010Prop36
280
     0
102
RTVSPost2010PropOp36
 70
     1
102
RTVSPost2010Prop37
 90
       50
102
RTVSPost2010PropOp37
 70
     1
102
RTVSPost2010Prop38
140
0.0
102
RTVSPost2010PropOp38
 70
     1
102
RTVSPost2010Prop39
140
1.0
102
RTVSPost2010PropOp39
 70
     1
102
RTVSPost2010Prop40
 90
        0
102
RTVSPost2010PropOp40
 70
     1
102
RTVSPost2010Prop41ColorIndex
 90
      178
102
RTVSPost2010Prop41ColorRGB
 90
        0
102
RTVSPost2010PropOp41
 70
     1
102
RTVSPost2010Prop42
 90
       50
102
RTVSPost2010PropOp42
 70
     1
102
RTVSPost2010Prop43
 90
        3
102
RTVSPost2010PropOp43
 70
     1
102
RTVSPost2010Prop44ColorIndex
 90
        5
102
RTVSPost2010Prop44ColorRGB
 90
      255
102
RTVSPost2010PropOp44
 70
     1
102
RTVSPost2010Prop45
280
     0
102
RTVSPost2010PropOp45
 70
     1
102
RTVSPost2010Prop46
 90
       50
102
RTVSPost2010PropOp46
 70
     1
102
RTVSPost2010Prop47
 90
       50
102
RTVSPost2010PropOp47
 70
     1
102
RTVSPost2010Prop48
 90
       50
102
RTVSPost2010PropOp48
 70
     1
102
RTVSPost2010Prop49
280
     0
102
RTVSPost2010PropOp49
 70
     1
102
RTVSPost2010Prop50
 90
       50
102
RTVSPost2010PropOp50
 70
     1
102
RTVSPost2010Prop51ColorIndex
 90
      256
102
RTVSPost2010Prop51ColorRGB
 90
-16777216
102
RTVSPost2010PropOp51
 70
     0
102
RTVSPost2010Prop52
140
1.0
102
RTVSPost2010PropOp52
 70
     0
102
RTVSPost2010Prop53
 90
        2
102
RTVSPost2010PropOp53
 70
     1
102
RTVSPost2010Prop54
  1
strokes_ogs.tif
102
RTVSPost2010PropOp54
 70
     1
102
RTVSPost2010Prop55
280
     0
102
RTVSPost2010PropOp55
 70
     1
102
RTVSPost2010Prop56
140
1.0
102
RTVSPost2010PropOp56
 70
     1
102
RTVSPost2010Prop57
140
1.0
102
RTVSPost2010PropOp57
 70
     1
  0
XRECORD
  5
19C
102
{ACAD_REACTORS
330
19B
102
}
330
19B
100
AcDbXrecord
280
     1
102
RTVSPropertyOp0
 70
     1
102
RTVSPropertyOp1
 70
     1
102
RTVSPropertyOp2
 70
     1
102
RTVSPropertyOp3
 70
     1
102
RTVSPropertyOp4
 70
     1
102
RTVSPropertyOp5
 70
     1
102
RTVSPropertyOp6
 70
     1
102
RTVSPropertyOp7
 70
     1
102
RTVSPropertyOp8
 70
     1
102
RTVSPropertyOp9
 70
     1
102
RTVSPropertyOp10
 70
     1
102
RTVSPropertyOp11
 70
     1
102
RTVSPropertyOp12
 70
     1
102
RTVSPropertyOp13
 70
     1
102
RTVSPropertyOp14
 70
     1
102
RTVSPropertyOp15
 70
     1
102
RTVSPropertyOp16
 70
     1
102
RTVSPropertyOp17
 70
     1
102
RTVSPropertyOp18
 70
     1
102
RTVSPropertyOp19
 70
     1
102
RTVSPropertyOp20
 70
     1
102
RTVSPropertyOp21
 70
     1
102
RTVSPropertyOp22
 70
     1
102
RTVSPropertyOp23
 70
     1
102
RTVSPropertyOp24
 70
     1
102
RTVSPropertyOp25
 70
     1
102
RTVSPropertyOp26
 70
     1
102
RTVSPropertyOp27
 70
     1
102
RTVSPropertyOp28
 70
     1
102
RTVSPropertyOp29
 70
     1
102
RTVSPropertyOp30
 70
     1
102
RTVSPropertyOp31
 70
     1
102
RTVSPropertyOp32
 70
     1
102
RTVSPropertyOp33
 70
     1
102
RTVSPropertyOp34
 70
     1
102
RTVSPropertyOp35
 70
     1
102
RTVSPropertyOp36
 70
     1
102
RTVSPropertyOp37
 70
     1
102
RTVSPropertyOp38
 70
     1
102
RTVSPropertyOp39
 70
     1
102
RTVSPropertyOp40
 70
     1
102
RTVSPropertyOp41
 70
     1
102
RTVSPropertyOp42
 70
     1
102
RTVSPropertyOp43
 70
     1
102
RTVSPropertyOp44
 70
     1
102
RTVSPropertyOp45
 70
     1
102
RTVSPropertyOp46
 70
     1
102
RTVSPropertyOp47
 70
     1
102
RTVSPropertyOp48
 70
     1
102
RTVSPropertyOp49
 70
     1
102
RTVSPropertyOp50
 70
     1
102
RTVSPropertyOp51
 70
     0
102
RTVSPropertyOp52
 70
     0
102
RTVSPropertyOp53
 70
     1
102
RTVSPropertyOp54
 70
     1
102
RTVSPropertyOp55
 70
     1
102
RTVSPropertyOp56
 70
     1
102
RTVSPropertyOp57
 70
     1
102
RTVSPost2010Prop28
280
     0
102
RTVSPost2010PropOp28
 70
     1
102
RTVSPost2010Prop29
280
     1
102
RTVSPost2010PropOp29
 70
     1
102
RTVSPost2010Prop30
280
     1
102
RTVSPost2010PropOp30
 70
     1
102
RTVSPost2010Prop31
280
     0
102
RTVSPost2010PropOp31
 70
     1
102
RTVSPost2010Prop32
280
     0
102
RTVSPost2010PropOp32
 70
     1
102
RTVSPost2010Prop33
280
     0
102
RTVSPost2010PropOp33
 70
     1
102
RTVSPost2010Prop34
280
     0
102
RTVSPost2010PropOp34
 70
     1
102
RTVSPost2010Prop35
280
     0
102
RTVSPost2010PropOp35
 70
     1
102
RTVSPost2010Prop36
280
     0
102
RTVSPost2010PropOp36
 70
     1
102
RTVSPost2010Prop37
 90
       50
102
RTVSPost2010PropOp37
 70
     1
102
RTVSPost2010Prop38
140
0.0
102
RTVSPost2010PropOp38
 70
     1
102
RTVSPost2010Prop39
140
1.0
102
RTVSPost2010PropOp39
 70
     1
102
RTVSPost2010Prop40
 90
        0
102
RTVSPost2010PropOp40
 70
     1
102
RTVSPost2010Prop41ColorIndex
 90
      178
102
RTVSPost2010Prop41ColorRGB
 90
        0
102
RTVSPost2010PropOp41
 70
     1
102
RTVSPost2010Prop42
 90
       50
102
RTVSPost2010PropOp42
 70
     1
102
RTVSPost2010Prop43
 90
        3
102
RTVSPost2010PropOp43
 70
     1
102
RTVSPost2010Prop44ColorIndex
 90
        5
102
RTVSPost2010Prop44ColorRGB
 90
      255
102
RTVSPost2010PropOp44
 70
     1
102
RTVSPost2010Prop45
280
     0
102
RTVSPost2010PropOp45
 70
     1
102
RTVSPost2010Prop46
 90
       50
102
RTVSPost2010PropOp46
 70
     1
102
RTVSPost2010Prop47
 90
       50
102
RTVSPost2010PropOp47
 70
     1
102
RTVSPost2010Prop48
 90
       50
102
RTVSPost2010PropOp48
 70
     1
102
RTVSPost2010Prop49
280
     0
102
RTVSPost2010PropOp49
 70
     1
102
RTVSPost2010Prop50
 90
       50
102
RTVSPost2010PropOp50
 70
     1
102
RTVSPost2010Prop51ColorIndex
 90
      256
102
RTVSPost2010Prop51ColorRGB
 90
-16777216
102
RTVSPost2010PropOp51
 70
     0
102
RTVSPost2010Prop52
140
1.0
102
RTVSPost2010PropOp52
 70
     0
102
RTVSPost2010Prop53
 90
        2
102
RTVSPost2010PropOp53
 70
     1
102
RTVSPost2010Prop54
  1
strokes_ogs.tif
102
RTVSPost2010PropOp54
 70
     1
102
RTVSPost2010Prop55
280
     0
102
RTVSPost2010PropOp55
 70
     1
102
RTVSPost2010Prop56
140
1.0
102
RTVSPost2010PropOp56
 70
     1
102
RTVSPost2010Prop57
140
1.0
102
RTVSPost2010PropOp57
 70
     1
  0
XRECORD
  5
19E
102
{ACAD_REACTORS
330
19D
102
}
330
19D
100
AcDbXrecord
280
     1
102
RTVSPropertyOp0
 70
     1
102
RTVSPropertyOp1
 70
     1
102
RTVSPropertyOp2
 70
     1
102
RTVSPropertyOp3
 70
     1
102
RTVSPropertyOp4
 70
     1
102
RTVSPropertyOp5
 70
     1
102
RTVSPropertyOp6
 70
     1
102
RTVSPropertyOp7
 70
     1
102
RTVSPropertyOp8
 70
     1
102
RTVSPropertyOp9
 70
     1
102
RTVSPropertyOp10
 70
     1
102
RTVSPropertyOp11
 70
     1
102
RTVSPropertyOp12
 70
     1
102
RTVSPropertyOp13
 70
     1
102
RTVSPropertyOp14
 70
     1
102
RTVSPropertyOp15
 70
     1
102
RTVSPropertyOp16
 70
     1
102
RTVSPropertyOp17
 70
     1
102
RTVSPropertyOp18
 70
     1
102
RTVSPropertyOp19
 70
     1
102
RTVSPropertyOp20
 70
     1
102
RTVSPropertyOp21
 70
     1
102
RTVSPropertyOp22
 70
     1
102
RTVSPropertyOp23
 70
     1
102
RTVSPropertyOp24
 70
     1
102
RTVSPropertyOp25
 70
     1
102
RTVSPropertyOp26
 70
     1
102
RTVSPropertyOp27
 70
     1
102
RTVSPropertyOp28
 70
     1
102
RTVSPropertyOp29
 70
     1
102
RTVSPropertyOp30
 70
     1
102
RTVSPropertyOp31
 70
     1
102
RTVSPropertyOp32
 70
     1
102
RTVSPropertyOp33
 70
     1
102
RTVSPropertyOp34
 70
     1
102
RTVSPropertyOp35
 70
     1
102
RTVSPropertyOp36
 70
     1
102
RTVSPropertyOp37
 70
     1
102
RTVSPropertyOp38
 70
     1
102
RTVSPropertyOp39
 70
     1
102
RTVSPropertyOp40
 70
     1
102
RTVSPropertyOp41
 70
     1
102
RTVSPropertyOp42
 70
     1
102
RTVSPropertyOp43
 70
     1
102
RTVSPropertyOp44
 70
     1
102
RTVSPropertyOp45
 70
     1
102
RTVSPropertyOp46
 70
     1
102
RTVSPropertyOp47
 70
     1
102
RTVSPropertyOp48
 70
     1
102
RTVSPropertyOp49
 70
     1
102
RTVSPropertyOp50
 70
     1
102
RTVSPropertyOp51
 70
     0
102
RTVSPropertyOp52
 70
     0
102
RTVSPropertyOp53
 70
     1
102
RTVSPropertyOp54
 70
     1
102
RTVSPropertyOp55
 70
     1
102
RTVSPropertyOp56
 70
     1
102
RTVSPropertyOp57
 70
     1
102
RTVSPost2010Prop28
280
     0
102
RTVSPost2010PropOp28
 70
     1
102
RTVSPost2010Prop29
280
     1
102
RTVSPost2010PropOp29
 70
     1
102
RTVSPost2010Prop30
280
     1
102
RTVSPost2010PropOp30
 70
     1
102
RTVSPost2010Prop31
280
     0
102
RTVSPost2010PropOp31
 70
     1
102
RTVSPost2010Prop32
280
     0
102
RTVSPost2010PropOp32
 70
     1
102
RTVSPost2010Prop33
280
     0
102
RTVSPost2010PropOp33
 70
     1
102
RTVSPost2010Prop34
280
     0
102
RTVSPost2010PropOp34
 70
     1
102
RTVSPost2010Prop35
280
     0
102
RTVSPost2010PropOp35
 70
     1
102
RTVSPost2010Prop36
280
     0
102
RTVSPost2010PropOp36
 70
     1
102
RTVSPost2010Prop37
 90
       50
102
RTVSPost2010PropOp37
 70
     1
102
RTVSPost2010Prop38
140
0.0
102
RTVSPost2010PropOp38
 70
     1
102
RTVSPost2010Prop39
140
1.0
102
RTVSPost2010PropOp39
 70
     1
102
RTVSPost2010Prop40
 90
        0
102
RTVSPost2010PropOp40
 70
     1
102
RTVSPost2010Prop41ColorIndex
 90
      178
102
RTVSPost2010Prop41ColorRGB
 90
        0
102
RTVSPost2010PropOp41
 70
     1
102
RTVSPost2010Prop42
 90
       50
102
RTVSPost2010PropOp42
 70
     1
102
RTVSPost2010Prop43
 90
        3
102
RTVSPost2010PropOp43
 70
     1
102
RTVSPost2010Prop44ColorIndex
 90
        5
102
RTVSPost2010Prop44ColorRGB
 90
      255
102
RTVSPost2010PropOp44
 70
     1
102
RTVSPost2010Prop45
280
     0
102
RTVSPost2010PropOp45
 70
     1
102
RTVSPost2010Prop46
 90
       50
102
RTVSPost2010PropOp46
 70
     1
102
RTVSPost2010Prop47
 90
       50
102
RTVSPost2010PropOp47
 70
     1
102
RTVSPost2010Prop48
 90
       50
102
RTVSPost2010PropOp48
 70
     1
102
RTVSPost2010Prop49
280
     0
102
RTVSPost2010PropOp49
 70
     1
102
RTVSPost2010Prop50
 90
       50
102
RTVSPost2010PropOp50
 70
     1
102
RTVSPost2010Prop51ColorIndex
 90
      256
102
RTVSPost2010Prop51ColorRGB
 90
-16777216
102
RTVSPost2010PropOp51
 70
     0
102
RTVSPost2010Prop52
140
1.0
102
RTVSPost2010PropOp52
 70
     0
102
RTVSPost2010Prop53
 90
        2
102
RTVSPost2010PropOp53
 70
     1
102
RTVSPost2010Prop54
  1
strokes_ogs.tif
102
RTVSPost2010PropOp54
 70
     1
102
RTVSPost2010Prop55
280
     0
102
RTVSPost2010PropOp55
 70
     1
102
RTVSPost2010Prop56
140
1.0
102
RTVSPost2010PropOp56
 70
     1
102
RTVSPost2010Prop57
140
1.0
102
RTVSPost2010PropOp57
 70
     1
  0
XRECORD
  5
1A0
102
{ACAD_REACTORS
330
19F
102
}
330
19F
100
AcDbXrecord
280
     1
102
RTVSPropertyOp0
 70
     1
102
RTVSPropertyOp1
 70
     1
102
RTVSPropertyOp2
 70
     1
102
RTVSPropertyOp3
 70
     1
102
RTVSPropertyOp4
 70
     1
102
RTVSPropertyOp5
 70
     1
102
RTVSPropertyOp6
 70
     1
102
RTVSPropertyOp7
 70
     1
102
RTVSPropertyOp8
 70
     1
102
RTVSPropertyOp9
 70
     1
102
RTVSPropertyOp10
 70
     1
102
RTVSPropertyOp11
 70
     1
102
RTVSPropertyOp12
 70
     1
102
RTVSPropertyOp13
 70
     1
102
RTVSPropertyOp14
 70
     1
102
RTVSPropertyOp15
 70
     1
102
RTVSPropertyOp16
 70
     1
102
RTVSPropertyOp17
 70
     1
102
RTVSPropertyOp18
 70
     1
102
RTVSPropertyOp19
 70
     1
102
RTVSPropertyOp20
 70
     1
102
RTVSPropertyOp21
 70
     1
102
RTVSPropertyOp22
 70
     1
102
RTVSPropertyOp23
 70
     1
102
RTVSPropertyOp24
 70
     1
102
RTVSPropertyOp25
 70
     1
102
RTVSPropertyOp26
 70
     1
102
RTVSPropertyOp27
 70
     1
102
RTVSPropertyOp28
 70
     1
102
RTVSPropertyOp29
 70
     1
102
RTVSPropertyOp30
 70
     1
102
RTVSPropertyOp31
 70
     1
102
RTVSPropertyOp32
 70
     1
102
RTVSPropertyOp33
 70
     1
102
RTVSPropertyOp34
 70
     1
102
RTVSPropertyOp35
 70
     1
102
RTVSPropertyOp36
 70
     1
102
RTVSPropertyOp37
 70
     1
102
RTVSPropertyOp38
 70
     1
102
RTVSPropertyOp39
 70
     1
102
RTVSPropertyOp40
 70
     1
102
RTVSPropertyOp41
 70
     1
102
RTVSPropertyOp42
 70
     1
102
RTVSPropertyOp43
 70
     1
102
RTVSPropertyOp44
 70
     1
102
RTVSPropertyOp45
 70
     1
102
RTVSPropertyOp46
 70
     1
102
RTVSPropertyOp47
 70
     1
102
RTVSPropertyOp48
 70
     1
102
RTVSPropertyOp49
 70
     1
102
RTVSPropertyOp50
 70
     1
102
RTVSPropertyOp51
 70
     0
102
RTVSPropertyOp52
 70
     0
102
RTVSPropertyOp53
 70
     1
102
RTVSPropertyOp54
 70
     1
102
RTVSPropertyOp55
 70
     1
102
RTVSPropertyOp56
 70
     1
102
RTVSPropertyOp57
 70
     1
102
RTVSPost2010Prop28
280
     0
102
RTVSPost2010PropOp28
 70
     1
102
RTVSPost2010Prop29
280
     1
102
RTVSPost2010PropOp29
 70
     1
102
RTVSPost2010Prop30
280
     1
102
RTVSPost2010PropOp30
 70
     1
102
RTVSPost2010Prop31
280
     0
102
RTVSPost2010PropOp31
 70
     1
102
RTVSPost2010Prop32
280
     0
102
RTVSPost2010PropOp32
 70
     1
102
RTVSPost2010Prop33
280
     0
102
RTVSPost2010PropOp33
 70
     1
102
RTVSPost2010Prop34
280
     0
102
RTVSPost2010PropOp34
 70
     1
102
RTVSPost2010Prop35
280
     0
102
RTVSPost2010PropOp35
 70
     1
102
RTVSPost2010Prop36
280
     0
102
RTVSPost2010PropOp36
 70
     1
102
RTVSPost2010Prop37
 90
       50
102
RTVSPost2010PropOp37
 70
     1
102
RTVSPost2010Prop38
140
0.0
102
RTVSPost2010PropOp38
 70
     1
102
RTVSPost2010Prop39
140
1.0
102
RTVSPost2010PropOp39
 70
     1
102
RTVSPost2010Prop40
 90
        0
102
RTVSPost2010PropOp40
 70
     1
102
RTVSPost2010Prop41ColorIndex
 90
      178
102
RTVSPost2010Prop41ColorRGB
 90
        0
102
RTVSPost2010PropOp41
 70
     1
102
RTVSPost2010Prop42
 90
       50
102
RTVSPost2010PropOp42
 70
     1
102
RTVSPost2010Prop43
 90
        3
102
RTVSPost2010PropOp43
 70
     1
102
RTVSPost2010Prop44ColorIndex
 90
        5
102
RTVSPost2010Prop44ColorRGB
 90
      255
102
RTVSPost2010PropOp44
 70
     1
102
RTVSPost2010Prop45
280
     0
102
RTVSPost2010PropOp45
 70
     1
102
RTVSPost2010Prop46
 90
       50
102
RTVSPost2010PropOp46
 70
     1
102
RTVSPost2010Prop47
 90
       50
102
RTVSPost2010PropOp47
 70
     1
102
RTVSPost2010Prop48
 90
       50
102
RTVSPost2010PropOp48
 70
     1
102
RTVSPost2010Prop49
280
     0
102
RTVSPost2010PropOp49
 70
     1
102
RTVSPost2010Prop50
 90
       50
102
RTVSPost2010PropOp50
 70
     1
102
RTVSPost2010Prop51ColorIndex
 90
      256
102
RTVSPost2010Prop51ColorRGB
 90
-16777216
102
RTVSPost2010PropOp51
 70
     0
102
RTVSPost2010Prop52
140
1.0
102
RTVSPost2010PropOp52
 70
     0
102
RTVSPost2010Prop53
 90
        2
102
RTVSPost2010PropOp53
 70
     1
102
RTVSPost2010Prop54
  1
strokes_ogs.tif
102
RTVSPost2010PropOp54
 70
     1
102
RTVSPost2010Prop55
280
     0
102
RTVSPost2010PropOp55
 70
     1
102
RTVSPost2010Prop56
140
1.0
102
RTVSPost2010PropOp56
 70
     1
102
RTVSPost2010Prop57
140
1.0
102
RTVSPost2010PropOp57
 70
     1
  0
XRECORD
  5
1A2
102
{ACAD_REACTORS
330
1A1
102
}
330
1A1
100
AcDbXrecord
280
     1
102
RTVSPropertyOp0
 70
     1
102
RTVSPropertyOp1
 70
     1
102
RTVSPropertyOp2
 70
     1
102
RTVSPropertyOp3
 70
     1
102
RTVSPropertyOp4
 70
     1
102
RTVSPropertyOp5
 70
     1
102
RTVSPropertyOp6
 70
     1
102
RTVSPropertyOp7
 70
     1
102
RTVSPropertyOp8
 70
     1
102
RTVSPropertyOp9
 70
     1
102
RTVSPropertyOp10
 70
     1
102
RTVSPropertyOp11
 70
     1
102
RTVSPropertyOp12
 70
     1
102
RTVSPropertyOp13
 70
     1
102
RTVSPropertyOp14
 70
     1
102
RTVSPropertyOp15
 70
     1
102
RTVSPropertyOp16
 70
     1
102
RTVSPropertyOp17
 70
     1
102
RTVSPropertyOp18
 70
     1
102
RTVSPropertyOp19
 70
     1
102
RTVSPropertyOp20
 70
     1
102
RTVSPropertyOp21
 70
     1
102
RTVSPropertyOp22
 70
     1
102
RTVSPropertyOp23
 70
     1
102
RTVSPropertyOp24
 70
     1
102
RTVSPropertyOp25
 70
     1
102
RTVSPropertyOp26
 70
     1
102
RTVSPropertyOp27
 70
     1
102
RTVSPropertyOp28
 70
     1
102
RTVSPropertyOp29
 70
     1
102
RTVSPropertyOp30
 70
     1
102
RTVSPropertyOp31
 70
     1
102
RTVSPropertyOp32
 70
     1
102
RTVSPropertyOp33
 70
     1
102
RTVSPropertyOp34
 70
     1
102
RTVSPropertyOp35
 70
     1
102
RTVSPropertyOp36
 70
     1
102
RTVSPropertyOp37
 70
     1
102
RTVSPropertyOp38
 70
     1
102
RTVSPropertyOp39
 70
     1
102
RTVSPropertyOp40
 70
     1
102
RTVSPropertyOp41
 70
     1
102
RTVSPropertyOp42
 70
     1
102
RTVSPropertyOp43
 70
     1
102
RTVSPropertyOp44
 70
     1
102
RTVSPropertyOp45
 70
     1
102
RTVSPropertyOp46
 70
     1
102
RTVSPropertyOp47
 70
     1
102
RTVSPropertyOp48
 70
     1
102
RTVSPropertyOp49
 70
     1
102
RTVSPropertyOp50
 70
     1
102
RTVSPropertyOp51
 70
     0
102
RTVSPropertyOp52
 70
     0
102
RTVSPropertyOp53
 70
     1
102
RTVSPropertyOp54
 70
     1
102
RTVSPropertyOp55
 70
     1
102
RTVSPropertyOp56
 70
     1
102
RTVSPropertyOp57
 70
     1
102
RTVSPost2010Prop28
280
     0
102
RTVSPost2010PropOp28
 70
     1
102
RTVSPost2010Prop29
280
     1
102
RTVSPost2010PropOp29
 70
     1
102
RTVSPost2010Prop30
280
     1
102
RTVSPost2010PropOp30
 70
     1
102
RTVSPost2010Prop31
280
     0
102
RTVSPost2010PropOp31
 70
     1
102
RTVSPost2010Prop32
280
     0
102
RTVSPost2010PropOp32
 70
     1
102
RTVSPost2010Prop33
280
     0
102
RTVSPost2010PropOp33
 70
     1
102
RTVSPost2010Prop34
280
     0
102
RTVSPost2010PropOp34
 70
     1
102
RTVSPost2010Prop35
280
     0
102
RTVSPost2010PropOp35
 70
     1
102
RTVSPost2010Prop36
280
     0
102
RTVSPost2010PropOp36
 70
     1
102
RTVSPost2010Prop37
 90
       50
102
RTVSPost2010PropOp37
 70
     1
102
RTVSPost2010Prop38
140
0.0
102
RTVSPost2010PropOp38
 70
     1
102
RTVSPost2010Prop39
140
1.0
102
RTVSPost2010PropOp39
 70
     1
102
RTVSPost2010Prop40
 90
        0
102
RTVSPost2010PropOp40
 70
     1
102
RTVSPost2010Prop41ColorIndex
 90
      178
102
RTVSPost2010Prop41ColorRGB
 90
        0
102
RTVSPost2010PropOp41
 70
     1
102
RTVSPost2010Prop42
 90
       50
102
RTVSPost2010PropOp42
 70
     1
102
RTVSPost2010Prop43
 90
        3
102
RTVSPost2010PropOp43
 70
     1
102
RTVSPost2010Prop44ColorIndex
 90
        5
102
RTVSPost2010Prop44ColorRGB
 90
      255
102
RTVSPost2010PropOp44
 70
     1
102
RTVSPost2010Prop45
280
     0
102
RTVSPost2010PropOp45
 70
     1
102
RTVSPost2010Prop46
 90
       50
102
RTVSPost2010PropOp46
 70
     1
102
RTVSPost2010Prop47
 90
       50
102
RTVSPost2010PropOp47
 70
     1
102
RTVSPost2010Prop48
 90
       50
102
RTVSPost2010PropOp48
 70
     1
102
RTVSPost2010Prop49
280
     0
102
RTVSPost2010PropOp49
 70
     1
102
RTVSPost2010Prop50
 90
       50
102
RTVSPost2010PropOp50
 70
     1
102
RTVSPost2010Prop51ColorIndex
 90
      256
102
RTVSPost2010Prop51ColorRGB
 90
-16777216
102
RTVSPost2010PropOp51
 70
     0
102
RTVSPost2010Prop52
140
1.0
102
RTVSPost2010PropOp52
 70
     0
102
RTVSPost2010Prop53
 90
        2
102
RTVSPost2010PropOp53
 70
     1
102
RTVSPost2010Prop54
  1
strokes_ogs.tif
102
RTVSPost2010PropOp54
 70
     1
102
RTVSPost2010Prop55
280
     0
102
RTVSPost2010PropOp55
 70
     1
102
RTVSPost2010Prop56
140
1.0
102
RTVSPost2010PropOp56
 70
     1
102
RTVSPost2010Prop57
140
1.0
102
RTVSPost2010PropOp57
 70
     1
  0
XRECORD
  5
1A8
102
{ACAD_REACTORS
330
1A7
102
}
330
1A7
100
AcDbXrecord
280
     1
102
RTVSPropertyOp0
 70
     1
102
RTVSPropertyOp1
 70
     1
102
RTVSPropertyOp2
 70
     1
102
RTVSPropertyOp3
 70
     1
102
RTVSPropertyOp4
 70
     1
102
RTVSPropertyOp5
 70
     1
102
RTVSPropertyOp6
 70
     1
102
RTVSPropertyOp7
 70
     1
102
RTVSPropertyOp8
 70
     1
102
RTVSPropertyOp9
 70
     1
102
RTVSPropertyOp10
 70
     1
102
RTVSPropertyOp11
 70
     1
102
RTVSPropertyOp12
 70
     1
102
RTVSPropertyOp13
 70
     1
102
RTVSPropertyOp14
 70
     1
102
RTVSPropertyOp15
 70
     1
102
RTVSPropertyOp16
 70
     1
102
RTVSPropertyOp17
 70
     1
102
RTVSPropertyOp18
 70
     1
102
RTVSPropertyOp19
 70
     1
102
RTVSPropertyOp20
 70
     1
102
RTVSPropertyOp21
 70
     1
102
RTVSPropertyOp22
 70
     1
102
RTVSPropertyOp23
 70
     1
102
RTVSPropertyOp24
 70
     1
102
RTVSPropertyOp25
 70
     1
102
RTVSPropertyOp26
 70
     1
102
RTVSPropertyOp27
 70
     1
102
RTVSPropertyOp28
 70
     1
102
RTVSPropertyOp29
 70
     1
102
RTVSPropertyOp30
 70
     1
102
RTVSPropertyOp31
 70
     1
102
RTVSPropertyOp32
 70
     1
102
RTVSPropertyOp33
 70
     1
102
RTVSPropertyOp34
 70
     1
102
RTVSPropertyOp35
 70
     1
102
RTVSPropertyOp36
 70
     1
102
RTVSPropertyOp37
 70
     1
102
RTVSPropertyOp38
 70
     1
102
RTVSPropertyOp39
 70
     1
102
RTVSPropertyOp40
 70
     1
102
RTVSPropertyOp41
 70
     1
102
RTVSPropertyOp42
 70
     1
102
RTVSPropertyOp43
 70
     1
102
RTVSPropertyOp44
 70
     1
102
RTVSPropertyOp45
 70
     1
102
RTVSPropertyOp46
 70
     1
102
RTVSPropertyOp47
 70
     1
102
RTVSPropertyOp48
 70
     1
102
RTVSPropertyOp49
 70
     1
102
RTVSPropertyOp50
 70
     1
102
RTVSPropertyOp51
 70
     0
102
RTVSPropertyOp52
 70
     0
102
RTVSPropertyOp53
 70
     1
102
RTVSPropertyOp54
 70
     1
102
RTVSPropertyOp55
 70
     1
102
RTVSPropertyOp56
 70
     1
102
RTVSPropertyOp57
 70
     1
102
RTVSPost2010Prop28
280
     0
102
RTVSPost2010PropOp28
 70
     1
102
RTVSPost2010Prop29
280
     1
102
RTVSPost2010PropOp29
 70
     1
102
RTVSPost2010Prop30
280
     1
102
RTVSPost2010PropOp30
 70
     1
102
RTVSPost2010Prop31
280
     0
102
RTVSPost2010PropOp31
 70
     1
102
RTVSPost2010Prop32
280
     0
102
RTVSPost2010PropOp32
 70
     1
102
RTVSPost2010Prop33
280
     0
102
RTVSPost2010PropOp33
 70
     1
102
RTVSPost2010Prop34
280
     0
102
RTVSPost2010PropOp34
 70
     1
102
RTVSPost2010Prop35
280
     0
102
RTVSPost2010PropOp35
 70
     1
102
RTVSPost2010Prop36
280
     0
102
RTVSPost2010PropOp36
 70
     1
102
RTVSPost2010Prop37
 90
       50
102
RTVSPost2010PropOp37
 70
     1
102
RTVSPost2010Prop38
140
0.0
102
RTVSPost2010PropOp38
 70
     1
102
RTVSPost2010Prop39
140
1.0
102
RTVSPost2010PropOp39
 70
     1
102
RTVSPost2010Prop40
 90
        0
102
RTVSPost2010PropOp40
 70
     1
102
RTVSPost2010Prop41ColorIndex
 90
      178
102
RTVSPost2010Prop41ColorRGB
 90
        0
102
RTVSPost2010PropOp41
 70
     1
102
RTVSPost2010Prop42
 90
       50
102
RTVSPost2010PropOp42
 70
     1
102
RTVSPost2010Prop43
 90
        3
102
RTVSPost2010PropOp43
 70
     1
102
RTVSPost2010Prop44ColorIndex
 90
        5
102
RTVSPost2010Prop44ColorRGB
 90
      255
102
RTVSPost2010PropOp44
 70
     1
102
RTVSPost2010Prop45
280
     0
102
RTVSPost2010PropOp45
 70
     1
102
RTVSPost2010Prop46
 90
       50
102
RTVSPost2010PropOp46
 70
     1
102
RTVSPost2010Prop47
 90
       50
102
RTVSPost2010PropOp47
 70
     1
102
RTVSPost2010Prop48
 90
       50
102
RTVSPost2010PropOp48
 70
     1
102
RTVSPost2010Prop49
280
     0
102
RTVSPost2010PropOp49
 70
     1
102
RTVSPost2010Prop50
 90
       50
102
RTVSPost2010PropOp50
 70
     1
102
RTVSPost2010Prop51ColorIndex
 90
      256
102
RTVSPost2010Prop51ColorRGB
 90
-16777216
102
RTVSPost2010PropOp51
 70
     0
102
RTVSPost2010Prop52
140
1.0
102
RTVSPost2010PropOp52
 70
     0
102
RTVSPost2010Prop53
 90
        2
102
RTVSPost2010PropOp53
 70
     1
102
RTVSPost2010Prop54
  1
strokes_ogs.tif
102
RTVSPost2010PropOp54
 70
     1
102
RTVSPost2010Prop55
280
     0
102
RTVSPost2010PropOp55
 70
     1
102
RTVSPost2010Prop56
140
1.0
102
RTVSPost2010PropOp56
 70
     1
102
RTVSPost2010Prop57
140
1.0
102
RTVSPost2010PropOp57
 70
     1
  0
XRECORD
  5
1BC
102
{ACAD_REACTORS
330
1BB
102
}
330
1BB
100
AcDbXrecord
280
     1
102
RTVSPropertyOp0
 70
     0
102
RTVSPropertyOp1
 70
     0
102
RTVSPropertyOp2
 70
     0
102
RTVSPropertyOp3
 70
     0
102
RTVSPropertyOp4
 70
     0
102
RTVSPropertyOp5
 70
     0
102
RTVSPropertyOp6
 70
     0
102
RTVSPropertyOp7
 70
     0
102
RTVSPropertyOp8
 70
     0
102
RTVSPropertyOp9
 70
     0
102
RTVSPropertyOp10
 70
     0
102
RTVSPropertyOp11
 70
     0
102
RTVSPropertyOp12
 70
     0
102
RTVSPropertyOp13
 70
     0
102
RTVSPropertyOp14
 70
     2
102
RTVSPropertyOp15
 70
     0
102
RTVSPropertyOp16
 70
     0
102
RTVSPropertyOp17
 70
     0
102
RTVSPropertyOp18
 70
     0
102
RTVSPropertyOp19
 70
     0
102
RTVSPropertyOp20
 70
     0
102
RTVSPropertyOp21
 70
     0
102
RTVSPropertyOp22
 70
     0
102
RTVSPropertyOp23
 70
     0
102
RTVSPropertyOp24
 70
     0
102
RTVSPropertyOp25
 70
     0
102
RTVSPropertyOp26
 70
     0
102
RTVSPropertyOp27
 70
     0
102
RTVSPropertyOp28
 70
     0
102
RTVSPropertyOp29
 70
     0
102
RTVSPropertyOp30
 70
     0
102
RTVSPropertyOp31
 70
     0
102
RTVSPropertyOp32
 70
     0
102
RTVSPropertyOp33
 70
     0
102
RTVSPropertyOp34
 70
     0
102
RTVSPropertyOp35
 70
     0
102
RTVSPropertyOp36
 70
     0
102
RTVSPropertyOp37
 70
     0
102
RTVSPropertyOp38
 70
     0
102
RTVSPropertyOp39
 70
     0
102
RTVSPropertyOp40
 70
     0
102
RTVSPropertyOp41
 70
     0
102
RTVSPropertyOp42
 70
     0
102
RTVSPropertyOp43
 70
     0
102
RTVSPropertyOp44
 70
     0
102
RTVSPropertyOp45
 70
     0
102
RTVSPropertyOp46
 70
     0
102
RTVSPropertyOp47
 70
     0
102
RTVSPropertyOp48
 70
     0
102
RTVSPropertyOp49
 70
     0
102
RTVSPropertyOp50
 70
     0
102
RTVSPropertyOp51
 70
     0
102
RTVSPropertyOp52
 70
     0
102
RTVSPropertyOp53
 70
     0
102
RTVSPropertyOp54
 70
     0
102
RTVSPropertyOp55
 70
     0
102
RTVSPropertyOp56
 70
     0
102
RTVSPropertyOp57
 70
     0
102
RTVSPost2010Prop28
280
     0
102
RTVSPost2010PropOp28
 70
     0
102
RTVSPost2010Prop29
280
     1
102
RTVSPost2010PropOp29
 70
     0
102
RTVSPost2010Prop30
280
     1
102
RTVSPost2010PropOp30
 70
     0
102
RTVSPost2010Prop31
280
     0
102
RTVSPost2010PropOp31
 70
     0
102
RTVSPost2010Prop32
280
     0
102
RTVSPost2010PropOp32
 70
     0
102
RTVSPost2010Prop33
280
     0
102
RTVSPost2010PropOp33
 70
     0
102
RTVSPost2010Prop34
280
     0
102
RTVSPost2010PropOp34
 70
     0
102
RTVSPost2010Prop35
280
     0
102
RTVSPost2010PropOp35
 70
     0
102
RTVSPost2010Prop36
280
     0
102
RTVSPost2010PropOp36
 70
     0
102
RTVSPost2010Prop37
 90
       50
102
RTVSPost2010PropOp37
 70
     0
102
RTVSPost2010Prop38
140
0.0
102
RTVSPost2010PropOp38
 70
     0
102
RTVSPost2010Prop39
140
1.0
102
RTVSPost2010PropOp39
 70
     0
102
RTVSPost2010Prop40
 90
        0
102
RTVSPost2010PropOp40
 70
     0
102
RTVSPost2010Prop41ColorIndex
 90
      178
102
RTVSPost2010Prop41ColorRGB
 90
        0
102
RTVSPost2010PropOp41
 70
     0
102
RTVSPost2010Prop42
 90
       50
102
RTVSPost2010PropOp42
 70
     0
102
RTVSPost2010Prop43
 90
        3
102
RTVSPost2010PropOp43
 70
     0
102
RTVSPost2010Prop44ColorIndex
 90
        5
102
RTVSPost2010Prop44ColorRGB
 90
      255
102
RTVSPost2010PropOp44
 70
     0
102
RTVSPost2010Prop45
280
     0
102
RTVSPost2010PropOp45
 70
     0
102
RTVSPost2010Prop46
 90
       50
102
RTVSPost2010PropOp46
 70
     0
102
RTVSPost2010Prop47
 90
       50
102
RTVSPost2010PropOp47
 70
     0
102
RTVSPost2010Prop48
 90
       50
102
RTVSPost2010PropOp48
 70
     0
102
RTVSPost2010Prop49
280
     0
102
RTVSPost2010PropOp49
 70
     0
102
RTVSPost2010Prop50
 90
       50
102
RTVSPost2010PropOp50
 70
     0
102
RTVSPost2010Prop51ColorIndex
 90
      256
102
RTVSPost2010Prop51ColorRGB
 90
-16777216
102
RTVSPost2010PropOp51
 70
     0
102
RTVSPost2010Prop52
140
1.0
102
RTVSPost2010PropOp52
 70
     0
102
RTVSPost2010Prop53
 90
        2
102
RTVSPost2010PropOp53
 70
     0
102
RTVSPost2010Prop54
  1
strokes_ogs.tif
102
RTVSPost2010PropOp54
 70
     0
102
RTVSPost2010Prop55
280
     0
102
RTVSPost2010PropOp55
 70
     0
102
RTVSPost2010Prop56
140
1.0
102
RTVSPost2010PropOp56
 70
     0
102
RTVSPost2010Prop57
140
1.0
102
RTVSPost2010PropOp57
 70
     0
  0
XRECORD
  5
1B6
102
{ACAD_REACTORS
330
1B5
102
}
330
1B5
100
AcDbXrecord
280
     1
102
RTVSPropertyOp0
 70
     1
102
RTVSPropertyOp1
 70
     1
102
RTVSPropertyOp2
 70
     1
102
RTVSPropertyOp3
 70
     1
102
RTVSPropertyOp4
 70
     1
102
RTVSPropertyOp5
 70
     1
102
RTVSPropertyOp6
 70
     1
102
RTVSPropertyOp7
 70
     1
102
RTVSPropertyOp8
 70
     1
102
RTVSPropertyOp9
 70
     1
102
RTVSPropertyOp10
 70
     1
102
RTVSPropertyOp11
 70
     1
102
RTVSPropertyOp12
 70
     1
102
RTVSPropertyOp13
 70
     1
102
RTVSPropertyOp14
 70
     1
102
RTVSPropertyOp15
 70
     1
102
RTVSPropertyOp16
 70
     1
102
RTVSPropertyOp17
 70
     1
102
RTVSPropertyOp18
 70
     1
102
RTVSPropertyOp19
 70
     1
102
RTVSPropertyOp20
 70
     1
102
RTVSPropertyOp21
 70
     1
102
RTVSPropertyOp22
 70
     1
102
RTVSPropertyOp23
 70
     1
102
RTVSPropertyOp24
 70
     1
102
RTVSPropertyOp25
 70
     1
102
RTVSPropertyOp26
 70
     1
102
RTVSPropertyOp27
 70
     1
102
RTVSPropertyOp28
 70
     1
102
RTVSPropertyOp29
 70
     1
102
RTVSPropertyOp30
 70
     1
102
RTVSPropertyOp31
 70
     1
102
RTVSPropertyOp32
 70
     1
102
RTVSPropertyOp33
 70
     1
102
RTVSPropertyOp34
 70
     1
102
RTVSPropertyOp35
 70
     1
102
RTVSPropertyOp36
 70
     1
102
RTVSPropertyOp37
 70
     1
102
RTVSPropertyOp38
 70
     1
102
RTVSPropertyOp39
 70
     1
102
RTVSPropertyOp40
 70
     1
102
RTVSPropertyOp41
 70
     1
102
RTVSPropertyOp42
 70
     1
102
RTVSPropertyOp43
 70
     1
102
RTVSPropertyOp44
 70
     1
102
RTVSPropertyOp45
 70
     1
102
RTVSPropertyOp46
 70
     1
102
RTVSPropertyOp47
 70
     1
102
RTVSPropertyOp48
 70
     1
102
RTVSPropertyOp49
 70
     1
102
RTVSPropertyOp50
 70
     1
102
RTVSPropertyOp51
 70
     0
102
RTVSPropertyOp52
 70
     0
102
RTVSPropertyOp53
 70
     1
102
RTVSPropertyOp54
 70
     1
102
RTVSPropertyOp55
 70
     1
102
RTVSPropertyOp56
 70
     1
102
RTVSPropertyOp57
 70
     1
102
RTVSPost2010Prop28
280
     0
102
RTVSPost2010PropOp28
 70
     1
102
RTVSPost2010Prop29
280
     1
102
RTVSPost2010PropOp29
 70
     1
102
RTVSPost2010Prop30
280
     1
102
RTVSPost2010PropOp30
 70
     1
102
RTVSPost2010Prop31
280
     0
102
RTVSPost2010PropOp31
 70
     1
102
RTVSPost2010Prop32
280
     0
102
RTVSPost2010PropOp32
 70
     1
102
RTVSPost2010Prop33
280
     0
102
RTVSPost2010PropOp33
 70
     1
102
RTVSPost2010Prop34
280
     0
102
RTVSPost2010PropOp34
 70
     1
102
RTVSPost2010Prop35
280
     0
102
RTVSPost2010PropOp35
 70
     1
102
RTVSPost2010Prop36
280
     0
102
RTVSPost2010PropOp36
 70
     1
102
RTVSPost2010Prop37
 90
       50
102
RTVSPost2010PropOp37
 70
     1
102
RTVSPost2010Prop38
140
0.0
102
RTVSPost2010PropOp38
 70
     1
102
RTVSPost2010Prop39
140
1.0
102
RTVSPost2010PropOp39
 70
     1
102
RTVSPost2010Prop40
 90
        0
102
RTVSPost2010PropOp40
 70
     1
102
RTVSPost2010Prop41ColorIndex
 90
      178
102
RTVSPost2010Prop41ColorRGB
 90
        0
102
RTVSPost2010PropOp41
 70
     1
102
RTVSPost2010Prop42
 90
       50
102
RTVSPost2010PropOp42
 70
     1
102
RTVSPost2010Prop43
 90
        3
102
RTVSPost2010PropOp43
 70
     1
102
RTVSPost2010Prop44ColorIndex
 90
        5
102
RTVSPost2010Prop44ColorRGB
 90
      255
102
RTVSPost2010PropOp44
 70
     1
102
RTVSPost2010Prop45
280
     0
102
RTVSPost2010PropOp45
 70
     1
102
RTVSPost2010Prop46
 90
       50
102
RTVSPost2010PropOp46
 70
     1
102
RTVSPost2010Prop47
 90
       50
102
RTVSPost2010PropOp47
 70
     1
102
RTVSPost2010Prop48
 90
       50
102
RTVSPost2010PropOp48
 70
     1
102
RTVSPost2010Prop49
280
     0
102
RTVSPost2010PropOp49
 70
     1
102
RTVSPost2010Prop50
 90
       50
102
RTVSPost2010PropOp50
 70
     1
102
RTVSPost2010Prop51ColorIndex
 90
      256
102
RTVSPost2010Prop51ColorRGB
 90
-16777216
102
RTVSPost2010PropOp51
 70
     0
102
RTVSPost2010Prop52
140
1.0
102
RTVSPost2010PropOp52
 70
     0
102
RTVSPost2010Prop53
 90
        2
102
RTVSPost2010PropOp53
 70
     1
102
RTVSPost2010Prop54
  1
strokes_ogs.tif
102
RTVSPost2010PropOp54
 70
     1
102
RTVSPost2010Prop55
280
     0
102
RTVSPost2010PropOp55
 70
     1
102
RTVSPost2010Prop56
140
1.0
102
RTVSPost2010PropOp56
 70
     1
102
RTVSPost2010Prop57
140
1.0
102
RTVSPost2010PropOp57
 70
     1
  0
XRECORD
  5
1BE
102
{ACAD_REACTORS
330
1BD
102
}
330
1BD
100
AcDbXrecord
280
     1
102
RTVSPropertyOp0
 70
     0
102
RTVSPropertyOp1
 70
     0
102
RTVSPropertyOp2
 70
     0
102
RTVSPropertyOp3
 70
     0
102
RTVSPropertyOp4
 70
     0
102
RTVSPropertyOp5
 70
     0
102
RTVSPropertyOp6
 70
     0
102
RTVSPropertyOp7
 70
     0
102
RTVSPropertyOp8
 70
     0
102
RTVSPropertyOp9
 70
     0
102
RTVSPropertyOp10
 70
     0
102
RTVSPropertyOp11
 70
     0
102
RTVSPropertyOp12
 70
     0
102
RTVSPropertyOp13
 70
     0
102
RTVSPropertyOp14
 70
     2
102
RTVSPropertyOp15
 70
     0
102
RTVSPropertyOp16
 70
     0
102
RTVSPropertyOp17
 70
     0
102
RTVSPropertyOp18
 70
     0
102
RTVSPropertyOp19
 70
     0
102
RTVSPropertyOp20
 70
     0
102
RTVSPropertyOp21
 70
     0
102
RTVSPropertyOp22
 70
     0
102
RTVSPropertyOp23
 70
     0
102
RTVSPropertyOp24
 70
     0
102
RTVSPropertyOp25
 70
     0
102
RTVSPropertyOp26
 70
     0
102
RTVSPropertyOp27
 70
     0
102
RTVSPropertyOp28
 70
     0
102
RTVSPropertyOp29
 70
     0
102
RTVSPropertyOp30
 70
     0
102
RTVSPropertyOp31
 70
     0
102
RTVSPropertyOp32
 70
     0
102
RTVSPropertyOp33
 70
     0
102
RTVSPropertyOp34
 70
     0
102
RTVSPropertyOp35
 70
     0
102
RTVSPropertyOp36
 70
     0
102
RTVSPropertyOp37
 70
     0
102
RTVSPropertyOp38
 70
     0
102
RTVSPropertyOp39
 70
     0
102
RTVSPropertyOp40
 70
     0
102
RTVSPropertyOp41
 70
     0
102
RTVSPropertyOp42
 70
     0
102
RTVSPropertyOp43
 70
     0
102
RTVSPropertyOp44
 70
     0
102
RTVSPropertyOp45
 70
     0
102
RTVSPropertyOp46
 70
     0
102
RTVSPropertyOp47
 70
     0
102
RTVSPropertyOp48
 70
     0
102
RTVSPropertyOp49
 70
     0
102
RTVSPropertyOp50
 70
     0
102
RTVSPropertyOp51
 70
     0
102
RTVSPropertyOp52
 70
     0
102
RTVSPropertyOp53
 70
     0
102
RTVSPropertyOp54
 70
     0
102
RTVSPropertyOp55
 70
     0
102
RTVSPropertyOp56
 70
     0
102
RTVSPropertyOp57
 70
     0
102
RTVSPost2010Prop28
280
     0
102
RTVSPost2010PropOp28
 70
     0
102
RTVSPost2010Prop29
280
     1
102
RTVSPost2010PropOp29
 70
     0
102
RTVSPost2010Prop30
280
     1
102
RTVSPost2010PropOp30
 70
     0
102
RTVSPost2010Prop31
280
     0
102
RTVSPost2010PropOp31
 70
     0
102
RTVSPost2010Prop32
280
     0
102
RTVSPost2010PropOp32
 70
     0
102
RTVSPost2010Prop33
280
     0
102
RTVSPost2010PropOp33
 70
     0
102
RTVSPost2010Prop34
280
     0
102
RTVSPost2010PropOp34
 70
     0
102
RTVSPost2010Prop35
280
     0
102
RTVSPost2010PropOp35
 70
     0
102
RTVSPost2010Prop36
280
     0
102
RTVSPost2010PropOp36
 70
     0
102
RTVSPost2010Prop37
 90
       50
102
RTVSPost2010PropOp37
 70
     0
102
RTVSPost2010Prop38
140
0.0
102
RTVSPost2010PropOp38
 70
     0
102
RTVSPost2010Prop39
140
1.0
102
RTVSPost2010PropOp39
 70
     0
102
RTVSPost2010Prop40
 90
        0
102
RTVSPost2010PropOp40
 70
     0
102
RTVSPost2010Prop41ColorIndex
 90
      178
102
RTVSPost2010Prop41ColorRGB
 90
        0
102
RTVSPost2010PropOp41
 70
     0
102
RTVSPost2010Prop42
 90
       50
102
RTVSPost2010PropOp42
 70
     0
102
RTVSPost2010Prop43
 90
        3
102
RTVSPost2010PropOp43
 70
     0
102
RTVSPost2010Prop44ColorIndex
 90
        5
102
RTVSPost2010Prop44ColorRGB
 90
      255
102
RTVSPost2010PropOp44
 70
     0
102
RTVSPost2010Prop45
280
     0
102
RTVSPost2010PropOp45
 70
     0
102
RTVSPost2010Prop46
 90
       50
102
RTVSPost2010PropOp46
 70
     0
102
RTVSPost2010Prop47
 90
       50
102
RTVSPost2010PropOp47
 70
     0
102
RTVSPost2010Prop48
 90
       50
102
RTVSPost2010PropOp48
 70
     0
102
RTVSPost2010Prop49
280
     0
102
RTVSPost2010PropOp49
 70
     0
102
RTVSPost2010Prop50
 90
       50
102
RTVSPost2010PropOp50
 70
     0
102
RTVSPost2010Prop51ColorIndex
 90
      256
102
RTVSPost2010Prop51ColorRGB
 90
-16777216
102
RTVSPost2010PropOp51
 70
     0
102
RTVSPost2010Prop52
140
1.0
102
RTVSPost2010PropOp52
 70
     0
102
RTVSPost2010Prop53
 90
        2
102
RTVSPost2010PropOp53
 70
     0
102
RTVSPost2010Prop54
  1
strokes_ogs.tif
102
RTVSPost2010PropOp54
 70
     0
102
RTVSPost2010Prop55
280
     0
102
RTVSPost2010PropOp55
 70
     0
102
RTVSPost2010Prop56
140
1.0
102
RTVSPost2010PropOp56
 70
     0
102
RTVSPost2010Prop57
140
1.0
102
RTVSPost2010PropOp57
 70
     0
  0
XRECORD
  5
1AC
102
{ACAD_REACTORS
330
1AB
102
}
330
1AB
100
AcDbXrecord
280
     1
102
RTVSPropertyOp0
 70
     1
102
RTVSPropertyOp1
 70
     1
102
RTVSPropertyOp2
 70
     1
102
RTVSPropertyOp3
 70
     1
102
RTVSPropertyOp4
 70
     1
102
RTVSPropertyOp5
 70
     1
102
RTVSPropertyOp6
 70
     1
102
RTVSPropertyOp7
 70
     1
102
RTVSPropertyOp8
 70
     1
102
RTVSPropertyOp9
 70
     1
102
RTVSPropertyOp10
 70
     1
102
RTVSPropertyOp11
 70
     1
102
RTVSPropertyOp12
 70
     1
102
RTVSPropertyOp13
 70
     1
102
RTVSPropertyOp14
 70
     1
102
RTVSPropertyOp15
 70
     1
102
RTVSPropertyOp16
 70
     1
102
RTVSPropertyOp17
 70
     1
102
RTVSPropertyOp18
 70
     1
102
RTVSPropertyOp19
 70
     1
102
RTVSPropertyOp20
 70
     1
102
RTVSPropertyOp21
 70
     1
102
RTVSPropertyOp22
 70
     1
102
RTVSPropertyOp23
 70
     1
102
RTVSPropertyOp24
 70
     1
102
RTVSPropertyOp25
 70
     1
102
RTVSPropertyOp26
 70
     1
102
RTVSPropertyOp27
 70
     1
102
RTVSPropertyOp28
 70
     1
102
RTVSPropertyOp29
 70
     1
102
RTVSPropertyOp30
 70
     1
102
RTVSPropertyOp31
 70
     1
102
RTVSPropertyOp32
 70
     1
102
RTVSPropertyOp33
 70
     1
102
RTVSPropertyOp34
 70
     1
102
RTVSPropertyOp35
 70
     1
102
RTVSPropertyOp36
 70
     1
102
RTVSPropertyOp37
 70
     1
102
RTVSPropertyOp38
 70
     1
102
RTVSPropertyOp39
 70
     1
102
RTVSPropertyOp40
 70
     1
102
RTVSPropertyOp41
 70
     1
102
RTVSPropertyOp42
 70
     1
102
RTVSPropertyOp43
 70
     1
102
RTVSPropertyOp44
 70
     1
102
RTVSPropertyOp45
 70
     1
102
RTVSPropertyOp46
 70
     1
102
RTVSPropertyOp47
 70
     1
102
RTVSPropertyOp48
 70
     1
102
RTVSPropertyOp49
 70
     1
102
RTVSPropertyOp50
 70
     1
102
RTVSPropertyOp51
 70
     0
102
RTVSPropertyOp52
 70
     0
102
RTVSPropertyOp53
 70
     1
102
RTVSPropertyOp54
 70
     1
102
RTVSPropertyOp55
 70
     1
102
RTVSPropertyOp56
 70
     1
102
RTVSPropertyOp57
 70
     1
102
RTVSPost2010Prop28
280
     0
102
RTVSPost2010PropOp28
 70
     1
102
RTVSPost2010Prop29
280
     1
102
RTVSPost2010PropOp29
 70
     1
102
RTVSPost2010Prop30
280
     1
102
RTVSPost2010PropOp30
 70
     1
102
RTVSPost2010Prop31
280
     0
102
RTVSPost2010PropOp31
 70
     1
102
RTVSPost2010Prop32
280
     0
102
RTVSPost2010PropOp32
 70
     1
102
RTVSPost2010Prop33
280
     0
102
RTVSPost2010PropOp33
 70
     1
102
RTVSPost2010Prop34
280
     0
102
RTVSPost2010PropOp34
 70
     1
102
RTVSPost2010Prop35
280
     0
102
RTVSPost2010PropOp35
 70
     1
102
RTVSPost2010Prop36
280
     0
102
RTVSPost2010PropOp36
 70
     1
102
RTVSPost2010Prop37
 90
       50
102
RTVSPost2010PropOp37
 70
     1
102
RTVSPost2010Prop38
140
0.0
102
RTVSPost2010PropOp38
 70
     1
102
RTVSPost2010Prop39
140
1.0
102
RTVSPost2010PropOp39
 70
     1
102
RTVSPost2010Prop40
 90
        0
102
RTVSPost2010PropOp40
 70
     1
102
RTVSPost2010Prop41ColorIndex
 90
      178
102
RTVSPost2010Prop41ColorRGB
 90
        0
102
RTVSPost2010PropOp41
 70
     1
102
RTVSPost2010Prop42
 90
       50
102
RTVSPost2010PropOp42
 70
     1
102
RTVSPost2010Prop43
 90
        3
102
RTVSPost2010PropOp43
 70
     1
102
RTVSPost2010Prop44ColorIndex
 90
        5
102
RTVSPost2010Prop44ColorRGB
 90
      255
102
RTVSPost2010PropOp44
 70
     1
102
RTVSPost2010Prop45
280
     0
102
RTVSPost2010PropOp45
 70
     1
102
RTVSPost2010Prop46
 90
       50
102
RTVSPost2010PropOp46
 70
     1
102
RTVSPost2010Prop47
 90
       50
102
RTVSPost2010PropOp47
 70
     1
102
RTVSPost2010Prop48
 90
       50
102
RTVSPost2010PropOp48
 70
     1
102
RTVSPost2010Prop49
280
     0
102
RTVSPost2010PropOp49
 70
     1
102
RTVSPost2010Prop50
 90
       50
102
RTVSPost2010PropOp50
 70
     1
102
RTVSPost2010Prop51ColorIndex
 90
      256
102
RTVSPost2010Prop51ColorRGB
 90
-16777216
102
RTVSPost2010PropOp51
 70
     0
102
RTVSPost2010Prop52
140
1.0
102
RTVSPost2010PropOp52
 70
     0
102
RTVSPost2010Prop53
 90
        2
102
RTVSPost2010PropOp53
 70
     1
102
RTVSPost2010Prop54
  1
strokes_ogs.tif
102
RTVSPost2010PropOp54
 70
     1
102
RTVSPost2010Prop55
280
     0
102
RTVSPost2010PropOp55
 70
     1
102
RTVSPost2010Prop56
140
1.0
102
RTVSPost2010PropOp56
 70
     1
102
RTVSPost2010Prop57
140
1.0
102
RTVSPost2010PropOp57
 70
     1
  0
XRECORD
  5
1CA
102
{ACAD_REACTORS
330
1C9
102
}
330
1C9
100
AcDbXrecord
280
     1
102
RTVSPropertyOp0
 70
     1
102
RTVSPropertyOp1
 70
     1
102
RTVSPropertyOp2
 70
     1
102
RTVSPropertyOp3
 70
     1
102
RTVSPropertyOp4
 70
     1
102
RTVSPropertyOp5
 70
     1
102
RTVSPropertyOp6
 70
     1
102
RTVSPropertyOp7
 70
     1
102
RTVSPropertyOp8
 70
     1
102
RTVSPropertyOp9
 70
     1
102
RTVSPropertyOp10
 70
     1
102
RTVSPropertyOp11
 70
     1
102
RTVSPropertyOp12
 70
     1
102
RTVSPropertyOp13
 70
     1
102
RTVSPropertyOp14
 70
     1
102
RTVSPropertyOp15
 70
     1
102
RTVSPropertyOp16
 70
     1
102
RTVSPropertyOp17
 70
     1
102
RTVSPropertyOp18
 70
     1
102
RTVSPropertyOp19
 70
     1
102
RTVSPropertyOp20
 70
     1
102
RTVSPropertyOp21
 70
     1
102
RTVSPropertyOp22
 70
     1
102
RTVSPropertyOp23
 70
     1
102
RTVSPropertyOp24
 70
     1
102
RTVSPropertyOp25
 70
     1
102
RTVSPropertyOp26
 70
     1
102
RTVSPropertyOp27
 70
     1
102
RTVSPropertyOp28
 70
     1
102
RTVSPropertyOp29
 70
     1
102
RTVSPropertyOp30
 70
     1
102
RTVSPropertyOp31
 70
     1
102
RTVSPropertyOp32
 70
     1
102
RTVSPropertyOp33
 70
     1
102
RTVSPropertyOp34
 70
     1
102
RTVSPropertyOp35
 70
     1
102
RTVSPropertyOp36
 70
     1
102
RTVSPropertyOp37
 70
     1
102
RTVSPropertyOp38
 70
     1
102
RTVSPropertyOp39
 70
     1
102
RTVSPropertyOp40
 70
     1
102
RTVSPropertyOp41
 70
     1
102
RTVSPropertyOp42
 70
     1
102
RTVSPropertyOp43
 70
     1
102
RTVSPropertyOp44
 70
     1
102
RTVSPropertyOp45
 70
     1
102
RTVSPropertyOp46
 70
     1
102
RTVSPropertyOp47
 70
     1
102
RTVSPropertyOp48
 70
     1
102
RTVSPropertyOp49
 70
     1
102
RTVSPropertyOp50
 70
     1
102
RTVSPropertyOp51
 70
     0
102
RTVSPropertyOp52
 70
     0
102
RTVSPropertyOp53
 70
     1
102
RTVSPropertyOp54
 70
     1
102
RTVSPropertyOp55
 70
     1
102
RTVSPropertyOp56
 70
     1
102
RTVSPropertyOp57
 70
     1
102
RTVSPost2010Prop28
280
     0
102
RTVSPost2010PropOp28
 70
     1
102
RTVSPost2010Prop29
280
     1
102
RTVSPost2010PropOp29
 70
     1
102
RTVSPost2010Prop30
280
     1
102
RTVSPost2010PropOp30
 70
     1
102
RTVSPost2010Prop31
280
     0
102
RTVSPost2010PropOp31
 70
     1
102
RTVSPost2010Prop32
280
     0
102
RTVSPost2010PropOp32
 70
     1
102
RTVSPost2010Prop33
280
     0
102
RTVSPost2010PropOp33
 70
     1
102
RTVSPost2010Prop34
280
     0
102
RTVSPost2010PropOp34
 70
     1
102
RTVSPost2010Prop35
280
     0
102
RTVSPost2010PropOp35
 70
     1
102
RTVSPost2010Prop36
280
     0
102
RTVSPost2010PropOp36
 70
     1
102
RTVSPost2010Prop37
 90
       50
102
RTVSPost2010PropOp37
 70
     1
102
RTVSPost2010Prop38
140
0.0
102
RTVSPost2010PropOp38
 70
     1
102
RTVSPost2010Prop39
140
1.0
102
RTVSPost2010PropOp39
 70
     1
102
RTVSPost2010Prop40
 90
        0
102
RTVSPost2010PropOp40
 70
     1
102
RTVSPost2010Prop41ColorIndex
 90
      178
102
RTVSPost2010Prop41ColorRGB
 90
        0
102
RTVSPost2010PropOp41
 70
     1
102
RTVSPost2010Prop42
 90
       50
102
RTVSPost2010PropOp42
 70
     1
102
RTVSPost2010Prop43
 90
        3
102
RTVSPost2010PropOp43
 70
     1
102
RTVSPost2010Prop44ColorIndex
 90
        5
102
RTVSPost2010Prop44ColorRGB
 90
      255
102
RTVSPost2010PropOp44
 70
     1
102
RTVSPost2010Prop45
280
     0
102
RTVSPost2010PropOp45
 70
     1
102
RTVSPost2010Prop46
 90
       50
102
RTVSPost2010PropOp46
 70
     1
102
RTVSPost2010Prop47
 90
       50
102
RTVSPost2010PropOp47
 70
     1
102
RTVSPost2010Prop48
 90
       50
102
RTVSPost2010PropOp48
 70
     1
102
RTVSPost2010Prop49
280
     0
102
RTVSPost2010PropOp49
 70
     1
102
RTVSPost2010Prop50
 90
       50
102
RTVSPost2010PropOp50
 70
     1
102
RTVSPost2010Prop51ColorIndex
 90
      256
102
RTVSPost2010Prop51ColorRGB
 90
-16777216
102
RTVSPost2010PropOp51
 70
     0
102
RTVSPost2010Prop52
140
1.0
102
RTVSPost2010PropOp52
 70
     0
102
RTVSPost2010Prop53
 90
        2
102
RTVSPost2010PropOp53
 70
     1
102
RTVSPost2010Prop54
  1
strokes_ogs.tif
102
RTVSPost2010PropOp54
 70
     1
102
RTVSPost2010Prop55
280
     0
102
RTVSPost2010PropOp55
 70
     1
102
RTVSPost2010Prop56
140
1.0
102
RTVSPost2010PropOp56
 70
     1
102
RTVSPost2010Prop57
140
1.0
102
RTVSPost2010PropOp57
 70
     1
  0
XRECORD
  5
1C8
102
{ACAD_REACTORS
330
1C7
102
}
330
1C7
100
AcDbXrecord
280
     1
102
RTVSPropertyOp0
 70
     1
102
RTVSPropertyOp1
 70
     1
102
RTVSPropertyOp2
 70
     1
102
RTVSPropertyOp3
 70
     1
102
RTVSPropertyOp4
 70
     1
102
RTVSPropertyOp5
 70
     1
102
RTVSPropertyOp6
 70
     1
102
RTVSPropertyOp7
 70
     1
102
RTVSPropertyOp8
 70
     1
102
RTVSPropertyOp9
 70
     1
102
RTVSPropertyOp10
 70
     1
102
RTVSPropertyOp11
 70
     1
102
RTVSPropertyOp12
 70
     1
102
RTVSPropertyOp13
 70
     1
102
RTVSPropertyOp14
 70
     1
102
RTVSPropertyOp15
 70
     1
102
RTVSPropertyOp16
 70
     1
102
RTVSPropertyOp17
 70
     1
102
RTVSPropertyOp18
 70
     1
102
RTVSPropertyOp19
 70
     1
102
RTVSPropertyOp20
 70
     1
102
RTVSPropertyOp21
 70
     1
102
RTVSPropertyOp22
 70
     1
102
RTVSPropertyOp23
 70
     1
102
RTVSPropertyOp24
 70
     1
102
RTVSPropertyOp25
 70
     1
102
RTVSPropertyOp26
 70
     1
102
RTVSPropertyOp27
 70
     1
102
RTVSPropertyOp28
 70
     1
102
RTVSPropertyOp29
 70
     1
102
RTVSPropertyOp30
 70
     1
102
RTVSPropertyOp31
 70
     1
102
RTVSPropertyOp32
 70
     1
102
RTVSPropertyOp33
 70
     1
102
RTVSPropertyOp34
 70
     1
102
RTVSPropertyOp35
 70
     1
102
RTVSPropertyOp36
 70
     1
102
RTVSPropertyOp37
 70
     1
102
RTVSPropertyOp38
 70
     1
102
RTVSPropertyOp39
 70
     1
102
RTVSPropertyOp40
 70
     1
102
RTVSPropertyOp41
 70
     1
102
RTVSPropertyOp42
 70
     1
102
RTVSPropertyOp43
 70
     1
102
RTVSPropertyOp44
 70
     1
102
RTVSPropertyOp45
 70
     1
102
RTVSPropertyOp46
 70
     1
102
RTVSPropertyOp47
 70
     1
102
RTVSPropertyOp48
 70
     1
102
RTVSPropertyOp49
 70
     1
102
RTVSPropertyOp50
 70
     1
102
RTVSPropertyOp51
 70
     0
102
RTVSPropertyOp52
 70
     0
102
RTVSPropertyOp53
 70
     1
102
RTVSPropertyOp54
 70
     1
102
RTVSPropertyOp55
 70
     1
102
RTVSPropertyOp56
 70
     1
102
RTVSPropertyOp57
 70
     1
102
RTVSPost2010Prop28
280
     0
102
RTVSPost2010PropOp28
 70
     1
102
RTVSPost2010Prop29
280
     1
102
RTVSPost2010PropOp29
 70
     1
102
RTVSPost2010Prop30
280
     1
102
RTVSPost2010PropOp30
 70
     1
102
RTVSPost2010Prop31
280
     0
102
RTVSPost2010PropOp31
 70
     1
102
RTVSPost2010Prop32
280
     0
102
RTVSPost2010PropOp32
 70
     1
102
RTVSPost2010Prop33
280
     0
102
RTVSPost2010PropOp33
 70
     1
102
RTVSPost2010Prop34
280
     0
102
RTVSPost2010PropOp34
 70
     1
102
RTVSPost2010Prop35
280
     0
102
RTVSPost2010PropOp35
 70
     1
102
RTVSPost2010Prop36
280
     0
102
RTVSPost2010PropOp36
 70
     1
102
RTVSPost2010Prop37
 90
       50
102
RTVSPost2010PropOp37
 70
     1
102
RTVSPost2010Prop38
140
0.0
102
RTVSPost2010PropOp38
 70
     1
102
RTVSPost2010Prop39
140
1.0
102
RTVSPost2010PropOp39
 70
     1
102
RTVSPost2010Prop40
 90
        0
102
RTVSPost2010PropOp40
 70
     1
102
RTVSPost2010Prop41ColorIndex
 90
      178
102
RTVSPost2010Prop41ColorRGB
 90
        0
102
RTVSPost2010PropOp41
 70
     1
102
RTVSPost2010Prop42
 90
       50
102
RTVSPost2010PropOp42
 70
     1
102
RTVSPost2010Prop43
 90
        3
102
RTVSPost2010PropOp43
 70
     1
102
RTVSPost2010Prop44ColorIndex
 90
        5
102
RTVSPost2010Prop44ColorRGB
 90
      255
102
RTVSPost2010PropOp44
 70
     1
102
RTVSPost2010Prop45
280
     0
102
RTVSPost2010PropOp45
 70
     1
102
RTVSPost2010Prop46
 90
       50
102
RTVSPost2010PropOp46
 70
     1
102
RTVSPost2010Prop47
 90
       50
102
RTVSPost2010PropOp47
 70
     1
102
RTVSPost2010Prop48
 90
       50
102
RTVSPost2010PropOp48
 70
     1
102
RTVSPost2010Prop49
280
     0
102
RTVSPost2010PropOp49
 70
     1
102
RTVSPost2010Prop50
 90
       50
102
RTVSPost2010PropOp50
 70
     1
102
RTVSPost2010Prop51ColorIndex
 90
      256
102
RTVSPost2010Prop51ColorRGB
 90
-16777216
102
RTVSPost2010PropOp51
 70
     0
102
RTVSPost2010Prop52
140
1.0
102
RTVSPost2010PropOp52
 70
     0
102
RTVSPost2010Prop53
 90
        2
102
RTVSPost2010PropOp53
 70
     1
102
RTVSPost2010Prop54
  1
strokes_ogs.tif
102
RTVSPost2010PropOp54
 70
     1
102
RTVSPost2010Prop55
280
     0
102
RTVSPost2010PropOp55
 70
     1
102
RTVSPost2010Prop56
140
1.0
102
RTVSPost2010PropOp56
 70
     1
102
RTVSPost2010Prop57
140
1.0
102
RTVSPost2010PropOp57
 70
     1
  0
XRECORD
  5
1C2
102
{ACAD_REACTORS
330
1C1
102
}
330
1C1
100
AcDbXrecord
280
     1
102
RTVSPropertyOp0
 70
     1
102
RTVSPropertyOp1
 70
     1
102
RTVSPropertyOp2
 70
     1
102
RTVSPropertyOp3
 70
     1
102
RTVSPropertyOp4
 70
     1
102
RTVSPropertyOp5
 70
     1
102
RTVSPropertyOp6
 70
     1
102
RTVSPropertyOp7
 70
     1
102
RTVSPropertyOp8
 70
     1
102
RTVSPropertyOp9
 70
     1
102
RTVSPropertyOp10
 70
     1
102
RTVSPropertyOp11
 70
     1
102
RTVSPropertyOp12
 70
     1
102
RTVSPropertyOp13
 70
     1
102
RTVSPropertyOp14
 70
     1
102
RTVSPropertyOp15
 70
     1
102
RTVSPropertyOp16
 70
     1
102
RTVSPropertyOp17
 70
     1
102
RTVSPropertyOp18
 70
     1
102
RTVSPropertyOp19
 70
     1
102
RTVSPropertyOp20
 70
     1
102
RTVSPropertyOp21
 70
     1
102
RTVSPropertyOp22
 70
     1
102
RTVSPropertyOp23
 70
     1
102
RTVSPropertyOp24
 70
     1
102
RTVSPropertyOp25
 70
     1
102
RTVSPropertyOp26
 70
     1
102
RTVSPropertyOp27
 70
     1
102
RTVSPropertyOp28
 70
     1
102
RTVSPropertyOp29
 70
     1
102
RTVSPropertyOp30
 70
     1
102
RTVSPropertyOp31
 70
     1
102
RTVSPropertyOp32
 70
     1
102
RTVSPropertyOp33
 70
     1
102
RTVSPropertyOp34
 70
     1
102
RTVSPropertyOp35
 70
     1
102
RTVSPropertyOp36
 70
     1
102
RTVSPropertyOp37
 70
     1
102
RTVSPropertyOp38
 70
     1
102
RTVSPropertyOp39
 70
     1
102
RTVSPropertyOp40
 70
     1
102
RTVSPropertyOp41
 70
     1
102
RTVSPropertyOp42
 70
     1
102
RTVSPropertyOp43
 70
     1
102
RTVSPropertyOp44
 70
     1
102
RTVSPropertyOp45
 70
     1
102
RTVSPropertyOp46
 70
     1
102
RTVSPropertyOp47
 70
     1
102
RTVSPropertyOp48
 70
     1
102
RTVSPropertyOp49
 70
     1
102
RTVSPropertyOp50
 70
     1
102
RTVSPropertyOp51
 70
     0
102
RTVSPropertyOp52
 70
     0
102
RTVSPropertyOp53
 70
     1
102
RTVSPropertyOp54
 70
     1
102
RTVSPropertyOp55
 70
     1
102
RTVSPropertyOp56
 70
     1
102
RTVSPropertyOp57
 70
     1
102
RTVSPost2010Prop28
280
     0
102
RTVSPost2010PropOp28
 70
     1
102
RTVSPost2010Prop29
280
     1
102
RTVSPost2010PropOp29
 70
     1
102
RTVSPost2010Prop30
280
     1
102
RTVSPost2010PropOp30
 70
     1
102
RTVSPost2010Prop31
280
     0
102
RTVSPost2010PropOp31
 70
     1
102
RTVSPost2010Prop32
280
     0
102
RTVSPost2010PropOp32
 70
     1
102
RTVSPost2010Prop33
280
     0
102
RTVSPost2010PropOp33
 70
     1
102
RTVSPost2010Prop34
280
     0
102
RTVSPost2010PropOp34
 70
     1
102
RTVSPost2010Prop35
280
     0
102
RTVSPost2010PropOp35
 70
     1
102
RTVSPost2010Prop36
280
     0
102
RTVSPost2010PropOp36
 70
     1
102
RTVSPost2010Prop37
 90
       50
102
RTVSPost2010PropOp37
 70
     1
102
RTVSPost2010Prop38
140
0.0
102
RTVSPost2010PropOp38
 70
     1
102
RTVSPost2010Prop39
140
1.0
102
RTVSPost2010PropOp39
 70
     1
102
RTVSPost2010Prop40
 90
        0
102
RTVSPost2010PropOp40
 70
     1
102
RTVSPost2010Prop41ColorIndex
 90
      178
102
RTVSPost2010Prop41ColorRGB
 90
        0
102
RTVSPost2010PropOp41
 70
     1
102
RTVSPost2010Prop42
 90
       50
102
RTVSPost2010PropOp42
 70
     1
102
RTVSPost2010Prop43
 90
        3
102
RTVSPost2010PropOp43
 70
     1
102
RTVSPost2010Prop44ColorIndex
 90
        5
102
RTVSPost2010Prop44ColorRGB
 90
      255
102
RTVSPost2010PropOp44
 70
     1
102
RTVSPost2010Prop45
280
     0
102
RTVSPost2010PropOp45
 70
     1
102
RTVSPost2010Prop46
 90
       50
102
RTVSPost2010PropOp46
 70
     1
102
RTVSPost2010Prop47
 90
       50
102
RTVSPost2010PropOp47
 70
     1
102
RTVSPost2010Prop48
 90
       50
102
RTVSPost2010PropOp48
 70
     1
102
RTVSPost2010Prop49
280
     0
102
RTVSPost2010PropOp49
 70
     1
102
RTVSPost2010Prop50
 90
       50
102
RTVSPost2010PropOp50
 70
     1
102
RTVSPost2010Prop51ColorIndex
 90
      256
102
RTVSPost2010Prop51ColorRGB
 90
-16777216
102
RTVSPost2010PropOp51
 70
     0
102
RTVSPost2010Prop52
140
1.0
102
RTVSPost2010PropOp52
 70
     0
102
RTVSPost2010Prop53
 90
        2
102
RTVSPost2010PropOp53
 70
     1
102
RTVSPost2010Prop54
  1
strokes_ogs.tif
102
RTVSPost2010PropOp54
 70
     1
102
RTVSPost2010Prop55
280
     0
102
RTVSPost2010PropOp55
 70
     1
102
RTVSPost2010Prop56
140
1.0
102
RTVSPost2010PropOp56
 70
     1
102
RTVSPost2010Prop57
140
1.0
102
RTVSPost2010PropOp57
 70
     1
  0
XRECORD
  5
1C4
102
{ACAD_REACTORS
330
1C3
102
}
330
1C3
100
AcDbXrecord
280
     1
102
RTVSPropertyOp0
 70
     1
102
RTVSPropertyOp1
 70
     1
102
RTVSPropertyOp2
 70
     1
102
RTVSPropertyOp3
 70
     1
102
RTVSPropertyOp4
 70
     1
102
RTVSPropertyOp5
 70
     1
102
RTVSPropertyOp6
 70
     1
102
RTVSPropertyOp7
 70
     1
102
RTVSPropertyOp8
 70
     1
102
RTVSPropertyOp9
 70
     1
102
RTVSPropertyOp10
 70
     1
102
RTVSPropertyOp11
 70
     1
102
RTVSPropertyOp12
 70
     1
102
RTVSPropertyOp13
 70
     1
102
RTVSPropertyOp14
 70
     1
102
RTVSPropertyOp15
 70
     1
102
RTVSPropertyOp16
 70
     1
102
RTVSPropertyOp17
 70
     1
102
RTVSPropertyOp18
 70
     1
102
RTVSPropertyOp19
 70
     1
102
RTVSPropertyOp20
 70
     1
102
RTVSPropertyOp21
 70
     1
102
RTVSPropertyOp22
 70
     1
102
RTVSPropertyOp23
 70
     1
102
RTVSPropertyOp24
 70
     1
102
RTVSPropertyOp25
 70
     1
102
RTVSPropertyOp26
 70
     1
102
RTVSPropertyOp27
 70
     1
102
RTVSPropertyOp28
 70
     1
102
RTVSPropertyOp29
 70
     1
102
RTVSPropertyOp30
 70
     1
102
RTVSPropertyOp31
 70
     1
102
RTVSPropertyOp32
 70
     1
102
RTVSPropertyOp33
 70
     1
102
RTVSPropertyOp34
 70
     1
102
RTVSPropertyOp35
 70
     1
102
RTVSPropertyOp36
 70
     1
102
RTVSPropertyOp37
 70
     1
102
RTVSPropertyOp38
 70
     1
102
RTVSPropertyOp39
 70
     1
102
RTVSPropertyOp40
 70
     1
102
RTVSPropertyOp41
 70
     1
102
RTVSPropertyOp42
 70
     1
102
RTVSPropertyOp43
 70
     1
102
RTVSPropertyOp44
 70
     1
102
RTVSPropertyOp45
 70
     1
102
RTVSPropertyOp46
 70
     1
102
RTVSPropertyOp47
 70
     1
102
RTVSPropertyOp48
 70
     1
102
RTVSPropertyOp49
 70
     1
102
RTVSPropertyOp50
 70
     1
102
RTVSPropertyOp51
 70
     0
102
RTVSPropertyOp52
 70
     0
102
RTVSPropertyOp53
 70
     1
102
RTVSPropertyOp54
 70
     1
102
RTVSPropertyOp55
 70
     1
102
RTVSPropertyOp56
 70
     1
102
RTVSPropertyOp57
 70
     1
102
RTVSPost2010Prop28
280
     0
102
RTVSPost2010PropOp28
 70
     1
102
RTVSPost2010Prop29
280
     1
102
RTVSPost2010PropOp29
 70
     1
102
RTVSPost2010Prop30
280
     1
102
RTVSPost2010PropOp30
 70
     1
102
RTVSPost2010Prop31
280
     0
102
RTVSPost2010PropOp31
 70
     1
102
RTVSPost2010Prop32
280
     0
102
RTVSPost2010PropOp32
 70
     1
102
RTVSPost2010Prop33
280
     0
102
RTVSPost2010PropOp33
 70
     1
102
RTVSPost2010Prop34
280
     0
102
RTVSPost2010PropOp34
 70
     1
102
RTVSPost2010Prop35
280
     0
102
RTVSPost2010PropOp35
 70
     1
102
RTVSPost2010Prop36
280
     0
102
RTVSPost2010PropOp36
 70
     1
102
RTVSPost2010Prop37
 90
       50
102
RTVSPost2010PropOp37
 70
     1
102
RTVSPost2010Prop38
140
0.0
102
RTVSPost2010PropOp38
 70
     1
102
RTVSPost2010Prop39
140
1.0
102
RTVSPost2010PropOp39
 70
     1
102
RTVSPost2010Prop40
 90
        0
102
RTVSPost2010PropOp40
 70
     1
102
RTVSPost2010Prop41ColorIndex
 90
      178
102
RTVSPost2010Prop41ColorRGB
 90
        0
102
RTVSPost2010PropOp41
 70
     1
102
RTVSPost2010Prop42
 90
       50
102
RTVSPost2010PropOp42
 70
     1
102
RTVSPost2010Prop43
 90
        3
102
RTVSPost2010PropOp43
 70
     1
102
RTVSPost2010Prop44ColorIndex
 90
        5
102
RTVSPost2010Prop44ColorRGB
 90
      255
102
RTVSPost2010PropOp44
 70
     1
102
RTVSPost2010Prop45
280
     0
102
RTVSPost2010PropOp45
 70
     1
102
RTVSPost2010Prop46
 90
       50
102
RTVSPost2010PropOp46
 70
     1
102
RTVSPost2010Prop47
 90
       50
102
RTVSPost2010PropOp47
 70
     1
102
RTVSPost2010Prop48
 90
       50
102
RTVSPost2010PropOp48
 70
     1
102
RTVSPost2010Prop49
280
     0
102
RTVSPost2010PropOp49
 70
     1
102
RTVSPost2010Prop50
 90
       50
102
RTVSPost2010PropOp50
 70
     1
102
RTVSPost2010Prop51ColorIndex
 90
      256
102
RTVSPost2010Prop51ColorRGB
 90
-16777216
102
RTVSPost2010PropOp51
 70
     0
102
RTVSPost2010Prop52
140
1.0
102
RTVSPost2010PropOp52
 70
     0
102
RTVSPost2010Prop53
 90
        2
102
RTVSPost2010PropOp53
 70
     1
102
RTVSPost2010Prop54
  1
strokes_ogs.tif
102
RTVSPost2010PropOp54
 70
     1
102
RTVSPost2010Prop55
280
     0
102
RTVSPost2010PropOp55
 70
     1
102
RTVSPost2010Prop56
140
1.0
102
RTVSPost2010PropOp56
 70
     1
102
RTVSPost2010Prop57
140
1.0
102
RTVSPost2010PropOp57
 70
     1
  0
XRECORD
  5
1B4
102
{ACAD_REACTORS
330
1B3
102
}
330
1B3
100
AcDbXrecord
280
     1
102
RTVSPropertyOp0
 70
     1
102
RTVSPropertyOp1
 70
     1
102
RTVSPropertyOp2
 70
     1
102
RTVSPropertyOp3
 70
     1
102
RTVSPropertyOp4
 70
     1
102
RTVSPropertyOp5
 70
     1
102
RTVSPropertyOp6
 70
     1
102
RTVSPropertyOp7
 70
     1
102
RTVSPropertyOp8
 70
     1
102
RTVSPropertyOp9
 70
     1
102
RTVSPropertyOp10
 70
     1
102
RTVSPropertyOp11
 70
     1
102
RTVSPropertyOp12
 70
     1
102
RTVSPropertyOp13
 70
     1
102
RTVSPropertyOp14
 70
     1
102
RTVSPropertyOp15
 70
     1
102
RTVSPropertyOp16
 70
     1
102
RTVSPropertyOp17
 70
     1
102
RTVSPropertyOp18
 70
     1
102
RTVSPropertyOp19
 70
     1
102
RTVSPropertyOp20
 70
     1
102
RTVSPropertyOp21
 70
     1
102
RTVSPropertyOp22
 70
     1
102
RTVSPropertyOp23
 70
     1
102
RTVSPropertyOp24
 70
     1
102
RTVSPropertyOp25
 70
     1
102
RTVSPropertyOp26
 70
     1
102
RTVSPropertyOp27
 70
     1
102
RTVSPropertyOp28
 70
     1
102
RTVSPropertyOp29
 70
     1
102
RTVSPropertyOp30
 70
     1
102
RTVSPropertyOp31
 70
     1
102
RTVSPropertyOp32
 70
     1
102
RTVSPropertyOp33
 70
     1
102
RTVSPropertyOp34
 70
     1
102
RTVSPropertyOp35
 70
     1
102
RTVSPropertyOp36
 70
     1
102
RTVSPropertyOp37
 70
     1
102
RTVSPropertyOp38
 70
     1
102
RTVSPropertyOp39
 70
     1
102
RTVSPropertyOp40
 70
     1
102
RTVSPropertyOp41
 70
     1
102
RTVSPropertyOp42
 70
     1
102
RTVSPropertyOp43
 70
     1
102
RTVSPropertyOp44
 70
     1
102
RTVSPropertyOp45
 70
     1
102
RTVSPropertyOp46
 70
     1
102
RTVSPropertyOp47
 70
     1
102
RTVSPropertyOp48
 70
     1
102
RTVSPropertyOp49
 70
     1
102
RTVSPropertyOp50
 70
     1
102
RTVSPropertyOp51
 70
     0
102
RTVSPropertyOp52
 70
     0
102
RTVSPropertyOp53
 70
     1
102
RTVSPropertyOp54
 70
     1
102
RTVSPropertyOp55
 70
     1
102
RTVSPropertyOp56
 70
     1
102
RTVSPropertyOp57
 70
     1
102
RTVSPost2010Prop28
280
     0
102
RTVSPost2010PropOp28
 70
     1
102
RTVSPost2010Prop29
280
     1
102
RTVSPost2010PropOp29
 70
     1
102
RTVSPost2010Prop30
280
     1
102
RTVSPost2010PropOp30
 70
     1
102
RTVSPost2010Prop31
280
     0
102
RTVSPost2010PropOp31
 70
     1
102
RTVSPost2010Prop32
280
     0
102
RTVSPost2010PropOp32
 70
     1
102
RTVSPost2010Prop33
280
     0
102
RTVSPost2010PropOp33
 70
     1
102
RTVSPost2010Prop34
280
     0
102
RTVSPost2010PropOp34
 70
     1
102
RTVSPost2010Prop35
280
     0
102
RTVSPost2010PropOp35
 70
     1
102
RTVSPost2010Prop36
280
     0
102
RTVSPost2010PropOp36
 70
     1
102
RTVSPost2010Prop37
 90
       50
102
RTVSPost2010PropOp37
 70
     1
102
RTVSPost2010Prop38
140
0.0
102
RTVSPost2010PropOp38
 70
     1
102
RTVSPost2010Prop39
140
1.0
102
RTVSPost2010PropOp39
 70
     1
102
RTVSPost2010Prop40
 90
        0
102
RTVSPost2010PropOp40
 70
     1
102
RTVSPost2010Prop41ColorIndex
 90
      178
102
RTVSPost2010Prop41ColorRGB
 90
        0
102
RTVSPost2010PropOp41
 70
     1
102
RTVSPost2010Prop42
 90
       50
102
RTVSPost2010PropOp42
 70
     1
102
RTVSPost2010Prop43
 90
        3
102
RTVSPost2010PropOp43
 70
     1
102
RTVSPost2010Prop44ColorIndex
 90
        5
102
RTVSPost2010Prop44ColorRGB
 90
      255
102
RTVSPost2010PropOp44
 70
     1
102
RTVSPost2010Prop45
280
     0
102
RTVSPost2010PropOp45
 70
     1
102
RTVSPost2010Prop46
 90
       50
102
RTVSPost2010PropOp46
 70
     1
102
RTVSPost2010Prop47
 90
       50
102
RTVSPost2010PropOp47
 70
     1
102
RTVSPost2010Prop48
 90
       50
102
RTVSPost2010PropOp48
 70
     1
102
RTVSPost2010Prop49
280
     0
102
RTVSPost2010PropOp49
 70
     1
102
RTVSPost2010Prop50
 90
       50
102
RTVSPost2010PropOp50
 70
     1
102
RTVSPost2010Prop51ColorIndex
 90
      256
102
RTVSPost2010Prop51ColorRGB
 90
-16777216
102
RTVSPost2010PropOp51
 70
     0
102
RTVSPost2010Prop52
140
1.0
102
RTVSPost2010PropOp52
 70
     0
102
RTVSPost2010Prop53
 90
        2
102
RTVSPost2010PropOp53
 70
     1
102
RTVSPost2010Prop54
  1
strokes_ogs.tif
102
RTVSPost2010PropOp54
 70
     1
102
RTVSPost2010Prop55
280
     0
102
RTVSPost2010PropOp55
 70
     1
102
RTVSPost2010Prop56
140
1.0
102
RTVSPost2010PropOp56
 70
     1
102
RTVSPost2010Prop57
140
1.0
102
RTVSPost2010PropOp57
 70
     1
  0
XRECORD
  5
1A6
102
{ACAD_REACTORS
330
1A5
102
}
330
1A5
100
AcDbXrecord
280
     1
102
RTVSPropertyOp0
 70
     1
102
RTVSPropertyOp1
 70
     1
102
RTVSPropertyOp2
 70
     1
102
RTVSPropertyOp3
 70
     1
102
RTVSPropertyOp4
 70
     1
102
RTVSPropertyOp5
 70
     1
102
RTVSPropertyOp6
 70
     1
102
RTVSPropertyOp7
 70
     1
102
RTVSPropertyOp8
 70
     1
102
RTVSPropertyOp9
 70
     1
102
RTVSPropertyOp10
 70
     1
102
RTVSPropertyOp11
 70
     1
102
RTVSPropertyOp12
 70
     1
102
RTVSPropertyOp13
 70
     1
102
RTVSPropertyOp14
 70
     1
102
RTVSPropertyOp15
 70
     1
102
RTVSPropertyOp16
 70
     1
102
RTVSPropertyOp17
 70
     1
102
RTVSPropertyOp18
 70
     1
102
RTVSPropertyOp19
 70
     1
102
RTVSPropertyOp20
 70
     1
102
RTVSPropertyOp21
 70
     1
102
RTVSPropertyOp22
 70
     1
102
RTVSPropertyOp23
 70
     1
102
RTVSPropertyOp24
 70
     1
102
RTVSPropertyOp25
 70
     1
102
RTVSPropertyOp26
 70
     1
102
RTVSPropertyOp27
 70
     1
102
RTVSPropertyOp28
 70
     1
102
RTVSPropertyOp29
 70
     1
102
RTVSPropertyOp30
 70
     1
102
RTVSPropertyOp31
 70
     1
102
RTVSPropertyOp32
 70
     1
102
RTVSPropertyOp33
 70
     1
102
RTVSPropertyOp34
 70
     1
102
RTVSPropertyOp35
 70
     1
102
RTVSPropertyOp36
 70
     1
102
RTVSPropertyOp37
 70
     1
102
RTVSPropertyOp38
 70
     1
102
RTVSPropertyOp39
 70
     1
102
RTVSPropertyOp40
 70
     1
102
RTVSPropertyOp41
 70
     1
102
RTVSPropertyOp42
 70
     1
102
RTVSPropertyOp43
 70
     1
102
RTVSPropertyOp44
 70
     1
102
RTVSPropertyOp45
 70
     1
102
RTVSPropertyOp46
 70
     1
102
RTVSPropertyOp47
 70
     1
102
RTVSPropertyOp48
 70
     1
102
RTVSPropertyOp49
 70
     1
102
RTVSPropertyOp50
 70
     1
102
RTVSPropertyOp51
 70
     0
102
RTVSPropertyOp52
 70
     0
102
RTVSPropertyOp53
 70
     1
102
RTVSPropertyOp54
 70
     1
102
RTVSPropertyOp55
 70
     1
102
RTVSPropertyOp56
 70
     1
102
RTVSPropertyOp57
 70
     1
102
RTVSPost2010Prop28
280
     0
102
RTVSPost2010PropOp28
 70
     1
102
RTVSPost2010Prop29
280
     1
102
RTVSPost2010PropOp29
 70
     1
102
RTVSPost2010Prop30
280
     1
102
RTVSPost2010PropOp30
 70
     1
102
RTVSPost2010Prop31
280
     0
102
RTVSPost2010PropOp31
 70
     1
102
RTVSPost2010Prop32
280
     0
102
RTVSPost2010PropOp32
 70
     1
102
RTVSPost2010Prop33
280
     0
102
RTVSPost2010PropOp33
 70
     1
102
RTVSPost2010Prop34
280
     0
102
RTVSPost2010PropOp34
 70
     1
102
RTVSPost2010Prop35
280
     0
102
RTVSPost2010PropOp35
 70
     1
102
RTVSPost2010Prop36
280
     0
102
RTVSPost2010PropOp36
 70
     1
102
RTVSPost2010Prop37
 90
       50
102
RTVSPost2010PropOp37
 70
     1
102
RTVSPost2010Prop38
140
0.0
102
RTVSPost2010PropOp38
 70
     1
102
RTVSPost2010Prop39
140
1.0
102
RTVSPost2010PropOp39
 70
     1
102
RTVSPost2010Prop40
 90
        0
102
RTVSPost2010PropOp40
 70
     1
102
RTVSPost2010Prop41ColorIndex
 90
      178
102
RTVSPost2010Prop41ColorRGB
 90
        0
102
RTVSPost2010PropOp41
 70
     1
102
RTVSPost2010Prop42
 90
       50
102
RTVSPost2010PropOp42
 70
     1
102
RTVSPost2010Prop43
 90
        3
102
RTVSPost2010PropOp43
 70
     1
102
RTVSPost2010Prop44ColorIndex
 90
        5
102
RTVSPost2010Prop44ColorRGB
 90
      255
102
RTVSPost2010PropOp44
 70
     1
102
RTVSPost2010Prop45
280
     0
102
RTVSPost2010PropOp45
 70
     1
102
RTVSPost2010Prop46
 90
       50
102
RTVSPost2010PropOp46
 70
     1
102
RTVSPost2010Prop47
 90
       50
102
RTVSPost2010PropOp47
 70
     1
102
RTVSPost2010Prop48
 90
       50
102
RTVSPost2010PropOp48
 70
     1
102
RTVSPost2010Prop49
280
     0
102
RTVSPost2010PropOp49
 70
     1
102
RTVSPost2010Prop50
 90
       50
102
RTVSPost2010PropOp50
 70
     1
102
RTVSPost2010Prop51ColorIndex
 90
      256
102
RTVSPost2010Prop51ColorRGB
 90
-16777216
102
RTVSPost2010PropOp51
 70
     0
102
RTVSPost2010Prop52
140
1.0
102
RTVSPost2010PropOp52
 70
     0
102
RTVSPost2010Prop53
 90
        2
102
RTVSPost2010PropOp53
 70
     1
102
RTVSPost2010Prop54
  1
strokes_ogs.tif
102
RTVSPost2010PropOp54
 70
     1
102
RTVSPost2010Prop55
280
     0
102
RTVSPost2010PropOp55
 70
     1
102
RTVSPost2010Prop56
140
1.0
102
RTVSPost2010PropOp56
 70
     1
102
RTVSPost2010Prop57
140
1.0
102
RTVSPost2010PropOp57
 70
     1
  0
XRECORD
  5
1C6
102
{ACAD_REACTORS
330
1C5
102
}
330
1C5
100
AcDbXrecord
280
     1
102
RTVSPropertyOp0
 70
     1
102
RTVSPropertyOp1
 70
     1
102
RTVSPropertyOp2
 70
     1
102
RTVSPropertyOp3
 70
     1
102
RTVSPropertyOp4
 70
     1
102
RTVSPropertyOp5
 70
     1
102
RTVSPropertyOp6
 70
     1
102
RTVSPropertyOp7
 70
     1
102
RTVSPropertyOp8
 70
     1
102
RTVSPropertyOp9
 70
     1
102
RTVSPropertyOp10
 70
     1
102
RTVSPropertyOp11
 70
     1
102
RTVSPropertyOp12
 70
     1
102
RTVSPropertyOp13
 70
     1
102
RTVSPropertyOp14
 70
     1
102
RTVSPropertyOp15
 70
     1
102
RTVSPropertyOp16
 70
     1
102
RTVSPropertyOp17
 70
     1
102
RTVSPropertyOp18
 70
     1
102
RTVSPropertyOp19
 70
     1
102
RTVSPropertyOp20
 70
     1
102
RTVSPropertyOp21
 70
     1
102
RTVSPropertyOp22
 70
     1
102
RTVSPropertyOp23
 70
     1
102
RTVSPropertyOp24
 70
     1
102
RTVSPropertyOp25
 70
     1
102
RTVSPropertyOp26
 70
     1
102
RTVSPropertyOp27
 70
     1
102
RTVSPropertyOp28
 70
     1
102
RTVSPropertyOp29
 70
     1
102
RTVSPropertyOp30
 70
     1
102
RTVSPropertyOp31
 70
     1
102
RTVSPropertyOp32
 70
     1
102
RTVSPropertyOp33
 70
     1
102
RTVSPropertyOp34
 70
     1
102
RTVSPropertyOp35
 70
     1
102
RTVSPropertyOp36
 70
     1
102
RTVSPropertyOp37
 70
     1
102
RTVSPropertyOp38
 70
     1
102
RTVSPropertyOp39
 70
     1
102
RTVSPropertyOp40
 70
     1
102
RTVSPropertyOp41
 70
     1
102
RTVSPropertyOp42
 70
     1
102
RTVSPropertyOp43
 70
     1
102
RTVSPropertyOp44
 70
     1
102
RTVSPropertyOp45
 70
     1
102
RTVSPropertyOp46
 70
     1
102
RTVSPropertyOp47
 70
     1
102
RTVSPropertyOp48
 70
     1
102
RTVSPropertyOp49
 70
     1
102
RTVSPropertyOp50
 70
     1
102
RTVSPropertyOp51
 70
     0
102
RTVSPropertyOp52
 70
     0
102
RTVSPropertyOp53
 70
     1
102
RTVSPropertyOp54
 70
     1
102
RTVSPropertyOp55
 70
     1
102
RTVSPropertyOp56
 70
     1
102
RTVSPropertyOp57
 70
     1
102
RTVSPost2010Prop28
280
     0
102
RTVSPost2010PropOp28
 70
     1
102
RTVSPost2010Prop29
280
     1
102
RTVSPost2010PropOp29
 70
     1
102
RTVSPost2010Prop30
280
     1
102
RTVSPost2010PropOp30
 70
     1
102
RTVSPost2010Prop31
280
     0
102
RTVSPost2010PropOp31
 70
     1
102
RTVSPost2010Prop32
280
     0
102
RTVSPost2010PropOp32
 70
     1
102
RTVSPost2010Prop33
280
     0
102
RTVSPost2010PropOp33
 70
     1
102
RTVSPost2010Prop34
280
     0
102
RTVSPost2010PropOp34
 70
     1
102
RTVSPost2010Prop35
280
     0
102
RTVSPost2010PropOp35
 70
     1
102
RTVSPost2010Prop36
280
     0
102
RTVSPost2010PropOp36
 70
     1
102
RTVSPost2010Prop37
 90
       50
102
RTVSPost2010PropOp37
 70
     1
102
RTVSPost2010Prop38
140
0.0
102
RTVSPost2010PropOp38
 70
     1
102
RTVSPost2010Prop39
140
1.0
102
RTVSPost2010PropOp39
 70
     1
102
RTVSPost2010Prop40
 90
        0
102
RTVSPost2010PropOp40
 70
     1
102
RTVSPost2010Prop41ColorIndex
 90
      178
102
RTVSPost2010Prop41ColorRGB
 90
        0
102
RTVSPost2010PropOp41
 70
     1
102
RTVSPost2010Prop42
 90
       50
102
RTVSPost2010PropOp42
 70
     1
102
RTVSPost2010Prop43
 90
        3
102
RTVSPost2010PropOp43
 70
     1
102
RTVSPost2010Prop44ColorIndex
 90
        5
102
RTVSPost2010Prop44ColorRGB
 90
      255
102
RTVSPost2010PropOp44
 70
     1
102
RTVSPost2010Prop45
280
     0
102
RTVSPost2010PropOp45
 70
     1
102
RTVSPost2010Prop46
 90
       50
102
RTVSPost2010PropOp46
 70
     1
102
RTVSPost2010Prop47
 90
       50
102
RTVSPost2010PropOp47
 70
     1
102
RTVSPost2010Prop48
 90
       50
102
RTVSPost2010PropOp48
 70
     1
102
RTVSPost2010Prop49
280
     0
102
RTVSPost2010PropOp49
 70
     1
102
RTVSPost2010Prop50
 90
       50
102
RTVSPost2010PropOp50
 70
     1
102
RTVSPost2010Prop51ColorIndex
 90
      256
102
RTVSPost2010Prop51ColorRGB
 90
-16777216
102
RTVSPost2010PropOp51
 70
     0
102
RTVSPost2010Prop52
140
1.0
102
RTVSPost2010PropOp52
 70
     0
102
RTVSPost2010Prop53
 90
        2
102
RTVSPost2010PropOp53
 70
     1
102
RTVSPost2010Prop54
  1
strokes_ogs.tif
102
RTVSPost2010PropOp54
 70
     1
102
RTVSPost2010Prop55
280
     0
102
RTVSPost2010PropOp55
 70
     1
102
RTVSPost2010Prop56
140
1.0
102
RTVSPost2010PropOp56
 70
     1
102
RTVSPost2010Prop57
140
1.0
102
RTVSPost2010PropOp57
 70
     1
  0
ENDSEC
  0
EOF
