999
DXF file: 100061-a_support-transmission-g.dxf
999
Pro/ENGINEER 2004090 by Parametric Technology Corporation
0
SECTION
2
HEADER
9
$ACADVER
1
AC1014
9
$HANDSEED
5
       682
9
$EXTMAX
10
420.0000000000
20
297.0000000000
9
$EXTMIN
10
0.0000000000
20
0.0000000000
9
$LIMMIN
10
0.0000000000
20
0.0000000000
9
$LIMMAX
10
420.0000000000
20
297.0000000000
9
$VIEWCTR
10
210.0000000000
20
148.5000000000
9
$VIEWSIZE
40
297.0000000000
9
$CLAYER
8
0
9
$LTSCALE
40
23.1000000000
9
$CELTYPE
6
BYLAYER
9
$DIMSCALE
40
1
9
$DIMASZ
40
4.5000000000
9
$DIMEXO
40
2.6250000000
9
$DIMDLI
40
15.9600000000
9
$DIMEXE
40
7.5600000000
9
$DIMCEN
40
3.7800000000
9
$DIMLFAC
40
1.0000000000
9
$DIMTXT
40
3.5000000000
9
$DIMTOL
70
1
9
$DIMLIM
70
0
9
$DIMTFAC
40
1.0000000000
9
$DIMTP
40
0.0500000000
9
$DIMTM
40
0.0500000000
9
$MEASUREMENT
70
1
0
ENDSEC
0
SECTION
2
CLASSES
0
ENDSEC
0
SECTION
2
TABLES
0
TABLE
2
VPORT
5
8
100
AcDbSymbolTable
70
2
0
VPORT
5
1F4
100
AcDbSymbolTableRecord
100
AcDbViewportTableRecord
2
*ACTIVE
70
0
10
0.0
20
0.0
11
1.0
21
1.0
12
210.0000000000
22
148.5000000000
13
0.0
23
0.0
14
1.0
24
1.0
15
0.0
25
0.0
16
0.0
26
0.0
36
1.0
17
0.0
27
0.0
37
0.0
40
297.0000000000
41
1.4141414141
42
50.0
43
0.0
44
0.0
50
0.0
51
0.0
71
0
72
100
73
1
74
1
75
0
76
0
77
0
78
0
0
ENDTAB
0
TABLE
2
LTYPE
5
5
100
AcDbSymbolTable
70
6
0
LTYPE
5
14
100
AcDbSymbolTableRecord
100
AcDbLinetypeTableRecord
2
BYBLOCK
70
0
3

72
65
73
0
40
0.0
0
LTYPE
5
15
100
AcDbSymbolTableRecord
100
AcDbLinetypeTableRecord
2
BYLAYER
70
0
3

72
65
73
0
40
0.0
0
LTYPE
5
16
100
AcDbSymbolTableRecord
100
AcDbLinetypeTableRecord
2
CONTINUOUS
70
64
3
Solid line
72
65
73
0
40
0
0
LTYPE
5
1F5
100
AcDbSymbolTableRecord
100
AcDbLinetypeTableRecord
2
CENTER
70
64
3
____ _ ____ _ ____ _ ____ _ ____ _ ____ _ ____
72
65
73
4
40
0.6
49
0.375
74
0
49
-0.075
74
0
49
0.075
74
0
49
-0.075
74
0
0
LTYPE
5
1F6
100
AcDbSymbolTableRecord
100
AcDbLinetypeTableRecord
2
HIDDEN
70
64
3
- - - - - - - - - - - - - - - - - - - -
72
65
73
2
40
0.2
49
0.1
74
0
49
-0.1
74
0
0
LTYPE
5
1F7
100
AcDbSymbolTableRecord
100
AcDbLinetypeTableRecord
2
PHANTOM
70
64
3
_____ _ _ _____ _ _ _____ _ _ _____
72
65
73
6
40
0.8
49
0.45
74
0
49
-0.05
74
0
49
0.1
74
0
49
-0.05
74
0
49
0.1
74
0
49
-0.05
74
0
0
LTYPE
5
1F8
100
AcDbSymbolTableRecord
100
AcDbLinetypeTableRecord
2
DOT
70
64
3
. . . . . . . . . . . . . . . . . . . .
72
65
73
2
40
0.2
49
0.1
74
0
49
-0.1
74
0
0
LTYPE
5
1F9
100
AcDbSymbolTableRecord
100
AcDbLinetypeTableRecord
2
DASHED
70
64
3
- - - - - - - - - - - - - - - - - - - -
72
65
73
2
40
0.2
49
0.1
74
0
49
-0.1
74
0
0
ENDTAB
0
TABLE
2
LAYER
5
2
100
AcDbSymbolTable
70
36
0
LAYER
5
10
100
AcDbSymbolTableRecord
100
AcDbLayerTableRecord
2
0
70
0
62
7
6
CONTINUOUS
0
LAYER
5
1FA
100
AcDbSymbolTableRecord
100
AcDbLayerTableRecord
2
DEFAULT_1
70
0
62
7
6
CENTER
0
LAYER
5
1FB
100
AcDbSymbolTableRecord
100
AcDbLayerTableRecord
2
DEFAULT_2
70
0
62
8
6
HIDDEN
0
LAYER
5
1FC
100
AcDbSymbolTableRecord
100
AcDbLayerTableRecord
2
DEFAULT_3
70
0
62
7
6
PHANTOM
0
LAYER
5
1FD
100
AcDbSymbolTableRecord
100
AcDbLayerTableRecord
2
POUB
70
0
62
7
6
CONTINUOUS
0
LAYER
5
1FE
100
AcDbSymbolTableRecord
100
AcDbLayerTableRecord
2
REF
70
0
62
7
6
CONTINUOUS
0
ENDTAB
0
TABLE
2
STYLE
5
3
100
AcDbSymbolTable
70
1
0
STYLE
5
11
100
AcDbSymbolTableRecord
100
AcDbTextStyleTableRecord
2
STANDARD
70
0
40
0.0
41
0.8000000000
50
0.0
71
0
42
0.2
3
txt
4

0
STYLE
5
1FF
100
AcDbSymbolTableRecord
100
AcDbTextStyleTableRecord
2
TEXTSTYLE_1
70
0
40
0.0
41
0.8000000000
50
0.0
71
0
42
0.2
3
txt
4

0
ENDTAB
0
TABLE
2
VIEW
5
6
100
AcDbSymbolTable
70
0
0
ENDTAB
0
TABLE
2
UCS
5
7
100
AcDbSymbolTable
70
0
0
ENDTAB
0
TABLE
2
APPID
5
9
100
AcDbSymbolTable
70
1
0
APPID
5
200
100
AcDbSymbolTableRecord
100
AcDbRegAppTableRecord
2
ACAD
70
0
0
ENDTAB
0
TABLE
2
DIMSTYLE
5
A
100
AcDbSymbolTable
70
1
0
DIMSTYLE
105
201
100
AcDbSymbolTableRecord
100
AcDbDimStyleTableRecord
2
STANDARD
70
0
3

4

5

6

7

40
1.0
41
4.5000000000
42
0.0625
43
0.38
44
0.18
45
0.0
46
0.0
47
0.0500000000
48
0.0500000000
140
3.5000000000
141
0.09
142
0.0
143
25.4
144
1.0000000000
145
0.0
146
1.0000000000
147
0.09
71
1
72
0
73
0
74
0
75
0
76
0
77
1
78
8
170
0
171
2
172
0
173
0
174
0
175
0
176
0
177
0
178
0
270
2
271
2
272
2
273
2
274
2
340
11
275
0
280
0
281
0
282
0
283
1
284
8
285
0
286
0
287
3
288
0
0
DIMSTYLE
105
202
100
AcDbSymbolTableRecord
100
AcDbDimStyleTableRecord
2
DIMSTYLE_1
70
0
3

4

5

6

7

40
1.0
41
4.5000000000
42
0.0625
43
0.38
44
0.18
45
0.0
46
0.0
47
0.0200000000
48
0.0200000000
140
3.5000000000
141
0.09
142
0.0
143
25.4
144
1.0000000000
145
0.0
146
1.0000000000
147
0.09
71
1
72
0
73
0
74
0
75
0
76
0
77
1
78
8
170
0
171
2
172
0
173
0
174
0
175
0
176
0
177
0
178
0
270
2
271
2
272
2
273
2
274
2
340
1FF
275
0
280
0
281
0
282
0
283
1
284
8
285
0
286
0
287
3
288
0
0
DIMSTYLE
105
203
100
AcDbSymbolTableRecord
100
AcDbDimStyleTableRecord
2
DIMSTYLE_2
70
0
3

4

5

6

7

40
1.0
41
4.5000000000
42
0.0625
43
0.38
44
0.18
45
0.0
46
0.0
47
0.0500000000
48
0.0500000000
140
3.5000000000
141
0.09
142
0.0
143
25.4
144
1.0000000000
145
0.0
146
1.0000000000
147
0.09
71
0
72
0
73
0
74
0
75
0
76
0
77
1
78
8
170
0
171
2
172
0
173
0
174
0
175
0
176
0
177
0
178
0
270
2
271
2
272
2
273
2
274
2
340
1FF
275
0
280
0
281
0
282
0
283
1
284
8
285
0
286
0
287
3
288
0
0
DIMSTYLE
105
204
100
AcDbSymbolTableRecord
100
AcDbDimStyleTableRecord
2
DIMSTYLE_3
70
0
3

4

5

6

7

40
1.0
41
4.5000000000
42
0.0625
43
0.38
44
0.18
45
0.0
46
0.0
47
0.0500000000
48
0.0500000000
140
3.5000000000
141
0.09
142
0.0
143
25.4
144
1.0000000000
145
0.0
146
1.0000000000
147
0.09
71
0
72
0
73
1
74
1
75
0
76
0
77
1
78
8
170
0
171
2
172
0
173
0
174
0
175
0
176
0
177
0
178
0
270
2
271
2
272
2
273
2
274
2
340
1FF
275
0
280
0
281
0
282
0
283
1
284
8
285
0
286
0
287
3
288
0
0
DIMSTYLE
105
205
100
AcDbSymbolTableRecord
100
AcDbDimStyleTableRecord
2
DIMSTYLE_4
70
0
3

4

5

6

7

40
1.0
41
4.5000000000
42
0.0625
43
0.38
44
0.18
45
0.0
46
0.0
47
0.0500000000
48
0.0500000000
140
3.5000000000
141
0.09
142
0.0
143
25.4
144
1.0000000000
145
0.0
146
1.0000000000
147
0.09
71
0
72
0
73
0
74
0
75
0
76
0
77
1
78
8
170
0
171
2
172
0
173
0
174
0
175
0
176
0
177
0
178
0
270
2
271
2
272
2
273
2
274
2
340
1FF
275
0
280
0
281
0
282
0
283
1
284
8
285
0
286
0
287
3
288
0
0
DIMSTYLE
105
206
100
AcDbSymbolTableRecord
100
AcDbDimStyleTableRecord
2
DIMSTYLE_5
70
0
3

4

5

6

7

40
1.0
41
4.5000000000
42
0.0625
43
0.38
44
0.18
45
0.0
46
0.0
47
0.1000000000
48
0.1000000000
140
3.5000000000
141
0.09
142
0.0
143
25.4
144
1.0000000000
145
0.0
146
1.0000000000
147
0.09
71
0
72
0
73
1
74
1
75
0
76
0
77
0
78
8
170
0
171
2
172
0
173
0
174
0
175
0
176
0
177
0
178
0
270
2
271
1
272
1
273
2
274
2
340
1FF
275
0
280
0
281
0
282
0
283
1
284
8
285
0
286
0
287
3
288
0
0
DIMSTYLE
105
207
100
AcDbSymbolTableRecord
100
AcDbDimStyleTableRecord
2
DIMSTYLE_6
70
0
3

4

5

6

7

40
1.0
41
4.5000000000
42
0.0625
43
0.38
44
0.18
45
0.0
46
0.0
47
0.0500000000
48
0.0500000000
140
3.5000000000
141
0.09
142
0.0
143
25.4
144
1.0000000000
145
0.0
146
1.0000000000
147
0.09
71
1
72
0
73
0
74
0
75
0
76
0
77
1
78
8
170
0
171
2
172
0
173
0
174
0
175
0
176
0
177
0
178
0
270
2
271
2
272
2
273
2
274
2
340
1FF
275
0
280
0
281
0
282
0
283
1
284
8
285
0
286
0
287
3
288
0
0
DIMSTYLE
105
208
100
AcDbSymbolTableRecord
100
AcDbDimStyleTableRecord
2
DIMSTYLE_7
70
0
3

4

5

6

7

40
1.0
41
4.5000000000
42
0.0625
43
0.38
44
0.18
45
0.0
46
0.0
47
0.2000000000
48
0.2000000000
140
3.5000000000
141
0.09
142
0.0
143
25.4
144
1.0000000000
145
0.0
146
1.0000000000
147
0.09
71
0
72
0
73
0
74
0
75
0
76
0
77
1
78
8
170
0
171
2
172
0
173
0
174
0
175
0
176
0
177
0
178
0
270
2
271
1
272
1
273
2
274
2
340
1FF
275
0
280
0
281
0
282
0
283
1
284
8
285
0
286
0
287
3
288
0
0
ENDTAB
0
TABLE
2
BLOCK_RECORD
5
1
100
AcDbSymbolTable
70
0
0
BLOCK_RECORD
5
1B
100
AcDbSymbolTableRecord
100
AcDbBlockTableRecord
2
*MODEL_SPACE
0
BLOCK_RECORD
5
1C
100
AcDbSymbolTableRecord
100
AcDbBlockTableRecord
2
*PAPER_SPACE
0
BLOCK_RECORD
5
209
100
AcDbSymbolTableRecord
100
AcDbBlockTableRecord
2
N-DES_BL0
0
BLOCK_RECORD
5
20A
100
AcDbSymbolTableRecord
100
AcDbBlockTableRecord
2
N-CART_BL1
0
BLOCK_RECORD
5
20B
100
AcDbSymbolTableRecord
100
AcDbBlockTableRecord
2
*D0
0
BLOCK_RECORD
5
20C
100
AcDbSymbolTableRecord
100
AcDbBlockTableRecord
2
*D1
0
BLOCK_RECORD
5
20D
100
AcDbSymbolTableRecord
100
AcDbBlockTableRecord
2
*D2
0
BLOCK_RECORD
5
20E
100
AcDbSymbolTableRecord
100
AcDbBlockTableRecord
2
*D3
0
BLOCK_RECORD
5
20F
100
AcDbSymbolTableRecord
100
AcDbBlockTableRecord
2
*D4
0
BLOCK_RECORD
5
210
100
AcDbSymbolTableRecord
100
AcDbBlockTableRecord
2
*D5
0
BLOCK_RECORD
5
211
100
AcDbSymbolTableRecord
100
AcDbBlockTableRecord
2
*D6
0
BLOCK_RECORD
5
212
100
AcDbSymbolTableRecord
100
AcDbBlockTableRecord
2
*D7
0
BLOCK_RECORD
5
213
100
AcDbSymbolTableRecord
100
AcDbBlockTableRecord
2
*D8
0
BLOCK_RECORD
5
214
100
AcDbSymbolTableRecord
100
AcDbBlockTableRecord
2
*D9
0
BLOCK_RECORD
5
215
100
AcDbSymbolTableRecord
100
AcDbBlockTableRecord
2
*D10
0
BLOCK_RECORD
5
216
100
AcDbSymbolTableRecord
100
AcDbBlockTableRecord
2
*D11
0
BLOCK_RECORD
5
217
100
AcDbSymbolTableRecord
100
AcDbBlockTableRecord
2
*D12
0
BLOCK_RECORD
5
218
100
AcDbSymbolTableRecord
100
AcDbBlockTableRecord
2
*D13
0
BLOCK_RECORD
5
219
100
AcDbSymbolTableRecord
100
AcDbBlockTableRecord
2
*D14
0
BLOCK_RECORD
5
21A
100
AcDbSymbolTableRecord
100
AcDbBlockTableRecord
2
*D15
0
BLOCK_RECORD
5
21B
100
AcDbSymbolTableRecord
100
AcDbBlockTableRecord
2
*D16
0
BLOCK_RECORD
5
21C
100
AcDbSymbolTableRecord
100
AcDbBlockTableRecord
2
*D17
0
BLOCK_RECORD
5
21D
100
AcDbSymbolTableRecord
100
AcDbBlockTableRecord
2
*D18
0
BLOCK_RECORD
5
21E
100
AcDbSymbolTableRecord
100
AcDbBlockTableRecord
2
*D19
0
BLOCK_RECORD
5
21F
100
AcDbSymbolTableRecord
100
AcDbBlockTableRecord
2
*D20
0
BLOCK_RECORD
5
220
100
AcDbSymbolTableRecord
100
AcDbBlockTableRecord
2
*D21
0
BLOCK_RECORD
5
221
100
AcDbSymbolTableRecord
100
AcDbBlockTableRecord
2
*D22
0
BLOCK_RECORD
5
222
100
AcDbSymbolTableRecord
100
AcDbBlockTableRecord
2
*D23
0
BLOCK_RECORD
5
223
100
AcDbSymbolTableRecord
100
AcDbBlockTableRecord
2
*D24
0
BLOCK_RECORD
5
224
100
AcDbSymbolTableRecord
100
AcDbBlockTableRecord
2
*D25
0
BLOCK_RECORD
5
225
100
AcDbSymbolTableRecord
100
AcDbBlockTableRecord
2
*D26
0
BLOCK_RECORD
5
226
100
AcDbSymbolTableRecord
100
AcDbBlockTableRecord
2
*D27
0
BLOCK_RECORD
5
227
100
AcDbSymbolTableRecord
100
AcDbBlockTableRecord
2
*D28
0
BLOCK_RECORD
5
228
100
AcDbSymbolTableRecord
100
AcDbBlockTableRecord
2
*D29
0
BLOCK_RECORD
5
229
100
AcDbSymbolTableRecord
100
AcDbBlockTableRecord
2
*D30
0
BLOCK_RECORD
5
22A
100
AcDbSymbolTableRecord
100
AcDbBlockTableRecord
2
N-CAR_BL2
0
BLOCK_RECORD
5
22B
100
AcDbSymbolTableRecord
100
AcDbBlockTableRecord
2
RUGOSITE_BL3
0
ENDTAB
0
ENDSEC
0
SECTION
2
BLOCKS
0
BLOCK
5
1E
100
AcDbEntity
8
0
100
AcDbBlockBegin
2
*MODEL_SPACE
70
0
10
0.0
20
0.0
30
0.0
3
*MODEL_SPACE
1

0
ENDBLK
5
1F
100
AcDbEntity
8
0
100
AcDbBlockEnd
0
BLOCK
5
20
100
AcDbEntity
8
0
100
AcDbBlockBegin
2
*PAPER_SPACE
70
0
10
0.0
20
0.0
30
0.0
3
*PAPER_SPACE
1

0
ENDBLK
5
21
100
AcDbEntity
8
0
100
AcDbBlockEnd
0
BLOCK
5
22C
100
AcDbEntity
8
0
100
AcDbBlockBegin
62
2
6
CONTINUOUS
2
N-DES_BL0
70
64
10
0.0000000000
20
0.0000000000
3
N-DES_BL0
1

0
LINE
5
22D
100
AcDbEntity
8
0
100
AcDbLine
62
7
6
CONTINUOUS
10
414.9755083970
20
45.0843010440
11
414.9755083970
21
43.3951104690
0
LINE
5
22E
100
AcDbEntity
8
0
100
AcDbLine
62
7
6
CONTINUOUS
10
420.3809182372
20
42.5505151815
11
414.9755083970
21
43.3951104690
0
LINE
5
22F
100
AcDbEntity
8
DEFAULT_1
100
AcDbLine
62
2
6
CENTER
10
414.1646969210
20
44.2397057565
11
421.1917297132
21
44.2397057565
0
LINE
5
230
100
AcDbEntity
8
0
100
AcDbLine
62
7
6
CONTINUOUS
10
420.3809182372
20
45.9288963316
11
414.9755083970
21
45.0843010440
0
LINE
5
231
100
AcDbEntity
8
0
100
AcDbLine
62
7
6
CONTINUOUS
10
420.3809182372
20
45.9288963316
11
420.3809182372
21
42.5505151815
0
LINE
5
232
100
AcDbEntity
8
0
100
AcDbLine
62
2
6
CONTINUOUS
10
424.7776655988
20
44.3400436767
11
424.7776655988
21
44.1393678363
0
LINE
5
233
100
AcDbEntity
8
DEFAULT_1
100
AcDbLine
62
2
6
CENTER
10
424.7776655988
20
41.6419278076
11
424.7776655988
21
46.7397078076
0
LINE
5
234
100
AcDbEntity
8
0
100
AcDbLine
62
2
6
CONTINUOUS
10
424.8780035190
20
44.2397057565
11
424.6773276787
21
44.2397057565
0
LINE
5
235
100
AcDbEntity
8
DEFAULT_1
100
AcDbLine
62
2
6
CENTER
10
424.2759759980
20
44.2397057565
11
422.2776635477
21
44.2397057565
0
LINE
5
236
100
AcDbEntity
8
DEFAULT_1
100
AcDbLine
62
2
6
CENTER
10
425.2793551996
20
44.2397057565
11
427.2776676499
21
44.2397057565
0
CIRCLE
5
237
100
AcDbEntity
8
0
100
AcDbCircle
62
7
6
CONTINUOUS
10
424.7776655988
20
44.2397057565
40
1.6891905751
0
CIRCLE
5
238
100
AcDbEntity
8
0
100
AcDbCircle
62
7
6
CONTINUOUS
10
424.7776655988
20
44.2397057565
40
0.8445952875
0
ENDBLK
5
239
100
AcDbEntity
8
0
100
AcDbBlockEnd
0
BLOCK
5
23A
100
AcDbEntity
8
0
100
AcDbBlockBegin
62
2
6
CONTINUOUS
2
N-CART_BL1
70
64
10
0.0000000000
20
0.0000000000
3
N-CART_BL1
1

0
LINE
5
23B
100
AcDbEntity
8
0
100
AcDbLine
62
7
6
CONTINUOUS
10
445.0002950648
20
53.4997790807
11
279.0003222648
21
53.4997790807
0
LINE
5
23C
100
AcDbEntity
8
0
100
AcDbLine
62
7
6
CONTINUOUS
10
445.0002950648
20
11.9997858807
11
279.0003222648
21
11.9997858807
0
LINE
5
23D
100
AcDbEntity
8
0
100
AcDbLine
62
7
6
CONTINUOUS
10
445.0002950648
20
53.4997790807
11
445.0002950648
21
11.9997858807
0
LINE
5
23E
100
AcDbEntity
8
0
100
AcDbLine
62
7
6
CONTINUOUS
10
279.0003222648
20
53.4997790807
11
279.0003222648
21
11.9997858807
0
LINE
5
23F
100
AcDbEntity
8
0
100
AcDbLine
62
7
6
CONTINUOUS
10
445.0002950648
20
48.9997798181
11
279.0003222648
21
48.9997798181
0
LINE
5
240
100
AcDbEntity
8
0
100
AcDbLine
62
7
6
CONTINUOUS
10
399.0003026021
20
21.4997843241
11
399.0003026021
21
11.9997858807
0
LINE
5
241
100
AcDbEntity
8
0
100
AcDbLine
62
7
6
CONTINUOUS
10
445.0002950648
20
21.4997843241
11
399.0003026021
21
21.4997843241
0
ENDBLK
5
242
100
AcDbEntity
8
0
100
AcDbBlockEnd
0
BLOCK
5
243
100
AcDbEntity
8
0
100
AcDbBlockBegin
62
2
6
CONTINUOUS
2
*D0
70
65
10
0.0000000000
20
0.0000000000
3
*D0
1

0
TEXT
5
244
100
AcDbEntity
8
0
100
AcDbText
62
2
6
CONTINUOUS
10
299.2359710149
20
181.9887845447
7
TEXTSTYLE_1
40
3.5000000000
1
40
50
90.0000000000
41
0.7666666667
72
0
100
AcDbText
0
TEXT
5
245
100
AcDbEntity
8
0
100
AcDbText
62
2
6
CONTINUOUS
10
299.2359710149
20
187.3554512114
7
TEXTSTYLE_1
40
3.5000000000
1
%%p0,02
50
90.0000000000
41
0.7366666667
72
0
100
AcDbText
0
LINE
5
246
100
AcDbEntity
8
0
100
AcDbLine
62
2
6
CONTINUOUS
10
333.9301241090
20
210.5892255233
11
329.3545812638
21
210.5892255233
0
LINE
5
247
100
AcDbEntity
8
0
100
AcDbLine
62
2
6
CONTINUOUS
10
315.8902594203
20
210.5892255233
11
296.9109710149
21
210.5892255233
0
LINE
5
248
100
AcDbEntity
8
0
100
AcDbLine
62
2
6
CONTINUOUS
10
333.9301241090
20
170.5892255233
11
330.0543081828
21
170.5892255233
0
LINE
5
249
100
AcDbEntity
8
0
100
AcDbLine
62
2
6
CONTINUOUS
10
312.6074992361
20
170.5892255233
11
296.9109710149
21
170.5892255233
0
LINE
5
24A
100
AcDbEntity
8
0
100
AcDbLine
62
2
6
CONTINUOUS
10
300.1109710149
20
210.5892255233
11
300.1109710149
21
190.5892255233
0
LINE
5
24B
100
AcDbEntity
8
0
100
AcDbLine
62
2
6
CONTINUOUS
10
300.1109710149
20
170.5892255233
11
300.1109710149
21
190.5892255233
0
SOLID
5
24C
100
AcDbEntity
8
0
100
AcDbTrace
62
2
6
CONTINUOUS
10
300.9109710149
20
206.0892255233
11
300.1109710149
21
210.5892255233
12
299.3109710149
22
206.0892255233
13
299.3109710149
23
206.0892255233
0
SOLID
5
24D
100
AcDbEntity
8
0
100
AcDbTrace
62
2
6
CONTINUOUS
10
299.3109710149
20
175.0892255233
11
300.1109710149
21
170.5892255233
12
300.9109710149
22
175.0892255233
13
300.9109710149
23
175.0892255233
0
ENDBLK
5
24E
100
AcDbEntity
8
0
100
AcDbBlockEnd
0
BLOCK
5
24F
100
AcDbEntity
8
0
100
AcDbBlockBegin
62
2
6
CONTINUOUS
2
*D1
70
65
10
0.0000000000
20
0.0000000000
3
*D1
1

0
TEXT
5
250
100
AcDbEntity
8
0
100
AcDbText
62
2
6
CONTINUOUS
10
307.8549348436
20
148.5344551494
7
TEXTSTYLE_1
40
3.5000000000
1
21,5
50
90.0000000000
41
0.5291666667
72
0
100
AcDbText
0
TEXT
5
251
100
AcDbEntity
8
0
100
AcDbText
62
2
6
CONTINUOUS
10
307.8549348436
20
155.9427884828
7
TEXTSTYLE_1
40
3.5000000000
1
%%p0,02
50
90.0000000000
41
0.7366666667
72
0
100
AcDbText
0
LINE
5
252
100
AcDbEntity
8
0
100
AcDbLine
62
2
6
CONTINUOUS
10
310.6977660788
20
170.5892255233
11
305.5299348436
21
170.5892255233
0
LINE
5
253
100
AcDbEntity
8
0
100
AcDbLine
62
2
6
CONTINUOUS
10
350.4301241090
20
192.0892255233
11
305.5299348436
21
192.0892255233
0
LINE
5
254
100
AcDbEntity
8
0
100
AcDbLine
62
2
6
CONTINUOUS
10
308.7299348436
20
170.5892255233
11
308.7299348436
21
181.3392255233
0
LINE
5
255
100
AcDbEntity
8
0
100
AcDbLine
62
2
6
CONTINUOUS
10
308.7299348436
20
181.3392255233
11
308.7299348436
21
148.5344551494
0
LINE
5
256
100
AcDbEntity
8
0
100
AcDbLine
62
2
6
CONTINUOUS
10
308.7299348436
20
192.0892255233
11
308.7299348436
21
181.3392255233
0
SOLID
5
257
100
AcDbEntity
8
0
100
AcDbTrace
62
2
6
CONTINUOUS
10
307.9299348436
20
175.0892255233
11
308.7299348436
21
170.5892255233
12
309.5299348436
22
175.0892255233
13
309.5299348436
23
175.0892255233
0
SOLID
5
258
100
AcDbEntity
8
0
100
AcDbTrace
62
2
6
CONTINUOUS
10
309.5299348436
20
187.5892255233
11
308.7299348436
21
192.0892255233
12
307.9299348436
22
187.5892255233
13
307.9299348436
23
187.5892255233
0
ENDBLK
5
259
100
AcDbEntity
8
0
100
AcDbBlockEnd
0
BLOCK
5
25A
100
AcDbEntity
8
0
100
AcDbBlockBegin
62
2
6
CONTINUOUS
2
*D2
70
65
10
0.0000000000
20
0.0000000000
3
*D2
1

0
TEXT
5
25B
100
AcDbEntity
8
0
100
AcDbText
62
2
6
CONTINUOUS
10
339.8640031234
20
154.7203137348
7
TEXTSTYLE_1
40
3.5000000000
1
16,5
41
0.5291666667
72
0
100
AcDbText
0
LINE
5
25C
100
AcDbEntity
8
0
100
AcDbLine
62
2
6
CONTINUOUS
10
335.4301241090
20
168.8195032364
11
335.4301241090
21
150.6453137348
0
LINE
5
25D
100
AcDbEntity
8
0
100
AcDbLine
62
2
6
CONTINUOUS
10
351.9301241090
20
190.5892255233
11
351.9301241090
21
150.6453137348
0
LINE
5
25E
100
AcDbEntity
8
0
100
AcDbLine
62
2
6
CONTINUOUS
10
335.4301241090
20
153.8453137348
11
343.6801241090
21
153.8453137348
0
LINE
5
25F
100
AcDbEntity
8
0
100
AcDbLine
62
2
6
CONTINUOUS
10
351.9301241090
20
153.8453137348
11
343.6801241090
21
153.8453137348
0
SOLID
5
260
100
AcDbEntity
8
0
100
AcDbTrace
62
2
6
CONTINUOUS
10
339.9301241090
20
154.6453137348
11
335.4301241090
21
153.8453137348
12
339.9301241090
22
153.0453137348
13
339.9301241090
23
153.0453137348
0
SOLID
5
261
100
AcDbEntity
8
0
100
AcDbTrace
62
2
6
CONTINUOUS
10
347.4301241090
20
153.0453137348
11
351.9301241090
21
153.8453137348
12
347.4301241090
22
154.6453137348
13
347.4301241090
23
154.6453137348
0
ENDBLK
5
262
100
AcDbEntity
8
0
100
AcDbBlockEnd
0
BLOCK
5
263
100
AcDbEntity
8
0
100
AcDbBlockBegin
62
2
6
CONTINUOUS
2
*D3
70
65
10
0.0000000000
20
0.0000000000
3
*D3
1

0
TEXT
5
264
100
AcDbEntity
8
0
100
AcDbText
62
2
6
CONTINUOUS
10
378.8926363481
20
161.8887761053
7
TEXTSTYLE_1
40
3.5000000000
1
8,5
50
20.0000000000
41
0.5944444444
72
0
100
AcDbText
0
LINE
5
265
100
AcDbEntity
8
0
100
AcDbLine
62
2
6
CONTINUOUS
10
360.8730943515
20
192.3709541206
11
362.6973249427
21
187.3589217633
0
LINE
5
266
100
AcDbEntity
8
0
100
AcDbLine
62
2
6
CONTINUOUS
10
365.2064217469
20
180.4652349506
11
374.1714955991
21
155.8338969780
0
LINE
5
267
100
AcDbEntity
8
0
100
AcDbLine
62
2
6
CONTINUOUS
10
348.8529291088
20
200.5437493015
11
366.1841083224
21
152.9267257597
0
LINE
5
268
100
AcDbEntity
8
0
100
AcDbLine
62
2
6
CONTINUOUS
10
373.0770311404
20
158.8409133645
11
385.0571520816
21
163.2013207900
0
LINE
5
269
100
AcDbEntity
8
0
100
AcDbLine
62
2
6
CONTINUOUS
10
385.0571520816
20
163.2013207900
11
369.0833375021
21
157.3873277554
0
LINE
5
26A
100
AcDbEntity
8
0
100
AcDbLine
62
2
6
CONTINUOUS
10
365.0896438637
20
155.9337421463
11
363.2102586222
21
155.2497018596
0
LINE
5
26B
100
AcDbEntity
8
0
100
AcDbLine
62
2
6
CONTINUOUS
10
363.2102586222
20
155.2497018596
11
369.0833375021
21
157.3873277554
0
SOLID
5
26C
100
AcDbEntity
8
0
100
AcDbTrace
62
2
6
CONTINUOUS
10
377.0320318193
20
161.1317581061
11
373.0770311404
21
158.8409133645
12
377.5792640486
22
159.6282499129
13
377.5792640486
23
159.6282499129
0
SOLID
5
26D
100
AcDbEntity
8
0
100
AcDbTrace
62
2
6
CONTINUOUS
10
361.1346431849
20
153.6428974047
11
365.0896438637
21
155.9337421463
12
360.5874109555
22
155.1464055979
13
360.5874109555
23
155.1464055979
0
ENDBLK
5
26E
100
AcDbEntity
8
0
100
AcDbBlockEnd
0
BLOCK
5
26F
100
AcDbEntity
8
0
100
AcDbBlockBegin
62
2
6
CONTINUOUS
2
*D4
70
65
10
0.0000000000
20
0.0000000000
3
*D4
1

0
TEXT
5
270
100
AcDbEntity
8
0
100
AcDbText
62
2
6
CONTINUOUS
10
344.2459789505
20
221.7086227641
7
TEXTSTYLE_1
40
3.5000000000
1
21
41
0.5333333333
72
0
100
AcDbText
0
LINE
5
271
100
AcDbEntity
8
0
100
AcDbLine
62
2
6
CONTINUOUS
10
335.4301241090
20
212.0892255233
11
335.4301241090
21
224.0336227641
0
LINE
5
272
100
AcDbEntity
8
0
100
AcDbLine
62
2
6
CONTINUOUS
10
356.4301241090
20
212.0892255233
11
356.4301241090
21
224.0336227641
0
LINE
5
273
100
AcDbEntity
8
0
100
AcDbLine
62
2
6
CONTINUOUS
10
335.4301241090
20
220.8336227641
11
345.9301241090
21
220.8336227641
0
LINE
5
274
100
AcDbEntity
8
0
100
AcDbLine
62
2
6
CONTINUOUS
10
356.4301241090
20
220.8336227641
11
345.9301241090
21
220.8336227641
0
SOLID
5
275
100
AcDbEntity
8
0
100
AcDbTrace
62
2
6
CONTINUOUS
10
339.9301241090
20
221.6336227641
11
335.4301241090
21
220.8336227641
12
339.9301241090
22
220.0336227641
13
339.9301241090
23
220.0336227641
0
SOLID
5
276
100
AcDbEntity
8
0
100
AcDbTrace
62
2
6
CONTINUOUS
10
351.9301241090
20
220.0336227641
11
356.4301241090
21
220.8336227641
12
351.9301241090
22
221.6336227641
13
351.9301241090
23
221.6336227641
0
ENDBLK
5
277
100
AcDbEntity
8
0
100
AcDbBlockEnd
0
BLOCK
5
278
100
AcDbEntity
8
0
100
AcDbBlockBegin
62
2
6
CONTINUOUS
2
*D5
70
65
10
0.0000000000
20
0.0000000000
3
*D5
1

0
TEXT
5
279
100
AcDbEntity
8
0
100
AcDbText
62
2
6
CONTINUOUS
10
372.0528885341
20
199.1515442029
7
TEXTSTYLE_1
40
3.5000000000
1
%%c
41
1.3333333333
72
0
100
AcDbText
0
TEXT
5
27A
100
AcDbEntity
8
0
100
AcDbText
62
2
6
CONTINUOUS
10
376.7195552007
20
199.1515442029
7
TEXTSTYLE_1
40
3.5000000000
1
17
41
0.5333333333
72
0
100
AcDbText
0
LINE
5
27B
100
AcDbEntity
8
0
100
AcDbLine
62
2
6
CONTINUOUS
10
343.9070437260
20
189.2820594847
11
351.9301241090
21
192.0892255233
0
LINE
5
27C
100
AcDbEntity
8
0
100
AcDbLine
62
2
6
CONTINUOUS
10
359.9532044920
20
194.8963915619
11
351.9301241090
21
192.0892255233
0
LINE
5
27D
100
AcDbEntity
8
0
100
AcDbLine
62
2
6
CONTINUOUS
10
351.9301241090
20
192.0892255233
11
369.6139213759
21
198.2765442029
0
LINE
5
27E
100
AcDbEntity
8
0
100
AcDbLine
62
2
6
CONTINUOUS
10
369.6139213759
20
198.2765442029
11
369.6139633759
21
198.2765442029
0
LINE
5
27F
100
AcDbEntity
8
0
100
AcDbLine
62
2
6
CONTINUOUS
10
369.6139633759
20
198.2765442029
11
385.7028885341
21
198.2765442029
0
SOLID
5
280
100
AcDbEntity
8
0
100
AcDbTrace
62
2
6
CONTINUOUS
10
347.8903530075
20
191.5233196588
11
343.9070437260
21
189.2820594847
12
348.4187607324
22
190.0130927632
13
348.4187607324
23
190.0130927632
0
SOLID
5
281
100
AcDbEntity
8
0
100
AcDbTrace
62
2
6
CONTINUOUS
10
355.9698952105
20
192.6551313878
11
359.9532044920
21
194.8963915619
12
355.4414874856
22
194.1653582834
13
355.4414874856
23
194.1653582834
0
ENDBLK
5
282
100
AcDbEntity
8
0
100
AcDbBlockEnd
0
BLOCK
5
283
100
AcDbEntity
8
0
100
AcDbBlockBegin
62
2
6
CONTINUOUS
2
*D6
70
65
10
0.0000000000
20
0.0000000000
3
*D6
1

0
TEXT
5
284
100
AcDbEntity
8
0
100
AcDbText
62
2
6
CONTINUOUS
10
325.1832896729
20
183.2460485533
7
TEXTSTYLE_1
40
3.5000000000
1
2
50
4.7279564729
41
0.7333333333
72
0
100
AcDbText
0
TEXT
5
285
100
AcDbEntity
8
0
100
AcDbText
62
2
6
CONTINUOUS
10
327.7412227114
20
183.4576055159
7
TEXTSTYLE_1
40
3.5000000000
1
R
50
4.7279564729
41
0.7666666667
72
0
100
AcDbText
0
TEXT
5
286
100
AcDbEntity
8
0
100
AcDbText
62
2
6
CONTINUOUS
10
330.4154254334
20
183.6787787041
7
TEXTSTYLE_1
40
3.5000000000
1
3
50
4.7279564729
41
0.7333333333
72
0
100
AcDbText
0
LINE
5
287
100
AcDbEntity
8
0
100
AcDbLine
62
2
6
CONTINUOUS
10
346.8344733752
20
184.1587484921
11
325.2554113647
21
182.3740259266
0
SOLID
5
288
100
AcDbEntity
8
0
100
AcDbTrace
62
2
6
CONTINUOUS
10
342.4157254129
20
182.9905591041
11
346.8344733752
21
184.1587484921
12
342.2838457479
22
184.5851147645
13
342.2838457479
23
184.5851147645
0
ENDBLK
5
289
100
AcDbEntity
8
0
100
AcDbBlockEnd
0
BLOCK
5
28A
100
AcDbEntity
8
0
100
AcDbBlockBegin
62
2
6
CONTINUOUS
2
*D7
70
65
10
0.0000000000
20
0.0000000000
3
*D7
1

0
TEXT
5
28B
100
AcDbEntity
8
0
100
AcDbText
62
2
6
CONTINUOUS
10
326.1332145665
20
218.7036065753
7
TEXTSTYLE_1
40
3.5000000000
1
3,5
50
60.0000000000
41
0.5944444444
72
0
100
AcDbText
0
LINE
5
28C
100
AcDbEntity
8
0
100
AcDbLine
62
2
6
CONTINUOUS
10
334.1310860033
20
206.4069568493
11
320.7945678398
21
214.1067992010
0
LINE
5
28D
100
AcDbEntity
8
0
100
AcDbLine
62
2
6
CONTINUOUS
10
354.4674401504
20
190.6243054238
11
319.0445678398
21
211.0757102878
0
LINE
5
28E
100
AcDbEntity
8
0
100
AcDbLine
62
2
6
CONTINUOUS
10
323.5658491319
20
212.5067992010
11
330.0118201281
21
223.6715484705
0
LINE
5
28F
100
AcDbEntity
8
0
100
AcDbLine
62
2
6
CONTINUOUS
10
330.0118201281
20
223.6715484705
11
322.6908491319
21
210.9912547444
0
LINE
5
290
100
AcDbEntity
8
0
100
AcDbLine
62
2
6
CONTINUOUS
10
321.8158491319
20
209.4757102878
11
320.8158491319
21
207.7436594802
0
LINE
5
291
100
AcDbEntity
8
0
100
AcDbLine
62
2
6
CONTINUOUS
10
320.8158491319
20
207.7436594802
11
322.6908491319
21
210.9912547444
0
SOLID
5
292
100
AcDbEntity
8
0
100
AcDbTrace
62
2
6
CONTINUOUS
10
325.1230288089
20
216.8039135180
11
323.5658491319
21
212.5067992010
12
326.5086694550
22
216.0039135180
13
326.5086694550
23
216.0039135180
0
SOLID
5
293
100
AcDbEntity
8
0
100
AcDbTrace
62
2
6
CONTINUOUS
10
320.2586694550
20
205.1785959707
11
321.8158491319
21
209.4757102878
12
318.8730288089
22
205.9785959707
13
318.8730288089
23
205.9785959707
0
ENDBLK
5
294
100
AcDbEntity
8
0
100
AcDbBlockEnd
0
BLOCK
5
295
100
AcDbEntity
8
0
100
AcDbBlockBegin
62
2
6
CONTINUOUS
2
*D8
70
65
10
0.0000000000
20
0.0000000000
3
*D8
1

0
TEXT
5
296
100
AcDbEntity
8
0
100
AcDbText
62
2
6
CONTINUOUS
10
364.0627113358
20
132.0919468685
7
TEXTSTYLE_1
40
3.5000000000
1
20%%d
41
0.7111111111
72
0
100
AcDbText
0
LINE
5
297
100
AcDbEntity
8
0
100
AcDbLine
62
2
6
CONTINUOUS
10
351.9301241090
20
142.5034796069
11
351.9301241090
21
129.1408913913
0
LINE
5
298
100
AcDbEntity
8
0
100
AcDbLine
62
2
6
CONTINUOUS
10
368.0761431842
20
172.5807401014
11
381.9597223709
21
134.4359197847
0
ARC
5
299
100
AcDbEntity
8
0
100
AcDbCircle
62
2
6
CONTINUOUS
10
351.9301241090
20
216.9415629247
40
84.6006715334
100
AcDbArc
50
270.0000000000
51
277.0493757053
0
ARC
5
29A
100
AcDbEntity
8
0
100
AcDbCircle
62
2
6
CONTINUOUS
10
351.9301241090
20
216.9415629247
40
84.6006715334
100
AcDbArc
50
284.6168088404
51
290.0000000000
0
SOLID
5
29B
100
AcDbEntity
8
0
100
AcDbTrace
62
2
6
CONTINUOUS
10
351.9301241090
20
132.3408913913
11
356.4072588086
21
133.2602742719
12
356.4498066461
22
131.6608400965
13
356.4498066461
23
131.6608400965
0
SOLID
5
29C
100
AcDbEntity
8
0
100
AcDbTrace
62
2
6
CONTINUOUS
10
380.8652579123
20
137.4429361712
11
376.8507368252
21
135.2580745186
12
376.3436800082
22
136.7756032281
13
376.3436800082
23
136.7756032281
0
ENDBLK
5
29D
100
AcDbEntity
8
0
100
AcDbBlockEnd
0
BLOCK
5
29E
100
AcDbEntity
8
0
100
AcDbBlockBegin
62
2
6
CONTINUOUS
2
*D9
70
65
10
0.0000000000
20
0.0000000000
3
*D9
1

0
TEXT
5
29F
100
AcDbEntity
8
0
100
AcDbText
62
2
6
CONTINUOUS
10
284.5276116999
20
209.1155632279
7
TEXTSTYLE_1
40
3.5000000000
1
30%%d
41
0.7111111111
72
0
100
AcDbText
0
LINE
5
2A0
100
AcDbEntity
8
0
100
AcDbLine
62
2
6
CONTINUOUS
10
334.5527597221
20
206.1635034142
11
292.8341809810
21
230.2497360806
0
LINE
5
2A1
100
AcDbEntity
8
0
100
AcDbLine
62
2
6
CONTINUOUS
10
289.8145056451
20
192.0892255233
11
282.6091029944
21
192.0892255233
0
ARC
5
2A2
100
AcDbEntity
8
0
100
AcDbCircle
62
2
6
CONTINUOUS
10
358.9301241090
20
192.0892255233
40
73.1210211146
100
AcDbArc
50
150.0000000000
51
162.2628763662
0
ARC
5
2A3
100
AcDbEntity
8
0
100
AcDbCircle
62
2
6
CONTINUOUS
10
358.9301241090
20
192.0892255233
40
73.1210211146
100
AcDbArc
50
167.9410159537
51
180.0000000000
0
SOLID
5
2A4
100
AcDbEntity
8
0
100
AcDbTrace
62
2
6
CONTINUOUS
10
295.6054622731
20
228.6497360806
11
294.1812249761
21
224.3067476945
12
292.7716274347
22
225.0637382964
13
292.7716274347
23
225.0637382964
0
SOLID
5
2A5
100
AcDbEntity
8
0
100
AcDbTrace
62
2
6
CONTINUOUS
10
285.8091029944
20
192.0892255233
11
285.1479289263
21
196.6117081216
12
286.7471715072
22
196.5624824425
13
286.7471715072
23
196.5624824425
0
ENDBLK
5
2A6
100
AcDbEntity
8
0
100
AcDbBlockEnd
0
BLOCK
5
2A7
100
AcDbEntity
8
0
100
AcDbBlockBegin
62
2
6
CONTINUOUS
2
*D10
70
65
10
0.0000000000
20
0.0000000000
3
*D10
1

0
TEXT
5
2A8
100
AcDbEntity
8
0
100
AcDbText
62
2
6
CONTINUOUS
10
363.8756775602
20
207.1235876948
7
TEXTSTYLE_1
40
3.5000000000
1
R
50
14.0753026775
41
0.7666666667
72
0
100
AcDbText
0
TEXT
5
2A9
100
AcDbEntity
8
0
100
AcDbText
62
2
6
CONTINUOUS
10
366.4784490034
20
207.7761661135
7
TEXTSTYLE_1
40
3.5000000000
1
3
50
14.0753026775
41
0.7333333333
72
0
100
AcDbText
0
LINE
5
2AA
100
AcDbEntity
8
0
100
AcDbLine
62
2
6
CONTINUOUS
10
356.5201933030
20
204.3773047006
11
369.1808537812
21
207.5516417391
0
SOLID
5
2AB
100
AcDbEntity
8
0
100
AcDbTrace
62
2
6
CONTINUOUS
10
360.6905319710
20
206.2476724169
11
356.5201933030
21
204.3773047006
12
361.0796470530
22
204.6957093204
13
361.0796470530
23
204.6957093204
0
ENDBLK
5
2AC
100
AcDbEntity
8
0
100
AcDbBlockEnd
0
BLOCK
5
2AD
100
AcDbEntity
8
0
100
AcDbBlockBegin
62
2
6
CONTINUOUS
2
*D11
70
65
10
0.0000000000
20
0.0000000000
3
*D11
1

0
TEXT
5
2AE
100
AcDbEntity
8
0
100
AcDbText
62
2
6
CONTINUOUS
10
176.9099543498
20
268.6451470388
7
TEXTSTYLE_1
40
3.5000000000
1
=
50
90.0000000000
41
0.4000000000
72
0
100
AcDbText
0
TEXT
5
2AF
100
AcDbEntity
8
0
100
AcDbText
62
2
6
CONTINUOUS
10
176.9099543498
20
286.6701470388
7
TEXTSTYLE_1
40
3.5000000000
1
=
50
90.0000000000
41
0.4000000000
72
0
100
AcDbText
0
TEXT
5
2B0
100
AcDbEntity
8
0
100
AcDbText
62
2
6
CONTINUOUS
10
176.9099543498
20
270.0451470388
7
TEXTSTYLE_1
40
3.5000000000
1
12
50
90.0000000000
41
0.5333333333
72
0
100
AcDbText
0
TEXT
5
2B1
100
AcDbEntity
8
0
100
AcDbText
62
2
6
CONTINUOUS
10
176.9099543498
20
273.7784803722
7
TEXTSTYLE_1
40
3.5000000000
1
%%p0,05
50
90.0000000000
41
0.7366666667
72
0
100
AcDbText
0
LINE
5
2B2
100
AcDbEntity
8
0
100
AcDbLine
62
2
6
CONTINUOUS
10
164.4729594753
20
262.4715909588
11
180.9849543498
21
262.4715909588
0
LINE
5
2B3
100
AcDbEntity
8
0
100
AcDbLine
62
2
6
CONTINUOUS
10
164.4729594753
20
250.4715909588
11
180.9849543498
21
250.4715909588
0
LINE
5
2B4
100
AcDbEntity
8
0
100
AcDbLine
62
2
6
CONTINUOUS
10
177.7849543498
20
262.4715909588
11
177.7849543498
21
288.0701470388
0
LINE
5
2B5
100
AcDbEntity
8
0
100
AcDbLine
62
2
6
CONTINUOUS
10
177.7849543498
20
288.0701470388
11
177.7849543498
21
256.4715909588
0
LINE
5
2B6
100
AcDbEntity
8
0
100
AcDbLine
62
2
6
CONTINUOUS
10
177.7849543498
20
250.4715909588
11
177.7849543498
21
248.4715909588
0
LINE
5
2B7
100
AcDbEntity
8
0
100
AcDbLine
62
2
6
CONTINUOUS
10
177.7849543498
20
248.4715909588
11
177.7849543498
21
256.4715909588
0
SOLID
5
2B8
100
AcDbEntity
8
0
100
AcDbTrace
62
2
6
CONTINUOUS
10
176.9849543498
20
266.9715909588
11
177.7849543498
21
262.4715909588
12
178.5849543498
22
266.9715909588
13
178.5849543498
23
266.9715909588
0
SOLID
5
2B9
100
AcDbEntity
8
0
100
AcDbTrace
62
2
6
CONTINUOUS
10
178.5849543498
20
245.9715909588
11
177.7849543498
21
250.4715909588
12
176.9849543498
22
245.9715909588
13
176.9849543498
23
245.9715909588
0
ENDBLK
5
2BA
100
AcDbEntity
8
0
100
AcDbBlockEnd
0
BLOCK
5
2BB
100
AcDbEntity
8
0
100
AcDbBlockBegin
62
2
6
CONTINUOUS
2
*D12
70
65
10
0.0000000000
20
0.0000000000
3
*D12
1

0
TEXT
5
2BC
100
AcDbEntity
8
0
100
AcDbText
62
2
6
CONTINUOUS
10
147.2116842409
20
272.3083205186
7
TEXTSTYLE_1
40
3.5000000000
1
=
41
0.4000000000
72
0
100
AcDbText
0
TEXT
5
2BD
100
AcDbEntity
8
0
100
AcDbText
62
2
6
CONTINUOUS
10
152.3450175742
20
272.3083205186
7
TEXTSTYLE_1
40
3.5000000000
1
=
41
0.4000000000
72
0
100
AcDbText
0
TEXT
5
2BE
100
AcDbEntity
8
0
100
AcDbText
62
2
6
CONTINUOUS
10
148.6116842409
20
272.3083205186
7
TEXTSTYLE_1
40
3.5000000000
1
10
41
0.5333333333
72
0
100
AcDbText
0
LINE
5
2BF
100
AcDbEntity
8
0
100
AcDbLine
62
2
6
CONTINUOUS
10
145.4729594753
20
264.6215909588
11
145.4729594753
21
274.6333205186
0
LINE
5
2C0
100
AcDbEntity
8
0
100
AcDbLine
62
2
6
CONTINUOUS
10
155.4729594753
20
264.6215909588
11
155.4729594753
21
274.6333205186
0
LINE
5
2C1
100
AcDbEntity
8
0
100
AcDbLine
62
2
6
CONTINUOUS
10
145.4729594753
20
271.4333205186
11
143.4729594753
21
271.4333205186
0
LINE
5
2C2
100
AcDbEntity
8
0
100
AcDbLine
62
2
6
CONTINUOUS
10
143.4729594753
20
271.4333205186
11
150.4729594753
21
271.4333205186
0
LINE
5
2C3
100
AcDbEntity
8
0
100
AcDbLine
62
2
6
CONTINUOUS
10
155.4729594753
20
271.4333205186
11
157.4729594753
21
271.4333205186
0
LINE
5
2C4
100
AcDbEntity
8
0
100
AcDbLine
62
2
6
CONTINUOUS
10
157.4729594753
20
271.4333205186
11
150.4729594753
21
271.4333205186
0
SOLID
5
2C5
100
AcDbEntity
8
0
100
AcDbTrace
62
2
6
CONTINUOUS
10
140.9729594753
20
270.6333205186
11
145.4729594753
21
271.4333205186
12
140.9729594753
22
272.2333205186
13
140.9729594753
23
272.2333205186
0
SOLID
5
2C6
100
AcDbEntity
8
0
100
AcDbTrace
62
2
6
CONTINUOUS
10
159.9729594753
20
272.2333205186
11
155.4729594753
21
271.4333205186
12
159.9729594753
22
270.6333205186
13
159.9729594753
23
270.6333205186
0
ENDBLK
5
2C7
100
AcDbEntity
8
0
100
AcDbBlockEnd
0
BLOCK
5
2C8
100
AcDbEntity
8
0
100
AcDbBlockBegin
62
2
6
CONTINUOUS
2
*D13
70
65
10
0.0000000000
20
0.0000000000
3
*D13
1

0
TEXT
5
2C9
100
AcDbEntity
8
0
100
AcDbText
62
2
6
CONTINUOUS
10
126.2273328057
20
75.5005576938
7
TEXTSTYLE_1
40
3.5000000000
1
%%c
41
1.3333333333
72
0
100
AcDbText
0
TEXT
5
2CA
100
AcDbEntity
8
0
100
AcDbText
62
2
6
CONTINUOUS
10
130.8939994724
20
75.5005576938
7
TEXTSTYLE_1
40
3.5000000000
1
10
41
0.5333333333
72
0
100
AcDbText
0
LINE
5
2CB
100
AcDbEntity
8
0
100
AcDbLine
62
2
6
CONTINUOUS
10
151.4729594753
20
65.9260169896
11
151.4729594753
21
77.8255576938
0
LINE
5
2CC
100
AcDbEntity
8
0
100
AcDbLine
62
2
6
CONTINUOUS
10
141.4729594753
20
65.9260169896
11
141.4729594753
21
77.8255576938
0
LINE
5
2CD
100
AcDbEntity
8
0
100
AcDbLine
62
2
6
CONTINUOUS
10
151.4729594753
20
74.6255576938
11
153.4729594753
21
74.6255576938
0
LINE
5
2CE
100
AcDbEntity
8
0
100
AcDbLine
62
2
6
CONTINUOUS
10
153.4729594753
20
74.6255576938
11
146.4729594753
21
74.6255576938
0
LINE
5
2CF
100
AcDbEntity
8
0
100
AcDbLine
62
2
6
CONTINUOUS
10
141.4729594753
20
74.6255576938
11
126.2273328057
21
74.6255576938
0
LINE
5
2D0
100
AcDbEntity
8
0
100
AcDbLine
62
2
6
CONTINUOUS
10
126.2273328057
20
74.6255576938
11
146.4729594753
21
74.6255576938
0
SOLID
5
2D1
100
AcDbEntity
8
0
100
AcDbTrace
62
2
6
CONTINUOUS
10
155.9729594753
20
75.4255576938
11
151.4729594753
21
74.6255576938
12
155.9729594753
22
73.8255576938
13
155.9729594753
23
73.8255576938
0
SOLID
5
2D2
100
AcDbEntity
8
0
100
AcDbTrace
62
2
6
CONTINUOUS
10
136.9729594753
20
73.8255576938
11
141.4729594753
21
74.6255576938
12
136.9729594753
22
75.4255576938
13
136.9729594753
23
75.4255576938
0
ENDBLK
5
2D3
100
AcDbEntity
8
0
100
AcDbBlockEnd
0
BLOCK
5
2D4
100
AcDbEntity
8
0
100
AcDbBlockBegin
62
2
6
CONTINUOUS
2
*D14
70
65
10
0.0000000000
20
0.0000000000
3
*D14
1

0
TEXT
5
2D5
100
AcDbEntity
8
0
100
AcDbText
62
2
6
CONTINUOUS
10
160.3789667129
20
43.0335896855
7
TEXTSTYLE_1
40
3.5000000000
1
%%c
41
1.3333333333
72
0
100
AcDbText
0
TEXT
5
2D6
100
AcDbEntity
8
0
100
AcDbText
62
2
6
CONTINUOUS
10
168.7789667129
20
43.0335896855
7
TEXTSTYLE_1
40
3.5000000000
1
H7
41
0.7666666667
72
0
100
AcDbText
0
TEXT
5
2D7
100
AcDbEntity
8
0
100
AcDbText
62
2
6
CONTINUOUS
10
165.0456333796
20
43.0335896855
7
TEXTSTYLE_1
40
3.5000000000
1
13
41
0.5333333333
72
0
100
AcDbText
0
LINE
5
2D8
100
AcDbEntity
8
0
100
AcDbLine
62
2
6
CONTINUOUS
10
139.9729594753
20
50.9260169896
11
139.9729594753
21
38.9585896855
0
LINE
5
2D9
100
AcDbEntity
8
0
100
AcDbLine
62
2
6
CONTINUOUS
10
152.9729594753
20
50.9260169896
11
152.9729594753
21
38.9585896855
0
LINE
5
2DA
100
AcDbEntity
8
0
100
AcDbLine
62
2
6
CONTINUOUS
10
139.9729594753
20
42.1585896855
11
137.9729594753
21
42.1585896855
0
LINE
5
2DB
100
AcDbEntity
8
0
100
AcDbLine
62
2
6
CONTINUOUS
10
137.9729594753
20
42.1585896855
11
146.4729594753
21
42.1585896855
0
LINE
5
2DC
100
AcDbEntity
8
0
100
AcDbLine
62
2
6
CONTINUOUS
10
152.9729594753
20
42.1585896855
11
174.1456333796
21
42.1585896855
0
LINE
5
2DD
100
AcDbEntity
8
0
100
AcDbLine
62
2
6
CONTINUOUS
10
174.1456333796
20
42.1585896855
11
146.4729594753
21
42.1585896855
0
SOLID
5
2DE
100
AcDbEntity
8
0
100
AcDbTrace
62
2
6
CONTINUOUS
10
135.4729594753
20
41.3585896855
11
139.9729594753
21
42.1585896855
12
135.4729594753
22
42.9585896855
13
135.4729594753
23
42.9585896855
0
SOLID
5
2DF
100
AcDbEntity
8
0
100
AcDbTrace
62
2
6
CONTINUOUS
10
157.4729594753
20
42.9585896855
11
152.9729594753
21
42.1585896855
12
157.4729594753
22
41.3585896855
13
157.4729594753
23
41.3585896855
0
ENDBLK
5
2E0
100
AcDbEntity
8
0
100
AcDbBlockEnd
0
BLOCK
5
2E1
100
AcDbEntity
8
0
100
AcDbBlockBegin
62
2
6
CONTINUOUS
2
*D15
70
65
10
0.0000000000
20
0.0000000000
3
*D15
1

0
TEXT
5
2E2
100
AcDbEntity
8
0
100
AcDbText
62
2
6
CONTINUOUS
10
120.4768294558
20
29.4019424357
7
TEXTSTYLE_1
40
3.5000000000
1
10
50
90.0000000000
41
0.5333333333
72
0
100
AcDbText
0
TEXT
5
2E3
100
AcDbEntity
8
0
100
AcDbText
62
2
6
CONTINUOUS
10
120.4768294558
20
33.1352757691
7
TEXTSTYLE_1
40
3.5000000000
1
%%p0,05
50
90.0000000000
41
0.7366666667
72
0
100
AcDbText
0
LINE
5
2E4
100
AcDbEntity
8
0
100
AcDbLine
62
2
6
CONTINUOUS
10
138.4729594753
20
62.4260169896
11
118.1518294558
21
62.4260169896
0
LINE
5
2E5
100
AcDbEntity
8
0
100
AcDbLine
62
2
6
CONTINUOUS
10
138.4729594753
20
52.4260169896
11
118.1518294558
21
52.4260169896
0
LINE
5
2E6
100
AcDbEntity
8
0
100
AcDbLine
62
2
6
CONTINUOUS
10
121.3518294558
20
62.4260169896
11
121.3518294558
21
64.4260169896
0
LINE
5
2E7
100
AcDbEntity
8
0
100
AcDbLine
62
2
6
CONTINUOUS
10
121.3518294558
20
64.4260169896
11
121.3518294558
21
57.4260169896
0
LINE
5
2E8
100
AcDbEntity
8
0
100
AcDbLine
62
2
6
CONTINUOUS
10
121.3518294558
20
52.4260169896
11
121.3518294558
21
29.4019424357
0
LINE
5
2E9
100
AcDbEntity
8
0
100
AcDbLine
62
2
6
CONTINUOUS
10
121.3518294558
20
29.4019424357
11
121.3518294558
21
57.4260169896
0
SOLID
5
2EA
100
AcDbEntity
8
0
100
AcDbTrace
62
2
6
CONTINUOUS
10
120.5518294558
20
66.9260169896
11
121.3518294558
21
62.4260169896
12
122.1518294558
22
66.9260169896
13
122.1518294558
23
66.9260169896
0
SOLID
5
2EB
100
AcDbEntity
8
0
100
AcDbTrace
62
2
6
CONTINUOUS
10
122.1518294558
20
47.9260169896
11
121.3518294558
21
52.4260169896
12
120.5518294558
22
47.9260169896
13
120.5518294558
23
47.9260169896
0
ENDBLK
5
2EC
100
AcDbEntity
8
0
100
AcDbBlockEnd
0
BLOCK
5
2ED
100
AcDbEntity
8
0
100
AcDbBlockBegin
62
2
6
CONTINUOUS
2
*D16
70
65
10
0.0000000000
20
0.0000000000
3
*D16
1

0
TEXT
5
2EE
100
AcDbEntity
8
0
100
AcDbText
62
2
6
CONTINUOUS
10
158.6977458855
20
222.1026517962
7
TEXTSTYLE_1
40
3.5000000000
1
4
41
0.8000000000
72
0
100
AcDbText
0
TEXT
5
2EF
100
AcDbEntity
8
0
100
AcDbText
62
2
6
CONTINUOUS
10
161.4977458855
20
222.1026517962
7
TEXTSTYLE_1
40
3.5000000000
1
%%p0,02
41
0.7366666667
72
0
100
AcDbText
0
LINE
5
2F0
100
AcDbEntity
8
0
100
AcDbLine
62
2
6
CONTINUOUS
10
146.4729594753
20
215.4137390864
11
146.4729594753
21
224.4276517962
0
LINE
5
2F1
100
AcDbEntity
8
0
100
AcDbLine
62
2
6
CONTINUOUS
10
150.4729594753
20
169.5892255233
11
150.4729594753
21
224.4276517962
0
LINE
5
2F2
100
AcDbEntity
8
0
100
AcDbLine
62
2
6
CONTINUOUS
10
146.4729594753
20
221.2276517962
11
144.4729594753
21
221.2276517962
0
LINE
5
2F3
100
AcDbEntity
8
0
100
AcDbLine
62
2
6
CONTINUOUS
10
144.4729594753
20
221.2276517962
11
148.4729594753
21
221.2276517962
0
LINE
5
2F4
100
AcDbEntity
8
0
100
AcDbLine
62
2
6
CONTINUOUS
10
150.4729594753
20
221.2276517962
11
174.3894125522
21
221.2276517962
0
LINE
5
2F5
100
AcDbEntity
8
0
100
AcDbLine
62
2
6
CONTINUOUS
10
174.3894125522
20
221.2276517962
11
148.4729594753
21
221.2276517962
0
SOLID
5
2F6
100
AcDbEntity
8
0
100
AcDbTrace
62
2
6
CONTINUOUS
10
141.9729594753
20
220.4276517962
11
146.4729594753
21
221.2276517962
12
141.9729594753
22
222.0276517962
13
141.9729594753
23
222.0276517962
0
SOLID
5
2F7
100
AcDbEntity
8
0
100
AcDbTrace
62
2
6
CONTINUOUS
10
154.9729594753
20
222.0276517962
11
150.4729594753
21
221.2276517962
12
154.9729594753
22
220.4276517962
13
154.9729594753
23
220.4276517962
0
ENDBLK
5
2F8
100
AcDbEntity
8
0
100
AcDbBlockEnd
0
BLOCK
5
2F9
100
AcDbEntity
8
0
100
AcDbBlockBegin
62
2
6
CONTINUOUS
2
*D17
70
65
10
0.0000000000
20
0.0000000000
3
*D17
1

0
TEXT
5
2FA
100
AcDbEntity
8
0
100
AcDbText
62
2
6
CONTINUOUS
10
218.0029698202
20
224.1391579583
7
TEXTSTYLE_1
40
3.5000000000
1
M
41
0.9333333333
72
0
100
AcDbText
0
TEXT
5
2FB
100
AcDbEntity
8
0
100
AcDbText
62
2
6
CONTINUOUS
10
221.2696364869
20
224.1391579583
7
TEXTSTYLE_1
40
3.5000000000
1
3
41
0.7333333333
72
0
100
AcDbText
0
LINE
5
2FC
100
AcDbEntity
8
0
100
AcDbLine
62
2
6
CONTINUOUS
10
230.9857817104
20
212.0892255233
11
230.9857817104
21
226.4641579583
0
LINE
5
2FD
100
AcDbEntity
8
0
100
AcDbLine
62
2
6
CONTINUOUS
10
233.9857817104
20
212.0892255233
11
233.9857817104
21
226.4641579583
0
LINE
5
2FE
100
AcDbEntity
8
0
100
AcDbLine
62
2
6
CONTINUOUS
10
230.9857817104
20
223.2641579583
11
218.0029698202
21
223.2641579583
0
LINE
5
2FF
100
AcDbEntity
8
0
100
AcDbLine
62
2
6
CONTINUOUS
10
218.0029698202
20
223.2641579583
11
232.4857817104
21
223.2641579583
0
LINE
5
300
100
AcDbEntity
8
0
100
AcDbLine
62
2
6
CONTINUOUS
10
233.9857817104
20
223.2641579583
11
235.9857817104
21
223.2641579583
0
LINE
5
301
100
AcDbEntity
8
0
100
AcDbLine
62
2
6
CONTINUOUS
10
235.9857817104
20
223.2641579583
11
232.4857817104
21
223.2641579583
0
SOLID
5
302
100
AcDbEntity
8
0
100
AcDbTrace
62
2
6
CONTINUOUS
10
226.4857817104
20
222.4641579583
11
230.9857817104
21
223.2641579583
12
226.4857817104
22
224.0641579583
13
226.4857817104
23
224.0641579583
0
SOLID
5
303
100
AcDbEntity
8
0
100
AcDbTrace
62
2
6
CONTINUOUS
10
238.4857817104
20
224.0641579583
11
233.9857817104
21
223.2641579583
12
238.4857817104
22
222.4641579583
13
238.4857817104
23
222.4641579583
0
ENDBLK
5
304
100
AcDbEntity
8
0
100
AcDbBlockEnd
0
BLOCK
5
305
100
AcDbEntity
8
0
100
AcDbBlockBegin
62
2
6
CONTINUOUS
2
*D18
70
65
10
0.0000000000
20
0.0000000000
3
*D18
1

0
TEXT
5
306
100
AcDbEntity
8
0
100
AcDbText
62
2
6
CONTINUOUS
10
122.3988786490
20
172.7442521220
7
TEXTSTYLE_1
40
3.5000000000
1
7
50
90.0000000000
41
0.7333333333
72
0
100
AcDbText
0
LINE
5
307
100
AcDbEntity
8
0
100
AcDbLine
62
2
6
CONTINUOUS
10
142.8224904390
20
177.5892255233
11
120.0738786490
21
177.5892255233
0
LINE
5
308
100
AcDbEntity
8
0
100
AcDbLine
62
2
6
CONTINUOUS
10
141.9729594753
20
170.5892255233
11
120.0738786490
21
170.5892255233
0
LINE
5
309
100
AcDbEntity
8
0
100
AcDbLine
62
2
6
CONTINUOUS
10
123.2738786490
20
177.5892255233
11
123.2738786490
21
179.5892255233
0
LINE
5
30A
100
AcDbEntity
8
0
100
AcDbLine
62
2
6
CONTINUOUS
10
123.2738786490
20
179.5892255233
11
123.2738786490
21
174.0892255233
0
LINE
5
30B
100
AcDbEntity
8
0
100
AcDbLine
62
2
6
CONTINUOUS
10
123.2738786490
20
170.5892255233
11
123.2738786490
21
168.5892255233
0
LINE
5
30C
100
AcDbEntity
8
0
100
AcDbLine
62
2
6
CONTINUOUS
10
123.2738786490
20
168.5892255233
11
123.2738786490
21
174.0892255233
0
SOLID
5
30D
100
AcDbEntity
8
0
100
AcDbTrace
62
2
6
CONTINUOUS
10
122.4738786490
20
182.0892255233
11
123.2738786490
21
177.5892255233
12
124.0738786490
22
182.0892255233
13
124.0738786490
23
182.0892255233
0
SOLID
5
30E
100
AcDbEntity
8
0
100
AcDbTrace
62
2
6
CONTINUOUS
10
124.0738786490
20
166.0892255233
11
123.2738786490
21
170.5892255233
12
122.4738786490
22
166.0892255233
13
122.4738786490
23
166.0892255233
0
ENDBLK
5
30F
100
AcDbEntity
8
0
100
AcDbBlockEnd
0
BLOCK
5
310
100
AcDbEntity
8
0
100
AcDbBlockBegin
62
2
6
CONTINUOUS
2
*D19
70
65
10
0.0000000000
20
0.0000000000
3
*D19
1

0
TEXT
5
311
100
AcDbEntity
8
0
100
AcDbText
62
2
6
CONTINUOUS
10
172.3995940090
20
172.2631730162
7
TEXTSTYLE_1
40
3.5000000000
1
6
50
90.0000000000
41
0.7333333333
72
0
100
AcDbText
0
LINE
5
312
100
AcDbEntity
8
0
100
AcDbLine
62
2
6
CONTINUOUS
10
163.6419065317
20
170.5892255233
11
176.4745940090
21
170.5892255233
0
LINE
5
313
100
AcDbEntity
8
0
100
AcDbLine
62
2
6
CONTINUOUS
10
152.4406774928
20
176.5892255233
11
176.4745940090
21
176.5892255233
0
LINE
5
314
100
AcDbEntity
8
0
100
AcDbLine
62
2
6
CONTINUOUS
10
173.2745940090
20
170.5892255233
11
173.2745940090
21
168.5892255233
0
LINE
5
315
100
AcDbEntity
8
0
100
AcDbLine
62
2
6
CONTINUOUS
10
173.2745940090
20
168.5892255233
11
173.2745940090
21
173.5892255233
0
LINE
5
316
100
AcDbEntity
8
0
100
AcDbLine
62
2
6
CONTINUOUS
10
173.2745940090
20
176.5892255233
11
173.2745940090
21
178.5892255233
0
LINE
5
317
100
AcDbEntity
8
0
100
AcDbLine
62
2
6
CONTINUOUS
10
173.2745940090
20
178.5892255233
11
173.2745940090
21
173.5892255233
0
SOLID
5
318
100
AcDbEntity
8
0
100
AcDbTrace
62
2
6
CONTINUOUS
10
174.0745940090
20
166.0892255233
11
173.2745940090
21
170.5892255233
12
172.4745940090
22
166.0892255233
13
172.4745940090
23
166.0892255233
0
SOLID
5
319
100
AcDbEntity
8
0
100
AcDbTrace
62
2
6
CONTINUOUS
10
172.4745940090
20
181.0892255233
11
173.2745940090
21
176.5892255233
12
174.0745940090
22
181.0892255233
13
174.0745940090
23
181.0892255233
0
ENDBLK
5
31A
100
AcDbEntity
8
0
100
AcDbBlockEnd
0
BLOCK
5
31B
100
AcDbEntity
8
0
100
AcDbBlockBegin
62
2
6
CONTINUOUS
2
*D20
70
65
10
0.0000000000
20
0.0000000000
3
*D20
1

0
TEXT
5
31C
100
AcDbEntity
8
0
100
AcDbText
62
2
6
CONTINUOUS
10
128.6141551877
20
158.9964467010
7
TEXTSTYLE_1
40
3.5000000000
1
2M
41
0.8333333333
72
0
100
AcDbText
0
TEXT
5
31D
100
AcDbEntity
8
0
100
AcDbText
62
2
6
CONTINUOUS
10
134.4474885211
20
158.9964467010
7
TEXTSTYLE_1
40
3.5000000000
1
4
41
0.8000000000
72
0
100
AcDbText
0
LINE
5
31E
100
AcDbEntity
8
0
100
AcDbLine
62
2
6
CONTINUOUS
10
143.4729594753
20
169.0892255233
11
143.4729594753
21
154.9214467010
0
LINE
5
31F
100
AcDbEntity
8
0
100
AcDbLine
62
2
6
CONTINUOUS
10
147.4729594753
20
169.0892255233
11
147.4729594753
21
154.9214467010
0
LINE
5
320
100
AcDbEntity
8
0
100
AcDbLine
62
2
6
CONTINUOUS
10
143.4729594753
20
158.1214467010
11
128.6141551877
21
158.1214467010
0
LINE
5
321
100
AcDbEntity
8
0
100
AcDbLine
62
2
6
CONTINUOUS
10
128.6141551877
20
158.1214467010
11
145.4729594753
21
158.1214467010
0
LINE
5
322
100
AcDbEntity
8
0
100
AcDbLine
62
2
6
CONTINUOUS
10
147.4729594753
20
158.1214467010
11
149.4729594753
21
158.1214467010
0
LINE
5
323
100
AcDbEntity
8
0
100
AcDbLine
62
2
6
CONTINUOUS
10
149.4729594753
20
158.1214467010
11
145.4729594753
21
158.1214467010
0
SOLID
5
324
100
AcDbEntity
8
0
100
AcDbTrace
62
2
6
CONTINUOUS
10
138.9729594753
20
157.3214467010
11
143.4729594753
21
158.1214467010
12
138.9729594753
22
158.9214467010
13
138.9729594753
23
158.9214467010
0
SOLID
5
325
100
AcDbEntity
8
0
100
AcDbTrace
62
2
6
CONTINUOUS
10
151.9729594753
20
158.9214467010
11
147.4729594753
21
158.1214467010
12
151.9729594753
22
157.3214467010
13
151.9729594753
23
157.3214467010
0
ENDBLK
5
326
100
AcDbEntity
8
0
100
AcDbBlockEnd
0
BLOCK
5
327
100
AcDbEntity
8
0
100
AcDbBlockBegin
62
2
6
CONTINUOUS
2
*D21
70
65
10
0.0000000000
20
0.0000000000
3
*D21
1

0
TEXT
5
328
100
AcDbEntity
8
0
100
AcDbText
62
2
6
CONTINUOUS
10
159.4288234477
20
150.4379847293
7
TEXTSTYLE_1
40
3.5000000000
1
%%c
41
1.3333333333
72
0
100
AcDbText
0
TEXT
5
329
100
AcDbEntity
8
0
100
AcDbText
62
2
6
CONTINUOUS
10
166.6621567810
20
150.4379847293
7
TEXTSTYLE_1
40
3.5000000000
1
H7
41
0.7666666667
72
0
100
AcDbText
0
TEXT
5
32A
100
AcDbEntity
8
0
100
AcDbText
62
2
6
CONTINUOUS
10
164.0954901143
20
150.4379847293
7
TEXTSTYLE_1
40
3.5000000000
1
3
41
0.7333333333
72
0
100
AcDbText
0
LINE
5
32B
100
AcDbEntity
8
0
100
AcDbLine
62
2
6
CONTINUOUS
10
148.9729594753
20
169.0892255233
11
148.9729594753
21
160.2980855546
0
LINE
5
32C
100
AcDbEntity
8
0
100
AcDbLine
62
2
6
CONTINUOUS
10
148.9729594753
20
156.4262912147
11
148.9729594753
21
146.3629847293
0
LINE
5
32D
100
AcDbEntity
8
0
100
AcDbLine
62
2
6
CONTINUOUS
10
151.9729594753
20
169.0892255233
11
151.9729594753
21
160.5258381628
0
LINE
5
32E
100
AcDbEntity
8
0
100
AcDbLine
62
2
6
CONTINUOUS
10
151.9729594753
20
155.9707859983
11
151.9729594753
21
146.3629847293
0
LINE
5
32F
100
AcDbEntity
8
0
100
AcDbLine
62
2
6
CONTINUOUS
10
148.9729594753
20
149.5629847293
11
146.9729594753
21
149.5629847293
0
LINE
5
330
100
AcDbEntity
8
0
100
AcDbLine
62
2
6
CONTINUOUS
10
146.9729594753
20
149.5629847293
11
150.4729594753
21
149.5629847293
0
LINE
5
331
100
AcDbEntity
8
0
100
AcDbLine
62
2
6
CONTINUOUS
10
151.9729594753
20
149.5629847293
11
172.0288234477
21
149.5629847293
0
LINE
5
332
100
AcDbEntity
8
0
100
AcDbLine
62
2
6
CONTINUOUS
10
172.0288234477
20
149.5629847293
11
150.4729594753
21
149.5629847293
0
SOLID
5
333
100
AcDbEntity
8
0
100
AcDbTrace
62
2
6
CONTINUOUS
10
144.4729594753
20
148.7629847293
11
148.9729594753
21
149.5629847293
12
144.4729594753
22
150.3629847293
13
144.4729594753
23
150.3629847293
0
SOLID
5
334
100
AcDbEntity
8
0
100
AcDbTrace
62
2
6
CONTINUOUS
10
156.4729594753
20
150.3629847293
11
151.9729594753
21
149.5629847293
12
156.4729594753
22
148.7629847293
13
156.4729594753
23
148.7629847293
0
ENDBLK
5
335
100
AcDbEntity
8
0
100
AcDbBlockEnd
0
BLOCK
5
336
100
AcDbEntity
8
0
100
AcDbBlockBegin
62
2
6
CONTINUOUS
2
*D22
70
65
10
0.0000000000
20
0.0000000000
3
*D22
1

0
TEXT
5
337
100
AcDbEntity
8
0
100
AcDbText
62
2
6
CONTINUOUS
10
149.4072707686
20
53.2832314227
7
TEXTSTYLE_1
40
3.5000000000
1
 
41
0.8000000000
72
0
100
AcDbText
0
LINE
5
338
100
AcDbEntity
8
0
100
AcDbLine
62
2
6
CONTINUOUS
10
152.9729594753
20
55.6082314227
11
152.9729594753
21
21.6069953049
0
LINE
5
339
100
AcDbEntity
8
0
100
AcDbLine
62
2
6
CONTINUOUS
10
152.9729594753
20
50.9260169896
11
152.9729594753
21
49.2082314227
0
LINE
5
33A
100
AcDbEntity
8
0
100
AcDbLine
62
2
6
CONTINUOUS
10
152.9729594753
20
52.4082314227
11
149.4072707686
21
52.4082314227
0
ENDBLK
5
33B
100
AcDbEntity
8
0
100
AcDbBlockEnd
0
BLOCK
5
33C
100
AcDbEntity
8
0
100
AcDbBlockBegin
62
2
6
CONTINUOUS
2
*D23
70
65
10
0.0000000000
20
0.0000000000
3
*D23
1

0
TEXT
5
33D
100
AcDbEntity
8
0
100
AcDbText
62
2
6
CONTINUOUS
10
165.2775980176
20
126.0880024517
7
TEXTSTYLE_1
40
3.5000000000
1
16,5
41
0.5291666667
72
0
100
AcDbText
0
LINE
5
33E
100
AcDbEntity
8
0
100
AcDbLine
62
2
6
CONTINUOUS
10
146.4729594753
20
120.4904888391
11
146.4729594753
21
128.4130024517
0
LINE
5
33F
100
AcDbEntity
8
0
100
AcDbLine
62
2
6
CONTINUOUS
10
162.9729594753
20
117.9904888391
11
162.9729594753
21
128.4130024517
0
LINE
5
340
100
AcDbEntity
8
0
100
AcDbLine
62
2
6
CONTINUOUS
10
146.4729594753
20
125.2130024517
11
154.7229594753
21
125.2130024517
0
LINE
5
341
100
AcDbEntity
8
0
100
AcDbLine
62
2
6
CONTINUOUS
10
162.9729594753
20
125.2130024517
11
154.7229594753
21
125.2130024517
0
LINE
5
342
100
AcDbEntity
8
0
100
AcDbLine
62
2
6
CONTINUOUS
10
154.7229594753
20
125.2130024517
11
172.6859313509
21
125.2130024517
0
SOLID
5
343
100
AcDbEntity
8
0
100
AcDbTrace
62
2
6
CONTINUOUS
10
150.9729594753
20
126.0130024517
11
146.4729594753
21
125.2130024517
12
150.9729594753
22
124.4130024517
13
150.9729594753
23
124.4130024517
0
SOLID
5
344
100
AcDbEntity
8
0
100
AcDbTrace
62
2
6
CONTINUOUS
10
158.4729594753
20
124.4130024517
11
162.9729594753
21
125.2130024517
12
158.4729594753
22
126.0130024517
13
158.4729594753
23
126.0130024517
0
ENDBLK
5
345
100
AcDbEntity
8
0
100
AcDbBlockEnd
0
BLOCK
5
346
100
AcDbEntity
8
0
100
AcDbBlockBegin
62
2
6
CONTINUOUS
2
*D24
70
65
10
0.0000000000
20
0.0000000000
3
*D24
1

0
TEXT
5
347
100
AcDbEntity
8
0
100
AcDbText
62
2
6
CONTINUOUS
10
344.1712098836
20
145.9501501275
7
TEXTSTYLE_1
40
3.5000000000
1
22
41
0.7333333333
72
0
100
AcDbText
0
LINE
5
348
100
AcDbEntity
8
0
100
AcDbLine
62
2
6
CONTINUOUS
10
357.4301241090
20
169.0892255233
11
357.4301241090
21
141.8751501275
0
LINE
5
349
100
AcDbEntity
8
0
100
AcDbLine
62
2
6
CONTINUOUS
10
335.4301241090
20
169.0892255233
11
335.4301241090
21
141.8751501275
0
LINE
5
34A
100
AcDbEntity
8
0
100
AcDbLine
62
2
6
CONTINUOUS
10
357.4301241090
20
145.0751501275
11
346.4301241090
21
145.0751501275
0
LINE
5
34B
100
AcDbEntity
8
0
100
AcDbLine
62
2
6
CONTINUOUS
10
335.4301241090
20
145.0751501275
11
346.4301241090
21
145.0751501275
0
SOLID
5
34C
100
AcDbEntity
8
0
100
AcDbTrace
62
2
6
CONTINUOUS
10
352.9301241090
20
144.2751501275
11
357.4301241090
21
145.0751501275
12
352.9301241090
22
145.8751501275
13
352.9301241090
23
145.8751501275
0
SOLID
5
34D
100
AcDbEntity
8
0
100
AcDbTrace
62
2
6
CONTINUOUS
10
339.9301241090
20
145.8751501275
11
335.4301241090
21
145.0751501275
12
339.9301241090
22
144.2751501275
13
339.9301241090
23
144.2751501275
0
ENDBLK
5
34E
100
AcDbEntity
8
0
100
AcDbBlockEnd
0
BLOCK
5
34F
100
AcDbEntity
8
0
100
AcDbBlockBegin
62
2
6
CONTINUOUS
2
*D25
70
65
10
0.0000000000
20
0.0000000000
3
*D25
1

0
TEXT
5
350
100
AcDbEntity
8
0
100
AcDbText
62
2
6
CONTINUOUS
10
367.1745720492
20
182.6694783390
7
TEXTSTYLE_1
40
3.5000000000
1
R
50
-21.1713027261
41
0.7666666667
72
0
100
AcDbText
0
TEXT
5
351
100
AcDbEntity
8
0
100
AcDbText
62
2
6
CONTINUOUS
10
369.6767932846
20
181.7003722217
7
TEXTSTYLE_1
40
3.5000000000
1
3
50
-21.1713027261
41
0.7333333333
72
0
100
AcDbText
0
LINE
5
352
100
AcDbEntity
8
0
100
AcDbLine
62
2
6
CONTINUOUS
10
357.6326096843
20
185.4267315087
11
371.7542094281
21
179.9574594457
0
SOLID
5
353
100
AcDbEntity
8
0
100
AcDbTrace
62
2
6
CONTINUOUS
10
362.1178073687
20
184.5475263386
11
357.6326096843
21
185.4267315087
12
361.5399552739
22
183.0555186454
13
361.5399552739
23
183.0555186454
0
ENDBLK
5
354
100
AcDbEntity
8
0
100
AcDbBlockEnd
0
BLOCK
5
355
100
AcDbEntity
8
0
100
AcDbBlockBegin
62
2
6
CONTINUOUS
2
*D26
70
65
10
0.0000000000
20
0.0000000000
3
*D26
1

0
TEXT
5
356
100
AcDbEntity
8
0
100
AcDbText
62
2
6
CONTINUOUS
10
320.4625663693
20
171.7002983277
7
TEXTSTYLE_1
40
3.5000000000
1
6
50
-60.0000000000
41
0.7333333333
72
0
100
AcDbText
0
LINE
5
357
100
AcDbEntity
8
0
100
AcDbLine
62
2
6
CONTINUOUS
10
334.1310860033
20
174.8392255233
11
318.9914474114
21
166.0983511068
0
LINE
5
358
100
AcDbEntity
8
0
100
AcDbLine
62
2
6
CONTINUOUS
10
354.7448607646
20
193.7143144891
11
339.9900832829
21
185.1956397383
0
LINE
5
359
100
AcDbEntity
8
0
100
AcDbLine
62
2
6
CONTINUOUS
10
332.0181174838
20
180.5930231382
11
315.9717378302
21
171.3286415256
0
LINE
5
35A
100
AcDbEntity
8
0
100
AcDbLine
62
2
6
CONTINUOUS
10
321.7627287035
20
167.6983511068
11
322.7627287035
21
165.9663002993
0
LINE
5
35B
100
AcDbEntity
8
0
100
AcDbLine
62
2
6
CONTINUOUS
10
322.7627287035
20
165.9663002993
11
320.2528739129
21
170.3134963162
0
LINE
5
35C
100
AcDbEntity
8
0
100
AcDbLine
62
2
6
CONTINUOUS
10
318.7430191223
20
172.9286415256
11
317.7430191223
21
174.6606923332
0
LINE
5
35D
100
AcDbEntity
8
0
100
AcDbLine
62
2
6
CONTINUOUS
10
317.7430191223
20
174.6606923332
11
320.2528739129
21
170.3134963162
0
SOLID
5
35E
100
AcDbEntity
8
0
100
AcDbTrace
62
2
6
CONTINUOUS
10
324.7055490265
20
164.2012367898
11
321.7627287035
21
167.6983511068
12
323.3199083805
22
163.4012367898
13
323.3199083805
23
163.4012367898
0
SOLID
5
35F
100
AcDbEntity
8
0
100
AcDbTrace
62
2
6
CONTINUOUS
10
315.8001987992
20
176.4257558427
11
318.7430191223
21
172.9286415256
12
317.1858394453
22
177.2257558427
13
317.1858394453
23
177.2257558427
0
ENDBLK
5
360
100
AcDbEntity
8
0
100
AcDbBlockEnd
0
BLOCK
5
361
100
AcDbEntity
8
0
100
AcDbBlockBegin
62
2
6
CONTINUOUS
2
*D27
70
65
10
0.0000000000
20
0.0000000000
3
*D27
1

0
TEXT
5
362
100
AcDbEntity
8
0
100
AcDbText
62
2
6
CONTINUOUS
10
284.9689286215
20
169.7560531212
7
TEXTSTYLE_1
40
3.5000000000
1
30%%d
41
0.7111111111
72
0
100
AcDbText
0
LINE
5
363
100
AcDbEntity
8
0
100
AcDbLine
62
2
6
CONTINUOUS
10
288.0492104440
20
192.0892255233
11
282.7399793281
21
192.0892255233
0
LINE
5
364
100
AcDbEntity
8
0
100
AcDbLine
62
2
6
CONTINUOUS
10
334.5382855348
20
175.0743222825
11
311.7400913902
21
161.9117787561
0
LINE
5
365
100
AcDbEntity
8
0
100
AcDbLine
62
2
6
CONTINUOUS
10
301.6504811167
20
156.0865395486
11
293.6279585245
21
151.4547339704
0
ARC
5
366
100
AcDbEntity
8
0
100
AcDbCircle
62
2
6
CONTINUOUS
10
364.0089624339
20
192.0892255233
40
78.0689831058
100
AcDbArc
50
180.0000000000
51
192.6398237678
0
ARC
5
367
100
AcDbEntity
8
0
100
AcDbCircle
62
2
6
CONTINUOUS
10
364.0089624339
20
192.0892255233
40
78.0689831058
100
AcDbArc
50
197.9680012065
51
210.0000000000
0
SOLID
5
368
100
AcDbEntity
8
0
100
AcDbTrace
62
2
6
CONTINUOUS
10
285.9399793281
20
192.0892255233
11
286.8693221370
21
187.6141476532
12
285.2699865956
22
187.5680409730
13
285.2699865956
23
187.5680409730
0
SOLID
5
369
100
AcDbEntity
8
0
100
AcDbTrace
62
2
6
CONTINUOUS
10
296.3992398166
20
153.0547339704
11
293.5584168148
21
156.6351982800
12
294.9665353629
22
157.3949364943
13
294.9665353629
23
157.3949364943
0
ENDBLK
5
36A
100
AcDbEntity
8
0
100
AcDbBlockEnd
0
BLOCK
5
36B
100
AcDbEntity
8
0
100
AcDbBlockBegin
62
2
6
CONTINUOUS
2
*D28
70
65
10
0.0000000000
20
0.0000000000
3
*D28
1

0
TEXT
5
36C
100
AcDbEntity
8
0
100
AcDbText
62
2
6
CONTINUOUS
10
175.8262069604
20
71.4760949173
7
TEXTSTYLE_1
40
3.5000000000
1
3,5
50
90.0000000000
41
0.5944444444
72
0
100
AcDbText
0
LINE
5
36D
100
AcDbEntity
8
0
100
AcDbLine
62
2
6
CONTINUOUS
10
164.4729594753
20
60.9260169896
11
179.9012069604
21
60.9260169896
0
LINE
5
36E
100
AcDbEntity
8
0
100
AcDbLine
62
2
6
CONTINUOUS
10
164.4729594753
20
64.4260169896
11
179.9012069604
21
64.4260169896
0
LINE
5
36F
100
AcDbEntity
8
0
100
AcDbLine
62
2
6
CONTINUOUS
10
176.7012069604
20
60.9260169896
11
176.7012069604
21
58.9260169896
0
LINE
5
370
100
AcDbEntity
8
0
100
AcDbLine
62
2
6
CONTINUOUS
10
176.7012069604
20
58.9260169896
11
176.7012069604
21
62.6760169896
0
LINE
5
371
100
AcDbEntity
8
0
100
AcDbLine
62
2
6
CONTINUOUS
10
176.7012069604
20
64.4260169896
11
176.7012069604
21
77.7177615839
0
LINE
5
372
100
AcDbEntity
8
0
100
AcDbLine
62
2
6
CONTINUOUS
10
176.7012069604
20
77.7177615839
11
176.7012069604
21
62.6760169896
0
POLYLINE
5
373
100
AcDbEntity
8
0
100
AcDb2dPolyline
62
2
6
CONTINUOUS
66
1
70
0
0
VERTEX
5
374
100
AcDbEntity
8
0
100
AcDbVertex
62
2
6
CONTINUOUS
100
AcDb2dVertex
10
176.3012069604
20
60.9260169896
40
0.8000000000
41
0.8000000000
42
1.0000000000
0
VERTEX
5
375
100
AcDbEntity
8
0
100
AcDbVertex
62
2
6
CONTINUOUS
100
AcDb2dVertex
10
177.1012069604
20
60.9260169896
40
0.8000000000
41
0.8000000000
42
1.0000000000
0
VERTEX
5
376
100
AcDbEntity
8
0
100
AcDbVertex
62
2
6
CONTINUOUS
100
AcDb2dVertex
10
176.3012069604
20
60.9260169896
40
0.8000000000
41
0.8000000000
0
SEQEND
5
377
100
AcDbEntity
8
0
0
SOLID
5
378
100
AcDbEntity
8
0
100
AcDbTrace
62
2
6
CONTINUOUS
10
175.9012069604
20
68.9260169896
11
176.7012069604
21
64.4260169896
12
177.5012069604
22
68.9260169896
13
177.5012069604
23
68.9260169896
0
ENDBLK
5
379
100
AcDbEntity
8
0
100
AcDbBlockEnd
0
BLOCK
5
37A
100
AcDbEntity
8
0
100
AcDbBlockBegin
62
2
6
CONTINUOUS
2
*D29
70
65
10
0.0000000000
20
0.0000000000
3
*D29
1

0
TEXT
5
37B
100
AcDbEntity
8
0
100
AcDbText
62
2
6
CONTINUOUS
10
175.8262069604
20
57.0823578142
7
TEXTSTYLE_1
40
3.5000000000
1
5
50
90.0000000000
41
0.7333333333
72
0
100
AcDbText
0
LINE
5
37C
100
AcDbEntity
8
0
100
AcDbLine
62
2
6
CONTINUOUS
10
164.4729594753
20
55.9260169896
11
179.9012069604
21
55.9260169896
0
LINE
5
37D
100
AcDbEntity
8
0
100
AcDbLine
62
2
6
CONTINUOUS
10
164.4729594753
20
60.9260169896
11
179.9012069604
21
60.9260169896
0
LINE
5
37E
100
AcDbEntity
8
0
100
AcDbLine
62
2
6
CONTINUOUS
10
176.7012069604
20
55.9260169896
11
176.7012069604
21
53.9260169896
0
LINE
5
37F
100
AcDbEntity
8
0
100
AcDbLine
62
2
6
CONTINUOUS
10
176.7012069604
20
53.9260169896
11
176.7012069604
21
58.4260169896
0
LINE
5
380
100
AcDbEntity
8
0
100
AcDbLine
62
2
6
CONTINUOUS
10
176.7012069604
20
60.9260169896
11
176.7012069604
21
62.9260169896
0
LINE
5
381
100
AcDbEntity
8
0
100
AcDbLine
62
2
6
CONTINUOUS
10
176.7012069604
20
62.9260169896
11
176.7012069604
21
58.4260169896
0
SOLID
5
382
100
AcDbEntity
8
0
100
AcDbTrace
62
2
6
CONTINUOUS
10
177.5012069604
20
51.4260169896
11
176.7012069604
21
55.9260169896
12
175.9012069604
22
51.4260169896
13
175.9012069604
23
51.4260169896
0
POLYLINE
5
383
100
AcDbEntity
8
0
100
AcDb2dPolyline
62
2
6
CONTINUOUS
66
1
70
0
0
VERTEX
5
384
100
AcDbEntity
8
0
100
AcDbVertex
62
2
6
CONTINUOUS
100
AcDb2dVertex
10
176.3012069604
20
60.9260169896
40
0.8000000000
41
0.8000000000
42
1.0000000000
0
VERTEX
5
385
100
AcDbEntity
8
0
100
AcDbVertex
62
2
6
CONTINUOUS
100
AcDb2dVertex
10
177.1012069604
20
60.9260169896
40
0.8000000000
41
0.8000000000
42
1.0000000000
0
VERTEX
5
386
100
AcDbEntity
8
0
100
AcDbVertex
62
2
6
CONTINUOUS
100
AcDb2dVertex
10
176.3012069604
20
60.9260169896
40
0.8000000000
41
0.8000000000
0
SEQEND
5
387
100
AcDbEntity
8
0
0
ENDBLK
5
388
100
AcDbEntity
8
0
100
AcDbBlockEnd
0
BLOCK
5
389
100
AcDbEntity
8
0
100
AcDbBlockBegin
62
2
6
CONTINUOUS
2
*D30
70
65
10
0.0000000000
20
0.0000000000
3
*D30
1

0
TEXT
5
38A
100
AcDbEntity
8
0
100
AcDbText
62
2
6
CONTINUOUS
10
111.9679548811
20
173.7285647253
7
TEXTSTYLE_1
40
3.5000000000
1
9
50
90.0000000000
41
0.7333333333
72
0
100
AcDbText
0
LINE
5
38B
100
AcDbEntity
8
0
100
AcDbLine
62
2
6
CONTINUOUS
10
142.3229594753
20
170.5892255233
11
109.6429548811
21
170.5892255233
0
LINE
5
38C
100
AcDbEntity
8
0
100
AcDbLine
62
2
6
CONTINUOUS
10
142.3229594753
20
179.5892255233
11
126.2217554952
21
179.5892255233
0
LINE
5
38D
100
AcDbEntity
8
0
100
AcDbLine
62
2
6
CONTINUOUS
10
120.6384764988
20
179.5892255233
11
109.6429548811
21
179.5892255233
0
LINE
5
38E
100
AcDbEntity
8
0
100
AcDbLine
62
2
6
CONTINUOUS
10
112.8429548811
20
170.5892255233
11
112.8429548811
21
168.5892255233
0
LINE
5
38F
100
AcDbEntity
8
0
100
AcDbLine
62
2
6
CONTINUOUS
10
112.8429548811
20
168.5892255233
11
112.8429548811
21
175.0892255233
0
LINE
5
390
100
AcDbEntity
8
0
100
AcDbLine
62
2
6
CONTINUOUS
10
112.8429548811
20
179.5892255233
11
112.8429548811
21
181.5892255233
0
LINE
5
391
100
AcDbEntity
8
0
100
AcDbLine
62
2
6
CONTINUOUS
10
112.8429548811
20
181.5892255233
11
112.8429548811
21
175.0892255233
0
SOLID
5
392
100
AcDbEntity
8
0
100
AcDbTrace
62
2
6
CONTINUOUS
10
113.6429548811
20
166.0892255233
11
112.8429548811
21
170.5892255233
12
112.0429548811
22
166.0892255233
13
112.0429548811
23
166.0892255233
0
SOLID
5
393
100
AcDbEntity
8
0
100
AcDbTrace
62
2
6
CONTINUOUS
10
112.0429548811
20
184.0892255233
11
112.8429548811
21
179.5892255233
12
113.6429548811
22
184.0892255233
13
113.6429548811
23
184.0892255233
0
ENDBLK
5
394
100
AcDbEntity
8
0
100
AcDbBlockEnd
0
BLOCK
5
395
100
AcDbEntity
8
0
100
AcDbBlockBegin
62
2
6
CONTINUOUS
2
N-CAR_BL2
70
64
10
0.0000000000
20
0.0000000000
3
N-CAR_BL2
1

0
TEXT
5
396
100
AcDbEntity
8
0
100
AcDbText
62
2
6
CONTINUOUS
10
297.1946031887
20
39.3028004968
7
STANDARD
40
2.9999987760
1
3,2
41
0.5000000000
72
0
100
AcDbText
0
TEXT
5
397
100
AcDbEntity
8
0
100
AcDbText
62
2
6
CONTINUOUS
10
312.2192011243
20
39.2807544458
7
STANDARD
40
2.9999987760
1
1,6
41
0.5000000000
72
0
100
AcDbText
0
TEXT
5
398
100
AcDbEntity
8
0
100
AcDbText
62
2
6
CONTINUOUS
10
322.2172605577
20
39.2634559418
7
STANDARD
40
2.9999987760
1
.
41
0.5000000000
72
0
100
AcDbText
0
TEXT
5
399
100
AcDbEntity
8
0
100
AcDbText
62
2
6
CONTINUOUS
10
332.2656716412
20
39.2892988948
7
STANDARD
40
2.9999987760
1
.
41
0.5000000000
72
0
100
AcDbText
0
LINE
5
39A
100
AcDbEntity
8
0
100
AcDbLine
62
7
6
CONTINUOUS
10
342.3408113447
20
42.1459955928
11
344.3484961222
21
42.1459955928
0
LINE
5
39B
100
AcDbEntity
8
0
100
AcDbLine
62
7
6
CONTINUOUS
10
344.3484961222
20
42.1459955928
11
344.3484961222
21
32.1459996728
0
LINE
5
39C
100
AcDbEntity
8
0
100
AcDbLine
62
7
6
CONTINUOUS
10
342.3408113447
20
32.1459996728
11
344.3484961222
21
32.1459996728
0
LINE
5
39D
100
AcDbEntity
8
0
100
AcDbLine
62
7
6
CONTINUOUS
10
341.9330818392
20
40.3113145345
11
338.8991011019
21
40.3113145345
0
LINE
5
39E
100
AcDbEntity
8
0
100
AcDbLine
62
7
6
CONTINUOUS
10
338.8991011019
20
40.3113145345
11
336.5332201761
21
33.2136717571
0
LINE
5
39F
100
AcDbEntity
8
0
100
AcDbLine
62
7
6
CONTINUOUS
10
336.5332201761
20
33.2136717571
11
334.1911999579
21
38.3235340514
0
LINE
5
3A0
100
AcDbEntity
8
0
100
AcDbLine
62
7
6
CONTINUOUS
10
321.9330899992
20
40.3113145345
11
318.8991092619
21
40.3113145345
0
LINE
5
3A1
100
AcDbEntity
8
0
100
AcDbLine
62
7
6
CONTINUOUS
10
318.8991092619
20
40.3113145345
11
316.5332283361
21
33.2136717571
0
LINE
5
3A2
100
AcDbEntity
8
0
100
AcDbLine
62
7
6
CONTINUOUS
10
316.5332283361
20
33.2136717571
11
314.1912081178
21
38.3235340514
0
LINE
5
3A3
100
AcDbEntity
8
0
100
AcDbLine
62
7
6
CONTINUOUS
10
331.9330859192
20
40.3113145345
11
328.8991051819
21
40.3113145345
0
LINE
5
3A4
100
AcDbEntity
8
0
100
AcDbLine
62
7
6
CONTINUOUS
10
328.8991051819
20
40.3113145345
11
326.5332242561
21
33.2136717571
0
LINE
5
3A5
100
AcDbEntity
8
0
100
AcDbLine
62
7
6
CONTINUOUS
10
326.5332242561
20
33.2136717571
11
324.1912040379
21
38.3235340514
0
LINE
5
3A6
100
AcDbEntity
8
0
100
AcDbLine
62
7
6
CONTINUOUS
10
309.3485104021
20
42.1459955928
11
311.7441779364
21
42.1459955928
0
LINE
5
3A7
100
AcDbEntity
8
0
100
AcDbLine
62
7
6
CONTINUOUS
10
309.3485104021
20
42.1459955928
11
309.3485104021
21
32.1459996728
0
LINE
5
3A8
100
AcDbEntity
8
0
100
AcDbLine
62
7
6
CONTINUOUS
10
309.3485104021
20
32.1459996728
11
311.7441779364
21
32.1459996728
0
LINE
5
3A9
100
AcDbEntity
8
0
100
AcDbLine
62
7
6
CONTINUOUS
10
306.9330961191
20
40.3113145345
11
303.8991153819
21
40.3113145345
0
LINE
5
3AA
100
AcDbEntity
8
0
100
AcDbLine
62
7
6
CONTINUOUS
10
303.8991153819
20
40.3113145345
11
301.5332344561
21
33.2136717571
0
LINE
5
3AB
100
AcDbEntity
8
0
100
AcDbLine
62
7
6
CONTINUOUS
10
301.5332344561
20
33.2136717571
11
299.1912142378
21
38.3235340514
0
ARC
5
3AC
100
AcDbEntity
8
0
100
AcDbCircle
62
7
6
CONTINUOUS
10
294.0010527304
20
38.0226329867
40
2.4999989800
100
AcDbArc
50
177.5591686478
51
2.4408313522
0
ARC
5
3AD
100
AcDbEntity
8
0
100
AcDbCircle
62
7
6
CONTINUOUS
10
289.0010547704
20
38.0226329867
40
2.4999989800
100
AcDbArc
50
0.0000000000
51
177.5591686478
0
ENDBLK
5
3AE
100
AcDbEntity
8
0
100
AcDbBlockEnd
0
BLOCK
5
3AF
100
AcDbEntity
8
0
100
AcDbBlockBegin
62
2
6
CONTINUOUS
2
RUGOSITE_BL3
70
64
10
0.0000000000
20
0.0000000000
3
RUGOSITE_BL3
1

0
TEXT
5
3B0
100
AcDbEntity
8
0
100
AcDbText
62
2
6
CONTINUOUS
10
144.6084674830
20
15.6160804300
7
STANDARD
40
4.4999994667
1
1,6
50
90.0000000000
41
0.8000000000
72
0
100
AcDbText
0
LINE
5
3B1
100
AcDbEntity
8
0
100
AcDbLine
62
2
6
CONTINUOUS
10
146.2500312303
20
24.3866657806
11
153.0000304303
21
28.1366653362
0
LINE
5
3B2
100
AcDbEntity
8
0
100
AcDbLine
62
2
6
CONTINUOUS
10
153.0000304303
20
28.1366653362
11
139.5000320303
21
35.6366644473
0
LINE
5
3B3
100
AcDbEntity
8
0
100
AcDbLine
62
2
6
CONTINUOUS
10
146.2858181316
20
19.0186305946
11
146.2763320383
21
24.4435593253
0
ENDBLK
5
3B4
100
AcDbEntity
8
0
100
AcDbBlockEnd
0
ENDSEC
0
SECTION
2
ENTITIES
0
TEXT
5
3B5
100
AcDbEntity
8
0
100
AcDbText
62
2
6
CONTINUOUS
10
435.6059290093
20
8.7539544361
7
STANDARD
40
2.0000000000
1
22/96a
41
0.8000000000
72
0
100
AcDbText
0
INSERT
5
3B6
100
AcDbEntity
8
0
100
AcDbBlockReference
62
2
6
CONTINUOUS
2
N-DES_BL0
10
0.0000000000
20
0.0000000000
0
INSERT
5
3B7
100
AcDbEntity
8
0
100
AcDbBlockReference
62
2
6
CONTINUOUS
2
N-CART_BL1
10
0.0000000000
20
0.0000000000
0
SOLID
5
3B8
100
AcDbEntity
8
0
100
AcDbTrace
62
7
6
CONTINUOUS
10
188.5853115474
20
256.4715909588
11
187.3353115474
21
261.4715909588
12
189.8353115474
22
261.4715909588
13
189.8353115474
23
261.4715909588
0
TEXT
5
3B9
100
AcDbEntity
8
0
100
AcDbText
62
7
6
CONTINUOUS
10
189.9853115474
20
265.0432936305
7
TEXTSTYLE_1
40
3.5000000000
1
C
41
0.8000000000
72
0
100
AcDbText
0
SOLID
5
3BA
100
AcDbEntity
8
0
100
AcDbTrace
62
7
6
CONTINUOUS
10
118.1178185039
20
256.4715909588
11
116.8678185039
21
261.4715909588
12
119.3678185039
22
261.4715909588
13
119.3678185039
23
261.4715909588
0
TEXT
5
3BB
100
AcDbEntity
8
0
100
AcDbText
62
7
6
CONTINUOUS
10
113.9178185039
20
265.0432936305
7
TEXTSTYLE_1
40
3.5000000000
1
C
41
0.8000000000
72
0
100
AcDbText
0
SOLID
5
3BC
100
AcDbEntity
8
0
100
AcDbTrace
62
7
6
CONTINUOUS
10
177.1532035726
20
192.0892255233
11
175.9032035726
21
197.0892255233
12
178.4032035726
22
197.0892255233
13
178.4032035726
23
197.0892255233
0
TEXT
5
3BD
100
AcDbEntity
8
0
100
AcDbText
62
7
6
CONTINUOUS
10
178.5532035726
20
201.1265739160
7
TEXTSTYLE_1
40
3.5000000000
1
A
41
0.8000000000
72
0
100
AcDbText
0
SOLID
5
3BE
100
AcDbEntity
8
0
100
AcDbTrace
62
7
6
CONTINUOUS
10
120.2757268071
20
192.0892255233
11
119.0257268071
21
197.0892255233
12
121.5257268071
22
197.0892255233
13
121.5257268071
23
197.0892255233
0
TEXT
5
3BF
100
AcDbEntity
8
0
100
AcDbText
62
7
6
CONTINUOUS
10
116.0757268071
20
201.1265739160
7
TEXTSTYLE_1
40
3.5000000000
1
A
41
0.8000000000
72
0
100
AcDbText
0
SOLID
5
3C0
100
AcDbEntity
8
0
100
AcDbTrace
62
7
6
CONTINUOUS
10
146.4729594753
20
141.4383233476
11
141.4729594753
21
140.1883233476
12
141.4729594753
22
142.6883233476
13
141.4729594753
23
142.6883233476
0
TEXT
5
3C1
100
AcDbEntity
8
0
100
AcDbText
62
7
6
CONTINUOUS
10
135.9470384919
20
136.1883233476
7
TEXTSTYLE_1
40
3.5000000000
1
B
41
0.7333333333
72
0
100
AcDbText
0
SOLID
5
3C2
100
AcDbEntity
8
0
100
AcDbTrace
62
7
6
CONTINUOUS
10
146.4729594753
20
231.0557277234
11
141.4729594753
21
229.8057277234
12
141.4729594753
22
232.3057277234
13
141.4729594753
23
232.3057277234
0
TEXT
5
3C3
100
AcDbEntity
8
0
100
AcDbText
62
7
6
CONTINUOUS
10
135.9470384919
20
232.8057277234
7
TEXTSTYLE_1
40
3.5000000000
1
B
41
0.7333333333
72
0
100
AcDbText
0
DIMENSION
5
3C4
100
AcDbEntity
8
0
100
AcDbDimension
62
2
6
CONTINUOUS
2
*D0
10
300.1109710149
20
170.5892255233
11
297.4859710149
21
191.1179512114
70
160
3
DIMSTYLE_1
100
AcDbAlignedDimension
13
333.9301241090
23
210.5892255233
14
333.9301241090
24
170.5892255233
50
270.000000
100
AcDbRotatedDimension
0
DIMENSION
5
3C5
100
AcDbEntity
8
0
100
AcDbDimension
62
2
6
CONTINUOUS
2
*D1
10
308.7299348436
20
192.0892255233
11
306.1049348436
21
158.6844551494
70
160
3
DIMSTYLE_1
100
AcDbAlignedDimension
13
305.5299348436
23
170.5892255233
14
350.4301241090
24
192.0892255233
50
90.000000
100
AcDbRotatedDimension
0
DIMENSION
5
3C6
100
AcDbEntity
8
0
100
AcDbDimension
62
2
6
CONTINUOUS
2
*D2
10
351.9301241090
20
153.8453137348
11
343.5681697901
21
156.4703137348
70
160
3
DIMSTYLE_2
100
AcDbAlignedDimension
13
335.4301241090
23
168.8195032364
14
351.9301241090
24
190.5892255233
100
AcDbRotatedDimension
0
DIMENSION
5
3C7
100
AcDbEntity
8
0
100
AcDbDimension
62
2
6
CONTINUOUS
2
*D3
10
365.0896438637
20
155.9337421463
11
381.2267251513
21
164.6006260556
70
160
3
DIMSTYLE_2
100
AcDbAlignedDimension
13
360.8730943515
23
192.3709541206
14
348.8529291088
24
200.5437493015
50
200.000000
100
AcDbRotatedDimension
0
DIMENSION
5
3C8
100
AcDbEntity
8
0
100
AcDbDimension
62
2
6
CONTINUOUS
2
*D4
10
356.4301241090
20
220.8336227641
11
346.1126456172
21
223.4586227641
70
160
3
DIMSTYLE_2
100
AcDbAlignedDimension
13
335.4301241090
23
212.0892255233
14
356.4301241090
24
212.0892255233
100
AcDbRotatedDimension
0
DIMENSION
5
3C9
100
AcDbEntity
8
0
100
AcDbDimension
62
2
6
CONTINUOUS
2
*D5
10
343.9070437260
20
189.2820594847
11
376.2528885341
21
200.9015442029
70
163
3
DIMSTYLE_3
100
AcDbDiametricDimension
15
359.9532044920
25
194.8963915619
0
DIMENSION
5
3CA
100
AcDbEntity
8
0
100
AcDbDimension
62
2
6
CONTINUOUS
2
*D6
10
343.8446815120
20
183.9114741202
11
328.9340806888
21
185.3122373635
70
164
1
2<>
3
DIMSTYLE_4
100
AcDbRadialDimension
15
346.8344733752
25
184.1587484921
0
DIMENSION
5
3CB
100
AcDbEntity
8
0
100
AcDbDimension
62
2
6
CONTINUOUS
2
*D7
10
321.8158491319
20
209.4757102878
11
326.1780867765
21
222.2813275229
70
160
3
DIMSTYLE_2
100
AcDbAlignedDimension
13
334.1310860033
23
206.4069568493
14
354.4674401504
24
190.6243054238
50
240.000000
100
AcDbRotatedDimension
0
DIMENSION
5
3CC
100
AcDbEntity
8
0
100
AcDbDimension
62
2
6
CONTINUOUS
2
*D8
10
368.0761431842
20
172.5807401014
11
367.7960446691
21
133.8419468685
70
162
3
DIMSTYLE_5
100
AcDb2LineAngularDimension
13
351.9301241090
23
142.5034796069
14
351.9301241090
24
129.1408913913
15
381.9597223709
25
134.4359197847
16
366.6208765502
26
133.6261656886
0
DIMENSION
5
3CD
100
AcDbEntity
8
0
100
AcDbDimension
62
2
6
CONTINUOUS
2
*D9
10
289.8145056451
20
192.0892255233
11
288.2609450332
21
210.8655632279
70
162
3
DIMSTYLE_5
100
AcDb2LineAngularDimension
13
334.5527597221
23
206.1635034142
14
292.8341809810
24
230.2497360806
15
282.6091029944
25
192.0892255233
16
288.3006413698
26
211.0143383851
0
DIMENSION
5
3CE
100
AcDbEntity
8
0
100
AcDbDimension
62
2
6
CONTINUOUS
2
*D10
10
359.4301241090
20
205.1068954793
11
365.9962723946
21
209.4594392630
70
164
3
DIMSTYLE_4
100
AcDbRadialDimension
15
356.5201933030
25
204.3773047006
0
DIMENSION
5
3CF
100
AcDbEntity
8
0
100
AcDbDimension
62
2
6
CONTINUOUS
2
*D11
10
177.7849543498
20
250.4715909588
11
175.1599543498
21
278.3576470388
70
160
1
=<>=
3
DIMSTYLE_6
100
AcDbAlignedDimension
13
164.4729594753
23
262.4715909588
14
164.4729594753
24
250.4715909588
50
270.000000
100
AcDbRotatedDimension
0
DIMENSION
5
3D0
100
AcDbEntity
8
0
100
AcDbDimension
62
2
6
CONTINUOUS
2
*D12
10
155.4729594753
20
271.4333205186
11
150.4783509076
21
274.0583205186
70
160
1
=<>=
3
DIMSTYLE_2
100
AcDbAlignedDimension
13
145.4729594753
23
264.6215909588
14
155.4729594753
24
264.6215909588
100
AcDbRotatedDimension
0
DIMENSION
5
3D1
100
AcDbEntity
8
0
100
AcDbDimension
62
2
6
CONTINUOUS
2
*D13
10
141.4729594753
20
74.6255576938
11
130.4273328057
21
77.2505576938
70
160
1
%%c<>
3
DIMSTYLE_2
100
AcDbAlignedDimension
13
151.4729594753
23
65.9260169896
14
141.4729594753
24
65.9260169896
50
180.000000
100
AcDbRotatedDimension
0
DIMENSION
5
3D2
100
AcDbEntity
8
0
100
AcDbDimension
62
2
6
CONTINUOUS
2
*D14
10
152.9729594753
20
42.1585896855
11
167.2623000463
21
44.7835896855
70
160
1
%%c<>H7
3
DIMSTYLE_2
100
AcDbAlignedDimension
13
139.9729594753
23
50.9260169896
14
152.9729594753
24
50.9260169896
100
AcDbRotatedDimension
0
DIMENSION
5
3D3
100
AcDbEntity
8
0
100
AcDbDimension
62
2
6
CONTINUOUS
2
*D15
10
121.3518294558
20
52.4260169896
11
118.7268294558
21
37.7144424357
70
160
3
DIMSTYLE_6
100
AcDbAlignedDimension
13
138.4729594753
23
62.4260169896
14
138.4729594753
24
52.4260169896
50
270.000000
100
AcDbRotatedDimension
0
DIMENSION
5
3D4
100
AcDbEntity
8
0
100
AcDbDimension
62
2
6
CONTINUOUS
2
*D16
10
150.4729594753
20
221.2276517962
11
166.5435792188
21
223.8526517962
70
160
3
DIMSTYLE_1
100
AcDbAlignedDimension
13
146.4729594753
23
215.4137390864
14
150.4729594753
24
169.5892255233
100
AcDbRotatedDimension
0
DIMENSION
5
3D5
100
AcDbEntity
8
0
100
AcDbDimension
62
2
6
CONTINUOUS
2
*D17
10
233.9857817104
20
223.2641579583
11
220.9196364869
21
225.8891579583
70
160
1
M<>
3
DIMSTYLE_2
100
AcDbAlignedDimension
13
230.9857817104
23
212.0892255233
14
233.9857817104
24
212.0892255233
100
AcDbRotatedDimension
0
DIMENSION
5
3D6
100
AcDbEntity
8
0
100
AcDbDimension
62
2
6
CONTINUOUS
2
*D18
10
123.2738786490
20
170.5892255233
11
120.6488786490
21
174.0275854553
70
160
3
DIMSTYLE_2
100
AcDbAlignedDimension
13
142.8224904390
23
177.5892255233
14
141.9729594753
24
170.5892255233
50
270.000000
100
AcDbRotatedDimension
0
DIMENSION
5
3D7
100
AcDbEntity
8
0
100
AcDbDimension
62
2
6
CONTINUOUS
2
*D19
10
173.2745940090
20
176.5892255233
11
170.6495940090
21
173.5465063495
70
160
3
DIMSTYLE_2
100
AcDbAlignedDimension
13
163.6419065317
23
170.5892255233
14
152.4406774928
24
176.5892255233
50
90.000000
100
AcDbRotatedDimension
0
DIMENSION
5
3D8
100
AcDbEntity
8
0
100
AcDbDimension
62
2
6
CONTINUOUS
2
*D20
10
147.4729594753
20
158.1214467010
11
132.9308218544
21
160.7464467010
70
160
1
2M<>
3
DIMSTYLE_2
100
AcDbAlignedDimension
13
143.4729594753
23
169.0892255233
14
147.4729594753
24
169.0892255233
100
AcDbRotatedDimension
0
DIMENSION
5
3D9
100
AcDbEntity
8
0
100
AcDbDimension
62
2
6
CONTINUOUS
2
*D21
10
151.9729594753
20
149.5629847293
11
165.7288234477
21
152.1879847293
70
160
1
%%c<>H7
3
DIMSTYLE_2
100
AcDbAlignedDimension
13
148.9729594753
23
169.0892255233
14
151.9729594753
24
169.0892255233
100
AcDbRotatedDimension
0
DIMENSION
5
3DA
100
AcDbEntity
8
0
100
AcDbDimension
62
2
6
CONTINUOUS
2
*D22
10
152.9729594753
20
52.4082314227
11
149.4072707686
21
53.2832314227
70
160
1
 
3
DIMSTYLE_2
100
AcDbAlignedDimension
13
152.9729594753
23
21.6069953049
14
152.9729594753
24
49.2082314227
100
AcDbRotatedDimension
0
DIMENSION
5
3DB
100
AcDbEntity
8
0
100
AcDbDimension
62
2
6
CONTINUOUS
2
*D23
10
162.9729594753
20
125.2130024517
11
168.9817646843
21
127.8380024517
70
160
3
DIMSTYLE_2
100
AcDbAlignedDimension
13
146.4729594753
23
120.4904888391
14
162.9729594753
24
117.9904888391
100
AcDbRotatedDimension
0
DIMENSION
5
3DC
100
AcDbEntity
8
0
100
AcDbDimension
62
2
6
CONTINUOUS
2
*D24
10
335.4301241090
20
145.0751501275
11
346.7378765503
21
147.7001501275
70
160
3
DIMSTYLE_2
100
AcDbAlignedDimension
13
357.4301241090
23
169.0892255233
14
335.4301241090
24
169.0892255233
50
180.000000
100
AcDbRotatedDimension
0
DIMENSION
5
3DD
100
AcDbEntity
8
0
100
AcDbDimension
62
2
6
CONTINUOUS
2
*D25
10
360.4301241090
20
184.3432588309
11
370.2544228995
21
183.3533231604
70
164
3
DIMSTYLE_4
100
AcDbRadialDimension
15
357.6326096843
25
185.4267315087
0
DIMENSION
5
3DE
100
AcDbEntity
8
0
100
AcDbDimension
62
2
6
CONTINUOUS
2
*D26
10
318.7430191223
20
172.9286415256
11
322.6197774926
21
171.4638990595
70
160
3
DIMSTYLE_7
100
AcDbAlignedDimension
13
334.1310860033
23
174.8392255233
14
354.7448607646
24
193.7143144891
50
120.000000
100
AcDbRotatedDimension
0
DIMENSION
5
3DF
100
AcDbEntity
8
0
100
AcDbDimension
62
2
6
CONTINUOUS
2
*D27
10
334.5382855348
20
175.0743222825
11
288.7022619548
21
171.5060531212
70
162
3
DIMSTYLE_5
100
AcDb2LineAngularDimension
13
288.0492104440
23
192.0892255233
14
282.7399793281
24
192.0892255233
15
293.6279585245
25
151.4547339704
16
288.6001154198
26
171.8834858638
0
DIMENSION
5
3E0
100
AcDbEntity
8
0
100
AcDbDimension
62
2
6
CONTINUOUS
2
*D28
10
176.7012069604
20
64.4260169896
11
174.0762069604
21
74.5969282506
70
160
3
DIMSTYLE_2
100
AcDbAlignedDimension
13
164.4729594753
23
60.9260169896
14
164.4729594753
24
64.4260169896
50
90.000000
100
AcDbRotatedDimension
0
DIMENSION
5
3E1
100
AcDbEntity
8
0
100
AcDbDimension
62
2
6
CONTINUOUS
2
*D29
10
176.7012069604
20
60.9260169896
11
174.0762069604
21
58.3656911475
70
160
3
DIMSTYLE_2
100
AcDbAlignedDimension
13
164.4729594753
23
55.9260169896
14
164.4729594753
24
60.9260169896
50
90.000000
100
AcDbRotatedDimension
0
DIMENSION
5
3E2
100
AcDbEntity
8
0
100
AcDbDimension
62
2
6
CONTINUOUS
2
*D30
10
112.8429548811
20
179.5892255233
11
110.2179548811
21
175.0118980586
70
160
3
DIMSTYLE_2
100
AcDbAlignedDimension
13
142.3229594753
23
170.5892255233
14
142.3229594753
24
179.5892255233
50
90.000000
100
AcDbRotatedDimension
0
LINE
5
3E3
100
AcDbEntity
8
0
100
AcDbLine
62
2
6
CONTINUOUS
10
278.9948490183
20
76.1933879918
11
444.9948490183
21
76.1933879918
0
LINE
5
3E4
100
AcDbEntity
8
0
100
AcDbLine
62
2
6
CONTINUOUS
10
278.9948490183
20
76.1933879918
11
278.9948490183
21
12.1933879918
0
LINE
5
3E5
100
AcDbEntity
8
0
100
AcDbLine
62
2
6
CONTINUOUS
10
278.9948490183
20
71.6933879918
11
444.9948490183
21
71.6933879918
0
LINE
5
3E6
100
AcDbEntity
8
0
100
AcDbLine
62
2
6
CONTINUOUS
10
278.9948490183
20
67.1933879918
11
444.9948490183
21
67.1933879918
0
LINE
5
3E7
100
AcDbEntity
8
0
100
AcDbLine
62
2
6
CONTINUOUS
10
278.9948490183
20
62.6933879918
11
444.9948490183
21
62.6933879918
0
LINE
5
3E8
100
AcDbEntity
8
0
100
AcDbLine
62
2
6
CONTINUOUS
10
278.9948490183
20
58.1933879918
11
444.9948490183
21
58.1933879918
0
LINE
5
3E9
100
AcDbEntity
8
0
100
AcDbLine
62
2
6
CONTINUOUS
10
278.9948490183
20
53.6933879918
11
444.9948490183
21
53.6933879918
0
LINE
5
3EA
100
AcDbEntity
8
0
100
AcDbLine
62
2
6
CONTINUOUS
10
278.9948490183
20
49.1933879918
11
444.9948490183
21
49.1933879918
0
LINE
5
3EB
100
AcDbEntity
8
0
100
AcDbLine
62
2
6
CONTINUOUS
10
398.9948490183
20
40.1933879918
11
444.9948490183
21
40.1933879918
0
LINE
5
3EC
100
AcDbEntity
8
0
100
AcDbLine
62
2
6
CONTINUOUS
10
278.9948490183
20
29.6933879918
11
444.9948490183
21
29.6933879918
0
LINE
5
3ED
100
AcDbEntity
8
0
100
AcDbLine
62
2
6
CONTINUOUS
10
278.9948490183
20
21.6933879918
11
444.9948490183
21
21.6933879918
0
LINE
5
3EE
100
AcDbEntity
8
0
100
AcDbLine
62
2
6
CONTINUOUS
10
278.9948490183
20
12.1933879918
11
444.9948490183
21
12.1933879918
0
LINE
5
3EF
100
AcDbEntity
8
0
100
AcDbLine
62
2
6
CONTINUOUS
10
293.9948490183
20
76.1933879918
11
293.9948490183
21
49.1933879918
0
LINE
5
3F0
100
AcDbEntity
8
0
100
AcDbLine
62
2
6
CONTINUOUS
10
308.9948490183
20
76.1933879918
11
308.9948490183
21
49.1933879918
0
LINE
5
3F1
100
AcDbEntity
8
0
100
AcDbLine
62
2
6
CONTINUOUS
10
318.9948490183
20
29.6933879918
11
318.9948490183
21
21.6933879918
0
LINE
5
3F2
100
AcDbEntity
8
0
100
AcDbLine
62
2
6
CONTINUOUS
10
323.9948490183
20
76.1933879918
11
323.9948490183
21
49.1933879918
0
LINE
5
3F3
100
AcDbEntity
8
0
100
AcDbLine
62
2
6
CONTINUOUS
10
338.9948490183
20
76.1933879918
11
338.9948490183
21
49.1933879918
0
LINE
5
3F4
100
AcDbEntity
8
0
100
AcDbLine
62
2
6
CONTINUOUS
10
358.9948490183
20
29.6933879918
11
358.9948490183
21
21.6933879918
0
LINE
5
3F5
100
AcDbEntity
8
0
100
AcDbLine
62
2
6
CONTINUOUS
10
398.9948490183
20
49.1933879918
11
398.9948490183
21
12.1933879918
0
LINE
5
3F6
100
AcDbEntity
8
0
100
AcDbLine
62
2
6
CONTINUOUS
10
424.9948490183
20
40.1933879918
11
424.9948490183
21
29.6933879918
0
LINE
5
3F7
100
AcDbEntity
8
0
100
AcDbLine
62
2
6
CONTINUOUS
10
444.9948490183
20
76.1933879918
11
444.9948490183
21
12.1933879918
0
TEXT
5
3F8
100
AcDbEntity
8
0
100
AcDbText
62
2
6
CONTINUOUS
10
285.6948490183
20
72.9433879918
7
STANDARD
40
2.0000000000
1
D
41
0.8000000000
72
1
11
286.4948490183
21
72.9433879918
100
AcDbText
0
TEXT
5
3F9
100
AcDbEntity
8
0
100
AcDbText
62
2
6
CONTINUOUS
10
285.6948490183
20
68.4433879918
7
STANDARD
40
2.0000000000
1
C
41
0.8000000000
72
1
11
286.4948490183
21
68.4433879918
100
AcDbText
0
TEXT
5
3FA
100
AcDbEntity
8
0
100
AcDbText
62
2
6
CONTINUOUS
10
285.6948490183
20
63.9433879918
7
STANDARD
40
2.0000000000
1
B
41
0.8000000000
72
1
11
286.4948490183
21
63.9433879918
100
AcDbText
0
TEXT
5
3FB
100
AcDbEntity
8
0
100
AcDbText
62
2
6
CONTINUOUS
10
285.6948490183
20
59.4433879918
7
STANDARD
40
2.0000000000
1
A
41
0.8000000000
72
1
11
286.4948490183
21
59.4433879918
100
AcDbText
0
TEXT
5
3FC
100
AcDbEntity
8
0
100
AcDbText
62
2
6
CONTINUOUS
10
315.6948490183
20
59.4433879918
7
STANDARD
40
2.0000000000
1
 
41
0.8000000000
72
1
11
316.4948490183
21
59.4433879918
100
AcDbText
0
TEXT
5
3FD
100
AcDbEntity
8
0
100
AcDbText
62
2
6
CONTINUOUS
10
330.6948490183
20
59.4433879918
7
STANDARD
40
2.0000000000
1
 
41
0.8000000000
72
1
11
331.4948490183
21
59.4433879918
100
AcDbText
0
TEXT
5
3FE
100
AcDbEntity
8
0
100
AcDbText
62
2
6
CONTINUOUS
10
283.2948490183
20
54.9433879918
7
STANDARD
40
2.0000000000
1
IND.
41
0.8000000000
72
1
11
286.4948490183
21
54.9433879918
100
AcDbText
0
TEXT
5
3FF
100
AcDbEntity
8
0
100
AcDbText
62
2
6
CONTINUOUS
10
298.2948490183
20
54.9433879918
7
STANDARD
40
2.0000000000
1
DATE
41
0.8000000000
72
1
11
301.4948490183
21
54.9433879918
100
AcDbText
0
TEXT
5
400
100
AcDbEntity
8
0
100
AcDbText
62
2
6
CONTINUOUS
10
312.4948490183
20
54.9433879918
7
STANDARD
40
2.0000000000
1
DESS.
41
0.8000000000
72
1
11
316.4948490183
21
54.9433879918
100
AcDbText
0
TEXT
5
401
100
AcDbEntity
8
0
100
AcDbText
62
2
6
CONTINUOUS
10
326.6948490183
20
54.9433879918
7
STANDARD
40
2.0000000000
1
VERIF.
41
0.8000000000
72
1
11
331.4948490183
21
54.9433879918
100
AcDbText
0
TEXT
5
402
100
AcDbEntity
8
0
100
AcDbText
62
2
6
CONTINUOUS
10
381.5948490183
20
54.9433879918
7
STANDARD
40
2.0000000000
1
MODIFICATIONS
41
0.8000000000
72
1
11
391.9948490183
21
54.9433879918
100
AcDbText
0
TEXT
5
403
100
AcDbEntity
8
0
100
AcDbText
62
2
6
CONTINUOUS
10
280.0948490183
20
50.4433879918
7
STANDARD
40
2.0000000000
1
Création
41
0.8000000000
72
1
11
286.4948490183
21
50.4433879918
100
AcDbText
0
TEXT
5
404
100
AcDbEntity
8
0
100
AcDbText
62
2
6
CONTINUOUS
10
294.2948490183
20
50.4433879918
7
STANDARD
40
2.0000000000
1
07-Jul-20
41
0.8000000000
72
1
11
301.4948490183
21
50.4433879918
100
AcDbText
0
TEXT
5
405
100
AcDbEntity
8
0
100
AcDbText
62
2
6
CONTINUOUS
10
311.6948490183
20
50.4433879918
7
STANDARD
40
2.0000000000
1
BALLON
41
0.8000000000
72
1
11
316.4948490183
21
50.4433879918
100
AcDbText
0
TEXT
5
406
100
AcDbEntity
8
0
100
AcDbText
62
2
6
CONTINUOUS
10
329.0948490183
20
50.4433879918
7
STANDARD
40
2.0000000000
1
B.L
41
0.8000000000
72
1
11
331.4948490183
21
50.4433879918
100
AcDbText
0
TEXT
5
407
100
AcDbEntity
8
0
100
AcDbText
62
2
6
CONTINUOUS
10
339.0573490183
20
50.4433879918
7
STANDARD
40
2.0000000000
1
  Annule et remplace plan N%%d:                      ind:
41
0.7975757576
72
0
100
AcDbText
0
TEXT
5
408
100
AcDbEntity
8
0
100
AcDbText
62
2
6
CONTINUOUS
10
280.3948490183
20
45.9433879918
7
STANDARD
40
2.0000000000
1
ETAT DE SURFACES:
41
0.8000000000
72
1
11
293.9948490183
21
45.9433879918
100
AcDbText
0
TEXT
5
409
100
AcDbEntity
8
0
100
AcDbText
62
2
6
CONTINUOUS
10
342.5948490183
20
45.9433879918
7
STANDARD
40
2.0000000000
1
CASSER LES ANGLES VIFS: 0,5 x 0,5
41
0.8000000000
72
1
11
368.9948490183
21
45.9433879918
100
AcDbText
0
TEXT
5
40A
100
AcDbEntity
8
0
100
AcDbText
62
2
6
CONTINUOUS
10
404.6281823516
20
32.9433879918
7
TEXTSTYLE_1
40
4.0000000000
1
ECH: 
41
0.6700000000
72
1
11
411.3281823516
21
32.9433879918
100
AcDbText
0
TEXT
5
40B
100
AcDbEntity
8
0
100
AcDbText
62
2
6
CONTINUOUS
10
418.0281823516
20
32.9433879918
7
TEXTSTYLE_1
40
4.0000000000
1
1
41
0.3333333333
72
1
11
418.6948490183
21
32.9433879918
100
AcDbText
0
TEXT
5
40C
100
AcDbEntity
8
0
100
AcDbText
62
2
6
CONTINUOUS
10
431.9281823516
20
32.9433879918
7
TEXTSTYLE_1
40
4.0000000000
1
A3
41
0.7666666667
72
1
11
434.9948490183
21
32.9433879918
100
AcDbText
0
TEXT
5
40D
100
AcDbEntity
8
0
100
AcDbText
62
2
6
CONTINUOUS
10
348.1948490183
20
32.4433879918
7
STANDARD
40
2.0000000000
1
TOL. GENERALE: JS13 - js13
41
0.8000000000
72
1
11
368.9948490183
21
32.4433879918
100
AcDbText
0
TEXT
5
40E
100
AcDbEntity
8
0
100
AcDbText
62
2
6
CONTINUOUS
10
279.0573490183
20
29.4590129918
7
STANDARD
40
0.1562500000
1
 
41
0.8000000000
72
0
100
AcDbText
0
TEXT
5
40F
100
AcDbEntity
8
0
100
AcDbText
62
2
6
CONTINUOUS
10
279.0573490183
20
26.9199504918
7
STANDARD
40
2.0000000000
1
MATIERE
41
0.8000000000
72
0
100
AcDbText
0
TEXT
5
410
100
AcDbEntity
8
0
100
AcDbText
62
2
6
CONTINUOUS
10
319.0573490183
20
29.4590129918
7
STANDARD
40
0.1562500000
1
 
41
0.8000000000
72
0
100
AcDbText
0
TEXT
5
411
100
AcDbEntity
8
0
100
AcDbText
62
2
6
CONTINUOUS
10
319.0573490183
20
26.9199504918
7
STANDARD
40
2.0000000000
1
TRAITEMENT
41
0.8000000000
72
0
100
AcDbText
0
TEXT
5
412
100
AcDbEntity
8
0
100
AcDbText
62
2
6
CONTINUOUS
10
359.0573490183
20
29.4590129918
7
STANDARD
40
0.1562500000
1
 
41
0.8000000000
72
0
100
AcDbText
0
TEXT
5
413
100
AcDbEntity
8
0
100
AcDbText
62
2
6
CONTINUOUS
10
359.0573490183
20
26.9199504918
7
STANDARD
40
2.0000000000
1
PROTECTION
41
0.8000000000
72
0
100
AcDbText
0
TEXT
5
414
100
AcDbEntity
8
0
100
AcDbText
62
2
6
CONTINUOUS
10
419.9948490183
20
23.1548214620
7
TEXTSTYLE_1
40
5.0000000000
1
 
41
0.8000000000
51
10.0000000000
72
1
11
421.9948490183
21
23.1548214620
100
AcDbText
0
TEXT
5
415
100
AcDbEntity
8
0
100
AcDbText
62
2
6
CONTINUOUS
10
298.9323490183
20
26.0097942418
7
STANDARD
40
0.1562500000
1
 
41
0.8000000000
72
1
11
298.9948490183
21
26.0097942418
100
AcDbText
0
TEXT
5
416
100
AcDbEntity
8
0
100
AcDbText
62
2
6
CONTINUOUS
10
289.9448490183
20
22.2207317418
7
TEXTSTYLE_1
40
3.0000000000
1
7075  T6
41
0.7541666667
72
1
11
298.9948490183
21
22.2207317418
100
AcDbText
0
TEXT
5
417
100
AcDbEntity
8
0
100
AcDbText
62
2
6
CONTINUOUS
10
338.9323490183
20
24.1347942418
7
STANDARD
40
0.1562500000
1
 
41
0.8000000000
72
1
11
338.9948490183
21
24.1347942418
100
AcDbText
0
TEXT
5
418
100
AcDbEntity
8
0
100
AcDbText
62
2
6
CONTINUOUS
10
338.9948490183
20
24.0957317418
7
TEXTSTYLE_1
40
3.0000000000
1

41
1.0000000000
72
1
11
338.9948490183
21
24.0957317418
100
AcDbText
0
TEXT
5
419
100
AcDbEntity
8
0
100
AcDbText
62
2
6
CONTINUOUS
10
378.9323490154
20
24.1347942400
7
STANDARD
40
0.1562500000
1
 
41
0.8000000000
72
1
11
378.9948490154
21
24.1347942400
100
AcDbText
0
TEXT
5
41A
100
AcDbEntity
8
0
100
AcDbText
62
2
6
CONTINUOUS
10
378.9948490183
20
24.0957317388
7
TEXTSTYLE_1
40
3.0000000000
1

41
1.0000000000
72
1
11
378.9948490183
21
24.0957317388
100
AcDbText
0
TEXT
5
41B
100
AcDbEntity
8
0
100
AcDbText
62
2
6
CONTINUOUS
10
298.9323490154
20
19.4941692395
7
STANDARD
40
0.1562500000
1
 
41
0.8000000000
72
1
11
298.9948490154
21
19.4941692395
100
AcDbText
0
TEXT
5
41C
100
AcDbEntity
8
0
100
AcDbText
62
2
6
CONTINUOUS
10
282.9010990183
20
14.2363567393
7
TEXTSTYLE_1
40
5.0000000000
1
DESIGNATION :
41
0.4951923077
72
1
11
298.9948490183
21
14.2363567393
100
AcDbText
0
TEXT
5
41D
100
AcDbEntity
8
0
100
AcDbText
62
2
6
CONTINUOUS
10
358.9323490183
20
19.4941692418
7
STANDARD
40
0.1562500000
1
 
41
0.8000000000
72
1
11
358.9948490183
21
19.4941692418
100
AcDbText
0
TEXT
5
41E
100
AcDbEntity
8
0
100
AcDbText
62
2
6
CONTINUOUS
10
321.6198490183
20
14.2363567418
7
TEXTSTYLE_1
40
5.0000000000
1
SUPPORT TRANSMISSION GAUCHE
41
0.5537037037
72
1
11
358.9948490183
21
14.2363567418
100
AcDbText
0
TEXT
5
41F
100
AcDbEntity
8
0
100
AcDbText
62
2
6
CONTINUOUS
10
406.3385979183
20
14.6504191693
7
TEXTSTYLE_1
40
5.0000000000
1
 N : 
41
0.5125000000
72
1
11
412.7448479183
21
14.6504191693
100
AcDbText
0
TEXT
5
420
100
AcDbEntity
8
0
100
AcDbText
62
2
6
CONTINUOUS
10
419.1510988185
20
14.6504191693
7
TEXTSTYLE_1
40
5.0000000000
1
100061_A
41
0.4625000000
72
1
11
428.4010988185
21
14.6504191693
100
AcDbText
0
TEXT
5
421
100
AcDbEntity
8
0
100
AcDbText
62
2
6
CONTINUOUS
10
421.9323490183
20
14.2363566617
7
STANDARD
40
0.1562500000
1
 
41
0.8000000000
72
1
11
421.9948490183
21
14.2363566617
100
AcDbText
0
TEXT
5
422
100
AcDbEntity
8
0
100
AcDbText
62
2
6
CONTINUOUS
10
81.0326152007
20
219.7039994213
7
TEXTSTYLE_1
40
3.5000000000
1
COUPE 
41
0.7666666667
72
0
100
AcDbText
0
TEXT
5
423
100
AcDbEntity
8
0
100
AcDbText
62
2
6
CONTINUOUS
10
97.1326152007
20
219.7039994213
7
TEXTSTYLE_1
40
3.5000000000
1
C-C
41
0.6555555556
72
0
100
AcDbText
0
TEXT
5
424
100
AcDbEntity
8
0
100
AcDbText
62
2
6
CONTINUOUS
10
134.1679444449
20
86.8595180447
7
TEXTSTYLE_1
40
3.5000000000
1
COUPE 
41
0.7666666667
72
0
100
AcDbText
0
TEXT
5
425
100
AcDbEntity
8
0
100
AcDbText
62
2
6
CONTINUOUS
10
150.2679444449
20
86.8595180447
7
TEXTSTYLE_1
40
3.5000000000
1
A-A
41
0.6555555556
72
0
100
AcDbText
0
TEXT
5
426
100
AcDbEntity
8
0
100
AcDbText
62
2
6
CONTINUOUS
10
219.2833740022
20
234.8316812424
7
TEXTSTYLE_1
40
3.5000000000
1
COUPE 
41
0.7666666667
72
0
100
AcDbText
0
TEXT
5
427
100
AcDbEntity
8
0
100
AcDbText
62
2
6
CONTINUOUS
10
235.3833740022
20
234.8316812424
7
TEXTSTYLE_1
40
3.5000000000
1
B-B
41
0.6111111111
72
0
100
AcDbText
0
INSERT
5
428
100
AcDbEntity
8
0
100
AcDbBlockReference
62
2
6
CONTINUOUS
2
N-CAR_BL2
10
0.0000000000
20
0.0000000000
0
INSERT
5
429
100
AcDbEntity
8
0
100
AcDbBlockReference
62
2
6
CONTINUOUS
2
RUGOSITE_BL3
10
0.0000000000
20
0.0000000000
0
LINE
5
42A
100
AcDbEntity
8
0
100
AcDbLine
62
7
6
CONTINUOUS
10
30.0000000000
20
7.0000000000
11
30.0000000000
21
304.0000000000
0
LINE
5
42B
100
AcDbEntity
8
0
100
AcDbLine
62
7
6
CONTINUOUS
10
35.0000000000
20
12.0000000000
11
35.0000000000
21
299.0000000000
0
LINE
5
42C
100
AcDbEntity
8
0
100
AcDbLine
62
7
6
CONTINUOUS
10
30.0000000000
20
7.0000000000
11
450.0000000000
21
7.0000000000
0
LINE
5
42D
100
AcDbEntity
8
0
100
AcDbLine
62
7
6
CONTINUOUS
10
35.0000000000
20
12.0000000000
11
445.0000000000
21
12.0000000000
0
LINE
5
42E
100
AcDbEntity
8
0
100
AcDbLine
62
7
6
CONTINUOUS
10
30.0000000000
20
155.5000000000
11
35.0000000000
21
158.3867513459
0
LINE
5
42F
100
AcDbEntity
8
0
100
AcDbLine
62
7
6
CONTINUOUS
10
30.0000000000
20
155.5000000000
11
35.0000000000
21
152.6132486541
0
LINE
5
430
100
AcDbEntity
8
0
100
AcDbLine
62
7
6
CONTINUOUS
10
237.1132486541
20
299.0000000000
11
240.0000000000
21
304.0000000000
0
LINE
5
431
100
AcDbEntity
8
0
100
AcDbLine
62
7
6
CONTINUOUS
10
240.0000000000
20
7.0000000000
11
237.1132486541
21
12.0000000000
0
LINE
5
432
100
AcDbEntity
8
0
100
AcDbLine
62
7
6
CONTINUOUS
10
240.0000000000
20
7.0000000000
11
242.8867513459
21
12.0000000000
0
LINE
5
433
100
AcDbEntity
8
0
100
AcDbLine
62
7
6
CONTINUOUS
10
242.8867513459
20
299.0000000000
11
240.0000000000
21
304.0000000000
0
LINE
5
434
100
AcDbEntity
8
0
100
AcDbLine
62
7
6
CONTINUOUS
10
445.0000000000
20
152.6132486541
11
450.0000000000
21
155.5000000000
0
LINE
5
435
100
AcDbEntity
8
0
100
AcDbLine
62
7
6
CONTINUOUS
10
445.0000000000
20
158.3867513459
11
450.0000000000
21
155.5000000000
0
LINE
5
436
100
AcDbEntity
8
0
100
AcDbLine
62
7
6
CONTINUOUS
10
35.0000000000
20
299.0000000000
11
445.0000000000
21
299.0000000000
0
LINE
5
437
100
AcDbEntity
8
0
100
AcDbLine
62
7
6
CONTINUOUS
10
30.0000000000
20
304.0000000000
11
450.0000000000
21
304.0000000000
0
LINE
5
438
100
AcDbEntity
8
0
100
AcDbLine
62
7
6
CONTINUOUS
10
445.0000000000
20
12.0000000000
11
445.0000000000
21
299.0000000000
0
LINE
5
439
100
AcDbEntity
8
0
100
AcDbLine
62
7
6
CONTINUOUS
10
450.0000000000
20
7.0000000000
11
450.0000000000
21
304.0000000000
0
LINE
5
43A
100
AcDbEntity
8
0
100
AcDbLine
62
7
6
CONTINUOUS
10
120.2757268071
20
192.0892255233
11
120.2757268071
21
196.3765739160
0
LINE
5
43B
100
AcDbEntity
8
0
100
AcDbLine
62
5
6
CONTINUOUS
10
120.2757268071
20
196.3765739160
11
120.2757268071
21
206.3765739160
0
LINE
5
43C
100
AcDbEntity
8
0
100
AcDbLine
62
7
6
CONTINUOUS
10
146.4729594753
20
141.4383233476
11
144.5470384919
21
141.4383233476
0
LINE
5
43D
100
AcDbEntity
8
0
100
AcDbLine
62
5
6
CONTINUOUS
10
144.5470384919
20
141.4383233476
11
134.5470384919
21
141.4383233476
0
LINE
5
43E
100
AcDbEntity
8
0
100
AcDbLine
62
2
6
CONTINUOUS
10
141.9729594753
20
210.0282255233
11
142.5339594753
21
210.5892255233
0
LINE
5
43F
100
AcDbEntity
8
0
100
AcDbLine
62
7
6
CONTINUOUS
10
140.9729594753
20
170.5892255233
11
162.9729594753
21
170.5892255233
0
LINE
5
440
100
AcDbEntity
8
0
100
AcDbLine
62
2
6
CONTINUOUS
10
141.8990113036
20
204.4542773516
11
145.2229594753
21
207.7782255233
0
LINE
5
441
100
AcDbEntity
8
0
100
AcDbLine
62
2
6
CONTINUOUS
10
147.7229594753
20
210.2782255233
11
148.0339594753
21
210.5892255233
0
LINE
5
442
100
AcDbEntity
8
0
100
AcDbLine
62
7
6
CONTINUOUS
10
138.4855721986
20
194.9963967416
11
141.7920373377
21
204.0808350493
0
LINE
5
443
100
AcDbEntity
8
0
100
AcDbLine
62
7
6
CONTINUOUS
10
148.9729594753
20
176.5892255233
11
151.9729594753
21
176.5892255233
0
LINE
5
444
100
AcDbEntity
8
0
100
AcDbLine
62
7
6
CONTINUOUS
10
143.4729594753
20
177.5892255233
11
147.4729594753
21
177.5892255233
0
LINE
5
445
100
AcDbEntity
8
0
100
AcDbLine
62
7
6
CONTINUOUS
10
153.4729594753
20
177.5892255233
11
154.4005680765
21
177.5892255233
0
LINE
5
446
100
AcDbEntity
8
0
100
AcDbLine
62
2
6
CONTINUOUS
10
140.5491799524
20
197.6044460004
11
145.2229594753
21
202.2782255233
0
LINE
5
447
100
AcDbEntity
8
0
100
AcDbLine
62
2
6
CONTINUOUS
10
147.7229594753
20
204.7782255233
11
151.4082336340
21
208.4634996821
0
LINE
5
448
100
AcDbEntity
8
0
100
AcDbLine
62
7
6
CONTINUOUS
10
143.8229594753
20
179.5892255233
11
147.1229594753
21
179.5892255233
0
LINE
5
449
100
AcDbEntity
8
0
100
AcDbLine
62
7
6
CONTINUOUS
10
153.8229594753
20
179.5892255233
11
154.4792237016
21
179.5892255233
0
LINE
5
44A
100
AcDbEntity
8
0
100
AcDbLine
62
7
6
CONTINUOUS
10
150.4729594753
20
177.4552509271
11
151.9729594753
21
176.5892255233
0
LINE
5
44B
100
AcDbEntity
8
0
100
AcDbLine
62
7
6
CONTINUOUS
10
145.4729594753
20
180.5418534675
11
147.1229594753
21
179.5892255233
0
LINE
5
44C
100
AcDbEntity
8
0
100
AcDbLine
62
7
6
CONTINUOUS
10
140.9729594753
20
170.5892255233
11
140.9729594753
21
184.3432588309
0
LINE
5
44D
100
AcDbEntity
8
0
100
AcDbLine
62
7
6
CONTINUOUS
10
141.9729594753
20
205.1068954793
11
141.9729594753
21
210.5892255233
0
LINE
5
44E
100
AcDbEntity
8
0
100
AcDbLine
62
2
6
CONTINUOUS
10
143.4729594753
20
177.5892255233
11
143.4729594753
21
170.5892255233
0
LINE
5
44F
100
AcDbEntity
8
0
100
AcDbLine
62
7
6
CONTINUOUS
10
143.8229594753
20
179.5892255233
11
143.8229594753
21
170.5892255233
0
LINE
5
450
100
AcDbEntity
8
0
100
AcDbLine
62
2
6
CONTINUOUS
10
147.7229594753
20
199.2782255233
11
151.3507003244
21
202.9059663724
0
LINE
5
451
100
AcDbEntity
8
0
100
AcDbLine
62
2
6
CONTINUOUS
10
144.9729594753
20
210.5892255233
11
144.9729594753
21
198.4137808437
0
LINE
5
452
100
AcDbEntity
8
0
100
AcDbLine
62
7
6
CONTINUOUS
10
145.2229594753
20
198.4679009344
11
145.2229594753
21
210.5892255233
0
LINE
5
453
100
AcDbEntity
8
DEFAULT_1
100
AcDbLine
62
2
6
CENTER
10
145.4729594753
20
154.0597755653
11
145.4729594753
21
182.0892255233
0
LINE
5
454
100
AcDbEntity
8
0
100
AcDbLine
62
7
6
CONTINUOUS
10
162.9729594753
20
205.6569568493
11
154.6728338464
21
200.8648770831
0
LINE
5
455
100
AcDbEntity
8
0
100
AcDbLine
62
7
6
CONTINUOUS
10
150.4666901946
20
197.4534961922
11
150.2739912075
21
197.3614327879
0
LINE
5
456
100
AcDbEntity
8
0
100
AcDbLine
62
7
6
CONTINUOUS
10
140.9729594753
20
183.5992023016
11
141.3532078424
21
183.6347833759
0
LINE
5
457
100
AcDbEntity
8
0
100
AcDbLine
62
7
6
CONTINUOUS
10
150.8137026549
20
183.8043394208
11
151.6408223533
21
183.8549288077
0
LINE
5
458
100
AcDbEntity
8
0
100
AcDbLine
62
7
6
CONTINUOUS
10
149.7008138178
20
183.7413819942
11
150.8137026549
21
183.8043394208
0
LINE
5
459
100
AcDbEntity
8
0
100
AcDbLine
62
7
6
CONTINUOUS
10
141.3532078424
20
183.6347833759
11
142.8324160682
21
183.6886686007
0
LINE
5
45A
100
AcDbEntity
8
0
100
AcDbLine
62
7
6
CONTINUOUS
10
148.6323354351
20
183.7046428182
11
149.7008138178
21
183.7413819942
0
LINE
5
45B
100
AcDbEntity
8
0
100
AcDbLine
62
7
6
CONTINUOUS
10
147.5749196922
20
183.6886686007
11
148.6323354351
21
183.7046428182
0
LINE
5
45C
100
AcDbEntity
8
0
100
AcDbLine
62
7
6
CONTINUOUS
10
142.8324160682
20
183.6886686007
11
144.4095363175
21
183.6984800860
0
LINE
5
45D
100
AcDbEntity
8
0
100
AcDbLine
62
7
6
CONTINUOUS
10
146.0006580176
20
183.6899601048
11
147.5749196922
21
183.6886686007
0
LINE
5
45E
100
AcDbEntity
8
0
100
AcDbLine
62
7
6
CONTINUOUS
10
144.4095363175
20
183.6984800860
11
146.0006580176
21
183.6899601048
0
LINE
5
45F
100
AcDbEntity
8
0
100
AcDbLine
62
7
6
CONTINUOUS
10
151.6408223533
20
183.8549288077
11
152.4358866542
21
183.8427031274
0
LINE
5
460
100
AcDbEntity
8
0
100
AcDbLine
62
7
6
CONTINUOUS
10
152.4358866542
20
183.8427031274
11
153.1271190568
21
183.6886686007
0
LINE
5
461
100
AcDbEntity
8
0
100
AcDbLine
62
7
6
CONTINUOUS
10
162.9729594753
20
175.5892255233
11
154.4404997422
21
180.5154434471
0
LINE
5
462
100
AcDbEntity
8
DEFAULT_1
100
AcDbLine
62
2
6
CENTER
10
146.4729594753
20
213.0892255233
11
146.4729594753
21
203.5892255233
0
LINE
5
463
100
AcDbEntity
8
DEFAULT_1
100
AcDbLine
62
2
6
CENTER
10
146.4729594753
20
192.0892255233
11
146.4729594753
21
182.0892255233
0
LINE
5
464
100
AcDbEntity
8
DEFAULT_1
100
AcDbLine
62
2
6
CENTER
10
146.4729594753
20
182.0892255233
11
146.4729594753
21
180.5892255233
0
LINE
5
465
100
AcDbEntity
8
0
100
AcDbLine
62
5
6
PHANTOM
10
146.4729594753
20
141.4383233476
11
146.4729594753
21
145.5780191001
0
LINE
5
466
100
AcDbEntity
8
DEFAULT_1
100
AcDbLine
62
2
6
CENTER
10
146.4729594753
20
192.0892255233
11
146.4729594753
21
197.0893255233
0
LINE
5
467
100
AcDbEntity
8
DEFAULT_1
100
AcDbLine
62
2
6
CENTER
10
146.4729594753
20
197.0893255233
11
146.4729594753
21
202.0892255233
0
LINE
5
468
100
AcDbEntity
8
DEFAULT_1
100
AcDbLine
62
2
6
CENTER
10
146.4729594753
20
202.0892255233
11
146.4729594753
21
203.5892255233
0
LINE
5
469
100
AcDbEntity
8
0
100
AcDbLine
62
2
6
PHANTOM
10
146.4729594753
20
163.8146429748
11
146.4729594753
21
180.5892255233
0
LINE
5
46A
100
AcDbEntity
8
0
100
AcDbLine
62
5
6
PHANTOM
10
146.4729594753
20
227.5989010179
11
146.4729594753
21
231.0557277234
0
LINE
5
46B
100
AcDbEntity
8
0
100
AcDbLine
62
7
6
CONTINUOUS
10
147.1229594753
20
179.5892255233
11
147.1229594753
21
170.5892255233
0
LINE
5
46C
100
AcDbEntity
8
0
100
AcDbLine
62
2
6
CONTINUOUS
10
147.4729594753
20
177.5892255233
11
147.4729594753
21
170.5892255233
0
LINE
5
46D
100
AcDbEntity
8
0
100
AcDbLine
62
7
6
CONTINUOUS
10
147.7229594753
20
198.4679009344
11
147.7229594753
21
210.5892255233
0
LINE
5
46E
100
AcDbEntity
8
0
100
AcDbLine
62
7
6
CONTINUOUS
10
151.4943496133
20
199.5982007956
11
150.4666901946
21
197.4534961922
0
LINE
5
46F
100
AcDbEntity
8
0
100
AcDbLine
62
2
6
CONTINUOUS
10
147.9729594753
20
210.5892255233
11
147.9729594753
21
198.4137808437
0
LINE
5
470
100
AcDbEntity
8
0
100
AcDbLine
62
7
6
CONTINUOUS
10
148.9729594753
20
176.5892255233
11
148.9729594753
21
170.5892255233
0
LINE
5
471
100
AcDbEntity
8
0
100
AcDbLine
62
7
6
CONTINUOUS
10
151.4360232493
20
208.7126355634
11
151.1607151152
21
206.2444785196
0
LINE
5
472
100
AcDbEntity
8
0
100
AcDbLine
62
7
6
CONTINUOUS
10
151.6848835085
20
210.5892255233
11
151.4360232493
21
208.7126355634
0
LINE
5
473
100
AcDbEntity
8
0
100
AcDbLine
62
7
6
CONTINUOUS
10
153.1271190568
20
183.6886686007
11
154.2251686701
21
182.3200888969
0
LINE
5
474
100
AcDbEntity
8
DEFAULT_1
100
AcDbLine
62
2
6
CENTER
10
150.4729594753
20
145.4621146047
11
150.4729594753
21
155.0846623024
0
LINE
5
475
100
AcDbEntity
8
DEFAULT_1
100
AcDbLine
62
2
6
CENTER
10
150.4729594753
20
159.1842092505
11
150.4729594753
21
179.9552509271
0
LINE
5
476
100
AcDbEntity
8
0
100
AcDbLine
62
2
6
CONTINUOUS
10
140.9729594753
20
181.5282255233
11
143.1352867535
21
183.6905528015
0
LINE
5
477
100
AcDbEntity
8
0
100
AcDbLine
62
7
6
CONTINUOUS
10
154.5151688980
20
172.8156115116
11
154.9348153815
21
170.5892255233
0
LINE
5
478
100
AcDbEntity
8
0
100
AcDbLine
62
7
6
CONTINUOUS
10
154.3579657522
20
174.3634041886
11
154.5151688980
21
172.8156115116
0
LINE
5
479
100
AcDbEntity
8
0
100
AcDbLine
62
7
6
CONTINUOUS
10
151.1607151152
20
206.2444785196
11
151.3611313793
21
202.7226668208
0
LINE
5
47A
100
AcDbEntity
8
0
100
AcDbLine
62
7
6
CONTINUOUS
10
151.3611313793
20
202.7226668208
11
151.4943496133
21
199.5982007956
0
LINE
5
47B
100
AcDbEntity
8
0
100
AcDbLine
62
7
6
CONTINUOUS
10
151.9729594753
20
176.5892255233
11
151.9729594753
21
170.5892255233
0
LINE
5
47C
100
AcDbEntity
8
0
100
AcDbLine
62
5
6
PHANTOM
10
177.1532035726
20
192.0892255233
11
167.1532035726
21
192.0892255233
0
LINE
5
47D
100
AcDbEntity
8
DEFAULT_1
100
AcDbLine
62
2
6
CENTER
10
146.4729594753
20
192.0892255233
11
141.4728594753
21
192.0892255233
0
LINE
5
47E
100
AcDbEntity
8
DEFAULT_1
100
AcDbLine
62
2
6
CENTER
10
141.4728594753
20
192.0892255233
11
136.4729594753
21
192.0892255233
0
LINE
5
47F
100
AcDbEntity
8
DEFAULT_1
100
AcDbLine
62
2
6
CENTER
10
136.4729594753
20
192.0892255233
11
134.9729594753
21
192.0892255233
0
LINE
5
480
100
AcDbEntity
8
0
100
AcDbLine
62
2
6
PHANTOM
10
167.1532035726
20
192.0892255233
11
157.9729594753
21
192.0892255233
0
LINE
5
481
100
AcDbEntity
8
0
100
AcDbLine
62
2
6
PHANTOM
10
134.9729594753
20
192.0892255233
11
130.2757268071
21
192.0892255233
0
LINE
5
482
100
AcDbEntity
8
0
100
AcDbLine
62
5
6
PHANTOM
10
130.2757268071
20
192.0892255233
11
120.2757268071
21
192.0892255233
0
LINE
5
483
100
AcDbEntity
8
DEFAULT_1
100
AcDbLine
62
2
6
CENTER
10
146.4729594753
20
192.0892255233
11
156.4729594753
21
192.0892255233
0
LINE
5
484
100
AcDbEntity
8
DEFAULT_1
100
AcDbLine
62
2
6
CENTER
10
156.4729594753
20
192.0892255233
11
157.9729594753
21
192.0892255233
0
LINE
5
485
100
AcDbEntity
8
0
100
AcDbLine
62
7
6
CONTINUOUS
10
154.2251686701
20
182.3200888969
11
154.4969949006
21
180.0419691380
0
LINE
5
486
100
AcDbEntity
8
0
100
AcDbLine
62
7
6
CONTINUOUS
10
154.3330831060
20
175.8936623672
11
154.3579657522
21
174.3634041886
0
LINE
5
487
100
AcDbEntity
8
0
100
AcDbLine
62
2
6
CONTINUOUS
10
153.4729594753
20
177.5892255233
11
153.4729594753
21
170.5892255233
0
LINE
5
488
100
AcDbEntity
8
0
100
AcDbLine
62
7
6
CONTINUOUS
10
153.8229594753
20
179.5892255233
11
153.8229594753
21
170.5892255233
0
LINE
5
489
100
AcDbEntity
8
0
100
AcDbLine
62
7
6
CONTINUOUS
10
154.4969949006
20
180.0419691380
11
154.3330831060
21
175.8936623672
0
LINE
5
48A
100
AcDbEntity
8
0
100
AcDbLine
62
2
6
CONTINUOUS
10
140.9729594753
20
176.0282255233
11
143.8229594753
21
178.8782255233
0
LINE
5
48B
100
AcDbEntity
8
0
100
AcDbLine
62
2
6
CONTINUOUS
10
145.4815992457
20
180.5368652937
11
148.6499835947
21
183.7052496427
0
LINE
5
48C
100
AcDbEntity
8
DEFAULT_1
100
AcDbLine
62
2
6
CENTER
10
155.4729594753
20
168.0892255233
11
155.4729594753
21
182.0892255233
0
LINE
5
48D
100
AcDbEntity
8
0
100
AcDbLine
62
7
6
CONTINUOUS
10
145.4729594753
20
180.5418534675
11
143.8229594753
21
179.5892255233
0
LINE
5
48E
100
AcDbEntity
8
0
100
AcDbLine
62
7
6
CONTINUOUS
10
140.5560212030
20
197.6037161295
11
139.4764783658
21
197.7188890607
0
LINE
5
48F
100
AcDbEntity
8
0
100
AcDbLine
62
7
6
CONTINUOUS
10
142.4780263458
20
197.2121442465
11
140.5560212030
21
197.6037161295
0
LINE
5
490
100
AcDbEntity
8
0
100
AcDbLine
62
2
6
CONTINUOUS
10
141.0339594753
20
170.5892255233
11
143.8229594753
21
173.3782255233
0
LINE
5
491
100
AcDbEntity
8
0
100
AcDbLine
62
2
6
CONTINUOUS
10
147.1229594753
20
176.6782255233
11
153.5750782195
21
183.1303442675
0
LINE
5
492
100
AcDbEntity
8
0
100
AcDbLine
62
2
6
CONTINUOUS
10
147.1229594753
20
171.1782255233
11
148.9729594753
21
173.0282255233
0
LINE
5
493
100
AcDbEntity
8
0
100
AcDbLine
62
2
6
CONTINUOUS
10
151.9729594753
20
176.0282255233
11
153.8229594753
21
177.8782255233
0
LINE
5
494
100
AcDbEntity
8
0
100
AcDbLine
62
7
6
CONTINUOUS
10
154.4944410101
20
179.9769055682
11
153.8229594753
21
179.5892255233
0
LINE
5
495
100
AcDbEntity
8
0
100
AcDbLine
62
7
6
CONTINUOUS
10
150.4729594753
20
177.4552509271
11
148.9729594753
21
176.5892255233
0
LINE
5
496
100
AcDbEntity
8
0
100
AcDbLine
62
7
6
CONTINUOUS
10
162.9729594753
20
210.5892255233
11
162.9729594753
21
170.5892255233
0
LINE
5
497
100
AcDbEntity
8
0
100
AcDbLine
62
2
6
CONTINUOUS
10
152.0339594753
20
170.5892255233
11
153.8229594753
21
172.3782255233
0
LINE
5
498
100
AcDbEntity
8
0
100
AcDbLine
62
7
6
CONTINUOUS
10
141.9729594753
20
210.5892255233
11
162.9729594753
21
210.5892255233
0
LINE
5
499
100
AcDbEntity
8
0
100
AcDbLine
62
7
6
CONTINUOUS
10
177.1532035726
20
192.0892255233
11
177.1532035726
21
196.3765739160
0
LINE
5
49A
100
AcDbEntity
8
0
100
AcDbLine
62
5
6
CONTINUOUS
10
177.1532035726
20
196.3765739160
11
177.1532035726
21
206.3765739160
0
LINE
5
49B
100
AcDbEntity
8
0
100
AcDbLine
62
7
6
CONTINUOUS
10
146.4729594753
20
231.0557277234
11
144.5470384919
21
231.0557277234
0
LINE
5
49C
100
AcDbEntity
8
0
100
AcDbLine
62
5
6
CONTINUOUS
10
144.5470384919
20
231.0557277234
11
134.5470384919
21
231.0557277234
0
LINE
5
49D
100
AcDbEntity
8
0
100
AcDbLine
62
7
6
CONTINUOUS
10
118.1178185039
20
256.4715909588
11
118.1178185039
21
260.2932936305
0
LINE
5
49E
100
AcDbEntity
8
0
100
AcDbLine
62
5
6
CONTINUOUS
10
118.1178185039
20
260.2932936305
11
118.1178185039
21
270.2932936305
0
LINE
5
49F
100
AcDbEntity
8
0
100
AcDbLine
62
7
6
CONTINUOUS
10
137.9729594753
20
262.4715909588
11
137.9729594753
21
250.4715909588
0
LINE
5
4A0
100
AcDbEntity
8
0
100
AcDbLine
62
9
6
CONTINUOUS
10
140.1903507797
20
250.4715909588
11
140.1903507797
21
262.4715909588
0
LINE
5
4A1
100
AcDbEntity
8
0
100
AcDbLine
62
7
6
CONTINUOUS
10
140.9729594753
20
262.4715909588
11
140.9729594753
21
250.4715909588
0
LINE
5
4A2
100
AcDbEntity
8
DEFAULT_1
100
AcDbLine
62
2
6
CENTER
10
145.4729594753
20
256.4715909588
11
145.4729594753
21
249.8215909588
0
LINE
5
4A3
100
AcDbEntity
8
DEFAULT_1
100
AcDbLine
62
2
6
CENTER
10
145.4729594753
20
256.4715909588
11
145.4729594753
21
263.1215909588
0
LINE
5
4A4
100
AcDbEntity
8
0
100
AcDbLine
62
7
6
CONTINUOUS
10
137.9729708833
20
250.4715909588
11
162.9729594753
21
250.4715909588
0
LINE
5
4A5
100
AcDbEntity
8
DEFAULT_1
100
AcDbLine
62
2
6
CENTER
10
150.4729594753
20
256.4715909588
11
150.4729594753
21
249.9715909588
0
LINE
5
4A6
100
AcDbEntity
8
DEFAULT_1
100
AcDbLine
62
2
6
CENTER
10
150.4729594753
20
256.4715909588
11
150.4729594753
21
262.9715909588
0
LINE
5
4A7
100
AcDbEntity
8
DEFAULT_1
100
AcDbLine
62
2
6
CENTER
10
150.4729594753
20
262.9715909588
11
150.4729594753
21
271.0847988336
0
LINE
5
4A8
100
AcDbEntity
8
0
100
AcDbLine
62
5
6
PHANTOM
10
188.5853115474
20
256.4715909588
11
187.3519451776
21
256.4715909588
0
LINE
5
4A9
100
AcDbEntity
8
DEFAULT_1
100
AcDbLine
62
2
6
CENTER
10
155.4729594753
20
256.4715909588
11
148.8229594753
21
256.4715909588
0
LINE
5
4AA
100
AcDbEntity
8
DEFAULT_1
100
AcDbLine
62
2
6
CENTER
10
148.8229594753
20
256.4715909588
11
143.9729594753
21
256.4715909588
0
LINE
5
4AB
100
AcDbEntity
8
DEFAULT_1
100
AcDbLine
62
2
6
CENTER
10
143.9729594753
20
256.4715909588
11
138.8229594753
21
256.4715909588
0
LINE
5
4AC
100
AcDbEntity
8
0
100
AcDbLine
62
2
6
PHANTOM
10
138.8229594753
20
256.4715909588
11
128.1178185039
21
256.4715909588
0
LINE
5
4AD
100
AcDbEntity
8
0
100
AcDbLine
62
5
6
PHANTOM
10
128.1178185039
20
256.4715909588
11
118.1178185039
21
256.4715909588
0
LINE
5
4AE
100
AcDbEntity
8
DEFAULT_1
100
AcDbLine
62
2
6
CENTER
10
155.4729594753
20
256.4715909588
11
156.9729594753
21
256.4715909588
0
LINE
5
4AF
100
AcDbEntity
8
DEFAULT_1
100
AcDbLine
62
2
6
CENTER
10
156.9729594753
20
256.4715909588
11
187.3519451776
21
256.4715909588
0
LINE
5
4B0
100
AcDbEntity
8
DEFAULT_1
100
AcDbLine
62
2
6
CENTER
10
155.4729594753
20
256.4715909588
11
155.4729594753
21
249.8215909588
0
LINE
5
4B1
100
AcDbEntity
8
DEFAULT_1
100
AcDbLine
62
2
6
CENTER
10
155.4729594753
20
256.4715909588
11
155.4729594753
21
263.1215909588
0
LINE
5
4B2
100
AcDbEntity
8
0
100
AcDbLine
62
7
6
CONTINUOUS
10
137.9729708825
20
262.4715909588
11
162.9729594753
21
262.4715909588
0
LINE
5
4B3
100
AcDbEntity
8
0
100
AcDbLine
62
7
6
CONTINUOUS
10
162.9729594753
20
262.4715909588
11
162.9729594753
21
250.4715909588
0
LINE
5
4B4
100
AcDbEntity
8
0
100
AcDbLine
62
7
6
CONTINUOUS
10
188.5853115474
20
256.4715909588
11
188.5853115474
21
260.2932936305
0
LINE
5
4B5
100
AcDbEntity
8
0
100
AcDbLine
62
5
6
CONTINUOUS
10
188.5853115474
20
260.2932936305
11
188.5853115474
21
270.2932936305
0
LINE
5
4B6
100
AcDbEntity
8
0
100
AcDbLine
62
2
6
CONTINUOUS
10
137.9729594753
20
64.3925169896
11
138.0064594753
21
64.4260169896
0
LINE
5
4B7
100
AcDbEntity
8
0
100
AcDbLine
62
7
6
CONTINUOUS
10
137.9729594753
20
52.4260169896
11
137.9729594753
21
64.4260169896
0
LINE
5
4B8
100
AcDbEntity
8
0
100
AcDbLine
62
7
6
CONTINUOUS
10
139.9729594753
20
52.4260169896
11
139.9729594753
21
62.4260169896
0
LINE
5
4B9
100
AcDbEntity
8
0
100
AcDbLine
62
2
6
CONTINUOUS
10
137.9729594753
20
61.8155939126
11
140.5833825522
21
64.4260169896
0
LINE
5
4BA
100
AcDbEntity
8
0
100
AcDbLine
62
7
6
CONTINUOUS
10
141.4729594753
20
62.4260169896
11
141.4729594753
21
64.4260169896
0
LINE
5
4BB
100
AcDbEntity
8
0
100
AcDbLine
62
2
6
CONTINUOUS
10
137.9729594753
20
59.2386708357
11
139.9729594753
21
61.2386708357
0
LINE
5
4BC
100
AcDbEntity
8
0
100
AcDbLine
62
2
6
CONTINUOUS
10
141.1603056291
20
62.4260169896
11
141.4729594753
21
62.7386708357
0
LINE
5
4BD
100
AcDbEntity
8
0
100
AcDbLine
62
2
6
CONTINUOUS
10
137.9729594753
20
56.6617477588
11
139.9729594753
21
58.6617477588
0
LINE
5
4BE
100
AcDbEntity
8
0
100
AcDbLine
62
2
6
CONTINUOUS
10
137.9729594753
20
54.0848246819
11
139.9729594753
21
56.0848246819
0
LINE
5
4BF
100
AcDbEntity
8
0
100
AcDbLine
62
7
6
CONTINUOUS
10
137.9729594753
20
52.4260169896
11
162.9729594753
21
52.4260169896
0
LINE
5
4C0
100
AcDbEntity
8
DEFAULT_1
100
AcDbLine
62
2
6
CENTER
10
146.4729594753
20
76.1190961566
11
146.4729594753
21
40.0170927813
0
LINE
5
4C1
100
AcDbEntity
8
0
100
AcDbLine
62
2
6
CONTINUOUS
10
138.8910748599
20
52.4260169896
11
139.9729594753
21
53.5079016049
0
LINE
5
4C2
100
AcDbEntity
8
0
100
AcDbLine
62
2
6
CONTINUOUS
10
151.4729594753
20
62.4309785280
11
153.4679979368
21
64.4260169896
0
LINE
5
4C3
100
AcDbEntity
8
0
100
AcDbLine
62
7
6
CONTINUOUS
10
162.9729594753
20
55.9260169896
11
154.9729594753
21
55.9260169896
0
LINE
5
4C4
100
AcDbEntity
8
0
100
AcDbLine
62
2
6
CONTINUOUS
10
152.9729594753
20
61.3540554511
11
154.9729594753
21
63.3540554511
0
LINE
5
4C5
100
AcDbEntity
8
0
100
AcDbLine
62
7
6
CONTINUOUS
10
151.4729594753
20
62.4260169896
11
151.4729594753
21
64.4260169896
0
LINE
5
4C6
100
AcDbEntity
8
0
100
AcDbLine
62
2
6
CONTINUOUS
10
152.9729594753
20
58.7771323742
11
155.1218440907
21
60.9260169896
0
LINE
5
4C7
100
AcDbEntity
8
0
100
AcDbLine
62
7
6
CONTINUOUS
10
152.9729594753
20
52.4260169896
11
152.9729594753
21
62.4260169896
0
LINE
5
4C8
100
AcDbEntity
8
0
100
AcDbLine
62
2
6
CONTINUOUS
10
152.9729594753
20
56.2002092972
11
157.6987671676
21
60.9260169896
0
LINE
5
4C9
100
AcDbEntity
8
0
100
AcDbLine
62
7
6
CONTINUOUS
10
154.9729594753
20
60.9260169896
11
162.9729594753
21
60.9260169896
0
LINE
5
4CA
100
AcDbEntity
8
0
100
AcDbLine
62
7
6
CONTINUOUS
10
154.9729594753
20
55.9260169896
11
154.9729594753
21
52.4260169896
0
LINE
5
4CB
100
AcDbEntity
8
0
100
AcDbLine
62
7
6
CONTINUOUS
10
154.9729594753
20
60.9260169896
11
154.9729594753
21
64.4260169896
0
LINE
5
4CC
100
AcDbEntity
8
0
100
AcDbLine
62
7
6
CONTINUOUS
10
139.9729594753
20
62.4260169896
11
152.9729594753
21
62.4260169896
0
LINE
5
4CD
100
AcDbEntity
8
0
100
AcDbLine
62
2
6
CONTINUOUS
10
152.9729594753
20
53.6232862203
11
154.9729594753
21
55.6232862203
0
LINE
5
4CE
100
AcDbEntity
8
0
100
AcDbLine
62
2
6
CONTINUOUS
10
155.2756902445
20
55.9260169896
11
160.2756902445
21
60.9260169896
0
LINE
5
4CF
100
AcDbEntity
8
0
100
AcDbLine
62
2
6
CONTINUOUS
10
154.3526133215
20
52.4260169896
11
154.9729594753
21
53.0463631434
0
LINE
5
4D0
100
AcDbEntity
8
0
100
AcDbLine
62
2
6
CONTINUOUS
10
157.8526133215
20
55.9260169896
11
162.8526133215
21
60.9260169896
0
LINE
5
4D1
100
AcDbEntity
8
0
100
AcDbLine
62
7
6
CONTINUOUS
10
137.9729594753
20
64.4260169896
11
162.9729594753
21
64.4260169896
0
LINE
5
4D2
100
AcDbEntity
8
0
100
AcDbLine
62
2
6
CONTINUOUS
10
160.4295363984
20
55.9260169896
11
162.9729594753
21
58.4694400665
0
LINE
5
4D3
100
AcDbEntity
8
0
100
AcDbLine
62
7
6
CONTINUOUS
10
162.9729594753
20
52.4260169896
11
162.9729594753
21
64.4260169896
0
LINE
5
4D4
100
AcDbEntity
8
0
100
AcDbLine
62
7
6
CONTINUOUS
10
238.4857817104
20
170.5892255233
11
226.4857817104
21
170.5892255233
0
LINE
5
4D5
100
AcDbEntity
8
0
100
AcDbLine
62
2
6
CONTINUOUS
10
230.5377817104
20
210.5892255233
11
228.0808161462
21
208.1322599591
0
LINE
5
4D6
100
AcDbEntity
8
0
100
AcDbLine
62
2
6
CONTINUOUS
10
234.5377817104
20
210.5892255233
11
233.7357817104
21
209.7872255233
0
LINE
5
4D7
100
AcDbEntity
8
0
100
AcDbLine
62
2
6
CONTINUOUS
10
231.2357817104
20
207.2872255233
11
227.9927643170
21
204.0442081299
0
LINE
5
4D8
100
AcDbEntity
8
0
100
AcDbLine
62
2
6
CONTINUOUS
10
238.4857817104
20
210.5372255233
11
233.7357817104
21
205.7872255233
0
LINE
5
4D9
100
AcDbEntity
8
0
100
AcDbLine
62
2
6
CONTINUOUS
10
231.2357817104
20
203.2872255233
11
228.0692236822
21
200.1206674951
0
LINE
5
4DA
100
AcDbEntity
8
0
100
AcDbLine
62
2
6
CONTINUOUS
10
238.4857817104
20
206.5372255233
11
233.7357817104
21
201.7872255233
0
LINE
5
4DB
100
AcDbEntity
8
0
100
AcDbLine
62
2
6
CONTINUOUS
10
231.2357817104
20
199.2872255233
11
230.5377817104
21
198.5892255233
0
POLYLINE
5
4DC
100
AcDbEntity
8
0
100
AcDb2dPolyline
62
2
6
CONTINUOUS
66
1
70
0
0
VERTEX
5
4DD
100
AcDbEntity
8
0
100
AcDbVertex
62
2
6
CONTINUOUS
100
AcDb2dVertex
10
233.9857817104
20
198.5891964674
0
VERTEX
5
4DE
100
AcDbEntity
8
0
100
AcDbVertex
62
2
6
CONTINUOUS
100
AcDb2dVertex
10
233.9851198312
20
198.5889671202
0
VERTEX
5
4DF
100
AcDbEntity
8
0
100
AcDbVertex
62
2
6
CONTINUOUS
100
AcDb2dVertex
10
233.9831302675
20
198.5884638344
0
VERTEX
5
4E0
100
AcDbEntity
8
0
100
AcDbVertex
62
2
6
CONTINUOUS
100
AcDb2dVertex
10
233.9798071301
20
198.5876815908
0
SEQEND
5
4E1
100
AcDbEntity
8
0
0
LINE
5
4E2
100
AcDbEntity
8
0
100
AcDbLine
62
7
6
CONTINUOUS
10
226.4857817104
20
170.5892255233
11
226.4857817104
21
210.5892255233
0
LINE
5
4E3
100
AcDbEntity
8
0
100
AcDbLine
62
9
6
CONTINUOUS
10
226.4857817104
20
184.3432588309
11
238.4857817104
21
184.3432588309
0
LINE
5
4E4
100
AcDbEntity
8
0
100
AcDbLine
62
7
6
CONTINUOUS
10
227.9824055164
20
203.8245295087
11
227.9520457005
21
200.3903082884
0
LINE
5
4E5
100
AcDbEntity
8
0
100
AcDbLine
62
7
6
CONTINUOUS
10
228.1479043612
20
207.3342561151
11
227.9824055164
21
203.8245295087
0
LINE
5
4E6
100
AcDbEntity
8
0
100
AcDbLine
62
2
6
CONTINUOUS
10
238.4857817104
20
202.5372255233
11
234.5377817104
21
198.5892255233
0
LINE
5
4E7
100
AcDbEntity
8
0
100
AcDbLine
62
9
6
CONTINUOUS
10
226.4857817104
20
186.3639457942
11
238.4857817104
21
186.3639457942
0
LINE
5
4E8
100
AcDbEntity
8
0
100
AcDbLine
62
7
6
CONTINUOUS
10
228.0402272143
20
208.6150589669
11
228.1479043612
21
207.3342561151
0
LINE
5
4E9
100
AcDbEntity
8
0
100
AcDbLine
62
2
6
CONTINUOUS
10
230.9857817104
20
210.5892255233
11
230.9857817104
21
198.5891964674
0
LINE
5
4EA
100
AcDbEntity
8
0
100
AcDbLine
62
7
6
CONTINUOUS
10
231.2357817104
20
198.5892255233
11
231.2357817104
21
210.5892255233
0
LINE
5
4EB
100
AcDbEntity
8
0
100
AcDbLine
62
7
6
CONTINUOUS
10
227.8638798426
20
209.8642547277
11
228.0402272143
21
208.6150589669
0
LINE
5
4EC
100
AcDbEntity
8
0
100
AcDbLine
62
7
6
CONTINUOUS
10
227.7687286395
20
210.5892255233
11
227.8638798426
21
209.8642547277
0
LINE
5
4ED
100
AcDbEntity
8
DEFAULT_1
100
AcDbLine
62
2
6
CENTER
10
232.4857817104
20
168.0892255233
11
232.4857817104
21
225.5440474762
0
LINE
5
4EE
100
AcDbEntity
8
0
100
AcDbLine
62
7
6
CONTINUOUS
10
227.9520457005
20
200.3903082884
11
229.1167771814
21
197.7101194346
0
LINE
5
4EF
100
AcDbEntity
8
0
100
AcDbLine
62
7
6
CONTINUOUS
10
233.7357817104
20
198.5892255233
11
233.7357817104
21
210.5892255233
0
LINE
5
4F0
100
AcDbEntity
8
0
100
AcDbLine
62
2
6
CONTINUOUS
10
233.9857817104
20
210.5892255233
11
233.9857817104
21
198.5891964674
0
LINE
5
4F1
100
AcDbEntity
8
DEFAULT_1
100
AcDbLine
62
2
6
CENTER
10
223.9857817104
20
192.0892255233
11
241.8039864993
21
192.0892255233
0
LINE
5
4F2
100
AcDbEntity
8
0
100
AcDbLine
62
7
6
CONTINUOUS
10
237.9320647102
20
195.1549394173
11
238.4857817104
21
195.2121933704
0
LINE
5
4F3
100
AcDbEntity
8
0
100
AcDbLine
62
7
6
CONTINUOUS
10
229.1167771814
20
197.7101194346
11
230.0431226873
21
197.0276738494
0
LINE
5
4F4
100
AcDbEntity
8
0
100
AcDbLine
62
9
6
CONTINUOUS
10
226.4857817104
20
194.9963967416
11
238.4857817104
21
194.9963967416
0
LINE
5
4F5
100
AcDbEntity
8
0
100
AcDbLine
62
7
6
CONTINUOUS
10
236.3510275721
20
195.2556416235
11
237.9320647102
21
195.1549394173
0
LINE
5
4F6
100
AcDbEntity
8
0
100
AcDbLine
62
7
6
CONTINUOUS
10
234.9701267978
20
195.4528656959
11
236.3510275721
21
195.2556416235
0
LINE
5
4F7
100
AcDbEntity
8
0
100
AcDbLine
62
7
6
CONTINUOUS
10
233.6585341686
20
195.7300645320
11
234.9701267978
21
195.4528656959
0
LINE
5
4F8
100
AcDbEntity
8
0
100
AcDbLine
62
7
6
CONTINUOUS
10
232.3463532487
20
196.0953314010
11
233.6585341686
21
195.7300645320
0
LINE
5
4F9
100
AcDbEntity
8
0
100
AcDbLine
62
7
6
CONTINUOUS
10
231.1606615745
20
196.5032712233
11
232.3463532487
21
196.0953314010
0
LINE
5
4FA
100
AcDbEntity
8
0
100
AcDbLine
62
7
6
CONTINUOUS
10
230.0431226873
20
197.0276738494
11
231.1606615745
21
196.5032712233
0
LINE
5
4FB
100
AcDbEntity
8
0
100
AcDbLine
62
7
6
CONTINUOUS
10
238.4857817104
20
170.5892255233
11
238.4857817104
21
210.5892255233
0
LINE
5
4FC
100
AcDbEntity
8
0
100
AcDbLine
62
2
6
CONTINUOUS
10
233.9798071301
20
198.5876815908
11
233.9617773833
21
198.5836109211
0
LINE
5
4FD
100
AcDbEntity
8
0
100
AcDbLine
62
2
6
CONTINUOUS
10
233.9617773833
20
198.5836109211
11
233.9048441721
21
198.5709930096
0
LINE
5
4FE
100
AcDbEntity
8
0
100
AcDbLine
62
2
6
CONTINUOUS
10
233.9048441721
20
198.5709930096
11
233.8730726422
21
198.5641350159
0
LINE
5
4FF
100
AcDbEntity
8
0
100
AcDbLine
62
2
6
CONTINUOUS
10
233.8730726422
20
198.5641350159
11
233.8364717378
21
198.5564230095
0
LINE
5
500
100
AcDbEntity
8
0
100
AcDbLine
62
2
6
CONTINUOUS
10
233.8364717378
20
198.5564230095
11
233.7953594481
21
198.5479971453
0
LINE
5
501
100
AcDbEntity
8
0
100
AcDbLine
62
2
6
CONTINUOUS
10
233.7953594481
20
198.5479971453
11
233.7501610733
21
198.5390164525
0
LINE
5
502
100
AcDbEntity
8
0
100
AcDbLine
62
2
6
CONTINUOUS
10
233.7501610733
20
198.5390164525
11
233.7013065790
21
198.5296407808
0
LINE
5
503
100
AcDbEntity
8
0
100
AcDbLine
62
2
6
CONTINUOUS
10
233.7013065790
20
198.5296407808
11
233.6492041856
21
198.5200241819
0
LINE
5
504
100
AcDbEntity
8
0
100
AcDbLine
62
2
6
CONTINUOUS
10
233.6492041856
20
198.5200241819
11
233.5941751318
21
198.5102975153
0
POLYLINE
5
505
100
AcDbEntity
8
0
100
AcDb2dPolyline
62
2
6
CONTINUOUS
66
1
70
0
0
VERTEX
5
506
100
AcDbEntity
8
0
100
AcDbVertex
62
2
6
CONTINUOUS
100
AcDb2dVertex
10
233.5941751318
20
198.5102975153
0
VERTEX
5
507
100
AcDbEntity
8
0
100
AcDbVertex
62
2
6
CONTINUOUS
100
AcDb2dVertex
10
233.5365189106
20
198.5005858424
0
VERTEX
5
508
100
AcDbEntity
8
0
100
AcDbVertex
62
2
6
CONTINUOUS
100
AcDb2dVertex
10
233.5067992039
20
198.4957747102
0
VERTEX
5
509
100
AcDbEntity
8
0
100
AcDbVertex
62
2
6
CONTINUOUS
100
AcDb2dVertex
10
233.4714319073
20
198.4902250279
0
VERTEX
5
50A
100
AcDbEntity
8
0
100
AcDbVertex
62
2
6
CONTINUOUS
100
AcDb2dVertex
10
233.4353303412
20
198.4847582819
0
VERTEX
5
50B
100
AcDbEntity
8
0
100
AcDbVertex
62
2
6
CONTINUOUS
100
AcDb2dVertex
10
233.3985013366
20
198.4793884730
0
VERTEX
5
50C
100
AcDbEntity
8
0
100
AcDbVertex
62
2
6
CONTINUOUS
100
AcDb2dVertex
10
233.3609517244
20
198.4741296020
0
VERTEX
5
50D
100
AcDbEntity
8
0
100
AcDbVertex
62
2
6
CONTINUOUS
100
AcDb2dVertex
10
233.3226883356
20
198.4689956697
0
VERTEX
5
50E
100
AcDbEntity
8
0
100
AcDbVertex
62
2
6
CONTINUOUS
100
AcDb2dVertex
10
233.2837180010
20
198.4640006771
0
VERTEX
5
50F
100
AcDbEntity
8
0
100
AcDbVertex
62
2
6
CONTINUOUS
100
AcDb2dVertex
10
233.2440513475
20
198.4591586950
0
VERTEX
5
510
100
AcDbEntity
8
0
100
AcDbVertex
62
2
6
CONTINUOUS
100
AcDb2dVertex
10
233.2037141856
20
198.4544840754
0
VERTEX
5
511
100
AcDbEntity
8
0
100
AcDbVertex
62
2
6
CONTINUOUS
100
AcDb2dVertex
10
233.1627361219
20
198.4499912403
0
VERTEX
5
512
100
AcDbEntity
8
0
100
AcDbVertex
62
2
6
CONTINUOUS
100
AcDb2dVertex
10
233.1211467628
20
198.4456946119
0
VERTEX
5
513
100
AcDbEntity
8
0
100
AcDbVertex
62
2
6
CONTINUOUS
100
AcDb2dVertex
10
233.0789757147
20
198.4416086121
0
VERTEX
5
514
100
AcDbEntity
8
0
100
AcDbVertex
62
2
6
CONTINUOUS
100
AcDb2dVertex
10
233.0362525843
20
198.4377476630
0
VERTEX
5
515
100
AcDbEntity
8
0
100
AcDbVertex
62
2
6
CONTINUOUS
100
AcDb2dVertex
10
232.9930026757
20
198.4341263626
0
VERTEX
5
516
100
AcDbEntity
8
0
100
AcDbVertex
62
2
6
CONTINUOUS
100
AcDb2dVertex
10
232.9492340849
20
198.4307600122
0
VERTEX
5
517
100
AcDbEntity
8
0
100
AcDbVertex
62
2
6
CONTINUOUS
100
AcDb2dVertex
10
232.9049506056
20
198.4276640891
0
VERTEX
5
518
100
AcDbEntity
8
0
100
AcDbVertex
62
2
6
CONTINUOUS
100
AcDb2dVertex
10
232.8601560314
20
198.4248540704
0
VERTEX
5
519
100
AcDbEntity
8
0
100
AcDbVertex
62
2
6
CONTINUOUS
100
AcDb2dVertex
10
232.8148541560
20
198.4223454335
0
VERTEX
5
51A
100
AcDbEntity
8
0
100
AcDbVertex
62
2
6
CONTINUOUS
100
AcDb2dVertex
10
232.7690487731
20
198.4201536555
0
VERTEX
5
51B
100
AcDbEntity
8
0
100
AcDbVertex
62
2
6
CONTINUOUS
100
AcDb2dVertex
10
232.7227525952
20
198.4182907744
0
VERTEX
5
51C
100
AcDbEntity
8
0
100
AcDbVertex
62
2
6
CONTINUOUS
100
AcDb2dVertex
10
232.6760140095
20
198.4167550703
0
VERTEX
5
51D
100
AcDbEntity
8
0
100
AcDbVertex
62
2
6
CONTINUOUS
100
AcDb2dVertex
10
232.6288903222
20
198.4155413843
0
VERTEX
5
51E
100
AcDbEntity
8
0
100
AcDbVertex
62
2
6
CONTINUOUS
100
AcDb2dVertex
10
232.5814388392
20
198.4146445572
0
VERTEX
5
51F
100
AcDbEntity
8
0
100
AcDbVertex
62
2
6
CONTINUOUS
100
AcDb2dVertex
10
232.5337168666
20
198.4140594301
0
VERTEX
5
520
100
AcDbEntity
8
0
100
AcDbVertex
62
2
6
CONTINUOUS
100
AcDb2dVertex
10
232.4857817104
20
198.4137808437
0
SEQEND
5
521
100
AcDbEntity
8
0
0
POLYLINE
5
522
100
AcDbEntity
8
0
100
AcDb2dPolyline
62
7
6
CONTINUOUS
66
1
70
0
0
VERTEX
5
523
100
AcDbEntity
8
0
100
AcDbVertex
62
7
6
CONTINUOUS
100
AcDb2dVertex
10
232.4857827453
20
198.4679008900
0
VERTEX
5
524
100
AcDbEntity
8
0
100
AcDbVertex
62
7
6
CONTINUOUS
100
AcDb2dVertex
10
232.8682821375
20
198.4793590569
0
VERTEX
5
525
100
AcDbEntity
8
0
100
AcDbVertex
62
7
6
CONTINUOUS
100
AcDb2dVertex
10
233.2162655471
20
198.5095920733
0
VERTEX
5
526
100
AcDbEntity
8
0
100
AcDbVertex
62
7
6
CONTINUOUS
100
AcDb2dVertex
10
233.4955926541
20
198.5473381069
0
VERTEX
5
527
100
AcDbEntity
8
0
100
AcDbVertex
62
7
6
CONTINUOUS
100
AcDb2dVertex
10
233.6738263765
20
198.5775958987
0
VERTEX
5
528
100
AcDbEntity
8
0
100
AcDbVertex
62
7
6
CONTINUOUS
100
AcDb2dVertex
10
233.7357817104
20
198.5892255233
0
SEQEND
5
529
100
AcDbEntity
8
0
0
LINE
5
52A
100
AcDbEntity
8
0
100
AcDbLine
62
7
6
CONTINUOUS
10
238.4857817104
20
198.5892255233
11
233.7357817104
21
198.5892255233
0
LINE
5
52B
100
AcDbEntity
8
0
100
AcDbLine
62
7
6
CONTINUOUS
10
231.2357817104
20
198.5892255233
11
228.7347434545
21
198.5892255233
0
POLYLINE
5
52C
100
AcDbEntity
8
0
100
AcDb2dPolyline
62
2
6
CONTINUOUS
66
1
70
0
0
VERTEX
5
52D
100
AcDbEntity
8
0
100
AcDbVertex
62
2
6
CONTINUOUS
100
AcDb2dVertex
10
232.4857817104
20
198.4137808437
0
VERTEX
5
52E
100
AcDbEntity
8
0
100
AcDbVertex
62
2
6
CONTINUOUS
100
AcDb2dVertex
10
232.4378339448
20
198.4140596186
0
VERTEX
5
52F
100
AcDbEntity
8
0
100
AcDbVertex
62
2
6
CONTINUOUS
100
AcDb2dVertex
10
232.3900989106
20
198.4146451333
0
VERTEX
5
530
100
AcDbEntity
8
0
100
AcDbVertex
62
2
6
CONTINUOUS
100
AcDb2dVertex
10
232.3426339086
20
198.4155425526
0
VERTEX
5
531
100
AcDbEntity
8
0
100
AcDbVertex
62
2
6
CONTINUOUS
100
AcDb2dVertex
10
232.2954962399
20
198.4167570418
0
VERTEX
5
532
100
AcDbEntity
8
0
100
AcDbVertex
62
2
6
CONTINUOUS
100
AcDb2dVertex
10
232.2487432056
20
198.4182937658
0
VERTEX
5
533
100
AcDbEntity
8
0
100
AcDbVertex
62
2
6
CONTINUOUS
100
AcDb2dVertex
10
232.2024321066
20
198.4201578897
0
VERTEX
5
534
100
AcDbEntity
8
0
100
AcDbVertex
62
2
6
CONTINUOUS
100
AcDb2dVertex
10
232.1566113612
20
198.4223511352
0
VERTEX
5
535
100
AcDbEntity
8
0
100
AcDbVertex
62
2
6
CONTINUOUS
100
AcDb2dVertex
10
232.1112938565
20
198.4248614506
0
VERTEX
5
536
100
AcDbEntity
8
0
100
AcDbVertex
62
2
6
CONTINUOUS
100
AcDb2dVertex
10
232.0664835969
20
198.4276733405
0
VERTEX
5
537
100
AcDbEntity
8
0
100
AcDbVertex
62
2
6
CONTINUOUS
100
AcDb2dVertex
10
232.0221845869
20
198.4307713098
0
VERTEX
5
538
100
AcDbEntity
8
0
100
AcDbVertex
62
2
6
CONTINUOUS
100
AcDb2dVertex
10
231.9784008308
20
198.4341398633
0
VERTEX
5
539
100
AcDbEntity
8
0
100
AcDbVertex
62
2
6
CONTINUOUS
100
AcDb2dVertex
10
231.9351363329
20
198.4377635057
0
VERTEX
5
53A
100
AcDbEntity
8
0
100
AcDbVertex
62
2
6
CONTINUOUS
100
AcDb2dVertex
10
231.8923993850
20
198.4416269137
0
VERTEX
5
53B
100
AcDbEntity
8
0
100
AcDbVertex
62
2
6
CONTINUOUS
100
AcDb2dVertex
10
231.8502154269
20
198.4457154502
0
VERTEX
5
53C
100
AcDbEntity
8
0
100
AcDbVertex
62
2
6
CONTINUOUS
100
AcDb2dVertex
10
231.8086141861
20
198.4500146502
0
VERTEX
5
53D
100
AcDbEntity
8
0
100
AcDbVertex
62
2
6
CONTINUOUS
100
AcDb2dVertex
10
231.7676253897
20
198.4545100484
0
VERTEX
5
53E
100
AcDbEntity
8
0
100
AcDbVertex
62
2
6
CONTINUOUS
100
AcDb2dVertex
10
231.7272787651
20
198.4591871797
0
VERTEX
5
53F
100
AcDbEntity
8
0
100
AcDbVertex
62
2
6
CONTINUOUS
100
AcDb2dVertex
10
231.6876040394
20
198.4640315789
0
VERTEX
5
540
100
AcDbEntity
8
0
100
AcDbVertex
62
2
6
CONTINUOUS
100
AcDb2dVertex
10
231.6486271394
20
198.4690288501
0
VERTEX
5
541
100
AcDbEntity
8
0
100
AcDbVertex
62
2
6
CONTINUOUS
100
AcDb2dVertex
10
231.6103587899
20
198.4741648747
0
VERTEX
5
542
100
AcDbEntity
8
0
100
AcDbVertex
62
2
6
CONTINUOUS
100
AcDb2dVertex
10
231.5728059149
20
198.4794256032
0
VERTEX
5
543
100
AcDbEntity
8
0
100
AcDbVertex
62
2
6
CONTINUOUS
100
AcDb2dVertex
10
231.5359754387
20
198.4847969864
0
VERTEX
5
544
100
AcDbEntity
8
0
100
AcDbVertex
62
2
6
CONTINUOUS
100
AcDb2dVertex
10
231.4998742855
20
198.4902649749
0
VERTEX
5
545
100
AcDbEntity
8
0
100
AcDbVertex
62
2
6
CONTINUOUS
100
AcDb2dVertex
10
231.4645093794
20
198.4958155193
0
SEQEND
5
546
100
AcDbEntity
8
0
0
LINE
5
547
100
AcDbEntity
8
0
100
AcDbLine
62
2
6
CONTINUOUS
10
231.4645093794
20
198.4958155193
11
231.4056606357
21
198.5054732926
0
LINE
5
548
100
AcDbEntity
8
0
100
AcDbLine
62
2
6
CONTINUOUS
10
231.4056606357
20
198.5054732926
11
231.3492945676
21
198.5152073367
0
LINE
5
549
100
AcDbEntity
8
0
100
AcDbLine
62
2
6
CONTINUOUS
10
231.3492945676
20
198.5152073367
11
231.2957098372
21
198.5248925972
0
POLYLINE
5
54A
100
AcDbEntity
8
0
100
AcDb2dPolyline
62
7
6
CONTINUOUS
66
1
70
0
0
VERTEX
5
54B
100
AcDbEntity
8
0
100
AcDbVertex
62
7
6
CONTINUOUS
100
AcDb2dVertex
10
231.2357817104
20
198.5892255233
0
VERTEX
5
54C
100
AcDbEntity
8
0
100
AcDbVertex
62
7
6
CONTINUOUS
100
AcDb2dVertex
10
231.2970342121
20
198.5777246267
0
VERTEX
5
54D
100
AcDbEntity
8
0
100
AcDbVertex
62
7
6
CONTINUOUS
100
AcDb2dVertex
10
231.4743480816
20
198.5475920339
0
VERTEX
5
54E
100
AcDbEntity
8
0
100
AcDbVertex
62
7
6
CONTINUOUS
100
AcDb2dVertex
10
231.7536819239
20
198.5097761304
0
VERTEX
5
54F
100
AcDbEntity
8
0
100
AcDbVertex
62
7
6
CONTINUOUS
100
AcDb2dVertex
10
232.1035146874
20
198.4793450900
0
VERTEX
5
550
100
AcDbEntity
8
0
100
AcDbVertex
62
7
6
CONTINUOUS
100
AcDb2dVertex
10
232.4857827453
20
198.4679008900
0
SEQEND
5
551
100
AcDbEntity
8
0
0
LINE
5
552
100
AcDbEntity
8
0
100
AcDbLine
62
2
6
CONTINUOUS
10
231.2957098372
20
198.5248925972
11
231.2452078165
21
198.5344033029
0
LINE
5
553
100
AcDbEntity
8
0
100
AcDbLine
62
2
6
CONTINUOUS
10
231.2452078165
20
198.5344033029
11
231.1981522128
21
198.5435972015
0
LINE
5
554
100
AcDbEntity
8
0
100
AcDbLine
62
2
6
CONTINUOUS
10
231.1981522128
20
198.5435972015
11
231.1549690686
21
198.5523155588
0
LINE
5
555
100
AcDbEntity
8
0
100
AcDbLine
62
2
6
CONTINUOUS
10
231.1549690686
20
198.5523155588
11
231.1160871362
21
198.5603989244
0
LINE
5
556
100
AcDbEntity
8
0
100
AcDbLine
62
2
6
CONTINUOUS
10
231.1160871362
20
198.5603989244
11
231.0818979422
21
198.5676943843
0
LINE
5
557
100
AcDbEntity
8
0
100
AcDbLine
62
2
6
CONTINUOUS
10
231.0818979422
20
198.5676943843
11
231.0399321360
21
198.5768849902
0
POLYLINE
5
558
100
AcDbEntity
8
0
100
AcDb2dPolyline
62
2
6
CONTINUOUS
66
1
70
0
0
VERTEX
5
559
100
AcDbEntity
8
0
100
AcDbVertex
62
2
6
CONTINUOUS
100
AcDb2dVertex
10
231.0399321360
20
198.5768849902
0
VERTEX
5
55A
100
AcDbEntity
8
0
100
AcDbVertex
62
2
6
CONTINUOUS
100
AcDb2dVertex
10
230.9964060397
20
198.5866173599
0
VERTEX
5
55B
100
AcDbEntity
8
0
100
AcDbVertex
62
2
6
CONTINUOUS
100
AcDb2dVertex
10
230.9917488505
20
198.5876827881
0
VERTEX
5
55C
100
AcDbEntity
8
0
100
AcDbVertex
62
2
6
CONTINUOUS
100
AcDb2dVertex
10
230.9884297526
20
198.5884644424
0
VERTEX
5
55D
100
AcDbEntity
8
0
100
AcDbVertex
62
2
6
CONTINUOUS
100
AcDb2dVertex
10
230.9864427159
20
198.5889673323
0
VERTEX
5
55E
100
AcDbEntity
8
0
100
AcDbVertex
62
2
6
CONTINUOUS
100
AcDb2dVertex
10
230.9857817104
20
198.5891964674
0
SEQEND
5
55F
100
AcDbEntity
8
0
0
LINE
5
560
100
AcDbEntity
8
0
100
AcDbLine
62
9
6
CONTINUOUS
10
227.9944914352
20
204.0808350493
11
226.4857817104
21
204.0808350493
0
LINE
5
561
100
AcDbEntity
8
0
100
AcDbLine
62
9
6
CONTINUOUS
10
228.0428746385
20
205.1068954793
11
226.4857817104
21
205.1068954793
0
LINE
5
562
100
AcDbEntity
8
0
100
AcDbLine
62
7
6
CONTINUOUS
10
226.4857817104
20
210.5892255233
11
238.4857817104
21
210.5892255233
0
LINE
5
563
100
AcDbEntity
8
0
100
AcDbLine
62
2
6
CONTINUOUS
10
282.7776116999
20
207.3655632279
11
282.7776116999
21
214.3655632279
0
LINE
5
564
100
AcDbEntity
8
0
100
AcDbLine
62
2
6
CONTINUOUS
10
283.2189286215
20
168.0060531212
11
283.2189286215
21
175.0060531212
0
LINE
5
565
100
AcDbEntity
8
0
100
AcDbLine
62
2
6
CONTINUOUS
10
293.7442783666
20
214.3655632279
11
293.7442783666
21
207.3655632279
0
LINE
5
566
100
AcDbEntity
8
0
100
AcDbLine
62
2
6
CONTINUOUS
10
294.1855952882
20
175.0060531212
11
294.1855952882
21
168.0060531212
0
LINE
5
567
100
AcDbEntity
8
0
100
AcDbLine
62
2
6
CONTINUOUS
10
373.2793780025
20
130.3419468685
11
362.3127113358
21
130.3419468685
0
LINE
5
568
100
AcDbEntity
8
0
100
AcDbLine
62
2
6
CONTINUOUS
10
362.3127113358
20
137.3419468685
11
373.2793780025
21
137.3419468685
0
LINE
5
569
100
AcDbEntity
8
0
100
AcDbLine
62
2
6
CONTINUOUS
10
294.1855952882
20
168.0060531212
11
283.2189286215
21
168.0060531212
0
LINE
5
56A
100
AcDbEntity
8
0
100
AcDbLine
62
7
6
CONTINUOUS
10
357.4301241090
20
170.5892255233
11
335.4301241090
21
170.5892255233
0
LINE
5
56B
100
AcDbEntity
8
0
100
AcDbLine
62
2
6
CONTINUOUS
10
283.2189286215
20
175.0060531212
11
294.1855952882
21
175.0060531212
0
LINE
5
56C
100
AcDbEntity
8
0
100
AcDbLine
62
7
6
CONTINUOUS
10
335.4301241090
20
170.5892255233
11
335.4301241090
21
210.5892255233
0
LINE
5
56D
100
AcDbEntity
8
DEFAULT_1
100
AcDbLine
62
2
6
CENTER
10
351.9301241090
20
192.0892255233
11
346.9300241090
21
192.0892255233
0
LINE
5
56E
100
AcDbEntity
8
DEFAULT_1
100
AcDbLine
62
2
6
CENTER
10
346.9300241090
20
192.0892255233
11
341.9301241090
21
192.0892255233
0
LINE
5
56F
100
AcDbEntity
8
DEFAULT_1
100
AcDbLine
62
2
6
CENTER
10
341.9301241090
20
192.0892255233
11
340.4301241090
21
192.0892255233
0
LINE
5
570
100
AcDbEntity
8
DEFAULT_1
100
AcDbLine
62
2
6
CENTER
10
351.9301241090
20
192.0892255233
11
361.9301241090
21
192.0892255233
0
LINE
5
571
100
AcDbEntity
8
DEFAULT_1
100
AcDbLine
62
2
6
CENTER
10
361.9301241090
20
192.0892255233
11
363.4301241090
21
192.0892255233
0
LINE
5
572
100
AcDbEntity
8
DEFAULT_1
100
AcDbLine
62
2
6
CENTER
10
351.9301241090
20
192.0892255233
11
351.9301241090
21
182.0892255233
0
LINE
5
573
100
AcDbEntity
8
DEFAULT_1
100
AcDbLine
62
2
6
CENTER
10
351.9301241090
20
182.0892255233
11
351.9301241090
21
180.5892255233
0
LINE
5
574
100
AcDbEntity
8
DEFAULT_1
100
AcDbLine
62
2
6
CENTER
10
351.9301241090
20
192.0892255233
11
351.9301241090
21
197.0893255233
0
LINE
5
575
100
AcDbEntity
8
DEFAULT_1
100
AcDbLine
62
2
6
CENTER
10
351.9301241090
20
197.0893255233
11
351.9301241090
21
202.0892255233
0
LINE
5
576
100
AcDbEntity
8
DEFAULT_1
100
AcDbLine
62
2
6
CENTER
10
351.9301241090
20
202.0892255233
11
351.9301241090
21
203.5892255233
0
LINE
5
577
100
AcDbEntity
8
0
100
AcDbLine
62
7
6
CONTINUOUS
10
345.3446815120
20
181.3133979089
11
335.4301241090
21
175.5892255233
0
LINE
5
578
100
AcDbEntity
8
0
100
AcDbLine
62
7
6
CONTINUOUS
10
343.7302497379
20
200.8648770831
11
335.4301241090
21
205.6569568493
0
LINE
5
579
100
AcDbEntity
8
0
100
AcDbLine
62
7
6
CONTINUOUS
10
356.4301241090
20
210.5892255233
11
356.4301241090
21
205.1068954793
0
LINE
5
57A
100
AcDbEntity
8
0
100
AcDbLine
62
7
6
CONTINUOUS
10
357.4301241090
20
170.5892255233
11
357.4301241090
21
184.3432588309
0
LINE
5
57B
100
AcDbEntity
8
0
100
AcDbLine
62
2
6
CONTINUOUS
10
362.3127113358
20
130.3419468685
11
362.3127113358
21
137.3419468685
0
LINE
5
57C
100
AcDbEntity
8
0
100
AcDbLine
62
7
6
CONTINUOUS
10
359.9175113857
20
194.9963967416
11
356.6110462466
21
204.0808350493
0
LINE
5
57D
100
AcDbEntity
8
0
100
AcDbLine
62
2
6
CONTINUOUS
10
293.7442783666
20
207.3655632279
11
282.7776116999
21
207.3655632279
0
LINE
5
57E
100
AcDbEntity
8
0
100
AcDbLine
62
7
6
CONTINUOUS
10
335.4301241090
20
210.5892255233
11
356.4301241090
21
210.5892255233
0
LINE
5
57F
100
AcDbEntity
8
0
100
AcDbLine
62
2
6
CONTINUOUS
10
282.7776116999
20
214.3655632279
11
293.7442783666
21
214.3655632279
0
LINE
5
580
100
AcDbEntity
8
0
100
AcDbLine
62
2
6
CONTINUOUS
10
373.2793780025
20
137.3419468685
11
373.2793780025
21
130.3419468685
0
LINE
5
581
100
AcDbEntity
8
0
100
AcDbLine
62
7
6
CONTINUOUS
10
137.9729594753
20
104.4904888391
11
137.9729594753
21
116.4904888391
0
LINE
5
582
100
AcDbEntity
8
0
100
AcDbLine
62
9
6
CONTINUOUS
10
138.4855721986
20
116.4904888391
11
138.4855721986
21
104.4904888391
0
LINE
5
583
100
AcDbEntity
8
0
100
AcDbLine
62
9
6
CONTINUOUS
10
141.7920373377
20
104.4904888391
11
141.7920373377
21
116.4904888391
0
LINE
5
584
100
AcDbEntity
8
0
100
AcDbLine
62
7
6
CONTINUOUS
10
141.9729594753
20
104.4904888391
11
141.9729594753
21
116.4904888391
0
LINE
5
585
100
AcDbEntity
8
0
100
AcDbLine
62
7
6
CONTINUOUS
10
162.9729594753
20
104.4904888391
11
137.9729708825
21
104.4904888391
0
LINE
5
586
100
AcDbEntity
8
DEFAULT_1
100
AcDbLine
62
2
6
CENTER
10
146.4729594753
20
118.9904888391
11
146.4729594753
21
116.7404888391
0
LINE
5
587
100
AcDbEntity
8
DEFAULT_1
100
AcDbLine
62
2
6
CENTER
10
146.4729594753
20
104.2404888391
11
146.4729594753
21
101.9904888391
0
LINE
5
588
100
AcDbEntity
8
DEFAULT_1
100
AcDbLine
62
2
6
CENTER
10
146.4729594753
20
110.4904888391
11
146.4729594753
21
104.2404888391
0
LINE
5
589
100
AcDbEntity
8
DEFAULT_1
100
AcDbLine
62
2
6
CENTER
10
146.4729594753
20
110.4904888391
11
146.4729594753
21
116.7404888391
0
LINE
5
58A
100
AcDbEntity
8
DEFAULT_1
100
AcDbLine
62
2
6
CENTER
10
146.4729594753
20
110.4904888391
11
140.2229594753
21
110.4904888391
0
LINE
5
58B
100
AcDbEntity
8
DEFAULT_1
100
AcDbLine
62
2
6
CENTER
10
146.4729594753
20
110.4904888391
11
152.7229594753
21
110.4904888391
0
LINE
5
58C
100
AcDbEntity
8
0
100
AcDbLine
62
7
6
CONTINUOUS
10
137.9729708833
20
116.4904888391
11
162.9729594753
21
116.4904888391
0
LINE
5
58D
100
AcDbEntity
8
0
100
AcDbLine
62
7
6
CONTINUOUS
10
162.9729594753
20
104.4904888391
11
162.9729594753
21
116.4904888391
0
LINE
5
58E
100
AcDbEntity
8
0
100
AcDbLine
62
7
6
CONTINUOUS
10
206.9712259396
20
52.1081505778
11
204.7623962897
21
42.8549940403
0
LINE
5
58F
100
AcDbEntity
8
0
100
AcDbLine
62
7
6
CONTINUOUS
10
204.7623962897
20
42.8549940403
11
218.6102229989
21
31.1634378078
0
LINE
5
590
100
AcDbEntity
8
0
100
AcDbLine
62
7
6
CONTINUOUS
10
206.9712259396
20
52.1081505778
11
210.5663166010
21
53.6319748637
0
LINE
5
591
100
AcDbEntity
8
0
100
AcDbLine
62
7
6
CONTINUOUS
10
232.4824422713
20
62.9213997192
11
236.1269017472
21
64.4661495965
0
LINE
5
592
100
AcDbEntity
8
0
100
AcDbLine
62
7
6
CONTINUOUS
10
232.2753635531
20
34.0392711893
11
223.4734397999
21
33.0734781543
0
POLYLINE
5
593
100
AcDbEntity
8
0
100
AcDb2dPolyline
62
2
6
CONTINUOUS
66
1
70
0
0
VERTEX
5
594
100
AcDbEntity
8
0
100
AcDbVertex
62
2
6
CONTINUOUS
100
AcDb2dVertex
10
215.7581159069
20
39.1304607145
0
VERTEX
5
595
100
AcDbEntity
8
0
100
AcDbVertex
62
2
6
CONTINUOUS
100
AcDb2dVertex
10
215.8305825675
20
39.3392162593
0
VERTEX
5
596
100
AcDbEntity
8
0
100
AcDbVertex
62
2
6
CONTINUOUS
100
AcDb2dVertex
10
215.9379646681
20
39.5082112456
0
VERTEX
5
597
100
AcDbEntity
8
0
100
AcDbVertex
62
2
6
CONTINUOUS
100
AcDb2dVertex
10
216.0761720579
20
39.6310087070
0
VERTEX
5
598
100
AcDbEntity
8
0
100
AcDbVertex
62
2
6
CONTINUOUS
100
AcDb2dVertex
10
216.2430603198
20
39.7037335358
0
VERTEX
5
599
100
AcDbEntity
8
0
100
AcDbVertex
62
2
6
CONTINUOUS
100
AcDb2dVertex
10
216.4264353292
20
39.7210719033
0
VERTEX
5
59A
100
AcDbEntity
8
0
100
AcDbVertex
62
2
6
CONTINUOUS
100
AcDb2dVertex
10
216.6220299321
20
39.6841049495
0
VERTEX
5
59B
100
AcDbEntity
8
0
100
AcDbVertex
62
2
6
CONTINUOUS
100
AcDb2dVertex
10
216.8223939908
20
39.5942407342
0
VERTEX
5
59C
100
AcDbEntity
8
0
100
AcDbVertex
62
2
6
CONTINUOUS
100
AcDb2dVertex
10
217.0233500924
20
39.4519941222
0
VERTEX
5
59D
100
AcDbEntity
8
0
100
AcDbVertex
62
2
6
CONTINUOUS
100
AcDb2dVertex
10
217.2102148571
20
39.2677587319
0
VERTEX
5
59E
100
AcDbEntity
8
0
100
AcDbVertex
62
2
6
CONTINUOUS
100
AcDb2dVertex
10
217.3794452966
20
39.0464845781
0
VERTEX
5
59F
100
AcDbEntity
8
0
100
AcDbVertex
62
2
6
CONTINUOUS
100
AcDb2dVertex
10
217.5245954760
20
38.7965999247
0
VERTEX
5
5A0
100
AcDbEntity
8
0
100
AcDbVertex
62
2
6
CONTINUOUS
100
AcDb2dVertex
10
217.6419020585
20
38.5227080080
0
VERTEX
5
5A1
100
AcDbEntity
8
0
100
AcDbVertex
62
2
6
CONTINUOUS
100
AcDb2dVertex
10
217.7227937337
20
38.2448214528
0
VERTEX
5
5A2
100
AcDbEntity
8
0
100
AcDbVertex
62
2
6
CONTINUOUS
100
AcDb2dVertex
10
217.7665271135
20
37.9688594973
0
VERTEX
5
5A3
100
AcDbEntity
8
0
100
AcDbVertex
62
2
6
CONTINUOUS
100
AcDb2dVertex
10
217.7714364071
20
37.7053334467
0
VERTEX
5
5A4
100
AcDbEntity
8
0
100
AcDbVertex
62
2
6
CONTINUOUS
100
AcDb2dVertex
10
217.7363768654
20
37.4602383955
0
SEQEND
5
5A5
100
AcDbEntity
8
0
0
LINE
5
5A6
100
AcDbEntity
8
0
100
AcDbLine
62
7
6
CONTINUOUS
10
213.6998815796
20
52.5344084218
11
231.8382002901
21
60.2225623957
0
LINE
5
5A7
100
AcDbEntity
8
0
100
AcDbLine
62
7
6
CONTINUOUS
10
206.9712259396
20
52.1081505778
11
220.8190526488
21
40.4165943454
0
POLYLINE
5
5A8
100
AcDbEntity
8
0
100
AcDb2dPolyline
62
2
6
CONTINUOUS
66
1
70
0
0
VERTEX
5
5A9
100
AcDbEntity
8
0
100
AcDbVertex
62
2
6
CONTINUOUS
100
AcDb2dVertex
10
217.7363768654
20
37.4602383955
0
VERTEX
5
5AA
100
AcDbEntity
8
0
100
AcDbVertex
62
2
6
CONTINUOUS
100
AcDb2dVertex
10
217.6639102048
20
37.2514828507
0
VERTEX
5
5AB
100
AcDbEntity
8
0
100
AcDbVertex
62
2
6
CONTINUOUS
100
AcDb2dVertex
10
217.5565281042
20
37.0824878644
0
VERTEX
5
5AC
100
AcDbEntity
8
0
100
AcDbVertex
62
2
6
CONTINUOUS
100
AcDb2dVertex
10
217.4183207144
20
36.9596904030
0
VERTEX
5
5AD
100
AcDbEntity
8
0
100
AcDbVertex
62
2
6
CONTINUOUS
100
AcDb2dVertex
10
217.2514324525
20
36.8869655742
0
VERTEX
5
5AE
100
AcDbEntity
8
0
100
AcDbVertex
62
2
6
CONTINUOUS
100
AcDb2dVertex
10
217.0680574431
20
36.8696272067
0
VERTEX
5
5AF
100
AcDbEntity
8
0
100
AcDbVertex
62
2
6
CONTINUOUS
100
AcDb2dVertex
10
216.8724628402
20
36.9065941605
0
VERTEX
5
5B0
100
AcDbEntity
8
0
100
AcDbVertex
62
2
6
CONTINUOUS
100
AcDb2dVertex
10
216.6720987815
20
36.9964583758
0
VERTEX
5
5B1
100
AcDbEntity
8
0
100
AcDbVertex
62
2
6
CONTINUOUS
100
AcDb2dVertex
10
216.4711426799
20
37.1387049878
0
VERTEX
5
5B2
100
AcDbEntity
8
0
100
AcDbVertex
62
2
6
CONTINUOUS
100
AcDb2dVertex
10
216.2842779152
20
37.3229403782
0
VERTEX
5
5B3
100
AcDbEntity
8
0
100
AcDbVertex
62
2
6
CONTINUOUS
100
AcDb2dVertex
10
216.1150474757
20
37.5442145319
0
VERTEX
5
5B4
100
AcDbEntity
8
0
100
AcDbVertex
62
2
6
CONTINUOUS
100
AcDb2dVertex
10
215.9698972963
20
37.7940991854
0
VERTEX
5
5B5
100
AcDbEntity
8
0
100
AcDbVertex
62
2
6
CONTINUOUS
100
AcDb2dVertex
10
215.8525907138
20
38.0679911020
0
VERTEX
5
5B6
100
AcDbEntity
8
0
100
AcDbVertex
62
2
6
CONTINUOUS
100
AcDb2dVertex
10
215.7716990386
20
38.3458776572
0
VERTEX
5
5B7
100
AcDbEntity
8
0
100
AcDbVertex
62
2
6
CONTINUOUS
100
AcDb2dVertex
10
215.7279656588
20
38.6218396127
0
VERTEX
5
5B8
100
AcDbEntity
8
0
100
AcDbVertex
62
2
6
CONTINUOUS
100
AcDb2dVertex
10
215.7230563652
20
38.8853656633
0
VERTEX
5
5B9
100
AcDbEntity
8
0
100
AcDbVertex
62
2
6
CONTINUOUS
100
AcDb2dVertex
10
215.7581159069
20
39.1304607145
0
SEQEND
5
5BA
100
AcDbEntity
8
0
0
LINE
5
5BB
100
AcDbEntity
8
0
100
AcDbLine
62
7
6
CONTINUOUS
10
220.8190526488
20
40.4165943454
11
218.6102229989
21
31.1634378078
0
LINE
5
5BC
100
AcDbEntity
8
0
100
AcDbLine
62
7
6
CONTINUOUS
10
225.6822694498
20
42.3266346919
11
234.4841932030
21
43.2924277269
0
LINE
5
5BD
100
AcDbEntity
8
0
100
AcDbLine
62
9
6
CONTINUOUS
10
224.8150785846
20
42.1103600780
11
222.6062489347
21
32.8572035404
0
LINE
5
5BE
100
AcDbEntity
8
0
100
AcDbLine
62
9
6
CONTINUOUS
10
225.6822694498
20
42.3266346919
11
223.4734397999
21
33.0734781543
0
LINE
5
5BF
100
AcDbEntity
8
0
100
AcDbLine
62
7
6
CONTINUOUS
10
232.4824422713
20
62.9213997192
11
231.8382002901
21
60.2225623957
0
LINE
5
5C0
100
AcDbEntity
8
0
100
AcDbLine
62
7
6
CONTINUOUS
10
210.5663166010
20
53.6319748637
11
219.5324961977
21
50.4914694315
0
LINE
5
5C1
100
AcDbEntity
8
0
100
AcDbLine
62
9
6
CONTINUOUS
10
234.8480000230
20
55.6330784488
11
234.5541645118
21
54.4021523870
0
LINE
5
5C2
100
AcDbEntity
8
0
100
AcDbLine
62
7
6
CONTINUOUS
10
220.8190526488
20
40.4165943454
11
224.8150785846
21
42.1103600780
0
LINE
5
5C3
100
AcDbEntity
8
0
100
AcDbLine
62
7
6
CONTINUOUS
10
250.6341487759
20
52.2178525911
11
240.6089453718
21
47.9685443382
0
LINE
5
5C4
100
AcDbEntity
8
0
100
AcDbLine
62
9
6
CONTINUOUS
10
232.2753635531
20
34.0392711893
11
234.4841932030
21
43.2924277269
0
LINE
5
5C5
100
AcDbEntity
8
0
100
AcDbLine
62
7
6
CONTINUOUS
10
233.8652896703
20
53.9770675919
11
231.8382002901
21
60.2225623957
0
LINE
5
5C6
100
AcDbEntity
8
0
100
AcDbLine
62
7
6
CONTINUOUS
10
237.6585027551
20
47.1286950774
11
237.6534493938
21
47.1074395703
0
LINE
5
5C7
100
AcDbEntity
8
0
100
AcDbLine
62
7
6
CONTINUOUS
10
232.4824422713
20
62.9213997192
11
234.8480000230
21
55.6330784488
0
LINE
5
5C8
100
AcDbEntity
8
0
100
AcDbLine
62
7
6
CONTINUOUS
10
239.6033161378
20
46.6624429821
11
239.6696115821
21
46.9959028596
0
LINE
5
5C9
100
AcDbEntity
8
0
100
AcDbLine
62
7
6
CONTINUOUS
10
239.6038657149
20
46.6639109111
11
237.3950360650
21
37.4107543735
0
LINE
5
5CA
100
AcDbEntity
8
0
100
AcDbLine
62
9
6
CONTINUOUS
10
238.4001157219
20
38.7153878006
11
240.6089453718
21
47.9685443382
0
LINE
5
5CB
100
AcDbEntity
8
0
100
AcDbLine
62
7
6
CONTINUOUS
10
218.6102229989
20
31.1634378078
11
222.6062489347
21
32.8572035404
0
LINE
5
5CC
100
AcDbEntity
8
0
100
AcDbLine
62
7
6
CONTINUOUS
10
248.4253191260
20
42.9646960535
11
238.4001157219
21
38.7153878006
0
LINE
5
5CD
100
AcDbEntity
8
0
100
AcDbLine
62
7
6
CONTINUOUS
10
250.6341487759
20
52.2178525911
11
236.1269017472
21
64.4661495965
0
LINE
5
5CE
100
AcDbEntity
8
0
100
AcDbLine
62
7
6
CONTINUOUS
10
250.6341487759
20
52.2178525911
11
248.4253191260
21
42.9646960535
0
LINE
5
5CF
100
AcDbEntity
8
0
100
AcDbLine
62
7
6
CONTINUOUS
10
201.4689819678
20
86.6047655388
11
201.0228992895
21
95.8622788577
0
LINE
5
5D0
100
AcDbEntity
8
0
100
AcDbLine
62
7
6
CONTINUOUS
10
218.1422316234
20
77.9690211071
11
201.4689819678
21
86.6047655388
0
POLYLINE
5
5D1
100
AcDbEntity
8
0
100
AcDb2dPolyline
62
2
6
CONTINUOUS
66
1
70
0
0
VERTEX
5
5D2
100
AcDbEntity
8
0
100
AcDbVertex
62
2
6
CONTINUOUS
100
AcDb2dVertex
10
205.4142530426
20
89.0745860903
0
VERTEX
5
5D3
100
AcDbEntity
8
0
100
AcDbVertex
62
2
6
CONTINUOUS
100
AcDb2dVertex
10
205.4614884885
20
88.7424747397
0
VERTEX
5
5D4
100
AcDbEntity
8
0
100
AcDbVertex
62
2
6
CONTINUOUS
100
AcDb2dVertex
10
205.5731553511
20
88.3851860151
0
VERTEX
5
5D5
100
AcDbEntity
8
0
100
AcDbVertex
62
2
6
CONTINUOUS
100
AcDb2dVertex
10
205.7441229674
20
88.0237161573
0
VERTEX
5
5D6
100
AcDbEntity
8
0
100
AcDbVertex
62
2
6
CONTINUOUS
100
AcDb2dVertex
10
205.9669192321
20
87.6738631336
0
VERTEX
5
5D7
100
AcDbEntity
8
0
100
AcDbVertex
62
2
6
CONTINUOUS
100
AcDb2dVertex
10
206.2318068793
20
87.3509171999
0
VERTEX
5
5D8
100
AcDbEntity
8
0
100
AcDbVertex
62
2
6
CONTINUOUS
100
AcDb2dVertex
10
206.5272090478
20
87.0689926433
0
VERTEX
5
5D9
100
AcDbEntity
8
0
100
AcDbVertex
62
2
6
CONTINUOUS
100
AcDb2dVertex
10
206.8402152453
20
86.8404109195
0
VERTEX
5
5DA
100
AcDbEntity
8
0
100
AcDbVertex
62
2
6
CONTINUOUS
100
AcDb2dVertex
10
207.1571455991
20
86.6751621469
0
VERTEX
5
5DB
100
AcDbEntity
8
0
100
AcDbVertex
62
2
6
CONTINUOUS
100
AcDb2dVertex
10
207.4641487318
20
86.5804684898
0
VERTEX
5
5DC
100
AcDbEntity
8
0
100
AcDbVertex
62
2
6
CONTINUOUS
100
AcDb2dVertex
10
207.7478071334
20
86.5604685152
0
VERTEX
5
5DD
100
AcDbEntity
8
0
100
AcDbVertex
62
2
6
CONTINUOUS
100
AcDb2dVertex
10
207.9957235706
20
86.6160363182
0
VERTEX
5
5DE
100
AcDbEntity
8
0
100
AcDbVertex
62
2
6
CONTINUOUS
100
AcDb2dVertex
10
208.1970629055
20
86.7447433191
0
VERTEX
5
5DF
100
AcDbEntity
8
0
100
AcDbVertex
62
2
6
CONTINUOUS
100
AcDb2dVertex
10
208.3430256429
20
86.9409644043
0
VERTEX
5
5E0
100
AcDbEntity
8
0
100
AcDbVertex
62
2
6
CONTINUOUS
100
AcDb2dVertex
10
208.4272325109
20
87.1961237708
0
VERTEX
5
5E1
100
AcDbEntity
8
0
100
AcDbVertex
62
2
6
CONTINUOUS
100
AcDb2dVertex
10
208.4457529799
20
87.5044507391
0
SEQEND
5
5E2
100
AcDbEntity
8
0
0
POLYLINE
5
5E3
100
AcDbEntity
8
0
100
AcDb2dPolyline
62
2
6
CONTINUOUS
66
1
70
0
0
VERTEX
5
5E4
100
AcDbEntity
8
0
100
AcDbVertex
62
2
6
CONTINUOUS
100
AcDb2dVertex
10
208.4457529799
20
87.5044507391
0
VERTEX
5
5E5
100
AcDbEntity
8
0
100
AcDbVertex
62
2
6
CONTINUOUS
100
AcDb2dVertex
10
208.4024449940
20
87.8190900799
0
VERTEX
5
5E6
100
AcDbEntity
8
0
100
AcDbVertex
62
2
6
CONTINUOUS
100
AcDb2dVertex
10
208.3030521504
20
88.1516478899
0
VERTEX
5
5E7
100
AcDbEntity
8
0
100
AcDbVertex
62
2
6
CONTINUOUS
100
AcDb2dVertex
10
208.1513602917
20
88.4894571452
0
VERTEX
5
5E8
100
AcDbEntity
8
0
100
AcDbVertex
62
2
6
CONTINUOUS
100
AcDb2dVertex
10
207.9492287449
20
88.8254001450
0
VERTEX
5
5E9
100
AcDbEntity
8
0
100
AcDbVertex
62
2
6
CONTINUOUS
100
AcDb2dVertex
10
207.7114267767
20
89.1349303409
0
VERTEX
5
5EA
100
AcDbEntity
8
0
100
AcDbVertex
62
2
6
CONTINUOUS
100
AcDb2dVertex
10
207.4438606202
20
89.4122590592
0
VERTEX
5
5EB
100
AcDbEntity
8
0
100
AcDbVertex
62
2
6
CONTINUOUS
100
AcDb2dVertex
10
207.1567217869
20
89.6468229351
0
VERTEX
5
5EC
100
AcDbEntity
8
0
100
AcDbVertex
62
2
6
CONTINUOUS
100
AcDb2dVertex
10
206.8556558982
20
89.8324373012
0
VERTEX
5
5ED
100
AcDbEntity
8
0
100
AcDbVertex
62
2
6
CONTINUOUS
100
AcDb2dVertex
10
206.5626611156
20
89.9555397613
0
VERTEX
5
5EE
100
AcDbEntity
8
0
100
AcDbVertex
62
2
6
CONTINUOUS
100
AcDb2dVertex
10
206.2836582717
20
90.0151839860
0
VERTEX
5
5EF
100
AcDbEntity
8
0
100
AcDbVertex
62
2
6
CONTINUOUS
100
AcDb2dVertex
10
206.0292744982
20
90.0090981452
0
VERTEX
5
5F0
100
AcDbEntity
8
0
100
AcDbVertex
62
2
6
CONTINUOUS
100
AcDb2dVertex
10
205.8056345820
20
89.9356534993
0
VERTEX
5
5F1
100
AcDbEntity
8
0
100
AcDbVertex
62
2
6
CONTINUOUS
100
AcDb2dVertex
10
205.6290793550
20
89.8002164721
0
VERTEX
5
5F2
100
AcDbEntity
8
0
100
AcDbVertex
62
2
6
CONTINUOUS
100
AcDb2dVertex
10
205.5020759058
20
89.6072374253
0
VERTEX
5
5F3
100
AcDbEntity
8
0
100
AcDbVertex
62
2
6
CONTINUOUS
100
AcDb2dVertex
10
205.4294617564
20
89.3640668708
0
VERTEX
5
5F4
100
AcDbEntity
8
0
100
AcDbVertex
62
2
6
CONTINUOUS
100
AcDb2dVertex
10
205.4142530426
20
89.0745860903
0
SEQEND
5
5F5
100
AcDbEntity
8
0
0
LINE
5
5F6
100
AcDbEntity
8
0
100
AcDbLine
62
7
6
CONTINUOUS
10
227.0764943520
20
115.8929558753
11
223.8639110827
21
113.4230388559
0
LINE
5
5F7
100
AcDbEntity
8
0
100
AcDbLine
62
7
6
CONTINUOUS
10
204.2795986723
20
98.3661134849
11
201.0228992895
21
95.8622788577
0
POLYLINE
5
5F8
100
AcDbEntity
8
0
100
AcDb2dPolyline
62
2
6
CONTINUOUS
66
1
70
0
0
VERTEX
5
5F9
100
AcDbEntity
8
0
100
AcDbVertex
62
2
6
CONTINUOUS
100
AcDb2dVertex
10
212.9930028860
20
85.1492477123
0
VERTEX
5
5FA
100
AcDbEntity
8
0
100
AcDbVertex
62
2
6
CONTINUOUS
100
AcDb2dVertex
10
213.0402383319
20
84.8171363617
0
VERTEX
5
5FB
100
AcDbEntity
8
0
100
AcDbVertex
62
2
6
CONTINUOUS
100
AcDb2dVertex
10
213.1519051946
20
84.4598476371
0
VERTEX
5
5FC
100
AcDbEntity
8
0
100
AcDbVertex
62
2
6
CONTINUOUS
100
AcDb2dVertex
10
213.3228728109
20
84.0983777793
0
VERTEX
5
5FD
100
AcDbEntity
8
0
100
AcDbVertex
62
2
6
CONTINUOUS
100
AcDb2dVertex
10
213.5456690755
20
83.7485247556
0
VERTEX
5
5FE
100
AcDbEntity
8
0
100
AcDbVertex
62
2
6
CONTINUOUS
100
AcDb2dVertex
10
213.8105567228
20
83.4255788219
0
VERTEX
5
5FF
100
AcDbEntity
8
0
100
AcDbVertex
62
2
6
CONTINUOUS
100
AcDb2dVertex
10
214.1059588913
20
83.1436542652
0
VERTEX
5
600
100
AcDbEntity
8
0
100
AcDbVertex
62
2
6
CONTINUOUS
100
AcDb2dVertex
10
214.4189650888
20
82.9150725415
0
VERTEX
5
601
100
AcDbEntity
8
0
100
AcDbVertex
62
2
6
CONTINUOUS
100
AcDb2dVertex
10
214.7358954425
20
82.7498237689
0
VERTEX
5
602
100
AcDbEntity
8
0
100
AcDbVertex
62
2
6
CONTINUOUS
100
AcDb2dVertex
10
215.0428985752
20
82.6551301117
0
VERTEX
5
603
100
AcDbEntity
8
0
100
AcDbVertex
62
2
6
CONTINUOUS
100
AcDb2dVertex
10
215.3265569768
20
82.6351301372
0
VERTEX
5
604
100
AcDbEntity
8
0
100
AcDbVertex
62
2
6
CONTINUOUS
100
AcDb2dVertex
10
215.5744734140
20
82.6906979402
0
VERTEX
5
605
100
AcDbEntity
8
0
100
AcDbVertex
62
2
6
CONTINUOUS
100
AcDb2dVertex
10
215.7758127489
20
82.8194049411
0
VERTEX
5
606
100
AcDbEntity
8
0
100
AcDbVertex
62
2
6
CONTINUOUS
100
AcDb2dVertex
10
215.9217754864
20
83.0156260263
0
VERTEX
5
607
100
AcDbEntity
8
0
100
AcDbVertex
62
2
6
CONTINUOUS
100
AcDb2dVertex
10
216.0059823544
20
83.2707853928
0
VERTEX
5
608
100
AcDbEntity
8
0
100
AcDbVertex
62
2
6
CONTINUOUS
100
AcDb2dVertex
10
216.0245028234
20
83.5791123611
0
SEQEND
5
609
100
AcDbEntity
8
0
0
LINE
5
60A
100
AcDbEntity
8
0
100
AcDbLine
62
7
6
CONTINUOUS
10
207.5354691360
20
98.0691727988
11
223.9940185305
21
110.7229308046
0
LINE
5
60B
100
AcDbEntity
8
0
100
AcDbLine
62
7
6
CONTINUOUS
10
217.6961489451
20
87.2265344260
11
201.0228992895
21
95.8622788577
0
POLYLINE
5
60C
100
AcDbEntity
8
0
100
AcDb2dPolyline
62
2
6
CONTINUOUS
66
1
70
0
0
VERTEX
5
60D
100
AcDbEntity
8
0
100
AcDbVertex
62
2
6
CONTINUOUS
100
AcDb2dVertex
10
216.0245028234
20
83.5791123611
0
VERTEX
5
60E
100
AcDbEntity
8
0
100
AcDbVertex
62
2
6
CONTINUOUS
100
AcDb2dVertex
10
215.9811948374
20
83.8937517019
0
VERTEX
5
60F
100
AcDbEntity
8
0
100
AcDbVertex
62
2
6
CONTINUOUS
100
AcDb2dVertex
10
215.8818019938
20
84.2263095118
0
VERTEX
5
610
100
AcDbEntity
8
0
100
AcDbVertex
62
2
6
CONTINUOUS
100
AcDb2dVertex
10
215.7301101352
20
84.5641187672
0
VERTEX
5
611
100
AcDbEntity
8
0
100
AcDbVertex
62
2
6
CONTINUOUS
100
AcDb2dVertex
10
215.5279785883
20
84.9000617670
0
VERTEX
5
612
100
AcDbEntity
8
0
100
AcDbVertex
62
2
6
CONTINUOUS
100
AcDb2dVertex
10
215.2901766202
20
85.2095919629
0
VERTEX
5
613
100
AcDbEntity
8
0
100
AcDbVertex
62
2
6
CONTINUOUS
100
AcDb2dVertex
10
215.0226104636
20
85.4869206811
0
VERTEX
5
614
100
AcDbEntity
8
0
100
AcDbVertex
62
2
6
CONTINUOUS
100
AcDb2dVertex
10
214.7354716303
20
85.7214845571
0
VERTEX
5
615
100
AcDbEntity
8
0
100
AcDbVertex
62
2
6
CONTINUOUS
100
AcDb2dVertex
10
214.4344057416
20
85.9070989232
0
VERTEX
5
616
100
AcDbEntity
8
0
100
AcDbVertex
62
2
6
CONTINUOUS
100
AcDb2dVertex
10
214.1414109591
20
86.0302013833
0
VERTEX
5
617
100
AcDbEntity
8
0
100
AcDbVertex
62
2
6
CONTINUOUS
100
AcDb2dVertex
10
213.8624081152
20
86.0898456080
0
VERTEX
5
618
100
AcDbEntity
8
0
100
AcDbVertex
62
2
6
CONTINUOUS
100
AcDb2dVertex
10
213.6080243416
20
86.0837597672
0
VERTEX
5
619
100
AcDbEntity
8
0
100
AcDbVertex
62
2
6
CONTINUOUS
100
AcDb2dVertex
10
213.3843844255
20
86.0103151212
0
VERTEX
5
61A
100
AcDbEntity
8
0
100
AcDbVertex
62
2
6
CONTINUOUS
100
AcDb2dVertex
10
213.2078291984
20
85.8748780941
0
VERTEX
5
61B
100
AcDbEntity
8
0
100
AcDbVertex
62
2
6
CONTINUOUS
100
AcDb2dVertex
10
213.0808257492
20
85.6818990472
0
VERTEX
5
61C
100
AcDbEntity
8
0
100
AcDbVertex
62
2
6
CONTINUOUS
100
AcDb2dVertex
10
213.0082115998
20
85.4387284927
0
VERTEX
5
61D
100
AcDbEntity
8
0
100
AcDbVertex
62
2
6
CONTINUOUS
100
AcDb2dVertex
10
212.9930028860
20
85.1492477123
0
SEQEND
5
61E
100
AcDbEntity
8
0
0
LINE
5
61F
100
AcDbEntity
8
0
100
AcDbLine
62
7
6
CONTINUOUS
10
218.1422316234
20
77.9690211071
11
217.6961489451
21
87.2265344260
0
LINE
5
620
100
AcDbEntity
8
0
100
AcDbLine
62
7
6
CONTINUOUS
10
219.0654588943
20
99.4709707595
11
219.0751551373
21
99.3762882793
0
LINE
5
621
100
AcDbEntity
8
0
100
AcDbLine
62
7
6
CONTINUOUS
10
219.0417194147
20
99.7449683979
11
219.0654588943
21
99.4709707595
0
LINE
5
622
100
AcDbEntity
8
0
100
AcDbLine
62
7
6
CONTINUOUS
10
219.0647578075
20
99.2600772152
11
219.0546208528
21
99.4704485175
0
LINE
5
623
100
AcDbEntity
8
0
100
AcDbLine
62
7
6
CONTINUOUS
10
215.5219754439
20
97.3407904235
11
204.2795986723
21
98.3661134849
0
LINE
5
624
100
AcDbEntity
8
0
100
AcDbLine
62
7
6
CONTINUOUS
10
223.8639110827
20
113.4230388559
11
223.9940185305
21
110.7229308046
0
LINE
5
625
100
AcDbEntity
8
0
100
AcDbLine
62
9
6
CONTINUOUS
10
226.6546993019
20
94.1140993978
11
227.1007819802
21
84.8565860790
0
LINE
5
626
100
AcDbEntity
8
0
100
AcDbLine
62
9
6
CONTINUOUS
10
227.0330960204
20
107.7652436376
11
227.0866263815
21
106.6543329142
0
LINE
5
627
100
AcDbEntity
8
0
100
AcDbLine
62
7
6
CONTINUOUS
10
242.9918690232
20
107.6497452814
11
239.4210088491
21
104.9043757210
0
LINE
5
628
100
AcDbEntity
8
0
100
AcDbLine
62
7
6
CONTINUOUS
10
217.6961489451
20
87.2265344260
11
226.6546993019
21
94.1140993978
0
LINE
5
629
100
AcDbEntity
8
0
100
AcDbLine
62
9
6
CONTINUOUS
10
228.5639728520
20
94.8187922009
11
229.0100555304
21
85.5612788820
0
LINE
5
62A
100
AcDbEntity
8
0
100
AcDbLine
62
7
6
CONTINUOUS
10
226.6247145855
20
106.0264741908
11
223.9940185305
21
110.7229308046
0
LINE
5
62B
100
AcDbEntity
8
0
100
AcDbLine
62
7
6
CONTINUOUS
10
227.0330960204
20
107.7652436376
11
223.8639110827
21
113.4230388559
0
LINE
5
62C
100
AcDbEntity
8
0
100
AcDbLine
62
7
6
CONTINUOUS
10
235.4786414270
20
98.4724548418
11
238.8898111375
21
104.3195405331
0
LINE
5
62D
100
AcDbEntity
8
0
100
AcDbLine
62
7
6
CONTINUOUS
10
243.4379517015
20
98.3922319625
11
239.8670915274
21
95.6468624021
0
LINE
5
62E
100
AcDbEntity
8
0
100
AcDbLine
62
9
6
CONTINUOUS
10
235.4786414270
20
98.4724548418
11
235.9247241053
21
89.2149415230
0
LINE
5
62F
100
AcDbEntity
8
0
100
AcDbLine
62
7
6
CONTINUOUS
10
218.1422316234
20
77.9690211071
11
227.1007819802
21
84.8565860790
0
LINE
5
630
100
AcDbEntity
8
0
100
AcDbLine
62
7
6
CONTINUOUS
10
239.3358938158
20
95.0620272142
11
235.9247241053
21
89.2149415230
0
LINE
5
631
100
AcDbEntity
8
0
100
AcDbLine
62
9
6
CONTINUOUS
10
239.3358938158
20
95.0620272142
11
238.8898111375
21
104.3195405331
0
LINE
5
632
100
AcDbEntity
8
0
100
AcDbLine
62
9
6
CONTINUOUS
10
239.8670915274
20
95.6468624021
11
239.4210088491
21
104.9043757210
0
LINE
5
633
100
AcDbEntity
8
0
100
AcDbLine
62
7
6
CONTINUOUS
10
243.4379517015
20
98.3922319625
11
242.9918690232
21
107.6497452814
0
LINE
5
634
100
AcDbEntity
8
0
100
AcDbLine
62
7
6
CONTINUOUS
10
227.0764943520
20
115.8929558753
11
242.9918690232
21
107.6497452814
0
ARC
5
635
100
AcDbEntity
8
0
100
AcDbCircle
62
7
6
CONTINUOUS
10
138.9729594753
20
205.1068954793
40
3.0000000000
100
AcDbArc
50
340.0000000000
51
360.0000000000
0
CIRCLE
5
636
100
AcDbEntity
8
0
100
AcDbCircle
62
7
6
CONTINUOUS
10
146.4729594753
20
192.0892255233
40
5.0000000000
0
ARC
5
637
100
AcDbEntity
8
0
100
AcDbCircle
62
7
6
CONTINUOUS
10
146.4729594753
20
192.0892255233
40
8.5000000000
100
AcDbArc
50
160.0000000000
51
222.3426054522
0
ARC
5
638
100
AcDbEntity
8
0
100
AcDbCircle
62
7
6
CONTINUOUS
10
137.9729594753
20
184.3432588309
40
3.0000000000
100
AcDbArc
50
0.0000000000
51
42.3426054522
0
ARC
5
639
100
AcDbEntity
8
0
100
AcDbCircle
62
7
6
CONTINUOUS
10
156.1728338464
20
198.2668008718
40
3.0000000000
100
AcDbArc
50
120.0000000000
51
212.4919063690
0
ARC
5
63A
100
AcDbEntity
8
0
100
AcDbCircle
62
7
6
CONTINUOUS
10
154.5584020723
20
183.9114741202
40
3.0000000000
100
AcDbArc
50
134.6747964632
51
181.1196083928
0
ARC
5
63B
100
AcDbEntity
8
0
100
AcDbCircle
62
7
6
CONTINUOUS
10
146.4729594753
20
192.0892255233
40
8.5000000000
100
AcDbArc
50
314.6747964632
51
32.4919063690
0
CIRCLE
5
63C
100
AcDbEntity
8
0
100
AcDbCircle
62
7
6
CONTINUOUS
10
146.4729594753
20
192.0892255233
40
6.5000000000
0
ARC
5
63D
100
AcDbEntity
8
0
100
AcDbCircle
62
2
6
CONTINUOUS
10
145.4729594753
20
256.4715909588
40
2.0000000000
100
AcDbArc
50
255.0000000000
51
195.0000000000
0
ARC
5
63E
100
AcDbEntity
8
0
100
AcDbCircle
62
2
6
CONTINUOUS
10
155.4729594753
20
256.4715909588
40
2.0000000000
100
AcDbArc
50
255.0000000000
51
195.0000000000
0
CIRCLE
5
63F
100
AcDbEntity
8
0
100
AcDbCircle
62
7
6
CONTINUOUS
10
150.4729594753
20
256.4715909588
40
1.5000000000
0
CIRCLE
5
640
100
AcDbEntity
8
0
100
AcDbCircle
62
7
6
CONTINUOUS
10
145.4729594753
20
256.4715909588
40
1.6500000000
0
CIRCLE
5
641
100
AcDbEntity
8
0
100
AcDbCircle
62
7
6
CONTINUOUS
10
155.4729594753
20
256.4715909588
40
1.6500000000
0
CIRCLE
5
642
100
AcDbEntity
8
0
100
AcDbCircle
62
7
6
CONTINUOUS
10
351.9301241090
20
192.0892255233
40
5.0000000000
0
ARC
5
643
100
AcDbEntity
8
0
100
AcDbCircle
62
7
6
CONTINUOUS
10
351.9301241090
20
192.0892255233
40
8.5000000000
100
AcDbArc
50
317.6573945478
51
20.0000000000
0
ARC
5
644
100
AcDbEntity
8
0
100
AcDbCircle
62
7
6
CONTINUOUS
10
360.4301241090
20
184.3432588309
40
3.0000000000
100
AcDbArc
50
137.6573945478
51
180.0000000000
0
ARC
5
645
100
AcDbEntity
8
0
100
AcDbCircle
62
7
6
CONTINUOUS
10
343.8446815120
20
183.9114741202
40
3.0000000000
100
AcDbArc
50
300.0000000000
51
45.3252035368
0
ARC
5
646
100
AcDbEntity
8
0
100
AcDbCircle
62
7
6
CONTINUOUS
10
342.2302497379
20
198.2668008718
40
3.0000000000
100
AcDbArc
50
327.5080936310
51
60.0000000000
0
ARC
5
647
100
AcDbEntity
8
0
100
AcDbCircle
62
7
6
CONTINUOUS
10
359.4301241090
20
205.1068954793
40
3.0000000000
100
AcDbArc
50
180.0000000000
51
200.0000000000
0
ARC
5
648
100
AcDbEntity
8
0
100
AcDbCircle
62
7
6
CONTINUOUS
10
351.9301241090
20
192.0892255233
40
8.5000000000
100
AcDbArc
50
147.5080936310
51
225.3252035368
0
ARC
5
649
100
AcDbEntity
8
0
100
AcDbCircle
62
2
6
CONTINUOUS
10
146.4729594753
20
110.4904888391
40
1.5000000000
100
AcDbArc
50
255.0000000000
51
195.0000000000
0
CIRCLE
5
64A
100
AcDbEntity
8
0
100
AcDbCircle
62
7
6
CONTINUOUS
10
146.4729594753
20
110.4904888391
40
1.2500000000
0
SPLINE
5
64B
100
AcDbEntity
8
0
100
AcDbSpline
62
7
6
CONTINUOUS
70
0
71
3
72
15
73
11
74
9
42
0.0000001000
43
0.0000001000
44
0.0000000001
12
0.6062851502
22
2.5398298151
32
0.0000000000
13
-2.4157382147
23
-1.0254141889
33
0.0000000000
40
0.0000000000
40
0.0000000000
40
0.0000000000
40
0.0000000000
40
0.1427552326
40
0.3025856360
40
0.4688375344
40
0.6290907345
40
0.7725703305
40
0.8939765760
40
0.9982654636
40
1.0000000000
40
1.0000000000
40
1.0000000000
40
1.0000000000
10
217.5715217855
20
37.5994235888
30
0.0000000000
10
217.6003719114
20
37.7202815875
30
0.0000000000
10
217.6157955632
20
37.9876427624
30
0.0000000000
10
217.5393186920
20
38.3914661730
30
0.0000000000
10
217.3743714117
20
38.7847111871
30
0.0000000000
10
217.1389527680
20
39.1234359135
30
0.0000000000
10
216.8577174397
20
39.3705350894
30
0.0000000000
10
216.5545427702
20
39.4998807606
30
0.0000000000
10
216.3464727658
20
39.4826496195
30
0.0000000000
10
216.2609087955
20
39.4468601744
30
0.0000000000
10
216.2595120669
20
39.4462673016
30
0.0000000000
11
217.5715217855
21
37.5994235888
31
0.0000000000
11
217.6005060874
21
37.9710561772
31
0.0000000000
11
217.5265746766
21
38.3818033329
31
0.0000000000
11
217.3586447722
21
38.7821228872
31
0.0000000000
11
217.1169711993
21
39.1237303936
31
0.0000000000
11
216.8307033573
21
39.3654229452
31
0.0000000000
11
216.5343693729
21
39.4780488534
31
0.0000000000
11
216.2637114980
21
39.4480237714
31
0.0000000000
11
216.2595120669
21
39.4462673016
31
0.0000000000
0
SPLINE
5
64C
100
AcDbEntity
8
0
100
AcDbSpline
62
7
6
CONTINUOUS
70
0
71
3
72
20
73
16
74
14
42
0.0000001000
43
0.0000001000
44
0.0000000001
12
-4.4314878163
22
-15.9436430642
32
0.0000000000
13
3.8485102837
23
16.1784921332
33
0.0000000000
40
0.0000000000
40
0.0000000000
40
0.0000000000
40
0.0000000000
40
0.0585420806
40
0.1225721474
40
0.1949042751
40
0.2759318295
40
0.3642299484
40
0.4572067374
40
0.5516343601
40
0.6441020772
40
0.7314477178
40
0.8112186265
40
0.8822196529
40
0.9451784523
40
1.0000000000
40
1.0000000000
40
1.0000000000
40
1.0000000000
10
237.6363077364
20
47.0422577979
30
0.0000000000
10
237.5498315642
20
46.7311331190
30
0.0000000000
10
237.2303853351
20
46.1127915461
30
0.0000000000
10
236.4170290405
20
45.3832662326
30
0.0000000000
10
235.3274054709
20
44.8543269354
30
0.0000000000
10
234.0225258045
20
44.5434593734
30
0.0000000000
10
232.5713674134
20
44.4622438685
30
0.0000000000
10
231.0524931561
20
44.6140184852
30
0.0000000000
10
229.5496391790
20
44.9900873965
30
0.0000000000
10
228.1461205019
20
45.5696361857
30
0.0000000000
10
226.9193315555
20
46.3210779164
30
0.0000000000
10
225.9360961264
20
47.2052565532
30
0.0000000000
10
225.2507301441
20
48.1799878032
30
0.0000000000
10
224.9157845688
20
49.1862892608
30
0.0000000000
10
224.9436066650
20
49.8515008202
30
0.0000000000
10
225.0139337617
20
50.1471441461
30
0.0000000000
11
237.6363077364
21
47.0422577979
31
0.0000000000
11
237.2008763236
21
46.1768736450
31
0.0000000000
11
236.4264432040
21
45.4537227225
31
0.0000000000
11
235.3577734051
21
44.9146057606
31
0.0000000000
11
234.0566398997
21
44.5906856674
31
0.0000000000
11
232.5982529030
21
44.5006861948
31
0.0000000000
11
231.0669124503
21
44.6498096381
31
0.0000000000
11
229.5511355505
21
45.0294361243
31
0.0000000000
11
228.1385395834
21
45.6176218720
31
0.0000000000
11
226.9107776986
21
46.3803676211
31
0.0000000000
11
225.9388189684
21
47.2735839126
31
0.0000000000
11
225.2788461192
21
48.2456396186
31
0.0000000000
11
224.9690079667
21
49.2403464081
31
0.0000000000
11
225.0139337617
21
50.1471441461
31
0.0000000000
0
SPLINE
5
64D
100
AcDbEntity
8
0
100
AcDbSpline
62
7
6
CONTINUOUS
70
0
71
3
72
9
73
5
74
3
42
0.0000001000
43
0.0000001000
44
0.0000000001
12
0.0180493204
22
0.0649379922
32
0.0000000000
13
0.0162311333
23
0.0654161380
33
0.0000000000
40
0.0000000000
40
0.0000000000
40
0.0000000000
40
0.0000000000
40
0.5003621331
40
1.0000000000
40
1.0000000000
40
1.0000000000
40
1.0000000000
10
237.6363077364
20
47.0422577979
30
0.0000000000
10
237.6393181352
20
47.0530886353
30
0.0000000000
10
237.6451836901
20
47.0747768553
30
0.0000000000
10
237.6507461642
20
47.0965447771
30
0.0000000000
10
237.6534493938
20
47.1074395703
30
0.0000000000
11
237.6363077364
21
47.0422577979
31
0.0000000000
11
237.6451120583
21
47.0748125177
31
0.0000000000
11
237.6534493938
21
47.1074395703
31
0.0000000000
0
SPLINE
5
64E
100
AcDbEntity
8
0
100
AcDbSpline
62
7
6
CONTINUOUS
70
0
71
3
72
14
73
10
74
8
42
0.0000001000
43
0.0000001000
44
0.0000000001
12
-0.8306695881
22
-3.5002232875
32
0.0000000000
13
-3.5167643070
23
0.6403129587
33
0.0000000000
40
0.0000000000
40
0.0000000000
40
0.0000000000
40
0.0000000000
40
0.0517424371
40
0.1746330166
40
0.3083408273
40
0.4586940982
40
0.6286194215
40
0.8161553135
40
1.0000000000
40
1.0000000000
40
1.0000000000
40
1.0000000000
10
234.8830293823
20
54.9696760248
30
0.0000000000
10
234.8687024260
20
54.9093059970
30
0.0000000000
10
234.8037504494
20
54.7096067939
30
0.0000000000
10
234.5930111839
20
54.3988913782
30
0.0000000000
10
234.2027756422
20
54.1004577685
30
0.0000000000
10
233.7011694298
20
53.8865035646
30
0.0000000000
10
233.1051557647
20
53.7640396336
30
0.0000000000
10
232.4578530801
20
53.7426414840
30
0.0000000000
10
232.0165809013
20
53.7928803030
30
0.0000000000
10
231.8010680908
20
53.8321196813
30
0.0000000000
11
234.8830293823
21
54.9696760248
31
0.0000000000
11
234.8254368693
21
54.7930497556
31
0.0000000000
11
234.5841920695
21
54.4259394847
31
0.0000000000
11
234.2095506040
21
54.1291576679
31
0.0000000000
11
233.7179389763
21
53.9119699405
31
0.0000000000
11
233.1240371749
21
53.7845734813
31
0.0000000000
11
232.4541609512
21
53.7590497244
31
0.0000000000
11
231.8010680908
21
53.8321196813
31
0.0000000000
0
SPLINE
5
64F
100
AcDbEntity
8
0
100
AcDbSpline
62
7
6
CONTINUOUS
70
0
71
3
72
14
73
10
74
8
42
0.0000001000
43
0.0000001000
44
0.0000000001
12
-9.3377077311
22
1.7001580835
32
0.0000000000
13
-4.0060528527
23
-8.6043514411
33
0.0000000000
40
0.0000000000
40
0.0000000000
40
0.0000000000
40
0.0000000000
40
0.1715913011
40
0.3375302381
40
0.4942813888
40
0.6390975466
40
0.7708148996
40
0.8901157227
40
1.0000000000
40
1.0000000000
40
1.0000000000
40
1.0000000000
10
231.8010680908
20
53.8321196813
30
0.0000000000
10
231.2669782845
20
53.9293637939
30
0.0000000000
10
230.2040011871
20
54.0592898279
30
0.0000000000
10
228.6361289969
20
54.0569787682
30
0.0000000000
10
227.1656957607
20
53.8553729687
30
0.0000000000
10
225.8462546246
20
53.4609532908
30
0.0000000000
10
224.7244246090
20
52.8850686569
30
0.0000000000
10
223.8414681688
20
52.1438044535
30
0.0000000000
10
223.4270544497
20
51.5335248563
30
0.0000000000
10
223.2803203755
20
51.2183638763
30
0.0000000000
11
231.8010680908
21
53.8321196813
31
0.0000000000
11
230.1842163064
21
54.0274792336
31
0.0000000000
11
228.6092680734
21
54.0205365860
31
0.0000000000
11
227.1363099052
21
53.8111931949
31
0.0000000000
11
225.8223766930
21
53.4077310489
31
0.0000000000
11
224.7160221924
21
52.8255997658
31
0.0000000000
11
223.8580707549
21
52.0866498232
31
0.0000000000
11
223.2803203755
21
51.2183638763
31
0.0000000000
0
SPLINE
5
650
100
AcDbEntity
8
0
100
AcDbSpline
62
7
6
CONTINUOUS
70
0
71
3
72
9
73
5
74
3
42
0.0000001000
43
0.0000001000
44
0.0000000001
12
0.5383751532
22
0.2285253914
32
0.0000000000
13
0.1351176459
23
0.5660303991
33
0.0000000000
40
0.0000000000
40
0.0000000000
40
0.0000000000
40
0.0000000000
40
0.4586190286
40
1.0000000000
40
1.0000000000
40
1.0000000000
40
1.0000000000
10
217.2349807054
20
37.1444318084
30
0.0000000000
10
217.3172837354
20
37.1793671728
30
0.0000000000
10
217.4733291972
20
37.3112630567
30
0.0000000000
10
217.5471384114
20
37.4972775597
30
0.0000000000
10
217.5715217855
20
37.5994235888
30
0.0000000000
11
217.2349807054
21
37.1444318084
31
0.0000000000
11
217.4431177054
21
37.3117299427
31
0.0000000000
11
217.5715217855
21
37.5994235888
31
0.0000000000
0
SPLINE
5
651
100
AcDbEntity
8
0
100
AcDbSpline
62
7
6
CONTINUOUS
70
0
71
3
72
13
73
9
74
7
42
0.0000001000
43
0.0000001000
44
0.0000000001
12
-1.5239152460
22
-6.3444965714
32
0.0000000000
13
-6.4675681315
23
-0.7096553469
33
0.0000000000
40
0.0000000000
40
0.0000000000
40
0.0000000000
40
0.0000000000
40
0.1056800909
40
0.2558121284
40
0.4179165750
40
0.5956674344
40
0.7899949396
40
1.0000000000
40
1.0000000000
40
1.0000000000
40
1.0000000000
10
237.3945074414
20
37.4092814116
30
0.0000000000
10
237.3408249408
20
37.1857857534
30
0.0000000000
10
237.1516301942
20
36.6571912942
30
0.0000000000
10
236.6330796980
20
35.9002103746
30
0.0000000000
10
235.8216618790
20
35.1987247713
30
0.0000000000
10
234.7978759848
20
34.6411330991
30
0.0000000000
10
233.5952687855
20
34.2400066726
30
0.0000000000
10
232.7281042319
20
34.0889482607
30
0.0000000000
10
232.2753635531
20
34.0392711893
30
0.0000000000
11
237.3945074414
21
37.4092814116
31
0.0000000000
11
237.1626240905
21
36.7601776712
31
0.0000000000
11
236.6179628382
21
35.9493044946
31
0.0000000000
11
235.8274265119
21
35.2511112002
31
0.0000000000
11
234.8169515291
21
34.6885558264
31
0.0000000000
11
233.6203143361
21
34.2802790604
31
0.0000000000
11
232.2753635531
21
34.0392711893
31
0.0000000000
0
SPLINE
5
652
100
AcDbEntity
8
0
100
AcDbSpline
62
7
6
CONTINUOUS
70
0
71
3
72
10
73
6
74
4
42
0.0000001000
43
0.0000001000
44
0.0000000001
12
-0.8911908862
22
-0.0977861175
32
0.0000000000
13
-0.8254507523
23
-0.3498776586
33
0.0000000000
40
0.0000000000
40
0.0000000000
40
0.0000000000
40
0.0000000000
40
0.3485588781
40
0.6839424301
40
1.0000000000
40
1.0000000000
40
1.0000000000
40
1.0000000000
10
223.4734397999
20
33.0734781543
30
0.0000000000
10
223.3698956348
20
33.0621167479
30
0.0000000000
10
223.1675025659
20
33.0314315314
30
0.0000000000
10
222.8769649491
20
32.9597092643
30
0.0000000000
10
222.6932122544
20
32.8940640346
30
0.0000000000
10
222.6062489347
20
32.8572035404
30
0.0000000000
11
223.4734397999
21
33.0734781543
31
0.0000000000
11
223.1645600307
21
33.0260696170
31
0.0000000000
11
222.8728119141
21
32.9533077181
31
0.0000000000
11
222.6062489347
21
32.8572035404
31
0.0000000000
0
SPLINE
5
653
100
AcDbEntity
8
0
100
AcDbSpline
62
7
6
CONTINUOUS
70
0
71
3
72
13
73
9
74
7
42
0.0000001000
43
0.0000001000
44
0.0000000001
12
-1.7352303248
22
-3.7269931513
32
0.0000000000
13
-3.8800211135
23
1.3590211140
33
0.0000000000
40
0.0000000000
40
0.0000000000
40
0.0000000000
40
0.0000000000
40
0.1241914754
40
0.2687602753
40
0.4311145527
40
0.6112389481
40
0.8065106800
40
1.0000000000
40
1.0000000000
40
1.0000000000
40
1.0000000000
10
223.2803203755
20
51.2183638763
30
0.0000000000
10
223.2084867708
20
51.0640769502
30
0.0000000000
10
222.9755885786
20
50.7642095713
30
0.0000000000
10
222.4647079119
20
50.4501271424
30
0.0000000000
10
221.8194286614
20
50.2581476123
30
0.0000000000
10
221.0807248809
20
50.1964521602
30
0.0000000000
10
220.3009169610
20
50.2688359939
30
0.0000000000
10
219.7827437466
20
50.4038174077
30
0.0000000000
10
219.5324961977
20
50.4914694315
30
0.0000000000
11
223.2803203755
21
51.2183638763
31
0.0000000000
11
222.9749712793
21
50.8091663319
31
0.0000000000
11
222.4762604832
21
50.4858533733
31
0.0000000000
11
221.8392150236
21
50.2866592909
31
0.0000000000
11
221.1017857492
21
50.2191027389
31
0.0000000000
11
220.3021891803
21
50.2906383344
31
0.0000000000
11
219.5324961977
21
50.4914694315
31
0.0000000000
0
SPLINE
5
654
100
AcDbEntity
8
0
100
AcDbSpline
62
7
6
CONTINUOUS
70
0
71
3
72
10
73
6
74
4
42
0.0000001000
43
0.0000001000
44
0.0000000001
12
-1.2111875847
22
-0.5133770550
32
0.0000000000
13
-0.4042002932
23
-1.2611672676
33
0.0000000000
40
0.0000000000
40
0.0000000000
40
0.0000000000
40
0.0000000000
40
0.4159191235
40
0.7866400288
40
1.0000000000
40
1.0000000000
40
1.0000000000
40
1.0000000000
10
238.4001157219
20
38.7153878006
30
0.0000000000
10
238.2321970290
20
38.6442133557
30
0.0000000000
10
237.9270937668
20
38.4733274609
30
0.0000000000
10
237.6208910792
20
38.1477296219
30
0.0000000000
10
237.5115648491
20
37.9108942708
30
0.0000000000
10
237.4828181282
20
37.8212000668
30
0.0000000000
11
238.4001157219
21
38.7153878006
31
0.0000000000
11
237.9275196585
21
38.4396789648
31
0.0000000000
11
237.6007135447
21
38.0776961009
31
0.0000000000
11
237.4828181282
21
37.8212000668
31
0.0000000000
0
SPLINE
5
655
100
AcDbEntity
8
0
100
AcDbSpline
62
7
6
CONTINUOUS
70
0
71
3
72
10
73
6
74
4
42
0.0000001000
43
0.0000001000
44
0.0000000001
12
0.3302383099
22
1.3625224072
32
0.0000000000
13
1.2858318724
23
0.5450159729
33
0.0000000000
40
0.0000000000
40
0.0000000000
40
0.0000000000
40
0.0000000000
40
0.2590254940
40
0.6082255469
40
1.0000000000
40
1.0000000000
40
1.0000000000
40
1.0000000000
10
239.6695841096
20
46.9959095182
30
0.0000000000
10
239.6980974901
20
47.1135521980
30
0.0000000000
10
239.8108497616
20
47.3808198881
30
0.0000000000
10
240.1359234167
20
47.7264839985
30
0.0000000000
10
240.4410266789
20
47.8973698933
30
0.0000000000
10
240.6089453718
20
47.9685443382
30
0.0000000000
11
239.6695841096
21
46.9959095182
31
0.0000000000
11
239.8095431947
21
47.3308526385
31
0.0000000000
11
240.1363493084
21
47.6928355024
31
0.0000000000
11
240.6089453718
21
47.9685443382
31
0.0000000000
0
SPLINE
5
656
100
AcDbEntity
8
0
100
AcDbSpline
62
7
6
CONTINUOUS
70
0
71
3
72
9
73
5
74
3
42
0.0000001000
43
0.0000001000
44
0.0000000001
12
-0.5383751532
22
-0.2285253914
32
0.0000000000
13
-0.1351176459
23
-0.5660303991
33
0.0000000000
40
0.0000000000
40
0.0000000000
40
0.0000000000
40
0.0000000000
40
0.4586190286
40
1.0000000000
40
1.0000000000
40
1.0000000000
40
1.0000000000
10
216.2595120669
20
39.4462673016
30
0.0000000000
10
216.1772090369
20
39.4113319373
30
0.0000000000
10
216.0211635751
20
39.2794360533
30
0.0000000000
10
215.9473543609
20
39.0934215503
30
0.0000000000
10
215.9229709868
20
38.9912755212
30
0.0000000000
11
216.2595120669
21
39.4462673016
31
0.0000000000
11
216.0513750669
21
39.2789691673
31
0.0000000000
11
215.9229709868
21
38.9912755212
31
0.0000000000
0
SPLINE
5
657
100
AcDbEntity
8
0
100
AcDbSpline
62
7
6
CONTINUOUS
70
0
71
3
72
10
73
6
74
4
42
0.0000001000
43
0.0000001000
44
0.0000000001
12
0.8254507523
22
0.3498776586
32
0.0000000000
13
0.8911908862
23
0.0977861175
33
0.0000000000
40
0.0000000000
40
0.0000000000
40
0.0000000000
40
0.0000000000
40
0.3160575699
40
0.6514411219
40
1.0000000000
40
1.0000000000
40
1.0000000000
40
1.0000000000
10
224.8150785846
20
42.1103600780
30
0.0000000000
10
224.9020419043
20
42.1472205722
30
0.0000000000
10
225.0857945990
20
42.2128658019
30
0.0000000000
10
225.3763322159
20
42.2845880690
30
0.0000000000
10
225.5787252847
20
42.3152732855
30
0.0000000000
10
225.6822694498
20
42.3266346919
30
0.0000000000
11
224.8150785846
21
42.1103600780
31
0.0000000000
11
225.0816415640
21
42.2064642557
31
0.0000000000
11
225.3733896806
21
42.2792261546
31
0.0000000000
11
225.6822694498
21
42.3266346919
31
0.0000000000
0
SPLINE
5
658
100
AcDbEntity
8
0
100
AcDbSpline
62
7
6
CONTINUOUS
70
0
71
3
72
13
73
9
74
7
42
0.0000001000
43
0.0000001000
44
0.0000000001
12
6.4675681316
22
0.7096553469
32
0.0000000000
13
1.5239152460
23
6.3444965715
33
0.0000000000
40
0.0000000000
40
0.0000000000
40
0.0000000000
40
0.0000000000
40
0.2100050795
40
0.4043325687
40
0.5820834245
40
0.7441878716
40
0.8943199091
40
1.0000000000
40
1.0000000000
40
1.0000000000
40
1.0000000000
10
234.4841932030
20
43.2924277269
30
0.0000000000
10
234.9369339230
20
43.3421048028
30
0.0000000000
10
235.8040984834
20
43.4931632209
30
0.0000000000
10
237.0067056767
20
43.8942896588
30
0.0000000000
10
238.0304915332
20
44.4518813127
30
0.0000000000
10
238.8419093473
20
45.1533669113
30
0.0000000000
10
239.3604598441
20
45.9103478318
30
0.0000000000
10
239.5496545908
20
46.4389422910
30
0.0000000000
10
239.6033370913
20
46.6624379492
30
0.0000000000
11
234.4841932030
21
43.2924277269
31
0.0000000000
11
235.8291441068
21
43.5334356289
31
0.0000000000
11
237.0257811978
21
43.9417123722
31
0.0000000000
11
238.0362561591
21
44.5042677359
31
0.0000000000
11
238.8267924881
21
45.2024610322
31
0.0000000000
11
239.3714537404
21
46.0133342088
31
0.0000000000
11
239.6033370913
21
46.6624379492
31
0.0000000000
0
SPLINE
5
659
100
AcDbEntity
8
0
100
AcDbSpline
62
7
6
CONTINUOUS
70
0
71
3
72
9
73
5
74
3
42
0.0000001000
43
0.0000001000
44
0.0000000001
12
0.2066409977
22
-0.6366642191
32
0.0000000000
13
-0.1555472745
23
-0.6554353263
33
0.0000000000
40
0.0000000000
40
0.0000000000
40
0.0000000000
40
0.0000000000
40
0.6328264967
40
1.0000000000
40
1.0000000000
40
1.0000000000
40
1.0000000000
10
234.8480000230
20
55.6330784488
30
0.0000000000
10
234.8915893226
20
55.4987791197
30
0.0000000000
10
234.9302667746
20
55.2741478634
30
0.0000000000
10
234.9020669948
20
55.0498955197
30
0.0000000000
10
234.8830293823
20
54.9696760248
30
0.0000000000
11
234.8480000230
21
55.6330784488
31
0.0000000000
11
234.9137592723
21
55.2146256407
31
0.0000000000
11
234.8830293823
21
54.9696760248
31
0.0000000000
0
SPLINE
5
65A
100
AcDbEntity
8
0
100
AcDbSpline
62
7
6
CONTINUOUS
70
0
71
3
72
21
73
17
74
15
42
0.0000001000
43
0.0000001000
44
0.0000000001
12
3.8687534535
22
16.2635910254
32
0.0000000000
13
-3.8540430386
23
-16.1891219780
33
0.0000000000
40
0.0000000000
40
0.0000000000
40
0.0000000000
40
0.0000000000
40
0.0032722351
40
0.0613969838
40
0.1248365417
40
0.1964793195
40
0.2767931285
40
0.3644126953
40
0.4567910256
40
0.5507315465
40
0.6428404985
40
0.7299560500
40
0.8096048549
40
0.8805435035
40
0.9434163280
40
1.0000000000
40
1.0000000000
40
1.0000000000
40
1.0000000000
10
225.0139337617
20
50.1471441461
30
0.0000000000
10
225.0181535853
20
50.1648835771
30
0.0000000000
10
225.1012061908
20
50.4967841080
30
0.0000000000
10
225.4188846041
20
51.1321749908
30
0.0000000000
10
226.2215853037
20
51.8695492667
30
0.0000000000
10
227.3024063112
20
52.4055571061
30
0.0000000000
10
228.6008218079
20
52.7244563840
30
0.0000000000
10
230.0481018491
20
52.8138676271
30
0.0000000000
10
231.5659992449
20
52.6702503748
30
0.0000000000
10
233.0708546424
20
52.3018075061
30
0.0000000000
10
234.4792489387
20
51.7289685312
30
0.0000000000
10
235.7134774517
20
50.9829278070
30
0.0000000000
10
236.7063310615
20
50.1028194554
30
0.0000000000
10
237.4029366115
20
49.1302546668
30
0.0000000000
10
237.7545314598
20
48.1153840417
30
0.0000000000
10
237.7313019807
20
47.4340161994
30
0.0000000000
10
237.6586100117
20
47.1286695435
30
0.0000000000
11
225.0139337617
21
50.1471441461
31
0.0000000000
11
225.0272142763
21
50.2002066354
31
0.0000000000
11
225.4501005141
21
51.0697369115
31
0.0000000000
11
226.2132223289
21
51.7986752450
31
0.0000000000
11
227.2724685227
21
52.3448863658
31
0.0000000000
11
228.5666108126
21
52.6767972937
31
0.0000000000
11
230.0208431249
21
52.7752223905
31
0.0000000000
11
231.5511055795
21
52.6344723279
31
0.0000000000
11
233.0689434781
21
52.2626829669
31
0.0000000000
11
234.4866203061
21
51.6813450758
31
0.0000000000
11
235.7221892219
21
50.9240620860
31
0.0000000000
11
236.7042296755
21
50.0346079221
31
0.0000000000
11
237.3759788671
21
49.0643914636
31
0.0000000000
11
237.6986017519
21
48.0694990536
31
0.0000000000
11
237.6586100117
21
47.1286695435
31
0.0000000000
0
SPLINE
5
65B
100
AcDbEntity
8
0
100
AcDbSpline
62
7
6
CONTINUOUS
70
0
71
3
72
15
73
11
74
9
42
0.0000001000
43
0.0000001000
44
0.0000000001
12
-0.6062851502
22
-2.5398298151
32
0.0000000000
13
2.4157382147
23
1.0254141889
33
0.0000000000
40
0.0000000000
40
0.0000000000
40
0.0000000000
40
0.0000000000
40
0.1427552326
40
0.3025856360
40
0.4688375344
40
0.6290907345
40
0.7725703305
40
0.8939765760
40
0.9982654636
40
1.0000000000
40
1.0000000000
40
1.0000000000
40
1.0000000000
10
215.9229709868
20
38.9912755212
30
0.0000000000
10
215.8941208609
20
38.8704175225
30
0.0000000000
10
215.8786972091
20
38.6030563477
30
0.0000000000
10
215.9551740803
20
38.1992329370
30
0.0000000000
10
216.1201213606
20
37.8059879229
30
0.0000000000
10
216.3555400043
20
37.4672631965
30
0.0000000000
10
216.6367753326
20
37.2201640206
30
0.0000000000
10
216.9399500021
20
37.0908183494
30
0.0000000000
10
217.1480200065
20
37.1080494905
30
0.0000000000
10
217.2335839768
20
37.1438389357
30
0.0000000000
10
217.2349807054
20
37.1444318084
30
0.0000000000
11
215.9229709868
21
38.9912755212
31
0.0000000000
11
215.8939866849
21
38.6196429329
31
0.0000000000
11
215.9679180957
21
38.2088957771
31
0.0000000000
11
216.1358480001
21
37.8085762228
31
0.0000000000
11
216.3775215730
21
37.4669687165
31
0.0000000000
11
216.6637894150
21
37.2252761648
31
0.0000000000
11
216.9601233994
21
37.1126502566
31
0.0000000000
11
217.2307812743
21
37.1426753386
31
0.0000000000
11
217.2349807054
21
37.1444318084
31
0.0000000000
0
SPLINE
5
65C
100
AcDbEntity
8
0
100
AcDbSpline
62
2
6
CONTINUOUS
70
0
71
3
72
12
73
8
74
6
42
0.0000001000
43
0.0000001000
44
0.0000000001
12
0.0550070128
22
-1.0841266875
32
-0.8966551768
13
1.0254515878
23
-1.0595031542
33
-0.0475271962
40
0.0000000000
40
0.0000000000
40
0.0000000000
40
0.0000000000
40
0.2180757293
40
0.4361514585
40
0.6542271878
40
0.8723029171
40
1.0000000000
40
1.0000000000
40
1.0000000000
40
1.0000000000
10
230.7373078216
20
99.2791316507
30
-4.8514295263
10
230.7413063864
20
99.2003244113
30
-4.9166091035
10
230.7679112713
20
99.0379615581
30
-5.0369662891
10
230.8587981941
20
98.7950562549
30
-5.1823911778
10
230.9956490155
20
98.5526964870
30
-5.2912118053
10
231.1490785221
20
98.3485834906
30
-5.3486307978
10
231.2612984812
20
98.2248230595
30
-5.3630760018
10
231.3049475400
20
98.1797245721
30
-5.3650990299
11
230.7373078216
21
99.2791316507
31
-4.8514295263
11
230.7764078705
21
99.0380680542
31
-5.0311144741
11
230.8664588439
21
98.7951471774
31
-5.1762904676
11
231.0025109701
21
98.5536181086
31
-5.2841788037
11
231.1808836685
21
98.3164269952
31
-5.3495742142
11
231.3049475400
21
98.1797245721
31
-5.3650990299
0
SPLINE
5
65D
100
AcDbEntity
8
0
100
AcDbSpline
62
2
6
CONTINUOUS
70
0
71
3
72
17
73
13
74
11
42
0.0000001000
43
0.0000001000
44
0.0000000001
12
-2.0479709603
22
2.2469874594
32
-0.8403197726
13
0.1015051804
23
-2.2240999803
33
-1.8230035280
40
0.0000000000
40
0.0000000000
40
0.0000000000
40
0.0000000000
40
0.0385648673
40
0.1453909932
40
0.2522171190
40
0.3590432449
40
0.4658693707
40
0.5726954966
40
0.6795216224
40
0.7863477483
40
0.8931738741
40
1.0000000000
40
1.0000000000
40
1.0000000000
40
1.0000000000
10
232.3799629009
20
99.5827497411
30
-2.9656024710
10
232.3536363248
20
99.6116346655
30
-2.9764047445
10
232.2516190218
20
99.7172101867
30
-3.0216221054
10
232.0592032145
20
99.8728130173
30
-3.1286263434
10
231.8085083743
20
100.0028984826
30
-3.3008916006
10
231.5469652615
20
100.0677114755
30
-3.5126617022
10
231.3010476288
20
100.0578751679
30
-3.7472577008
10
231.0941686013
20
99.9842600127
30
-3.9834329852
10
230.9330094896
20
99.8637448197
30
-4.2113471513
10
230.8152829455
20
99.7030373109
30
-4.4346273601
10
230.7452634274
20
99.5088800999
30
-4.6491990410
10
230.7336933532
20
99.3583289788
30
-4.7865147248
10
230.7373078216
20
99.2791316507
30
-4.8514295263
11
232.3799629009
21
99.5827497411
31
-2.9656024710
11
232.2988900188
21
99.6665252115
31
-3.0015509572
11
232.0581694328
21
99.8615412729
31
-3.1346764893
11
231.8067003289
21
99.9920197372
31
-3.3074757413
11
231.5495695082
21
100.0552699254
31
-3.5164660184
11
231.3075540630
21
100.0472453600
31
-3.7475209151
11
231.1017885872
21
99.9764433397
31
-3.9820561321
11
230.9402482509
21
99.8570461004
31
-4.2105748251
11
230.8232341165
21
99.6974623605
31
-4.4331759388
11
230.7540408286
21
99.5036018548
31
-4.6477660151
11
230.7373078216
21
99.2791316507
31
-4.8514295263
0
SPLINE
5
65E
100
AcDbEntity
8
0
100
AcDbSpline
62
7
6
CONTINUOUS
70
0
71
3
72
17
73
13
74
11
42
0.0000001000
43
0.0000001000
44
0.0000000001
12
-8.2175500835
22
-6.3178648169
32
0.0000000000
13
-0.4825779298
23
10.4162497442
33
0.0000000000
40
0.0000000000
40
0.0000000000
40
0.0000000000
40
0.0000000000
40
0.1092570952
40
0.2282463846
40
0.3530164935
40
0.4786625244
40
0.6001438508
40
0.7130850722
40
0.8146595672
40
0.9046375637
40
0.9864110972
40
1.0000000000
40
1.0000000000
40
1.0000000000
40
1.0000000000
10
231.3210187990
20
98.1892902419
30
0.0000000000
10
231.0217435818
20
97.9591997227
30
0.0000000000
10
230.3338150593
20
97.5580664152
30
0.0000000000
10
229.1743584396
20
97.1601068487
30
0.0000000000
10
227.9079305301
20
96.9579813941
30
0.0000000000
10
226.6172194339
20
96.9650892197
30
0.0000000000
10
225.3854946798
20
97.1809246989
30
0.0000000000
10
224.2915976517
20
97.5927290879
30
0.0000000000
10
223.4044886281
20
98.1782508873
30
0.0000000000
10
222.7829917756
20
98.9112210581
30
0.0000000000
10
222.5669430643
20
99.5328314470
30
0.0000000000
10
222.5399023519
20
99.8632504912
30
0.0000000000
10
222.5377164504
20
99.9104322931
30
0.0000000000
11
231.3210187990
21
98.1892902419
31
0.0000000000
11
230.3490031552
21
97.6081264854
31
0.0000000000
11
229.1849891325
21
97.2003207404
31
0.0000000000
11
227.9083023630
21
96.9936642942
31
0.0000000000
11
226.6059469401
21
97.0022404423
31
0.0000000000
11
225.3666762337
21
97.2254647344
31
0.0000000000
11
224.2749444945
21
97.6481248037
31
0.0000000000
11
223.4051514362
21
98.2414170651
31
0.0000000000
11
222.8165720184
21
98.9649096314
31
0.0000000000
11
222.5493169558
21
99.7692976798
31
0.0000000000
11
222.5377164504
21
99.9104322931
31
0.0000000000
0
SPLINE
5
65F
100
AcDbEntity
8
0
100
AcDbSpline
62
7
6
CONTINUOUS
70
0
71
3
72
16
73
12
74
10
42
0.0000001000
43
0.0000001000
44
0.0000000001
12
7.5887276729
22
5.8344099010
32
0.0000000000
13
3.9908110172
23
-8.7447070440
33
0.0000000000
40
0.0000000000
40
0.0000000000
40
0.0000000000
40
0.0000000000
40
0.1088248176
40
0.2268646180
40
0.3508849139
40
0.4767980672
40
0.6002657988
40
0.7172752723
40
0.8247495424
40
0.9212541986
40
1.0000000000
40
1.0000000000
40
1.0000000000
40
1.0000000000
10
223.8166160686
20
100.5717097334
30
0.0000000000
10
224.0918967036
20
100.7833525979
30
0.0000000000
10
224.7188279203
20
101.1573170969
30
0.0000000000
10
225.7741509512
20
101.5458837312
30
0.0000000000
10
226.9317917824
20
101.7694360758
30
0.0000000000
10
228.1268801848
20
101.8153686611
30
0.0000000000
10
229.2931033142
20
101.6812589417
30
0.0000000000
10
230.3658738328
20
101.3741019174
30
0.0000000000
10
231.2866473827
20
100.9092179126
30
0.0000000000
10
231.9857702853
20
100.3235816220
30
0.0000000000
10
232.3040517252
20
99.8530553473
30
0.0000000000
10
232.4088049291
20
99.6235190260
30
0.0000000000
11
223.8166160686
21
100.5717097334
31
0.0000000000
11
224.7061075931
21
101.1138849809
31
0.0000000000
11
225.7641298000
21
101.5104877744
31
0.0000000000
11
226.9291942844
21
101.7384690013
31
0.0000000000
11
228.1335917333
21
101.7845792212
31
0.0000000000
11
229.3073269447
21
101.6461386759
31
0.0000000000
11
230.3821866946
21
101.3311930266
31
0.0000000000
11
231.2957040412
21
100.8580457696
31
0.0000000000
11
231.9947886769
21
100.2541945038
31
0.0000000000
11
232.4088049291
21
99.6235190260
31
0.0000000000
0
SPLINE
5
660
100
AcDbEntity
8
0
100
AcDbSpline
62
7
6
CONTINUOUS
70
0
71
3
72
15
73
11
74
9
42
0.0000001000
43
0.0000001000
44
0.0000000001
12
-0.1488706199
22
3.0894984571
32
0.0000000000
13
-2.4841891941
23
-1.8841202586
33
0.0000000000
40
0.0000000000
40
0.0000000000
40
0.0000000000
40
0.0000000000
40
0.1271288630
40
0.2703885087
40
0.4216206611
40
0.5709808532
40
0.7090031936
40
0.8287563663
40
0.9286525328
40
1.0000000000
40
1.0000000000
40
1.0000000000
40
1.0000000000
10
211.8561904095
20
85.7380484690
30
0.0000000000
10
211.8498818253
20
85.8689699444
30
0.0000000000
10
211.7924453219
20
86.1455067501
30
0.0000000000
10
211.6143454342
20
86.5446083744
30
0.0000000000
10
211.3541874411
20
86.9240978075
30
0.0000000000
10
211.0358686677
20
87.2486583883
30
0.0000000000
10
210.6879509352
20
87.4891069960
30
0.0000000000
10
210.3400927277
20
87.6235927219
30
0.0000000000
10
210.0315493054
20
87.6362553349
30
0.0000000000
10
209.8640440992
20
87.5603280126
30
0.0000000000
10
209.8049638969
20
87.5155189431
30
0.0000000000
11
211.8561904095
21
85.7380484690
31
0.0000000000
11
211.7833199555
21
86.1244575469
31
0.0000000000
11
211.6063034434
21
86.5306781324
31
0.0000000000
11
211.3424684828
21
86.9169465244
31
0.0000000000
11
211.0176410779
21
87.2454520814
31
0.0000000000
11
210.6636175982
21
87.4840383906
31
0.0000000000
11
210.3150523286
21
87.6093509616
31
0.0000000000
11
210.0060652662
21
87.6091233271
31
0.0000000000
11
209.8049638969
21
87.5155189431
31
0.0000000000
0
SPLINE
5
661
100
AcDbEntity
8
0
100
AcDbSpline
62
7
6
CONTINUOUS
70
0
71
3
72
15
73
11
74
9
42
0.0000001000
43
0.0000001000
44
0.0000000001
12
-0.1637576819
22
3.3984483028
32
0.0000000000
13
-2.7326081135
23
-2.0725322845
33
0.0000000000
40
0.0000000000
40
0.0000000000
40
0.0000000000
40
0.0000000000
40
0.1271288630
40
0.2703885087
40
0.4216206611
40
0.5709808532
40
0.7090031936
40
0.8287563663
40
0.9286525328
40
1.0000000000
40
1.0000000000
40
1.0000000000
40
1.0000000000
10
215.7592465789
20
83.7164992043
30
0.0000000000
10
215.7523071362
20
83.8605128272
30
0.0000000000
10
215.6891269825
20
84.1647033135
30
0.0000000000
10
215.4932171060
20
84.6037151002
30
0.0000000000
10
215.2070433136
20
85.0211534767
30
0.0000000000
10
214.8568926629
20
85.3781701155
30
0.0000000000
10
214.4741831572
20
85.6426635840
30
0.0000000000
10
214.0915391289
20
85.7905978825
30
0.0000000000
10
213.7521413644
20
85.8045267568
30
0.0000000000
10
213.5678856376
20
85.7210067023
30
0.0000000000
10
213.5028974150
20
85.6717167259
30
0.0000000000
11
215.7592465789
21
83.7164992043
31
0.0000000000
11
215.6790890795
21
84.1415491900
31
0.0000000000
11
215.4843709162
21
84.5883918341
31
0.0000000000
11
215.1941524595
21
85.0132870653
31
0.0000000000
11
214.8368423141
21
85.3746431780
31
0.0000000000
11
214.4474164864
21
85.6370881180
31
0.0000000000
11
214.0639946898
21
85.7749319462
31
0.0000000000
11
213.7241089212
21
85.7746815482
31
0.0000000000
11
213.5028974150
21
85.6717167259
31
0.0000000000
0
SPLINE
5
662
100
AcDbEntity
8
0
100
AcDbSpline
62
7
6
CONTINUOUS
70
0
71
3
72
10
73
6
74
4
42
0.0000001000
43
0.0000001000
44
0.0000000001
12
-0.8791610237
22
0.4553527400
32
0.0000000000
13
-0.7952278485
23
-0.6030696407
33
0.0000000000
40
0.0000000000
40
0.0000000000
40
0.0000000000
40
0.0000000000
40
0.4115270610
40
0.7548163025
40
1.0000000000
40
1.0000000000
40
1.0000000000
40
1.0000000000
10
206.8686666430
20
89.5624264961
30
0.0000000000
10
206.7480671256
20
89.6248898210
30
0.0000000000
10
206.5126761670
20
89.7160130274
30
0.0000000000
10
206.1734080768
20
89.7298536966
30
0.0000000000
10
205.9891415186
20
89.6463405314
30
0.0000000000
10
205.9241492172
20
89.5970529166
30
0.0000000000
11
206.8686666430
21
89.5624264961
31
0.0000000000
11
206.4852448464
21
89.7002703242
31
0.0000000000
11
206.1453590778
21
89.7000199263
31
0.0000000000
11
205.9241492172
21
89.5970529166
31
0.0000000000
0
SPLINE
5
663
100
AcDbEntity
8
0
100
AcDbSpline
62
7
6
CONTINUOUS
70
0
71
3
72
13
73
9
74
7
42
0.0000001000
43
0.0000001000
44
0.0000000001
12
-4.0720341906
22
-6.9798734366
32
0.0000000000
13
-8.0353220027
23
-0.8565605363
33
0.0000000000
40
0.0000000000
40
0.0000000000
40
0.0000000000
40
0.0000000000
40
0.1389973857
40
0.2901622329
40
0.4537837182
40
0.6284355483
40
0.8116780614
40
1.0000000000
40
1.0000000000
40
1.0000000000
40
1.0000000000
10
235.9247241053
20
89.2149415230
30
0.0000000000
10
235.7360567363
20
88.8915468028
30
0.0000000000
10
235.2586078740
20
88.2634692913
30
0.0000000000
10
234.3371024812
20
87.4511150227
30
0.0000000000
10
233.2126226516
20
86.7526569729
30
0.0000000000
10
231.9210843298
20
86.1892452161
30
0.0000000000
10
230.5046612058
20
85.7780965337
30
0.0000000000
10
229.5144646692
20
85.6150485956
30
0.0000000000
10
229.0100555304
20
85.5612788820
30
0.0000000000
11
235.9247241053
21
89.2149415230
31
0.0000000000
11
235.2529765770
21
88.3147354639
31
0.0000000000
11
234.3430326837
21
87.4997739581
31
0.0000000000
11
233.2237967937
21
86.7958389049
31
0.0000000000
11
231.9324175170
21
86.2264484639
31
0.0000000000
11
230.5113458646
21
85.8102872860
31
0.0000000000
11
229.0100555304
21
85.5612788820
31
0.0000000000
0
SPLINE
5
664
100
AcDbEntity
8
0
100
AcDbSpline
62
7
6
CONTINUOUS
70
0
71
3
72
15
73
11
74
9
42
0.0000001000
43
0.0000001000
44
0.0000000001
12
0.2170802645
22
-4.5503233733
32
0.0000000000
13
-4.5216712901
23
0.4123837818
33
0.0000000000
40
0.0000000000
40
0.0000000000
40
0.0000000000
40
0.0000000000
40
0.0720240939
40
0.1766173982
40
0.2901947468
40
0.4145389686
40
0.5506046964
40
0.6982171721
40
0.8539232890
40
1.0000000000
40
1.0000000000
40
1.0000000000
40
1.0000000000
10
219.0737618137
20
99.3762218086
30
0.0000000000
10
219.0789734834
20
99.2669775027
30
0.0000000000
10
219.0554996913
20
98.9960176055
30
0.0000000000
10
218.8794257118
20
98.5848454991
30
0.0000000000
10
218.5401951995
20
98.1849317551
30
0.0000000000
10
218.0806613157
20
97.8475369325
30
0.0000000000
10
217.5199145767
20
97.5814262026
30
0.0000000000
10
216.8778234674
20
97.3980372311
30
0.0000000000
10
216.2005922556
20
97.3123422678
30
0.0000000000
10
215.7421457341
20
97.3207105347
30
0.0000000000
10
215.5219754439
20
97.3407904235
30
0.0000000000
11
219.0737618137
21
99.3762218086
31
0.0000000000
11
219.0459112226
21
99.0494287373
31
0.0000000000
11
218.8656384727
21
98.6100756592
31
0.0000000000
11
218.5379368211
21
98.2118939548
31
0.0000000000
11
218.0864214904
21
97.8729525618
31
0.0000000000
11
217.5301028259
21
97.6042821129
31
0.0000000000
11
216.8863723834
21
97.4176998514
31
0.0000000000
11
216.1851052886
21
97.3280532117
31
0.0000000000
11
215.5219754439
21
97.3407904235
31
0.0000000000
0
SPLINE
5
665
100
AcDbEntity
8
0
100
AcDbSpline
62
7
6
CONTINUOUS
70
0
71
3
72
12
73
8
74
6
42
0.0000001000
43
0.0000001000
44
0.0000000001
12
0.1464803781
22
-3.1252521055
32
0.0000000000
13
-3.0337851569
23
-0.6708872068
33
0.0000000000
40
0.0000000000
40
0.0000000000
40
0.0000000000
40
0.0000000000
40
0.1435627856
40
0.3223564812
40
0.5244707190
40
0.7555295462
40
1.0000000000
40
1.0000000000
40
1.0000000000
40
1.0000000000
10
227.2003960821
20
107.1985870761
30
0.0000000000
10
227.2074057924
20
107.0490304434
30
0.0000000000
10
227.1601080849
20
106.7100523758
30
0.0000000000
10
226.8861038801
20
106.2274999988
30
0.0000000000
10
226.4134615989
20
105.7937315582
30
0.0000000000
10
225.7925688313
20
105.4548669305
30
0.0000000000
10
225.3193437266
20
105.3074094160
30
0.0000000000
10
225.0721201152
20
105.2527387160
30
0.0000000000
11
227.2003960821
21
107.1985870761
31
0.0000000000
11
227.1412555411
21
106.7555067281
31
0.0000000000
11
226.8773154522
21
106.2666867348
31
0.0000000000
11
226.4222442092
21
105.8339335840
31
0.0000000000
11
225.7959988925
21
105.4829019427
31
0.0000000000
11
225.0721201152
21
105.2527387160
31
0.0000000000
0
SPLINE
5
666
100
AcDbEntity
8
0
100
AcDbSpline
62
7
6
CONTINUOUS
70
0
71
3
72
14
73
10
74
8
42
0.0000001000
43
0.0000001000
44
0.0000000001
12
-8.6044935975
22
-1.9027862479
32
0.0000000000
13
0.4113830494
23
-8.8289559126
33
0.0000000000
40
0.0000000000
40
0.0000000000
40
0.0000000000
40
0.0000000000
40
0.1796883664
40
0.3503002937
40
0.5092268897
40
0.6551723828
40
0.7886577747
40
0.9123109045
40
1.0000000000
40
1.0000000000
40
1.0000000000
40
1.0000000000
10
225.0721201152
20
105.2527387160
30
0.0000000000
10
224.5567443157
20
105.1387691985
30
0.0000000000
10
223.5644908227
20
104.8532769125
30
0.0000000000
10
222.1928187421
20
104.2439358513
30
0.0000000000
10
221.0143029312
20
103.4820718642
30
0.0000000000
10
220.0718867774
20
102.5921920412
30
0.0000000000
10
219.4027928142
20
101.6011947574
30
0.0000000000
10
219.0705208214
20
100.6304037171
30
0.0000000000
10
219.0295682696
20
100.0030302211
30
0.0000000000
10
219.0415928721
20
99.7449625017
30
0.0000000000
11
225.0721201152
21
105.2527387160
31
0.0000000000
11
223.5515877782
21
104.8107061345
31
0.0000000000
11
222.1803405693
21
104.1941181212
31
0.0000000000
11
221.0093585491
21
103.4258354194
31
0.0000000000
11
220.0824458254
21
102.5342340812
31
0.0000000000
11
219.4347251455
21
101.5523004535
31
0.0000000000
11
219.0915605334
21
100.5180688931
31
0.0000000000
11
219.0415928721
21
99.7449625017
31
0.0000000000
0
SPLINE
5
667
100
AcDbEntity
8
0
100
AcDbSpline
62
7
6
CONTINUOUS
70
0
71
3
72
10
73
6
74
4
42
0.0000001000
43
0.0000001000
44
0.0000000001
12
-0.6298157783
22
-0.4842186426
32
0.0000000000
13
-0.4003278913
23
-0.6862020022
33
0.0000000000
40
0.0000000000
40
0.0000000000
40
0.0000000000
40
0.0000000000
40
0.3506830005
40
0.6852604091
40
1.0000000000
40
1.0000000000
40
1.0000000000
40
1.0000000000
10
239.8670915274
20
95.6468624021
30
0.0000000000
10
239.7934696318
20
95.5902599866
30
0.0000000000
10
239.6553086038
20
95.4718788347
30
0.0000000000
10
239.4761143810
20
95.2760112453
30
0.0000000000
10
239.3778934947
20
95.1340188601
30
0.0000000000
10
239.3358938158
20
95.0620272142
30
0.0000000000
11
239.8670915274
21
95.6468624021
31
0.0000000000
11
239.6560857008
21
95.4649484287
31
0.0000000000
11
239.4773740299
21
95.2681928755
31
0.0000000000
11
239.3358938158
21
95.0620272142
31
0.0000000000
0
SPLINE
5
668
100
AcDbEntity
8
0
100
AcDbSpline
62
7
6
CONTINUOUS
70
0
71
3
72
10
73
6
74
4
42
0.0000001000
43
0.0000001000
44
0.0000000001
12
-2.0455139556
22
-0.2180505685
32
0.0000000000
13
-1.6308283971
23
-1.2538230066
33
0.0000000000
40
0.0000000000
40
0.0000000000
40
0.0000000000
40
0.0000000000
40
0.3528933563
40
0.6907591513
40
1.0000000000
40
1.0000000000
40
1.0000000000
40
1.0000000000
10
229.0100555304
20
85.5612788820
30
0.0000000000
10
228.7694394354
20
85.5356293497
30
0.0000000000
10
228.3013108025
20
85.4489968689
30
0.0000000000
10
227.6537799974
20
85.2143429843
30
0.0000000000
10
227.2688882327
20
84.9858305092
30
0.0000000000
10
227.1007819802
20
84.8565860790
30
0.0000000000
11
229.0100555304
21
85.5612788820
31
0.0000000000
11
228.2965659632
21
85.4274182428
31
0.0000000000
11
227.6445484581
21
85.1867262484
31
0.0000000000
11
227.1007819802
21
84.8565860790
31
0.0000000000
0
SPLINE
5
669
100
AcDbEntity
8
0
100
AcDbSpline
62
7
6
CONTINUOUS
70
0
71
3
72
14
73
10
74
8
42
0.0000001000
43
0.0000001000
44
0.0000000001
12
2.7859941715
22
-1.4429780727
32
0.0000000000
13
-2.5018349609
23
-1.9554627329
33
0.0000000000
40
0.0000000000
40
0.0000000000
40
0.0000000000
40
0.0000000000
40
0.1608657653
40
0.3350627866
40
0.5098275002
40
0.6722611571
40
0.8125639239
40
0.9281843899
40
1.0000000000
40
1.0000000000
40
1.0000000000
40
1.0000000000
10
206.8686666430
20
89.5624264961
30
0.0000000000
10
207.0180570045
20
89.4850512387
30
0.0000000000
10
207.3075747561
20
89.2811194603
30
0.0000000000
10
207.6753335546
20
88.8910920948
30
0.0000000000
10
207.9658822317
20
88.4382133503
30
0.0000000000
10
208.1486909740
20
87.9690857871
30
0.0000000000
10
208.2046607773
20
87.5299350235
30
0.0000000000
10
208.1272633397
20
87.1836292855
30
0.0000000000
10
207.9946314886
20
87.0286242749
30
0.0000000000
10
207.9347412205
20
86.9818133585
30
0.0000000000
11
206.8686666430
21
89.5624264961
31
0.0000000000
11
207.2850321591
21
89.2771556563
31
0.0000000000
11
207.6616030652
21
88.8810432014
31
0.0000000000
11
207.9561036519
21
88.4185172636
31
0.0000000000
11
208.1354571066
21
87.9414827616
31
0.0000000000
11
208.1795081419
21
87.5034915157
31
0.0000000000
11
208.0832939962
21
87.1537235085
31
0.0000000000
11
207.9347412205
21
86.9818133585
31
0.0000000000
0
SPLINE
5
66A
100
AcDbEntity
8
0
100
AcDbSpline
62
7
6
CONTINUOUS
70
0
71
3
72
9
73
5
74
3
42
0.0000001000
43
0.0000001000
44
0.0000000001
12
0.6040055889
22
1.6701918610
32
0.0000000000
13
1.4015925069
23
1.0775805315
33
0.0000000000
40
0.0000000000
40
0.0000000000
40
0.0000000000
40
0.0000000000
40
0.4698266817
40
1.0000000000
40
1.0000000000
40
1.0000000000
40
1.0000000000
10
222.7401208632
20
99.1914258287
30
0.0000000000
10
222.8347135104
20
99.4529927286
30
0.0000000000
10
223.1369522154
20
99.9700200547
30
0.0000000000
10
223.5689204185
20
100.3812749180
30
0.0000000000
10
223.8166160686
20
100.5717097334
30
0.0000000000
11
222.7401208632
21
99.1914258287
31
0.0000000000
11
223.1473492407
21
99.9154712867
31
0.0000000000
11
223.8166160686
21
100.5717097334
31
0.0000000000
0
SPLINE
5
66B
100
AcDbEntity
8
0
100
AcDbSpline
62
7
6
CONTINUOUS
70
0
71
3
72
10
73
6
74
4
42
0.0000001000
43
0.0000001000
44
0.0000000001
12
0.1210681147
22
-2.6132063660
32
0.0000000000
13
-2.0616013171
23
-1.5850123571
33
0.0000000000
40
0.0000000000
40
0.0000000000
40
0.0000000000
40
0.0000000000
40
0.2663936813
40
0.6115175591
40
1.0000000000
40
1.0000000000
40
1.0000000000
40
1.0000000000
10
232.5255713042
20
100.3934865687
30
0.0000000000
10
232.5363218977
20
100.1614393474
30
0.0000000000
10
232.4684217558
20
99.6233276613
30
0.0000000000
10
232.0516939542
20
98.8428784513
30
0.0000000000
10
231.5879841029
20
98.3945400650
30
0.0000000000
10
231.3210187990
20
98.1892902419
30
0.0000000000
11
232.5255713042
21
100.3934865687
31
0.0000000000
11
232.4416885153
21
99.7041553676
31
0.0000000000
11
232.0347948041
21
98.9042066601
31
0.0000000000
11
231.3210187990
21
98.1892902419
31
0.0000000000
0
SPLINE
5
66C
100
AcDbEntity
8
0
100
AcDbSpline
62
7
6
CONTINUOUS
70
0
71
3
72
10
73
6
74
4
42
0.0000001000
43
0.0000001000
44
0.0000000001
12
0.5835420222
22
0.4425843847
32
0.0000000000
13
-0.0349700670
23
0.7257306254
33
0.0000000000
40
0.0000000000
40
0.0000000000
40
0.0000000000
40
0.0000000000
40
0.0749736830
40
0.4988663773
40
1.0000000000
40
1.0000000000
40
1.0000000000
40
1.0000000000
10
215.5146082944
20
83.0566433475
30
0.0000000000
10
215.5291917259
20
83.0677040746
30
0.0000000000
10
215.6222809753
20
83.1461565956
30
0.0000000000
10
215.7471129561
20
83.3667501377
30
0.0000000000
10
215.7650881377
20
83.5952698652
30
0.0000000000
10
215.7592465789
20
83.7164992043
30
0.0000000000
11
215.5146082944
21
83.0566433475
31
0.0000000000
11
215.5564761416
21
83.0919986386
31
0.0000000000
11
215.7169970398
21
83.3548487312
31
0.0000000000
11
215.7592465789
21
83.7164992043
31
0.0000000000
0
SPLINE
5
66D
100
AcDbEntity
8
0
100
AcDbSpline
62
7
6
CONTINUOUS
70
0
71
3
72
10
73
6
74
4
42
0.0000001000
43
0.0000001000
44
0.0000000001
12
0.5304927475
22
0.4023494406
32
0.0000000000
13
-0.0317909700
23
0.6597551140
33
0.0000000000
40
0.0000000000
40
0.0000000000
40
0.0000000000
40
0.0000000000
40
0.0749736830
40
0.4988663773
40
1.0000000000
40
1.0000000000
40
1.0000000000
40
1.0000000000
10
211.6337919691
20
85.1381795082
30
0.0000000000
10
211.6470496341
20
85.1482347147
30
0.0000000000
10
211.7316762244
20
85.2195551883
30
0.0000000000
10
211.8451598434
20
85.4200947721
30
0.0000000000
10
211.8615009175
20
85.6278399789
30
0.0000000000
10
211.8561904095
20
85.7380484690
30
0.0000000000
11
211.6337919691
21
85.1381795082
31
0.0000000000
11
211.6718536483
21
85.1703206820
31
0.0000000000
11
211.8177817376
21
85.4092753116
31
0.0000000000
11
211.8561904095
21
85.7380484690
31
0.0000000000
0
SPLINE
5
66E
100
AcDbEntity
8
0
100
AcDbSpline
62
7
6
CONTINUOUS
70
0
71
3
72
12
73
8
74
6
42
0.0000001000
43
0.0000001000
44
0.0000000001
12
1.0209257600
22
0.7820040271
32
0.0000000000
13
0.8732820872
23
-0.9328599417
33
0.0000000000
40
0.0000000000
40
0.0000000000
40
0.0000000000
40
0.0000000000
40
0.1639556495
40
0.3813300488
40
0.6276017979
40
0.9058251065
40
1.0000000000
40
1.0000000000
40
1.0000000000
40
1.0000000000
10
231.1791330254
20
99.7326269416
30
0.0000000000
10
231.2349285407
20
99.7753649343
30
0.0000000000
10
231.3851604363
20
99.8488696520
30
0.0000000000
10
231.6596732364
20
99.8577696595
30
0.0000000000
10
231.9624250618
20
99.7504828944
30
0.0000000000
10
232.1766948972
20
99.5927651919
30
0.0000000000
10
232.2891647572
20
99.4807553906
30
0.0000000000
10
232.3165785063
20
99.4514713954
30
0.0000000000
11
231.1791330254
21
99.7326269416
31
0.0000000000
11
231.3671768062
21
99.8259840664
31
0.0000000000
11
231.6440468275
21
99.8411762914
31
0.0000000000
11
231.9422449933
21
99.7423475678
31
0.0000000000
11
232.2312246716
21
99.5363152406
31
0.0000000000
11
232.3165785063
21
99.4514713954
31
0.0000000000
0
SPLINE
5
66F
100
AcDbEntity
8
0
100
AcDbSpline
62
7
6
CONTINUOUS
70
0
71
3
72
15
73
11
74
9
42
0.0000001000
43
0.0000001000
44
0.0000000001
12
0.1488706199
22
-3.0894984571
32
0.0000000000
13
2.4841891941
23
1.8841202586
33
0.0000000000
40
0.0000000000
40
0.0000000000
40
0.0000000000
40
0.0000000000
40
0.1271288630
40
0.2703885087
40
0.4216206611
40
0.5709808532
40
0.7090031936
40
0.8287563663
40
0.9286525328
40
1.0000000000
40
1.0000000000
40
1.0000000000
40
1.0000000000
10
209.5825654565
20
86.9156499824
30
0.0000000000
10
209.5888740407
20
86.7847285070
30
0.0000000000
10
209.6463105440
20
86.5081917013
30
0.0000000000
10
209.8244104318
20
86.1090900770
30
0.0000000000
10
210.0845684249
20
85.7296006438
30
0.0000000000
10
210.4028871982
20
85.4050400631
30
0.0000000000
10
210.7508049307
20
85.1645914554
30
0.0000000000
10
211.0986631382
20
85.0301057295
30
0.0000000000
10
211.4072065606
20
85.0174431165
30
0.0000000000
10
211.5747117667
20
85.0933704388
30
0.0000000000
10
211.6337919691
20
85.1381795082
30
0.0000000000
11
209.5825654565
21
86.9156499824
31
0.0000000000
11
209.6554359104
21
86.5292409045
31
0.0000000000
11
209.8324524225
21
86.1230203189
31
0.0000000000
11
210.0962873831
21
85.7367519269
31
0.0000000000
11
210.4211147881
21
85.4082463700
31
0.0000000000
11
210.7751382678
21
85.1696600608
31
0.0000000000
11
211.1237035374
21
85.0443474897
31
0.0000000000
11
211.4326905998
21
85.0445751243
31
0.0000000000
11
211.6337919691
21
85.1381795082
31
0.0000000000
0
SPLINE
5
670
100
AcDbEntity
8
0
100
AcDbSpline
62
7
6
CONTINUOUS
70
0
71
3
72
15
73
11
74
9
42
0.0000001000
43
0.0000001000
44
0.0000000001
12
0.1637576819
22
-3.3984483028
32
0.0000000000
13
2.7326081135
23
2.0725322845
33
0.0000000000
40
0.0000000000
40
0.0000000000
40
0.0000000000
40
0.0000000000
40
0.1271288630
40
0.2703885087
40
0.4216206611
40
0.5709808532
40
0.7090031936
40
0.8287563663
40
0.9286525328
40
1.0000000000
40
1.0000000000
40
1.0000000000
40
1.0000000000
10
213.2582591305
20
85.0118608690
30
0.0000000000
10
213.2651985732
20
84.8678472461
30
0.0000000000
10
213.3283787269
20
84.5636567599
30
0.0000000000
10
213.5242886034
20
84.1246449731
30
0.0000000000
10
213.8104623958
20
83.7072065966
30
0.0000000000
10
214.1606130465
20
83.3501899578
30
0.0000000000
10
214.5433225522
20
83.0856964893
30
0.0000000000
10
214.9259665805
20
82.9377621909
30
0.0000000000
10
215.2653643450
20
82.9238333166
30
0.0000000000
10
215.4496200718
20
83.0073533711
30
0.0000000000
10
215.5146082944
20
83.0566433475
30
0.0000000000
11
213.2582591305
21
85.0118608690
31
0.0000000000
11
213.3384166299
21
84.5868108834
31
0.0000000000
11
213.5331347932
21
84.1399682393
31
0.0000000000
11
213.8233532499
21
83.7150730081
31
0.0000000000
11
214.1806633953
21
83.3537168954
31
0.0000000000
11
214.5700892230
21
83.0912719553
31
0.0000000000
11
214.9535110196
21
82.9534281271
31
0.0000000000
11
215.2933967882
21
82.9536785251
31
0.0000000000
11
215.5146082944
21
83.0566433475
31
0.0000000000
0
SPLINE
5
671
100
AcDbEntity
8
0
100
AcDbSpline
62
7
6
CONTINUOUS
70
0
71
3
72
15
73
11
74
9
42
0.0000001000
43
0.0000001000
44
0.0000000001
12
-2.7116302189
22
-2.1194410988
32
0.0000000000
13
-0.1636718144
23
3.3966663035
33
0.0000000000
40
0.0000000000
40
0.0000000000
40
0.0000000000
40
0.0000000000
40
0.0268888151
40
0.1260267671
40
0.2457432651
40
0.3879442596
40
0.5458187597
40
0.7082652714
40
0.8631074828
40
1.0000000000
40
1.0000000000
40
1.0000000000
40
1.0000000000
10
207.9347412205
20
86.9818133585
30
0.0000000000
10
207.9104370461
20
86.9628169386
30
0.0000000000
10
207.7895214650
20
86.8834906320
30
0.0000000000
10
207.5009072474
20
86.8354617834
30
0.0000000000
10
207.0986364045
20
86.9431190247
30
0.0000000000
10
206.6859404802
20
87.1889270001
30
0.0000000000
10
206.3002244487
20
87.5489976500
30
0.0000000000
10
205.9800645855
20
87.9861941305
30
0.0000000000
10
205.7588795100
20
88.4544257000
30
0.0000000000
10
205.6869777693
20
88.7822065137
30
0.0000000000
10
205.6795092871
20
88.9371992471
30
0.0000000000
11
207.9347412205
21
86.9818133585
31
0.0000000000
11
207.8576069370
21
86.9314569550
31
0.0000000000
11
207.5277838408
21
86.8616511084
31
0.0000000000
11
207.1308589226
21
86.9521397162
31
0.0000000000
11
206.7114001404
21
87.1927515036
31
0.0000000000
11
206.3164987298
21
87.5564566043
31
0.0000000000
11
205.9904763479
21
88.0024092160
31
0.0000000000
11
205.7699063063
21
88.4805428011
31
0.0000000000
11
205.6795092871
21
88.9371992471
31
0.0000000000
0
SPLINE
5
672
100
AcDbEntity
8
0
100
AcDbSpline
62
7
6
CONTINUOUS
70
0
71
3
72
10
73
6
74
4
42
0.0000001000
43
0.0000001000
44
0.0000000001
12
-0.5835756724
22
-0.4425609236
32
0.0000000000
13
0.0349700224
23
-0.7257296989
33
0.0000000000
40
0.0000000000
40
0.0000000000
40
0.0000000000
40
0.0000000000
40
0.0749725022
40
0.4988657376
40
1.0000000000
40
1.0000000000
40
1.0000000000
40
1.0000000000
10
205.9241492172
20
89.5970529166
30
0.0000000000
10
205.9095651744
20
89.5859929500
30
0.0000000000
10
205.8164705491
20
89.5075444124
30
0.0000000000
10
205.6916450996
20
89.2869468276
30
0.0000000000
10
205.6736677283
20
89.0584285862
30
0.0000000000
10
205.6795092871
20
88.9371992471
30
0.0000000000
11
205.9241492172
21
89.5970529166
31
0.0000000000
11
205.8822797243
21
89.5616998128
31
0.0000000000
11
205.7217588261
21
89.2988497202
31
0.0000000000
11
205.6795092871
21
88.9371992471
31
0.0000000000
0
SPLINE
5
673
100
AcDbEntity
8
0
100
AcDbSpline
62
7
6
CONTINUOUS
70
0
71
3
72
10
73
6
74
4
42
0.0000001000
43
0.0000001000
44
0.0000000001
12
0.4003278913
22
0.6862020022
32
0.0000000000
13
0.6298157783
23
0.4842186426
33
0.0000000000
40
0.0000000000
40
0.0000000000
40
0.0000000000
40
0.0000000000
40
0.3147395909
40
0.6493169995
40
1.0000000000
40
1.0000000000
40
1.0000000000
40
1.0000000000
10
238.8898111375
20
104.3195405331
30
0.0000000000
10
238.9318108164
20
104.3915321790
30
0.0000000000
10
239.0300317027
20
104.5335245642
30
0.0000000000
10
239.2092259255
20
104.7293921536
30
0.0000000000
10
239.3473869534
20
104.8477733055
30
0.0000000000
10
239.4210088491
20
104.9043757210
30
0.0000000000
11
238.8898111375
21
104.3195405331
31
0.0000000000
11
239.0312913516
21
104.5257061944
31
0.0000000000
11
239.2100030225
21
104.7224617475
31
0.0000000000
11
239.4210088491
21
104.9043757210
31
0.0000000000
0
SPLINE
5
674
100
AcDbEntity
8
0
100
AcDbSpline
62
7
6
CONTINUOUS
70
0
71
3
72
10
73
6
74
4
42
0.0000001000
43
0.0000001000
44
0.0000000001
12
-0.0282163091
22
0.5855705005
32
0.0000000000
13
0.4691984867
23
0.3593945030
33
0.0000000000
40
0.0000000000
40
0.0000000000
40
0.0000000000
40
0.0000000000
40
0.4773782726
40
0.9169025726
40
1.0000000000
40
1.0000000000
40
1.0000000000
40
1.0000000000
10
230.9620269788
20
99.2080990110
30
0.0000000000
10
230.9575370278
20
99.3012785556
30
0.0000000000
10
230.9783593687
20
99.4848661473
30
0.0000000000
10
231.0874009244
20
99.6562636081
30
0.0000000000
10
231.1661366296
20
99.7226720220
30
0.0000000000
10
231.1791330254
20
99.7326269416
30
0.0000000000
11
230.9620269788
21
99.2080990110
31
0.0000000000
11
231.0006762831
21
99.4852803886
31
0.0000000000
11
231.1416483271
21
99.7009682921
31
0.0000000000
11
231.1791330254
21
99.7326269416
31
0.0000000000
0
SPLINE
5
675
100
AcDbEntity
8
0
100
AcDbSpline
62
7
6
CONTINUOUS
70
0
71
3
72
9
73
5
74
3
42
0.0000001000
43
0.0000001000
44
0.0000000001
12
0.2894150007
22
-0.5166788430
32
0.0000000000
13
0.0279194064
23
-0.5956783066
33
0.0000000000
40
0.0000000000
40
0.0000000000
40
0.0000000000
40
0.0000000000
40
0.8717317577
40
1.0000000000
40
1.0000000000
40
1.0000000000
40
1.0000000000
10
227.0330960204
20
107.7652436376
30
0.0000000000
10
227.1171934361
20
107.6151085189
30
0.0000000000
10
227.1835485425
20
107.4222968954
30
0.0000000000
10
227.1992023577
20
107.2240559458
30
0.0000000000
10
227.2003960821
20
107.1985870761
30
0.0000000000
11
227.0330960204
21
107.7652436376
31
0.0000000000
11
227.1943524077
21
107.2748226548
31
0.0000000000
11
227.2003960821
21
107.1985870761
31
0.0000000000
0
SPLINE
5
676
100
AcDbEntity
8
0
100
AcDbSpline
62
7
6
CONTINUOUS
70
0
71
3
72
10
73
6
74
4
42
0.0000001000
43
0.0000001000
44
0.0000000001
12
1.6308283971
22
1.2538230066
32
0.0000000000
13
2.0455139556
23
0.2180505685
33
0.0000000000
40
0.0000000000
40
0.0000000000
40
0.0000000000
40
0.0000000000
40
0.3092408487
40
0.6471066437
40
1.0000000000
40
1.0000000000
40
1.0000000000
40
1.0000000000
10
226.6546993019
20
94.1140993978
30
0.0000000000
10
226.8228055544
20
94.2433438281
30
0.0000000000
10
227.2076973191
20
94.4718563032
30
0.0000000000
10
227.8552281242
20
94.7065101878
30
0.0000000000
10
228.3233567570
20
94.7931426686
30
0.0000000000
10
228.5639728520
20
94.8187922009
30
0.0000000000
11
226.6546993019
21
94.1140993978
31
0.0000000000
11
227.1984657798
21
94.4442395673
31
0.0000000000
11
227.8504832848
21
94.6849315616
31
0.0000000000
11
228.5639728520
21
94.8187922009
31
0.0000000000
0
SPLINE
5
677
100
AcDbEntity
8
0
100
AcDbSpline
62
7
6
CONTINUOUS
70
0
71
3
72
10
73
6
74
4
42
0.0000001000
43
0.0000001000
44
0.0000000001
12
-0.1210681147
22
2.6132063660
32
0.0000000000
13
2.0616013171
23
1.5850123571
33
0.0000000000
40
0.0000000000
40
0.0000000000
40
0.0000000000
40
0.0000000000
40
0.2663936813
40
0.6115175591
40
1.0000000000
40
1.0000000000
40
1.0000000000
40
1.0000000000
10
222.5377164504
20
99.9104322931
30
0.0000000000
10
222.5269658568
20
100.1424795144
30
0.0000000000
10
222.5948659988
20
100.6805912005
30
0.0000000000
10
223.0115938004
20
101.4610404105
30
0.0000000000
10
223.4753036516
20
101.9093787968
30
0.0000000000
10
223.7422689555
20
102.1146286199
30
0.0000000000
11
222.5377164504
21
99.9104322931
31
0.0000000000
11
222.6215992392
21
100.5997634942
31
0.0000000000
11
223.0284929504
21
101.3997122017
31
0.0000000000
11
223.7422689555
21
102.1146286199
31
0.0000000000
0
SPLINE
5
678
100
AcDbEntity
8
0
100
AcDbSpline
62
7
6
CONTINUOUS
70
0
71
3
72
10
73
6
74
4
42
0.0000001000
43
0.0000001000
44
0.0000000001
12
-0.5835420222
22
-0.4425843847
32
0.0000000000
13
0.0349700670
23
-0.7257306254
33
0.0000000000
40
0.0000000000
40
0.0000000000
40
0.0000000000
40
0.0000000000
40
0.0749736830
40
0.4988663773
40
1.0000000000
40
1.0000000000
40
1.0000000000
40
1.0000000000
10
213.5028974150
20
85.6717167259
30
0.0000000000
10
213.4883139835
20
85.6606559987
30
0.0000000000
10
213.3952247341
20
85.5822034778
30
0.0000000000
10
213.2703927533
20
85.3616099356
30
0.0000000000
10
213.2524175717
20
85.1330902082
30
0.0000000000
10
213.2582591305
20
85.0118608690
30
0.0000000000
11
213.5028974150
21
85.6717167259
31
0.0000000000
11
213.4610295678
21
85.6363614347
31
0.0000000000
11
213.3005086696
21
85.3735113422
31
0.0000000000
11
213.2582591305
21
85.0118608690
31
0.0000000000
0
SPLINE
5
679
100
AcDbEntity
8
0
100
AcDbSpline
62
7
6
CONTINUOUS
70
0
71
3
72
10
73
6
74
4
42
0.0000001000
43
0.0000001000
44
0.0000000001
12
-0.5304927475
22
-0.4023494406
32
0.0000000000
13
0.0317909700
23
-0.6597551140
33
0.0000000000
40
0.0000000000
40
0.0000000000
40
0.0000000000
40
0.0000000000
40
0.0749736830
40
0.4988663773
40
1.0000000000
40
1.0000000000
40
1.0000000000
40
1.0000000000
10
209.8049638969
20
87.5155189431
30
0.0000000000
10
209.7917062319
20
87.5054637367
30
0.0000000000
10
209.7070796415
20
87.4341432631
30
0.0000000000
10
209.5935960226
20
87.2336036793
30
0.0000000000
10
209.5772549485
20
87.0258584725
30
0.0000000000
10
209.5825654565
20
86.9156499824
30
0.0000000000
11
209.8049638969
21
87.5155189431
31
0.0000000000
11
209.7669022176
21
87.4833777694
31
0.0000000000
11
209.6209741283
21
87.2444231398
31
0.0000000000
11
209.5825654565
21
86.9156499824
31
0.0000000000
0
SPLINE
5
67A
100
AcDbEntity
8
0
100
AcDbSpline
62
7
6
CONTINUOUS
70
0
71
3
72
13
73
9
74
7
42
0.0000001000
43
0.0000001000
44
0.0000000001
12
8.0353220028
22
0.8565605363
32
0.0000000000
13
4.0720341906
23
6.9798734367
33
0.0000000000
40
0.0000000000
40
0.0000000000
40
0.0000000000
40
0.0000000000
40
0.1883219386
40
0.3715644517
40
0.5462162813
40
0.7098377697
40
0.8610026279
40
1.0000000000
40
1.0000000000
40
1.0000000000
40
1.0000000000
10
228.5639728520
20
94.8187922009
30
0.0000000000
10
229.0683819909
20
94.8725619145
30
0.0000000000
10
230.0585785274
20
95.0356098526
30
0.0000000000
10
231.4750016502
20
95.4467585346
30
0.0000000000
10
232.7665399786
20
96.0101702941
30
0.0000000000
10
233.8910198390
20
96.7086283642
30
0.0000000000
10
234.8125252268
20
97.5209826432
30
0.0000000000
10
235.2899740765
20
98.1490601534
30
0.0000000000
10
235.4786414270
20
98.4724548418
30
0.0000000000
11
228.5639728520
21
94.8187922009
31
0.0000000000
11
230.0652631863
21
95.0678006049
31
0.0000000000
11
231.4863348386
21
95.4839617828
31
0.0000000000
11
232.7777141117
21
96.0533522219
31
0.0000000000
11
233.8969500226
21
96.7572872899
31
0.0000000000
11
234.8068939738
21
97.5722488643
31
0.0000000000
11
235.4786414270
21
98.4724548418
31
0.0000000000
0
SPLINE
5
67B
100
AcDbEntity
8
0
100
AcDbSpline
62
7
6
CONTINUOUS
70
0
71
3
72
17
73
13
74
11
42
0.0000001000
43
0.0000001000
44
0.0000000001
12
8.2175500835
22
6.3178648169
32
0.0000000000
13
0.4825779298
23
-10.4162497441
33
0.0000000000
40
0.0000000000
40
0.0000000000
40
0.0000000000
40
0.0000000000
40
0.1092570952
40
0.2282463846
40
0.3530164935
40
0.4786625244
40
0.6001438508
40
0.7130850722
40
0.8146595672
40
0.9046375637
40
0.9864110972
40
1.0000000000
40
1.0000000000
40
1.0000000000
40
1.0000000000
10
223.7422689555
20
102.1146286199
30
0.0000000000
10
224.0415441727
20
102.3447191391
30
0.0000000000
10
224.7294726952
20
102.7458524466
30
0.0000000000
10
225.8889293150
20
103.1438120131
30
0.0000000000
10
227.1553572244
20
103.3459374676
30
0.0000000000
10
228.4460683206
20
103.3388296421
30
0.0000000000
10
229.6777930747
20
103.1229941628
30
0.0000000000
10
230.7716901028
20
102.7111897738
30
0.0000000000
10
231.6587991265
20
102.1256679745
30
0.0000000000
10
232.2802959790
20
101.3926978036
30
0.0000000000
10
232.4963446902
20
100.7710874147
30
0.0000000000
10
232.5233854026
20
100.4406683705
30
0.0000000000
10
232.5255713042
20
100.3934865687
30
0.0000000000
11
223.7422689555
21
102.1146286199
31
0.0000000000
11
224.7142845993
21
102.6957923763
31
0.0000000000
11
225.8782986220
21
103.1035981214
31
0.0000000000
11
227.1549853915
21
103.3102545675
31
0.0000000000
11
228.4573408144
21
103.3016784194
31
0.0000000000
11
229.6966115208
21
103.0784541274
31
0.0000000000
11
230.7883432601
21
102.6557940581
31
0.0000000000
11
231.6581363184
21
102.0625017967
31
0.0000000000
11
232.2467157361
21
101.3390092304
31
0.0000000000
11
232.5139707987
21
100.5346211820
31
0.0000000000
11
232.5255713042
21
100.3934865687
31
0.0000000000
0
SPLINE
5
67C
100
AcDbEntity
8
0
100
AcDbSpline
62
7
6
CONTINUOUS
70
0
71
3
72
8
73
4
74
2
42
0.0000001000
43
0.0000001000
44
0.0000000001
12
-0.0107057899
22
0.0113190846
32
0.0000000000
13
-0.0106333605
23
0.0113883347
33
0.0000000000
40
0.0000000000
40
0.0000000000
40
0.0000000000
40
0.0000000000
40
1.0000000000
40
1.0000000000
40
1.0000000000
40
1.0000000000
10
231.4308176917
20
98.2773419049
30
0.0000000000
10
231.4272490951
20
98.2811149331
30
0.0000000000
10
231.4236924622
20
98.2848995005
30
0.0000000000
10
231.4201480087
20
98.2886956121
30
0.0000000000
11
231.4308176917
21
98.2773419049
31
0.0000000000
11
231.4201480087
21
98.2886956121
31
0.0000000000
0
SPLINE
5
67D
100
AcDbEntity
8
0
100
AcDbSpline
62
7
6
CONTINUOUS
70
0
71
3
72
10
73
6
74
4
42
0.0000001000
43
0.0000001000
44
0.0000000001
12
-0.7141320853
22
0.7648358366
32
0.0000000000
13
-0.0502962544
23
1.0437936001
33
0.0000000000
40
0.0000000000
40
0.0000000000
40
0.0000000000
40
0.0000000000
40
0.3469266137
40
0.6937622613
40
1.0000000000
40
1.0000000000
40
1.0000000000
40
1.0000000000
10
231.4201480087
20
98.2886956121
30
0.0000000000
10
231.3375642000
20
98.3771429143
30
0.0000000000
10
231.1856399586
20
98.5665464854
30
0.0000000000
10
231.0204799366
20
98.8760371913
30
0.0000000000
10
230.9671611825
20
99.1015493470
30
0.0000000000
10
230.9620269788
20
99.2080990110
30
0.0000000000
11
231.4201480087
21
98.2886956121
31
0.0000000000
11
231.1949580994
21
98.5729003297
31
0.0000000000
11
231.0291585062
21
98.8951995440
31
0.0000000000
11
230.9620269788
21
99.2080990110
31
0.0000000000
0
ENDSEC
0
SECTION
2
OBJECTS
0
DICTIONARY
5
67E
100
AcDbDictionary
3
ACAD_GROUP
350
67F
3
ACAD_MLINESTYLE
350
680
0
DICTIONARY
5
67F
102
{ACAD_REACTORS
330
67E
102
}
100
AcDbDictionary
0
DICTIONARY
5
680
102
{ACAD_REACTORS
330
67E
102
}
100
AcDbDictionary
3
STANDARD
350
681
0
MLINESTYLE
5
681
102
{ACAD_REACTORS
330
680
102
}
100
AcDbMlineStyle
2
STANDARD
70
0
3

62
256
51
90.0
52
90.0
71
2
49
0.5
62
256
6
BYLAYER
49
-0.5
62
256
6
BYLAYER
0
ENDSEC
0
EOF
