999
DXF file: 100063-a_palier-arriere.dxf
999
Pro/ENGINEER 2004090 by Parametric Technology Corporation
0
SECTION
2
HEADER
9
$ACADVER
1
AC1014
9
$HANDSEED
5
       8D8
9
$EXTMAX
10
594.0000000000
20
420.0000000000
9
$EXTMIN
10
0.0000000000
20
0.0000000000
9
$LIMMIN
10
0.0000000000
20
0.0000000000
9
$LIMMAX
10
594.0000000000
20
420.0000000000
9
$VIEWCTR
10
297.0000000000
20
210.0000000000
9
$VIEWSIZE
40
420.0000000000
9
$CLAYER
8
0
9
$LTSCALE
40
32.6700000000
9
$CELTYPE
6
BYLAYER
9
$DIMSCALE
40
1
9
$DIMASZ
40
4.5000000000
9
$DIMEXO
40
3.7125000000
9
$DIMDLI
40
22.5720000000
9
$DIMEXE
40
10.6920000000
9
$DIMCEN
40
5.3460000000
9
$DIMLFAC
40
1.0000000000
9
$DIMTXT
40
3.5000000000
9
$DIMTOL
70
1
9
$DIMLIM
70
0
9
$DIMTFAC
40
1.0000000000
9
$DIMTP
40
0.0500000000
9
$DIMTM
40
0.0500000000
9
$MEASUREMENT
70
1
0
ENDSEC
0
SECTION
2
CLASSES
0
ENDSEC
0
SECTION
2
TABLES
0
TABLE
2
VPORT
5
8
100
AcDbSymbolTable
70
2
0
VPORT
5
1F4
100
AcDbSymbolTableRecord
100
AcDbViewportTableRecord
2
*ACTIVE
70
0
10
0.0
20
0.0
11
1.0
21
1.0
12
297.0000000000
22
210.0000000000
13
0.0
23
0.0
14
1.0
24
1.0
15
0.0
25
0.0
16
0.0
26
0.0
36
1.0
17
0.0
27
0.0
37
0.0
40
420.0000000000
41
1.4142857143
42
50.0
43
0.0
44
0.0
50
0.0
51
0.0
71
0
72
100
73
1
74
1
75
0
76
0
77
0
78
0
0
ENDTAB
0
TABLE
2
LTYPE
5
5
100
AcDbSymbolTable
70
6
0
LTYPE
5
14
100
AcDbSymbolTableRecord
100
AcDbLinetypeTableRecord
2
BYBLOCK
70
0
3

72
65
73
0
40
0.0
0
LTYPE
5
15
100
AcDbSymbolTableRecord
100
AcDbLinetypeTableRecord
2
BYLAYER
70
0
3

72
65
73
0
40
0.0
0
LTYPE
5
16
100
AcDbSymbolTableRecord
100
AcDbLinetypeTableRecord
2
CONTINUOUS
70
64
3
Solid line
72
65
73
0
40
0
0
LTYPE
5
1F5
100
AcDbSymbolTableRecord
100
AcDbLinetypeTableRecord
2
CENTER
70
64
3
____ _ ____ _ ____ _ ____ _ ____ _ ____ _ ____
72
65
73
4
40
0.6
49
0.375
74
0
49
-0.075
74
0
49
0.075
74
0
49
-0.075
74
0
0
LTYPE
5
1F6
100
AcDbSymbolTableRecord
100
AcDbLinetypeTableRecord
2
HIDDEN
70
64
3
- - - - - - - - - - - - - - - - - - - -
72
65
73
2
40
0.2
49
0.1
74
0
49
-0.1
74
0
0
LTYPE
5
1F7
100
AcDbSymbolTableRecord
100
AcDbLinetypeTableRecord
2
PHANTOM
70
64
3
_____ _ _ _____ _ _ _____ _ _ _____
72
65
73
6
40
0.8
49
0.45
74
0
49
-0.05
74
0
49
0.1
74
0
49
-0.05
74
0
49
0.1
74
0
49
-0.05
74
0
0
LTYPE
5
1F8
100
AcDbSymbolTableRecord
100
AcDbLinetypeTableRecord
2
DOT
70
64
3
. . . . . . . . . . . . . . . . . . . .
72
65
73
2
40
0.2
49
0.1
74
0
49
-0.1
74
0
0
LTYPE
5
1F9
100
AcDbSymbolTableRecord
100
AcDbLinetypeTableRecord
2
DASHED
70
64
3
- - - - - - - - - - - - - - - - - - - -
72
65
73
2
40
0.2
49
0.1
74
0
49
-0.1
74
0
0
ENDTAB
0
TABLE
2
LAYER
5
2
100
AcDbSymbolTable
70
36
0
LAYER
5
10
100
AcDbSymbolTableRecord
100
AcDbLayerTableRecord
2
0
70
0
62
7
6
CONTINUOUS
0
LAYER
5
1FA
100
AcDbSymbolTableRecord
100
AcDbLayerTableRecord
2
DEFAULT_1
70
0
62
7
6
CENTER
0
LAYER
5
1FB
100
AcDbSymbolTableRecord
100
AcDbLayerTableRecord
2
DEFAULT_2
70
0
62
8
6
HIDDEN
0
LAYER
5
1FC
100
AcDbSymbolTableRecord
100
AcDbLayerTableRecord
2
DEFAULT_3
70
0
62
7
6
PHANTOM
0
LAYER
5
1FD
100
AcDbSymbolTableRecord
100
AcDbLayerTableRecord
2
POUB
70
0
62
7
6
CONTINUOUS
0
LAYER
5
1FE
100
AcDbSymbolTableRecord
100
AcDbLayerTableRecord
2
REF
70
0
62
7
6
CONTINUOUS
0
ENDTAB
0
TABLE
2
STYLE
5
3
100
AcDbSymbolTable
70
1
0
STYLE
5
11
100
AcDbSymbolTableRecord
100
AcDbTextStyleTableRecord
2
STANDARD
70
0
40
0.0
41
0.8000000000
50
0.0
71
0
42
0.2
3
txt
4

0
STYLE
5
1FF
100
AcDbSymbolTableRecord
100
AcDbTextStyleTableRecord
2
TEXTSTYLE_1
70
0
40
0.0
41
0.8000000000
50
0.0
71
0
42
0.2
3
txt
4

0
ENDTAB
0
TABLE
2
VIEW
5
6
100
AcDbSymbolTable
70
0
0
ENDTAB
0
TABLE
2
UCS
5
7
100
AcDbSymbolTable
70
0
0
ENDTAB
0
TABLE
2
APPID
5
9
100
AcDbSymbolTable
70
1
0
APPID
5
200
100
AcDbSymbolTableRecord
100
AcDbRegAppTableRecord
2
ACAD
70
0
0
ENDTAB
0
TABLE
2
DIMSTYLE
5
A
100
AcDbSymbolTable
70
1
0
DIMSTYLE
105
201
100
AcDbSymbolTableRecord
100
AcDbDimStyleTableRecord
2
STANDARD
70
0
3

4

5

6

7

40
1.0
41
4.5000000000
42
0.0625
43
0.38
44
0.18
45
0.0
46
0.0
47
0.0500000000
48
0.0500000000
140
3.5000000000
141
0.09
142
0.0
143
25.4
144
1.0000000000
145
0.0
146
1.0000000000
147
0.09
71
1
72
0
73
0
74
0
75
0
76
0
77
1
78
8
170
0
171
2
172
0
173
0
174
0
175
0
176
0
177
0
178
0
270
2
271
2
272
2
273
2
274
2
340
11
275
0
280
0
281
0
282
0
283
1
284
8
285
0
286
0
287
3
288
0
0
DIMSTYLE
105
202
100
AcDbSymbolTableRecord
100
AcDbDimStyleTableRecord
2
DIMSTYLE_1
70
0
3

4

5

6

7

40
1.0
41
4.5000000000
42
0.0625
43
0.38
44
0.18
45
0.0
46
0.0
47
0.0500000000
48
0.0500000000
140
3.5000000000
141
0.09
142
0.0
143
25.4
144
1.0000000000
145
0.0
146
1.0000000000
147
0.09
71
0
72
0
73
0
74
0
75
0
76
0
77
1
78
8
170
0
171
2
172
0
173
0
174
0
175
0
176
0
177
0
178
0
270
2
271
2
272
2
273
2
274
2
340
1FF
275
0
280
0
281
0
282
0
283
1
284
8
285
0
286
0
287
3
288
0
0
DIMSTYLE
105
203
100
AcDbSymbolTableRecord
100
AcDbDimStyleTableRecord
2
DIMSTYLE_2
70
0
3

4

5

6

7

40
1.0
41
4.5000000000
42
0.0625
43
0.38
44
0.18
45
0.0
46
0.0
47
0.0200000000
48
0.0200000000
140
3.5000000000
141
0.09
142
0.0
143
25.4
144
1.0000000000
145
0.0
146
1.0000000000
147
0.09
71
1
72
0
73
0
74
0
75
0
76
0
77
1
78
8
170
0
171
2
172
0
173
0
174
0
175
0
176
0
177
0
178
0
270
2
271
2
272
2
273
2
274
2
340
1FF
275
0
280
0
281
0
282
0
283
1
284
8
285
0
286
0
287
3
288
0
0
DIMSTYLE
105
204
100
AcDbSymbolTableRecord
100
AcDbDimStyleTableRecord
2
DIMSTYLE_3
70
0
3

4

5

6

7

40
1.0
41
4.5000000000
42
0.0625
43
0.38
44
0.18
45
0.0
46
0.0
47
0.1000000000
48
0.1000000000
140
3.5000000000
141
0.09
142
0.0
143
25.4
144
1.0000000000
145
0.0
146
1.0000000000
147
0.09
71
1
72
0
73
0
74
0
75
0
76
0
77
1
78
8
170
0
171
2
172
0
173
0
174
0
175
0
176
0
177
0
178
0
270
2
271
2
272
2
273
2
274
2
340
1FF
275
0
280
0
281
0
282
0
283
1
284
8
285
0
286
0
287
3
288
0
0
DIMSTYLE
105
205
100
AcDbSymbolTableRecord
100
AcDbDimStyleTableRecord
2
DIMSTYLE_4
70
0
3

4

5

6

7

40
1.0
41
4.5000000000
42
0.0625
43
0.38
44
0.18
45
0.0
46
0.0
47
0.0500000000
48
0.0500000000
140
3.5000000000
141
0.09
142
0.0
143
25.4
144
1.0000000000
145
0.0
146
1.0000000000
147
0.09
71
0
72
0
73
1
74
1
75
0
76
0
77
1
78
8
170
0
171
2
172
0
173
0
174
0
175
0
176
0
177
0
178
0
270
2
271
2
272
2
273
2
274
2
340
1FF
275
0
280
0
281
0
282
0
283
1
284
8
285
0
286
0
287
3
288
0
0
DIMSTYLE
105
206
100
AcDbSymbolTableRecord
100
AcDbDimStyleTableRecord
2
DIMSTYLE_5
70
0
3

4

5

6

7

40
1.0
41
4.5000000000
42
0.0625
43
0.38
44
0.18
45
0.0
46
0.0
47
0.2000000000
48
0.2000000000
140
3.5000000000
141
0.09
142
0.0
143
25.4
144
1.0000000000
145
0.0
146
1.0000000000
147
0.09
71
0
72
0
73
0
74
0
75
0
76
0
77
1
78
8
170
0
171
2
172
0
173
0
174
0
175
0
176
0
177
0
178
0
270
2
271
1
272
1
273
2
274
2
340
1FF
275
0
280
0
281
0
282
0
283
1
284
8
285
0
286
0
287
3
288
0
0
DIMSTYLE
105
207
100
AcDbSymbolTableRecord
100
AcDbDimStyleTableRecord
2
DIMSTYLE_6
70
0
3

4

5

6

7

40
1.0
41
4.5000000000
42
0.0625
43
0.38
44
0.18
45
0.0
46
0.0
47
0.1000000000
48
0.1000000000
140
3.5000000000
141
0.09
142
0.0
143
25.4
144
1.0000000000
145
0.0
146
1.0000000000
147
0.09
71
0
72
0
73
1
74
1
75
0
76
0
77
0
78
8
170
0
171
2
172
0
173
0
174
0
175
0
176
0
177
0
178
0
270
2
271
1
272
1
273
2
274
2
340
1FF
275
0
280
0
281
0
282
0
283
1
284
8
285
0
286
0
287
3
288
0
0
DIMSTYLE
105
208
100
AcDbSymbolTableRecord
100
AcDbDimStyleTableRecord
2
DIMSTYLE_7
70
0
3

4

5

6

7

40
1.0
41
4.5000000000
42
0.0625
43
0.38
44
0.18
45
0.0
46
0.0
47
0.0500000000
48
0.0500000000
140
3.5000000000
141
0.09
142
0.0
143
25.4
144
1.0000000000
145
0.0
146
1.0000000000
147
0.09
71
0
72
0
73
0
74
0
75
0
76
0
77
1
78
8
170
0
171
2
172
0
173
0
174
0
175
0
176
0
177
0
178
0
270
2
271
2
272
2
273
2
274
2
340
1FF
275
0
280
0
281
0
282
0
283
1
284
8
285
0
286
0
287
3
288
0
0
ENDTAB
0
TABLE
2
BLOCK_RECORD
5
1
100
AcDbSymbolTable
70
0
0
BLOCK_RECORD
5
1B
100
AcDbSymbolTableRecord
100
AcDbBlockTableRecord
2
*MODEL_SPACE
0
BLOCK_RECORD
5
1C
100
AcDbSymbolTableRecord
100
AcDbBlockTableRecord
2
*PAPER_SPACE
0
BLOCK_RECORD
5
209
100
AcDbSymbolTableRecord
100
AcDbBlockTableRecord
2
N-CART_BL0
0
BLOCK_RECORD
5
20A
100
AcDbSymbolTableRecord
100
AcDbBlockTableRecord
2
N-DES_BL1
0
BLOCK_RECORD
5
20B
100
AcDbSymbolTableRecord
100
AcDbBlockTableRecord
2
*D0
0
BLOCK_RECORD
5
20C
100
AcDbSymbolTableRecord
100
AcDbBlockTableRecord
2
*D1
0
BLOCK_RECORD
5
20D
100
AcDbSymbolTableRecord
100
AcDbBlockTableRecord
2
*D2
0
BLOCK_RECORD
5
20E
100
AcDbSymbolTableRecord
100
AcDbBlockTableRecord
2
*D3
0
BLOCK_RECORD
5
20F
100
AcDbSymbolTableRecord
100
AcDbBlockTableRecord
2
*D4
0
BLOCK_RECORD
5
210
100
AcDbSymbolTableRecord
100
AcDbBlockTableRecord
2
*D5
0
BLOCK_RECORD
5
211
100
AcDbSymbolTableRecord
100
AcDbBlockTableRecord
2
*D6
0
BLOCK_RECORD
5
212
100
AcDbSymbolTableRecord
100
AcDbBlockTableRecord
2
*D7
0
BLOCK_RECORD
5
213
100
AcDbSymbolTableRecord
100
AcDbBlockTableRecord
2
*D8
0
BLOCK_RECORD
5
214
100
AcDbSymbolTableRecord
100
AcDbBlockTableRecord
2
*D9
0
BLOCK_RECORD
5
215
100
AcDbSymbolTableRecord
100
AcDbBlockTableRecord
2
*D10
0
BLOCK_RECORD
5
216
100
AcDbSymbolTableRecord
100
AcDbBlockTableRecord
2
*D11
0
BLOCK_RECORD
5
217
100
AcDbSymbolTableRecord
100
AcDbBlockTableRecord
2
*D12
0
BLOCK_RECORD
5
218
100
AcDbSymbolTableRecord
100
AcDbBlockTableRecord
2
*D13
0
BLOCK_RECORD
5
219
100
AcDbSymbolTableRecord
100
AcDbBlockTableRecord
2
*D14
0
BLOCK_RECORD
5
21A
100
AcDbSymbolTableRecord
100
AcDbBlockTableRecord
2
*D15
0
BLOCK_RECORD
5
21B
100
AcDbSymbolTableRecord
100
AcDbBlockTableRecord
2
*D16
0
BLOCK_RECORD
5
21C
100
AcDbSymbolTableRecord
100
AcDbBlockTableRecord
2
*D17
0
BLOCK_RECORD
5
21D
100
AcDbSymbolTableRecord
100
AcDbBlockTableRecord
2
*D18
0
BLOCK_RECORD
5
21E
100
AcDbSymbolTableRecord
100
AcDbBlockTableRecord
2
*D19
0
BLOCK_RECORD
5
21F
100
AcDbSymbolTableRecord
100
AcDbBlockTableRecord
2
*D20
0
BLOCK_RECORD
5
220
100
AcDbSymbolTableRecord
100
AcDbBlockTableRecord
2
*D21
0
BLOCK_RECORD
5
221
100
AcDbSymbolTableRecord
100
AcDbBlockTableRecord
2
*D22
0
BLOCK_RECORD
5
222
100
AcDbSymbolTableRecord
100
AcDbBlockTableRecord
2
*D23
0
BLOCK_RECORD
5
223
100
AcDbSymbolTableRecord
100
AcDbBlockTableRecord
2
*D24
0
BLOCK_RECORD
5
224
100
AcDbSymbolTableRecord
100
AcDbBlockTableRecord
2
*D25
0
BLOCK_RECORD
5
225
100
AcDbSymbolTableRecord
100
AcDbBlockTableRecord
2
*D26
0
BLOCK_RECORD
5
226
100
AcDbSymbolTableRecord
100
AcDbBlockTableRecord
2
*D27
0
BLOCK_RECORD
5
227
100
AcDbSymbolTableRecord
100
AcDbBlockTableRecord
2
*D28
0
BLOCK_RECORD
5
228
100
AcDbSymbolTableRecord
100
AcDbBlockTableRecord
2
*D29
0
BLOCK_RECORD
5
229
100
AcDbSymbolTableRecord
100
AcDbBlockTableRecord
2
*D30
0
BLOCK_RECORD
5
22A
100
AcDbSymbolTableRecord
100
AcDbBlockTableRecord
2
*D31
0
BLOCK_RECORD
5
22B
100
AcDbSymbolTableRecord
100
AcDbBlockTableRecord
2
*D32
0
BLOCK_RECORD
5
22C
100
AcDbSymbolTableRecord
100
AcDbBlockTableRecord
2
*D33
0
BLOCK_RECORD
5
22D
100
AcDbSymbolTableRecord
100
AcDbBlockTableRecord
2
*D34
0
BLOCK_RECORD
5
22E
100
AcDbSymbolTableRecord
100
AcDbBlockTableRecord
2
*D35
0
BLOCK_RECORD
5
22F
100
AcDbSymbolTableRecord
100
AcDbBlockTableRecord
2
*D36
0
BLOCK_RECORD
5
230
100
AcDbSymbolTableRecord
100
AcDbBlockTableRecord
2
*D37
0
BLOCK_RECORD
5
231
100
AcDbSymbolTableRecord
100
AcDbBlockTableRecord
2
*D38
0
BLOCK_RECORD
5
232
100
AcDbSymbolTableRecord
100
AcDbBlockTableRecord
2
*D39
0
BLOCK_RECORD
5
233
100
AcDbSymbolTableRecord
100
AcDbBlockTableRecord
2
*D40
0
BLOCK_RECORD
5
234
100
AcDbSymbolTableRecord
100
AcDbBlockTableRecord
2
*D41
0
BLOCK_RECORD
5
235
100
AcDbSymbolTableRecord
100
AcDbBlockTableRecord
2
*D42
0
BLOCK_RECORD
5
236
100
AcDbSymbolTableRecord
100
AcDbBlockTableRecord
2
*D43
0
BLOCK_RECORD
5
237
100
AcDbSymbolTableRecord
100
AcDbBlockTableRecord
2
*D44
0
BLOCK_RECORD
5
238
100
AcDbSymbolTableRecord
100
AcDbBlockTableRecord
2
*D45
0
BLOCK_RECORD
5
239
100
AcDbSymbolTableRecord
100
AcDbBlockTableRecord
2
*D46
0
BLOCK_RECORD
5
23A
100
AcDbSymbolTableRecord
100
AcDbBlockTableRecord
2
*D47
0
BLOCK_RECORD
5
23B
100
AcDbSymbolTableRecord
100
AcDbBlockTableRecord
2
*D48
0
BLOCK_RECORD
5
23C
100
AcDbSymbolTableRecord
100
AcDbBlockTableRecord
2
*D49
0
BLOCK_RECORD
5
23D
100
AcDbSymbolTableRecord
100
AcDbBlockTableRecord
2
*D50
0
BLOCK_RECORD
5
23E
100
AcDbSymbolTableRecord
100
AcDbBlockTableRecord
2
*D51
0
BLOCK_RECORD
5
23F
100
AcDbSymbolTableRecord
100
AcDbBlockTableRecord
2
*D52
0
BLOCK_RECORD
5
240
100
AcDbSymbolTableRecord
100
AcDbBlockTableRecord
2
*D53
0
BLOCK_RECORD
5
241
100
AcDbSymbolTableRecord
100
AcDbBlockTableRecord
2
*D54
0
BLOCK_RECORD
5
242
100
AcDbSymbolTableRecord
100
AcDbBlockTableRecord
2
*D55
0
BLOCK_RECORD
5
243
100
AcDbSymbolTableRecord
100
AcDbBlockTableRecord
2
*D56
0
BLOCK_RECORD
5
244
100
AcDbSymbolTableRecord
100
AcDbBlockTableRecord
2
*D57
0
BLOCK_RECORD
5
245
100
AcDbSymbolTableRecord
100
AcDbBlockTableRecord
2
*D58
0
BLOCK_RECORD
5
246
100
AcDbSymbolTableRecord
100
AcDbBlockTableRecord
2
*D59
0
BLOCK_RECORD
5
247
100
AcDbSymbolTableRecord
100
AcDbBlockTableRecord
2
*D60
0
BLOCK_RECORD
5
248
100
AcDbSymbolTableRecord
100
AcDbBlockTableRecord
2
*D61
0
BLOCK_RECORD
5
249
100
AcDbSymbolTableRecord
100
AcDbBlockTableRecord
2
*D62
0
BLOCK_RECORD
5
24A
100
AcDbSymbolTableRecord
100
AcDbBlockTableRecord
2
*D63
0
BLOCK_RECORD
5
24B
100
AcDbSymbolTableRecord
100
AcDbBlockTableRecord
2
*D64
0
BLOCK_RECORD
5
24C
100
AcDbSymbolTableRecord
100
AcDbBlockTableRecord
2
*D65
0
BLOCK_RECORD
5
24D
100
AcDbSymbolTableRecord
100
AcDbBlockTableRecord
2
*D66
0
BLOCK_RECORD
5
24E
100
AcDbSymbolTableRecord
100
AcDbBlockTableRecord
2
N-CAR_BL2
0
BLOCK_RECORD
5
24F
100
AcDbSymbolTableRecord
100
AcDbBlockTableRecord
2
RUGOSITE_BL3
0
ENDTAB
0
ENDSEC
0
SECTION
2
BLOCKS
0
BLOCK
5
1E
100
AcDbEntity
8
0
100
AcDbBlockBegin
2
*MODEL_SPACE
70
0
10
0.0
20
0.0
30
0.0
3
*MODEL_SPACE
1

0
ENDBLK
5
1F
100
AcDbEntity
8
0
100
AcDbBlockEnd
0
BLOCK
5
20
100
AcDbEntity
8
0
100
AcDbBlockBegin
2
*PAPER_SPACE
70
0
10
0.0
20
0.0
30
0.0
3
*PAPER_SPACE
1

0
ENDBLK
5
21
100
AcDbEntity
8
0
100
AcDbBlockEnd
0
BLOCK
5
250
100
AcDbEntity
8
0
100
AcDbBlockBegin
62
2
6
CONTINUOUS
2
N-CART_BL0
70
64
10
0.0000000000
20
0.0000000000
3
N-CART_BL0
1

0
LINE
5
251
100
AcDbEntity
8
0
100
AcDbLine
62
7
6
CONTINUOUS
10
598.9991779966
20
56.4997987395
11
432.9992051966
21
56.4997987395
0
LINE
5
252
100
AcDbEntity
8
0
100
AcDbLine
62
7
6
CONTINUOUS
10
598.9991779966
20
14.9998055395
11
432.9992051966
21
14.9998055395
0
LINE
5
253
100
AcDbEntity
8
0
100
AcDbLine
62
7
6
CONTINUOUS
10
598.9991779966
20
56.4997987395
11
598.9991779966
21
14.9998055395
0
LINE
5
254
100
AcDbEntity
8
0
100
AcDbLine
62
7
6
CONTINUOUS
10
432.9992051966
20
56.4997987395
11
432.9992051966
21
14.9998055395
0
LINE
5
255
100
AcDbEntity
8
0
100
AcDbLine
62
7
6
CONTINUOUS
10
598.9991779966
20
51.9997994768
11
432.9992051966
21
51.9997994768
0
LINE
5
256
100
AcDbEntity
8
0
100
AcDbLine
62
7
6
CONTINUOUS
10
552.9991855340
20
24.4998039828
11
552.9991855340
21
14.9998055395
0
LINE
5
257
100
AcDbEntity
8
0
100
AcDbLine
62
7
6
CONTINUOUS
10
598.9991779966
20
24.4998039828
11
552.9991855340
21
24.4998039828
0
ENDBLK
5
258
100
AcDbEntity
8
0
100
AcDbBlockEnd
0
BLOCK
5
259
100
AcDbEntity
8
0
100
AcDbBlockBegin
62
2
6
CONTINUOUS
2
N-DES_BL1
70
64
10
0.0000000000
20
0.0000000000
3
N-DES_BL1
1

0
LINE
5
25A
100
AcDbEntity
8
0
100
AcDbLine
62
7
6
CONTINUOUS
10
568.9734579826
20
47.9438991231
11
568.9734579826
21
46.2547085481
0
LINE
5
25B
100
AcDbEntity
8
0
100
AcDbLine
62
7
6
CONTINUOUS
10
574.3788678227
20
45.4101132606
11
568.9734579826
21
46.2547085481
0
LINE
5
25C
100
AcDbEntity
8
DEFAULT_1
100
AcDbLine
62
2
6
CENTER
10
568.1626465065
20
47.0993038356
11
575.1896792988
21
47.0993038356
0
LINE
5
25D
100
AcDbEntity
8
0
100
AcDbLine
62
7
6
CONTINUOUS
10
574.3788678227
20
48.7884944107
11
568.9734579826
21
47.9438991231
0
LINE
5
25E
100
AcDbEntity
8
0
100
AcDbLine
62
7
6
CONTINUOUS
10
574.3788678227
20
48.7884944107
11
574.3788678227
21
45.4101132606
0
LINE
5
25F
100
AcDbEntity
8
0
100
AcDbLine
62
2
6
CONTINUOUS
10
578.7756151843
20
47.1996417558
11
578.7756151843
21
46.9989659154
0
LINE
5
260
100
AcDbEntity
8
DEFAULT_1
100
AcDbLine
62
2
6
CENTER
10
578.7756151843
20
44.5015258867
11
578.7756151843
21
49.5993058867
0
LINE
5
261
100
AcDbEntity
8
0
100
AcDbLine
62
2
6
CONTINUOUS
10
578.8759531045
20
47.0993038356
11
578.6752772642
21
47.0993038356
0
LINE
5
262
100
AcDbEntity
8
DEFAULT_1
100
AcDbLine
62
2
6
CENTER
10
578.2739255836
20
47.0993038356
11
576.2756131333
21
47.0993038356
0
LINE
5
263
100
AcDbEntity
8
DEFAULT_1
100
AcDbLine
62
2
6
CENTER
10
579.2773047851
20
47.0993038356
11
581.2756172354
21
47.0993038356
0
CIRCLE
5
264
100
AcDbEntity
8
0
100
AcDbCircle
62
7
6
CONTINUOUS
10
578.7756151843
20
47.0993038356
40
1.6891905751
0
CIRCLE
5
265
100
AcDbEntity
8
0
100
AcDbCircle
62
7
6
CONTINUOUS
10
578.7756151843
20
47.0993038356
40
0.8445952875
0
ENDBLK
5
266
100
AcDbEntity
8
0
100
AcDbBlockEnd
0
BLOCK
5
267
100
AcDbEntity
8
0
100
AcDbBlockBegin
62
2
6
CONTINUOUS
2
*D0
70
65
10
0.0000000000
20
0.0000000000
3
*D0
1

0
TEXT
5
268
100
AcDbEntity
8
0
100
AcDbText
62
2
6
CONTINUOUS
10
302.9662314819
20
153.5048752732
7
TEXTSTYLE_1
40
3.5000000000
1
65
41
0.7333333333
72
0
100
AcDbText
0
LINE
5
269
100
AcDbEntity
8
0
100
AcDbLine
62
2
6
CONTINUOUS
10
336.4740776838
20
189.7491466347
11
336.4740776838
21
149.4298752732
0
LINE
5
26A
100
AcDbEntity
8
0
100
AcDbLine
62
2
6
CONTINUOUS
10
271.4740776838
20
189.7491466347
11
271.4740776838
21
149.4298752732
0
LINE
5
26B
100
AcDbEntity
8
0
100
AcDbLine
62
2
6
CONTINUOUS
10
336.4740776838
20
152.6298752732
11
303.9740776838
21
152.6298752732
0
LINE
5
26C
100
AcDbEntity
8
0
100
AcDbLine
62
2
6
CONTINUOUS
10
271.4740776838
20
152.6298752732
11
303.9740776838
21
152.6298752732
0
SOLID
5
26D
100
AcDbEntity
8
0
100
AcDbTrace
62
2
6
CONTINUOUS
10
331.9740776838
20
151.8298752732
11
336.4740776838
21
152.6298752732
12
331.9740776838
22
153.4298752732
13
331.9740776838
23
153.4298752732
0
SOLID
5
26E
100
AcDbEntity
8
0
100
AcDbTrace
62
2
6
CONTINUOUS
10
275.9740776838
20
153.4298752732
11
271.4740776838
21
152.6298752732
12
275.9740776838
22
151.8298752732
13
275.9740776838
23
151.8298752732
0
ENDBLK
5
26F
100
AcDbEntity
8
0
100
AcDbBlockEnd
0
BLOCK
5
270
100
AcDbEntity
8
0
100
AcDbBlockBegin
62
2
6
CONTINUOUS
2
*D1
70
65
10
0.0000000000
20
0.0000000000
3
*D1
1

0
TEXT
5
271
100
AcDbEntity
8
0
100
AcDbText
62
2
6
CONTINUOUS
10
344.4389107226
20
290.1930839948
7
TEXTSTYLE_1
40
3.5000000000
1
2,5
41
0.5944444444
72
0
100
AcDbText
0
LINE
5
272
100
AcDbEntity
8
0
100
AcDbLine
62
2
6
CONTINUOUS
10
336.4740776838
20
202.5450143710
11
336.4740776838
21
226.0043365686
0
LINE
5
273
100
AcDbEntity
8
0
100
AcDbLine
62
2
6
CONTINUOUS
10
336.4740776838
20
232.7140993975
11
336.4740776838
21
292.5180839948
0
LINE
5
274
100
AcDbEntity
8
0
100
AcDbLine
62
2
6
CONTINUOUS
10
333.9740776838
20
232.4717993307
11
333.9740776838
21
275.1167261637
0
LINE
5
275
100
AcDbEntity
8
0
100
AcDbLine
62
2
6
CONTINUOUS
10
333.9740776838
20
281.8444014722
11
333.9740776838
21
292.5180839948
0
LINE
5
276
100
AcDbEntity
8
0
100
AcDbLine
62
2
6
CONTINUOUS
10
336.4740776838
20
289.3180839948
11
350.6805773893
21
289.3180839948
0
LINE
5
277
100
AcDbEntity
8
0
100
AcDbLine
62
2
6
CONTINUOUS
10
350.6805773893
20
289.3180839948
11
335.2240776838
21
289.3180839948
0
LINE
5
278
100
AcDbEntity
8
0
100
AcDbLine
62
2
6
CONTINUOUS
10
333.9740776838
20
289.3180839948
11
331.9740776838
21
289.3180839948
0
LINE
5
279
100
AcDbEntity
8
0
100
AcDbLine
62
2
6
CONTINUOUS
10
331.9740776838
20
289.3180839948
11
335.2240776838
21
289.3180839948
0
SOLID
5
27A
100
AcDbEntity
8
0
100
AcDbTrace
62
2
6
CONTINUOUS
10
340.9740776838
20
290.1180839948
11
336.4740776838
21
289.3180839948
12
340.9740776838
22
288.5180839948
13
340.9740776838
23
288.5180839948
0
SOLID
5
27B
100
AcDbEntity
8
0
100
AcDbTrace
62
2
6
CONTINUOUS
10
329.4740776838
20
288.5180839948
11
333.9740776838
21
289.3180839948
12
329.4740776838
22
290.1180839948
13
329.4740776838
23
290.1180839948
0
ENDBLK
5
27C
100
AcDbEntity
8
0
100
AcDbBlockEnd
0
BLOCK
5
27D
100
AcDbEntity
8
0
100
AcDbBlockBegin
62
2
6
CONTINUOUS
2
*D2
70
65
10
0.0000000000
20
0.0000000000
3
*D2
1

0
TEXT
5
27E
100
AcDbEntity
8
0
100
AcDbText
62
2
6
CONTINUOUS
10
303.4880250221
20
290.1930839948
7
TEXTSTYLE_1
40
3.5000000000
1
60
41
0.7333333333
72
0
100
AcDbText
0
LINE
5
27F
100
AcDbEntity
8
0
100
AcDbLine
62
2
6
CONTINUOUS
10
273.9740776838
20
232.7491466347
11
273.9740776838
21
292.5180839948
0
LINE
5
280
100
AcDbEntity
8
0
100
AcDbLine
62
2
6
CONTINUOUS
10
333.9740776838
20
285.1975613588
11
333.9740776838
21
292.5180839948
0
LINE
5
281
100
AcDbEntity
8
0
100
AcDbLine
62
2
6
CONTINUOUS
10
273.9740776838
20
289.3180839948
11
303.9740776838
21
289.3180839948
0
LINE
5
282
100
AcDbEntity
8
0
100
AcDbLine
62
2
6
CONTINUOUS
10
333.9740776838
20
289.3180839948
11
303.9740776838
21
289.3180839948
0
SOLID
5
283
100
AcDbEntity
8
0
100
AcDbTrace
62
2
6
CONTINUOUS
10
278.4740776838
20
290.1180839948
11
273.9740776838
21
289.3180839948
12
278.4740776838
22
288.5180839948
13
278.4740776838
23
288.5180839948
0
SOLID
5
284
100
AcDbEntity
8
0
100
AcDbTrace
62
2
6
CONTINUOUS
10
329.4740776838
20
288.5180839948
11
333.9740776838
21
289.3180839948
12
329.4740776838
22
290.1180839948
13
329.4740776838
23
290.1180839948
0
ENDBLK
5
285
100
AcDbEntity
8
0
100
AcDbBlockEnd
0
BLOCK
5
286
100
AcDbEntity
8
0
100
AcDbBlockBegin
62
2
6
CONTINUOUS
2
*D3
70
65
10
0.0000000000
20
0.0000000000
3
*D3
1

0
TEXT
5
287
100
AcDbEntity
8
0
100
AcDbText
62
2
6
CONTINUOUS
10
383.2122234655
20
207.5532622588
7
TEXTSTYLE_1
40
3.5000000000
1
45
50
90.0000000000
41
0.7666666667
72
0
100
AcDbText
0
LINE
5
288
100
AcDbEntity
8
0
100
AcDbLine
62
2
6
CONTINUOUS
10
321.2740776838
20
188.7491466347
11
333.9712282012
21
188.7491466347
0
LINE
5
289
100
AcDbEntity
8
0
100
AcDbLine
62
2
6
CONTINUOUS
10
338.0408543097
20
188.7491466347
11
350.5858187695
21
188.7491466347
0
LINE
5
28A
100
AcDbEntity
8
0
100
AcDbLine
62
2
6
CONTINUOUS
10
359.5107672495
20
188.7491466347
11
387.2872234655
21
188.7491466347
0
LINE
5
28B
100
AcDbEntity
8
0
100
AcDbLine
62
2
6
CONTINUOUS
10
327.4740776838
20
233.7491466347
11
331.8474718061
21
233.7491466347
0
LINE
5
28C
100
AcDbEntity
8
0
100
AcDbLine
62
2
6
CONTINUOUS
10
338.8961115455
20
233.7491466347
11
387.2872234655
21
233.7491466347
0
LINE
5
28D
100
AcDbEntity
8
0
100
AcDbLine
62
2
6
CONTINUOUS
10
384.0872234655
20
188.7491466347
11
384.0872234655
21
211.2491466347
0
LINE
5
28E
100
AcDbEntity
8
0
100
AcDbLine
62
2
6
CONTINUOUS
10
384.0872234655
20
233.7491466347
11
384.0872234655
21
211.2491466347
0
SOLID
5
28F
100
AcDbEntity
8
0
100
AcDbTrace
62
2
6
CONTINUOUS
10
383.2872234655
20
193.2491466347
11
384.0872234655
21
188.7491466347
12
384.8872234655
22
193.2491466347
13
384.8872234655
23
193.2491466347
0
SOLID
5
290
100
AcDbEntity
8
0
100
AcDbTrace
62
2
6
CONTINUOUS
10
384.8872234655
20
229.2491466347
11
384.0872234655
21
233.7491466347
12
383.2872234655
22
229.2491466347
13
383.2872234655
23
229.2491466347
0
ENDBLK
5
291
100
AcDbEntity
8
0
100
AcDbBlockEnd
0
BLOCK
5
292
100
AcDbEntity
8
0
100
AcDbBlockBegin
62
2
6
CONTINUOUS
2
*D4
70
65
10
0.0000000000
20
0.0000000000
3
*D4
1

0
TEXT
5
293
100
AcDbEntity
8
0
100
AcDbText
62
2
6
CONTINUOUS
10
345.7336582598
20
175.6213623496
7
TEXTSTYLE_1
40
3.5000000000
1
2,5
50
90.0000000000
41
0.5944444444
72
0
100
AcDbText
0
LINE
5
294
100
AcDbEntity
8
0
100
AcDbLine
62
2
6
CONTINUOUS
10
321.2740776838
20
188.7491466347
11
349.8086582598
21
188.7491466347
0
LINE
5
295
100
AcDbEntity
8
0
100
AcDbLine
62
2
6
CONTINUOUS
10
337.9740776838
20
191.2491466347
11
349.8086582598
21
191.2491466347
0
LINE
5
296
100
AcDbEntity
8
0
100
AcDbLine
62
2
6
CONTINUOUS
10
346.6086582598
20
188.7491466347
11
346.6086582598
21
175.6213623496
0
LINE
5
297
100
AcDbEntity
8
0
100
AcDbLine
62
2
6
CONTINUOUS
10
346.6086582598
20
175.6213623496
11
346.6086582598
21
189.9991466347
0
LINE
5
298
100
AcDbEntity
8
0
100
AcDbLine
62
2
6
CONTINUOUS
10
346.6086582598
20
191.2491466347
11
346.6086582598
21
193.2491466347
0
LINE
5
299
100
AcDbEntity
8
0
100
AcDbLine
62
2
6
CONTINUOUS
10
346.6086582598
20
193.2491466347
11
346.6086582598
21
189.9991466347
0
SOLID
5
29A
100
AcDbEntity
8
0
100
AcDbTrace
62
2
6
CONTINUOUS
10
347.4086582598
20
184.2491466347
11
346.6086582598
21
188.7491466347
12
345.8086582598
22
184.2491466347
13
345.8086582598
23
184.2491466347
0
SOLID
5
29B
100
AcDbEntity
8
0
100
AcDbTrace
62
2
6
CONTINUOUS
10
345.8086582598
20
195.7491466347
11
346.6086582598
21
191.2491466347
12
347.4086582598
22
195.7491466347
13
347.4086582598
23
195.7491466347
0
ENDBLK
5
29C
100
AcDbEntity
8
0
100
AcDbBlockEnd
0
BLOCK
5
29D
100
AcDbEntity
8
0
100
AcDbBlockBegin
62
2
6
CONTINUOUS
2
*D5
70
65
10
0.0000000000
20
0.0000000000
3
*D5
1

0
TEXT
5
29E
100
AcDbEntity
8
0
100
AcDbText
62
2
6
CONTINUOUS
10
300.9479068145
20
245.6284607480
7
TEXTSTYLE_1
40
3.5000000000
1
=
41
0.4000000000
72
0
100
AcDbText
0
TEXT
5
29F
100
AcDbEntity
8
0
100
AcDbText
62
2
6
CONTINUOUS
10
306.0812401479
20
245.6284607480
7
TEXTSTYLE_1
40
3.5000000000
1
=
41
0.4000000000
72
0
100
AcDbText
0
TEXT
5
2A0
100
AcDbEntity
8
0
100
AcDbText
62
2
6
CONTINUOUS
10
302.3479068145
20
245.6284607480
7
TEXTSTYLE_1
40
3.5000000000
1
17
41
0.5333333333
72
0
100
AcDbText
0
LINE
5
2A1
100
AcDbEntity
8
0
100
AcDbLine
62
2
6
CONTINUOUS
10
295.4740776838
20
235.2491466347
11
295.4740776838
21
247.9534607480
0
LINE
5
2A2
100
AcDbEntity
8
0
100
AcDbLine
62
2
6
CONTINUOUS
10
312.4740776838
20
235.2491466347
11
312.4740776838
21
247.9534607480
0
LINE
5
2A3
100
AcDbEntity
8
0
100
AcDbLine
62
2
6
CONTINUOUS
10
295.4740776838
20
244.7534607480
11
303.9740776838
21
244.7534607480
0
LINE
5
2A4
100
AcDbEntity
8
0
100
AcDbLine
62
2
6
CONTINUOUS
10
312.4740776838
20
244.7534607480
11
303.9740776838
21
244.7534607480
0
SOLID
5
2A5
100
AcDbEntity
8
0
100
AcDbTrace
62
2
6
CONTINUOUS
10
299.9740776838
20
245.5534607480
11
295.4740776838
21
244.7534607480
12
299.9740776838
22
243.9534607480
13
299.9740776838
23
243.9534607480
0
SOLID
5
2A6
100
AcDbEntity
8
0
100
AcDbTrace
62
2
6
CONTINUOUS
10
307.9740776838
20
243.9534607480
11
312.4740776838
21
244.7534607480
12
307.9740776838
22
245.5534607480
13
307.9740776838
23
245.5534607480
0
ENDBLK
5
2A7
100
AcDbEntity
8
0
100
AcDbBlockEnd
0
BLOCK
5
2A8
100
AcDbEntity
8
0
100
AcDbBlockBegin
62
2
6
CONTINUOUS
2
*D6
70
65
10
0.0000000000
20
0.0000000000
3
*D6
1

0
TEXT
5
2A9
100
AcDbEntity
8
0
100
AcDbText
62
2
6
CONTINUOUS
10
355.1475633357
20
164.4926219916
7
TEXTSTYLE_1
40
3.5000000000
1
20,85
50
90.0000000000
41
0.6500000000
72
0
100
AcDbText
0
TEXT
5
2AA
100
AcDbEntity
8
0
100
AcDbText
62
2
6
CONTINUOUS
10
355.1475633357
20
175.8676219916
7
TEXTSTYLE_1
40
3.5000000000
1
%%p0,02
50
90.0000000000
41
0.7366666667
72
0
100
AcDbText
0
LINE
5
2AB
100
AcDbEntity
8
0
100
AcDbLine
62
2
6
CONTINUOUS
10
337.9740776838
20
191.2491466347
11
359.2225633357
21
191.2491466347
0
LINE
5
2AC
100
AcDbEntity
8
0
100
AcDbLine
62
2
6
CONTINUOUS
10
279.2985569355
20
212.0991466347
11
334.5122911472
21
212.0991466347
0
LINE
5
2AD
100
AcDbEntity
8
0
100
AcDbLine
62
2
6
CONTINUOUS
10
339.9310034522
20
212.0991466347
11
359.2225633357
21
212.0991466347
0
LINE
5
2AE
100
AcDbEntity
8
0
100
AcDbLine
62
2
6
CONTINUOUS
10
356.0225633357
20
191.2491466347
11
356.0225633357
21
201.6741466347
0
LINE
5
2AF
100
AcDbEntity
8
0
100
AcDbLine
62
2
6
CONTINUOUS
10
356.0225633357
20
201.6741466347
11
356.0225633357
21
164.4926219916
0
LINE
5
2B0
100
AcDbEntity
8
0
100
AcDbLine
62
2
6
CONTINUOUS
10
356.0225633357
20
212.0991466347
11
356.0225633357
21
201.6741466347
0
SOLID
5
2B1
100
AcDbEntity
8
0
100
AcDbTrace
62
2
6
CONTINUOUS
10
355.2225633357
20
195.7491466347
11
356.0225633357
21
191.2491466347
12
356.8225633357
22
195.7491466347
13
356.8225633357
23
195.7491466347
0
SOLID
5
2B2
100
AcDbEntity
8
0
100
AcDbTrace
62
2
6
CONTINUOUS
10
356.8225633357
20
207.5991466347
11
356.0225633357
21
212.0991466347
12
355.2225633357
22
207.5991466347
13
355.2225633357
23
207.5991466347
0
ENDBLK
5
2B3
100
AcDbEntity
8
0
100
AcDbBlockEnd
0
BLOCK
5
2B4
100
AcDbEntity
8
0
100
AcDbBlockBegin
62
2
6
CONTINUOUS
2
*D7
70
65
10
0.0000000000
20
0.0000000000
3
*D7
1

0
TEXT
5
2B5
100
AcDbEntity
8
0
100
AcDbText
62
2
6
CONTINUOUS
10
300.0674941502
20
269.7913477072
7
TEXTSTYLE_1
40
3.5000000000
1
=
41
0.4000000000
72
0
100
AcDbText
0
TEXT
5
2B6
100
AcDbEntity
8
0
100
AcDbText
62
2
6
CONTINUOUS
10
307.0674941502
20
269.7913477072
7
TEXTSTYLE_1
40
3.5000000000
1
=
41
0.4000000000
72
0
100
AcDbText
0
TEXT
5
2B7
100
AcDbEntity
8
0
100
AcDbText
62
2
6
CONTINUOUS
10
301.4674941502
20
269.7913477072
7
TEXTSTYLE_1
40
3.5000000000
1
44
41
0.8000000000
72
0
100
AcDbText
0
LINE
5
2B8
100
AcDbEntity
8
0
100
AcDbLine
62
2
6
CONTINUOUS
10
281.9740776838
20
232.7491466347
11
281.9740776838
21
272.1163477072
0
LINE
5
2B9
100
AcDbEntity
8
0
100
AcDbLine
62
2
6
CONTINUOUS
10
325.9740776838
20
232.7491466347
11
325.9740776838
21
272.1163477072
0
LINE
5
2BA
100
AcDbEntity
8
0
100
AcDbLine
62
2
6
CONTINUOUS
10
281.9740776838
20
268.9163477072
11
303.9740776838
21
268.9163477072
0
LINE
5
2BB
100
AcDbEntity
8
0
100
AcDbLine
62
2
6
CONTINUOUS
10
325.9740776838
20
268.9163477072
11
303.9740776838
21
268.9163477072
0
SOLID
5
2BC
100
AcDbEntity
8
0
100
AcDbTrace
62
2
6
CONTINUOUS
10
286.4740776838
20
269.7163477072
11
281.9740776838
21
268.9163477072
12
286.4740776838
22
268.1163477072
13
286.4740776838
23
268.1163477072
0
SOLID
5
2BD
100
AcDbEntity
8
0
100
AcDbTrace
62
2
6
CONTINUOUS
10
321.4740776838
20
268.1163477072
11
325.9740776838
21
268.9163477072
12
321.4740776838
22
269.7163477072
13
321.4740776838
23
269.7163477072
0
ENDBLK
5
2BE
100
AcDbEntity
8
0
100
AcDbBlockEnd
0
BLOCK
5
2BF
100
AcDbEntity
8
0
100
AcDbBlockBegin
62
2
6
CONTINUOUS
2
*D8
70
65
10
0.0000000000
20
0.0000000000
3
*D8
1

0
TEXT
5
2C0
100
AcDbEntity
8
0
100
AcDbText
62
2
6
CONTINUOUS
10
316.7189128885
20
279.1112125373
7
TEXTSTYLE_1
40
3.5000000000
1
32,5
41
0.6291666667
72
0
100
AcDbText
0
LINE
5
2C1
100
AcDbEntity
8
0
100
AcDbLine
62
2
6
CONTINUOUS
10
336.4740776838
20
274.6661591391
11
336.4740776838
21
281.4362125373
0
LINE
5
2C2
100
AcDbEntity
8
0
100
AcDbLine
62
2
6
CONTINUOUS
10
303.9740776838
20
275.4740373735
11
303.9740776838
21
281.4362125373
0
LINE
5
2C3
100
AcDbEntity
8
0
100
AcDbLine
62
2
6
CONTINUOUS
10
336.4740776838
20
278.2362125373
11
320.2240776838
21
278.2362125373
0
LINE
5
2C4
100
AcDbEntity
8
0
100
AcDbLine
62
2
6
CONTINUOUS
10
303.9740776838
20
278.2362125373
11
320.2240776838
21
278.2362125373
0
SOLID
5
2C5
100
AcDbEntity
8
0
100
AcDbTrace
62
2
6
CONTINUOUS
10
331.9740776838
20
277.4362125373
11
336.4740776838
21
278.2362125373
12
331.9740776838
22
279.0362125373
13
331.9740776838
23
279.0362125373
0
SOLID
5
2C6
100
AcDbEntity
8
0
100
AcDbTrace
62
2
6
CONTINUOUS
10
308.4740776838
20
279.0362125373
11
303.9740776838
21
278.2362125373
12
308.4740776838
22
277.4362125373
13
308.4740776838
23
277.4362125373
0
ENDBLK
5
2C7
100
AcDbEntity
8
0
100
AcDbBlockEnd
0
BLOCK
5
2C8
100
AcDbEntity
8
0
100
AcDbBlockBegin
62
2
6
CONTINUOUS
2
*D9
70
65
10
0.0000000000
20
0.0000000000
3
*D9
1

0
TEXT
5
2C9
100
AcDbEntity
8
0
100
AcDbText
62
2
6
CONTINUOUS
10
300.6889217215
20
180.5820261607
7
TEXTSTYLE_1
40
3.5000000000
1
=
41
0.4000000000
72
0
100
AcDbText
0
TEXT
5
2CA
100
AcDbEntity
8
0
100
AcDbText
62
2
6
CONTINUOUS
10
305.8222550548
20
180.5820261607
7
TEXTSTYLE_1
40
3.5000000000
1
=
41
0.4000000000
72
0
100
AcDbText
0
TEXT
5
2CB
100
AcDbEntity
8
0
100
AcDbText
62
2
6
CONTINUOUS
10
302.0889217215
20
180.5820261607
7
TEXTSTYLE_1
40
3.5000000000
1
12
41
0.5333333333
72
0
100
AcDbText
0
LINE
5
2CC
100
AcDbEntity
8
0
100
AcDbLine
62
2
6
CONTINUOUS
10
309.9740776838
20
194.7491466347
11
309.9740776838
21
176.5070261607
0
LINE
5
2CD
100
AcDbEntity
8
0
100
AcDbLine
62
2
6
CONTINUOUS
10
297.9740776838
20
186.7491466347
11
297.9740776838
21
176.5070261607
0
LINE
5
2CE
100
AcDbEntity
8
0
100
AcDbLine
62
2
6
CONTINUOUS
10
309.9740776838
20
179.7070261607
11
311.9740776838
21
179.7070261607
0
LINE
5
2CF
100
AcDbEntity
8
0
100
AcDbLine
62
2
6
CONTINUOUS
10
311.9740776838
20
179.7070261607
11
303.9740776838
21
179.7070261607
0
LINE
5
2D0
100
AcDbEntity
8
0
100
AcDbLine
62
2
6
CONTINUOUS
10
297.9740776838
20
179.7070261607
11
295.9740776838
21
179.7070261607
0
LINE
5
2D1
100
AcDbEntity
8
0
100
AcDbLine
62
2
6
CONTINUOUS
10
295.9740776838
20
179.7070261607
11
303.9740776838
21
179.7070261607
0
SOLID
5
2D2
100
AcDbEntity
8
0
100
AcDbTrace
62
2
6
CONTINUOUS
10
314.4740776838
20
180.5070261607
11
309.9740776838
21
179.7070261607
12
314.4740776838
22
178.9070261607
13
314.4740776838
23
178.9070261607
0
SOLID
5
2D3
100
AcDbEntity
8
0
100
AcDbTrace
62
2
6
CONTINUOUS
10
293.4740776838
20
178.9070261607
11
297.9740776838
21
179.7070261607
12
293.4740776838
22
180.5070261607
13
293.4740776838
23
180.5070261607
0
ENDBLK
5
2D4
100
AcDbEntity
8
0
100
AcDbBlockEnd
0
BLOCK
5
2D5
100
AcDbEntity
8
0
100
AcDbBlockBegin
62
2
6
CONTINUOUS
2
*D10
70
65
10
0.0000000000
20
0.0000000000
3
*D10
1

0
TEXT
5
2D6
100
AcDbEntity
8
0
100
AcDbText
62
2
6
CONTINUOUS
10
305.1179302645
20
162.9687338358
7
TEXTSTYLE_1
40
3.5000000000
1
8,2
41
0.5944444444
72
0
100
AcDbText
0
LINE
5
2D7
100
AcDbEntity
8
0
100
AcDbLine
62
2
6
CONTINUOUS
10
303.9740776838
20
167.6143179974
11
303.9740776838
21
158.8937338358
0
LINE
5
2D8
100
AcDbEntity
8
0
100
AcDbLine
62
2
6
CONTINUOUS
10
312.1740776838
20
187.2491466347
11
312.1740776838
21
182.8725388602
0
LINE
5
2D9
100
AcDbEntity
8
0
100
AcDbLine
62
2
6
CONTINUOUS
10
312.1740776838
20
177.6053041430
11
312.1740776838
21
175.9260214815
0
LINE
5
2DA
100
AcDbEntity
8
0
100
AcDbLine
62
2
6
CONTINUOUS
10
312.1740776838
20
169.3235399978
11
312.1740776838
21
158.8937338358
0
LINE
5
2DB
100
AcDbEntity
8
0
100
AcDbLine
62
2
6
CONTINUOUS
10
303.9740776838
20
162.0937338358
11
301.9740776838
21
162.0937338358
0
LINE
5
2DC
100
AcDbEntity
8
0
100
AcDbLine
62
2
6
CONTINUOUS
10
301.9740776838
20
162.0937338358
11
308.0740776838
21
162.0937338358
0
LINE
5
2DD
100
AcDbEntity
8
0
100
AcDbLine
62
2
6
CONTINUOUS
10
312.1740776838
20
162.0937338358
11
314.1740776838
21
162.0937338358
0
LINE
5
2DE
100
AcDbEntity
8
0
100
AcDbLine
62
2
6
CONTINUOUS
10
314.1740776838
20
162.0937338358
11
308.0740776838
21
162.0937338358
0
POLYLINE
5
2DF
100
AcDbEntity
8
0
100
AcDb2dPolyline
62
2
6
CONTINUOUS
66
1
70
0
0
VERTEX
5
2E0
100
AcDbEntity
8
0
100
AcDbVertex
62
2
6
CONTINUOUS
100
AcDb2dVertex
10
303.5740776838
20
162.0937338358
40
0.8000000000
41
0.8000000000
42
1.0000000000
0
VERTEX
5
2E1
100
AcDbEntity
8
0
100
AcDbVertex
62
2
6
CONTINUOUS
100
AcDb2dVertex
10
304.3740776838
20
162.0937338358
40
0.8000000000
41
0.8000000000
42
1.0000000000
0
VERTEX
5
2E2
100
AcDbEntity
8
0
100
AcDbVertex
62
2
6
CONTINUOUS
100
AcDb2dVertex
10
303.5740776838
20
162.0937338358
40
0.8000000000
41
0.8000000000
0
SEQEND
5
2E3
100
AcDbEntity
8
0
0
POLYLINE
5
2E4
100
AcDbEntity
8
0
100
AcDb2dPolyline
62
2
6
CONTINUOUS
66
1
70
0
0
VERTEX
5
2E5
100
AcDbEntity
8
0
100
AcDbVertex
62
2
6
CONTINUOUS
100
AcDb2dVertex
10
311.7740776838
20
162.0937338358
40
0.8000000000
41
0.8000000000
42
1.0000000000
0
VERTEX
5
2E6
100
AcDbEntity
8
0
100
AcDbVertex
62
2
6
CONTINUOUS
100
AcDb2dVertex
10
312.5740776838
20
162.0937338358
40
0.8000000000
41
0.8000000000
42
1.0000000000
0
VERTEX
5
2E7
100
AcDbEntity
8
0
100
AcDbVertex
62
2
6
CONTINUOUS
100
AcDb2dVertex
10
311.7740776838
20
162.0937338358
40
0.8000000000
41
0.8000000000
0
SEQEND
5
2E8
100
AcDbEntity
8
0
0
ENDBLK
5
2E9
100
AcDbEntity
8
0
100
AcDbBlockEnd
0
BLOCK
5
2EA
100
AcDbEntity
8
0
100
AcDbBlockBegin
62
2
6
CONTINUOUS
2
*D11
70
65
10
0.0000000000
20
0.0000000000
3
*D11
1

0
TEXT
5
2EB
100
AcDbEntity
8
0
100
AcDbText
62
2
6
CONTINUOUS
10
296.5441383805
20
162.9687338358
7
TEXTSTYLE_1
40
3.5000000000
1
11
41
0.3333333333
72
0
100
AcDbText
0
LINE
5
2EC
100
AcDbEntity
8
0
100
AcDbLine
62
2
6
CONTINUOUS
10
303.9740776838
20
168.6658578377
11
303.9740776838
21
158.8937338358
0
LINE
5
2ED
100
AcDbEntity
8
0
100
AcDbLine
62
2
6
CONTINUOUS
10
292.9740776838
20
165.1712842386
11
292.9740776838
21
158.8937338358
0
LINE
5
2EE
100
AcDbEntity
8
0
100
AcDbLine
62
2
6
CONTINUOUS
10
303.9740776838
20
162.0937338358
11
305.9740776838
21
162.0937338358
0
LINE
5
2EF
100
AcDbEntity
8
0
100
AcDbLine
62
2
6
CONTINUOUS
10
305.9740776838
20
162.0937338358
11
298.4740776838
21
162.0937338358
0
LINE
5
2F0
100
AcDbEntity
8
0
100
AcDbLine
62
2
6
CONTINUOUS
10
292.9740776838
20
162.0937338358
11
290.9740776838
21
162.0937338358
0
LINE
5
2F1
100
AcDbEntity
8
0
100
AcDbLine
62
2
6
CONTINUOUS
10
290.9740776838
20
162.0937338358
11
298.4740776838
21
162.0937338358
0
POLYLINE
5
2F2
100
AcDbEntity
8
0
100
AcDb2dPolyline
62
2
6
CONTINUOUS
66
1
70
0
0
VERTEX
5
2F3
100
AcDbEntity
8
0
100
AcDbVertex
62
2
6
CONTINUOUS
100
AcDb2dVertex
10
303.5740776838
20
162.0937338358
40
0.8000000000
41
0.8000000000
42
1.0000000000
0
VERTEX
5
2F4
100
AcDbEntity
8
0
100
AcDbVertex
62
2
6
CONTINUOUS
100
AcDb2dVertex
10
304.3740776838
20
162.0937338358
40
0.8000000000
41
0.8000000000
42
1.0000000000
0
VERTEX
5
2F5
100
AcDbEntity
8
0
100
AcDbVertex
62
2
6
CONTINUOUS
100
AcDb2dVertex
10
303.5740776838
20
162.0937338358
40
0.8000000000
41
0.8000000000
0
SEQEND
5
2F6
100
AcDbEntity
8
0
0
POLYLINE
5
2F7
100
AcDbEntity
8
0
100
AcDb2dPolyline
62
2
6
CONTINUOUS
66
1
70
0
0
VERTEX
5
2F8
100
AcDbEntity
8
0
100
AcDbVertex
62
2
6
CONTINUOUS
100
AcDb2dVertex
10
292.5740776838
20
162.0937338358
40
0.8000000000
41
0.8000000000
42
1.0000000000
0
VERTEX
5
2F9
100
AcDbEntity
8
0
100
AcDbVertex
62
2
6
CONTINUOUS
100
AcDb2dVertex
10
293.3740776838
20
162.0937338358
40
0.8000000000
41
0.8000000000
42
1.0000000000
0
VERTEX
5
2FA
100
AcDbEntity
8
0
100
AcDbVertex
62
2
6
CONTINUOUS
100
AcDb2dVertex
10
292.5740776838
20
162.0937338358
40
0.8000000000
41
0.8000000000
0
SEQEND
5
2FB
100
AcDbEntity
8
0
0
ENDBLK
5
2FC
100
AcDbEntity
8
0
100
AcDbBlockEnd
0
BLOCK
5
2FD
100
AcDbEntity
8
0
100
AcDbBlockBegin
62
2
6
CONTINUOUS
2
*D12
70
65
10
0.0000000000
20
0.0000000000
3
*D12
1

0
TEXT
5
2FE
100
AcDbEntity
8
0
100
AcDbText
62
2
6
CONTINUOUS
10
272.9388679291
20
162.9687338358
7
TEXTSTYLE_1
40
3.5000000000
1
7,6
41
0.5944444444
72
0
100
AcDbText
0
LINE
5
2FF
100
AcDbEntity
8
0
100
AcDbLine
62
2
6
CONTINUOUS
10
285.3740776838
20
187.2491466347
11
285.3740776838
21
174.2766428873
0
LINE
5
300
100
AcDbEntity
8
0
100
AcDbLine
62
2
6
CONTINUOUS
10
285.3740776838
20
168.0590636290
11
285.3740776838
21
158.8937338358
0
LINE
5
301
100
AcDbEntity
8
0
100
AcDbLine
62
2
6
CONTINUOUS
10
292.9740776838
20
187.2491466347
11
292.9740776838
21
182.3804445118
0
LINE
5
302
100
AcDbEntity
8
0
100
AcDbLine
62
2
6
CONTINUOUS
10
292.9740776838
20
168.8818998288
11
292.9740776838
21
158.8937338358
0
LINE
5
303
100
AcDbEntity
8
0
100
AcDbLine
62
2
6
CONTINUOUS
10
285.3740776838
20
162.0937338358
11
272.9388679291
21
162.0937338358
0
LINE
5
304
100
AcDbEntity
8
0
100
AcDbLine
62
2
6
CONTINUOUS
10
272.9388679291
20
162.0937338358
11
289.1740776838
21
162.0937338358
0
LINE
5
305
100
AcDbEntity
8
0
100
AcDbLine
62
2
6
CONTINUOUS
10
292.9740776838
20
162.0937338358
11
294.9740776838
21
162.0937338358
0
LINE
5
306
100
AcDbEntity
8
0
100
AcDbLine
62
2
6
CONTINUOUS
10
294.9740776838
20
162.0937338358
11
289.1740776838
21
162.0937338358
0
SOLID
5
307
100
AcDbEntity
8
0
100
AcDbTrace
62
2
6
CONTINUOUS
10
280.8740776838
20
161.2937338358
11
285.3740776838
21
162.0937338358
12
280.8740776838
22
162.8937338358
13
280.8740776838
23
162.8937338358
0
POLYLINE
5
308
100
AcDbEntity
8
0
100
AcDb2dPolyline
62
2
6
CONTINUOUS
66
1
70
0
0
VERTEX
5
309
100
AcDbEntity
8
0
100
AcDbVertex
62
2
6
CONTINUOUS
100
AcDb2dVertex
10
292.5740776838
20
162.0937338358
40
0.8000000000
41
0.8000000000
42
1.0000000000
0
VERTEX
5
30A
100
AcDbEntity
8
0
100
AcDbVertex
62
2
6
CONTINUOUS
100
AcDb2dVertex
10
293.3740776838
20
162.0937338358
40
0.8000000000
41
0.8000000000
42
1.0000000000
0
VERTEX
5
30B
100
AcDbEntity
8
0
100
AcDbVertex
62
2
6
CONTINUOUS
100
AcDb2dVertex
10
292.5740776838
20
162.0937338358
40
0.8000000000
41
0.8000000000
0
SEQEND
5
30C
100
AcDbEntity
8
0
0
ENDBLK
5
30D
100
AcDbEntity
8
0
100
AcDbBlockEnd
0
BLOCK
5
30E
100
AcDbEntity
8
0
100
AcDbBlockBegin
62
2
6
CONTINUOUS
2
*D13
70
65
10
0.0000000000
20
0.0000000000
3
*D13
1

0
TEXT
5
30F
100
AcDbEntity
8
0
100
AcDbText
62
2
6
CONTINUOUS
10
326.1362931340
20
162.9687338358
7
TEXTSTYLE_1
40
3.5000000000
1
7,6
41
0.5944444444
72
0
100
AcDbText
0
LINE
5
310
100
AcDbEntity
8
0
100
AcDbLine
62
2
6
CONTINUOUS
10
312.1740776838
20
166.5627781571
11
312.1740776838
21
158.8937338358
0
LINE
5
311
100
AcDbEntity
8
0
100
AcDbLine
62
2
6
CONTINUOUS
10
319.7740776838
20
187.2491466347
11
319.7740776838
21
174.2608815624
0
LINE
5
312
100
AcDbEntity
8
0
100
AcDbLine
62
2
6
CONTINUOUS
10
319.7740776838
20
168.7547343960
11
319.7740776838
21
158.8937338358
0
LINE
5
313
100
AcDbEntity
8
0
100
AcDbLine
62
2
6
CONTINUOUS
10
312.1740776838
20
162.0937338358
11
310.1740776838
21
162.0937338358
0
LINE
5
314
100
AcDbEntity
8
0
100
AcDbLine
62
2
6
CONTINUOUS
10
310.1740776838
20
162.0937338358
11
315.9740776838
21
162.0937338358
0
LINE
5
315
100
AcDbEntity
8
0
100
AcDbLine
62
2
6
CONTINUOUS
10
319.7740776838
20
162.0937338358
11
332.3779598007
21
162.0937338358
0
LINE
5
316
100
AcDbEntity
8
0
100
AcDbLine
62
2
6
CONTINUOUS
10
332.3779598007
20
162.0937338358
11
315.9740776838
21
162.0937338358
0
POLYLINE
5
317
100
AcDbEntity
8
0
100
AcDb2dPolyline
62
2
6
CONTINUOUS
66
1
70
0
0
VERTEX
5
318
100
AcDbEntity
8
0
100
AcDbVertex
62
2
6
CONTINUOUS
100
AcDb2dVertex
10
311.7740776838
20
162.0937338358
40
0.8000000000
41
0.8000000000
42
1.0000000000
0
VERTEX
5
319
100
AcDbEntity
8
0
100
AcDbVertex
62
2
6
CONTINUOUS
100
AcDb2dVertex
10
312.5740776838
20
162.0937338358
40
0.8000000000
41
0.8000000000
42
1.0000000000
0
VERTEX
5
31A
100
AcDbEntity
8
0
100
AcDbVertex
62
2
6
CONTINUOUS
100
AcDb2dVertex
10
311.7740776838
20
162.0937338358
40
0.8000000000
41
0.8000000000
0
SEQEND
5
31B
100
AcDbEntity
8
0
0
SOLID
5
31C
100
AcDbEntity
8
0
100
AcDbTrace
62
2
6
CONTINUOUS
10
324.2740776838
20
162.8937338358
11
319.7740776838
21
162.0937338358
12
324.2740776838
22
161.2937338358
13
324.2740776838
23
161.2937338358
0
ENDBLK
5
31D
100
AcDbEntity
8
0
100
AcDbBlockEnd
0
BLOCK
5
31E
100
AcDbEntity
8
0
100
AcDbBlockBegin
62
2
6
CONTINUOUS
2
*D14
70
65
10
0.0000000000
20
0.0000000000
3
*D14
1

0
TEXT
5
31F
100
AcDbEntity
8
0
100
AcDbText
62
2
6
CONTINUOUS
10
307.1650841523
20
254.9482605839
7
TEXTSTYLE_1
40
3.5000000000
1
13,5
41
0.5291666667
72
0
100
AcDbText
0
LINE
5
320
100
AcDbEntity
8
0
100
AcDbLine
62
2
6
CONTINUOUS
10
317.4740776838
20
237.4491466347
11
317.4740776838
21
257.2732605839
0
LINE
5
321
100
AcDbEntity
8
0
100
AcDbLine
62
2
6
CONTINUOUS
10
303.9740776838
20
265.8377690373
11
303.9740776838
21
250.8732605839
0
LINE
5
322
100
AcDbEntity
8
0
100
AcDbLine
62
2
6
CONTINUOUS
10
317.4740776838
20
254.0732605839
11
319.4740776838
21
254.0732605839
0
LINE
5
323
100
AcDbEntity
8
0
100
AcDbLine
62
2
6
CONTINUOUS
10
319.4740776838
20
254.0732605839
11
310.7240776838
21
254.0732605839
0
LINE
5
324
100
AcDbEntity
8
0
100
AcDbLine
62
2
6
CONTINUOUS
10
303.9740776838
20
254.0732605839
11
301.9740776838
21
254.0732605839
0
LINE
5
325
100
AcDbEntity
8
0
100
AcDbLine
62
2
6
CONTINUOUS
10
301.9740776838
20
254.0732605839
11
310.7240776838
21
254.0732605839
0
SOLID
5
326
100
AcDbEntity
8
0
100
AcDbTrace
62
2
6
CONTINUOUS
10
321.9740776838
20
254.8732605839
11
317.4740776838
21
254.0732605839
12
321.9740776838
22
253.2732605839
13
321.9740776838
23
253.2732605839
0
SOLID
5
327
100
AcDbEntity
8
0
100
AcDbTrace
62
2
6
CONTINUOUS
10
299.4740776838
20
253.2732605839
11
303.9740776838
21
254.0732605839
12
299.4740776838
22
254.8732605839
13
299.4740776838
23
254.8732605839
0
ENDBLK
5
328
100
AcDbEntity
8
0
100
AcDbBlockEnd
0
BLOCK
5
329
100
AcDbEntity
8
0
100
AcDbBlockBegin
62
2
6
CONTINUOUS
2
*D15
70
65
10
0.0000000000
20
0.0000000000
3
*D15
1

0
TEXT
5
32A
100
AcDbEntity
8
0
100
AcDbText
62
2
6
CONTINUOUS
10
294.5657500037
20
254.9482605839
7
TEXTSTYLE_1
40
3.5000000000
1
15
41
0.5333333333
72
0
100
AcDbText
0
LINE
5
32B
100
AcDbEntity
8
0
100
AcDbLine
62
2
6
CONTINUOUS
10
303.9740776838
20
264.8115998497
11
303.9740776838
21
250.8732605839
0
LINE
5
32C
100
AcDbEntity
8
0
100
AcDbLine
62
2
6
CONTINUOUS
10
288.9740776838
20
237.4491466347
11
288.9740776838
21
257.2732605839
0
LINE
5
32D
100
AcDbEntity
8
0
100
AcDbLine
62
2
6
CONTINUOUS
10
303.9740776838
20
254.0732605839
11
296.4740776838
21
254.0732605839
0
LINE
5
32E
100
AcDbEntity
8
0
100
AcDbLine
62
2
6
CONTINUOUS
10
288.9740776838
20
254.0732605839
11
296.4740776838
21
254.0732605839
0
SOLID
5
32F
100
AcDbEntity
8
0
100
AcDbTrace
62
2
6
CONTINUOUS
10
299.4740776838
20
253.2732605839
11
303.9740776838
21
254.0732605839
12
299.4740776838
22
254.8732605839
13
299.4740776838
23
254.8732605839
0
SOLID
5
330
100
AcDbEntity
8
0
100
AcDbTrace
62
2
6
CONTINUOUS
10
293.4740776838
20
254.8732605839
11
288.9740776838
21
254.0732605839
12
293.4740776838
22
253.2732605839
13
293.4740776838
23
253.2732605839
0
ENDBLK
5
331
100
AcDbEntity
8
0
100
AcDbBlockEnd
0
BLOCK
5
332
100
AcDbEntity
8
0
100
AcDbBlockBegin
62
2
6
CONTINUOUS
2
*D16
70
65
10
0.0000000000
20
0.0000000000
3
*D16
1

0
TEXT
5
333
100
AcDbEntity
8
0
100
AcDbText
62
2
6
CONTINUOUS
10
311.6479859182
20
263.2275284686
7
TEXTSTYLE_1
40
3.5000000000
1
19
41
0.5333333333
72
0
100
AcDbText
0
LINE
5
334
100
AcDbEntity
8
0
100
AcDbLine
62
2
6
CONTINUOUS
10
303.9740776838
20
259.1525284686
11
303.9740776838
21
272.6746170206
0
LINE
5
335
100
AcDbEntity
8
0
100
AcDbLine
62
2
6
CONTINUOUS
10
322.9740776838
20
237.2491466347
11
322.9740776838
21
265.5525284686
0
LINE
5
336
100
AcDbEntity
8
0
100
AcDbLine
62
2
6
CONTINUOUS
10
303.9740776838
20
262.3525284686
11
313.4740776838
21
262.3525284686
0
LINE
5
337
100
AcDbEntity
8
0
100
AcDbLine
62
2
6
CONTINUOUS
10
322.9740776838
20
262.3525284686
11
313.4740776838
21
262.3525284686
0
SOLID
5
338
100
AcDbEntity
8
0
100
AcDbTrace
62
2
6
CONTINUOUS
10
308.4740776838
20
263.1525284686
11
303.9740776838
21
262.3525284686
12
308.4740776838
22
261.5525284686
13
308.4740776838
23
261.5525284686
0
SOLID
5
339
100
AcDbEntity
8
0
100
AcDbTrace
62
2
6
CONTINUOUS
10
318.4740776838
20
261.5525284686
11
322.9740776838
21
262.3525284686
12
318.4740776838
22
263.1525284686
13
318.4740776838
23
263.1525284686
0
ENDBLK
5
33A
100
AcDbEntity
8
0
100
AcDbBlockEnd
0
BLOCK
5
33B
100
AcDbEntity
8
0
100
AcDbBlockBegin
62
2
6
CONTINUOUS
2
*D17
70
65
10
0.0000000000
20
0.0000000000
3
*D17
1

0
TEXT
5
33C
100
AcDbEntity
8
0
100
AcDbText
62
2
6
CONTINUOUS
10
293.2997460929
20
171.9068224783
7
TEXTSTYLE_1
40
3.5000000000
1
14,8
41
0.5458333333
72
0
100
AcDbText
0
LINE
5
33D
100
AcDbEntity
8
0
100
AcDbLine
62
2
6
CONTINUOUS
10
303.9740776838
20
174.5608152063
11
303.9740776838
21
167.8318224783
0
LINE
5
33E
100
AcDbEntity
8
0
100
AcDbLine
62
2
6
CONTINUOUS
10
289.1740776838
20
184.7491466347
11
289.1740776838
21
167.8318224783
0
LINE
5
33F
100
AcDbEntity
8
0
100
AcDbLine
62
2
6
CONTINUOUS
10
303.9740776838
20
171.0318224783
11
305.9740776838
21
171.0318224783
0
LINE
5
340
100
AcDbEntity
8
0
100
AcDbLine
62
2
6
CONTINUOUS
10
305.9740776838
20
171.0318224783
11
296.5740776838
21
171.0318224783
0
LINE
5
341
100
AcDbEntity
8
0
100
AcDbLine
62
2
6
CONTINUOUS
10
289.1740776838
20
171.0318224783
11
287.1740776838
21
171.0318224783
0
LINE
5
342
100
AcDbEntity
8
0
100
AcDbLine
62
2
6
CONTINUOUS
10
287.1740776838
20
171.0318224783
11
296.5740776838
21
171.0318224783
0
POLYLINE
5
343
100
AcDbEntity
8
0
100
AcDb2dPolyline
62
2
6
CONTINUOUS
66
1
70
0
0
VERTEX
5
344
100
AcDbEntity
8
0
100
AcDbVertex
62
2
6
CONTINUOUS
100
AcDb2dVertex
10
303.5740776838
20
171.0318224783
40
0.8000000000
41
0.8000000000
42
1.0000000000
0
VERTEX
5
345
100
AcDbEntity
8
0
100
AcDbVertex
62
2
6
CONTINUOUS
100
AcDb2dVertex
10
304.3740776838
20
171.0318224783
40
0.8000000000
41
0.8000000000
42
1.0000000000
0
VERTEX
5
346
100
AcDbEntity
8
0
100
AcDbVertex
62
2
6
CONTINUOUS
100
AcDb2dVertex
10
303.5740776838
20
171.0318224783
40
0.8000000000
41
0.8000000000
0
SEQEND
5
347
100
AcDbEntity
8
0
0
SOLID
5
348
100
AcDbEntity
8
0
100
AcDbTrace
62
2
6
CONTINUOUS
10
284.6740776838
20
170.2318224783
11
289.1740776838
21
171.0318224783
12
284.6740776838
22
171.8318224783
13
284.6740776838
23
171.8318224783
0
ENDBLK
5
349
100
AcDbEntity
8
0
100
AcDbBlockEnd
0
BLOCK
5
34A
100
AcDbEntity
8
0
100
AcDbBlockBegin
62
2
6
CONTINUOUS
2
*D18
70
65
10
0.0000000000
20
0.0000000000
3
*D18
1

0
TEXT
5
34B
100
AcDbEntity
8
0
100
AcDbText
62
2
6
CONTINUOUS
10
308.1352758032
20
171.9068224783
7
TEXTSTYLE_1
40
3.5000000000
1
12
41
0.5333333333
72
0
100
AcDbText
0
LINE
5
34C
100
AcDbEntity
8
0
100
AcDbLine
62
2
6
CONTINUOUS
10
303.9740776838
20
177.1854611127
11
303.9740776838
21
167.8318224783
0
LINE
5
34D
100
AcDbEntity
8
0
100
AcDbLine
62
2
6
CONTINUOUS
10
315.9740776838
20
184.7491466347
11
315.9740776838
21
167.8318224783
0
LINE
5
34E
100
AcDbEntity
8
0
100
AcDbLine
62
2
6
CONTINUOUS
10
303.9740776838
20
171.0318224783
11
301.9740776838
21
171.0318224783
0
LINE
5
34F
100
AcDbEntity
8
0
100
AcDbLine
62
2
6
CONTINUOUS
10
301.9740776838
20
171.0318224783
11
309.9740776838
21
171.0318224783
0
LINE
5
350
100
AcDbEntity
8
0
100
AcDbLine
62
2
6
CONTINUOUS
10
315.9740776838
20
171.0318224783
11
317.9740776838
21
171.0318224783
0
LINE
5
351
100
AcDbEntity
8
0
100
AcDbLine
62
2
6
CONTINUOUS
10
317.9740776838
20
171.0318224783
11
309.9740776838
21
171.0318224783
0
POLYLINE
5
352
100
AcDbEntity
8
0
100
AcDb2dPolyline
62
2
6
CONTINUOUS
66
1
70
0
0
VERTEX
5
353
100
AcDbEntity
8
0
100
AcDbVertex
62
2
6
CONTINUOUS
100
AcDb2dVertex
10
303.5740776838
20
171.0318224783
40
0.8000000000
41
0.8000000000
42
1.0000000000
0
VERTEX
5
354
100
AcDbEntity
8
0
100
AcDbVertex
62
2
6
CONTINUOUS
100
AcDb2dVertex
10
304.3740776838
20
171.0318224783
40
0.8000000000
41
0.8000000000
42
1.0000000000
0
VERTEX
5
355
100
AcDbEntity
8
0
100
AcDbVertex
62
2
6
CONTINUOUS
100
AcDb2dVertex
10
303.5740776838
20
171.0318224783
40
0.8000000000
41
0.8000000000
0
SEQEND
5
356
100
AcDbEntity
8
0
0
SOLID
5
357
100
AcDbEntity
8
0
100
AcDbTrace
62
2
6
CONTINUOUS
10
320.4740776838
20
171.8318224783
11
315.9740776838
21
171.0318224783
12
320.4740776838
22
170.2318224783
13
320.4740776838
23
170.2318224783
0
ENDBLK
5
358
100
AcDbEntity
8
0
100
AcDbBlockEnd
0
BLOCK
5
359
100
AcDbEntity
8
0
100
AcDbBlockBegin
62
2
6
CONTINUOUS
2
*D19
70
65
10
0.0000000000
20
0.0000000000
3
*D19
1

0
TEXT
5
35A
100
AcDbEntity
8
0
100
AcDbText
62
2
6
CONTINUOUS
10
261.5025481301
20
179.2324770642
7
TEXTSTYLE_1
40
3.5000000000
1
1,6
50
90.0000000000
41
0.4611111111
72
0
100
AcDbText
0
LINE
5
35B
100
AcDbEntity
8
0
100
AcDbLine
62
2
6
CONTINUOUS
10
281.0740776838
20
192.8491466347
11
259.1775481301
21
192.8491466347
0
LINE
5
35C
100
AcDbEntity
8
0
100
AcDbLine
62
2
6
CONTINUOUS
10
269.9740776838
20
191.2491466347
11
259.1775481301
21
191.2491466347
0
LINE
5
35D
100
AcDbEntity
8
0
100
AcDbLine
62
2
6
CONTINUOUS
10
262.3775481301
20
192.8491466347
11
262.3775481301
21
194.8491466347
0
LINE
5
35E
100
AcDbEntity
8
0
100
AcDbLine
62
2
6
CONTINUOUS
10
262.3775481301
20
194.8491466347
11
262.3775481301
21
192.0491466347
0
LINE
5
35F
100
AcDbEntity
8
0
100
AcDbLine
62
2
6
CONTINUOUS
10
262.3775481301
20
191.2491466347
11
262.3775481301
21
179.2324770642
0
LINE
5
360
100
AcDbEntity
8
0
100
AcDbLine
62
2
6
CONTINUOUS
10
262.3775481301
20
179.2324770642
11
262.3775481301
21
192.0491466347
0
SOLID
5
361
100
AcDbEntity
8
0
100
AcDbTrace
62
2
6
CONTINUOUS
10
261.5775481301
20
197.3491466347
11
262.3775481301
21
192.8491466347
12
263.1775481301
22
197.3491466347
13
263.1775481301
23
197.3491466347
0
SOLID
5
362
100
AcDbEntity
8
0
100
AcDbTrace
62
2
6
CONTINUOUS
10
263.1775481301
20
186.7491466347
11
262.3775481301
21
191.2491466347
12
261.5775481301
22
186.7491466347
13
261.5775481301
23
186.7491466347
0
ENDBLK
5
363
100
AcDbEntity
8
0
100
AcDbBlockEnd
0
BLOCK
5
364
100
AcDbEntity
8
0
100
AcDbBlockBegin
62
2
6
CONTINUOUS
2
*D20
70
65
10
0.0000000000
20
0.0000000000
3
*D20
1

0
TEXT
5
365
100
AcDbEntity
8
0
100
AcDbText
62
2
6
CONTINUOUS
10
253.9908354059
20
192.2950497658
7
TEXTSTYLE_1
40
3.5000000000
1
5
50
90.0000000000
41
0.7333333333
72
0
100
AcDbText
0
LINE
5
366
100
AcDbEntity
8
0
100
AcDbLine
62
2
6
CONTINUOUS
10
269.9740776838
20
191.2491466347
11
251.6658354059
21
191.2491466347
0
LINE
5
367
100
AcDbEntity
8
0
100
AcDbLine
62
2
6
CONTINUOUS
10
288.4740776838
20
196.2491466347
11
265.2844279128
21
196.2491466347
0
LINE
5
368
100
AcDbEntity
8
0
100
AcDbLine
62
2
6
CONTINUOUS
10
259.0462875878
20
196.2491466347
11
251.6658354059
21
196.2491466347
0
LINE
5
369
100
AcDbEntity
8
0
100
AcDbLine
62
2
6
CONTINUOUS
10
254.8658354059
20
191.2491466347
11
254.8658354059
21
189.2491466347
0
LINE
5
36A
100
AcDbEntity
8
0
100
AcDbLine
62
2
6
CONTINUOUS
10
254.8658354059
20
189.2491466347
11
254.8658354059
21
193.7491466347
0
LINE
5
36B
100
AcDbEntity
8
0
100
AcDbLine
62
2
6
CONTINUOUS
10
254.8658354059
20
196.2491466347
11
254.8658354059
21
198.2491466347
0
LINE
5
36C
100
AcDbEntity
8
0
100
AcDbLine
62
2
6
CONTINUOUS
10
254.8658354059
20
198.2491466347
11
254.8658354059
21
193.7491466347
0
SOLID
5
36D
100
AcDbEntity
8
0
100
AcDbTrace
62
2
6
CONTINUOUS
10
255.6658354059
20
186.7491466347
11
254.8658354059
21
191.2491466347
12
254.0658354059
22
186.7491466347
13
254.0658354059
23
186.7491466347
0
SOLID
5
36E
100
AcDbEntity
8
0
100
AcDbTrace
62
2
6
CONTINUOUS
10
254.0658354059
20
200.7491466347
11
254.8658354059
21
196.2491466347
12
255.6658354059
22
200.7491466347
13
255.6658354059
23
200.7491466347
0
ENDBLK
5
36F
100
AcDbEntity
8
0
100
AcDbBlockEnd
0
BLOCK
5
370
100
AcDbEntity
8
0
100
AcDbBlockBegin
62
2
6
CONTINUOUS
2
*D21
70
65
10
0.0000000000
20
0.0000000000
3
*D21
1

0
TEXT
5
371
100
AcDbEntity
8
0
100
AcDbText
62
2
6
CONTINUOUS
10
245.9012986259
20
202.6567777324
7
TEXTSTYLE_1
40
3.5000000000
1
30,5
50
90.0000000000
41
0.6291666667
72
0
100
AcDbText
0
LINE
5
372
100
AcDbEntity
8
0
100
AcDbLine
62
2
6
CONTINUOUS
10
269.9740776838
20
191.2491466347
11
243.5762986259
21
191.2491466347
0
LINE
5
373
100
AcDbEntity
8
0
100
AcDbLine
62
2
6
CONTINUOUS
10
280.9740776838
20
221.7491466347
11
243.5762986259
21
221.7491466347
0
LINE
5
374
100
AcDbEntity
8
0
100
AcDbLine
62
2
6
CONTINUOUS
10
246.7762986259
20
191.2491466347
11
246.7762986259
21
206.4991466347
0
LINE
5
375
100
AcDbEntity
8
0
100
AcDbLine
62
2
6
CONTINUOUS
10
246.7762986259
20
221.7491466347
11
246.7762986259
21
206.4991466347
0
SOLID
5
376
100
AcDbEntity
8
0
100
AcDbTrace
62
2
6
CONTINUOUS
10
245.9762986259
20
195.7491466347
11
246.7762986259
21
191.2491466347
12
247.5762986259
22
195.7491466347
13
247.5762986259
23
195.7491466347
0
SOLID
5
377
100
AcDbEntity
8
0
100
AcDbTrace
62
2
6
CONTINUOUS
10
247.5762986259
20
217.2491466347
11
246.7762986259
21
221.7491466347
12
245.9762986259
22
217.2491466347
13
245.9762986259
23
217.2491466347
0
ENDBLK
5
378
100
AcDbEntity
8
0
100
AcDbBlockEnd
0
BLOCK
5
379
100
AcDbEntity
8
0
100
AcDbBlockBegin
62
2
6
CONTINUOUS
2
*D22
70
65
10
0.0000000000
20
0.0000000000
3
*D22
1

0
TEXT
5
37A
100
AcDbEntity
8
0
100
AcDbText
62
2
6
CONTINUOUS
10
366.1154030686
20
204.4936042894
7
TEXTSTYLE_1
40
3.5000000000
1
36,5
50
90.0000000000
41
0.6291666667
72
0
100
AcDbText
0
LINE
5
37B
100
AcDbEntity
8
0
100
AcDbLine
62
2
6
CONTINUOUS
10
332.4740776838
20
227.7491466347
11
370.1904030686
21
227.7491466347
0
LINE
5
37C
100
AcDbEntity
8
0
100
AcDbLine
62
2
6
CONTINUOUS
10
337.9740776838
20
191.2491466347
11
370.1904030686
21
191.2491466347
0
LINE
5
37D
100
AcDbEntity
8
0
100
AcDbLine
62
2
6
CONTINUOUS
10
366.9904030686
20
227.7491466347
11
366.9904030686
21
209.4991466347
0
LINE
5
37E
100
AcDbEntity
8
0
100
AcDbLine
62
2
6
CONTINUOUS
10
366.9904030686
20
191.2491466347
11
366.9904030686
21
209.4991466347
0
SOLID
5
37F
100
AcDbEntity
8
0
100
AcDbTrace
62
2
6
CONTINUOUS
10
367.7904030686
20
223.2491466347
11
366.9904030686
21
227.7491466347
12
366.1904030686
22
223.2491466347
13
366.1904030686
23
223.2491466347
0
SOLID
5
380
100
AcDbEntity
8
0
100
AcDbTrace
62
2
6
CONTINUOUS
10
366.1904030686
20
195.7491466347
11
366.9904030686
21
191.2491466347
12
367.7904030686
22
195.7491466347
13
367.7904030686
23
195.7491466347
0
ENDBLK
5
381
100
AcDbEntity
8
0
100
AcDbBlockEnd
0
BLOCK
5
382
100
AcDbEntity
8
0
100
AcDbBlockBegin
62
2
6
CONTINUOUS
2
*D23
70
65
10
0.0000000000
20
0.0000000000
3
*D23
1

0
TEXT
5
383
100
AcDbEntity
8
0
100
AcDbText
62
2
6
CONTINUOUS
10
237.9080658552
20
207.1229634801
7
TEXTSTYLE_1
40
3.5000000000
1
38,5
50
90.0000000000
41
0.6291666667
72
0
100
AcDbText
0
LINE
5
384
100
AcDbEntity
8
0
100
AcDbLine
62
2
6
CONTINUOUS
10
269.9740776838
20
191.2491466347
11
235.5830658552
21
191.2491466347
0
LINE
5
385
100
AcDbEntity
8
0
100
AcDbLine
62
2
6
CONTINUOUS
10
281.2740776838
20
229.7491466347
11
235.5830658552
21
229.7491466347
0
LINE
5
386
100
AcDbEntity
8
0
100
AcDbLine
62
2
6
CONTINUOUS
10
238.7830658552
20
191.2491466347
11
238.7830658552
21
210.4991466347
0
LINE
5
387
100
AcDbEntity
8
0
100
AcDbLine
62
2
6
CONTINUOUS
10
238.7830658552
20
229.7491466347
11
238.7830658552
21
210.4991466347
0
SOLID
5
388
100
AcDbEntity
8
0
100
AcDbTrace
62
2
6
CONTINUOUS
10
237.9830658552
20
195.7491466347
11
238.7830658552
21
191.2491466347
12
239.5830658552
22
195.7491466347
13
239.5830658552
23
195.7491466347
0
SOLID
5
389
100
AcDbEntity
8
0
100
AcDbTrace
62
2
6
CONTINUOUS
10
239.5830658552
20
225.2491466347
11
238.7830658552
21
229.7491466347
12
237.9830658552
22
225.2491466347
13
237.9830658552
23
225.2491466347
0
ENDBLK
5
38A
100
AcDbEntity
8
0
100
AcDbBlockEnd
0
BLOCK
5
38B
100
AcDbEntity
8
0
100
AcDbBlockBegin
62
2
6
CONTINUOUS
2
*D24
70
65
10
0.0000000000
20
0.0000000000
3
*D24
1

0
TEXT
5
38C
100
AcDbEntity
8
0
100
AcDbText
62
2
6
CONTINUOUS
10
300.3503755075
20
78.3070603358
7
TEXTSTYLE_1
40
3.5000000000
1
=
41
0.4000000000
72
0
100
AcDbText
0
TEXT
5
38D
100
AcDbEntity
8
0
100
AcDbText
62
2
6
CONTINUOUS
10
306.8837088408
20
78.3070603358
7
TEXTSTYLE_1
40
3.5000000000
1
=
41
0.4000000000
72
0
100
AcDbText
0
TEXT
5
38E
100
AcDbEntity
8
0
100
AcDbText
62
2
6
CONTINUOUS
10
301.7503755075
20
78.3070603358
7
TEXTSTYLE_1
40
3.5000000000
1
52
41
0.7333333333
72
0
100
AcDbText
0
LINE
5
38F
100
AcDbEntity
8
0
100
AcDbLine
62
2
6
CONTINUOUS
10
329.9740776838
20
86.8589088779
11
329.9740776838
21
74.2320603358
0
LINE
5
390
100
AcDbEntity
8
0
100
AcDbLine
62
2
6
CONTINUOUS
10
277.9740776838
20
86.8589088779
11
277.9740776838
21
74.2320603358
0
LINE
5
391
100
AcDbEntity
8
0
100
AcDbLine
62
2
6
CONTINUOUS
10
329.9740776838
20
77.4320603358
11
303.9740776838
21
77.4320603358
0
LINE
5
392
100
AcDbEntity
8
0
100
AcDbLine
62
2
6
CONTINUOUS
10
277.9740776838
20
77.4320603358
11
303.9740776838
21
77.4320603358
0
SOLID
5
393
100
AcDbEntity
8
0
100
AcDbTrace
62
2
6
CONTINUOUS
10
325.4740776838
20
76.6320603358
11
329.9740776838
21
77.4320603358
12
325.4740776838
22
78.2320603358
13
325.4740776838
23
78.2320603358
0
SOLID
5
394
100
AcDbEntity
8
0
100
AcDbTrace
62
2
6
CONTINUOUS
10
282.4740776838
20
78.2320603358
11
277.9740776838
21
77.4320603358
12
282.4740776838
22
76.6320603358
13
282.4740776838
23
76.6320603358
0
ENDBLK
5
395
100
AcDbEntity
8
0
100
AcDbBlockEnd
0
BLOCK
5
396
100
AcDbEntity
8
0
100
AcDbBlockBegin
62
2
6
CONTINUOUS
2
*D25
70
65
10
0.0000000000
20
0.0000000000
3
*D25
1

0
TEXT
5
397
100
AcDbEntity
8
0
100
AcDbText
62
2
6
CONTINUOUS
10
348.5027347498
20
71.3318483234
7
TEXTSTYLE_1
40
3.5000000000
1
=
50
90.0000000000
41
0.4000000000
72
0
100
AcDbText
0
TEXT
5
398
100
AcDbEntity
8
0
100
AcDbText
62
2
6
CONTINUOUS
10
348.5027347498
20
84.2235149901
7
TEXTSTYLE_1
40
3.5000000000
1
=
50
90.0000000000
41
0.4000000000
72
0
100
AcDbText
0
TEXT
5
399
100
AcDbEntity
8
0
100
AcDbText
62
2
6
CONTINUOUS
10
348.5027347498
20
72.7318483234
7
TEXTSTYLE_1
40
3.5000000000
1
6
50
90.0000000000
41
0.7333333333
72
0
100
AcDbText
0
TEXT
5
39A
100
AcDbEntity
8
0
100
AcDbText
62
2
6
CONTINUOUS
10
348.5027347498
20
75.2985149901
7
TEXTSTYLE_1
40
3.5000000000
1
%%p0,1
50
90.0000000000
41
0.6375000000
72
0
100
AcDbText
0
LINE
5
39B
100
AcDbEntity
8
0
100
AcDbLine
62
2
6
CONTINUOUS
10
337.9740776838
20
91.5589088779
11
352.5777347498
21
91.5589088779
0
LINE
5
39C
100
AcDbEntity
8
0
100
AcDbLine
62
2
6
CONTINUOUS
10
337.9740776838
20
97.5589088779
11
352.5777347498
21
97.5589088779
0
LINE
5
39D
100
AcDbEntity
8
0
100
AcDbLine
62
2
6
CONTINUOUS
10
349.3777347498
20
91.5589088779
11
349.3777347498
21
71.3318483234
0
LINE
5
39E
100
AcDbEntity
8
0
100
AcDbLine
62
2
6
CONTINUOUS
10
349.3777347498
20
71.3318483234
11
349.3777347498
21
94.5589088779
0
LINE
5
39F
100
AcDbEntity
8
0
100
AcDbLine
62
2
6
CONTINUOUS
10
349.3777347498
20
97.5589088779
11
349.3777347498
21
99.5589088779
0
LINE
5
3A0
100
AcDbEntity
8
0
100
AcDbLine
62
2
6
CONTINUOUS
10
349.3777347498
20
99.5589088779
11
349.3777347498
21
94.5589088779
0
SOLID
5
3A1
100
AcDbEntity
8
0
100
AcDbTrace
62
2
6
CONTINUOUS
10
350.1777347498
20
87.0589088779
11
349.3777347498
21
91.5589088779
12
348.5777347498
22
87.0589088779
13
348.5777347498
23
87.0589088779
0
SOLID
5
3A2
100
AcDbEntity
8
0
100
AcDbTrace
62
2
6
CONTINUOUS
10
348.5777347498
20
102.0589088779
11
349.3777347498
21
97.5589088779
12
350.1777347498
22
102.0589088779
13
350.1777347498
23
102.0589088779
0
ENDBLK
5
3A3
100
AcDbEntity
8
0
100
AcDbBlockEnd
0
BLOCK
5
3A4
100
AcDbEntity
8
0
100
AcDbBlockBegin
62
2
6
CONTINUOUS
2
*D26
70
65
10
0.0000000000
20
0.0000000000
3
*D26
1

0
TEXT
5
3A5
100
AcDbEntity
8
0
100
AcDbText
62
2
6
CONTINUOUS
10
300.3217782006
20
343.9582440928
7
TEXTSTYLE_1
40
3.5000000000
1
=
41
0.4000000000
72
0
100
AcDbText
0
TEXT
5
3A6
100
AcDbEntity
8
0
100
AcDbText
62
2
6
CONTINUOUS
10
306.8551115340
20
343.9582440928
7
TEXTSTYLE_1
40
3.5000000000
1
=
41
0.4000000000
72
0
100
AcDbText
0
TEXT
5
3A7
100
AcDbEntity
8
0
100
AcDbText
62
2
6
CONTINUOUS
10
301.7217782006
20
343.9582440928
7
TEXTSTYLE_1
40
3.5000000000
1
57
41
0.7333333333
72
0
100
AcDbText
0
LINE
5
3A8
100
AcDbEntity
8
0
100
AcDbLine
62
2
6
CONTINUOUS
10
332.4740776838
20
335.5863980370
11
332.4740776838
21
346.2832440928
0
LINE
5
3A9
100
AcDbEntity
8
0
100
AcDbLine
62
2
6
CONTINUOUS
10
275.4740776838
20
335.5863980370
11
275.4740776838
21
346.2832440928
0
LINE
5
3AA
100
AcDbEntity
8
0
100
AcDbLine
62
2
6
CONTINUOUS
10
332.4740776838
20
343.0832440928
11
303.9740776838
21
343.0832440928
0
LINE
5
3AB
100
AcDbEntity
8
0
100
AcDbLine
62
2
6
CONTINUOUS
10
275.4740776838
20
343.0832440928
11
303.9740776838
21
343.0832440928
0
SOLID
5
3AC
100
AcDbEntity
8
0
100
AcDbTrace
62
2
6
CONTINUOUS
10
327.9740776838
20
342.2832440928
11
332.4740776838
21
343.0832440928
12
327.9740776838
22
343.8832440928
13
327.9740776838
23
343.8832440928
0
SOLID
5
3AD
100
AcDbEntity
8
0
100
AcDbTrace
62
2
6
CONTINUOUS
10
279.9740776838
20
343.8832440928
11
275.4740776838
21
343.0832440928
12
279.9740776838
22
342.2832440928
13
279.9740776838
23
342.2832440928
0
ENDBLK
5
3AE
100
AcDbEntity
8
0
100
AcDbBlockEnd
0
BLOCK
5
3AF
100
AcDbEntity
8
0
100
AcDbBlockBegin
62
2
6
CONTINUOUS
2
*D27
70
65
10
0.0000000000
20
0.0000000000
3
*D27
1

0
TEXT
5
3B0
100
AcDbEntity
8
0
100
AcDbText
62
2
6
CONTINUOUS
10
348.5027347498
20
336.7982608039
7
TEXTSTYLE_1
40
3.5000000000
1
=
50
90.0000000000
41
0.4000000000
72
0
100
AcDbText
0
TEXT
5
3B1
100
AcDbEntity
8
0
100
AcDbText
62
2
6
CONTINUOUS
10
348.5027347498
20
349.6899274705
7
TEXTSTYLE_1
40
3.5000000000
1
=
50
90.0000000000
41
0.4000000000
72
0
100
AcDbText
0
TEXT
5
3B2
100
AcDbEntity
8
0
100
AcDbText
62
2
6
CONTINUOUS
10
348.5027347498
20
338.1982608039
7
TEXTSTYLE_1
40
3.5000000000
1
6
50
90.0000000000
41
0.7333333333
72
0
100
AcDbText
0
TEXT
5
3B3
100
AcDbEntity
8
0
100
AcDbText
62
2
6
CONTINUOUS
10
348.5027347498
20
340.7649274705
7
TEXTSTYLE_1
40
3.5000000000
1
%%p0,1
50
90.0000000000
41
0.6375000000
72
0
100
AcDbText
0
LINE
5
3B4
100
AcDbEntity
8
0
100
AcDbLine
62
2
6
CONTINUOUS
10
337.9740776838
20
324.4863980370
11
352.5777347498
21
324.4863980370
0
LINE
5
3B5
100
AcDbEntity
8
0
100
AcDbLine
62
2
6
CONTINUOUS
10
337.9740776838
20
330.4863980370
11
352.5777347498
21
330.4863980370
0
LINE
5
3B6
100
AcDbEntity
8
0
100
AcDbLine
62
2
6
CONTINUOUS
10
349.3777347498
20
324.4863980370
11
349.3777347498
21
322.4863980370
0
LINE
5
3B7
100
AcDbEntity
8
0
100
AcDbLine
62
2
6
CONTINUOUS
10
349.3777347498
20
322.4863980370
11
349.3777347498
21
327.4863980370
0
LINE
5
3B8
100
AcDbEntity
8
0
100
AcDbLine
62
2
6
CONTINUOUS
10
349.3777347498
20
330.4863980370
11
349.3777347498
21
351.0899274705
0
LINE
5
3B9
100
AcDbEntity
8
0
100
AcDbLine
62
2
6
CONTINUOUS
10
349.3777347498
20
351.0899274705
11
349.3777347498
21
327.4863980370
0
SOLID
5
3BA
100
AcDbEntity
8
0
100
AcDbTrace
62
2
6
CONTINUOUS
10
350.1777347498
20
319.9863980370
11
349.3777347498
21
324.4863980370
12
348.5777347498
22
319.9863980370
13
348.5777347498
23
319.9863980370
0
SOLID
5
3BB
100
AcDbEntity
8
0
100
AcDbTrace
62
2
6
CONTINUOUS
10
348.5777347498
20
334.9863980370
11
349.3777347498
21
330.4863980370
12
350.1777347498
22
334.9863980370
13
350.1777347498
23
334.9863980370
0
ENDBLK
5
3BC
100
AcDbEntity
8
0
100
AcDbBlockEnd
0
BLOCK
5
3BD
100
AcDbEntity
8
0
100
AcDbBlockBegin
62
2
6
CONTINUOUS
2
*D28
70
65
10
0.0000000000
20
0.0000000000
3
*D28
1

0
TEXT
5
3BE
100
AcDbEntity
8
0
100
AcDbText
62
2
6
CONTINUOUS
10
84.2336009286
20
194.1063727341
7
TEXTSTYLE_1
40
3.5000000000
1
8
50
90.0000000000
41
0.7333333333
72
0
100
AcDbText
0
LINE
5
3BF
100
AcDbEntity
8
0
100
AcDbLine
62
2
6
CONTINUOUS
10
94.5175167105
20
199.2491466347
11
81.9086009286
21
199.2491466347
0
LINE
5
3C0
100
AcDbEntity
8
0
100
AcDbLine
62
2
6
CONTINUOUS
10
94.5175167105
20
191.2491466347
11
81.9086009286
21
191.2491466347
0
LINE
5
3C1
100
AcDbEntity
8
0
100
AcDbLine
62
2
6
CONTINUOUS
10
85.1086009286
20
199.2491466347
11
85.1086009286
21
201.2491466347
0
LINE
5
3C2
100
AcDbEntity
8
0
100
AcDbLine
62
2
6
CONTINUOUS
10
85.1086009286
20
201.2491466347
11
85.1086009286
21
195.2491466347
0
LINE
5
3C3
100
AcDbEntity
8
0
100
AcDbLine
62
2
6
CONTINUOUS
10
85.1086009286
20
191.2491466347
11
85.1086009286
21
189.2491466347
0
LINE
5
3C4
100
AcDbEntity
8
0
100
AcDbLine
62
2
6
CONTINUOUS
10
85.1086009286
20
189.2491466347
11
85.1086009286
21
195.2491466347
0
SOLID
5
3C5
100
AcDbEntity
8
0
100
AcDbTrace
62
2
6
CONTINUOUS
10
84.3086009286
20
203.7491466347
11
85.1086009286
21
199.2491466347
12
85.9086009286
22
203.7491466347
13
85.9086009286
23
203.7491466347
0
SOLID
5
3C6
100
AcDbEntity
8
0
100
AcDbTrace
62
2
6
CONTINUOUS
10
85.9086009286
20
186.7491466347
11
85.1086009286
21
191.2491466347
12
84.3086009286
22
186.7491466347
13
84.3086009286
23
186.7491466347
0
ENDBLK
5
3C7
100
AcDbEntity
8
0
100
AcDbBlockEnd
0
BLOCK
5
3C8
100
AcDbEntity
8
0
100
AcDbBlockBegin
62
2
6
CONTINUOUS
2
*D29
70
65
10
0.0000000000
20
0.0000000000
3
*D29
1

0
TEXT
5
3C9
100
AcDbEntity
8
0
100
AcDbText
62
2
6
CONTINUOUS
10
75.2768206582
20
194.3065126888
7
TEXTSTYLE_1
40
3.5000000000
1
10
50
90.0000000000
41
0.5333333333
72
0
100
AcDbText
0
LINE
5
3CA
100
AcDbEntity
8
0
100
AcDbLine
62
2
6
CONTINUOUS
10
94.9175167105
20
191.2491466347
11
72.9518206582
21
191.2491466347
0
LINE
5
3CB
100
AcDbEntity
8
0
100
AcDbLine
62
2
6
CONTINUOUS
10
94.9175167105
20
201.2491466347
11
88.6340334809
21
201.2491466347
0
LINE
5
3CC
100
AcDbEntity
8
0
100
AcDbLine
62
2
6
CONTINUOUS
10
81.5225067128
20
201.2491466347
11
72.9518206582
21
201.2491466347
0
LINE
5
3CD
100
AcDbEntity
8
0
100
AcDbLine
62
2
6
CONTINUOUS
10
76.1518206582
20
191.2491466347
11
76.1518206582
21
189.2491466347
0
LINE
5
3CE
100
AcDbEntity
8
0
100
AcDbLine
62
2
6
CONTINUOUS
10
76.1518206582
20
189.2491466347
11
76.1518206582
21
196.2491466347
0
LINE
5
3CF
100
AcDbEntity
8
0
100
AcDbLine
62
2
6
CONTINUOUS
10
76.1518206582
20
201.2491466347
11
76.1518206582
21
203.2491466347
0
LINE
5
3D0
100
AcDbEntity
8
0
100
AcDbLine
62
2
6
CONTINUOUS
10
76.1518206582
20
203.2491466347
11
76.1518206582
21
196.2491466347
0
SOLID
5
3D1
100
AcDbEntity
8
0
100
AcDbTrace
62
2
6
CONTINUOUS
10
76.9518206582
20
186.7491466347
11
76.1518206582
21
191.2491466347
12
75.3518206582
22
186.7491466347
13
75.3518206582
23
186.7491466347
0
SOLID
5
3D2
100
AcDbEntity
8
0
100
AcDbTrace
62
2
6
CONTINUOUS
10
75.3518206582
20
205.7491466347
11
76.1518206582
21
201.2491466347
12
76.9518206582
22
205.7491466347
13
76.9518206582
23
205.7491466347
0
ENDBLK
5
3D3
100
AcDbEntity
8
0
100
AcDbBlockEnd
0
BLOCK
5
3D4
100
AcDbEntity
8
0
100
AcDbBlockBegin
62
2
6
CONTINUOUS
2
*D30
70
65
10
0.0000000000
20
0.0000000000
3
*D30
1

0
TEXT
5
3D5
100
AcDbEntity
8
0
100
AcDbText
62
2
6
CONTINUOUS
10
84.2336009286
20
226.0522702440
7
TEXTSTYLE_1
40
3.5000000000
1
7
50
90.0000000000
41
0.7333333333
72
0
100
AcDbText
0
LINE
5
3D6
100
AcDbEntity
8
0
100
AcDbLine
62
2
6
CONTINUOUS
10
97.5175167105
20
224.2491466347
11
81.9086009286
21
224.2491466347
0
LINE
5
3D7
100
AcDbEntity
8
0
100
AcDbLine
62
2
6
CONTINUOUS
10
97.5175167105
20
231.2491466347
11
81.9086009286
21
231.2491466347
0
LINE
5
3D8
100
AcDbEntity
8
0
100
AcDbLine
62
2
6
CONTINUOUS
10
85.1086009286
20
224.2491466347
11
85.1086009286
21
222.2491466347
0
LINE
5
3D9
100
AcDbEntity
8
0
100
AcDbLine
62
2
6
CONTINUOUS
10
85.1086009286
20
222.2491466347
11
85.1086009286
21
227.7491466347
0
LINE
5
3DA
100
AcDbEntity
8
0
100
AcDbLine
62
2
6
CONTINUOUS
10
85.1086009286
20
231.2491466347
11
85.1086009286
21
233.2491466347
0
LINE
5
3DB
100
AcDbEntity
8
0
100
AcDbLine
62
2
6
CONTINUOUS
10
85.1086009286
20
233.2491466347
11
85.1086009286
21
227.7491466347
0
SOLID
5
3DC
100
AcDbEntity
8
0
100
AcDbTrace
62
2
6
CONTINUOUS
10
85.9086009286
20
219.7491466347
11
85.1086009286
21
224.2491466347
12
84.3086009286
22
219.7491466347
13
84.3086009286
23
219.7491466347
0
SOLID
5
3DD
100
AcDbEntity
8
0
100
AcDbTrace
62
2
6
CONTINUOUS
10
84.3086009286
20
235.7491466347
11
85.1086009286
21
231.2491466347
12
85.9086009286
22
235.7491466347
13
85.9086009286
23
235.7491466347
0
ENDBLK
5
3DE
100
AcDbEntity
8
0
100
AcDbBlockEnd
0
BLOCK
5
3DF
100
AcDbEntity
8
0
100
AcDbBlockBegin
62
2
6
CONTINUOUS
2
*D31
70
65
10
0.0000000000
20
0.0000000000
3
*D31
1

0
TEXT
5
3E0
100
AcDbEntity
8
0
100
AcDbText
62
2
6
CONTINUOUS
10
75.2768206582
20
225.1618819222
7
TEXTSTYLE_1
40
3.5000000000
1
9
50
90.0000000000
41
0.7333333333
72
0
100
AcDbText
0
LINE
5
3E1
100
AcDbEntity
8
0
100
AcDbLine
62
2
6
CONTINUOUS
10
97.8175167105
20
231.2491466347
11
72.9518206582
21
231.2491466347
0
LINE
5
3E2
100
AcDbEntity
8
0
100
AcDbLine
62
2
6
CONTINUOUS
10
97.8175167105
20
222.2491466347
11
88.9392226280
21
222.2491466347
0
LINE
5
3E3
100
AcDbEntity
8
0
100
AcDbLine
62
2
6
CONTINUOUS
10
83.2788968679
20
222.2491466347
11
72.9518206582
21
222.2491466347
0
LINE
5
3E4
100
AcDbEntity
8
0
100
AcDbLine
62
2
6
CONTINUOUS
10
76.1518206582
20
231.2491466347
11
76.1518206582
21
233.2491466347
0
LINE
5
3E5
100
AcDbEntity
8
0
100
AcDbLine
62
2
6
CONTINUOUS
10
76.1518206582
20
233.2491466347
11
76.1518206582
21
226.7491466347
0
LINE
5
3E6
100
AcDbEntity
8
0
100
AcDbLine
62
2
6
CONTINUOUS
10
76.1518206582
20
222.2491466347
11
76.1518206582
21
220.2491466347
0
LINE
5
3E7
100
AcDbEntity
8
0
100
AcDbLine
62
2
6
CONTINUOUS
10
76.1518206582
20
220.2491466347
11
76.1518206582
21
226.7491466347
0
SOLID
5
3E8
100
AcDbEntity
8
0
100
AcDbTrace
62
2
6
CONTINUOUS
10
75.3518206582
20
235.7491466347
11
76.1518206582
21
231.2491466347
12
76.9518206582
22
235.7491466347
13
76.9518206582
23
235.7491466347
0
SOLID
5
3E9
100
AcDbEntity
8
0
100
AcDbTrace
62
2
6
CONTINUOUS
10
76.9518206582
20
217.7491466347
11
76.1518206582
21
222.2491466347
12
75.3518206582
22
217.7491466347
13
75.3518206582
23
217.7491466347
0
ENDBLK
5
3EA
100
AcDbEntity
8
0
100
AcDbBlockEnd
0
BLOCK
5
3EB
100
AcDbEntity
8
0
100
AcDbBlockBegin
62
2
6
CONTINUOUS
2
*D32
70
65
10
0.0000000000
20
0.0000000000
3
*D32
1

0
TEXT
5
3EC
100
AcDbEntity
8
0
100
AcDbText
62
2
6
CONTINUOUS
10
81.9120143002
20
242.7754349959
7
TEXTSTYLE_1
40
3.5000000000
1
2 M
41
0.8222222222
72
0
100
AcDbText
0
TEXT
5
3ED
100
AcDbEntity
8
0
100
AcDbText
62
2
6
CONTINUOUS
10
90.5453476335
20
242.7754349959
7
TEXTSTYLE_1
40
3.5000000000
1
3
41
0.7333333333
72
0
100
AcDbText
0
LINE
5
3EE
100
AcDbEntity
8
0
100
AcDbLine
62
2
6
CONTINUOUS
10
99.0175167105
20
232.7491466347
11
99.0175167105
21
245.1004349959
0
LINE
5
3EF
100
AcDbEntity
8
0
100
AcDbLine
62
2
6
CONTINUOUS
10
102.0175167105
20
232.7491466347
11
102.0175167105
21
245.1004349959
0
LINE
5
3F0
100
AcDbEntity
8
0
100
AcDbLine
62
2
6
CONTINUOUS
10
99.0175167105
20
241.9004349959
11
81.9120143002
21
241.9004349959
0
LINE
5
3F1
100
AcDbEntity
8
0
100
AcDbLine
62
2
6
CONTINUOUS
10
81.9120143002
20
241.9004349959
11
100.5175167105
21
241.9004349959
0
LINE
5
3F2
100
AcDbEntity
8
0
100
AcDbLine
62
2
6
CONTINUOUS
10
102.0175167105
20
241.9004349959
11
104.0175167105
21
241.9004349959
0
LINE
5
3F3
100
AcDbEntity
8
0
100
AcDbLine
62
2
6
CONTINUOUS
10
104.0175167105
20
241.9004349959
11
100.5175167105
21
241.9004349959
0
SOLID
5
3F4
100
AcDbEntity
8
0
100
AcDbTrace
62
2
6
CONTINUOUS
10
94.5175167105
20
241.1004349959
11
99.0175167105
21
241.9004349959
12
94.5175167105
22
242.7004349959
13
94.5175167105
23
242.7004349959
0
SOLID
5
3F5
100
AcDbEntity
8
0
100
AcDbTrace
62
2
6
CONTINUOUS
10
106.5175167105
20
242.7004349959
11
102.0175167105
21
241.9004349959
12
106.5175167105
22
241.1004349959
13
106.5175167105
23
241.1004349959
0
ENDBLK
5
3F6
100
AcDbEntity
8
0
100
AcDbBlockEnd
0
BLOCK
5
3F7
100
AcDbEntity
8
0
100
AcDbBlockBegin
62
2
6
CONTINUOUS
2
*D33
70
65
10
0.0000000000
20
0.0000000000
3
*D33
1

0
TEXT
5
3F8
100
AcDbEntity
8
0
100
AcDbText
62
2
6
CONTINUOUS
10
77.5861505437
20
179.8145756445
7
TEXTSTYLE_1
40
3.5000000000
1
2 M
41
0.8222222222
72
0
100
AcDbText
0
TEXT
5
3F9
100
AcDbEntity
8
0
100
AcDbText
62
2
6
CONTINUOUS
10
86.2194838770
20
179.8145756445
7
TEXTSTYLE_1
40
3.5000000000
1
4
41
0.8000000000
72
0
100
AcDbText
0
LINE
5
3FA
100
AcDbEntity
8
0
100
AcDbLine
62
2
6
CONTINUOUS
10
96.0175167105
20
189.7491466347
11
96.0175167105
21
175.7395756445
0
LINE
5
3FB
100
AcDbEntity
8
0
100
AcDbLine
62
2
6
CONTINUOUS
10
100.0175167105
20
189.7491466347
11
100.0175167105
21
175.7395756445
0
LINE
5
3FC
100
AcDbEntity
8
0
100
AcDbLine
62
2
6
CONTINUOUS
10
96.0175167105
20
178.9395756445
11
77.5861505437
21
178.9395756445
0
LINE
5
3FD
100
AcDbEntity
8
0
100
AcDbLine
62
2
6
CONTINUOUS
10
77.5861505437
20
178.9395756445
11
98.0175167105
21
178.9395756445
0
LINE
5
3FE
100
AcDbEntity
8
0
100
AcDbLine
62
2
6
CONTINUOUS
10
100.0175167105
20
178.9395756445
11
102.0175167105
21
178.9395756445
0
LINE
5
3FF
100
AcDbEntity
8
0
100
AcDbLine
62
2
6
CONTINUOUS
10
102.0175167105
20
178.9395756445
11
98.0175167105
21
178.9395756445
0
SOLID
5
400
100
AcDbEntity
8
0
100
AcDbTrace
62
2
6
CONTINUOUS
10
91.5175167105
20
178.1395756445
11
96.0175167105
21
178.9395756445
12
91.5175167105
22
179.7395756445
13
91.5175167105
23
179.7395756445
0
SOLID
5
401
100
AcDbEntity
8
0
100
AcDbTrace
62
2
6
CONTINUOUS
10
104.5175167105
20
179.7395756445
11
100.0175167105
21
178.9395756445
12
104.5175167105
22
178.1395756445
13
104.5175167105
23
178.1395756445
0
ENDBLK
5
402
100
AcDbEntity
8
0
100
AcDbBlockEnd
0
BLOCK
5
403
100
AcDbEntity
8
0
100
AcDbBlockBegin
62
2
6
CONTINUOUS
2
*D34
70
65
10
0.0000000000
20
0.0000000000
3
*D34
1

0
TEXT
5
404
100
AcDbEntity
8
0
100
AcDbText
62
2
6
CONTINUOUS
10
118.2948136576
20
243.3285404030
7
TEXTSTYLE_1
40
3.5000000000
1
%%c
41
1.3333333333
72
0
100
AcDbText
0
TEXT
5
405
100
AcDbEntity
8
0
100
AcDbText
62
2
6
CONTINUOUS
10
122.9614803243
20
243.3285404030
7
TEXTSTYLE_1
40
3.5000000000
1
6
41
0.7333333333
72
0
100
AcDbText
0
LINE
5
406
100
AcDbEntity
8
0
100
AcDbLine
62
2
6
CONTINUOUS
10
109.0551597580
20
230.3251229270
11
116.2948136576
21
242.4535404030
0
LINE
5
407
100
AcDbEntity
8
0
100
AcDbLine
62
2
6
CONTINUOUS
10
116.2948136576
20
242.4535404030
11
116.2948730576
21
242.4535404030
0
LINE
5
408
100
AcDbEntity
8
0
100
AcDbLine
62
2
6
CONTINUOUS
10
116.2948730576
20
242.4535404030
11
130.7781469910
21
242.4535404030
0
SOLID
5
409
100
AcDbEntity
8
0
100
AcDbTrace
62
2
6
CONTINUOUS
10
110.6746973181
20
234.5991255114
11
109.0551597580
21
230.3251229270
12
112.0485513406
22
233.7790492194
13
112.0485513406
23
233.7790492194
0
ENDBLK
5
40A
100
AcDbEntity
8
0
100
AcDbBlockEnd
0
BLOCK
5
40B
100
AcDbEntity
8
0
100
AcDbBlockBegin
62
2
6
CONTINUOUS
2
*D35
70
65
10
0.0000000000
20
0.0000000000
3
*D35
1

0
TEXT
5
40C
100
AcDbEntity
8
0
100
AcDbText
62
2
6
CONTINUOUS
10
150.8105782049
20
243.4329661221
7
TEXTSTYLE_1
40
3.5000000000
1
2 
41
0.7666666667
72
0
100
AcDbText
0
TEXT
5
40D
100
AcDbEntity
8
0
100
AcDbText
62
2
6
CONTINUOUS
10
156.1772448716
20
243.4329661221
7
TEXTSTYLE_1
40
3.5000000000
1
M
41
0.9333333333
72
0
100
AcDbText
0
TEXT
5
40E
100
AcDbEntity
8
0
100
AcDbText
62
2
6
CONTINUOUS
10
159.4439115383
20
243.4329661221
7
TEXTSTYLE_1
40
3.5000000000
1
3
41
0.7333333333
72
0
100
AcDbText
0
LINE
5
40F
100
AcDbEntity
8
0
100
AcDbLine
62
2
6
CONTINUOUS
10
142.2597093475
20
231.0526611492
11
148.8105782049
21
242.5579661221
0
LINE
5
410
100
AcDbEntity
8
0
100
AcDbLine
62
2
6
CONTINUOUS
10
148.8105782049
20
242.5579661221
11
148.8106376049
21
242.5579661221
0
LINE
5
411
100
AcDbEntity
8
0
100
AcDbLine
62
2
6
CONTINUOUS
10
148.8106376049
20
242.5579661221
11
167.2605782049
21
242.5579661221
0
SOLID
5
412
100
AcDbEntity
8
0
100
AcDbTrace
62
2
6
CONTINUOUS
10
143.7910795177
20
235.3590407658
11
142.2597093475
21
231.0526611492
12
145.1814949998
22
234.5673686195
13
145.1814949998
23
234.5673686195
0
ENDBLK
5
413
100
AcDbEntity
8
0
100
AcDbBlockEnd
0
BLOCK
5
414
100
AcDbEntity
8
0
100
AcDbBlockBegin
62
2
6
CONTINUOUS
2
*D36
70
65
10
0.0000000000
20
0.0000000000
3
*D36
1

0
TEXT
5
415
100
AcDbEntity
8
0
100
AcDbText
62
2
6
CONTINUOUS
10
107.7416147348
20
170.3985944961
7
TEXTSTYLE_1
40
3.5000000000
1
2 
41
0.7666666667
72
0
100
AcDbText
0
TEXT
5
416
100
AcDbEntity
8
0
100
AcDbText
62
2
6
CONTINUOUS
10
113.1082814015
20
170.3985944961
7
TEXTSTYLE_1
40
3.5000000000
1
%%c
41
1.3333333333
72
0
100
AcDbText
0
TEXT
5
417
100
AcDbEntity
8
0
100
AcDbText
62
2
6
CONTINUOUS
10
117.7749480682
20
170.3985944961
7
TEXTSTYLE_1
40
3.5000000000
1
6
41
0.7333333333
72
0
100
AcDbText
0
LINE
5
418
100
AcDbEntity
8
0
100
AcDbLine
62
2
6
CONTINUOUS
10
131.4500126813
20
193.4454998760
11
122.3416147348
21
169.5235944961
0
LINE
5
419
100
AcDbEntity
8
0
100
AcDbLine
62
2
6
CONTINUOUS
10
122.3416147348
20
169.5235944961
11
122.3415553348
21
169.5235944961
0
LINE
5
41A
100
AcDbEntity
8
0
100
AcDbLine
62
2
6
CONTINUOUS
10
122.3415553348
20
169.5235944961
11
102.4916147348
21
169.5235944961
0
SOLID
5
41B
100
AcDbEntity
8
0
100
AcDbTrace
62
2
6
CONTINUOUS
10
130.5963957731
20
188.9553619968
11
131.4500126813
21
193.4454998760
12
129.1011175018
22
189.5246974791
13
129.1011175018
23
189.5246974791
0
ENDBLK
5
41C
100
AcDbEntity
8
0
100
AcDbBlockEnd
0
BLOCK
5
41D
100
AcDbEntity
8
0
100
AcDbBlockBegin
62
2
6
CONTINUOUS
2
*D37
70
65
10
0.0000000000
20
0.0000000000
3
*D37
1

0
TEXT
5
41E
100
AcDbEntity
8
0
100
AcDbText
62
2
6
CONTINUOUS
10
149.1516983781
20
178.9810714990
7
TEXTSTYLE_1
40
3.5000000000
1
2 
41
0.7666666667
72
0
100
AcDbText
0
TEXT
5
41F
100
AcDbEntity
8
0
100
AcDbText
62
2
6
CONTINUOUS
10
154.5183650447
20
178.9810714990
7
TEXTSTYLE_1
40
3.5000000000
1
M
41
0.9333333333
72
0
100
AcDbText
0
TEXT
5
420
100
AcDbEntity
8
0
100
AcDbText
62
2
6
CONTINUOUS
10
157.7850317114
20
178.9810714990
7
TEXTSTYLE_1
40
3.5000000000
1
4
41
0.8000000000
72
0
100
AcDbText
0
LINE
5
421
100
AcDbEntity
8
0
100
AcDbLine
62
2
6
CONTINUOUS
10
142.0534370631
20
190.9894635341
11
147.1516983781
21
178.1060714990
0
LINE
5
422
100
AcDbEntity
8
0
100
AcDbLine
62
2
6
CONTINUOUS
10
147.1516983781
20
178.1060714990
11
147.1517577781
21
178.1060714990
0
LINE
5
423
100
AcDbEntity
8
0
100
AcDbLine
62
2
6
CONTINUOUS
10
147.1517577781
20
178.1060714990
11
165.8350317114
21
178.1060714990
0
SOLID
5
424
100
AcDbEntity
8
0
100
AcDbTrace
62
2
6
CONTINUOUS
10
144.4531310968
20
187.0995446989
11
142.0534370631
21
190.9894635341
12
142.9653846163
22
186.5108084168
13
142.9653846163
23
186.5108084168
0
ENDBLK
5
425
100
AcDbEntity
8
0
100
AcDbBlockEnd
0
BLOCK
5
426
100
AcDbEntity
8
0
100
AcDbBlockBegin
62
2
6
CONTINUOUS
2
*D38
70
65
10
0.0000000000
20
0.0000000000
3
*D38
1

0
TEXT
5
427
100
AcDbEntity
8
0
100
AcDbText
62
2
6
CONTINUOUS
10
158.9333503260
20
205.3605420179
7
TEXTSTYLE_1
40
3.5000000000
1
%%c
41
1.3333333333
72
0
100
AcDbText
0
TEXT
5
428
100
AcDbEntity
8
0
100
AcDbText
62
2
6
CONTINUOUS
10
163.6000169926
20
205.3605420179
7
TEXTSTYLE_1
40
3.5000000000
1
7
41
0.7333333333
72
0
100
AcDbText
0
LINE
5
429
100
AcDbEntity
8
0
100
AcDbLine
62
2
6
CONTINUOUS
10
146.5610695306
20
218.9076871732
11
156.9333503260
21
204.4855420179
0
LINE
5
42A
100
AcDbEntity
8
0
100
AcDbLine
62
2
6
CONTINUOUS
10
156.9333503260
20
204.4855420179
11
156.9334097260
21
204.4855420179
0
LINE
5
42B
100
AcDbEntity
8
0
100
AcDbLine
62
2
6
CONTINUOUS
10
156.9334097260
20
204.4855420179
11
171.4166836593
21
204.4855420179
0
SOLID
5
42C
100
AcDbEntity
8
0
100
AcDbTrace
62
2
6
CONTINUOUS
10
149.8379710333
20
215.7214799386
11
146.5610695306
21
218.9076871732
12
148.5390181366
22
214.7872843638
13
148.5390181366
23
214.7872843638
0
ENDBLK
5
42D
100
AcDbEntity
8
0
100
AcDbBlockEnd
0
BLOCK
5
42E
100
AcDbEntity
8
0
100
AcDbBlockBegin
62
2
6
CONTINUOUS
2
*D39
70
65
10
0.0000000000
20
0.0000000000
3
*D39
1

0
TEXT
5
42F
100
AcDbEntity
8
0
100
AcDbText
62
2
6
CONTINUOUS
10
215.4436229145
20
179.4064805775
7
TEXTSTYLE_1
40
3.5000000000
1
M
41
0.9333333333
72
0
100
AcDbText
0
TEXT
5
430
100
AcDbEntity
8
0
100
AcDbText
62
2
6
CONTINUOUS
10
218.7102895811
20
179.4064805775
7
TEXTSTYLE_1
40
3.5000000000
1
4
41
0.8000000000
72
0
100
AcDbText
0
LINE
5
431
100
AcDbEntity
8
0
100
AcDbLine
62
2
6
CONTINUOUS
10
205.2827444293
20
189.7491466347
11
205.2827444293
21
175.3314805775
0
LINE
5
432
100
AcDbEntity
8
0
100
AcDbLine
62
2
6
CONTINUOUS
10
209.2827444293
20
189.7491466347
11
209.2827444293
21
175.3314805775
0
LINE
5
433
100
AcDbEntity
8
0
100
AcDbLine
62
2
6
CONTINUOUS
10
205.2827444293
20
178.5314805775
11
203.2827444293
21
178.5314805775
0
LINE
5
434
100
AcDbEntity
8
0
100
AcDbLine
62
2
6
CONTINUOUS
10
203.2827444293
20
178.5314805775
11
207.2827444293
21
178.5314805775
0
LINE
5
435
100
AcDbEntity
8
0
100
AcDbLine
62
2
6
CONTINUOUS
10
209.2827444293
20
178.5314805775
11
221.5102895811
21
178.5314805775
0
LINE
5
436
100
AcDbEntity
8
0
100
AcDbLine
62
2
6
CONTINUOUS
10
221.5102895811
20
178.5314805775
11
207.2827444293
21
178.5314805775
0
SOLID
5
437
100
AcDbEntity
8
0
100
AcDbTrace
62
2
6
CONTINUOUS
10
200.7827444293
20
177.7314805775
11
205.2827444293
21
178.5314805775
12
200.7827444293
22
179.3314805775
13
200.7827444293
23
179.3314805775
0
SOLID
5
438
100
AcDbEntity
8
0
100
AcDbTrace
62
2
6
CONTINUOUS
10
213.7827444293
20
179.3314805775
11
209.2827444293
21
178.5314805775
12
213.7827444293
22
177.7314805775
13
213.7827444293
23
177.7314805775
0
ENDBLK
5
439
100
AcDbEntity
8
0
100
AcDbBlockEnd
0
BLOCK
5
43A
100
AcDbEntity
8
0
100
AcDbBlockBegin
62
2
6
CONTINUOUS
2
*D40
70
65
10
0.0000000000
20
0.0000000000
3
*D40
1

0
TEXT
5
43B
100
AcDbEntity
8
0
100
AcDbText
62
2
6
CONTINUOUS
10
91.2371273877
20
104.4250487175
7
TEXTSTYLE_1
40
3.5000000000
1
10 M
41
0.7000000000
72
0
100
AcDbText
0
TEXT
5
43C
100
AcDbEntity
8
0
100
AcDbText
62
2
6
CONTINUOUS
10
101.0371273877
20
104.4250487175
7
TEXTSTYLE_1
40
3.5000000000
1
3
41
0.7333333333
72
0
100
AcDbText
0
LINE
5
43D
100
AcDbEntity
8
0
100
AcDbLine
62
2
6
CONTINUOUS
10
111.2675167105
20
94.1882066102
11
111.2675167105
21
106.7500487175
0
LINE
5
43E
100
AcDbEntity
8
0
100
AcDbLine
62
2
6
CONTINUOUS
10
114.2675167105
20
94.1882066102
11
114.2675167105
21
106.7500487175
0
LINE
5
43F
100
AcDbEntity
8
0
100
AcDbLine
62
2
6
CONTINUOUS
10
111.2675167105
20
103.5500487175
11
91.2371273877
21
103.5500487175
0
LINE
5
440
100
AcDbEntity
8
0
100
AcDbLine
62
2
6
CONTINUOUS
10
91.2371273877
20
103.5500487175
11
112.7675167105
21
103.5500487175
0
LINE
5
441
100
AcDbEntity
8
0
100
AcDbLine
62
2
6
CONTINUOUS
10
114.2675167105
20
103.5500487175
11
116.2675167105
21
103.5500487175
0
LINE
5
442
100
AcDbEntity
8
0
100
AcDbLine
62
2
6
CONTINUOUS
10
116.2675167105
20
103.5500487175
11
112.7675167105
21
103.5500487175
0
SOLID
5
443
100
AcDbEntity
8
0
100
AcDbTrace
62
2
6
CONTINUOUS
10
106.7675167105
20
102.7500487175
11
111.2675167105
21
103.5500487175
12
106.7675167105
22
104.3500487175
13
106.7675167105
23
104.3500487175
0
SOLID
5
444
100
AcDbEntity
8
0
100
AcDbTrace
62
2
6
CONTINUOUS
10
118.7675167105
20
104.3500487175
11
114.2675167105
21
103.5500487175
12
118.7675167105
22
102.7500487175
13
118.7675167105
23
102.7500487175
0
ENDBLK
5
445
100
AcDbEntity
8
0
100
AcDbBlockEnd
0
BLOCK
5
446
100
AcDbEntity
8
0
100
AcDbBlockBegin
62
2
6
CONTINUOUS
2
*D41
70
65
10
0.0000000000
20
0.0000000000
3
*D41
1

0
TEXT
5
447
100
AcDbEntity
8
0
100
AcDbText
62
2
6
CONTINUOUS
10
95.4806125226
20
70.8219784958
7
TEXTSTYLE_1
40
3.5000000000
1
%%c
41
1.3333333333
72
0
100
AcDbText
0
TEXT
5
448
100
AcDbEntity
8
0
100
AcDbText
62
2
6
CONTINUOUS
10
105.2806125226
20
70.8219784958
7
TEXTSTYLE_1
40
3.5000000000
1
 H7
41
0.7777777778
72
0
100
AcDbText
0
TEXT
5
449
100
AcDbEntity
8
0
100
AcDbText
62
2
6
CONTINUOUS
10
100.1472791893
20
70.8219784958
7
TEXTSTYLE_1
40
3.5000000000
1
22
41
0.7333333333
72
0
100
AcDbText
0
LINE
5
44A
100
AcDbEntity
8
0
100
AcDbLine
62
2
6
CONTINUOUS
10
115.5175167105
20
85.1882066102
11
115.5175167105
21
66.7469784958
0
LINE
5
44B
100
AcDbEntity
8
0
100
AcDbLine
62
2
6
CONTINUOUS
10
137.5175167105
20
120.1840236010
11
137.5175167105
21
66.7469784958
0
LINE
5
44C
100
AcDbEntity
8
0
100
AcDbLine
62
2
6
CONTINUOUS
10
115.5175167105
20
69.9469784958
11
126.5175167105
21
69.9469784958
0
LINE
5
44D
100
AcDbEntity
8
0
100
AcDbLine
62
2
6
CONTINUOUS
10
126.5175167105
20
69.9469784958
11
95.4806125226
21
69.9469784958
0
LINE
5
44E
100
AcDbEntity
8
0
100
AcDbLine
62
2
6
CONTINUOUS
10
137.5175167105
20
69.9469784958
11
126.5175167105
21
69.9469784958
0
SOLID
5
44F
100
AcDbEntity
8
0
100
AcDbTrace
62
2
6
CONTINUOUS
10
120.0175167105
20
70.7469784958
11
115.5175167105
21
69.9469784958
12
120.0175167105
22
69.1469784958
13
120.0175167105
23
69.1469784958
0
SOLID
5
450
100
AcDbEntity
8
0
100
AcDbTrace
62
2
6
CONTINUOUS
10
133.0175167105
20
69.1469784958
11
137.5175167105
21
69.9469784958
12
133.0175167105
22
70.7469784958
13
133.0175167105
23
70.7469784958
0
ENDBLK
5
451
100
AcDbEntity
8
0
100
AcDbBlockEnd
0
BLOCK
5
452
100
AcDbEntity
8
0
100
AcDbBlockBegin
62
2
6
CONTINUOUS
2
*D42
70
65
10
0.0000000000
20
0.0000000000
3
*D42
1

0
TEXT
5
453
100
AcDbEntity
8
0
100
AcDbText
62
2
6
CONTINUOUS
10
374.5559235287
20
208.3170534297
7
TEXTSTYLE_1
40
3.5000000000
1
40
50
90.0000000000
41
0.7666666667
72
0
100
AcDbText
0
LINE
5
454
100
AcDbEntity
8
0
100
AcDbLine
62
2
6
CONTINUOUS
10
335.4740776838
20
231.2491466347
11
378.6309235287
21
231.2491466347
0
LINE
5
455
100
AcDbEntity
8
0
100
AcDbLine
62
2
6
CONTINUOUS
10
337.9740776838
20
191.2491466347
11
378.6309235287
21
191.2491466347
0
LINE
5
456
100
AcDbEntity
8
0
100
AcDbLine
62
2
6
CONTINUOUS
10
375.4309235287
20
231.2491466347
11
375.4309235287
21
211.2491466347
0
LINE
5
457
100
AcDbEntity
8
0
100
AcDbLine
62
2
6
CONTINUOUS
10
375.4309235287
20
191.2491466347
11
375.4309235287
21
211.2491466347
0
SOLID
5
458
100
AcDbEntity
8
0
100
AcDbTrace
62
2
6
CONTINUOUS
10
376.2309235287
20
226.7491466347
11
375.4309235287
21
231.2491466347
12
374.6309235287
22
226.7491466347
13
374.6309235287
23
226.7491466347
0
SOLID
5
459
100
AcDbEntity
8
0
100
AcDbTrace
62
2
6
CONTINUOUS
10
374.6309235287
20
195.7491466347
11
375.4309235287
21
191.2491466347
12
376.2309235287
22
195.7491466347
13
376.2309235287
23
195.7491466347
0
ENDBLK
5
45A
100
AcDbEntity
8
0
100
AcDbBlockEnd
0
BLOCK
5
45B
100
AcDbEntity
8
0
100
AcDbBlockBegin
62
2
6
CONTINUOUS
2
*D43
70
65
10
0.0000000000
20
0.0000000000
3
*D43
1

0
TEXT
5
45C
100
AcDbEntity
8
0
100
AcDbText
62
2
6
CONTINUOUS
10
293.0636926255
20
279.1112125373
7
TEXTSTYLE_1
40
3.5000000000
1
18
41
0.5333333333
72
0
100
AcDbText
0
LINE
5
45D
100
AcDbEntity
8
0
100
AcDbLine
62
2
6
CONTINUOUS
10
285.9740776838
20
228.2492466347
11
285.9740776838
21
265.4706157742
0
LINE
5
45E
100
AcDbEntity
8
0
100
AcDbLine
62
2
6
CONTINUOUS
10
285.9740776838
20
272.7799494047
11
285.9740776838
21
281.4362125373
0
LINE
5
45F
100
AcDbEntity
8
0
100
AcDbLine
62
2
6
CONTINUOUS
10
303.9740776838
20
298.6334679223
11
303.9740776838
21
275.0362125373
0
LINE
5
460
100
AcDbEntity
8
0
100
AcDbLine
62
2
6
CONTINUOUS
10
285.9740776838
20
278.2362125373
11
294.9740776838
21
278.2362125373
0
LINE
5
461
100
AcDbEntity
8
0
100
AcDbLine
62
2
6
CONTINUOUS
10
303.9740776838
20
278.2362125373
11
294.9740776838
21
278.2362125373
0
SOLID
5
462
100
AcDbEntity
8
0
100
AcDbTrace
62
2
6
CONTINUOUS
10
290.4740776838
20
279.0362125373
11
285.9740776838
21
278.2362125373
12
290.4740776838
22
277.4362125373
13
290.4740776838
23
277.4362125373
0
SOLID
5
463
100
AcDbEntity
8
0
100
AcDbTrace
62
2
6
CONTINUOUS
10
299.4740776838
20
277.4362125373
11
303.9740776838
21
278.2362125373
12
299.4740776838
22
279.0362125373
13
299.4740776838
23
279.0362125373
0
ENDBLK
5
464
100
AcDbEntity
8
0
100
AcDbBlockEnd
0
BLOCK
5
465
100
AcDbEntity
8
0
100
AcDbBlockBegin
62
2
6
CONTINUOUS
2
*D44
70
65
10
0.0000000000
20
0.0000000000
3
*D44
1

0
TEXT
5
466
100
AcDbEntity
8
0
100
AcDbText
62
2
6
CONTINUOUS
10
521.2445277137
20
274.7871241132
7
TEXTSTYLE_1
40
3.5000000000
1
21,1
50
20.0000000000
41
0.4291666667
72
0
100
AcDbText
0
LINE
5
467
100
AcDbEntity
8
0
100
AcDbLine
62
2
6
CONTINUOUS
10
527.5990679231
20
297.3522982528
11
535.5017671842
21
275.6398104804
0
LINE
5
468
100
AcDbEntity
8
0
100
AcDbLine
62
2
6
CONTINUOUS
10
500.3652874658
20
310.3497338773
11
515.6310291518
21
268.4074533038
0
LINE
5
469
100
AcDbEntity
8
0
100
AcDbLine
62
2
6
CONTINUOUS
10
534.4073027255
20
278.6468268670
11
524.4719337094
21
275.0306482786
0
LINE
5
46A
100
AcDbEntity
8
0
100
AcDbLine
62
2
6
CONTINUOUS
10
514.5365646932
20
271.4144696903
11
524.4719337094
21
275.0306482786
0
SOLID
5
46B
100
AcDbEntity
8
0
100
AcDbTrace
62
2
6
CONTINUOUS
10
530.4523020466
20
276.3559821254
11
534.4073027255
21
278.6468268670
12
529.9050698173
22
277.8594903186
13
529.9050698173
23
277.8594903186
0
SOLID
5
46C
100
AcDbEntity
8
0
100
AcDbTrace
62
2
6
CONTINUOUS
10
518.4915653721
20
273.7053144319
11
514.5365646932
21
271.4144696903
12
519.0387976014
22
272.2018062386
13
519.0387976014
23
272.2018062386
0
ENDBLK
5
46D
100
AcDbEntity
8
0
100
AcDbBlockEnd
0
BLOCK
5
46E
100
AcDbEntity
8
0
100
AcDbBlockBegin
62
2
6
CONTINUOUS
2
*D45
70
65
10
0.0000000000
20
0.0000000000
3
*D45
1

0
TEXT
5
46F
100
AcDbEntity
8
0
100
AcDbText
62
2
6
CONTINUOUS
10
525.2987361427
20
265.8700731870
7
TEXTSTYLE_1
40
3.5000000000
1
25,8
50
20.0000000000
41
0.6291666667
72
0
100
AcDbText
0
LINE
5
470
100
AcDbEntity
8
0
100
AcDbLine
62
2
6
CONTINUOUS
10
536.3733477125
20
286.7614175635
11
543.1859449955
21
268.0439603607
0
LINE
5
471
100
AcDbEntity
8
0
100
AcDbLine
62
2
6
CONTINUOUS
10
502.2903528113
20
305.0606603095
11
518.9711663723
21
259.2305017125
0
LINE
5
472
100
AcDbEntity
8
0
100
AcDbLine
62
2
6
CONTINUOUS
10
542.0914805368
20
271.0509767472
11
529.9840912253
21
266.6442474231
0
LINE
5
473
100
AcDbEntity
8
0
100
AcDbLine
62
2
6
CONTINUOUS
10
517.8767019137
20
262.2375180990
11
529.9840912253
21
266.6442474231
0
SOLID
5
474
100
AcDbEntity
8
0
100
AcDbTrace
62
2
6
CONTINUOUS
10
538.1364798579
20
268.7601320056
11
542.0914805368
21
271.0509767472
12
537.5892476286
22
270.2636401989
13
537.5892476286
23
270.2636401989
0
SOLID
5
475
100
AcDbEntity
8
0
100
AcDbTrace
62
2
6
CONTINUOUS
10
521.8317025926
20
264.5283628406
11
517.8767019137
21
262.2375180990
12
522.3789348219
22
263.0248546474
13
522.3789348219
23
263.0248546474
0
ENDBLK
5
476
100
AcDbEntity
8
0
100
AcDbBlockEnd
0
BLOCK
5
477
100
AcDbEntity
8
0
100
AcDbBlockBegin
62
2
6
CONTINUOUS
2
*D46
70
65
10
0.0000000000
20
0.0000000000
3
*D46
1

0
TEXT
5
478
100
AcDbEntity
8
0
100
AcDbText
62
2
6
CONTINUOUS
10
538.9589225011
20
329.8323146676
7
TEXTSTYLE_1
40
3.5000000000
1
2,1
50
-70.0000000000
41
0.4611111111
72
0
100
AcDbText
0
LINE
5
479
100
AcDbEntity
8
0
100
AcDbLine
62
2
6
CONTINUOUS
10
533.1868615275
20
315.6734982448
11
545.0190608569
21
319.9800666065
0
LINE
5
47A
100
AcDbEntity
8
0
100
AcDbLine
62
2
6
CONTINUOUS
10
503.1868615275
20
306.9832294557
11
544.3027260549
21
321.9481802998
0
LINE
5
47B
100
AcDbEntity
8
0
100
AcDbLine
62
2
6
CONTINUOUS
10
542.0120444704
20
318.8856021479
11
541.6538770694
21
319.8696589945
0
LINE
5
47C
100
AcDbEntity
8
0
100
AcDbLine
62
2
6
CONTINUOUS
10
541.2957096684
20
320.8537158411
11
541.6538770694
21
319.8696589945
0
LINE
5
47D
100
AcDbEntity
8
0
100
AcDbLine
62
2
6
CONTINUOUS
10
541.6538770694
20
319.8696589945
11
538.1366914579
21
329.5330470422
0
SOLID
5
47E
100
AcDbEntity
8
0
100
AcDbTrace
62
2
6
CONTINUOUS
10
539.7211997288
20
322.8406028268
11
542.0120444704
21
318.8856021479
12
541.2247079220
22
323.3878350561
13
541.2247079220
23
323.3878350561
0
SOLID
5
47F
100
AcDbEntity
8
0
100
AcDbTrace
62
2
6
CONTINUOUS
10
543.5865544100
20
316.8987151623
11
541.2957096684
21
320.8537158411
12
542.0830462167
22
316.3514829329
13
542.0830462167
23
316.3514829329
0
ENDBLK
5
480
100
AcDbEntity
8
0
100
AcDbBlockEnd
0
BLOCK
5
481
100
AcDbEntity
8
0
100
AcDbBlockBegin
62
2
6
CONTINUOUS
2
*D47
70
65
10
0.0000000000
20
0.0000000000
3
*D47
1

0
TEXT
5
482
100
AcDbEntity
8
0
100
AcDbText
62
2
6
CONTINUOUS
10
458.4748513902
20
293.5680079437
7
TEXTSTYLE_1
40
3.5000000000
1
8,8
50
-75.0000000000
41
0.5944444444
72
0
100
AcDbText
0
LINE
5
483
100
AcDbEntity
8
0
100
AcDbLine
62
2
6
CONTINUOUS
10
467.8284338569
20
288.3012786250
11
456.4819571949
21
285.2609993664
0
LINE
5
484
100
AcDbEntity
8
0
100
AcDbLine
62
2
6
CONTINUOUS
10
506.8961611757
20
307.8417879042
11
454.2138713713
21
293.7256108957
0
LINE
5
485
100
AcDbEntity
8
0
100
AcDbLine
62
2
6
CONTINUOUS
10
459.5729198390
20
286.0892203108
11
460.0905579292
21
284.1573686582
0
LINE
5
486
100
AcDbEntity
8
0
100
AcDbLine
62
2
6
CONTINUOUS
10
460.0905579292
20
284.1573686582
11
458.4388769272
21
290.3215260754
0
LINE
5
487
100
AcDbEntity
8
0
100
AcDbLine
62
2
6
CONTINUOUS
10
457.3048340155
20
294.5538318401
11
456.7871959253
21
296.4856834926
0
LINE
5
488
100
AcDbEntity
8
0
100
AcDbLine
62
2
6
CONTINUOUS
10
456.7871959253
20
296.4856834926
11
458.4388769272
21
290.3215260754
0
SOLID
5
489
100
AcDbEntity
8
0
100
AcDbTrace
62
2
6
CONTINUOUS
10
461.5103462030
20
281.9496093285
11
459.5729198390
21
286.0892203108
12
459.9648648809
22
281.5354988564
13
459.9648648809
23
281.5354988564
0
SOLID
5
48A
100
AcDbEntity
8
0
100
AcDbTrace
62
2
6
CONTINUOUS
10
455.3674076515
20
298.6934428223
11
457.3048340155
21
294.5538318401
12
456.9128889735
22
299.1075532944
13
456.9128889735
23
299.1075532944
0
ENDBLK
5
48B
100
AcDbEntity
8
0
100
AcDbBlockEnd
0
BLOCK
5
48C
100
AcDbEntity
8
0
100
AcDbBlockBegin
62
2
6
CONTINUOUS
2
*D48
70
65
10
0.0000000000
20
0.0000000000
3
*D48
1

0
TEXT
5
48D
100
AcDbEntity
8
0
100
AcDbText
62
2
6
CONTINUOUS
10
551.6517318588
20
308.0882371292
7
TEXTSTYLE_1
40
3.5000000000
1
10,7
50
90.0000000000
41
0.5291666667
72
0
100
AcDbText
0
LINE
5
48E
100
AcDbEntity
8
0
100
AcDbLine
62
2
6
CONTINUOUS
10
503.2773225964
20
306.4701992407
11
555.7267318588
21
306.4701992407
0
LINE
5
48F
100
AcDbEntity
8
0
100
AcDbLine
62
2
6
CONTINUOUS
10
520.5037252932
20
317.1201992407
11
528.3671730246
21
317.1201992407
0
LINE
5
490
100
AcDbEntity
8
0
100
AcDbLine
62
2
6
CONTINUOUS
10
532.6647360815
20
317.1201992407
11
534.7521238520
21
317.1201992407
0
LINE
5
491
100
AcDbEntity
8
0
100
AcDbLine
62
2
6
CONTINUOUS
10
545.7010380667
20
317.1201992407
11
555.7267318588
21
317.1201992407
0
LINE
5
492
100
AcDbEntity
8
0
100
AcDbLine
62
2
6
CONTINUOUS
10
552.5267318588
20
306.4701992407
11
552.5267318588
21
304.4701992407
0
LINE
5
493
100
AcDbEntity
8
0
100
AcDbLine
62
2
6
CONTINUOUS
10
552.5267318588
20
304.4701992407
11
552.5267318588
21
311.7951992407
0
LINE
5
494
100
AcDbEntity
8
0
100
AcDbLine
62
2
6
CONTINUOUS
10
552.5267318588
20
317.1201992407
11
552.5267318588
21
319.1201992407
0
LINE
5
495
100
AcDbEntity
8
0
100
AcDbLine
62
2
6
CONTINUOUS
10
552.5267318588
20
319.1201992407
11
552.5267318588
21
311.7951992407
0
SOLID
5
496
100
AcDbEntity
8
0
100
AcDbTrace
62
2
6
CONTINUOUS
10
553.3267318588
20
301.9701992407
11
552.5267318588
21
306.4701992407
12
551.7267318588
22
301.9701992407
13
551.7267318588
23
301.9701992407
0
SOLID
5
497
100
AcDbEntity
8
0
100
AcDbTrace
62
2
6
CONTINUOUS
10
551.7267318588
20
321.6201992407
11
552.5267318588
21
317.1201992407
12
553.3267318588
22
321.6201992407
13
553.3267318588
23
321.6201992407
0
ENDBLK
5
498
100
AcDbEntity
8
0
100
AcDbBlockEnd
0
BLOCK
5
499
100
AcDbEntity
8
0
100
AcDbBlockBegin
62
2
6
CONTINUOUS
2
*D49
70
65
10
0.0000000000
20
0.0000000000
3
*D49
1

0
TEXT
5
49A
100
AcDbEntity
8
0
100
AcDbText
62
2
6
CONTINUOUS
10
543.5951201162
20
287.5195444365
7
TEXTSTYLE_1
40
3.5000000000
1
8,8
50
75.0000000000
41
0.5944444444
72
0
100
AcDbText
0
LINE
5
49B
100
AcDbEntity
8
0
100
AcDbLine
62
2
6
CONTINUOUS
10
522.5423681181
20
291.8338787683
11
547.1995844672
21
285.2269975600
0
LINE
5
49C
100
AcDbEntity
8
0
100
AcDbLine
62
2
6
CONTINUOUS
10
497.7714782977
20
307.5435619855
11
518.4778639096
21
301.9953026827
0
LINE
5
49D
100
AcDbEntity
8
0
100
AcDbLine
62
2
6
CONTINUOUS
10
525.5915510722
20
300.0891959522
11
549.4676702907
21
293.6916090893
0
LINE
5
49E
100
AcDbEntity
8
0
100
AcDbLine
62
2
6
CONTINUOUS
10
544.1086218231
20
286.0552185043
11
543.5909837328
21
284.1233668517
0
LINE
5
49F
100
AcDbEntity
8
0
100
AcDbLine
62
2
6
CONTINUOUS
10
543.5909837328
20
284.1233668517
11
545.2426647348
21
290.2875242689
0
LINE
5
4A0
100
AcDbEntity
8
0
100
AcDbLine
62
2
6
CONTINUOUS
10
546.3767076466
20
294.5198300336
11
546.8943457368
21
296.4516816862
0
LINE
5
4A1
100
AcDbEntity
8
0
100
AcDbLine
62
2
6
CONTINUOUS
10
546.8943457368
20
296.4516816862
11
545.2426647348
21
290.2875242689
0
SOLID
5
4A2
100
AcDbEntity
8
0
100
AcDbTrace
62
2
6
CONTINUOUS
10
543.7166767811
20
281.5014970499
11
544.1086218231
21
286.0552185043
12
542.1711954591
22
281.9156075221
13
542.1711954591
23
281.9156075221
0
SOLID
5
4A3
100
AcDbEntity
8
0
100
AcDbTrace
62
2
6
CONTINUOUS
10
546.7686526885
20
299.0735514880
11
546.3767076466
21
294.5198300336
12
548.3141340106
22
298.6594410158
13
548.3141340106
23
298.6594410158
0
ENDBLK
5
4A4
100
AcDbEntity
8
0
100
AcDbBlockEnd
0
BLOCK
5
4A5
100
AcDbEntity
8
0
100
AcDbBlockBegin
62
2
6
CONTINUOUS
2
*D50
70
65
10
0.0000000000
20
0.0000000000
3
*D50
1

0
TEXT
5
4A6
100
AcDbEntity
8
0
100
AcDbText
62
2
6
CONTINUOUS
10
463.9416414832
20
329.3640925063
7
TEXTSTYLE_1
40
3.5000000000
1
13,4
50
45.0000000000
41
0.5458333333
72
0
100
AcDbText
0
LINE
5
4A7
100
AcDbEntity
8
0
100
AcDbLine
62
2
6
CONTINUOUS
10
470.4842284554
20
318.8066916639
11
460.2902112818
21
329.0007088374
0
LINE
5
4A8
100
AcDbEntity
8
0
100
AcDbLine
62
2
6
CONTINUOUS
10
505.0841372224
20
303.1633846147
11
469.7685121407
21
338.4790096963
0
LINE
5
4A9
100
AcDbEntity
8
0
100
AcDbLine
62
2
6
CONTINUOUS
10
462.5529529816
20
326.7379671376
11
461.1387394193
21
325.3237535753
0
LINE
5
4AA
100
AcDbEntity
8
0
100
AcDbLine
62
2
6
CONTINUOUS
10
461.1387394193
20
325.3237535753
11
467.2921034111
21
331.4771175671
0
LINE
5
4AB
100
AcDbEntity
8
0
100
AcDbLine
62
2
6
CONTINUOUS
10
472.0312538405
20
336.2162679965
11
473.4454674029
21
337.6304815589
0
LINE
5
4AC
100
AcDbEntity
8
0
100
AcDbLine
62
2
6
CONTINUOUS
10
473.4454674029
20
337.6304815589
11
467.2921034111
21
331.4771175671
0
SOLID
5
4AD
100
AcDbEntity
8
0
100
AcDbTrace
62
2
6
CONTINUOUS
10
459.9366578912
20
322.9903011974
11
462.5529529816
21
326.7379671376
12
458.8052870413
22
324.1216720472
13
458.8052870413
23
324.1216720472
0
SOLID
5
4AE
100
AcDbEntity
8
0
100
AcDbTrace
62
2
6
CONTINUOUS
10
474.6475489309
20
339.9639339368
11
472.0312538405
21
336.2162679965
12
475.7789197808
22
338.8325630869
13
475.7789197808
23
338.8325630869
0
ENDBLK
5
4AF
100
AcDbEntity
8
0
100
AcDbBlockEnd
0
BLOCK
5
4B0
100
AcDbEntity
8
0
100
AcDbBlockBegin
62
2
6
CONTINUOUS
2
*D51
70
65
10
0.0000000000
20
0.0000000000
3
*D51
1

0
TEXT
5
4B1
100
AcDbEntity
8
0
100
AcDbText
62
2
6
CONTINUOUS
10
443.8180659035
20
291.8432971021
7
TEXTSTYLE_1
40
3.5000000000
1
15%%d
41
0.5777777778
72
0
100
AcDbText
0
LINE
5
4B2
100
AcDbEntity
8
0
100
AcDbLine
62
2
6
CONTINUOUS
10
500.2773225964
20
306.4701992407
11
442.7224538040
21
306.4701992407
0
LINE
5
4B3
100
AcDbEntity
8
0
100
AcDbLine
62
2
6
CONTINUOUS
10
468.2883866736
20
288.4245226108
11
445.8883982363
21
282.4224637985
0
ARC
5
4B4
100
AcDbEntity
8
0
100
AcDbCircle
62
2
6
CONTINUOUS
10
535.6357687135
20
306.4701992407
40
89.7133149095
100
AcDbArc
50
180.0000000000
51
185.9995551012
0
ARC
5
4B5
100
AcDbEntity
8
0
100
AcDbCircle
62
2
6
CONTINUOUS
10
535.6357687135
20
306.4701992407
40
89.7133149095
100
AcDbArc
50
190.5181542977
51
195.0000000000
0
SOLID
5
4B6
100
AcDbEntity
8
0
100
AcDbTrace
62
2
6
CONTINUOUS
10
445.9224538040
20
306.4701992407
11
446.8350498873
21
301.9916762265
12
445.2355530616
22
301.9515526104
13
445.2355530616
23
301.9515526104
0
SOLID
5
4B7
100
AcDbEntity
8
0
100
AcDbTrace
62
2
6
CONTINUOUS
10
448.9793608804
20
283.2506847428
11
447.1463539072
21
287.4375792287
12
448.7017339562
22
287.8128030327
13
448.7017339562
23
287.8128030327
0
ENDBLK
5
4B8
100
AcDbEntity
8
0
100
AcDbBlockEnd
0
BLOCK
5
4B9
100
AcDbEntity
8
0
100
AcDbBlockBegin
62
2
6
CONTINUOUS
2
*D52
70
65
10
0.0000000000
20
0.0000000000
3
*D52
1

0
TEXT
5
4BA
100
AcDbEntity
8
0
100
AcDbText
62
2
6
CONTINUOUS
10
444.6922760913
20
318.5682826408
7
TEXTSTYLE_1
40
3.5000000000
1
45%%d
41
0.7333333333
72
0
100
AcDbText
0
LINE
5
4BB
100
AcDbEntity
8
0
100
AcDbLine
62
2
6
CONTINUOUS
10
471.0050061551
20
318.2859139642
11
454.4162386965
21
334.8746814228
0
LINE
5
4BC
100
AcDbEntity
8
0
100
AcDbLine
62
2
6
CONTINUOUS
10
481.3207208786
20
306.4701992407
11
442.6507169444
21
306.4701992407
0
ARC
5
4BD
100
AcDbEntity
8
0
100
AcDbCircle
62
2
6
CONTINUOUS
10
482.8207208786
20
306.4701992407
40
36.9700039341
100
AcDbArc
50
135.0000000000
51
152.0145361904
0
ARC
5
4BE
100
AcDbEntity
8
0
100
AcDbCircle
62
2
6
CONTINUOUS
10
482.8207208786
20
306.4701992407
40
36.9700039341
100
AcDbArc
50
163.7454740660
51
180.0000000000
0
SOLID
5
4BF
100
AcDbEntity
8
0
100
AcDbTrace
62
2
6
CONTINUOUS
10
456.6789803963
20
332.6119397230
11
454.2954718708
21
328.7120824039
12
453.0973827476
22
329.7725457238
13
453.0973827476
23
329.7725457238
0
SOLID
5
4C0
100
AcDbEntity
8
0
100
AcDbTrace
62
2
6
CONTINUOUS
10
445.8507169444
20
306.4701992407
11
445.3258997109
21
311.0105259769
12
446.9229374591
22
310.9132098380
13
446.9229374591
23
310.9132098380
0
ENDBLK
5
4C1
100
AcDbEntity
8
0
100
AcDbBlockEnd
0
BLOCK
5
4C2
100
AcDbEntity
8
0
100
AcDbBlockBegin
62
2
6
CONTINUOUS
2
*D53
70
65
10
0.0000000000
20
0.0000000000
3
*D53
1

0
TEXT
5
4C3
100
AcDbEntity
8
0
100
AcDbText
62
2
6
CONTINUOUS
10
521.1122366905
20
251.1196982163
7
TEXTSTYLE_1
40
3.5000000000
1
20%%d
41
0.7111111111
72
0
100
AcDbText
0
LINE
5
4C4
100
AcDbEntity
8
0
100
AcDbLine
62
2
6
CONTINUOUS
10
501.7773225964
20
304.9701992407
11
501.7773225964
21
247.6224727378
0
LINE
5
4C5
100
AcDbEntity
8
0
100
AcDbLine
62
2
6
CONTINUOUS
10
536.3447474225
20
286.8399962145
11
547.6732596254
21
255.7151647409
0
ARC
5
4C6
100
AcDbEntity
8
0
100
AcDbCircle
62
2
6
CONTINUOUS
10
501.7773225964
20
381.8132153730
40
130.9907426352
100
AcDbArc
50
270.0000000000
51
277.7149914743
0
ARC
5
4C7
100
AcDbEntity
8
0
100
AcDbCircle
62
2
6
CONTINUOUS
10
501.7773225964
20
381.8132153730
40
130.9907426352
100
AcDbArc
50
282.5896179746
51
290.0000000000
0
SOLID
5
4C8
100
AcDbEntity
8
0
100
AcDbTrace
62
2
6
CONTINUOUS
10
501.7773225964
20
250.8224727378
11
506.2629180148
21
251.6996464616
12
506.2903995216
22
250.0998824894
13
506.2903995216
23
250.0998824894
0
SOLID
5
4C9
100
AcDbEntity
8
0
100
AcDbTrace
62
2
6
CONTINUOUS
10
546.5787951668
20
258.7221811275
11
542.5850305034
21
256.4996051864
12
542.0637031695
22
258.0122908150
13
542.0637031695
23
258.0122908150
0
ENDBLK
5
4CA
100
AcDbEntity
8
0
100
AcDbBlockEnd
0
BLOCK
5
4CB
100
AcDbEntity
8
0
100
AcDbBlockBegin
62
2
6
CONTINUOUS
2
*D54
70
65
10
0.0000000000
20
0.0000000000
3
*D54
1

0
TEXT
5
4CC
100
AcDbEntity
8
0
100
AcDbText
62
2
6
CONTINUOUS
10
556.5086949229
20
293.3573745262
7
TEXTSTYLE_1
40
3.5000000000
1
15%%d
41
0.5777777778
72
0
100
AcDbText
0
LINE
5
4CD
100
AcDbEntity
8
0
100
AcDbLine
62
2
6
CONTINUOUS
10
524.2490225570
20
291.3765820896
11
560.1889938805
21
281.7464957975
0
LINE
5
4CE
100
AcDbEntity
8
0
100
AcDbLine
62
2
6
CONTINUOUS
10
498.2772225964
20
306.4701992407
11
563.4439311884
21
306.4701992407
0
ARC
5
4CF
100
AcDbEntity
8
0
100
AcDbCircle
62
2
6
CONTINUOUS
10
467.9188764792
20
306.4701992407
40
92.3250547092
100
AcDbArc
50
345.0000000000
51
350.7360043512
0
ARC
5
4D0
100
AcDbEntity
8
0
100
AcDbCircle
62
2
6
CONTINUOUS
10
467.9188764792
20
306.4701992407
40
92.3250547092
100
AcDbArc
50
355.1145109449
51
360.0000000000
0
SOLID
5
4D1
100
AcDbEntity
8
0
100
AcDbTrace
62
2
6
CONTINUOUS
10
557.0980312364
20
282.5747167418
11
557.3788947907
21
287.1366369147
12
558.9340082371
22
286.7603097049
13
558.9340082371
23
286.7603097049
0
SOLID
5
4D2
100
AcDbEntity
8
0
100
AcDbTrace
62
2
6
CONTINUOUS
10
560.2439311884
20
306.4701992407
11
560.9340376160
21
301.9520410852
12
559.3345127262
22
301.9910298913
13
559.3345127262
23
301.9910298913
0
ENDBLK
5
4D3
100
AcDbEntity
8
0
100
AcDbBlockEnd
0
BLOCK
5
4D4
100
AcDbEntity
8
0
100
AcDbBlockBegin
62
2
6
CONTINUOUS
2
*D55
70
65
10
0.0000000000
20
0.0000000000
3
*D55
1

0
TEXT
5
4D5
100
AcDbEntity
8
0
100
AcDbText
62
2
6
CONTINUOUS
10
499.1177205381
20
317.0778695718
7
TEXTSTYLE_1
40
3.5000000000
1
3
50
-3.2548985625
41
0.7333333333
72
0
100
AcDbText
0
TEXT
5
4D6
100
AcDbEntity
8
0
100
AcDbText
62
2
6
CONTINUOUS
10
501.6802467092
20
316.9321389974
7
TEXTSTYLE_1
40
3.5000000000
1
R
50
-3.2548985625
41
0.7666666667
72
0
100
AcDbText
0
TEXT
5
4D7
100
AcDbEntity
8
0
100
AcDbText
62
2
6
CONTINUOUS
10
504.3592513426
20
316.7797843059
7
TEXTSTYLE_1
40
3.5000000000
1
2
50
-3.2548985625
41
0.7333333333
72
0
100
AcDbText
0
LINE
5
4D8
100
AcDbEntity
8
0
100
AcDbLine
62
2
6
CONTINUOUS
10
516.1337596505
20
315.2337555325
11
499.0680396604
21
316.2042811044
0
SOLID
5
4D9
100
AcDbEntity
8
0
100
AcDbTrace
62
2
6
CONTINUOUS
10
511.5955964442
20
314.6905477331
11
516.1337596505
21
315.2337555325
12
511.6864414776
22
316.2879666449
13
511.6864414776
23
316.2879666449
0
ENDBLK
5
4DA
100
AcDbEntity
8
0
100
AcDbBlockEnd
0
BLOCK
5
4DB
100
AcDbEntity
8
0
100
AcDbBlockBegin
62
2
6
CONTINUOUS
2
*D56
70
65
10
0.0000000000
20
0.0000000000
3
*D56
1

0
TEXT
5
4DC
100
AcDbEntity
8
0
100
AcDbText
62
2
6
CONTINUOUS
10
518.9484093773
20
301.4060305514
7
TEXTSTYLE_1
40
3.5000000000
1
R
50
-42.6239982277
41
0.7666666667
72
0
100
AcDbText
0
TEXT
5
4DD
100
AcDbEntity
8
0
100
AcDbText
62
2
6
CONTINUOUS
10
520.9228423075
20
299.5889195526
7
TEXTSTYLE_1
40
3.5000000000
1
5
50
-42.6239982277
41
0.7333333333
72
0
100
AcDbText
0
LINE
5
4DE
100
AcDbEntity
8
0
100
AcDbLine
62
2
6
CONTINUOUS
10
526.0666421760
20
293.6658153516
11
518.3558731820
21
300.7621937264
0
SOLID
5
4DF
100
AcDbEntity
8
0
100
AcDbTrace
62
2
6
CONTINUOUS
10
522.2137339829
20
296.1244935443
11
526.0666421760
21
293.6658153516
12
523.2972287399
22
297.3017951673
13
523.2972287399
23
297.3017951673
0
ENDBLK
5
4E0
100
AcDbEntity
8
0
100
AcDbBlockEnd
0
BLOCK
5
4E1
100
AcDbEntity
8
0
100
AcDbBlockBegin
62
2
6
CONTINUOUS
2
*D57
70
65
10
0.0000000000
20
0.0000000000
3
*D57
1

0
TEXT
5
4E2
100
AcDbEntity
8
0
100
AcDbText
62
2
6
CONTINUOUS
10
474.7244269651
20
295.2301031784
7
TEXTSTYLE_1
40
3.5000000000
1
2
50
5.3015904753
41
0.7333333333
72
0
100
AcDbText
0
TEXT
5
4E3
100
AcDbEntity
8
0
100
AcDbText
62
2
6
CONTINUOUS
10
477.2801137748
20
295.4672586297
7
TEXTSTYLE_1
40
3.5000000000
1
R
50
5.3015904753
41
0.7666666667
72
0
100
AcDbText
0
TEXT
5
4E4
100
AcDbEntity
8
0
100
AcDbText
62
2
6
CONTINUOUS
10
479.9519681669
20
295.7151938742
7
TEXTSTYLE_1
40
3.5000000000
1
2
50
5.3015904753
41
0.7333333333
72
0
100
AcDbText
0
LINE
5
4E5
100
AcDbEntity
8
0
100
AcDbLine
62
2
6
CONTINUOUS
10
488.8865165112
20
295.6655177995
11
474.8052754143
21
294.3588463115
0
SOLID
5
4E6
100
AcDbEntity
8
0
100
AcDbTrace
62
2
6
CONTINUOUS
10
484.4796854918
20
294.4531480676
11
488.8865165112
21
295.6655177995
12
484.3318483274
22
296.0463034815
13
484.3318483274
23
296.0463034815
0
ENDBLK
5
4E7
100
AcDbEntity
8
0
100
AcDbBlockEnd
0
BLOCK
5
4E8
100
AcDbEntity
8
0
100
AcDbBlockBegin
62
2
6
CONTINUOUS
2
*D58
70
65
10
0.0000000000
20
0.0000000000
3
*D58
1

0
TEXT
5
4E9
100
AcDbEntity
8
0
100
AcDbText
62
2
6
CONTINUOUS
10
469.2754298540
20
299.8536097561
7
TEXTSTYLE_1
40
3.5000000000
1
R
50
50.5836893013
41
0.7666666667
72
0
100
AcDbText
0
TEXT
5
4EA
100
AcDbEntity
8
0
100
AcDbText
62
2
6
CONTINUOUS
10
470.9792136037
20
301.9266265703
7
TEXTSTYLE_1
40
3.5000000000
1
7,5
50
50.5836893013
41
0.5944444444
72
0
100
AcDbText
0
LINE
5
4EB
100
AcDbEntity
8
0
100
AcDbLine
62
2
6
CONTINUOUS
10
479.0151941035
20
310.3260528655
11
469.9514135978
21
299.2980280986
0
SOLID
5
4EC
100
AcDbEntity
8
0
100
AcDbTrace
62
2
6
CONTINUOUS
10
476.7759592878
20
306.3416046678
11
479.0151941035
21
310.3260528655
12
475.5398747277
22
307.3575254129
13
475.5398747277
23
307.3575254129
0
ENDBLK
5
4ED
100
AcDbEntity
8
0
100
AcDbBlockEnd
0
BLOCK
5
4EE
100
AcDbEntity
8
0
100
AcDbBlockBegin
62
2
6
CONTINUOUS
2
*D59
70
65
10
0.0000000000
20
0.0000000000
3
*D59
1

0
TEXT
5
4EF
100
AcDbEntity
8
0
100
AcDbText
62
2
6
CONTINUOUS
10
475.2223923856
20
271.7200417618
7
TEXTSTYLE_1
40
3.5000000000
1
R
50
53.7605130674
41
0.7666666667
72
0
100
AcDbText
0
TEXT
5
4F0
100
AcDbEntity
8
0
100
AcDbText
62
2
6
CONTINUOUS
10
476.8086761888
20
273.8842925498
7
TEXTSTYLE_1
40
3.5000000000
1
16,5
50
53.7605130674
41
0.5291666667
72
0
100
AcDbText
0
LINE
5
4F1
100
AcDbEntity
8
0
100
AcDbLine
62
2
6
CONTINUOUS
10
492.0231551108
20
293.1620732771
11
475.9281263382
21
271.2027753042
0
SOLID
5
4F2
100
AcDbEntity
8
0
100
AcDbTrace
62
2
6
CONTINUOUS
10
490.0081700857
20
289.0596550453
11
492.0231551108
21
293.1620732771
12
488.7176851437
22
290.0055137106
13
488.7176851437
23
290.0055137106
0
ENDBLK
5
4F3
100
AcDbEntity
8
0
100
AcDbBlockEnd
0
BLOCK
5
4F4
100
AcDbEntity
8
0
100
AcDbBlockBegin
62
2
6
CONTINUOUS
2
*D60
70
65
10
0.0000000000
20
0.0000000000
3
*D60
1

0
TEXT
5
4F5
100
AcDbEntity
8
0
100
AcDbText
62
2
6
CONTINUOUS
10
498.0012189392
20
122.8328663020
7
TEXTSTYLE_1
40
3.5000000000
1
=
41
0.4000000000
72
0
100
AcDbText
0
TEXT
5
4F6
100
AcDbEntity
8
0
100
AcDbText
62
2
6
CONTINUOUS
10
508.2095522725
20
122.8328663020
7
TEXTSTYLE_1
40
3.5000000000
1
=
41
0.4000000000
72
0
100
AcDbText
0
TEXT
5
4F7
100
AcDbEntity
8
0
100
AcDbText
62
2
6
CONTINUOUS
10
499.4012189392
20
122.8328663020
7
TEXTSTYLE_1
40
3.5000000000
1
22,5
41
0.6291666667
72
0
100
AcDbText
0
LINE
5
4F8
100
AcDbEntity
8
0
100
AcDbLine
62
2
6
CONTINUOUS
10
492.4950032907
20
139.2640331281
11
492.4950032907
21
118.7578663020
0
LINE
5
4F9
100
AcDbEntity
8
0
100
AcDbLine
62
2
6
CONTINUOUS
10
515.0216845086
20
139.2640331281
11
515.0216845086
21
118.7578663020
0
LINE
5
4FA
100
AcDbEntity
8
0
100
AcDbLine
62
2
6
CONTINUOUS
10
492.4950032907
20
121.9578663020
11
503.7583438997
21
121.9578663020
0
LINE
5
4FB
100
AcDbEntity
8
0
100
AcDbLine
62
2
6
CONTINUOUS
10
515.0216845086
20
121.9578663020
11
503.7583438997
21
121.9578663020
0
SOLID
5
4FC
100
AcDbEntity
8
0
100
AcDbTrace
62
2
6
CONTINUOUS
10
496.9950032907
20
122.7578663020
11
492.4950032907
21
121.9578663020
12
496.9950032907
22
121.1578663020
13
496.9950032907
23
121.1578663020
0
SOLID
5
4FD
100
AcDbEntity
8
0
100
AcDbTrace
62
2
6
CONTINUOUS
10
510.5216845086
20
121.1578663020
11
515.0216845086
21
121.9578663020
12
510.5216845086
22
122.7578663020
13
510.5216845086
23
122.7578663020
0
ENDBLK
5
4FE
100
AcDbEntity
8
0
100
AcDbBlockEnd
0
BLOCK
5
4FF
100
AcDbEntity
8
0
100
AcDbBlockBegin
62
2
6
CONTINUOUS
2
*D61
70
65
10
0.0000000000
20
0.0000000000
3
*D61
1

0
TEXT
5
500
100
AcDbEntity
8
0
100
AcDbText
62
2
6
CONTINUOUS
10
498.0012189392
20
114.9894117185
7
TEXTSTYLE_1
40
3.5000000000
1
=
41
0.4000000000
72
0
100
AcDbText
0
TEXT
5
501
100
AcDbEntity
8
0
100
AcDbText
62
2
6
CONTINUOUS
10
508.2095522725
20
114.9894117185
7
TEXTSTYLE_1
40
3.5000000000
1
=
41
0.4000000000
72
0
100
AcDbText
0
TEXT
5
502
100
AcDbEntity
8
0
100
AcDbText
62
2
6
CONTINUOUS
10
499.4012189392
20
114.9894117185
7
TEXTSTYLE_1
40
3.5000000000
1
26,2
41
0.6291666667
72
0
100
AcDbText
0
LINE
5
503
100
AcDbEntity
8
0
100
AcDbLine
62
2
6
CONTINUOUS
10
490.6447358269
20
143.0160043848
11
490.6447358269
21
110.9144117185
0
LINE
5
504
100
AcDbEntity
8
0
100
AcDbLine
62
2
6
CONTINUOUS
10
516.8719519724
20
143.0160043848
11
516.8719519724
21
110.9144117185
0
LINE
5
505
100
AcDbEntity
8
0
100
AcDbLine
62
2
6
CONTINUOUS
10
490.6447358269
20
114.1144117185
11
503.7583438997
21
114.1144117185
0
LINE
5
506
100
AcDbEntity
8
0
100
AcDbLine
62
2
6
CONTINUOUS
10
516.8719519724
20
114.1144117185
11
503.7583438997
21
114.1144117185
0
SOLID
5
507
100
AcDbEntity
8
0
100
AcDbTrace
62
2
6
CONTINUOUS
10
495.1447358269
20
114.9144117185
11
490.6447358269
21
114.1144117185
12
495.1447358269
22
113.3144117185
13
495.1447358269
23
113.3144117185
0
SOLID
5
508
100
AcDbEntity
8
0
100
AcDbTrace
62
2
6
CONTINUOUS
10
512.3719519724
20
113.3144117185
11
516.8719519724
21
114.1144117185
12
512.3719519724
22
114.9144117185
13
512.3719519724
23
114.9144117185
0
ENDBLK
5
509
100
AcDbEntity
8
0
100
AcDbBlockEnd
0
BLOCK
5
50A
100
AcDbEntity
8
0
100
AcDbBlockBegin
62
2
6
CONTINUOUS
2
*D62
70
65
10
0.0000000000
20
0.0000000000
3
*D62
1

0
TEXT
5
50B
100
AcDbEntity
8
0
100
AcDbText
62
2
6
CONTINUOUS
10
498.1237729170
20
107.3910650907
7
TEXTSTYLE_1
40
3.5000000000
1
=
41
0.4000000000
72
0
100
AcDbText
0
TEXT
5
50C
100
AcDbEntity
8
0
100
AcDbText
62
2
6
CONTINUOUS
10
508.3321062504
20
107.3910650907
7
TEXTSTYLE_1
40
3.5000000000
1
=
41
0.4000000000
72
0
100
AcDbText
0
TEXT
5
50D
100
AcDbEntity
8
0
100
AcDbText
62
2
6
CONTINUOUS
10
499.5237729170
20
107.3910650907
7
TEXTSTYLE_1
40
3.5000000000
1
27,5
41
0.6291666667
72
0
100
AcDbText
0
LINE
5
50E
100
AcDbEntity
8
0
100
AcDbLine
62
2
6
CONTINUOUS
10
490.0083438997
20
147.1507091280
11
490.0083438997
21
103.3160650907
0
LINE
5
50F
100
AcDbEntity
8
0
100
AcDbLine
62
2
6
CONTINUOUS
10
517.5083438997
20
147.1507091280
11
517.5083438997
21
103.3160650907
0
LINE
5
510
100
AcDbEntity
8
0
100
AcDbLine
62
2
6
CONTINUOUS
10
490.0083438997
20
106.5160650907
11
503.7583438997
21
106.5160650907
0
LINE
5
511
100
AcDbEntity
8
0
100
AcDbLine
62
2
6
CONTINUOUS
10
517.5083438997
20
106.5160650907
11
503.7583438997
21
106.5160650907
0
SOLID
5
512
100
AcDbEntity
8
0
100
AcDbTrace
62
2
6
CONTINUOUS
10
494.5083438997
20
107.3160650907
11
490.0083438997
21
106.5160650907
12
494.5083438997
22
105.7160650907
13
494.5083438997
23
105.7160650907
0
SOLID
5
513
100
AcDbEntity
8
0
100
AcDbTrace
62
2
6
CONTINUOUS
10
513.0083438997
20
105.7160650907
11
517.5083438997
21
106.5160650907
12
513.0083438997
22
107.3160650907
13
513.0083438997
23
107.3160650907
0
ENDBLK
5
514
100
AcDbEntity
8
0
100
AcDbBlockEnd
0
BLOCK
5
515
100
AcDbEntity
8
0
100
AcDbBlockBegin
62
2
6
CONTINUOUS
2
*D63
70
65
10
0.0000000000
20
0.0000000000
3
*D63
1

0
TEXT
5
516
100
AcDbEntity
8
0
100
AcDbText
62
2
6
CONTINUOUS
10
498.2463268949
20
190.7277700407
7
TEXTSTYLE_1
40
3.5000000000
1
=
41
0.4000000000
72
0
100
AcDbText
0
TEXT
5
517
100
AcDbEntity
8
0
100
AcDbText
62
2
6
CONTINUOUS
10
508.4546602282
20
190.7277700407
7
TEXTSTYLE_1
40
3.5000000000
1
=
41
0.4000000000
72
0
100
AcDbText
0
TEXT
5
518
100
AcDbEntity
8
0
100
AcDbText
62
2
6
CONTINUOUS
10
499.6463268949
20
190.7277700407
7
TEXTSTYLE_1
40
3.5000000000
1
26,2
41
0.6291666667
72
0
100
AcDbText
0
LINE
5
519
100
AcDbEntity
8
0
100
AcDbLine
62
2
6
CONTINUOUS
10
490.6447358269
20
166.6854138711
11
490.6447358269
21
193.0527700407
0
LINE
5
51A
100
AcDbEntity
8
0
100
AcDbLine
62
2
6
CONTINUOUS
10
516.8719519724
20
166.6854138711
11
516.8719519724
21
193.0527700407
0
LINE
5
51B
100
AcDbEntity
8
0
100
AcDbLine
62
2
6
CONTINUOUS
10
490.6447358269
20
189.8527700407
11
503.7583438997
21
189.8527700407
0
LINE
5
51C
100
AcDbEntity
8
0
100
AcDbLine
62
2
6
CONTINUOUS
10
516.8719519724
20
189.8527700407
11
503.7583438997
21
189.8527700407
0
SOLID
5
51D
100
AcDbEntity
8
0
100
AcDbTrace
62
2
6
CONTINUOUS
10
495.1447358269
20
190.6527700407
11
490.6447358269
21
189.8527700407
12
495.1447358269
22
189.0527700407
13
495.1447358269
23
189.0527700407
0
SOLID
5
51E
100
AcDbEntity
8
0
100
AcDbTrace
62
2
6
CONTINUOUS
10
512.3719519724
20
189.0527700407
11
516.8719519724
21
189.8527700407
12
512.3719519724
22
190.6527700407
13
512.3719519724
23
190.6527700407
0
ENDBLK
5
51F
100
AcDbEntity
8
0
100
AcDbBlockEnd
0
BLOCK
5
520
100
AcDbEntity
8
0
100
AcDbBlockBegin
62
2
6
CONTINUOUS
2
*D64
70
65
10
0.0000000000
20
0.0000000000
3
*D64
1

0
TEXT
5
521
100
AcDbEntity
8
0
100
AcDbText
62
2
6
CONTINUOUS
10
497.8786649613
20
182.8843154572
7
TEXTSTYLE_1
40
3.5000000000
1
=
41
0.4000000000
72
0
100
AcDbText
0
TEXT
5
522
100
AcDbEntity
8
0
100
AcDbText
62
2
6
CONTINUOUS
10
508.0869982946
20
182.8843154572
7
TEXTSTYLE_1
40
3.5000000000
1
=
41
0.4000000000
72
0
100
AcDbText
0
TEXT
5
523
100
AcDbEntity
8
0
100
AcDbText
62
2
6
CONTINUOUS
10
499.2786649613
20
182.8843154572
7
TEXTSTYLE_1
40
3.5000000000
1
22,5
41
0.6291666667
72
0
100
AcDbText
0
LINE
5
524
100
AcDbEntity
8
0
100
AcDbLine
62
2
6
CONTINUOUS
10
515.0216845086
20
170.4373851278
11
515.0216845086
21
185.2093154572
0
LINE
5
525
100
AcDbEntity
8
0
100
AcDbLine
62
2
6
CONTINUOUS
10
492.4950032907
20
170.4373851278
11
492.4950032907
21
185.2093154572
0
LINE
5
526
100
AcDbEntity
8
0
100
AcDbLine
62
2
6
CONTINUOUS
10
515.0216845086
20
182.0093154572
11
503.7583438997
21
182.0093154572
0
LINE
5
527
100
AcDbEntity
8
0
100
AcDbLine
62
2
6
CONTINUOUS
10
492.4950032907
20
182.0093154572
11
503.7583438997
21
182.0093154572
0
SOLID
5
528
100
AcDbEntity
8
0
100
AcDbTrace
62
2
6
CONTINUOUS
10
510.5216845086
20
181.2093154572
11
515.0216845086
21
182.0093154572
12
510.5216845086
22
182.8093154572
13
510.5216845086
23
182.8093154572
0
SOLID
5
529
100
AcDbEntity
8
0
100
AcDbTrace
62
2
6
CONTINUOUS
10
496.9950032907
20
182.8093154572
11
492.4950032907
21
182.0093154572
12
496.9950032907
22
181.2093154572
13
496.9950032907
23
181.2093154572
0
ENDBLK
5
52A
100
AcDbEntity
8
0
100
AcDbBlockEnd
0
BLOCK
5
52B
100
AcDbEntity
8
0
100
AcDbBlockBegin
62
2
6
CONTINUOUS
2
*D65
70
65
10
0.0000000000
20
0.0000000000
3
*D65
1

0
TEXT
5
52C
100
AcDbEntity
8
0
100
AcDbText
62
2
6
CONTINUOUS
10
462.6020554612
20
165.5665108385
7
TEXTSTYLE_1
40
3.5000000000
1
=
50
90.0000000000
41
0.4000000000
72
0
100
AcDbText
0
TEXT
5
52D
100
AcDbEntity
8
0
100
AcDbText
62
2
6
CONTINUOUS
10
462.6020554612
20
173.2081775051
7
TEXTSTYLE_1
40
3.5000000000
1
=
50
90.0000000000
41
0.4000000000
72
0
100
AcDbText
0
TEXT
5
52E
100
AcDbEntity
8
0
100
AcDbText
62
2
6
CONTINUOUS
10
462.6020554612
20
166.9665108385
7
TEXTSTYLE_1
40
3.5000000000
1
8,3
50
90.0000000000
41
0.5944444444
72
0
100
AcDbText
0
LINE
5
52F
100
AcDbEntity
8
0
100
AcDbLine
62
2
6
CONTINUOUS
10
482.9447358269
20
150.7160043848
11
460.2770554612
21
150.7160043848
0
LINE
5
530
100
AcDbEntity
8
0
100
AcDbLine
62
2
6
CONTINUOUS
10
482.9447358269
20
158.9854138711
11
460.2770554612
21
158.9854138711
0
LINE
5
531
100
AcDbEntity
8
0
100
AcDbLine
62
2
6
CONTINUOUS
10
463.4770554612
20
150.7160043848
11
463.4770554612
21
148.7160043848
0
LINE
5
532
100
AcDbEntity
8
0
100
AcDbLine
62
2
6
CONTINUOUS
10
463.4770554612
20
148.7160043848
11
463.4770554612
21
154.8507091280
0
LINE
5
533
100
AcDbEntity
8
0
100
AcDbLine
62
2
6
CONTINUOUS
10
463.4770554612
20
158.9854138711
11
463.4770554612
21
174.6081775051
0
LINE
5
534
100
AcDbEntity
8
0
100
AcDbLine
62
2
6
CONTINUOUS
10
463.4770554612
20
174.6081775051
11
463.4770554612
21
154.8507091280
0
SOLID
5
535
100
AcDbEntity
8
0
100
AcDbTrace
62
2
6
CONTINUOUS
10
464.2770554612
20
146.2160043848
11
463.4770554612
21
150.7160043848
12
462.6770554612
22
146.2160043848
13
462.6770554612
23
146.2160043848
0
SOLID
5
536
100
AcDbEntity
8
0
100
AcDbTrace
62
2
6
CONTINUOUS
10
462.6770554612
20
163.4854138711
11
463.4770554612
21
158.9854138711
12
464.2770554612
22
163.4854138711
13
464.2770554612
23
163.4854138711
0
ENDBLK
5
537
100
AcDbEntity
8
0
100
AcDbBlockEnd
0
BLOCK
5
538
100
AcDbEntity
8
0
100
AcDbBlockBegin
62
2
6
CONTINUOUS
2
*D66
70
65
10
0.0000000000
20
0.0000000000
3
*D66
1

0
TEXT
5
539
100
AcDbEntity
8
0
100
AcDbText
62
2
6
CONTINUOUS
10
546.4312278054
20
165.2267545648
7
TEXTSTYLE_1
40
3.5000000000
1
=
50
90.0000000000
41
0.4000000000
72
0
100
AcDbText
0
TEXT
5
53A
100
AcDbEntity
8
0
100
AcDbText
62
2
6
CONTINUOUS
10
546.4312278054
20
174.0350878981
7
TEXTSTYLE_1
40
3.5000000000
1
=
50
90.0000000000
41
0.4000000000
72
0
100
AcDbText
0
TEXT
5
53B
100
AcDbEntity
8
0
100
AcDbText
62
2
6
CONTINUOUS
10
546.4312278054
20
166.6267545648
7
TEXTSTYLE_1
40
3.5000000000
1
15,8
50
90.0000000000
41
0.5291666667
72
0
100
AcDbText
0
LINE
5
53C
100
AcDbEntity
8
0
100
AcDbLine
62
2
6
CONTINUOUS
10
522.7216845086
20
162.7373851278
11
550.5062278054
21
162.7373851278
0
LINE
5
53D
100
AcDbEntity
8
0
100
AcDbLine
62
2
6
CONTINUOUS
10
522.7216845086
20
146.9640331281
11
550.5062278054
21
146.9640331281
0
LINE
5
53E
100
AcDbEntity
8
0
100
AcDbLine
62
2
6
CONTINUOUS
10
547.3062278054
20
162.7373851278
11
547.3062278054
21
154.8507091280
0
LINE
5
53F
100
AcDbEntity
8
0
100
AcDbLine
62
2
6
CONTINUOUS
10
547.3062278054
20
154.8507091280
11
547.3062278054
21
175.4350878981
0
LINE
5
540
100
AcDbEntity
8
0
100
AcDbLine
62
2
6
CONTINUOUS
10
547.3062278054
20
146.9640331281
11
547.3062278054
21
154.8507091280
0
SOLID
5
541
100
AcDbEntity
8
0
100
AcDbTrace
62
2
6
CONTINUOUS
10
548.1062278054
20
158.2373851278
11
547.3062278054
21
162.7373851278
12
546.5062278054
22
158.2373851278
13
546.5062278054
23
158.2373851278
0
SOLID
5
542
100
AcDbEntity
8
0
100
AcDbTrace
62
2
6
CONTINUOUS
10
546.5062278054
20
151.4640331281
11
547.3062278054
21
146.9640331281
12
548.1062278054
22
151.4640331281
13
548.1062278054
23
151.4640331281
0
ENDBLK
5
543
100
AcDbEntity
8
0
100
AcDbBlockEnd
0
BLOCK
5
544
100
AcDbEntity
8
0
100
AcDbBlockBegin
62
2
6
CONTINUOUS
2
N-CAR_BL2
70
64
10
0.0000000000
20
0.0000000000
3
N-CAR_BL2
1

0
TEXT
5
545
100
AcDbEntity
8
0
100
AcDbText
62
2
6
CONTINUOUS
10
451.0574734789
20
41.1832238173
7
STANDARD
40
2.9999987760
1
3,2
41
0.5000000000
72
0
100
AcDbText
0
TEXT
5
546
100
AcDbEntity
8
0
100
AcDbText
62
2
6
CONTINUOUS
10
466.0820714145
20
41.1611777663
7
STANDARD
40
2.9999987760
1
1,6
41
0.5000000000
72
0
100
AcDbText
0
TEXT
5
547
100
AcDbEntity
8
0
100
AcDbText
62
2
6
CONTINUOUS
10
476.0801308479
20
41.1438792623
7
STANDARD
40
2.9999987760
1
.
41
0.5000000000
72
0
100
AcDbText
0
TEXT
5
548
100
AcDbEntity
8
0
100
AcDbText
62
2
6
CONTINUOUS
10
486.1285419314
20
41.1697222153
7
STANDARD
40
2.9999987760
1
.
41
0.5000000000
72
0
100
AcDbText
0
LINE
5
549
100
AcDbEntity
8
0
100
AcDbLine
62
7
6
CONTINUOUS
10
496.2036816348
20
44.0264189134
11
498.2113664124
21
44.0264189134
0
LINE
5
54A
100
AcDbEntity
8
0
100
AcDbLine
62
7
6
CONTINUOUS
10
498.2113664124
20
44.0264189134
11
498.2113664124
21
34.0264229933
0
LINE
5
54B
100
AcDbEntity
8
0
100
AcDbLine
62
7
6
CONTINUOUS
10
496.2036816348
20
34.0264229933
11
498.2113664124
21
34.0264229933
0
LINE
5
54C
100
AcDbEntity
8
0
100
AcDbLine
62
7
6
CONTINUOUS
10
495.7959521294
20
42.1917378550
11
492.7619713921
21
42.1917378550
0
LINE
5
54D
100
AcDbEntity
8
0
100
AcDbLine
62
7
6
CONTINUOUS
10
492.7619713921
20
42.1917378550
11
490.3960904663
21
35.0940950776
0
LINE
5
54E
100
AcDbEntity
8
0
100
AcDbLine
62
7
6
CONTINUOUS
10
490.3960904663
20
35.0940950776
11
488.0540702481
21
40.2039573719
0
LINE
5
54F
100
AcDbEntity
8
0
100
AcDbLine
62
7
6
CONTINUOUS
10
475.7959602893
20
42.1917378550
11
472.7619795521
21
42.1917378550
0
LINE
5
550
100
AcDbEntity
8
0
100
AcDbLine
62
7
6
CONTINUOUS
10
472.7619795521
20
42.1917378550
11
470.3960986263
21
35.0940950776
0
LINE
5
551
100
AcDbEntity
8
0
100
AcDbLine
62
7
6
CONTINUOUS
10
470.3960986263
20
35.0940950776
11
468.0540784080
21
40.2039573719
0
LINE
5
552
100
AcDbEntity
8
0
100
AcDbLine
62
7
6
CONTINUOUS
10
485.7959562093
20
42.1917378550
11
482.7619754721
21
42.1917378550
0
LINE
5
553
100
AcDbEntity
8
0
100
AcDbLine
62
7
6
CONTINUOUS
10
482.7619754721
20
42.1917378550
11
480.3960945463
21
35.0940950776
0
LINE
5
554
100
AcDbEntity
8
0
100
AcDbLine
62
7
6
CONTINUOUS
10
480.3960945463
20
35.0940950776
11
478.0540743280
21
40.2039573719
0
LINE
5
555
100
AcDbEntity
8
0
100
AcDbLine
62
7
6
CONTINUOUS
10
463.2113806923
20
44.0264189134
11
465.6070482266
21
44.0264189134
0
LINE
5
556
100
AcDbEntity
8
0
100
AcDbLine
62
7
6
CONTINUOUS
10
463.2113806923
20
44.0264189134
11
463.2113806923
21
34.0264229933
0
LINE
5
557
100
AcDbEntity
8
0
100
AcDbLine
62
7
6
CONTINUOUS
10
463.2113806923
20
34.0264229933
11
465.6070482266
21
34.0264229933
0
LINE
5
558
100
AcDbEntity
8
0
100
AcDbLine
62
7
6
CONTINUOUS
10
460.7959664093
20
42.1917378550
11
457.7619856720
21
42.1917378550
0
LINE
5
559
100
AcDbEntity
8
0
100
AcDbLine
62
7
6
CONTINUOUS
10
457.7619856720
20
42.1917378550
11
455.3961047462
21
35.0940950776
0
LINE
5
55A
100
AcDbEntity
8
0
100
AcDbLine
62
7
6
CONTINUOUS
10
455.3961047462
20
35.0940950776
11
453.0540845280
21
40.2039573719
0
ARC
5
55B
100
AcDbEntity
8
0
100
AcDbCircle
62
7
6
CONTINUOUS
10
447.8639230206
20
39.9030563072
40
2.4999989800
100
AcDbArc
50
177.5591686478
51
2.4408313522
0
ARC
5
55C
100
AcDbEntity
8
0
100
AcDbCircle
62
7
6
CONTINUOUS
10
442.8639250606
20
39.9030563072
40
2.4999989800
100
AcDbArc
50
0.0000000000
51
177.5591686478
0
ENDBLK
5
55D
100
AcDbEntity
8
0
100
AcDbBlockEnd
0
BLOCK
5
55E
100
AcDbEntity
8
0
100
AcDbBlockBegin
62
2
6
CONTINUOUS
2
RUGOSITE_BL3
70
64
10
0.0000000000
20
0.0000000000
3
RUGOSITE_BL3
1

0
TEXT
5
55F
100
AcDbEntity
8
0
100
AcDbText
62
2
6
CONTINUOUS
10
129.1549280547
20
103.3171551551
7
STANDARD
40
4.4999994667
1
1,6
50
90.0000000000
41
0.8000000000
72
0
100
AcDbText
0
LINE
5
560
100
AcDbEntity
8
0
100
AcDbLine
62
2
6
CONTINUOUS
10
130.7964918020
20
112.0877405057
11
137.5464910020
21
115.8377400612
0
LINE
5
561
100
AcDbEntity
8
0
100
AcDbLine
62
2
6
CONTINUOUS
10
137.5464910020
20
115.8377400612
11
124.0464926020
21
123.3377391724
0
LINE
5
562
100
AcDbEntity
8
0
100
AcDbLine
62
2
6
CONTINUOUS
10
130.8322787033
20
106.7197053197
11
130.8227926100
21
112.1446340504
0
ENDBLK
5
563
100
AcDbEntity
8
0
100
AcDbBlockEnd
0
ENDSEC
0
SECTION
2
ENTITIES
0
TEXT
5
564
100
AcDbEntity
8
0
100
AcDbText
62
2
6
CONTINUOUS
10
589.5761010209
20
12.0680064261
7
STANDARD
40
2.0000000000
1
22/96a
41
0.8000000000
72
0
100
AcDbText
0
INSERT
5
565
100
AcDbEntity
8
0
100
AcDbBlockReference
62
2
6
CONTINUOUS
2
N-CART_BL0
10
0.0000000000
20
0.0000000000
0
INSERT
5
566
100
AcDbEntity
8
0
100
AcDbBlockReference
62
2
6
CONTINUOUS
2
N-DES_BL1
10
0.0000000000
20
0.0000000000
0
SOLID
5
567
100
AcDbEntity
8
0
100
AcDbTrace
62
7
6
CONTINUOUS
10
303.9740776838
20
299.5851302247
11
308.9740776838
21
300.8351302247
12
308.9740776838
22
298.3351302247
13
308.9740776838
23
298.3351302247
0
TEXT
5
568
100
AcDbEntity
8
0
100
AcDbText
62
7
6
CONTINUOUS
10
312.0017618952
20
301.3351302247
7
TEXTSTYLE_1
40
3.5000000000
1
B
41
0.7333333333
72
0
100
AcDbText
0
SOLID
5
569
100
AcDbEntity
8
0
100
AcDbTrace
62
7
6
CONTINUOUS
10
303.9740776838
20
143.4480440649
11
308.9740776838
21
144.6980440649
12
308.9740776838
22
142.1980440649
13
308.9740776838
23
142.1980440649
0
TEXT
5
56A
100
AcDbEntity
8
0
100
AcDbText
62
7
6
CONTINUOUS
10
312.0017618952
20
138.1980440649
7
TEXTSTYLE_1
40
3.5000000000
1
B
41
0.7333333333
72
0
100
AcDbText
0
SOLID
5
56B
100
AcDbEntity
8
0
100
AcDbTrace
62
7
6
CONTINUOUS
10
207.2827444293
20
244.1313898941
11
212.2827444293
21
245.3813898941
12
212.2827444293
22
242.8813898941
13
212.2827444293
23
242.8813898941
0
TEXT
5
56C
100
AcDbEntity
8
0
100
AcDbText
62
7
6
CONTINUOUS
10
215.7044835503
20
245.8813898941
7
TEXTSTYLE_1
40
3.5000000000
1
A
41
0.8000000000
72
0
100
AcDbText
0
SOLID
5
56D
100
AcDbEntity
8
0
100
AcDbTrace
62
7
6
CONTINUOUS
10
207.2827444293
20
167.3479825461
11
212.2827444293
21
168.5979825461
12
212.2827444293
22
166.0979825461
13
212.2827444293
23
166.0979825461
0
TEXT
5
56E
100
AcDbEntity
8
0
100
AcDbText
62
7
6
CONTINUOUS
10
215.7044835503
20
162.0979825461
7
TEXTSTYLE_1
40
3.5000000000
1
A
41
0.8000000000
72
0
100
AcDbText
0
SOLID
5
56F
100
AcDbEntity
8
0
100
AcDbTrace
62
7
6
CONTINUOUS
10
67.3455212696
20
212.0991466347
11
66.0955212696
21
217.0991466347
12
68.5955212696
22
217.0991466347
13
68.5955212696
23
217.0991466347
0
TEXT
5
570
100
AcDbEntity
8
0
100
AcDbText
62
7
6
CONTINUOUS
10
63.1455212696
20
220.7953342622
7
TEXTSTYLE_1
40
3.5000000000
1
C
41
0.8000000000
72
0
100
AcDbText
0
SOLID
5
571
100
AcDbEntity
8
0
100
AcDbTrace
62
7
6
CONTINUOUS
10
165.2424256499
20
212.0991466347
11
163.9924256499
21
217.0991466347
12
166.4924256499
22
217.0991466347
13
166.4924256499
23
217.0991466347
0
TEXT
5
572
100
AcDbEntity
8
0
100
AcDbText
62
7
6
CONTINUOUS
10
166.6424256499
20
220.7953342622
7
TEXTSTYLE_1
40
3.5000000000
1
C
41
0.8000000000
72
0
100
AcDbText
0
DIMENSION
5
573
100
AcDbEntity
8
0
100
AcDbDimension
62
2
6
CONTINUOUS
2
*D0
10
271.4740776838
20
152.6298752732
11
305.5328981486
21
155.2548752732
70
160
3
DIMSTYLE_1
100
AcDbAlignedDimension
13
336.4740776838
23
189.7491466347
14
271.4740776838
24
189.7491466347
50
180.000000
100
AcDbRotatedDimension
0
DIMENSION
5
574
100
AcDbEntity
8
0
100
AcDbDimension
62
2
6
CONTINUOUS
2
*D1
10
333.9740776838
20
289.3180839948
11
347.5597440560
21
291.9430839948
70
160
3
DIMSTYLE_1
100
AcDbAlignedDimension
13
336.4740776838
23
202.5450143710
14
333.9740776838
24
232.4717993307
50
180.000000
100
AcDbRotatedDimension
0
DIMENSION
5
575
100
AcDbEntity
8
0
100
AcDbDimension
62
2
6
CONTINUOUS
2
*D2
10
333.9740776838
20
289.3180839948
11
306.0546916888
21
291.9430839948
70
160
3
DIMSTYLE_1
100
AcDbAlignedDimension
13
273.9740776838
23
232.7491466347
14
333.9740776838
24
285.1975613588
100
AcDbRotatedDimension
0
DIMENSION
5
576
100
AcDbEntity
8
0
100
AcDbDimension
62
2
6
CONTINUOUS
2
*D3
10
384.0872234655
20
233.7491466347
11
381.4622234655
21
210.2365955921
70
160
3
DIMSTYLE_1
100
AcDbAlignedDimension
13
321.2740776838
23
188.7491466347
14
327.4740776838
24
233.7491466347
50
90.000000
100
AcDbRotatedDimension
0
DIMENSION
5
577
100
AcDbEntity
8
0
100
AcDbDimension
62
2
6
CONTINUOUS
2
*D4
10
346.6086582598
20
191.2491466347
11
343.9836582598
21
178.7421956830
70
160
3
DIMSTYLE_1
100
AcDbAlignedDimension
13
321.2740776838
23
188.7491466347
14
337.9740776838
24
191.2491466347
50
90.000000
100
AcDbRotatedDimension
0
DIMENSION
5
578
100
AcDbEntity
8
0
100
AcDbDimension
62
2
6
CONTINUOUS
2
*D5
10
312.4740776838
20
244.7534607480
11
304.2145734812
21
247.3784607480
70
160
1
=<>=
3
DIMSTYLE_1
100
AcDbAlignedDimension
13
295.4740776838
23
235.2491466347
14
312.4740776838
24
235.2491466347
100
AcDbRotatedDimension
0
DIMENSION
5
579
100
AcDbEntity
8
0
100
AcDbDimension
62
2
6
CONTINUOUS
2
*D6
10
356.0225633357
20
212.0991466347
11
353.3975633357
21
176.6259553249
70
160
3
DIMSTYLE_2
100
AcDbAlignedDimension
13
337.9740776838
23
191.2491466347
14
279.2985569355
24
212.0991466347
50
90.000000
100
AcDbRotatedDimension
0
DIMENSION
5
57A
100
AcDbEntity
8
0
100
AcDbDimension
62
2
6
CONTINUOUS
2
*D7
10
325.9740776838
20
268.9163477072
11
304.2674941502
21
271.5413477072
70
160
1
=<>=
3
DIMSTYLE_1
100
AcDbAlignedDimension
13
281.9740776838
23
232.7491466347
14
325.9740776838
24
232.7491466347
100
AcDbRotatedDimension
0
DIMENSION
5
57B
100
AcDbEntity
8
0
100
AcDbDimension
62
2
6
CONTINUOUS
2
*D8
10
303.9740776838
20
278.2362125373
11
321.1230795551
21
280.8612125373
70
160
3
DIMSTYLE_1
100
AcDbAlignedDimension
13
336.4740776838
23
274.6661591391
14
303.9740776838
24
281.4362125373
50
180.000000
100
AcDbRotatedDimension
0
DIMENSION
5
57C
100
AcDbEntity
8
0
100
AcDbDimension
62
2
6
CONTINUOUS
2
*D9
10
297.9740776838
20
179.7070261607
11
303.9555883882
21
182.3320261607
70
160
1
=<>=
3
DIMSTYLE_1
100
AcDbAlignedDimension
13
309.9740776838
23
194.7491466347
14
297.9740776838
24
186.7491466347
50
180.000000
100
AcDbRotatedDimension
0
DIMENSION
5
57D
100
AcDbEntity
8
0
100
AcDbDimension
62
2
6
CONTINUOUS
2
*D10
10
312.1740776838
20
162.0937338358
11
308.2387635978
21
164.7187338358
70
160
3
DIMSTYLE_1
100
AcDbAlignedDimension
13
303.9740776838
23
167.6143179974
14
312.1740776838
24
187.2491466347
100
AcDbRotatedDimension
0
DIMENSION
5
57E
100
AcDbEntity
8
0
100
AcDbDimension
62
2
6
CONTINUOUS
2
*D11
10
292.9740776838
20
162.0937338358
11
297.7108050471
21
164.7187338358
70
160
3
DIMSTYLE_1
100
AcDbAlignedDimension
13
303.9740776838
23
168.6658578377
14
292.9740776838
24
158.8937338358
50
180.000000
100
AcDbRotatedDimension
0
DIMENSION
5
57F
100
AcDbEntity
8
0
100
AcDbDimension
62
2
6
CONTINUOUS
2
*D12
10
292.9740776838
20
162.0937338358
11
276.0597012624
21
164.7187338358
70
160
3
DIMSTYLE_1
100
AcDbAlignedDimension
13
285.3740776838
23
187.2491466347
14
292.9740776838
24
187.2491466347
100
AcDbRotatedDimension
0
DIMENSION
5
580
100
AcDbEntity
8
0
100
AcDbDimension
62
2
6
CONTINUOUS
2
*D13
10
319.7740776838
20
162.0937338358
11
329.2571264674
21
164.7187338358
70
160
3
DIMSTYLE_1
100
AcDbAlignedDimension
13
312.1740776838
23
166.5627781571
14
319.7740776838
24
187.2491466347
100
AcDbRotatedDimension
0
DIMENSION
5
581
100
AcDbEntity
8
0
100
AcDbDimension
62
2
6
CONTINUOUS
2
*D14
10
303.9740776838
20
254.0732605839
11
310.8692508190
21
256.6982605839
70
160
3
DIMSTYLE_1
100
AcDbAlignedDimension
13
317.4740776838
23
237.4491466347
14
303.9740776838
24
265.8377690373
50
180.000000
100
AcDbRotatedDimension
0
DIMENSION
5
582
100
AcDbEntity
8
0
100
AcDbDimension
62
2
6
CONTINUOUS
2
*D15
10
288.9740776838
20
254.0732605839
11
296.4324166704
21
256.6982605839
70
160
3
DIMSTYLE_1
100
AcDbAlignedDimension
13
303.9740776838
23
264.8115998497
14
288.9740776838
24
237.4491466347
50
180.000000
100
AcDbRotatedDimension
0
DIMENSION
5
583
100
AcDbEntity
8
0
100
AcDbDimension
62
2
6
CONTINUOUS
2
*D16
10
322.9740776838
20
262.3525284686
11
313.5146525849
21
264.9775284686
70
160
3
DIMSTYLE_1
100
AcDbAlignedDimension
13
303.9740776838
23
272.6746170206
14
322.9740776838
24
237.2491466347
100
AcDbRotatedDimension
0
DIMENSION
5
584
100
AcDbEntity
8
0
100
AcDbDimension
62
2
6
CONTINUOUS
2
*D17
10
289.1740776838
20
171.0318224783
11
297.1205794263
21
173.6568224783
70
160
3
DIMSTYLE_1
100
AcDbAlignedDimension
13
303.9740776838
23
174.5608152063
14
289.1740776838
24
184.7491466347
50
180.000000
100
AcDbRotatedDimension
0
DIMENSION
5
585
100
AcDbEntity
8
0
100
AcDbDimension
62
2
6
CONTINUOUS
2
*D18
10
315.9740776838
20
171.0318224783
11
310.0019424698
21
173.6568224783
70
160
3
DIMSTYLE_1
100
AcDbAlignedDimension
13
303.9740776838
23
177.1854611127
14
315.9740776838
24
184.7491466347
100
AcDbRotatedDimension
0
DIMENSION
5
586
100
AcDbEntity
8
0
100
AcDbDimension
62
2
6
CONTINUOUS
2
*D19
10
262.3775481301
20
191.2491466347
11
259.7525481301
21
181.6533103976
70
160
3
DIMSTYLE_1
100
AcDbAlignedDimension
13
281.0740776838
23
192.8491466347
14
269.9740776838
24
191.2491466347
50
270.000000
100
AcDbRotatedDimension
0
DIMENSION
5
587
100
AcDbEntity
8
0
100
AcDbDimension
62
2
6
CONTINUOUS
2
*D20
10
254.8658354059
20
196.2491466347
11
252.2408354059
21
193.5783830991
70
160
3
DIMSTYLE_1
100
AcDbAlignedDimension
13
269.9740776838
23
191.2491466347
14
288.4740776838
24
196.2491466347
50
90.000000
100
AcDbRotatedDimension
0
DIMENSION
5
588
100
AcDbEntity
8
0
100
AcDbDimension
62
2
6
CONTINUOUS
2
*D21
10
246.7762986259
20
221.7491466347
11
244.1512986259
21
207.0609443990
70
160
3
DIMSTYLE_1
100
AcDbAlignedDimension
13
269.9740776838
23
191.2491466347
14
280.9740776838
24
221.7491466347
50
90.000000
100
AcDbRotatedDimension
0
DIMENSION
5
589
100
AcDbEntity
8
0
100
AcDbDimension
62
2
6
CONTINUOUS
2
*D22
10
366.9904030686
20
191.2491466347
11
364.3654030686
21
208.8977709560
70
160
3
DIMSTYLE_1
100
AcDbAlignedDimension
13
332.4740776838
23
227.7491466347
14
337.9740776838
24
191.2491466347
50
270.000000
100
AcDbRotatedDimension
0
DIMENSION
5
58A
100
AcDbEntity
8
0
100
AcDbDimension
62
2
6
CONTINUOUS
2
*D23
10
238.7830658552
20
229.7491466347
11
236.1580658552
21
211.5271301467
70
160
3
DIMSTYLE_1
100
AcDbAlignedDimension
13
269.9740776838
23
191.2491466347
14
281.2740776838
24
229.7491466347
50
90.000000
100
AcDbRotatedDimension
0
DIMENSION
5
58B
100
AcDbEntity
8
0
100
AcDbDimension
62
2
6
CONTINUOUS
2
*D24
10
277.9740776838
20
77.4320603358
11
304.3170421741
21
80.0570603358
70
160
1
=<>=
3
DIMSTYLE_1
100
AcDbAlignedDimension
13
329.9740776838
23
86.8589088779
14
277.9740776838
24
86.8589088779
50
180.000000
100
AcDbRotatedDimension
0
DIMENSION
5
58C
100
AcDbEntity
8
0
100
AcDbDimension
62
2
6
CONTINUOUS
2
*D25
10
349.3777347498
20
97.5589088779
11
346.7527347498
21
78.4776816568
70
160
1
=<>=
3
DIMSTYLE_3
100
AcDbAlignedDimension
13
337.9740776838
23
91.5589088779
14
337.9740776838
24
97.5589088779
50
90.000000
100
AcDbRotatedDimension
0
DIMENSION
5
58D
100
AcDbEntity
8
0
100
AcDbDimension
62
2
6
CONTINUOUS
2
*D26
10
275.4740776838
20
343.0832440928
11
304.2884448673
21
345.7082440928
70
160
1
=<>=
3
DIMSTYLE_1
100
AcDbAlignedDimension
13
332.4740776838
23
335.5863980370
14
275.4740776838
24
335.5863980370
50
180.000000
100
AcDbRotatedDimension
0
DIMENSION
5
58E
100
AcDbEntity
8
0
100
AcDbDimension
62
2
6
CONTINUOUS
2
*D27
10
349.3777347498
20
330.4863980370
11
346.7527347498
21
343.9440941372
70
160
1
=<>=
3
DIMSTYLE_3
100
AcDbAlignedDimension
13
337.9740776838
23
324.4863980370
14
337.9740776838
24
330.4863980370
50
90.000000
100
AcDbRotatedDimension
0
DIMENSION
5
58F
100
AcDbEntity
8
0
100
AcDbDimension
62
2
6
CONTINUOUS
2
*D28
10
85.1086009286
20
191.2491466347
11
82.4836009286
21
195.3897060674
70
160
3
DIMSTYLE_1
100
AcDbAlignedDimension
13
94.5175167105
23
199.2491466347
14
94.5175167105
24
191.2491466347
50
270.000000
100
AcDbRotatedDimension
0
DIMENSION
5
590
100
AcDbEntity
8
0
100
AcDbDimension
62
2
6
CONTINUOUS
2
*D29
10
76.1518206582
20
201.2491466347
11
73.5268206582
21
196.1731793555
70
160
3
DIMSTYLE_1
100
AcDbAlignedDimension
13
94.9175167105
23
191.2491466347
14
94.9175167105
24
201.2491466347
50
90.000000
100
AcDbRotatedDimension
0
DIMENSION
5
591
100
AcDbEntity
8
0
100
AcDbDimension
62
2
6
CONTINUOUS
2
*D30
10
85.1086009286
20
231.2491466347
11
82.4836009286
21
227.3356035773
70
160
3
DIMSTYLE_1
100
AcDbAlignedDimension
13
97.5175167105
23
224.2491466347
14
97.5175167105
24
231.2491466347
50
90.000000
100
AcDbRotatedDimension
0
DIMENSION
5
592
100
AcDbEntity
8
0
100
AcDbDimension
62
2
6
CONTINUOUS
2
*D31
10
76.1518206582
20
222.2491466347
11
73.5268206582
21
226.4452152555
70
160
3
DIMSTYLE_1
100
AcDbAlignedDimension
13
97.8175167105
23
231.2491466347
14
97.8175167105
24
222.2491466347
50
270.000000
100
AcDbRotatedDimension
0
DIMENSION
5
593
100
AcDbEntity
8
0
100
AcDbDimension
62
2
6
CONTINUOUS
2
*D32
10
102.0175167105
20
241.9004349959
11
87.5120143002
21
244.5254349959
70
160
1
2 M<>
3
DIMSTYLE_1
100
AcDbAlignedDimension
13
99.0175167105
23
232.7491466347
14
102.0175167105
24
232.7491466347
100
AcDbRotatedDimension
0
DIMENSION
5
594
100
AcDbEntity
8
0
100
AcDbDimension
62
2
6
CONTINUOUS
2
*D33
10
100.0175167105
20
178.9395756445
11
83.3028172103
21
181.5645756445
70
160
1
2 M<>
3
DIMSTYLE_1
100
AcDbAlignedDimension
13
96.0175167105
23
189.7491466347
14
100.0175167105
24
189.7491466347
100
AcDbRotatedDimension
0
DIMENSION
5
595
100
AcDbEntity
8
0
100
AcDbDimension
62
2
6
CONTINUOUS
2
*D34
10
109.0551597580
20
230.3251229270
11
121.9114803243
21
245.0785404030
70
163
3
DIMSTYLE_4
100
AcDbDiametricDimension
15
105.9798736629
25
225.1731703424
0
DIMENSION
5
596
100
AcDbEntity
8
0
100
AcDbDimension
62
2
6
CONTINUOUS
2
*D35
10
142.2597093475
20
231.0526611492
11
156.4105782049
21
245.1829661221
70
163
1
2 M<>
3
DIMSTYLE_4
100
AcDbDiametricDimension
15
140.7753240734
25
228.4456321202
0
DIMENSION
5
597
100
AcDbEntity
8
0
100
AcDbDimension
62
2
6
CONTINUOUS
2
*D36
10
131.4500126813
20
193.4454998760
11
114.0416147348
21
172.1485944961
70
163
1
2 <>
3
DIMSTYLE_4
100
AcDbDiametricDimension
15
133.5850207397
25
199.0527933934
0
DIMENSION
5
598
100
AcDbEntity
8
0
100
AcDbDimension
62
2
6
CONTINUOUS
2
*D37
10
142.0534370631
20
190.9894635341
11
154.8683650447
21
180.7310714990
70
163
1
2 M<>
3
DIMSTYLE_4
100
AcDbDiametricDimension
15
140.5815963578
25
194.7088297353
0
DIMENSION
5
599
100
AcDbEntity
8
0
100
AcDbDimension
62
2
6
CONTINUOUS
2
*D38
10
146.5610695306
20
218.9076871732
11
162.5500169926
21
207.1105420179
70
163
3
DIMSTYLE_4
100
AcDbDiametricDimension
15
142.4739638904
25
224.5906060962
0
DIMENSION
5
59A
100
AcDbEntity
8
0
100
AcDbDimension
62
2
6
CONTINUOUS
2
*D39
10
209.2827444293
20
178.5314805775
11
218.4769562478
21
181.1564805775
70
160
1
M<>
3
DIMSTYLE_1
100
AcDbAlignedDimension
13
205.2827444293
23
189.7491466347
14
209.2827444293
24
189.7491466347
100
AcDbRotatedDimension
0
DIMENSION
5
59B
100
AcDbEntity
8
0
100
AcDbDimension
62
2
6
CONTINUOUS
2
*D40
10
114.2675167105
20
103.5500487175
11
97.4204607210
21
106.1750487175
70
160
1
10 M<>
3
DIMSTYLE_1
100
AcDbAlignedDimension
13
111.2675167105
23
94.1882066102
14
114.2675167105
24
94.1882066102
100
AcDbRotatedDimension
0
DIMENSION
5
59C
100
AcDbEntity
8
0
100
AcDbDimension
62
2
6
CONTINUOUS
2
*D41
10
137.5175167105
20
69.9469784958
11
104.4639458560
21
72.5719784958
70
160
1
%%c<> H7
3
DIMSTYLE_1
100
AcDbAlignedDimension
13
115.5175167105
23
85.1882066102
14
137.5175167105
24
120.1840236010
100
AcDbRotatedDimension
0
DIMENSION
5
59D
100
AcDbEntity
8
0
100
AcDbDimension
62
2
6
CONTINUOUS
2
*D42
10
375.4309235287
20
191.2491466347
11
372.8059235287
21
211.0003867630
70
160
3
DIMSTYLE_1
100
AcDbAlignedDimension
13
335.4740776838
23
231.2491466347
14
337.9740776838
24
191.2491466347
50
270.000000
100
AcDbRotatedDimension
0
DIMENSION
5
59E
100
AcDbEntity
8
0
100
AcDbDimension
62
2
6
CONTINUOUS
2
*D43
10
303.9740776838
20
278.2362125373
11
294.9303592922
21
280.8612125373
70
160
3
DIMSTYLE_1
100
AcDbAlignedDimension
13
285.9740776838
23
228.2492466347
14
303.9740776838
24
298.6334679223
100
AcDbRotatedDimension
0
DIMENSION
5
59F
100
AcDbEntity
8
0
100
AcDbDimension
62
2
6
CONTINUOUS
2
*D44
10
514.5365646932
20
271.4144696903
11
523.4689857111
21
277.4590717135
70
160
3
DIMSTYLE_5
100
AcDbAlignedDimension
13
527.5990679231
23
297.3522982528
14
500.3652874658
24
310.3497338773
50
200.000000
100
AcDbRotatedDimension
0
DIMENSION
5
5A0
100
AcDbEntity
8
0
100
AcDbDimension
62
2
6
CONTINUOUS
2
*D45
10
517.8767019137
20
262.2375180990
11
528.8387638092
21
269.0208489879
70
160
3
DIMSTYLE_5
100
AcDbAlignedDimension
13
536.3733477125
23
286.7614175635
14
502.2903528113
24
305.0606603095
50
200.000000
100
AcDbRotatedDimension
0
DIMENSION
5
5A1
100
AcDbEntity
8
0
100
AcDbDimension
62
2
6
CONTINUOUS
2
*D46
10
541.2957096684
20
320.8537158411
11
541.4313583511
21
328.1560106989
70
160
3
DIMSTYLE_5
100
AcDbAlignedDimension
13
533.1868615275
23
315.6734982448
14
503.1868615275
24
306.9832294557
50
110.000000
100
AcDbRotatedDimension
0
DIMENSION
5
5A2
100
AcDbEntity
8
0
100
AcDbDimension
62
2
6
CONTINUOUS
2
*D47
10
457.3048340155
20
294.5538318401
11
460.9729526895
21
291.0064477565
70
160
3
DIMSTYLE_5
100
AcDbAlignedDimension
13
467.8284338569
23
288.3012786250
14
506.8961611757
24
307.8417879042
50
105.000000
100
AcDbRotatedDimension
0
DIMENSION
5
5A3
100
AcDbEntity
8
0
100
AcDbDimension
62
2
6
CONTINUOUS
2
*D48
10
552.5267318588
20
317.1201992407
11
549.9017318588
21
311.7924037959
70
160
3
DIMSTYLE_5
100
AcDbAlignedDimension
13
503.2773225964
23
306.4701992407
14
520.5037252932
24
317.1201992407
50
90.000000
100
AcDbRotatedDimension
0
DIMENSION
5
5A4
100
AcDbEntity
8
0
100
AcDbDimension
62
2
6
CONTINUOUS
2
*D49
10
546.3767076466
20
294.5198300336
11
542.7124810234
21
290.9869712816
70
160
3
DIMSTYLE_5
100
AcDbAlignedDimension
13
522.5423681181
23
291.8338787683
14
497.7714782977
24
307.5435619855
50
75.000000
100
AcDbRotatedDimension
0
DIMENSION
5
5A5
100
AcDbEntity
8
0
100
AcDbDimension
62
2
6
CONTINUOUS
2
*D50
10
472.0312538405
20
336.2162679965
11
465.4059417759
21
333.3032665332
70
160
3
DIMSTYLE_1
100
AcDbAlignedDimension
13
470.4842284554
23
318.8066916639
14
505.0841372224
24
303.1633846147
50
45.000000
100
AcDbRotatedDimension
0
DIMENSION
5
5A6
100
AcDbEntity
8
0
100
AcDbDimension
62
2
6
CONTINUOUS
2
*D51
10
468.2883866736
20
288.4245226108
11
446.8513992369
21
293.5932971021
70
162
3
DIMSTYLE_6
100
AcDb2LineAngularDimension
13
500.2773225964
23
306.4701992407
14
442.7224538040
24
306.4701992407
15
445.8883982363
25
282.4224637985
16
446.6899636497
26
294.7602618541
0
DIMENSION
5
5A7
100
AcDbEntity
8
0
100
AcDbDimension
62
2
6
CONTINUOUS
2
*D52
10
481.3207208786
20
306.4701992407
11
448.5422760913
21
320.3182826408
70
162
3
DIMSTYLE_6
100
AcDb2LineAngularDimension
13
471.0050061551
23
318.2859139642
14
454.4162386965
24
334.8746814228
15
442.6507169444
25
306.4701992407
16
448.6648909270
26
320.6180072408
0
DIMENSION
5
5A8
100
AcDbEntity
8
0
100
AcDbDimension
62
2
6
CONTINUOUS
2
*D53
10
536.3447474225
20
286.8399962145
11
524.8455700238
21
252.8696982163
70
162
3
DIMSTYLE_6
100
AcDb2LineAngularDimension
13
501.7773225964
23
304.9701992407
14
501.7773225964
24
247.6224727378
15
547.6732596254
25
255.7151647409
16
524.5236263462
26
252.8125164530
0
DIMENSION
5
5A9
100
AcDbEntity
8
0
100
AcDbDimension
62
2
6
CONTINUOUS
2
*D54
10
498.2772225964
20
306.4701992407
11
559.5420282563
21
295.1073745262
70
162
3
DIMSTYLE_6
100
AcDb2LineAngularDimension
13
524.2490225570
23
291.3765820896
14
560.1889938805
24
281.7464957975
15
563.4439311884
25
306.4701992407
16
559.4540775467
26
294.4193614030
0
DIMENSION
5
5AA
100
AcDbEntity
8
0
100
AcDbDimension
62
2
6
CONTINUOUS
2
*D55
10
518.1305332903
20
315.1201992407
11
503.1191107812
21
318.6031385865
70
164
1
3<>
3
DIMSTYLE_7
100
AcDbRadialDimension
15
516.1337596505
25
315.2337555325
0
DIMENSION
5
5AB
100
AcDbEntity
8
0
100
AcDbDimension
62
2
6
CONTINUOUS
2
*D56
10
522.3875746042
20
297.0517364674
11
522.0649922430
21
300.9160956158
70
164
3
DIMSTYLE_7
100
AcDbRadialDimension
15
526.0666421760
25
293.6658153516
0
DIMENSION
5
5AC
100
AcDbEntity
8
0
100
AcDbDimension
62
2
6
CONTINUOUS
2
*D57
10
486.8950722438
20
295.4807213439
11
478.4543440723
21
297.3337399859
70
164
1
2<>
3
DIMSTYLE_7
100
AcDbRadialDimension
15
488.8865165112
25
295.6655177995
0
DIMENSION
5
5AD
100
AcDbEntity
8
0
100
AcDbDimension
62
2
6
CONTINUOUS
2
*D58
10
483.7773225964
20
316.1201992407
11
470.7569288198
21
304.4122901643
70
164
3
DIMSTYLE_7
100
AcDbRadialDimension
15
479.0151941035
25
310.3260528655
0
DIMENSION
5
5AE
100
AcDbEntity
8
0
100
AcDbDimension
62
2
6
CONTINUOUS
2
*D59
10
501.7773225964
20
306.4701992407
11
476.7938277190
21
276.8243071370
70
164
3
DIMSTYLE_7
100
AcDbRadialDimension
15
492.0231551108
25
293.1620732771
0
DIMENSION
5
5AF
100
AcDbEntity
8
0
100
AcDbDimension
62
2
6
CONTINUOUS
2
*D60
10
515.0216845086
20
121.9578663020
11
503.8053856058
21
124.5828663020
70
160
1
=<>=
3
DIMSTYLE_5
100
AcDbAlignedDimension
13
492.4950032907
23
139.2640331281
14
515.0216845086
24
139.2640331281
100
AcDbRotatedDimension
0
DIMENSION
5
5B0
100
AcDbEntity
8
0
100
AcDbDimension
62
2
6
CONTINUOUS
2
*D61
10
516.8719519724
20
114.1144117185
11
503.8053856058
21
116.7394117185
70
160
1
=<>=
3
DIMSTYLE_5
100
AcDbAlignedDimension
13
490.6447358269
23
143.0160043848
14
516.8719519724
24
143.0160043848
100
AcDbRotatedDimension
0
DIMENSION
5
5B1
100
AcDbEntity
8
0
100
AcDbDimension
62
2
6
CONTINUOUS
2
*D62
10
517.5083438997
20
106.5160650907
11
503.9279395837
21
109.1410650907
70
160
1
=<>=
3
DIMSTYLE_1
100
AcDbAlignedDimension
13
490.0083438997
23
147.1507091280
14
517.5083438997
24
147.1507091280
100
AcDbRotatedDimension
0
DIMENSION
5
5B2
100
AcDbEntity
8
0
100
AcDbDimension
62
2
6
CONTINUOUS
2
*D63
10
516.8719519724
20
189.8527700407
11
504.0504935616
21
192.4777700407
70
160
1
=<>=
3
DIMSTYLE_5
100
AcDbAlignedDimension
13
490.6447358269
23
166.6854138711
14
516.8719519724
24
166.6854138711
100
AcDbRotatedDimension
0
DIMENSION
5
5B3
100
AcDbEntity
8
0
100
AcDbDimension
62
2
6
CONTINUOUS
2
*D64
10
492.4950032907
20
182.0093154572
11
503.6828316280
21
184.6343154572
70
160
1
=<>=
3
DIMSTYLE_5
100
AcDbAlignedDimension
13
515.0216845086
23
170.4373851278
14
492.4950032907
24
170.4373851278
50
180.000000
100
AcDbRotatedDimension
0
DIMENSION
5
5B4
100
AcDbEntity
8
0
100
AcDbDimension
62
2
6
CONTINUOUS
2
*D65
10
463.4770554612
20
158.9854138711
11
460.8520554612
21
170.0873441718
70
160
1
=<>=
3
DIMSTYLE_5
100
AcDbAlignedDimension
13
482.9447358269
23
150.7160043848
14
482.9447358269
24
158.9854138711
50
90.000000
100
AcDbRotatedDimension
0
DIMENSION
5
5B5
100
AcDbEntity
8
0
100
AcDbDimension
62
2
6
CONTINUOUS
2
*D66
10
547.3062278054
20
146.9640331281
11
544.6812278054
21
170.3309212315
70
160
1
=<>=
3
DIMSTYLE_5
100
AcDbAlignedDimension
13
522.7216845086
23
162.7373851278
14
522.7216845086
24
146.9640331281
50
270.000000
100
AcDbRotatedDimension
0
LINE
5
5B6
100
AcDbEntity
8
0
100
AcDbLine
62
2
6
CONTINUOUS
10
432.9999777026
20
78.9999988706
11
598.9999777026
21
78.9999988706
0
LINE
5
5B7
100
AcDbEntity
8
0
100
AcDbLine
62
2
6
CONTINUOUS
10
432.9999777026
20
78.9999988706
11
432.9999777026
21
14.9999988706
0
LINE
5
5B8
100
AcDbEntity
8
0
100
AcDbLine
62
2
6
CONTINUOUS
10
432.9999777026
20
74.4999988706
11
598.9999777026
21
74.4999988706
0
LINE
5
5B9
100
AcDbEntity
8
0
100
AcDbLine
62
2
6
CONTINUOUS
10
432.9999777026
20
69.9999988706
11
598.9999777026
21
69.9999988706
0
LINE
5
5BA
100
AcDbEntity
8
0
100
AcDbLine
62
2
6
CONTINUOUS
10
432.9999777026
20
65.4999988706
11
598.9999777026
21
65.4999988706
0
LINE
5
5BB
100
AcDbEntity
8
0
100
AcDbLine
62
2
6
CONTINUOUS
10
432.9999777026
20
60.9999988706
11
598.9999777026
21
60.9999988706
0
LINE
5
5BC
100
AcDbEntity
8
0
100
AcDbLine
62
2
6
CONTINUOUS
10
432.9999777026
20
56.4999988706
11
598.9999777026
21
56.4999988706
0
LINE
5
5BD
100
AcDbEntity
8
0
100
AcDbLine
62
2
6
CONTINUOUS
10
432.9999777026
20
51.9999988706
11
598.9999777026
21
51.9999988706
0
LINE
5
5BE
100
AcDbEntity
8
0
100
AcDbLine
62
2
6
CONTINUOUS
10
552.9999777026
20
42.9999988706
11
598.9999777026
21
42.9999988706
0
LINE
5
5BF
100
AcDbEntity
8
0
100
AcDbLine
62
2
6
CONTINUOUS
10
432.9999777026
20
32.4999988706
11
598.9999777026
21
32.4999988706
0
LINE
5
5C0
100
AcDbEntity
8
0
100
AcDbLine
62
2
6
CONTINUOUS
10
432.9999777026
20
24.4999988706
11
598.9999777026
21
24.4999988706
0
LINE
5
5C1
100
AcDbEntity
8
0
100
AcDbLine
62
2
6
CONTINUOUS
10
432.9999777026
20
14.9999988706
11
598.9999777026
21
14.9999988706
0
LINE
5
5C2
100
AcDbEntity
8
0
100
AcDbLine
62
2
6
CONTINUOUS
10
447.9999777026
20
78.9999988706
11
447.9999777026
21
51.9999988706
0
LINE
5
5C3
100
AcDbEntity
8
0
100
AcDbLine
62
2
6
CONTINUOUS
10
462.9999777026
20
78.9999988706
11
462.9999777026
21
51.9999988706
0
LINE
5
5C4
100
AcDbEntity
8
0
100
AcDbLine
62
2
6
CONTINUOUS
10
472.9999777026
20
32.4999988706
11
472.9999777026
21
24.4999988706
0
LINE
5
5C5
100
AcDbEntity
8
0
100
AcDbLine
62
2
6
CONTINUOUS
10
477.9999777026
20
78.9999988706
11
477.9999777026
21
51.9999988706
0
LINE
5
5C6
100
AcDbEntity
8
0
100
AcDbLine
62
2
6
CONTINUOUS
10
492.9999777026
20
78.9999988706
11
492.9999777026
21
51.9999988706
0
LINE
5
5C7
100
AcDbEntity
8
0
100
AcDbLine
62
2
6
CONTINUOUS
10
512.9999777026
20
32.4999988706
11
512.9999777026
21
24.4999988706
0
LINE
5
5C8
100
AcDbEntity
8
0
100
AcDbLine
62
2
6
CONTINUOUS
10
552.9999777026
20
51.9999988706
11
552.9999777026
21
14.9999988706
0
LINE
5
5C9
100
AcDbEntity
8
0
100
AcDbLine
62
2
6
CONTINUOUS
10
578.9999777026
20
42.9999988706
11
578.9999777026
21
32.4999988706
0
LINE
5
5CA
100
AcDbEntity
8
0
100
AcDbLine
62
2
6
CONTINUOUS
10
598.9999777026
20
78.9999988706
11
598.9999777026
21
14.9999988706
0
TEXT
5
5CB
100
AcDbEntity
8
0
100
AcDbText
62
2
6
CONTINUOUS
10
439.6999777026
20
75.7499988706
7
STANDARD
40
2.0000000000
1
D
41
0.8000000000
72
1
11
440.4999777026
21
75.7499988706
100
AcDbText
0
TEXT
5
5CC
100
AcDbEntity
8
0
100
AcDbText
62
2
6
CONTINUOUS
10
439.6999777026
20
71.2499988706
7
STANDARD
40
2.0000000000
1
C
41
0.8000000000
72
1
11
440.4999777026
21
71.2499988706
100
AcDbText
0
TEXT
5
5CD
100
AcDbEntity
8
0
100
AcDbText
62
2
6
CONTINUOUS
10
469.6999777026
20
71.2499988706
7
STANDARD
40
2.0000000000
1
 
41
0.8000000000
72
1
11
470.4999777026
21
71.2499988706
100
AcDbText
0
TEXT
5
5CE
100
AcDbEntity
8
0
100
AcDbText
62
2
6
CONTINUOUS
10
484.6999777026
20
71.2499988706
7
STANDARD
40
2.0000000000
1
 
41
0.8000000000
72
1
11
485.4999777026
21
71.2499988706
100
AcDbText
0
TEXT
5
5CF
100
AcDbEntity
8
0
100
AcDbText
62
2
6
CONTINUOUS
10
439.6999777026
20
66.7499988706
7
STANDARD
40
2.0000000000
1
B
41
0.8000000000
72
1
11
440.4999777026
21
66.7499988706
100
AcDbText
0
TEXT
5
5D0
100
AcDbEntity
8
0
100
AcDbText
62
2
6
CONTINUOUS
10
469.6999777026
20
66.7499988706
7
STANDARD
40
2.0000000000
1
 
41
0.8000000000
72
1
11
470.4999777026
21
66.7499988706
100
AcDbText
0
TEXT
5
5D1
100
AcDbEntity
8
0
100
AcDbText
62
2
6
CONTINUOUS
10
484.6999777026
20
66.7499988706
7
STANDARD
40
2.0000000000
1
 
41
0.8000000000
72
1
11
485.4999777026
21
66.7499988706
100
AcDbText
0
TEXT
5
5D2
100
AcDbEntity
8
0
100
AcDbText
62
2
6
CONTINUOUS
10
439.6999777026
20
62.2499988706
7
STANDARD
40
2.0000000000
1
A
41
0.8000000000
72
1
11
440.4999777026
21
62.2499988706
100
AcDbText
0
TEXT
5
5D3
100
AcDbEntity
8
0
100
AcDbText
62
2
6
CONTINUOUS
10
469.6999777026
20
62.2499988706
7
STANDARD
40
2.0000000000
1
 
41
0.8000000000
72
1
11
470.4999777026
21
62.2499988706
100
AcDbText
0
TEXT
5
5D4
100
AcDbEntity
8
0
100
AcDbText
62
2
6
CONTINUOUS
10
484.6999777026
20
62.2499988706
7
STANDARD
40
2.0000000000
1
 
41
0.8000000000
72
1
11
485.4999777026
21
62.2499988706
100
AcDbText
0
TEXT
5
5D5
100
AcDbEntity
8
0
100
AcDbText
62
2
6
CONTINUOUS
10
437.2999777026
20
57.7499988706
7
STANDARD
40
2.0000000000
1
IND.
41
0.8000000000
72
1
11
440.4999777026
21
57.7499988706
100
AcDbText
0
TEXT
5
5D6
100
AcDbEntity
8
0
100
AcDbText
62
2
6
CONTINUOUS
10
452.2999777026
20
57.7499988706
7
STANDARD
40
2.0000000000
1
DATE
41
0.8000000000
72
1
11
455.4999777026
21
57.7499988706
100
AcDbText
0
TEXT
5
5D7
100
AcDbEntity
8
0
100
AcDbText
62
2
6
CONTINUOUS
10
466.4999777026
20
57.7499988706
7
STANDARD
40
2.0000000000
1
DESS.
41
0.8000000000
72
1
11
470.4999777026
21
57.7499988706
100
AcDbText
0
TEXT
5
5D8
100
AcDbEntity
8
0
100
AcDbText
62
2
6
CONTINUOUS
10
480.6999777026
20
57.7499988706
7
STANDARD
40
2.0000000000
1
VERIF.
41
0.8000000000
72
1
11
485.4999777026
21
57.7499988706
100
AcDbText
0
TEXT
5
5D9
100
AcDbEntity
8
0
100
AcDbText
62
2
6
CONTINUOUS
10
535.5999777026
20
57.7499988706
7
STANDARD
40
2.0000000000
1
MODIFICATIONS
41
0.8000000000
72
1
11
545.9999777026
21
57.7499988706
100
AcDbText
0
TEXT
5
5DA
100
AcDbEntity
8
0
100
AcDbText
62
2
6
CONTINUOUS
10
434.0999777026
20
53.2499988706
7
STANDARD
40
2.0000000000
1
Création
41
0.8000000000
72
1
11
440.4999777026
21
53.2499988706
100
AcDbText
0
TEXT
5
5DB
100
AcDbEntity
8
0
100
AcDbText
62
2
6
CONTINUOUS
10
448.2999777026
20
53.2499988706
7
STANDARD
40
2.0000000000
1
05-Jul-20
41
0.8000000000
72
1
11
455.4999777026
21
53.2499988706
100
AcDbText
0
TEXT
5
5DC
100
AcDbEntity
8
0
100
AcDbText
62
2
6
CONTINUOUS
10
465.6999777026
20
53.2499988706
7
STANDARD
40
2.0000000000
1
BALLON
41
0.8000000000
72
1
11
470.4999777026
21
53.2499988706
100
AcDbText
0
TEXT
5
5DD
100
AcDbEntity
8
0
100
AcDbText
62
2
6
CONTINUOUS
10
483.0999777026
20
53.2499988706
7
STANDARD
40
2.0000000000
1
B.L
41
0.8000000000
72
1
11
485.4999777026
21
53.2499988706
100
AcDbText
0
TEXT
5
5DE
100
AcDbEntity
8
0
100
AcDbText
62
2
6
CONTINUOUS
10
493.0624777026
20
53.2499988706
7
STANDARD
40
2.0000000000
1
Annule et remplace plan N%%d                      ind:
41
0.7974358974
72
0
100
AcDbText
0
TEXT
5
5DF
100
AcDbEntity
8
0
100
AcDbText
62
2
6
CONTINUOUS
10
433.0624777026
20
48.7499988706
7
STANDARD
40
2.0000000000
1
ETAT DE SURFACES:
41
0.8000000000
72
0
100
AcDbText
0
TEXT
5
5E0
100
AcDbEntity
8
0
100
AcDbText
62
2
6
CONTINUOUS
10
496.5999777026
20
48.7499988706
7
STANDARD
40
2.0000000000
1
CASSER LES ANGLES VIFS: 0,5 x 0,5
41
0.8000000000
72
1
11
522.9999777026
21
48.7499988706
100
AcDbText
0
TEXT
5
5E1
100
AcDbEntity
8
0
100
AcDbText
62
2
6
CONTINUOUS
10
558.6333110359
20
35.7499988706
7
TEXTSTYLE_1
40
4.0000000000
1
ECH: 
41
0.6700000000
72
1
11
565.3333110359
21
35.7499988706
100
AcDbText
0
TEXT
5
5E2
100
AcDbEntity
8
0
100
AcDbText
62
2
6
CONTINUOUS
10
572.0333110359
20
35.7499988706
7
TEXTSTYLE_1
40
4.0000000000
1
1
41
0.3333333333
72
1
11
572.6999777026
21
35.7499988706
100
AcDbText
0
TEXT
5
5E3
100
AcDbEntity
8
0
100
AcDbText
62
2
6
CONTINUOUS
10
585.9333110359
20
35.7499988706
7
TEXTSTYLE_1
40
4.0000000000
1
A2
41
0.7666666667
72
1
11
588.9999777026
21
35.7499988706
100
AcDbText
0
TEXT
5
5E4
100
AcDbEntity
8
0
100
AcDbText
62
2
6
CONTINUOUS
10
502.1999777026
20
35.2499988706
7
STANDARD
40
2.0000000000
1
TOL. GENERALE: JS13 - js13
41
0.8000000000
72
1
11
522.9999777026
21
35.2499988706
100
AcDbText
0
TEXT
5
5E5
100
AcDbEntity
8
0
100
AcDbText
62
2
6
CONTINUOUS
10
433.0624777026
20
29.9999988706
7
STANDARD
40
2.0000000000
1
MATIERE
41
0.8000000000
72
0
100
AcDbText
0
TEXT
5
5E6
100
AcDbEntity
8
0
100
AcDbText
62
2
6
CONTINUOUS
10
473.0624777026
20
29.9999988706
7
STANDARD
40
2.0000000000
1
TRAITEMENT
41
0.8000000000
72
0
100
AcDbText
0
TEXT
5
5E7
100
AcDbEntity
8
0
100
AcDbText
62
2
6
CONTINUOUS
10
513.0624777026
20
29.9999988706
7
STANDARD
40
2.0000000000
1
PROTECTION
41
0.8000000000
72
0
100
AcDbText
0
TEXT
5
5E8
100
AcDbEntity
8
0
100
AcDbText
62
2
6
CONTINUOUS
10
573.9999777026
20
25.9614323409
7
TEXTSTYLE_1
40
5.0000000000
1
 
41
0.8000000000
51
10.0000000000
72
1
11
575.9999777026
21
25.9614323409
100
AcDbText
0
TEXT
5
5E9
100
AcDbEntity
8
0
100
AcDbText
62
2
6
CONTINUOUS
10
443.9499777026
20
25.4999988706
7
TEXTSTYLE_1
40
3.0000000000
1
7075  T6
41
0.7541666667
72
1
11
452.9999777026
21
25.4999988706
100
AcDbText
0
TEXT
5
5EA
100
AcDbEntity
8
0
100
AcDbText
62
2
6
CONTINUOUS
10
492.9999777026
20
26.9999988706
7
TEXTSTYLE_1
40
3.0000000000
1

41
1.0000000000
72
1
11
492.9999777026
21
26.9999988706
100
AcDbText
0
TEXT
5
5EB
100
AcDbEntity
8
0
100
AcDbText
62
2
6
CONTINUOUS
10
532.9999777026
20
26.9999988706
7
TEXTSTYLE_1
40
3.0000000000
1

41
1.0000000000
72
1
11
532.9999777026
21
26.9999988706
100
AcDbText
0
TEXT
5
5EC
100
AcDbEntity
8
0
100
AcDbText
62
2
6
CONTINUOUS
10
436.9062277026
20
17.2499988706
7
TEXTSTYLE_1
40
5.0000000000
1
DESIGNATION :
41
0.4951923077
72
1
11
452.9999777026
21
17.2499988706
100
AcDbText
0
TEXT
5
5ED
100
AcDbEntity
8
0
100
AcDbText
62
2
6
CONTINUOUS
10
494.8749777026
20
17.2499988706
7
TEXTSTYLE_1
40
5.0000000000
1
PALIER ARRIERE
41
0.5178571429
72
1
11
512.9999777026
21
17.2499988706
100
AcDbText
0
TEXT
5
5EE
100
AcDbEntity
8
0
100
AcDbText
62
2
6
CONTINUOUS
10
561.0937277026
20
17.2499988706
7
TEXTSTYLE_1
40
5.0000000000
1
N : 
41
0.4906250000
72
1
11
565.9999777026
21
17.2499988706
100
AcDbText
0
TEXT
5
5EF
100
AcDbEntity
8
0
100
AcDbText
62
2
6
CONTINUOUS
10
570.9062277026
20
17.2499988706
7
TEXTSTYLE_1
40
5.0000000000
1
100063_A
41
0.5000000000
72
1
11
580.9062277026
21
17.2499988706
100
AcDbText
0
TEXT
5
5F0
100
AcDbEntity
8
0
100
AcDbText
62
2
6
CONTINUOUS
10
198.2812104733
20
253.4535755331
7
TEXTSTYLE_1
40
3.5000000000
1
COUPE 
41
0.7666666667
72
0
100
AcDbText
0
TEXT
5
5F1
100
AcDbEntity
8
0
100
AcDbText
62
2
6
CONTINUOUS
10
214.3812104733
20
253.4535755331
7
TEXTSTYLE_1
40
3.5000000000
1
B-B
41
0.6111111111
72
0
100
AcDbText
0
TEXT
5
5F2
100
AcDbEntity
8
0
100
AcDbText
62
2
6
CONTINUOUS
10
116.9974849924
20
252.9692316402
7
TEXTSTYLE_1
40
3.5000000000
1
COUPE 
41
0.7666666667
72
0
100
AcDbText
0
TEXT
5
5F3
100
AcDbEntity
8
0
100
AcDbText
62
2
6
CONTINUOUS
10
133.0974849924
20
252.9692316402
7
TEXTSTYLE_1
40
3.5000000000
1
A-A
41
0.6555555556
72
0
100
AcDbText
0
TEXT
5
5F4
100
AcDbEntity
8
0
100
AcDbText
62
2
6
CONTINUOUS
10
113.7195039608
20
133.4158239085
7
TEXTSTYLE_1
40
3.5000000000
1
COUPE 
41
0.7666666667
72
0
100
AcDbText
0
TEXT
5
5F5
100
AcDbEntity
8
0
100
AcDbText
62
2
6
CONTINUOUS
10
129.8195039608
20
133.4158239085
7
TEXTSTYLE_1
40
3.5000000000
1
C-C
41
0.6555555556
72
0
100
AcDbText
0
INSERT
5
5F6
100
AcDbEntity
8
0
100
AcDbBlockReference
62
2
6
CONTINUOUS
2
N-CAR_BL2
10
0.0000000000
20
0.0000000000
0
INSERT
5
5F7
100
AcDbEntity
8
0
100
AcDbBlockReference
62
2
6
CONTINUOUS
2
RUGOSITE_BL3
10
0.0000000000
20
0.0000000000
0
LINE
5
5F8
100
AcDbEntity
8
0
100
AcDbLine
62
7
6
CONTINUOUS
10
10.0000000000
20
10.0000000000
11
10.0000000000
21
430.0000000000
0
LINE
5
5F9
100
AcDbEntity
8
0
100
AcDbLine
62
7
6
CONTINUOUS
10
15.0000000000
20
15.0000000000
11
15.0000000000
21
425.0000000000
0
LINE
5
5FA
100
AcDbEntity
8
0
100
AcDbLine
62
7
6
CONTINUOUS
10
10.0000000000
20
10.0000000000
11
604.0000000000
21
10.0000000000
0
LINE
5
5FB
100
AcDbEntity
8
0
100
AcDbLine
62
7
6
CONTINUOUS
10
15.0000000000
20
15.0000000000
11
599.0000000000
21
15.0000000000
0
LINE
5
5FC
100
AcDbEntity
8
0
100
AcDbLine
62
7
6
CONTINUOUS
10
15.0000000000
20
222.8867513459
11
10.0000000000
21
220.0000000000
0
LINE
5
5FD
100
AcDbEntity
8
0
100
AcDbLine
62
7
6
CONTINUOUS
10
15.0000000000
20
217.1132486541
11
10.0000000000
21
220.0000000000
0
LINE
5
5FE
100
AcDbEntity
8
0
100
AcDbLine
62
7
6
CONTINUOUS
10
304.1132486541
20
425.0000000000
11
307.0000000000
21
430.0000000000
0
LINE
5
5FF
100
AcDbEntity
8
0
100
AcDbLine
62
7
6
CONTINUOUS
10
307.0000000000
20
10.0000000000
11
304.1132486541
21
15.0000000000
0
LINE
5
600
100
AcDbEntity
8
0
100
AcDbLine
62
7
6
CONTINUOUS
10
307.0000000000
20
10.0000000000
11
309.8867513459
21
15.0000000000
0
LINE
5
601
100
AcDbEntity
8
0
100
AcDbLine
62
7
6
CONTINUOUS
10
309.8867513459
20
425.0000000000
11
307.0000000000
21
430.0000000000
0
LINE
5
602
100
AcDbEntity
8
0
100
AcDbLine
62
7
6
CONTINUOUS
10
604.0000000000
20
220.0000000000
11
599.0000000000
21
217.1132486541
0
LINE
5
603
100
AcDbEntity
8
0
100
AcDbLine
62
7
6
CONTINUOUS
10
604.0000000000
20
220.0000000000
11
599.0000000000
21
222.8867513459
0
LINE
5
604
100
AcDbEntity
8
0
100
AcDbLine
62
7
6
CONTINUOUS
10
599.0000000000
20
425.0000000000
11
15.0000000000
21
425.0000000000
0
LINE
5
605
100
AcDbEntity
8
0
100
AcDbLine
62
7
6
CONTINUOUS
10
604.0000000000
20
430.0000000000
11
10.0000000000
21
430.0000000000
0
LINE
5
606
100
AcDbEntity
8
0
100
AcDbLine
62
7
6
CONTINUOUS
10
599.0000000000
20
15.0000000000
11
599.0000000000
21
425.0000000000
0
LINE
5
607
100
AcDbEntity
8
0
100
AcDbLine
62
7
6
CONTINUOUS
10
604.0000000000
20
10.0000000000
11
604.0000000000
21
430.0000000000
0
LINE
5
608
100
AcDbEntity
8
0
100
AcDbLine
62
7
6
CONTINUOUS
10
303.9740776838
20
143.4480440649
11
305.9684285619
21
143.4480440649
0
LINE
5
609
100
AcDbEntity
8
0
100
AcDbLine
62
5
6
CONTINUOUS
10
305.9684285619
20
143.4480440649
11
315.9684285619
21
143.4480440649
0
LINE
5
60A
100
AcDbEntity
8
0
100
AcDbLine
62
7
6
CONTINUOUS
10
271.4740776838
20
191.2491466347
11
271.4740776838
21
194.3184545866
0
LINE
5
60B
100
AcDbEntity
8
0
100
AcDbLine
62
7
6
CONTINUOUS
10
273.9740776838
20
231.2491466347
11
273.9740776838
21
223.1425449169
0
LINE
5
60C
100
AcDbEntity
8
0
100
AcDbLine
62
7
6
CONTINUOUS
10
281.9740776838
20
233.7491466347
11
281.9740776838
21
231.2491466347
0
LINE
5
60D
100
AcDbEntity
8
0
100
AcDbLine
62
7
6
CONTINUOUS
10
285.3740776838
20
188.7491466347
11
292.9740776838
21
188.7491466347
0
LINE
5
60E
100
AcDbEntity
8
0
100
AcDbLine
62
7
6
CONTINUOUS
10
312.1740776838
20
188.7491466347
11
319.7740776838
21
188.7491466347
0
LINE
5
60F
100
AcDbEntity
8
0
100
AcDbLine
62
7
6
CONTINUOUS
10
271.4740776838
20
191.2491466347
11
285.3740776838
21
191.2491466347
0
LINE
5
610
100
AcDbEntity
8
0
100
AcDbLine
62
7
6
CONTINUOUS
10
292.9740776838
20
191.2491466347
11
312.1740776838
21
191.2491466347
0
LINE
5
611
100
AcDbEntity
8
0
100
AcDbLine
62
7
6
CONTINUOUS
10
319.7740776838
20
191.2491466347
11
336.4740776838
21
191.2491466347
0
LINE
5
612
100
AcDbEntity
8
DEFAULT_1
100
AcDbLine
62
2
6
CENTER
10
315.9740776838
20
192.8491466347
11
309.3740776838
21
192.8491466347
0
LINE
5
613
100
AcDbEntity
8
DEFAULT_1
100
AcDbLine
62
2
6
CENTER
10
289.1740776838
20
192.8491466347
11
282.5740776838
21
192.8491466347
0
LINE
5
614
100
AcDbEntity
8
DEFAULT_1
100
AcDbLine
62
2
6
CENTER
10
289.1740776838
20
192.8491466347
11
295.7740776838
21
192.8491466347
0
LINE
5
615
100
AcDbEntity
8
DEFAULT_1
100
AcDbLine
62
2
6
CENTER
10
315.9740776838
20
192.8491466347
11
322.5740776838
21
192.8491466347
0
LINE
5
616
100
AcDbEntity
8
0
100
AcDbLine
62
7
6
CONTINUOUS
10
285.3740776838
20
191.2491466347
11
285.3740776838
21
188.7491466347
0
LINE
5
617
100
AcDbEntity
8
DEFAULT_1
100
AcDbLine
62
2
6
CENTER
10
285.9740776838
20
221.7491466347
11
285.9740776838
21
216.7490466347
0
LINE
5
618
100
AcDbEntity
8
DEFAULT_1
100
AcDbLine
62
2
6
CENTER
10
285.9740776838
20
221.7491466347
11
285.9740776838
21
226.7492466347
0
LINE
5
619
100
AcDbEntity
8
DEFAULT_1
100
AcDbLine
62
2
6
CENTER
10
288.9740776838
20
229.7491466347
11
288.9740776838
21
223.5491466347
0
LINE
5
61A
100
AcDbEntity
8
DEFAULT_1
100
AcDbLine
62
2
6
CENTER
10
288.9740776838
20
229.7491466347
11
288.9740776838
21
235.9491466347
0
LINE
5
61B
100
AcDbEntity
8
DEFAULT_1
100
AcDbLine
62
2
6
CENTER
10
289.1740776838
20
192.8491466347
11
289.1740776838
21
186.2491466347
0
LINE
5
61C
100
AcDbEntity
8
DEFAULT_1
100
AcDbLine
62
2
6
CENTER
10
289.1740776838
20
192.8491466347
11
289.1740776838
21
199.4491466347
0
LINE
5
61D
100
AcDbEntity
8
DEFAULT_1
100
AcDbLine
62
2
6
CENTER
10
309.9740776838
20
196.2491466347
11
301.9740776838
21
196.2491466347
0
LINE
5
61E
100
AcDbEntity
8
DEFAULT_1
100
AcDbLine
62
2
6
CENTER
10
297.9740776838
20
196.2491466347
11
289.9740776838
21
196.2491466347
0
LINE
5
61F
100
AcDbEntity
8
DEFAULT_1
100
AcDbLine
62
2
6
CENTER
10
297.9740776838
20
196.2491466347
11
301.9740776838
21
196.2491466347
0
LINE
5
620
100
AcDbEntity
8
DEFAULT_1
100
AcDbLine
62
2
6
CENTER
10
309.9740776838
20
196.2491466347
11
317.9740776838
21
196.2491466347
0
LINE
5
621
100
AcDbEntity
8
0
100
AcDbLine
62
7
6
CONTINUOUS
10
273.9740776838
20
223.1425449169
11
280.6707768249
21
216.4458457758
0
LINE
5
622
100
AcDbEntity
8
0
100
AcDbLine
62
7
6
CONTINUOUS
10
292.9740776838
20
188.7491466347
11
292.9740776838
21
191.2491466347
0
LINE
5
623
100
AcDbEntity
8
0
100
AcDbLine
62
7
6
CONTINUOUS
10
295.4740776838
20
219.0812666566
11
295.4740776838
21
233.7491466347
0
LINE
5
624
100
AcDbEntity
8
0
100
AcDbLine
62
7
6
CONTINUOUS
10
289.6094654214
20
199.1778170853
11
271.4740776838
21
194.3184545866
0
LINE
5
625
100
AcDbEntity
8
0
100
AcDbLine
62
7
6
CONTINUOUS
10
323.2902344661
20
197.8510547299
11
318.3386899461
21
199.1778170853
0
LINE
5
626
100
AcDbEntity
8
DEFAULT_1
100
AcDbLine
62
2
6
CENTER
10
297.9740776838
20
196.2491466347
11
297.9740776838
21
188.2491466347
0
LINE
5
627
100
AcDbEntity
8
DEFAULT_1
100
AcDbLine
62
2
6
CENTER
10
297.9740776838
20
196.2491466347
11
297.9740776838
21
204.2491466347
0
LINE
5
628
100
AcDbEntity
8
0
100
AcDbLine
62
5
6
PHANTOM
10
303.9740776838
20
299.5851302247
11
303.9740776838
21
296.0871405154
0
LINE
5
629
100
AcDbEntity
8
DEFAULT_1
100
AcDbLine
62
2
6
CENTER
10
303.9740776838
20
212.0991466347
11
303.9740776838
21
207.0990466347
0
LINE
5
62A
100
AcDbEntity
8
0
100
AcDbLine
62
5
6
PHANTOM
10
303.9740776838
20
150.3648209513
11
303.9740776838
21
143.4480440649
0
LINE
5
62B
100
AcDbEntity
8
DEFAULT_1
100
AcDbLine
62
2
6
CENTER
10
303.9740776838
20
188.7491466347
11
303.9740776838
21
203.7161323464
0
LINE
5
62C
100
AcDbEntity
8
DEFAULT_1
100
AcDbLine
62
2
6
CENTER
10
303.9740776838
20
212.0991466347
11
303.9740776838
21
254.1767529201
0
LINE
5
62D
100
AcDbEntity
8
DEFAULT_1
100
AcDbLine
62
2
6
CENTER
10
303.9740776838
20
268.5455200762
11
303.9740776838
21
291.9230441356
0
LINE
5
62E
100
AcDbEntity
8
DEFAULT_1
100
AcDbLine
62
2
6
CENTER
10
303.9740776838
20
212.0991466347
11
298.9739776838
21
212.0991466347
0
LINE
5
62F
100
AcDbEntity
8
DEFAULT_1
100
AcDbLine
62
2
6
CENTER
10
303.9740776838
20
212.0991466347
11
308.9741776838
21
212.0991466347
0
LINE
5
630
100
AcDbEntity
8
0
100
AcDbLine
62
7
6
CONTINUOUS
10
333.9740776838
20
220.7894154238
11
330.7845763505
21
219.6285318763
0
LINE
5
631
100
AcDbEntity
8
DEFAULT_1
100
AcDbLine
62
2
6
CENTER
10
309.9740776838
20
196.2491466347
11
309.9740776838
21
188.2491466347
0
LINE
5
632
100
AcDbEntity
8
DEFAULT_1
100
AcDbLine
62
2
6
CENTER
10
309.9740776838
20
196.2491466347
11
309.9740776838
21
204.2491466347
0
LINE
5
633
100
AcDbEntity
8
0
100
AcDbLine
62
7
6
CONTINUOUS
10
312.1740776838
20
191.2491466347
11
312.1740776838
21
188.7491466347
0
LINE
5
634
100
AcDbEntity
8
0
100
AcDbLine
62
7
6
CONTINUOUS
10
312.4740776838
20
233.7491466347
11
312.4740776838
21
219.0812666566
0
LINE
5
635
100
AcDbEntity
8
DEFAULT_1
100
AcDbLine
62
2
6
CENTER
10
285.9740776838
20
221.7491466347
11
280.9739776838
21
221.7491466347
0
LINE
5
636
100
AcDbEntity
8
DEFAULT_1
100
AcDbLine
62
2
6
CENTER
10
285.9740776838
20
221.7491466347
11
290.9741776838
21
221.7491466347
0
LINE
5
637
100
AcDbEntity
8
0
100
AcDbLine
62
7
6
CONTINUOUS
10
320.3272883777
20
222.7491466347
11
321.2004803806
21
222.7491466347
0
LINE
5
638
100
AcDbEntity
8
DEFAULT_1
100
AcDbLine
62
2
6
CENTER
10
315.9740776838
20
192.8491466347
11
315.9740776838
21
186.2491466347
0
LINE
5
639
100
AcDbEntity
8
DEFAULT_1
100
AcDbLine
62
2
6
CENTER
10
315.9740776838
20
192.8491466347
11
315.9740776838
21
199.4491466347
0
LINE
5
63A
100
AcDbEntity
8
DEFAULT_1
100
AcDbLine
62
2
6
CENTER
10
317.4740776838
20
229.7491466347
11
317.4740776838
21
223.5491466347
0
LINE
5
63B
100
AcDbEntity
8
DEFAULT_1
100
AcDbLine
62
2
6
CENTER
10
317.4740776838
20
229.7491466347
11
317.4740776838
21
235.9491466347
0
LINE
5
63C
100
AcDbEntity
8
0
100
AcDbLine
62
7
6
CONTINUOUS
10
319.7740776838
20
188.7491466347
11
319.7740776838
21
191.2491466347
0
LINE
5
63D
100
AcDbEntity
8
DEFAULT_1
100
AcDbLine
62
2
6
CENTER
10
322.9740776838
20
227.7491466347
11
314.9740776838
21
227.7491466347
0
LINE
5
63E
100
AcDbEntity
8
DEFAULT_1
100
AcDbLine
62
2
6
CENTER
10
322.9740776838
20
227.7491466347
11
330.9740776838
21
227.7491466347
0
LINE
5
63F
100
AcDbEntity
8
DEFAULT_1
100
AcDbLine
62
2
6
CENTER
10
322.9740776838
20
227.7491466347
11
322.9740776838
21
219.7491466347
0
LINE
5
640
100
AcDbEntity
8
DEFAULT_1
100
AcDbLine
62
2
6
CENTER
10
322.9740776838
20
227.7491466347
11
322.9740776838
21
235.7491466347
0
LINE
5
641
100
AcDbEntity
8
DEFAULT_1
100
AcDbLine
62
2
6
CENTER
10
317.4740776838
20
229.7491466347
11
311.2740776838
21
229.7491466347
0
LINE
5
642
100
AcDbEntity
8
DEFAULT_1
100
AcDbLine
62
2
6
CENTER
10
288.9740776838
20
229.7491466347
11
282.7740776838
21
229.7491466347
0
LINE
5
643
100
AcDbEntity
8
DEFAULT_1
100
AcDbLine
62
2
6
CENTER
10
288.9740776838
20
229.7491466347
11
295.1740776838
21
229.7491466347
0
LINE
5
644
100
AcDbEntity
8
DEFAULT_1
100
AcDbLine
62
2
6
CENTER
10
317.4740776838
20
229.7491466347
11
323.6740776838
21
229.7491466347
0
LINE
5
645
100
AcDbEntity
8
0
100
AcDbLine
62
7
6
CONTINUOUS
10
333.9740776838
20
231.2491466347
11
325.9740776838
21
231.2491466347
0
LINE
5
646
100
AcDbEntity
8
0
100
AcDbLine
62
7
6
CONTINUOUS
10
281.9740776838
20
231.2491466347
11
273.9740776838
21
231.2491466347
0
LINE
5
647
100
AcDbEntity
8
0
100
AcDbLine
62
7
6
CONTINUOUS
10
325.9740776838
20
231.2491466347
11
325.9740776838
21
233.7491466347
0
LINE
5
648
100
AcDbEntity
8
0
100
AcDbLine
62
7
6
CONTINUOUS
10
325.9740776838
20
233.7491466347
11
312.4740776838
21
233.7491466347
0
LINE
5
649
100
AcDbEntity
8
0
100
AcDbLine
62
7
6
CONTINUOUS
10
295.4740776838
20
233.7491466347
11
281.9740776838
21
233.7491466347
0
LINE
5
64A
100
AcDbEntity
8
0
100
AcDbLine
62
7
6
CONTINUOUS
10
323.0798656222
20
221.4331869214
11
329.2827927956
21
204.3907845780
0
LINE
5
64B
100
AcDbEntity
8
0
100
AcDbLine
62
7
6
CONTINUOUS
10
336.4740776838
20
198.1491466347
11
329.5892313955
21
217.0651063481
0
LINE
5
64C
100
AcDbEntity
8
0
100
AcDbLine
62
7
6
CONTINUOUS
10
333.9740776838
20
220.7894154238
11
333.9740776838
21
231.2491466347
0
LINE
5
64D
100
AcDbEntity
8
0
100
AcDbLine
62
7
6
CONTINUOUS
10
336.4740776838
20
191.2491466347
11
336.4740776838
21
198.1491466347
0
LINE
5
64E
100
AcDbEntity
8
0
100
AcDbLine
62
7
6
CONTINUOUS
10
303.9740776838
20
299.5851302247
11
305.9684285619
21
299.5851302247
0
LINE
5
64F
100
AcDbEntity
8
0
100
AcDbLine
62
5
6
CONTINUOUS
10
305.9684285619
20
299.5851302247
11
315.9684285619
21
299.5851302247
0
LINE
5
650
100
AcDbEntity
8
0
100
AcDbLine
62
7
6
CONTINUOUS
10
271.4740776838
20
324.4863980370
11
271.4740776838
21
330.4863980370
0
LINE
5
651
100
AcDbEntity
8
0
100
AcDbLine
62
7
6
CONTINUOUS
10
273.9740776838
20
326.9494009880
11
273.9740776838
21
328.0233950861
0
LINE
5
652
100
AcDbEntity
8
DEFAULT_1
100
AcDbLine
62
2
6
CENTER
10
275.4740776838
20
327.4863980370
11
275.4740776838
21
320.8863980370
0
LINE
5
653
100
AcDbEntity
8
DEFAULT_1
100
AcDbLine
62
2
6
CENTER
10
275.4740776838
20
327.4863980370
11
275.4740776838
21
334.0863980370
0
LINE
5
654
100
AcDbEntity
8
0
100
AcDbLine
62
7
6
CONTINUOUS
10
285.3740776838
20
324.4863980370
11
285.3740776838
21
330.4863980370
0
LINE
5
655
100
AcDbEntity
8
DEFAULT_1
100
AcDbLine
62
2
6
CENTER
10
285.9740776838
20
332.9863980370
11
285.9740776838
21
321.9863980370
0
LINE
5
656
100
AcDbEntity
8
0
100
AcDbLine
62
7
6
CONTINUOUS
10
292.9740776838
20
324.4863980370
11
292.9740776838
21
330.4863980370
0
LINE
5
657
100
AcDbEntity
8
0
100
AcDbLine
62
7
6
CONTINUOUS
10
271.4740776838
20
324.4863980370
11
336.4740776838
21
324.4863980370
0
LINE
5
658
100
AcDbEntity
8
DEFAULT_1
100
AcDbLine
62
2
6
CENTER
10
303.9740776838
20
327.4863980370
11
303.9740776838
21
320.8863980370
0
LINE
5
659
100
AcDbEntity
8
DEFAULT_1
100
AcDbLine
62
2
6
CENTER
10
303.9740776838
20
327.4863980370
11
303.9740776838
21
349.1991775203
0
LINE
5
65A
100
AcDbEntity
8
DEFAULT_1
100
AcDbLine
62
2
6
CENTER
10
332.4740776838
20
327.4863980370
11
325.8740776838
21
327.4863980370
0
LINE
5
65B
100
AcDbEntity
8
DEFAULT_1
100
AcDbLine
62
2
6
CENTER
10
303.9740776838
20
327.4863980370
11
297.3740776838
21
327.4863980370
0
LINE
5
65C
100
AcDbEntity
8
DEFAULT_1
100
AcDbLine
62
2
6
CENTER
10
275.4740776838
20
327.4863980370
11
268.8740776838
21
327.4863980370
0
LINE
5
65D
100
AcDbEntity
8
DEFAULT_1
100
AcDbLine
62
2
6
CENTER
10
275.4740776838
20
327.4863980370
11
282.0740776838
21
327.4863980370
0
LINE
5
65E
100
AcDbEntity
8
DEFAULT_1
100
AcDbLine
62
2
6
CENTER
10
303.9740776838
20
327.4863980370
11
310.5740776838
21
327.4863980370
0
LINE
5
65F
100
AcDbEntity
8
DEFAULT_1
100
AcDbLine
62
2
6
CENTER
10
332.4740776838
20
327.4863980370
11
361.1888741357
21
327.4863980370
0
LINE
5
660
100
AcDbEntity
8
0
100
AcDbLine
62
7
6
CONTINUOUS
10
271.4740776838
20
330.4863980370
11
336.4740776838
21
330.4863980370
0
LINE
5
661
100
AcDbEntity
8
0
100
AcDbLine
62
7
6
CONTINUOUS
10
312.1740776838
20
324.4863980370
11
312.1740776838
21
330.4863980370
0
LINE
5
662
100
AcDbEntity
8
0
100
AcDbLine
62
7
6
CONTINUOUS
10
319.7740776838
20
324.4863980370
11
319.7740776838
21
330.4863980370
0
LINE
5
663
100
AcDbEntity
8
DEFAULT_1
100
AcDbLine
62
2
6
CENTER
10
332.4740776838
20
327.4863980370
11
332.4740776838
21
320.8863980370
0
LINE
5
664
100
AcDbEntity
8
DEFAULT_1
100
AcDbLine
62
2
6
CENTER
10
332.4740776838
20
327.4863980370
11
332.4740776838
21
334.0863980370
0
LINE
5
665
100
AcDbEntity
8
0
100
AcDbLine
62
7
6
CONTINUOUS
10
336.4740776838
20
324.4863980370
11
336.4740776838
21
330.4863980370
0
LINE
5
666
100
AcDbEntity
8
0
100
AcDbLine
62
7
6
CONTINUOUS
10
271.4740776838
20
91.5589088779
11
271.4740776838
21
97.5589088779
0
LINE
5
667
100
AcDbEntity
8
0
100
AcDbLine
62
7
6
CONTINUOUS
10
273.9740776838
20
97.5589088779
11
273.9740776838
21
91.5589088779
0
LINE
5
668
100
AcDbEntity
8
DEFAULT_1
100
AcDbLine
62
2
6
CENTER
10
277.9740776838
20
94.5589088779
11
277.9740776838
21
88.3589088779
0
LINE
5
669
100
AcDbEntity
8
DEFAULT_1
100
AcDbLine
62
2
6
CENTER
10
277.9740776838
20
94.5589088779
11
277.9740776838
21
100.7589088779
0
LINE
5
66A
100
AcDbEntity
8
0
100
AcDbLine
62
7
6
CONTINUOUS
10
281.9740776838
20
97.5589088779
11
281.9740776838
21
91.5589088779
0
LINE
5
66B
100
AcDbEntity
8
DEFAULT_1
100
AcDbLine
62
2
6
CENTER
10
285.9740776838
20
89.0589088779
11
285.9740776838
21
100.0589088779
0
LINE
5
66C
100
AcDbEntity
8
0
100
AcDbLine
62
7
6
CONTINUOUS
10
295.4740776838
20
91.5589088779
11
295.4740776838
21
97.5589088779
0
LINE
5
66D
100
AcDbEntity
8
0
100
AcDbLine
62
7
6
CONTINUOUS
10
336.4740776838
20
91.5589088779
11
271.4740776838
21
91.5589088779
0
LINE
5
66E
100
AcDbEntity
8
DEFAULT_1
100
AcDbLine
62
2
6
CENTER
10
303.9740776838
20
94.5589088779
11
303.9740776838
21
83.8098435001
0
LINE
5
66F
100
AcDbEntity
8
DEFAULT_1
100
AcDbLine
62
2
6
CENTER
10
303.9740776838
20
94.5589088779
11
303.9740776838
21
101.1589088779
0
LINE
5
670
100
AcDbEntity
8
DEFAULT_1
100
AcDbLine
62
2
6
CENTER
10
329.9740776838
20
94.5589088779
11
323.7740776838
21
94.5589088779
0
LINE
5
671
100
AcDbEntity
8
DEFAULT_1
100
AcDbLine
62
2
6
CENTER
10
303.9740776838
20
94.5589088779
11
297.3740776838
21
94.5589088779
0
LINE
5
672
100
AcDbEntity
8
DEFAULT_1
100
AcDbLine
62
2
6
CENTER
10
277.9740776838
20
94.5589088779
11
271.7740776838
21
94.5589088779
0
LINE
5
673
100
AcDbEntity
8
DEFAULT_1
100
AcDbLine
62
2
6
CENTER
10
277.9740776838
20
94.5589088779
11
284.1740776838
21
94.5589088779
0
LINE
5
674
100
AcDbEntity
8
DEFAULT_1
100
AcDbLine
62
2
6
CENTER
10
303.9740776838
20
94.5589088779
11
310.5740776838
21
94.5589088779
0
LINE
5
675
100
AcDbEntity
8
DEFAULT_1
100
AcDbLine
62
2
6
CENTER
10
329.9740776838
20
94.5589088779
11
351.1584077465
21
94.5589088779
0
LINE
5
676
100
AcDbEntity
8
0
100
AcDbLine
62
7
6
CONTINUOUS
10
271.4740776838
20
97.5589088779
11
336.4740776838
21
97.5589088779
0
LINE
5
677
100
AcDbEntity
8
0
100
AcDbLine
62
7
6
CONTINUOUS
10
312.4740776838
20
91.5589088779
11
312.4740776838
21
97.5589088779
0
LINE
5
678
100
AcDbEntity
8
0
100
AcDbLine
62
7
6
CONTINUOUS
10
325.9740776838
20
97.5589088779
11
325.9740776838
21
91.5589088779
0
LINE
5
679
100
AcDbEntity
8
DEFAULT_1
100
AcDbLine
62
2
6
CENTER
10
329.9740776838
20
94.5589088779
11
329.9740776838
21
88.3589088779
0
LINE
5
67A
100
AcDbEntity
8
DEFAULT_1
100
AcDbLine
62
2
6
CENTER
10
329.9740776838
20
94.5589088779
11
329.9740776838
21
100.7589088779
0
LINE
5
67B
100
AcDbEntity
8
0
100
AcDbLine
62
7
6
CONTINUOUS
10
333.9740776838
20
97.5589088779
11
333.9740776838
21
91.5589088779
0
LINE
5
67C
100
AcDbEntity
8
0
100
AcDbLine
62
7
6
CONTINUOUS
10
336.4740776838
20
97.5589088779
11
336.4740776838
21
91.5589088779
0
LINE
5
67D
100
AcDbEntity
8
0
100
AcDbLine
62
7
6
CONTINUOUS
10
207.2827444293
20
167.3479825461
11
209.9044835503
21
167.3479825461
0
LINE
5
67E
100
AcDbEntity
8
0
100
AcDbLine
62
5
6
CONTINUOUS
10
209.9044835503
20
167.3479825461
11
219.9044835503
21
167.3479825461
0
LINE
5
67F
100
AcDbEntity
8
0
100
AcDbLine
62
7
6
CONTINUOUS
10
210.2827444293
20
188.7491466347
11
204.2827444293
21
188.7491466347
0
LINE
5
680
100
AcDbEntity
8
0
100
AcDbLine
62
7
6
CONTINUOUS
10
210.2827444293
20
191.2491466347
11
204.2827444293
21
191.2491466347
0
LINE
5
681
100
AcDbEntity
8
0
100
AcDbLine
62
7
6
CONTINUOUS
10
204.2827444293
20
201.0991466347
11
205.6827444293
21
201.0991466347
0
LINE
5
682
100
AcDbEntity
8
0
100
AcDbLine
62
7
6
CONTINUOUS
10
208.8827444293
20
201.0991466347
11
210.2827444293
21
201.0991466347
0
LINE
5
683
100
AcDbEntity
8
0
100
AcDbLine
62
7
6
CONTINUOUS
10
204.2827444293
20
188.7491466347
11
204.2827444293
21
233.7491466347
0
LINE
5
684
100
AcDbEntity
8
0
100
AcDbLine
62
2
6
CONTINUOUS
10
205.2827444293
20
201.0991466347
11
205.2827444293
21
191.2491466347
0
LINE
5
685
100
AcDbEntity
8
0
100
AcDbLine
62
7
6
CONTINUOUS
10
205.6827444293
20
201.0991466347
11
205.6827444293
21
191.2491466347
0
LINE
5
686
100
AcDbEntity
8
0
100
AcDbLine
62
5
6
PHANTOM
10
207.2827444293
20
244.1313898941
11
207.2827444293
21
234.1313898941
0
LINE
5
687
100
AcDbEntity
8
0
100
AcDbLine
62
2
6
PHANTOM
10
207.2827444293
20
234.1313898941
11
207.2827444293
21
177.3479825461
0
LINE
5
688
100
AcDbEntity
8
0
100
AcDbLine
62
5
6
PHANTOM
10
207.2827444293
20
177.3479825461
11
207.2827444293
21
167.3479825461
0
LINE
5
689
100
AcDbEntity
8
DEFAULT_1
100
AcDbLine
62
2
6
CENTER
10
201.7827444293
20
212.0991466347
11
212.7827444293
21
212.0991466347
0
LINE
5
68A
100
AcDbEntity
8
0
100
AcDbLine
62
7
6
CONTINUOUS
10
208.8827444293
20
201.0991466347
11
208.8827444293
21
191.2491466347
0
LINE
5
68B
100
AcDbEntity
8
0
100
AcDbLine
62
2
6
CONTINUOUS
10
209.2827444293
20
201.0991466347
11
209.2827444293
21
191.2491466347
0
LINE
5
68C
100
AcDbEntity
8
0
100
AcDbLine
62
7
6
CONTINUOUS
10
210.2827444293
20
188.7491466347
11
210.2827444293
21
233.7491466347
0
LINE
5
68D
100
AcDbEntity
8
0
100
AcDbLine
62
2
6
CONTINUOUS
10
205.1947482754
20
201.0991466347
11
204.2827444293
21
200.1871427885
0
LINE
5
68E
100
AcDbEntity
8
0
100
AcDbLine
62
2
6
CONTINUOUS
10
205.6827444293
20
200.3409889424
11
204.2827444293
21
198.9409889424
0
LINE
5
68F
100
AcDbEntity
8
0
100
AcDbLine
62
2
6
CONTINUOUS
10
205.6827444293
20
199.0948350962
11
204.2827444293
21
197.6948350962
0
LINE
5
690
100
AcDbEntity
8
0
100
AcDbLine
62
7
6
CONTINUOUS
10
210.2827444293
20
219.0812666566
11
204.2827444293
21
219.0812666566
0
LINE
5
691
100
AcDbEntity
8
0
100
AcDbLine
62
2
6
CONTINUOUS
10
208.9332098139
20
201.0991466347
11
208.8827444293
21
201.0486812501
0
LINE
5
692
100
AcDbEntity
8
0
100
AcDbLine
62
2
6
CONTINUOUS
10
205.6827444293
20
197.8486812501
11
204.2827444293
21
196.4486812501
0
LINE
5
693
100
AcDbEntity
8
0
100
AcDbLine
62
2
6
CONTINUOUS
10
210.1793636600
20
201.0991466347
11
208.8827444293
21
199.8025274039
0
LINE
5
694
100
AcDbEntity
8
0
100
AcDbLine
62
2
6
CONTINUOUS
10
205.6827444293
20
196.6025274039
11
204.2827444293
21
195.2025274039
0
LINE
5
695
100
AcDbEntity
8
DEFAULT_1
100
AcDbLine
62
2
6
CENTER
10
201.7827444293
20
221.7491466347
11
212.7827444293
21
221.7491466347
0
LINE
5
696
100
AcDbEntity
8
0
100
AcDbLine
62
2
6
CONTINUOUS
10
210.2827444293
20
199.9563735578
11
208.8827444293
21
198.5563735578
0
LINE
5
697
100
AcDbEntity
8
0
100
AcDbLine
62
2
6
CONTINUOUS
10
205.6827444293
20
195.3563735578
11
204.2827444293
21
193.9563735578
0
LINE
5
698
100
AcDbEntity
8
0
100
AcDbLine
62
2
6
CONTINUOUS
10
210.2827444293
20
198.7102197116
11
208.8827444293
21
197.3102197116
0
LINE
5
699
100
AcDbEntity
8
0
100
AcDbLine
62
2
6
CONTINUOUS
10
205.6827444293
20
194.1102197116
11
204.2827444293
21
192.7102197116
0
LINE
5
69A
100
AcDbEntity
8
0
100
AcDbLine
62
2
6
CONTINUOUS
10
210.2827444293
20
197.4640658655
11
208.8827444293
21
196.0640658655
0
LINE
5
69B
100
AcDbEntity
8
0
100
AcDbLine
62
2
6
CONTINUOUS
10
205.6827444293
20
192.8640658655
11
204.2827444293
21
191.4640658655
0
LINE
5
69C
100
AcDbEntity
8
0
100
AcDbLine
62
2
6
CONTINUOUS
10
210.2827444293
20
196.2179120193
11
208.8827444293
21
194.8179120193
0
LINE
5
69D
100
AcDbEntity
8
0
100
AcDbLine
62
2
6
CONTINUOUS
10
205.6827444293
20
191.6179120193
11
205.3139790447
21
191.2491466347
0
LINE
5
69E
100
AcDbEntity
8
0
100
AcDbLine
62
2
6
CONTINUOUS
10
210.2827444293
20
194.9717581732
11
208.8827444293
21
193.5717581732
0
LINE
5
69F
100
AcDbEntity
8
0
100
AcDbLine
62
2
6
CONTINUOUS
10
210.2827444293
20
193.7256043270
11
208.8827444293
21
192.3256043270
0
LINE
5
6A0
100
AcDbEntity
8
0
100
AcDbLine
62
2
6
CONTINUOUS
10
210.2827444293
20
192.4794504809
11
209.0524405831
21
191.2491466347
0
LINE
5
6A1
100
AcDbEntity
8
0
100
AcDbLine
62
7
6
CONTINUOUS
10
204.2827444293
20
233.7491466347
11
210.2827444293
21
233.7491466347
0
LINE
5
6A2
100
AcDbEntity
8
0
100
AcDbLine
62
7
6
CONTINUOUS
10
207.2827444293
20
244.1313898941
11
209.9044835503
21
244.1313898941
0
LINE
5
6A3
100
AcDbEntity
8
0
100
AcDbLine
62
5
6
CONTINUOUS
10
209.9044835503
20
244.1313898941
11
219.9044835503
21
244.1313898941
0
LINE
5
6A4
100
AcDbEntity
8
0
100
AcDbLine
62
7
6
CONTINUOUS
10
67.3455212696
20
212.0991466347
11
67.3455212696
21
216.0453342622
0
LINE
5
6A5
100
AcDbEntity
8
0
100
AcDbLine
62
5
6
CONTINUOUS
10
67.3455212696
20
216.0453342622
11
67.3455212696
21
226.0453342622
0
LINE
5
6A6
100
AcDbEntity
8
0
100
AcDbLine
62
7
6
CONTINUOUS
10
94.0175167105
20
191.2491466347
11
94.0175167105
21
198.1491466347
0
LINE
5
6A7
100
AcDbEntity
8
0
100
AcDbLine
62
2
6
CONTINUOUS
10
96.6200167105
20
231.2491466347
11
96.5175167105
21
231.1466466347
0
LINE
5
6A8
100
AcDbEntity
8
0
100
AcDbLine
62
2
6
CONTINUOUS
10
98.5911705566
20
231.2491466347
11
96.5175167105
21
229.1754927885
0
LINE
5
6A9
100
AcDbEntity
8
0
100
AcDbLine
62
2
6
CONTINUOUS
10
96.0175167105
20
199.2491466347
11
96.0175167105
21
191.2491466347
0
LINE
5
6AA
100
AcDbEntity
8
0
100
AcDbLine
62
7
6
CONTINUOUS
10
96.4175167105
20
191.2491466347
11
96.4175167105
21
201.2491466347
0
LINE
5
6AB
100
AcDbEntity
8
0
100
AcDbLine
62
7
6
CONTINUOUS
10
96.5175167105
20
220.7894154238
11
96.5175167105
21
231.2491466347
0
LINE
5
6AC
100
AcDbEntity
8
0
100
AcDbLine
62
2
6
CONTINUOUS
10
99.3175167105
20
230.0043389424
11
96.5175167105
21
227.2043389424
0
LINE
5
6AD
100
AcDbEntity
8
0
100
AcDbLine
62
2
6
CONTINUOUS
10
102.5334782489
20
231.2491466347
11
101.7175167105
21
230.4331850962
0
LINE
5
6AE
100
AcDbEntity
8
0
100
AcDbLine
62
2
6
CONTINUOUS
10
99.3175167105
20
228.0331850962
11
96.5175167105
21
225.2331850962
0
LINE
5
6AF
100
AcDbEntity
8
DEFAULT_1
100
AcDbLine
62
2
6
CENTER
10
98.0175167105
20
188.7491466347
11
98.0175167105
21
204.6729070654
0
LINE
5
6B0
100
AcDbEntity
8
0
100
AcDbLine
62
2
6
CONTINUOUS
10
99.0175167105
20
231.2491466347
11
99.0175167105
21
224.2491466347
0
LINE
5
6B1
100
AcDbEntity
8
0
100
AcDbLine
62
7
6
CONTINUOUS
10
99.3175167105
20
231.2491466347
11
99.3175167105
21
222.2491466347
0
LINE
5
6B2
100
AcDbEntity
8
0
100
AcDbLine
62
7
6
CONTINUOUS
10
99.6175167105
20
191.2491466347
11
99.6175167105
21
201.2491466347
0
LINE
5
6B3
100
AcDbEntity
8
0
100
AcDbLine
62
2
6
CONTINUOUS
10
103.5001023245
20
230.2446168642
11
101.7175167105
21
228.4620312501
0
LINE
5
6B4
100
AcDbEntity
8
0
100
AcDbLine
62
2
6
CONTINUOUS
10
99.3175167105
20
226.0620312501
11
96.5175167105
21
223.2620312501
0
LINE
5
6B5
100
AcDbEntity
8
0
100
AcDbLine
62
2
6
CONTINUOUS
10
103.5618809633
20
228.3352416568
11
101.7175167105
21
226.4908774039
0
LINE
5
6B6
100
AcDbEntity
8
0
100
AcDbLine
62
2
6
CONTINUOUS
10
99.3175167105
20
224.0908774039
11
96.5175167105
21
221.2908774039
0
LINE
5
6B7
100
AcDbEntity
8
0
100
AcDbLine
62
2
6
CONTINUOUS
10
100.0175167105
20
199.2491466347
11
100.0175167105
21
191.2491466347
0
LINE
5
6B8
100
AcDbEntity
8
DEFAULT_1
100
AcDbLine
62
2
6
CENTER
10
100.5175167105
20
219.0563263117
11
100.5175167105
21
233.7491466347
0
LINE
5
6B9
100
AcDbEntity
8
0
100
AcDbLine
62
7
6
CONTINUOUS
10
101.7175167105
20
231.2491466347
11
101.7175167105
21
222.2491466347
0
LINE
5
6BA
100
AcDbEntity
8
0
100
AcDbLine
62
2
6
CONTINUOUS
10
102.0175167105
20
231.2491466347
11
102.0175167105
21
224.2491466347
0
LINE
5
6BB
100
AcDbEntity
8
0
100
AcDbLine
62
7
6
CONTINUOUS
10
103.4174056029
20
221.4387459984
11
103.6922851081
21
222.4719320021
0
LINE
5
6BC
100
AcDbEntity
8
0
100
AcDbLine
62
7
6
CONTINUOUS
10
94.0175167105
20
198.1491466347
11
100.9023629987
21
217.0651063481
0
LINE
5
6BD
100
AcDbEntity
8
0
100
AcDbLine
62
7
6
CONTINUOUS
10
103.1345153325
20
221.0240203231
11
103.4174056029
21
221.4387459984
0
LINE
5
6BE
100
AcDbEntity
8
0
100
AcDbLine
62
2
6
CONTINUOUS
10
103.5037404079
20
226.3059472552
11
101.7175167105
21
224.5197235578
0
LINE
5
6BF
100
AcDbEntity
8
0
100
AcDbLine
62
2
6
CONTINUOUS
10
99.3995676534
20
222.2017745007
11
97.5950269296
21
220.3972337769
0
LINE
5
6C0
100
AcDbEntity
8
0
100
AcDbLine
62
2
6
CONTINUOUS
10
103.5783475985
20
224.4094005997
11
101.7175167105
21
222.5485697116
0
LINE
5
6C1
100
AcDbEntity
8
0
100
AcDbLine
62
2
6
CONTINUOUS
10
101.0090741040
20
221.8401271051
11
99.0401859196
21
219.8712389207
0
LINE
5
6C2
100
AcDbEntity
8
0
100
AcDbLine
62
7
6
CONTINUOUS
10
98.4562593922
20
207.9824948173
11
97.8953886381
21
208.8035121915
0
LINE
5
6C3
100
AcDbEntity
8
0
100
AcDbLine
62
7
6
CONTINUOUS
10
103.6593245294
20
223.6328678479
11
103.5343806945
21
224.8310236542
0
LINE
5
6C4
100
AcDbEntity
8
0
100
AcDbLine
62
7
6
CONTINUOUS
10
103.6922851081
20
222.4719320021
11
103.6593245294
21
223.6328678479
0
LINE
5
6C5
100
AcDbEntity
8
0
100
AcDbLine
62
7
6
CONTINUOUS
10
103.5343806945
20
224.8310236542
11
103.4972380812
21
226.6189480814
0
LINE
5
6C6
100
AcDbEntity
8
0
100
AcDbLine
62
7
6
CONTINUOUS
10
103.5624310449
20
228.3498465368
11
103.5343806945
21
230.0949027753
0
LINE
5
6C7
100
AcDbEntity
8
0
100
AcDbLine
62
7
6
CONTINUOUS
10
104.5175167105
20
231.2491466347
11
104.5175167105
21
233.7491466347
0
LINE
5
6C8
100
AcDbEntity
8
0
100
AcDbLine
62
7
6
CONTINUOUS
10
104.1157249309
20
197.1108777531
11
104.1390814229
21
198.0040389652
0
LINE
5
6C9
100
AcDbEntity
8
0
100
AcDbLine
62
7
6
CONTINUOUS
10
103.4972380812
20
226.6189480814
11
103.5624310449
21
228.3498465368
0
LINE
5
6CA
100
AcDbEntity
8
0
100
AcDbLine
62
7
6
CONTINUOUS
10
102.7724547647
20
220.6396317661
11
103.1345153325
21
221.0240203231
0
LINE
5
6CB
100
AcDbEntity
8
0
100
AcDbLine
62
2
6
CONTINUOUS
10
103.6900695382
20
222.5499686932
11
100.3566437667
21
219.2165429217
0
LINE
5
6CC
100
AcDbEntity
8
0
100
AcDbLine
62
7
6
CONTINUOUS
10
102.3646297787
20
220.2689950826
11
102.7724547647
21
220.6396317661
0
LINE
5
6CD
100
AcDbEntity
8
0
100
AcDbLine
62
7
6
CONTINUOUS
10
100.7138524649
20
218.8170186158
11
102.3646297787
21
220.2689950826
0
LINE
5
6CE
100
AcDbEntity
8
0
100
AcDbLine
62
7
6
CONTINUOUS
10
145.1175167105
20
188.7491466347
11
137.5175167105
21
188.7491466347
0
LINE
5
6CF
100
AcDbEntity
8
0
100
AcDbLine
62
7
6
CONTINUOUS
10
118.3175167105
20
188.7491466347
11
110.7175167105
21
188.7491466347
0
LINE
5
6D0
100
AcDbEntity
8
0
100
AcDbLine
62
7
6
CONTINUOUS
10
99.6175167105
20
201.2491466347
11
98.0175167105
21
202.1729070654
0
LINE
5
6D1
100
AcDbEntity
8
0
100
AcDbLine
62
7
6
CONTINUOUS
10
101.1948788629
20
205.0622331772
11
99.7961101648
21
206.5164780112
0
LINE
5
6D2
100
AcDbEntity
8
0
100
AcDbLine
62
7
6
CONTINUOUS
10
99.7961101648
20
206.5164780112
11
98.4562593922
21
207.9824948173
0
LINE
5
6D3
100
AcDbEntity
8
0
100
AcDbLine
62
7
6
CONTINUOUS
10
101.3748551988
20
204.8470130948
11
101.1948788629
21
205.0622331772
0
LINE
5
6D4
100
AcDbEntity
8
DEFAULT_1
100
AcDbLine
62
2
6
CENTER
10
107.5175167105
20
227.7491466347
11
107.5175167105
21
219.7491466347
0
LINE
5
6D5
100
AcDbEntity
8
DEFAULT_1
100
AcDbLine
62
2
6
CENTER
10
107.5175167105
20
227.7491466347
11
107.5175167105
21
235.7491466347
0
LINE
5
6D6
100
AcDbEntity
8
0
100
AcDbLine
62
7
6
CONTINUOUS
10
103.3896314658
20
191.2491466347
11
103.5602699799
21
193.0136072487
0
LINE
5
6D7
100
AcDbEntity
8
0
100
AcDbLine
62
7
6
CONTINUOUS
10
103.8853059693
20
195.2363254845
11
104.1157249309
21
197.1108777531
0
LINE
5
6D8
100
AcDbEntity
8
0
100
AcDbLine
62
7
6
CONTINUOUS
10
103.5602699799
20
193.0136072487
11
103.8853059693
21
195.2363254845
0
LINE
5
6D9
100
AcDbEntity
8
0
100
AcDbLine
62
7
6
CONTINUOUS
10
107.4117287720
20
221.4331869214
11
101.2088015987
21
204.3907845780
0
LINE
5
6DA
100
AcDbEntity
8
0
100
AcDbLine
62
7
6
CONTINUOUS
10
100.5175167105
20
221.5563263117
11
101.7175167105
21
222.2491466347
0
LINE
5
6DB
100
AcDbEntity
8
0
100
AcDbLine
62
7
6
CONTINUOUS
10
159.0175167105
20
191.2491466347
11
145.1175167105
21
191.2491466347
0
LINE
5
6DC
100
AcDbEntity
8
0
100
AcDbLine
62
7
6
CONTINUOUS
10
137.5175167105
20
191.2491466347
11
118.3175167105
21
191.2491466347
0
LINE
5
6DD
100
AcDbEntity
8
0
100
AcDbLine
62
7
6
CONTINUOUS
10
110.7175167105
20
191.2491466347
11
94.0175167105
21
191.2491466347
0
LINE
5
6DE
100
AcDbEntity
8
DEFAULT_1
100
AcDbLine
62
2
6
CENTER
10
141.3175167105
20
192.8491466347
11
134.7175167105
21
192.8491466347
0
LINE
5
6DF
100
AcDbEntity
8
DEFAULT_1
100
AcDbLine
62
2
6
CENTER
10
114.5175167105
20
192.8491466347
11
107.9175167105
21
192.8491466347
0
LINE
5
6E0
100
AcDbEntity
8
DEFAULT_1
100
AcDbLine
62
2
6
CENTER
10
114.5175167105
20
192.8491466347
11
121.1175167105
21
192.8491466347
0
LINE
5
6E1
100
AcDbEntity
8
DEFAULT_1
100
AcDbLine
62
2
6
CENTER
10
141.3175167105
20
192.8491466347
11
147.9175167105
21
192.8491466347
0
LINE
5
6E2
100
AcDbEntity
8
0
100
AcDbLine
62
2
6
CONTINUOUS
10
98.7055738873
20
207.7097038115
11
96.8058216956
21
205.8099516198
0
LINE
5
6E3
100
AcDbEntity
8
0
100
AcDbLine
62
7
6
CONTINUOUS
10
103.5343806945
20
230.0949027753
11
103.2701063142
21
231.2491466347
0
LINE
5
6E4
100
AcDbEntity
8
0
100
AcDbLine
62
7
6
CONTINUOUS
10
110.7175167105
20
188.7491466347
11
110.7175167105
21
191.2491466347
0
LINE
5
6E5
100
AcDbEntity
8
DEFAULT_1
100
AcDbLine
62
2
6
CENTER
10
113.0175167105
20
229.7491466347
11
113.0175167105
21
223.5491466347
0
LINE
5
6E6
100
AcDbEntity
8
DEFAULT_1
100
AcDbLine
62
2
6
CENTER
10
113.0175167105
20
229.7491466347
11
113.0175167105
21
235.9491466347
0
LINE
5
6E7
100
AcDbEntity
8
0
100
AcDbLine
62
2
6
CONTINUOUS
10
99.6468342745
20
206.6798103526
11
95.6778220864
21
202.7107981645
0
LINE
5
6E8
100
AcDbEntity
8
0
100
AcDbLine
62
2
6
CONTINUOUS
10
100.6092579693
20
205.6710802013
11
94.5498224772
21
199.6116447092
0
LINE
5
6E9
100
AcDbEntity
8
DEFAULT_1
100
AcDbLine
62
2
6
CENTER
10
132.5175167105
20
196.2491466347
11
124.5175167105
21
196.2491466347
0
LINE
5
6EA
100
AcDbEntity
8
DEFAULT_1
100
AcDbLine
62
2
6
CENTER
10
120.5175167105
20
196.2491466347
11
112.5175167105
21
196.2491466347
0
LINE
5
6EB
100
AcDbEntity
8
DEFAULT_1
100
AcDbLine
62
2
6
CENTER
10
120.5175167105
20
196.2491466347
11
124.5175167105
21
196.2491466347
0
LINE
5
6EC
100
AcDbEntity
8
DEFAULT_1
100
AcDbLine
62
2
6
CENTER
10
132.5175167105
20
196.2491466347
11
140.5175167105
21
196.2491466347
0
LINE
5
6ED
100
AcDbEntity
8
DEFAULT_1
100
AcDbLine
62
2
6
CENTER
10
114.5175167105
20
192.8491466347
11
114.5175167105
21
186.2491466347
0
LINE
5
6EE
100
AcDbEntity
8
DEFAULT_1
100
AcDbLine
62
2
6
CENTER
10
114.5175167105
20
192.8491466347
11
114.5175167105
21
199.4491466347
0
LINE
5
6EF
100
AcDbEntity
8
0
100
AcDbLine
62
2
6
CONTINUOUS
10
101.1792179990
20
204.2698863848
11
98.6925233910
21
201.7831917767
0
LINE
5
6F0
100
AcDbEntity
8
0
100
AcDbLine
62
2
6
CONTINUOUS
10
96.4175167105
20
199.5081850962
11
94.0175167105
21
197.1081850962
0
LINE
5
6F1
100
AcDbEntity
8
0
100
AcDbLine
62
2
6
CONTINUOUS
10
100.9593239285
20
202.0788384681
11
99.6175167105
21
200.7370312501
0
LINE
5
6F2
100
AcDbEntity
8
0
100
AcDbLine
62
2
6
CONTINUOUS
10
96.4175167105
20
197.5370312501
11
94.0175167105
21
195.1370312501
0
LINE
5
6F3
100
AcDbEntity
8
0
100
AcDbLine
62
7
6
CONTINUOUS
10
100.0175167105
20
199.2491466347
11
96.0175167105
21
199.2491466347
0
LINE
5
6F4
100
AcDbEntity
8
0
100
AcDbLine
62
7
6
CONTINUOUS
10
99.6175167105
20
201.2491466347
11
96.4175167105
21
201.2491466347
0
LINE
5
6F5
100
AcDbEntity
8
0
100
AcDbLine
62
7
6
CONTINUOUS
10
118.0175167105
20
233.7491466347
11
118.0175167105
21
219.0812666566
0
LINE
5
6F6
100
AcDbEntity
8
0
100
AcDbLine
62
7
6
CONTINUOUS
10
118.3175167105
20
191.2491466347
11
118.3175167105
21
188.7491466347
0
LINE
5
6F7
100
AcDbEntity
8
0
100
AcDbLine
62
2
6
CONTINUOUS
10
101.4106638148
20
200.5590245082
11
99.6175167105
21
198.7658774039
0
LINE
5
6F8
100
AcDbEntity
8
0
100
AcDbLine
62
2
6
CONTINUOUS
10
96.4175167105
20
195.5658774039
11
94.0175167105
21
193.1658774039
0
LINE
5
6F9
100
AcDbEntity
8
0
100
AcDbLine
62
2
6
CONTINUOUS
10
102.1805400388
20
199.3577468861
11
99.6175167105
21
196.7947235578
0
LINE
5
6FA
100
AcDbEntity
8
0
100
AcDbLine
62
2
6
CONTINUOUS
10
96.4175167105
20
193.5947235578
11
94.0719397874
21
191.2491466347
0
LINE
5
6FB
100
AcDbEntity
8
0
100
AcDbLine
62
7
6
CONTINUOUS
10
107.2013599281
20
197.8510547299
11
112.1529044481
21
199.1778170853
0
LINE
5
6FC
100
AcDbEntity
8
0
100
AcDbLine
62
7
6
CONTINUOUS
10
140.8821289728
20
199.1778170853
11
159.0175167105
21
194.3184545866
0
LINE
5
6FD
100
AcDbEntity
8
DEFAULT_1
100
AcDbLine
62
2
6
CENTER
10
120.5175167105
20
196.2491466347
11
120.5175167105
21
188.2491466347
0
LINE
5
6FE
100
AcDbEntity
8
DEFAULT_1
100
AcDbLine
62
2
6
CENTER
10
120.5175167105
20
196.2491466347
11
120.5175167105
21
204.2491466347
0
LINE
5
6FF
100
AcDbEntity
8
0
100
AcDbLine
62
2
6
CONTINUOUS
10
103.2586024611
20
198.4646554623
11
99.6175167105
21
194.8235697116
0
LINE
5
700
100
AcDbEntity
8
0
100
AcDbLine
62
2
6
CONTINUOUS
10
96.4175167105
20
191.6235697116
11
96.0430936335
21
191.2491466347
0
LINE
5
701
100
AcDbEntity
8
0
100
AcDbLine
62
2
6
CONTINUOUS
10
104.1221627360
20
197.3570618911
11
99.6175167105
21
192.8524158655
0
LINE
5
702
100
AcDbEntity
8
0
100
AcDbLine
62
7
6
CONTINUOUS
10
96.4175167105
20
201.2491466347
11
98.0175167105
21
202.1729070654
0
LINE
5
703
100
AcDbEntity
8
0
100
AcDbLine
62
2
6
CONTINUOUS
10
103.8703575984
20
195.1341029072
11
99.9854013259
21
191.2491466347
0
LINE
5
704
100
AcDbEntity
8
0
100
AcDbLine
62
2
6
CONTINUOUS
10
103.5430601385
20
192.8356516012
11
101.9565551720
21
191.2491466347
0
LINE
5
705
100
AcDbEntity
8
0
100
AcDbLine
62
7
6
CONTINUOUS
10
100.5175167105
20
221.5563263117
11
99.3175167105
21
222.2491466347
0
LINE
5
706
100
AcDbEntity
8
DEFAULT_1
100
AcDbLine
62
2
6
CENTER
10
126.5175167105
20
212.0991466347
11
126.5175167105
21
199.9355060053
0
LINE
5
707
100
AcDbEntity
8
DEFAULT_1
100
AcDbLine
62
2
6
CENTER
10
126.5175167105
20
188.7491466347
11
126.5175167105
21
199.9355060053
0
LINE
5
708
100
AcDbEntity
8
DEFAULT_1
100
AcDbLine
62
2
6
CENTER
10
126.5175167105
20
212.0991466347
11
126.5175167105
21
249.6617521788
0
LINE
5
709
100
AcDbEntity
8
0
100
AcDbLine
62
2
6
CONTINUOUS
10
146.4277090182
20
233.7491466347
11
146.1082073385
21
233.4296449551
0
LINE
5
70A
100
AcDbEntity
8
0
100
AcDbLine
62
2
6
CONTINUOUS
10
148.3988628643
20
233.7491466347
11
146.4538326074
21
231.8041163778
0
LINE
5
70B
100
AcDbEntity
8
DEFAULT_1
100
AcDbLine
62
2
6
CENTER
10
126.5175167105
20
212.0991466347
11
121.5174167105
21
212.0991466347
0
LINE
5
70C
100
AcDbEntity
8
0
100
AcDbLine
62
5
6
PHANTOM
10
67.3455212696
20
212.0991466347
11
77.3455212696
21
212.0991466347
0
LINE
5
70D
100
AcDbEntity
8
0
100
AcDbLine
62
2
6
PHANTOM
10
77.3455212696
20
212.0991466347
11
121.5174167105
21
212.0991466347
0
LINE
5
70E
100
AcDbEntity
8
0
100
AcDbLine
62
2
6
PHANTOM
10
131.5176167105
20
212.0991466347
11
148.4735952253
21
212.0991466347
0
LINE
5
70F
100
AcDbEntity
8
DEFAULT_1
100
AcDbLine
62
2
6
CENTER
10
126.5175167105
20
212.0991466347
11
131.5176167105
21
212.0991466347
0
LINE
5
710
100
AcDbEntity
8
0
100
AcDbLine
62
5
6
PHANTOM
10
157.5665525682
20
212.0991466347
11
165.2424256499
21
212.0991466347
0
LINE
5
711
100
AcDbEntity
8
0
100
AcDbLine
62
7
6
CONTINUOUS
10
96.5175167105
20
220.7894154238
11
99.7070180438
21
219.6285318763
0
LINE
5
712
100
AcDbEntity
8
0
100
AcDbLine
62
2
6
CONTINUOUS
10
148.5175167105
20
231.8966466347
11
146.8763632255
21
230.2554931497
0
LINE
5
713
100
AcDbEntity
8
0
100
AcDbLine
62
2
6
CONTINUOUS
10
149.8411705566
20
231.2491466347
11
147.3707421721
21
228.7787182502
0
LINE
5
714
100
AcDbEntity
8
0
100
AcDbLine
62
2
6
CONTINUOUS
10
151.3175167105
20
230.7543389424
11
147.9346394591
21
227.3714616910
0
LINE
5
715
100
AcDbEntity
8
0
100
AcDbLine
62
2
6
CONTINUOUS
10
153.7834782489
20
231.2491466347
11
153.7175167105
21
231.1831850962
0
LINE
5
716
100
AcDbEntity
8
0
100
AcDbLine
62
2
6
CONTINUOUS
10
151.3175167105
20
228.7831850962
11
148.5079872375
21
225.9736556232
0
LINE
5
717
100
AcDbEntity
8
0
100
AcDbLine
62
7
6
CONTINUOUS
10
152.5175167105
20
221.5563263117
11
153.7175167105
21
222.2491466347
0
LINE
5
718
100
AcDbEntity
8
DEFAULT_1
100
AcDbLine
62
2
6
CENTER
10
132.5175167105
20
196.2491466347
11
132.5175167105
21
188.2491466347
0
LINE
5
719
100
AcDbEntity
8
DEFAULT_1
100
AcDbLine
62
2
6
CENTER
10
132.5175167105
20
196.2491466347
11
132.5175167105
21
204.2491466347
0
LINE
5
71A
100
AcDbEntity
8
0
100
AcDbLine
62
7
6
CONTINUOUS
10
135.0175167105
20
219.0812666566
11
135.0175167105
21
233.7491466347
0
LINE
5
71B
100
AcDbEntity
8
0
100
AcDbLine
62
2
6
CONTINUOUS
10
155.7546320951
20
231.2491466347
11
153.7175167105
21
229.2120312501
0
LINE
5
71C
100
AcDbEntity
8
0
100
AcDbLine
62
2
6
CONTINUOUS
10
151.3175167105
20
226.8120312501
11
149.0938790540
21
224.5883935936
0
LINE
5
71D
100
AcDbEntity
8
0
100
AcDbLine
62
7
6
CONTINUOUS
10
137.5175167105
20
188.7491466347
11
137.5175167105
21
191.2491466347
0
LINE
5
71E
100
AcDbEntity
8
0
100
AcDbLine
62
2
6
CONTINUOUS
10
156.5175167105
20
230.0408774039
11
153.7175167105
21
227.2408774039
0
LINE
5
71F
100
AcDbEntity
8
0
100
AcDbLine
62
2
6
CONTINUOUS
10
151.3175167105
20
224.8408774039
11
149.6489558519
21
223.1723165454
0
LINE
5
720
100
AcDbEntity
8
0
100
AcDbLine
62
2
6
CONTINUOUS
10
156.5175167105
20
228.0697235578
11
153.7175167105
21
225.2697235578
0
LINE
5
721
100
AcDbEntity
8
0
100
AcDbLine
62
2
6
CONTINUOUS
10
151.3175167105
20
222.8697235578
11
150.1838467577
21
221.7360536050
0
LINE
5
722
100
AcDbEntity
8
DEFAULT_1
100
AcDbLine
62
2
6
CENTER
10
144.5175167105
20
221.7491466347
11
139.5174167105
21
221.7491466347
0
LINE
5
723
100
AcDbEntity
8
DEFAULT_1
100
AcDbLine
62
2
6
CENTER
10
144.5175167105
20
221.7491466347
11
149.5176167105
21
221.7491466347
0
LINE
5
724
100
AcDbEntity
8
0
100
AcDbLine
62
7
6
CONTINUOUS
10
153.7175167105
20
222.2491466347
11
151.3175167105
21
222.2491466347
0
LINE
5
725
100
AcDbEntity
8
0
100
AcDbLine
62
7
6
CONTINUOUS
10
101.7175167105
20
222.2491466347
11
99.3175167105
21
222.2491466347
0
LINE
5
726
100
AcDbEntity
8
0
100
AcDbLine
62
7
6
CONTINUOUS
10
110.1643060165
20
222.7491466347
11
109.2911140136
21
222.7491466347
0
LINE
5
727
100
AcDbEntity
8
0
100
AcDbLine
62
2
6
CONTINUOUS
10
156.5175167105
20
226.0985697116
11
153.7175167105
21
223.2985697116
0
LINE
5
728
100
AcDbEntity
8
0
100
AcDbLine
62
2
6
CONTINUOUS
10
152.1737481699
20
221.7548011711
11
150.6211179481
21
220.2021709493
0
LINE
5
729
100
AcDbEntity
8
0
100
AcDbLine
62
2
6
CONTINUOUS
10
156.5175167105
20
224.1274158655
11
151.0011401654
21
218.6110393204
0
LINE
5
72A
100
AcDbEntity
8
0
100
AcDbLine
62
7
6
CONTINUOUS
10
149.8208175694
20
216.4458457758
11
156.5175167105
21
223.1425449169
0
LINE
5
72B
100
AcDbEntity
8
0
100
AcDbLine
62
7
6
CONTINUOUS
10
99.0175167105
20
224.2491466347
11
102.0175167105
21
224.2491466347
0
LINE
5
72C
100
AcDbEntity
8
0
100
AcDbLine
62
7
6
CONTINUOUS
10
151.0175167105
20
224.2491466347
11
154.0175167105
21
224.2491466347
0
LINE
5
72D
100
AcDbEntity
8
DEFAULT_1
100
AcDbLine
62
2
6
CENTER
10
141.3175167105
20
192.8491466347
11
141.3175167105
21
186.2491466347
0
LINE
5
72E
100
AcDbEntity
8
DEFAULT_1
100
AcDbLine
62
2
6
CENTER
10
141.3175167105
20
192.8491466347
11
141.3175167105
21
199.4491466347
0
LINE
5
72F
100
AcDbEntity
8
DEFAULT_1
100
AcDbLine
62
2
6
CENTER
10
141.5175167105
20
229.7491466347
11
141.5175167105
21
223.5491466347
0
LINE
5
730
100
AcDbEntity
8
DEFAULT_1
100
AcDbLine
62
2
6
CENTER
10
141.5175167105
20
229.7491466347
11
141.5175167105
21
235.9491466347
0
LINE
5
731
100
AcDbEntity
8
DEFAULT_1
100
AcDbLine
62
2
6
CENTER
10
107.5175167105
20
227.7491466347
11
99.5175167105
21
227.7491466347
0
LINE
5
732
100
AcDbEntity
8
DEFAULT_1
100
AcDbLine
62
2
6
CENTER
10
107.5175167105
20
227.7491466347
11
115.5175167105
21
227.7491466347
0
LINE
5
733
100
AcDbEntity
8
DEFAULT_1
100
AcDbLine
62
2
6
CENTER
10
144.5175167105
20
221.7491466347
11
144.5175167105
21
216.7490466347
0
LINE
5
734
100
AcDbEntity
8
DEFAULT_1
100
AcDbLine
62
2
6
CENTER
10
144.5175167105
20
221.7491466347
11
144.5175167105
21
226.7492466347
0
LINE
5
735
100
AcDbEntity
8
0
100
AcDbLine
62
7
6
CONTINUOUS
10
145.1175167105
20
191.2491466347
11
145.1175167105
21
188.7491466347
0
LINE
5
736
100
AcDbEntity
8
DEFAULT_1
100
AcDbLine
62
2
6
CENTER
10
141.5175167105
20
229.7491466347
11
135.3175167105
21
229.7491466347
0
LINE
5
737
100
AcDbEntity
8
DEFAULT_1
100
AcDbLine
62
2
6
CENTER
10
113.0175167105
20
229.7491466347
11
106.8175167105
21
229.7491466347
0
LINE
5
738
100
AcDbEntity
8
DEFAULT_1
100
AcDbLine
62
2
6
CENTER
10
113.0175167105
20
229.7491466347
11
119.2175167105
21
229.7491466347
0
LINE
5
739
100
AcDbEntity
8
DEFAULT_1
100
AcDbLine
62
2
6
CENTER
10
141.5175167105
20
229.7491466347
11
147.7175167105
21
229.7491466347
0
LINE
5
73A
100
AcDbEntity
8
0
100
AcDbLine
62
7
6
CONTINUOUS
10
96.5175167105
20
231.2491466347
11
104.5175167105
21
231.2491466347
0
LINE
5
73B
100
AcDbEntity
8
0
100
AcDbLine
62
7
6
CONTINUOUS
10
148.5175167105
20
231.2491466347
11
156.5175167105
21
231.2491466347
0
LINE
5
73C
100
AcDbEntity
8
0
100
AcDbLine
62
7
6
CONTINUOUS
10
147.7474256877
20
192.8625600543
11
147.7492537159
21
191.2491466347
0
LINE
5
73D
100
AcDbEntity
8
0
100
AcDbLine
62
7
6
CONTINUOUS
10
148.5175167105
20
233.7491466347
11
148.5175167105
21
231.2491466347
0
LINE
5
73E
100
AcDbEntity
8
0
100
AcDbLine
62
7
6
CONTINUOUS
10
147.8447084527
20
195.9611350324
11
147.7474256877
21
192.8625600543
0
LINE
5
73F
100
AcDbEntity
8
0
100
AcDbLine
62
7
6
CONTINUOUS
10
104.5175167105
20
233.7491466347
11
118.0175167105
21
233.7491466347
0
LINE
5
740
100
AcDbEntity
8
0
100
AcDbLine
62
7
6
CONTINUOUS
10
135.0175167105
20
233.7491466347
11
148.5175167105
21
233.7491466347
0
LINE
5
741
100
AcDbEntity
8
0
100
AcDbLine
62
7
6
CONTINUOUS
10
152.5175167105
20
221.5563263117
11
151.3175167105
21
222.2491466347
0
LINE
5
742
100
AcDbEntity
8
0
100
AcDbLine
62
2
6
CONTINUOUS
10
151.0175167105
20
231.2491466347
11
151.0175167105
21
224.2491466347
0
LINE
5
743
100
AcDbEntity
8
0
100
AcDbLine
62
7
6
CONTINUOUS
10
148.0553602459
20
197.2557555586
11
147.8447084527
21
195.9611350324
0
LINE
5
744
100
AcDbEntity
8
0
100
AcDbLine
62
7
6
CONTINUOUS
10
146.2435847336
20
232.6344175429
11
146.7516102679
21
230.6281466327
0
LINE
5
745
100
AcDbEntity
8
0
100
AcDbLine
62
7
6
CONTINUOUS
10
146.0538162242
20
233.7491466347
11
146.2435847336
21
232.6344175429
0
LINE
5
746
100
AcDbEntity
8
0
100
AcDbLine
62
7
6
CONTINUOUS
10
151.3175167105
20
231.2491466347
11
151.3175167105
21
222.2491466347
0
LINE
5
747
100
AcDbEntity
8
DEFAULT_1
100
AcDbLine
62
2
6
CENTER
10
152.5175167105
20
219.0563263117
11
152.5175167105
21
233.7491466347
0
LINE
5
748
100
AcDbEntity
8
0
100
AcDbLine
62
2
6
CONTINUOUS
10
153.0175167105
20
191.2491466347
11
153.0175167105
21
195.9259702382
0
LINE
5
749
100
AcDbEntity
8
0
100
AcDbLine
62
7
6
CONTINUOUS
10
153.4175167105
20
191.2491466347
11
153.4175167105
21
195.8189700642
0
LINE
5
74A
100
AcDbEntity
8
0
100
AcDbLine
62
7
6
CONTINUOUS
10
153.7175167105
20
231.2491466347
11
153.7175167105
21
222.2491466347
0
LINE
5
74B
100
AcDbEntity
8
0
100
AcDbLine
62
2
6
CONTINUOUS
10
149.0822425745
20
196.9806032679
11
147.8376401465
21
195.7360008400
0
LINE
5
74C
100
AcDbEntity
8
0
100
AcDbLine
62
7
6
CONTINUOUS
10
148.3393172171
20
226.3724530942
11
149.3257719522
21
224.0401141712
0
LINE
5
74D
100
AcDbEntity
8
0
100
AcDbLine
62
7
6
CONTINUOUS
10
147.4000400370
20
228.6912016764
11
148.3393172171
21
226.3724530942
0
LINE
5
74E
100
AcDbEntity
8
0
100
AcDbLine
62
7
6
CONTINUOUS
10
149.3257719522
20
224.0401141712
11
150.2074422350
21
221.6726961816
0
LINE
5
74F
100
AcDbEntity
8
0
100
AcDbLine
62
7
6
CONTINUOUS
10
146.7516102679
20
230.6281466327
11
147.4000400370
21
228.6912016764
0
LINE
5
750
100
AcDbEntity
8
0
100
AcDbLine
62
7
6
CONTINUOUS
10
150.2074422350
20
221.6726961816
11
150.7891756401
21
219.6047632004
0
LINE
5
751
100
AcDbEntity
8
0
100
AcDbLine
62
7
6
CONTINUOUS
10
150.7891756401
20
219.6047632004
11
151.1742841570
21
217.7993123635
0
LINE
5
752
100
AcDbEntity
8
0
100
AcDbLine
62
2
6
CONTINUOUS
10
154.0175167105
20
231.2491466347
11
154.0175167105
21
224.2491466347
0
LINE
5
753
100
AcDbEntity
8
DEFAULT_1
100
AcDbLine
62
2
6
CENTER
10
155.0175167105
20
188.7491466347
11
155.0175167105
21
198.3189700642
0
LINE
5
754
100
AcDbEntity
8
0
100
AcDbLine
62
7
6
CONTINUOUS
10
156.5175167105
20
231.2491466347
11
156.5175167105
21
223.1425449169
0
LINE
5
755
100
AcDbEntity
8
0
100
AcDbLine
62
7
6
CONTINUOUS
10
156.6175167105
20
191.2491466347
11
156.6175167105
21
194.9615326485
0
LINE
5
756
100
AcDbEntity
8
0
100
AcDbLine
62
2
6
CONTINUOUS
10
150.6368425994
20
196.5640494467
11
147.7737479018
21
193.7009547492
0
LINE
5
757
100
AcDbEntity
8
0
100
AcDbLine
62
2
6
CONTINUOUS
10
152.1914426243
20
196.1474956255
11
147.7487374628
21
191.7047904639
0
LINE
5
758
100
AcDbEntity
8
0
100
AcDbLine
62
2
6
CONTINUOUS
10
157.0175167105
20
191.2491466347
11
157.0175167105
21
194.8545324745
0
LINE
5
759
100
AcDbEntity
8
0
100
AcDbLine
62
7
6
CONTINUOUS
10
159.0175167105
20
194.3184545866
11
159.0175167105
21
191.2491466347
0
LINE
5
75A
100
AcDbEntity
8
0
100
AcDbLine
62
2
6
CONTINUOUS
10
153.4175167105
20
195.4024158655
11
149.2642474797
21
191.2491466347
0
LINE
5
75B
100
AcDbEntity
8
0
100
AcDbLine
62
2
6
CONTINUOUS
10
153.4175167105
20
193.4312620193
11
151.2354013259
21
191.2491466347
0
LINE
5
75C
100
AcDbEntity
8
0
100
AcDbLine
62
2
6
CONTINUOUS
10
156.8552426991
20
194.8978341618
11
156.6175167105
21
194.6601081732
0
LINE
5
75D
100
AcDbEntity
8
0
100
AcDbLine
62
2
6
CONTINUOUS
10
153.4175167105
20
191.4601081732
11
153.2065551720
21
191.2491466347
0
LINE
5
75E
100
AcDbEntity
8
0
100
AcDbLine
62
2
6
CONTINUOUS
10
158.4098427240
20
194.4812803406
11
156.6175167105
21
192.6889543270
0
LINE
5
75F
100
AcDbEntity
8
0
100
AcDbLine
62
7
6
CONTINUOUS
10
165.2424256499
20
212.0991466347
11
165.2424256499
21
216.0453342622
0
LINE
5
760
100
AcDbEntity
8
0
100
AcDbLine
62
5
6
CONTINUOUS
10
165.2424256499
20
216.0453342622
11
165.2424256499
21
226.0453342622
0
LINE
5
761
100
AcDbEntity
8
0
100
AcDbLine
62
2
6
CONTINUOUS
10
159.0175167105
20
193.1178004809
11
157.1488628643
21
191.2491466347
0
LINE
5
762
100
AcDbEntity
8
0
100
AcDbLine
62
7
6
CONTINUOUS
10
94.0175167105
20
86.6882066102
11
94.0175167105
21
92.6882066102
0
LINE
5
763
100
AcDbEntity
8
0
100
AcDbLine
62
7
6
CONTINUOUS
10
99.0949014785
20
86.6882066102
11
99.0949014785
21
92.6882066102
0
LINE
5
764
100
AcDbEntity
8
0
100
AcDbLine
62
7
6
CONTINUOUS
10
104.0144159423
20
86.6882066102
11
104.0144159423
21
92.6882066102
0
LINE
5
765
100
AcDbEntity
8
0
100
AcDbLine
62
2
6
CONTINUOUS
10
99.1448240937
20
92.6882066102
11
99.0949014785
21
92.6382839950
0
LINE
5
766
100
AcDbEntity
8
0
100
AcDbLine
62
9
6
CONTINUOUS
10
107.2013599281
20
86.6882066102
11
107.2013599281
21
92.6882066102
0
LINE
5
767
100
AcDbEntity
8
0
100
AcDbLine
62
2
6
CONTINUOUS
10
101.0649246796
20
92.6882066102
11
99.0949014785
21
90.7181834092
0
LINE
5
768
100
AcDbEntity
8
0
100
AcDbLine
62
2
6
CONTINUOUS
10
102.9850252654
20
92.6882066102
11
99.0949014785
21
88.7980828233
0
LINE
5
769
100
AcDbEntity
8
0
100
AcDbLine
62
2
6
CONTINUOUS
10
104.0144159423
20
91.7974967012
11
99.0949014785
21
86.8779822375
0
LINE
5
76A
100
AcDbEntity
8
0
100
AcDbLine
62
7
6
CONTINUOUS
10
110.0175167105
20
86.6882066102
11
110.0175167105
21
92.6882066102
0
LINE
5
76B
100
AcDbEntity
8
0
100
AcDbLine
62
2
6
CONTINUOUS
10
111.2675167105
20
92.6882066102
11
111.2675167105
21
86.6882066102
0
LINE
5
76C
100
AcDbEntity
8
0
100
AcDbLine
62
7
6
CONTINUOUS
10
111.5675167105
20
92.6882066102
11
111.5675167105
21
86.6882066102
0
LINE
5
76D
100
AcDbEntity
8
0
100
AcDbLine
62
2
6
CONTINUOUS
10
104.0144159423
20
89.8773961154
11
100.8252264371
21
86.6882066102
0
LINE
5
76E
100
AcDbEntity
8
DEFAULT_1
100
AcDbLine
62
2
6
CENTER
10
112.7675167105
20
95.1882066102
11
112.7675167105
21
84.1882066102
0
LINE
5
76F
100
AcDbEntity
8
0
100
AcDbLine
62
2
6
CONTINUOUS
10
104.0144159423
20
87.9572955295
11
102.7453270229
21
86.6882066102
0
LINE
5
770
100
AcDbEntity
8
0
100
AcDbLine
62
2
6
CONTINUOUS
10
110.6654276088
20
92.6882066102
11
110.0175167105
21
92.0402957119
0
LINE
5
771
100
AcDbEntity
8
0
100
AcDbLine
62
7
6
CONTINUOUS
10
113.9675167105
20
92.6882066102
11
113.9675167105
21
86.6882066102
0
LINE
5
772
100
AcDbEntity
8
0
100
AcDbLine
62
2
6
CONTINUOUS
10
114.2675167105
20
92.6882066102
11
114.2675167105
21
86.6882066102
0
LINE
5
773
100
AcDbEntity
8
0
100
AcDbLine
62
7
6
CONTINUOUS
10
115.5175167105
20
86.6882066102
11
115.5175167105
21
92.6882066102
0
LINE
5
774
100
AcDbEntity
8
0
100
AcDbLine
62
2
6
CONTINUOUS
10
111.5675167105
20
91.6701951261
11
110.0175167105
21
90.1201951261
0
LINE
5
775
100
AcDbEntity
8
0
100
AcDbLine
62
2
6
CONTINUOUS
10
114.5056287805
20
92.6882066102
11
113.9675167105
21
92.1500945402
0
LINE
5
776
100
AcDbEntity
8
0
100
AcDbLine
62
2
6
CONTINUOUS
10
111.5675167105
20
89.7500945402
11
110.0175167105
21
88.2000945402
0
LINE
5
777
100
AcDbEntity
8
0
100
AcDbLine
62
2
6
CONTINUOUS
10
115.5175167105
20
91.7799939544
11
113.9675167105
21
90.2299939544
0
LINE
5
778
100
AcDbEntity
8
0
100
AcDbLine
62
2
6
CONTINUOUS
10
111.5675167105
20
87.8299939544
11
110.4257293663
21
86.6882066102
0
LINE
5
779
100
AcDbEntity
8
0
100
AcDbLine
62
2
6
CONTINUOUS
10
115.5175167105
20
89.8598933685
11
113.9675167105
21
88.3098933685
0
LINE
5
77A
100
AcDbEntity
8
0
100
AcDbLine
62
2
6
CONTINUOUS
10
115.5175167105
20
87.9397927827
11
114.2659305380
21
86.6882066102
0
LINE
5
77B
100
AcDbEntity
8
0
100
AcDbLine
62
7
6
CONTINUOUS
10
94.0175167105
20
86.6882066102
11
159.0175167105
21
86.6882066102
0
LINE
5
77C
100
AcDbEntity
8
DEFAULT_1
100
AcDbLine
62
2
6
CENTER
10
126.5175167105
20
95.1882066102
11
126.5175167105
21
69.0797435986
0
LINE
5
77D
100
AcDbEntity
8
0
100
AcDbLine
62
7
6
CONTINUOUS
10
94.0175167105
20
92.6882066102
11
159.0175167105
21
92.6882066102
0
LINE
5
77E
100
AcDbEntity
8
0
100
AcDbLine
62
2
6
CONTINUOUS
10
137.5468358106
20
92.6882066102
11
137.5175167105
21
92.6588875101
0
LINE
5
77F
100
AcDbEntity
8
0
100
AcDbLine
62
2
6
CONTINUOUS
10
139.0675167105
20
92.2887869242
11
137.5175167105
21
90.7387869242
0
LINE
5
780
100
AcDbEntity
8
0
100
AcDbLine
62
2
6
CONTINUOUS
10
139.0675167105
20
90.3686863384
11
137.5175167105
21
88.8186863384
0
LINE
5
781
100
AcDbEntity
8
0
100
AcDbLine
62
7
6
CONTINUOUS
10
137.5175167105
20
86.6882066102
11
137.5175167105
21
92.6882066102
0
LINE
5
782
100
AcDbEntity
8
0
100
AcDbLine
62
2
6
CONTINUOUS
10
143.0175167105
20
92.3985857525
11
141.4675167105
21
90.8485857525
0
LINE
5
783
100
AcDbEntity
8
0
100
AcDbLine
62
2
6
CONTINUOUS
10
139.0675167105
20
88.4485857525
11
137.5175167105
21
86.8985857525
0
LINE
5
784
100
AcDbEntity
8
0
100
AcDbLine
62
2
6
CONTINUOUS
10
143.0175167105
20
90.4784851667
11
141.4675167105
21
88.9284851667
0
LINE
5
785
100
AcDbEntity
8
0
100
AcDbLine
62
2
6
CONTINUOUS
10
138.7675167105
20
92.6882066102
11
138.7675167105
21
86.6882066102
0
LINE
5
786
100
AcDbEntity
8
0
100
AcDbLine
62
7
6
CONTINUOUS
10
139.0675167105
20
86.6882066102
11
139.0675167105
21
92.6882066102
0
LINE
5
787
100
AcDbEntity
8
0
100
AcDbLine
62
2
6
CONTINUOUS
10
143.0175167105
20
88.5583845808
11
141.4675167105
21
87.0083845808
0
LINE
5
788
100
AcDbEntity
8
DEFAULT_1
100
AcDbLine
62
2
6
CENTER
10
140.2675167105
20
84.1882066102
11
140.2675167105
21
95.1882066102
0
LINE
5
789
100
AcDbEntity
8
0
100
AcDbLine
62
7
6
CONTINUOUS
10
141.4675167105
20
86.6882066102
11
141.4675167105
21
92.6882066102
0
LINE
5
78A
100
AcDbEntity
8
0
100
AcDbLine
62
2
6
CONTINUOUS
10
141.7675167105
20
92.6882066102
11
141.7675167105
21
86.6882066102
0
LINE
5
78B
100
AcDbEntity
8
0
100
AcDbLine
62
7
6
CONTINUOUS
10
143.0175167105
20
86.6882066102
11
143.0175167105
21
92.6882066102
0
LINE
5
78C
100
AcDbEntity
8
DEFAULT_1
100
AcDbLine
62
2
6
CENTER
10
144.5175167105
20
95.1882066102
11
144.5175167105
21
84.1882066102
0
LINE
5
78D
100
AcDbEntity
8
0
100
AcDbLine
62
7
6
CONTINUOUS
10
159.0175167105
20
92.6882066102
11
159.0175167105
21
86.6882066102
0
LINE
5
78E
100
AcDbEntity
8
0
100
AcDbLine
62
2
6
CONTINUOUS
10
442.0680659035
20
290.0932971021
11
442.0680659035
21
297.0932971021
0
LINE
5
78F
100
AcDbEntity
8
0
100
AcDbLine
62
2
6
CONTINUOUS
10
442.9422760913
20
316.8182826408
11
442.9422760913
21
323.8182826408
0
LINE
5
790
100
AcDbEntity
8
0
100
AcDbLine
62
2
6
CONTINUOUS
10
451.6347325702
20
297.0932971021
11
451.6347325702
21
290.0932971021
0
LINE
5
791
100
AcDbEntity
8
0
100
AcDbLine
62
2
6
CONTINUOUS
10
454.1422760913
20
323.8182826408
11
454.1422760913
21
316.8182826408
0
LINE
5
792
100
AcDbEntity
8
0
100
AcDbLine
62
2
6
CONTINUOUS
10
530.3289033571
20
249.3696982163
11
519.3622366905
21
249.3696982163
0
LINE
5
793
100
AcDbEntity
8
0
100
AcDbLine
62
2
6
CONTINUOUS
10
519.3622366905
20
256.3696982163
11
530.3289033571
21
256.3696982163
0
LINE
5
794
100
AcDbEntity
8
0
100
AcDbLine
62
7
6
CONTINUOUS
10
469.2773225964
20
285.6201992407
11
469.2773225964
21
288.6895071926
0
LINE
5
795
100
AcDbEntity
8
0
100
AcDbLine
62
7
6
CONTINUOUS
10
471.7773225964
20
325.6201992407
11
471.7773225964
21
317.5135975229
0
LINE
5
796
100
AcDbEntity
8
0
100
AcDbLine
62
7
6
CONTINUOUS
10
479.7773225964
20
328.1201992407
11
479.7773225964
21
325.6201992407
0
LINE
5
797
100
AcDbEntity
8
0
100
AcDbLine
62
7
6
CONTINUOUS
10
483.1773225964
20
283.1201992407
11
490.7773225964
21
283.1201992407
0
LINE
5
798
100
AcDbEntity
8
0
100
AcDbLine
62
7
6
CONTINUOUS
10
509.9773225964
20
283.1201992407
11
517.5773225964
21
283.1201992407
0
LINE
5
799
100
AcDbEntity
8
0
100
AcDbLine
62
7
6
CONTINUOUS
10
469.2773225964
20
285.6201992407
11
483.1773225964
21
285.6201992407
0
LINE
5
79A
100
AcDbEntity
8
0
100
AcDbLine
62
7
6
CONTINUOUS
10
490.7773225964
20
285.6201992407
11
509.9773225964
21
285.6201992407
0
LINE
5
79B
100
AcDbEntity
8
0
100
AcDbLine
62
7
6
CONTINUOUS
10
517.5773225964
20
285.6201992407
11
534.2773225964
21
285.6201992407
0
LINE
5
79C
100
AcDbEntity
8
0
100
AcDbLine
62
7
6
CONTINUOUS
10
483.1773225964
20
285.6201992407
11
483.1773225964
21
283.1201992407
0
LINE
5
79D
100
AcDbEntity
8
DEFAULT_1
100
AcDbLine
62
2
6
CENTER
10
483.7773225964
20
316.1201992407
11
483.7773225964
21
311.1200992407
0
LINE
5
79E
100
AcDbEntity
8
DEFAULT_1
100
AcDbLine
62
2
6
CENTER
10
483.7773225964
20
316.1201992407
11
483.7773225964
21
321.1202992407
0
LINE
5
79F
100
AcDbEntity
8
0
100
AcDbLine
62
2
6
CONTINUOUS
10
451.6347325702
20
290.0932971021
11
442.0680659035
21
290.0932971021
0
LINE
5
7A0
100
AcDbEntity
8
0
100
AcDbLine
62
2
6
CONTINUOUS
10
564.3253615896
20
291.6073745262
11
554.7586949229
21
291.6073745262
0
LINE
5
7A1
100
AcDbEntity
8
0
100
AcDbLine
62
7
6
CONTINUOUS
10
471.7773225964
20
317.5135975229
11
478.4740217375
21
310.8168983818
0
LINE
5
7A2
100
AcDbEntity
8
0
100
AcDbLine
62
7
6
CONTINUOUS
10
490.7773225964
20
283.1201992407
11
490.7773225964
21
285.6201992407
0
LINE
5
7A3
100
AcDbEntity
8
0
100
AcDbLine
62
7
6
CONTINUOUS
10
493.2773225964
20
313.4523192626
11
493.2773225964
21
328.1201992407
0
LINE
5
7A4
100
AcDbEntity
8
0
100
AcDbLine
62
7
6
CONTINUOUS
10
487.4127103340
20
293.5488696914
11
469.2773225964
21
288.6895071926
0
LINE
5
7A5
100
AcDbEntity
8
0
100
AcDbLine
62
2
6
CONTINUOUS
10
442.0680659035
20
297.0932971021
11
451.6347325702
21
297.0932971021
0
LINE
5
7A6
100
AcDbEntity
8
0
100
AcDbLine
62
2
6
CONTINUOUS
10
554.7586949229
20
298.6073745262
11
564.3253615896
21
298.6073745262
0
LINE
5
7A7
100
AcDbEntity
8
0
100
AcDbLine
62
7
6
CONTINUOUS
10
521.0934793787
20
292.2221073359
11
516.1419348587
21
293.5488696914
0
LINE
5
7A8
100
AcDbEntity
8
DEFAULT_1
100
AcDbLine
62
2
6
CENTER
10
501.7773225964
20
306.4701992407
11
501.7773225964
21
301.4700992407
0
LINE
5
7A9
100
AcDbEntity
8
DEFAULT_1
100
AcDbLine
62
2
6
CENTER
10
501.7773225964
20
306.4701992407
11
501.7773225964
21
311.4702992407
0
LINE
5
7AA
100
AcDbEntity
8
DEFAULT_1
100
AcDbLine
62
2
6
CENTER
10
501.7773225964
20
306.4701992407
11
496.7772225964
21
306.4701992407
0
LINE
5
7AB
100
AcDbEntity
8
DEFAULT_1
100
AcDbLine
62
2
6
CENTER
10
501.7773225964
20
306.4701992407
11
506.7774225964
21
306.4701992407
0
LINE
5
7AC
100
AcDbEntity
8
0
100
AcDbLine
62
7
6
CONTINUOUS
10
531.7773225964
20
315.1604680298
11
528.5878212630
21
313.9995844823
0
LINE
5
7AD
100
AcDbEntity
8
0
100
AcDbLine
62
7
6
CONTINUOUS
10
509.9773225964
20
285.6201992407
11
509.9773225964
21
283.1201992407
0
LINE
5
7AE
100
AcDbEntity
8
0
100
AcDbLine
62
7
6
CONTINUOUS
10
510.2773225964
20
328.1201992407
11
510.2773225964
21
313.4523192626
0
LINE
5
7AF
100
AcDbEntity
8
DEFAULT_1
100
AcDbLine
62
2
6
CENTER
10
483.7773225964
20
316.1201992407
11
478.7772225964
21
316.1201992407
0
LINE
5
7B0
100
AcDbEntity
8
DEFAULT_1
100
AcDbLine
62
2
6
CENTER
10
483.7773225964
20
316.1201992407
11
488.7774225964
21
316.1201992407
0
LINE
5
7B1
100
AcDbEntity
8
0
100
AcDbLine
62
2
6
CONTINUOUS
10
454.1422760913
20
316.8182826408
11
442.9422760913
21
316.8182826408
0
LINE
5
7B2
100
AcDbEntity
8
0
100
AcDbLine
62
7
6
CONTINUOUS
10
518.1305332903
20
317.1201992407
11
519.0037252932
21
317.1201992407
0
LINE
5
7B3
100
AcDbEntity
8
0
100
AcDbLine
62
7
6
CONTINUOUS
10
517.5773225964
20
283.1201992407
11
517.5773225964
21
285.6201992407
0
LINE
5
7B4
100
AcDbEntity
8
0
100
AcDbLine
62
2
6
CONTINUOUS
10
519.3622366905
20
249.3696982163
11
519.3622366905
21
256.3696982163
0
LINE
5
7B5
100
AcDbEntity
8
0
100
AcDbLine
62
2
6
CONTINUOUS
10
442.9422760913
20
323.8182826408
11
454.1422760913
21
323.8182826408
0
LINE
5
7B6
100
AcDbEntity
8
0
100
AcDbLine
62
7
6
CONTINUOUS
10
531.7773225964
20
325.6201992407
11
523.7773225964
21
325.6201992407
0
LINE
5
7B7
100
AcDbEntity
8
0
100
AcDbLine
62
7
6
CONTINUOUS
10
479.7773225964
20
325.6201992407
11
471.7773225964
21
325.6201992407
0
LINE
5
7B8
100
AcDbEntity
8
0
100
AcDbLine
62
7
6
CONTINUOUS
10
523.7773225964
20
325.6201992407
11
523.7773225964
21
328.1201992407
0
LINE
5
7B9
100
AcDbEntity
8
0
100
AcDbLine
62
7
6
CONTINUOUS
10
523.7773225964
20
328.1201992407
11
510.2773225964
21
328.1201992407
0
LINE
5
7BA
100
AcDbEntity
8
0
100
AcDbLine
62
7
6
CONTINUOUS
10
493.2773225964
20
328.1201992407
11
479.7773225964
21
328.1201992407
0
LINE
5
7BB
100
AcDbEntity
8
0
100
AcDbLine
62
7
6
CONTINUOUS
10
520.8831105348
20
315.8042395274
11
527.0860377082
21
298.7618371840
0
LINE
5
7BC
100
AcDbEntity
8
0
100
AcDbLine
62
7
6
CONTINUOUS
10
534.2773225964
20
292.5201992407
11
527.3924763081
21
311.4361589541
0
LINE
5
7BD
100
AcDbEntity
8
0
100
AcDbLine
62
2
6
CONTINUOUS
10
530.3289033571
20
256.3696982163
11
530.3289033571
21
249.3696982163
0
LINE
5
7BE
100
AcDbEntity
8
0
100
AcDbLine
62
7
6
CONTINUOUS
10
531.7773225964
20
315.1604680298
11
531.7773225964
21
325.6201992407
0
LINE
5
7BF
100
AcDbEntity
8
0
100
AcDbLine
62
7
6
CONTINUOUS
10
534.2773225964
20
285.6201992407
11
534.2773225964
21
292.5201992407
0
LINE
5
7C0
100
AcDbEntity
8
0
100
AcDbLine
62
2
6
CONTINUOUS
10
554.7586949229
20
291.6073745262
11
554.7586949229
21
298.6073745262
0
LINE
5
7C1
100
AcDbEntity
8
0
100
AcDbLine
62
2
6
CONTINUOUS
10
564.3253615896
20
298.6073745262
11
564.3253615896
21
291.6073745262
0
LINE
5
7C2
100
AcDbEntity
8
0
100
AcDbLine
62
7
6
CONTINUOUS
10
471.2583438997
20
134.0007091280
11
471.2583438997
21
137.0700170799
0
LINE
5
7C3
100
AcDbEntity
8
0
100
AcDbLine
62
7
6
CONTINUOUS
10
473.7583438997
20
174.0007091280
11
473.7583438997
21
165.8941074102
0
LINE
5
7C4
100
AcDbEntity
8
0
100
AcDbLine
62
7
6
CONTINUOUS
10
481.7583438997
20
176.5007091280
11
481.7583438997
21
174.0007091280
0
LINE
5
7C5
100
AcDbEntity
8
0
100
AcDbLine
62
7
6
CONTINUOUS
10
485.1583438997
20
131.5007091280
11
492.7583438997
21
131.5007091280
0
LINE
5
7C6
100
AcDbEntity
8
0
100
AcDbLine
62
7
6
CONTINUOUS
10
511.9583438997
20
131.5007091280
11
519.5583438997
21
131.5007091280
0
LINE
5
7C7
100
AcDbEntity
8
0
100
AcDbLine
62
7
6
CONTINUOUS
10
471.2583438997
20
134.0007091280
11
485.1583438997
21
134.0007091280
0
LINE
5
7C8
100
AcDbEntity
8
0
100
AcDbLine
62
7
6
CONTINUOUS
10
492.7583438997
20
134.0007091280
11
511.9583438997
21
134.0007091280
0
LINE
5
7C9
100
AcDbEntity
8
0
100
AcDbLine
62
7
6
CONTINUOUS
10
519.5583438997
20
134.0007091280
11
536.2583438997
21
134.0007091280
0
LINE
5
7CA
100
AcDbEntity
8
0
100
AcDbLine
62
7
6
CONTINUOUS
10
485.1583438997
20
134.0007091280
11
485.1583438997
21
131.5007091280
0
LINE
5
7CB
100
AcDbEntity
8
DEFAULT_1
100
AcDbLine
62
2
6
CENTER
10
490.0083438997
20
154.8507091280
11
490.0083438997
21
148.6507091280
0
LINE
5
7CC
100
AcDbEntity
8
DEFAULT_1
100
AcDbLine
62
2
6
CENTER
10
490.0083438997
20
154.8507091280
11
490.0083438997
21
161.0507091280
0
LINE
5
7CD
100
AcDbEntity
8
0
100
AcDbLine
62
7
6
CONTINUOUS
10
473.7583438997
20
165.8941074102
11
480.4550430408
21
159.1974082691
0
LINE
5
7CE
100
AcDbEntity
8
DEFAULT_1
100
AcDbLine
62
2
6
CENTER
10
490.6447358269
20
158.9854138711
11
490.6447358269
21
152.7854138711
0
LINE
5
7CF
100
AcDbEntity
8
DEFAULT_1
100
AcDbLine
62
2
6
CENTER
10
490.6447358269
20
150.7160043848
11
490.6447358269
21
144.5160043848
0
LINE
5
7D0
100
AcDbEntity
8
DEFAULT_1
100
AcDbLine
62
2
6
CENTER
10
490.6447358269
20
150.7160043848
11
490.6447358269
21
152.7854138711
0
LINE
5
7D1
100
AcDbEntity
8
DEFAULT_1
100
AcDbLine
62
2
6
CENTER
10
490.6447358269
20
158.9854138711
11
490.6447358269
21
165.1854138711
0
LINE
5
7D2
100
AcDbEntity
8
DEFAULT_1
100
AcDbLine
62
2
6
CENTER
10
492.4950032907
20
162.7373851278
11
492.4950032907
21
156.5373851278
0
LINE
5
7D3
100
AcDbEntity
8
DEFAULT_1
100
AcDbLine
62
2
6
CENTER
10
492.4950032907
20
146.9640331281
11
492.4950032907
21
140.7640331281
0
LINE
5
7D4
100
AcDbEntity
8
DEFAULT_1
100
AcDbLine
62
2
6
CENTER
10
492.4950032907
20
146.9640331281
11
492.4950032907
21
153.1640331281
0
LINE
5
7D5
100
AcDbEntity
8
DEFAULT_1
100
AcDbLine
62
2
6
CENTER
10
492.4950032907
20
162.7373851278
11
492.4950032907
21
168.9373851278
0
LINE
5
7D6
100
AcDbEntity
8
0
100
AcDbLine
62
7
6
CONTINUOUS
10
492.7583438997
20
131.5007091280
11
492.7583438997
21
134.0007091280
0
LINE
5
7D7
100
AcDbEntity
8
0
100
AcDbLine
62
7
6
CONTINUOUS
10
495.2583438997
20
161.8328291498
11
495.2583438997
21
176.5007091280
0
LINE
5
7D8
100
AcDbEntity
8
0
100
AcDbLine
62
7
6
CONTINUOUS
10
489.3937316373
20
141.9293795786
11
471.2583438997
21
137.0700170799
0
LINE
5
7D9
100
AcDbEntity
8
DEFAULT_1
100
AcDbLine
62
2
6
CENTER
10
515.0216845086
20
146.9640331281
11
508.8216845086
21
146.9640331281
0
LINE
5
7DA
100
AcDbEntity
8
DEFAULT_1
100
AcDbLine
62
2
6
CENTER
10
492.4950032907
20
146.9640331281
11
486.2950032907
21
146.9640331281
0
LINE
5
7DB
100
AcDbEntity
8
DEFAULT_1
100
AcDbLine
62
2
6
CENTER
10
492.4950032907
20
146.9640331281
11
498.6950032907
21
146.9640331281
0
LINE
5
7DC
100
AcDbEntity
8
DEFAULT_1
100
AcDbLine
62
2
6
CENTER
10
515.0216845086
20
146.9640331281
11
521.2216845086
21
146.9640331281
0
LINE
5
7DD
100
AcDbEntity
8
0
100
AcDbLine
62
7
6
CONTINUOUS
10
523.0745006820
20
140.6026172232
11
518.1229561620
21
141.9293795786
0
LINE
5
7DE
100
AcDbEntity
8
DEFAULT_1
100
AcDbLine
62
2
6
CENTER
10
516.8719519724
20
150.7160043848
11
510.6719519724
21
150.7160043848
0
LINE
5
7DF
100
AcDbEntity
8
DEFAULT_1
100
AcDbLine
62
2
6
CENTER
10
490.6447358269
20
150.7160043848
11
484.4447358269
21
150.7160043848
0
LINE
5
7E0
100
AcDbEntity
8
DEFAULT_1
100
AcDbLine
62
2
6
CENTER
10
490.6447358269
20
150.7160043848
11
496.8447358269
21
150.7160043848
0
LINE
5
7E1
100
AcDbEntity
8
DEFAULT_1
100
AcDbLine
62
2
6
CENTER
10
516.8719519724
20
150.7160043848
11
523.0719519724
21
150.7160043848
0
LINE
5
7E2
100
AcDbEntity
8
DEFAULT_1
100
AcDbLine
62
2
6
CENTER
10
503.7583438997
20
154.8507091280
11
503.7583438997
21
149.8506091280
0
LINE
5
7E3
100
AcDbEntity
8
DEFAULT_1
100
AcDbLine
62
2
6
CENTER
10
503.7583438997
20
128.5757811069
11
503.7583438997
21
146.4676948396
0
LINE
5
7E4
100
AcDbEntity
8
DEFAULT_1
100
AcDbLine
62
2
6
CENTER
10
503.7583438997
20
154.8507091280
11
503.7583438997
21
192.2207800385
0
LINE
5
7E5
100
AcDbEntity
8
DEFAULT_1
100
AcDbLine
62
2
6
CENTER
10
517.5083438997
20
154.8507091280
11
511.3083438997
21
154.8507091280
0
LINE
5
7E6
100
AcDbEntity
8
DEFAULT_1
100
AcDbLine
62
2
6
CENTER
10
503.7583438997
20
154.8507091280
11
498.7582438997
21
154.8507091280
0
LINE
5
7E7
100
AcDbEntity
8
DEFAULT_1
100
AcDbLine
62
2
6
CENTER
10
490.0083438997
20
154.8507091280
11
451.2954749957
21
154.8507091280
0
LINE
5
7E8
100
AcDbEntity
8
DEFAULT_1
100
AcDbLine
62
2
6
CENTER
10
490.0083438997
20
154.8507091280
11
496.2083438997
21
154.8507091280
0
LINE
5
7E9
100
AcDbEntity
8
DEFAULT_1
100
AcDbLine
62
2
6
CENTER
10
503.7583438997
20
154.8507091280
11
508.7584438997
21
154.8507091280
0
LINE
5
7EA
100
AcDbEntity
8
DEFAULT_1
100
AcDbLine
62
2
6
CENTER
10
517.5083438997
20
154.8507091280
11
562.6261821333
21
154.8507091280
0
LINE
5
7EB
100
AcDbEntity
8
0
100
AcDbLine
62
7
6
CONTINUOUS
10
533.7583438997
20
163.5409779170
11
530.5688425663
21
162.3800943695
0
LINE
5
7EC
100
AcDbEntity
8
DEFAULT_1
100
AcDbLine
62
2
6
CENTER
10
516.8719519724
20
158.9854138711
11
510.6719519724
21
158.9854138711
0
LINE
5
7ED
100
AcDbEntity
8
DEFAULT_1
100
AcDbLine
62
2
6
CENTER
10
490.6447358269
20
158.9854138711
11
484.4447358269
21
158.9854138711
0
LINE
5
7EE
100
AcDbEntity
8
DEFAULT_1
100
AcDbLine
62
2
6
CENTER
10
490.6447358269
20
158.9854138711
11
496.8447358269
21
158.9854138711
0
LINE
5
7EF
100
AcDbEntity
8
DEFAULT_1
100
AcDbLine
62
2
6
CENTER
10
516.8719519724
20
158.9854138711
11
523.0719519724
21
158.9854138711
0
LINE
5
7F0
100
AcDbEntity
8
0
100
AcDbLine
62
7
6
CONTINUOUS
10
511.9583438997
20
134.0007091280
11
511.9583438997
21
131.5007091280
0
LINE
5
7F1
100
AcDbEntity
8
0
100
AcDbLine
62
7
6
CONTINUOUS
10
512.2583438997
20
176.5007091280
11
512.2583438997
21
161.8328291498
0
LINE
5
7F2
100
AcDbEntity
8
DEFAULT_1
100
AcDbLine
62
2
6
CENTER
10
515.0216845086
20
162.7373851278
11
508.8216845086
21
162.7373851278
0
LINE
5
7F3
100
AcDbEntity
8
DEFAULT_1
100
AcDbLine
62
2
6
CENTER
10
492.4950032907
20
162.7373851278
11
486.2950032907
21
162.7373851278
0
LINE
5
7F4
100
AcDbEntity
8
DEFAULT_1
100
AcDbLine
62
2
6
CENTER
10
492.4950032907
20
162.7373851278
11
498.6950032907
21
162.7373851278
0
LINE
5
7F5
100
AcDbEntity
8
DEFAULT_1
100
AcDbLine
62
2
6
CENTER
10
515.0216845086
20
162.7373851278
11
521.2216845086
21
162.7373851278
0
LINE
5
7F6
100
AcDbEntity
8
0
100
AcDbLine
62
7
6
CONTINUOUS
10
520.1115545936
20
165.5007091280
11
520.9847465965
21
165.5007091280
0
LINE
5
7F7
100
AcDbEntity
8
DEFAULT_1
100
AcDbLine
62
2
6
CENTER
10
515.0216845086
20
162.7373851278
11
515.0216845086
21
156.5373851278
0
LINE
5
7F8
100
AcDbEntity
8
DEFAULT_1
100
AcDbLine
62
2
6
CENTER
10
515.0216845086
20
146.9640331281
11
515.0216845086
21
140.7640331281
0
LINE
5
7F9
100
AcDbEntity
8
DEFAULT_1
100
AcDbLine
62
2
6
CENTER
10
515.0216845086
20
146.9640331281
11
515.0216845086
21
153.1640331281
0
LINE
5
7FA
100
AcDbEntity
8
DEFAULT_1
100
AcDbLine
62
2
6
CENTER
10
515.0216845086
20
162.7373851278
11
515.0216845086
21
168.9373851278
0
LINE
5
7FB
100
AcDbEntity
8
DEFAULT_1
100
AcDbLine
62
2
6
CENTER
10
516.8719519724
20
158.9854138711
11
516.8719519724
21
152.7854138711
0
LINE
5
7FC
100
AcDbEntity
8
DEFAULT_1
100
AcDbLine
62
2
6
CENTER
10
516.8719519724
20
150.7160043848
11
516.8719519724
21
144.5160043848
0
LINE
5
7FD
100
AcDbEntity
8
DEFAULT_1
100
AcDbLine
62
2
6
CENTER
10
516.8719519724
20
150.7160043848
11
516.8719519724
21
152.7854138711
0
LINE
5
7FE
100
AcDbEntity
8
DEFAULT_1
100
AcDbLine
62
2
6
CENTER
10
516.8719519724
20
158.9854138711
11
516.8719519724
21
165.1854138711
0
LINE
5
7FF
100
AcDbEntity
8
DEFAULT_1
100
AcDbLine
62
2
6
CENTER
10
517.5083438997
20
154.8507091280
11
517.5083438997
21
148.6507091280
0
LINE
5
800
100
AcDbEntity
8
DEFAULT_1
100
AcDbLine
62
2
6
CENTER
10
517.5083438997
20
154.8507091280
11
517.5083438997
21
161.0507091280
0
LINE
5
801
100
AcDbEntity
8
0
100
AcDbLine
62
7
6
CONTINUOUS
10
519.5583438997
20
131.5007091280
11
519.5583438997
21
134.0007091280
0
LINE
5
802
100
AcDbEntity
8
0
100
AcDbLine
62
7
6
CONTINUOUS
10
533.7583438997
20
174.0007091280
11
525.7583438997
21
174.0007091280
0
LINE
5
803
100
AcDbEntity
8
0
100
AcDbLine
62
7
6
CONTINUOUS
10
481.7583438997
20
174.0007091280
11
473.7583438997
21
174.0007091280
0
LINE
5
804
100
AcDbEntity
8
0
100
AcDbLine
62
7
6
CONTINUOUS
10
525.7583438997
20
174.0007091280
11
525.7583438997
21
176.5007091280
0
LINE
5
805
100
AcDbEntity
8
0
100
AcDbLine
62
7
6
CONTINUOUS
10
525.7583438997
20
176.5007091280
11
512.2583438997
21
176.5007091280
0
LINE
5
806
100
AcDbEntity
8
0
100
AcDbLine
62
7
6
CONTINUOUS
10
495.2583438997
20
176.5007091280
11
481.7583438997
21
176.5007091280
0
LINE
5
807
100
AcDbEntity
8
0
100
AcDbLine
62
7
6
CONTINUOUS
10
522.8641318381
20
164.1847494146
11
529.0670590115
21
147.1423470712
0
LINE
5
808
100
AcDbEntity
8
0
100
AcDbLine
62
7
6
CONTINUOUS
10
536.2583438997
20
140.9007091280
11
529.3734976114
21
159.8166688413
0
LINE
5
809
100
AcDbEntity
8
0
100
AcDbLine
62
7
6
CONTINUOUS
10
533.7583438997
20
163.5409779170
11
533.7583438997
21
174.0007091280
0
LINE
5
80A
100
AcDbEntity
8
0
100
AcDbLine
62
7
6
CONTINUOUS
10
536.2583438997
20
134.0007091280
11
536.2583438997
21
140.9007091280
0
ARC
5
80B
100
AcDbEntity
8
0
100
AcDbCircle
62
2
6
CONTINUOUS
10
288.9740776838
20
229.7491466347
40
1.5000000000
100
AcDbArc
50
255.0000000000
51
195.0000000000
0
ARC
5
80C
100
AcDbEntity
8
0
100
AcDbCircle
62
2
6
CONTINUOUS
10
317.4740776838
20
229.7491466347
40
1.5000000000
100
AcDbArc
50
255.0000000000
51
195.0000000000
0
ARC
5
80D
100
AcDbEntity
8
0
100
AcDbCircle
62
2
6
CONTINUOUS
10
292.7107370748
20
204.2124706349
40
1.5000000000
100
AcDbArc
50
255.0000000000
51
195.0000000000
0
ARC
5
80E
100
AcDbEntity
8
0
100
AcDbCircle
62
2
6
CONTINUOUS
10
290.8604696110
20
207.9644418915
40
1.5000000000
100
AcDbArc
50
255.0000000000
51
195.0000000000
0
ARC
5
80F
100
AcDbEntity
8
0
100
AcDbCircle
62
2
6
CONTINUOUS
10
290.2240776838
20
212.0991466347
40
1.5000000000
100
AcDbArc
50
255.0000000000
51
195.0000000000
0
ARC
5
810
100
AcDbEntity
8
0
100
AcDbCircle
62
2
6
CONTINUOUS
10
290.8604696110
20
216.2338513779
40
1.5000000000
100
AcDbArc
50
255.0000000000
51
195.0000000000
0
ARC
5
811
100
AcDbEntity
8
0
100
AcDbCircle
62
2
6
CONTINUOUS
10
292.7107370748
20
219.9858226345
40
1.5000000000
100
AcDbArc
50
255.0000000000
51
195.0000000000
0
ARC
5
812
100
AcDbEntity
8
0
100
AcDbCircle
62
2
6
CONTINUOUS
10
289.1740776838
20
192.8491466347
40
2.0000000000
100
AcDbArc
50
255.0000000000
51
195.0000000000
0
ARC
5
813
100
AcDbEntity
8
0
100
AcDbCircle
62
2
6
CONTINUOUS
10
315.9740776838
20
192.8491466347
40
2.0000000000
100
AcDbArc
50
255.0000000000
51
195.0000000000
0
ARC
5
814
100
AcDbEntity
8
0
100
AcDbCircle
62
2
6
CONTINUOUS
10
315.2374182927
20
204.2124706349
40
1.5000000000
100
AcDbArc
50
255.0000000000
51
195.0000000000
0
ARC
5
815
100
AcDbEntity
8
0
100
AcDbCircle
62
2
6
CONTINUOUS
10
317.0876857566
20
207.9644418915
40
1.5000000000
100
AcDbArc
50
255.0000000000
51
195.0000000000
0
ARC
5
816
100
AcDbEntity
8
0
100
AcDbCircle
62
2
6
CONTINUOUS
10
317.7240776838
20
212.0991466347
40
1.5000000000
100
AcDbArc
50
255.0000000000
51
195.0000000000
0
ARC
5
817
100
AcDbEntity
8
0
100
AcDbCircle
62
2
6
CONTINUOUS
10
317.0876857566
20
216.2338513779
40
1.5000000000
100
AcDbArc
50
255.0000000000
51
195.0000000000
0
ARC
5
818
100
AcDbEntity
8
0
100
AcDbCircle
62
2
6
CONTINUOUS
10
315.2374182927
20
219.9858226345
40
1.5000000000
100
AcDbArc
50
255.0000000000
51
195.0000000000
0
CIRCLE
5
819
100
AcDbEntity
8
0
100
AcDbCircle
62
7
6
CONTINUOUS
10
285.9740776838
20
221.7491466347
40
3.5000000000
0
ARC
5
81A
100
AcDbEntity
8
0
100
AcDbCircle
62
7
6
CONTINUOUS
10
303.9740776838
20
212.0991466347
40
16.5000000000
100
AcDbArc
50
323.5567829944
51
27.8765175802
0
CIRCLE
5
81B
100
AcDbEntity
8
0
100
AcDbCircle
62
7
6
CONTINUOUS
10
322.9740776838
20
227.7491466347
40
3.0000000000
0
CIRCLE
5
81C
100
AcDbEntity
8
0
100
AcDbCircle
62
7
6
CONTINUOUS
10
309.9740776838
20
196.2491466347
40
3.0000000000
0
CIRCLE
5
81D
100
AcDbEntity
8
0
100
AcDbCircle
62
7
6
CONTINUOUS
10
297.9740776838
20
196.2491466347
40
3.0000000000
0
CIRCLE
5
81E
100
AcDbEntity
8
0
100
AcDbCircle
62
7
6
CONTINUOUS
10
315.2374182927
20
219.9858226345
40
1.2000000000
0
CIRCLE
5
81F
100
AcDbEntity
8
0
100
AcDbCircle
62
7
6
CONTINUOUS
10
317.0876857566
20
216.2338513779
40
1.2000000000
0
CIRCLE
5
820
100
AcDbEntity
8
0
100
AcDbCircle
62
7
6
CONTINUOUS
10
317.7240776838
20
212.0991466347
40
1.2000000000
0
CIRCLE
5
821
100
AcDbEntity
8
0
100
AcDbCircle
62
7
6
CONTINUOUS
10
317.0876857566
20
207.9644418915
40
1.2000000000
0
CIRCLE
5
822
100
AcDbEntity
8
0
100
AcDbCircle
62
7
6
CONTINUOUS
10
315.2374182927
20
204.2124706349
40
1.2000000000
0
CIRCLE
5
823
100
AcDbEntity
8
0
100
AcDbCircle
62
7
6
CONTINUOUS
10
292.7107370748
20
219.9858226345
40
1.2000000000
0
CIRCLE
5
824
100
AcDbEntity
8
0
100
AcDbCircle
62
7
6
CONTINUOUS
10
290.8604696110
20
216.2338513779
40
1.2000000000
0
CIRCLE
5
825
100
AcDbEntity
8
0
100
AcDbCircle
62
7
6
CONTINUOUS
10
290.2240776838
20
212.0991466347
40
1.2000000000
0
CIRCLE
5
826
100
AcDbEntity
8
0
100
AcDbCircle
62
7
6
CONTINUOUS
10
290.8604696110
20
207.9644418915
40
1.2000000000
0
CIRCLE
5
827
100
AcDbEntity
8
0
100
AcDbCircle
62
7
6
CONTINUOUS
10
292.7107370748
20
204.2124706349
40
1.2000000000
0
CIRCLE
5
828
100
AcDbEntity
8
0
100
AcDbCircle
62
7
6
CONTINUOUS
10
315.9740776838
20
192.8491466347
40
1.6000000000
0
CIRCLE
5
829
100
AcDbEntity
8
0
100
AcDbCircle
62
7
6
CONTINUOUS
10
289.1740776838
20
192.8491466347
40
1.6000000000
0
CIRCLE
5
82A
100
AcDbEntity
8
0
100
AcDbCircle
62
7
6
CONTINUOUS
10
317.4740776838
20
229.7491466347
40
1.2000000000
0
CIRCLE
5
82B
100
AcDbEntity
8
0
100
AcDbCircle
62
7
6
CONTINUOUS
10
288.9740776838
20
229.7491466347
40
1.2000000000
0
ARC
5
82C
100
AcDbEntity
8
0
100
AcDbCircle
62
7
6
CONTINUOUS
10
303.9740776838
20
212.0991466347
40
16.5000000000
100
AcDbArc
50
179.4947712239
51
216.4432170056
0
ARC
5
82D
100
AcDbEntity
8
0
100
AcDbCircle
62
7
6
CONTINUOUS
10
285.9740776838
20
221.7491466347
40
7.5000000000
100
AcDbArc
50
225.0000000000
51
266.9873824952
0
ARC
5
82E
100
AcDbEntity
8
0
100
AcDbCircle
62
7
6
CONTINUOUS
10
285.4747969171
20
212.2622757746
40
2.0000000000
100
AcDbArc
50
359.4947712239
51
86.9873824952
0
ARC
5
82F
100
AcDbEntity
8
0
100
AcDbCircle
62
7
6
CONTINUOUS
10
289.0918273312
20
201.1096687379
40
2.0000000000
100
AcDbArc
50
285.0000000000
51
36.4432170056
0
ARC
5
830
100
AcDbEntity
8
0
100
AcDbCircle
62
7
6
CONTINUOUS
10
320.3272883777
20
220.7491466347
40
2.0000000000
100
AcDbArc
50
90.0000000000
51
207.8765175802
0
ARC
5
831
100
AcDbEntity
8
0
100
AcDbCircle
62
7
6
CONTINUOUS
10
321.2004803806
20
220.7491466347
40
2.0000000000
100
AcDbArc
50
20.0000000000
51
90.0000000000
0
ARC
5
832
100
AcDbEntity
8
0
100
AcDbCircle
62
7
6
CONTINUOUS
10
318.8563280363
20
201.1096687379
40
2.0000000000
100
AcDbArc
50
143.5567829944
51
255.0000000000
0
ARC
5
833
100
AcDbEntity
8
0
100
AcDbCircle
62
7
6
CONTINUOUS
10
331.4686166371
20
217.7491466347
40
2.0000000000
100
AcDbArc
50
110.0000000000
51
200.0000000000
0
ARC
5
834
100
AcDbEntity
8
0
100
AcDbCircle
62
7
6
CONTINUOUS
10
324.5843296916
20
202.6806838614
40
5.0000000000
100
AcDbArc
50
255.0000000000
51
20.0000000000
0
ARC
5
835
100
AcDbEntity
8
0
100
AcDbCircle
62
7
6
CONTINUOUS
10
303.9740776838
20
212.0991466347
40
11.0000000000
100
AcDbArc
50
140.5994312463
51
39.4005687537
0
ARC
5
836
100
AcDbEntity
8
0
100
AcDbCircle
62
2
6
CONTINUOUS
10
303.9740776838
20
327.4863980370
40
2.0000000000
100
AcDbArc
50
255.0000000000
51
195.0000000000
0
ARC
5
837
100
AcDbEntity
8
0
100
AcDbCircle
62
2
6
CONTINUOUS
10
275.4740776838
20
327.4863980370
40
2.0000000000
100
AcDbArc
50
255.0000000000
51
195.0000000000
0
ARC
5
838
100
AcDbEntity
8
0
100
AcDbCircle
62
2
6
CONTINUOUS
10
332.4740776838
20
327.4863980370
40
2.0000000000
100
AcDbArc
50
255.0000000000
51
195.0000000000
0
CIRCLE
5
839
100
AcDbEntity
8
0
100
AcDbCircle
62
7
6
CONTINUOUS
10
275.4740776838
20
327.4863980370
40
1.6000000000
0
CIRCLE
5
83A
100
AcDbEntity
8
0
100
AcDbCircle
62
7
6
CONTINUOUS
10
303.9740776838
20
327.4863980370
40
1.6000000000
0
CIRCLE
5
83B
100
AcDbEntity
8
0
100
AcDbCircle
62
7
6
CONTINUOUS
10
332.4740776838
20
327.4863980370
40
1.6000000000
0
ARC
5
83C
100
AcDbEntity
8
0
100
AcDbCircle
62
2
6
CONTINUOUS
10
277.9740776838
20
94.5589088779
40
1.5000000000
100
AcDbArc
50
255.0000000000
51
195.0000000000
0
ARC
5
83D
100
AcDbEntity
8
0
100
AcDbCircle
62
2
6
CONTINUOUS
10
329.9740776838
20
94.5589088779
40
1.5000000000
100
AcDbArc
50
255.0000000000
51
195.0000000000
0
CIRCLE
5
83E
100
AcDbEntity
8
0
100
AcDbCircle
62
7
6
CONTINUOUS
10
277.9740776838
20
94.5589088779
40
1.2000000000
0
ARC
5
83F
100
AcDbEntity
8
0
100
AcDbCircle
62
7
6
CONTINUOUS
10
275.4740776838
20
94.5589088779
40
1.6000000000
100
AcDbArc
50
160.3895054442
51
199.6105880487
0
CIRCLE
5
840
100
AcDbEntity
8
0
100
AcDbCircle
62
7
6
CONTINUOUS
10
329.9740776838
20
94.5589088779
40
1.2000000000
0
CIRCLE
5
841
100
AcDbEntity
8
0
100
AcDbCircle
62
7
6
CONTINUOUS
10
303.9740776838
20
94.5589088779
40
1.6000000000
0
ARC
5
842
100
AcDbEntity
8
0
100
AcDbCircle
62
2
6
CONTINUOUS
10
141.5175167105
20
229.7491466347
40
1.5000000000
100
AcDbArc
50
255.0000000000
51
195.0000000000
0
ARC
5
843
100
AcDbEntity
8
0
100
AcDbCircle
62
2
6
CONTINUOUS
10
113.0175167105
20
229.7491466347
40
1.5000000000
100
AcDbArc
50
255.0000000000
51
195.0000000000
0
ARC
5
844
100
AcDbEntity
8
0
100
AcDbCircle
62
2
6
CONTINUOUS
10
137.7808573194
20
204.2124706349
40
1.5000000000
100
AcDbArc
50
255.0000000000
51
195.0000000000
0
ARC
5
845
100
AcDbEntity
8
0
100
AcDbCircle
62
2
6
CONTINUOUS
10
139.6311247833
20
207.9644418915
40
1.5000000000
100
AcDbArc
50
255.0000000000
51
195.0000000000
0
ARC
5
846
100
AcDbEntity
8
0
100
AcDbCircle
62
2
6
CONTINUOUS
10
140.2675167105
20
212.0991466347
40
1.5000000000
100
AcDbArc
50
255.0000000000
51
195.0000000000
0
ARC
5
847
100
AcDbEntity
8
0
100
AcDbCircle
62
2
6
CONTINUOUS
10
139.6311247833
20
216.2338513779
40
1.5000000000
100
AcDbArc
50
255.0000000000
51
195.0000000000
0
ARC
5
848
100
AcDbEntity
8
0
100
AcDbCircle
62
2
6
CONTINUOUS
10
137.7808573194
20
219.9858226345
40
1.5000000000
100
AcDbArc
50
255.0000000000
51
195.0000000000
0
ARC
5
849
100
AcDbEntity
8
0
100
AcDbCircle
62
2
6
CONTINUOUS
10
141.3175167105
20
192.8491466347
40
2.0000000000
100
AcDbArc
50
255.0000000000
51
195.0000000000
0
ARC
5
84A
100
AcDbEntity
8
0
100
AcDbCircle
62
2
6
CONTINUOUS
10
114.5175167105
20
192.8491466347
40
2.0000000000
100
AcDbArc
50
255.0000000000
51
195.0000000000
0
ARC
5
84B
100
AcDbEntity
8
0
100
AcDbCircle
62
2
6
CONTINUOUS
10
115.2541761015
20
204.2124706349
40
1.5000000000
100
AcDbArc
50
255.0000000000
51
195.0000000000
0
ARC
5
84C
100
AcDbEntity
8
0
100
AcDbCircle
62
2
6
CONTINUOUS
10
113.4039086377
20
207.9644418915
40
1.5000000000
100
AcDbArc
50
255.0000000000
51
195.0000000000
0
ARC
5
84D
100
AcDbEntity
8
0
100
AcDbCircle
62
2
6
CONTINUOUS
10
112.7675167105
20
212.0991466347
40
1.5000000000
100
AcDbArc
50
255.0000000000
51
195.0000000000
0
ARC
5
84E
100
AcDbEntity
8
0
100
AcDbCircle
62
2
6
CONTINUOUS
10
113.4039086377
20
216.2338513779
40
1.5000000000
100
AcDbArc
50
255.0000000000
51
195.0000000000
0
ARC
5
84F
100
AcDbEntity
8
0
100
AcDbCircle
62
2
6
CONTINUOUS
10
115.2541761015
20
219.9858226345
40
1.5000000000
100
AcDbArc
50
255.0000000000
51
195.0000000000
0
CIRCLE
5
850
100
AcDbEntity
8
0
100
AcDbCircle
62
7
6
CONTINUOUS
10
144.5175167105
20
221.7491466347
40
3.5000000000
0
ARC
5
851
100
AcDbEntity
8
0
100
AcDbCircle
62
7
6
CONTINUOUS
10
126.5175167105
20
212.0991466347
40
16.5000000000
100
AcDbArc
50
152.1234824198
51
216.4432170056
0
CIRCLE
5
852
100
AcDbEntity
8
0
100
AcDbCircle
62
7
6
CONTINUOUS
10
107.5175167105
20
227.7491466347
40
3.0000000000
0
CIRCLE
5
853
100
AcDbEntity
8
0
100
AcDbCircle
62
7
6
CONTINUOUS
10
120.5175167105
20
196.2491466347
40
3.0000000000
0
CIRCLE
5
854
100
AcDbEntity
8
0
100
AcDbCircle
62
7
6
CONTINUOUS
10
132.5175167105
20
196.2491466347
40
3.0000000000
0
CIRCLE
5
855
100
AcDbEntity
8
0
100
AcDbCircle
62
7
6
CONTINUOUS
10
115.2541761015
20
219.9858226345
40
1.2000000000
0
CIRCLE
5
856
100
AcDbEntity
8
0
100
AcDbCircle
62
7
6
CONTINUOUS
10
113.4039086377
20
216.2338513779
40
1.2000000000
0
CIRCLE
5
857
100
AcDbEntity
8
0
100
AcDbCircle
62
7
6
CONTINUOUS
10
112.7675167105
20
212.0991466347
40
1.2000000000
0
CIRCLE
5
858
100
AcDbEntity
8
0
100
AcDbCircle
62
7
6
CONTINUOUS
10
113.4039086377
20
207.9644418915
40
1.2000000000
0
CIRCLE
5
859
100
AcDbEntity
8
0
100
AcDbCircle
62
7
6
CONTINUOUS
10
115.2541761015
20
204.2124706349
40
1.2000000000
0
CIRCLE
5
85A
100
AcDbEntity
8
0
100
AcDbCircle
62
7
6
CONTINUOUS
10
137.7808573194
20
219.9858226345
40
1.2000000000
0
CIRCLE
5
85B
100
AcDbEntity
8
0
100
AcDbCircle
62
7
6
CONTINUOUS
10
139.6311247833
20
216.2338513779
40
1.2000000000
0
CIRCLE
5
85C
100
AcDbEntity
8
0
100
AcDbCircle
62
7
6
CONTINUOUS
10
140.2675167105
20
212.0991466347
40
1.2000000000
0
CIRCLE
5
85D
100
AcDbEntity
8
0
100
AcDbCircle
62
7
6
CONTINUOUS
10
139.6311247833
20
207.9644418915
40
1.2000000000
0
CIRCLE
5
85E
100
AcDbEntity
8
0
100
AcDbCircle
62
7
6
CONTINUOUS
10
137.7808573194
20
204.2124706349
40
1.2000000000
0
CIRCLE
5
85F
100
AcDbEntity
8
0
100
AcDbCircle
62
7
6
CONTINUOUS
10
114.5175167105
20
192.8491466347
40
1.6000000000
0
CIRCLE
5
860
100
AcDbEntity
8
0
100
AcDbCircle
62
7
6
CONTINUOUS
10
141.3175167105
20
192.8491466347
40
1.6000000000
0
CIRCLE
5
861
100
AcDbEntity
8
0
100
AcDbCircle
62
7
6
CONTINUOUS
10
113.0175167105
20
229.7491466347
40
1.2000000000
0
CIRCLE
5
862
100
AcDbEntity
8
0
100
AcDbCircle
62
7
6
CONTINUOUS
10
141.5175167105
20
229.7491466347
40
1.2000000000
0
ARC
5
863
100
AcDbEntity
8
0
100
AcDbCircle
62
7
6
CONTINUOUS
10
144.5175167105
20
221.7491466347
40
7.5000000000
100
AcDbArc
50
273.0126175048
51
315.0000000000
0
ARC
5
864
100
AcDbEntity
8
0
100
AcDbCircle
62
7
6
CONTINUOUS
10
126.5175167105
20
212.0991466347
40
16.5000000000
100
AcDbArc
50
323.5567829944
51
0.5052287761
0
ARC
5
865
100
AcDbEntity
8
0
100
AcDbCircle
62
7
6
CONTINUOUS
10
145.0167974771
20
212.2622757746
40
2.0000000000
100
AcDbArc
50
93.0126175048
51
180.5052287761
0
ARC
5
866
100
AcDbEntity
8
0
100
AcDbCircle
62
7
6
CONTINUOUS
10
141.3997670630
20
201.1096687379
40
2.0000000000
100
AcDbArc
50
143.5567829944
51
255.0000000000
0
ARC
5
867
100
AcDbEntity
8
0
100
AcDbCircle
62
7
6
CONTINUOUS
10
110.1643060165
20
220.7491466347
40
2.0000000000
100
AcDbArc
50
332.1234824198
51
90.0000000000
0
ARC
5
868
100
AcDbEntity
8
0
100
AcDbCircle
62
7
6
CONTINUOUS
10
109.2911140136
20
220.7491466347
40
2.0000000000
100
AcDbArc
50
90.0000000000
51
160.0000000000
0
ARC
5
869
100
AcDbEntity
8
0
100
AcDbCircle
62
7
6
CONTINUOUS
10
111.6352663579
20
201.1096687379
40
2.0000000000
100
AcDbArc
50
285.0000000000
51
36.4432170056
0
ARC
5
86A
100
AcDbEntity
8
0
100
AcDbCircle
62
7
6
CONTINUOUS
10
99.0229777571
20
217.7491466347
40
2.0000000000
100
AcDbArc
50
340.0000000000
51
70.0000000000
0
ARC
5
86B
100
AcDbEntity
8
0
100
AcDbCircle
62
7
6
CONTINUOUS
10
105.9072647026
20
202.6806838614
40
5.0000000000
100
AcDbArc
50
160.0000000000
51
285.0000000000
0
ARC
5
86C
100
AcDbEntity
8
0
100
AcDbCircle
62
7
6
CONTINUOUS
10
126.5175167105
20
212.0991466347
40
11.0000000000
100
AcDbArc
50
140.5994312463
51
39.4005687537
0
CIRCLE
5
86D
100
AcDbEntity
8
0
100
AcDbCircle
62
7
6
CONTINUOUS
10
155.0175167105
20
89.6882066102
40
1.6000000000
0
CIRCLE
5
86E
100
AcDbEntity
8
0
100
AcDbCircle
62
7
6
CONTINUOUS
10
126.5175167105
20
89.6882066102
40
1.6000000000
0
ARC
5
86F
100
AcDbEntity
8
0
100
AcDbCircle
62
2
6
CONTINUOUS
10
486.7773225964
20
324.1201992407
40
1.5000000000
100
AcDbArc
50
255.0000000000
51
195.0000000000
0
ARC
5
870
100
AcDbEntity
8
0
100
AcDbCircle
62
2
6
CONTINUOUS
10
515.2773225964
20
324.1201992407
40
1.5000000000
100
AcDbArc
50
255.0000000000
51
195.0000000000
0
ARC
5
871
100
AcDbEntity
8
0
100
AcDbCircle
62
2
6
CONTINUOUS
10
490.5139819874
20
298.5835232409
40
1.5000000000
100
AcDbArc
50
255.0000000000
51
195.0000000000
0
ARC
5
872
100
AcDbEntity
8
0
100
AcDbCircle
62
2
6
CONTINUOUS
10
488.6637145236
20
302.3354944975
40
1.5000000000
100
AcDbArc
50
255.0000000000
51
195.0000000000
0
ARC
5
873
100
AcDbEntity
8
0
100
AcDbCircle
62
2
6
CONTINUOUS
10
488.0273225964
20
306.4701992407
40
1.5000000000
100
AcDbArc
50
255.0000000000
51
195.0000000000
0
ARC
5
874
100
AcDbEntity
8
0
100
AcDbCircle
62
2
6
CONTINUOUS
10
488.6637145236
20
310.6049039839
40
1.5000000000
100
AcDbArc
50
255.0000000000
51
195.0000000000
0
ARC
5
875
100
AcDbEntity
8
0
100
AcDbCircle
62
2
6
CONTINUOUS
10
490.5139819874
20
314.3568752405
40
1.5000000000
100
AcDbArc
50
255.0000000000
51
195.0000000000
0
ARC
5
876
100
AcDbEntity
8
0
100
AcDbCircle
62
2
6
CONTINUOUS
10
486.9773225964
20
287.2201992407
40
2.0000000000
100
AcDbArc
50
255.0000000000
51
195.0000000000
0
ARC
5
877
100
AcDbEntity
8
0
100
AcDbCircle
62
2
6
CONTINUOUS
10
513.7773225964
20
287.2201992407
40
2.0000000000
100
AcDbArc
50
255.0000000000
51
195.0000000000
0
ARC
5
878
100
AcDbEntity
8
0
100
AcDbCircle
62
2
6
CONTINUOUS
10
513.0406632053
20
298.5835232409
40
1.5000000000
100
AcDbArc
50
255.0000000000
51
195.0000000000
0
ARC
5
879
100
AcDbEntity
8
0
100
AcDbCircle
62
2
6
CONTINUOUS
10
514.8909306691
20
302.3354944975
40
1.5000000000
100
AcDbArc
50
255.0000000000
51
195.0000000000
0
ARC
5
87A
100
AcDbEntity
8
0
100
AcDbCircle
62
2
6
CONTINUOUS
10
515.5273225964
20
306.4701992407
40
1.5000000000
100
AcDbArc
50
255.0000000000
51
195.0000000000
0
ARC
5
87B
100
AcDbEntity
8
0
100
AcDbCircle
62
2
6
CONTINUOUS
10
514.8909306691
20
310.6049039839
40
1.5000000000
100
AcDbArc
50
255.0000000000
51
195.0000000000
0
ARC
5
87C
100
AcDbEntity
8
0
100
AcDbCircle
62
2
6
CONTINUOUS
10
513.0406632053
20
314.3568752405
40
1.5000000000
100
AcDbArc
50
255.0000000000
51
195.0000000000
0
CIRCLE
5
87D
100
AcDbEntity
8
0
100
AcDbCircle
62
7
6
CONTINUOUS
10
483.7773225964
20
316.1201992407
40
3.5000000000
0
ARC
5
87E
100
AcDbEntity
8
0
100
AcDbCircle
62
7
6
CONTINUOUS
10
501.7773225964
20
306.4701992407
40
16.5000000000
100
AcDbArc
50
323.5567829944
51
27.8765175802
0
CIRCLE
5
87F
100
AcDbEntity
8
0
100
AcDbCircle
62
7
6
CONTINUOUS
10
520.7773225964
20
322.1201992407
40
3.0000000000
0
CIRCLE
5
880
100
AcDbEntity
8
0
100
AcDbCircle
62
7
6
CONTINUOUS
10
507.7773225964
20
290.6201992407
40
3.0000000000
0
CIRCLE
5
881
100
AcDbEntity
8
0
100
AcDbCircle
62
7
6
CONTINUOUS
10
495.7773225964
20
290.6201992407
40
3.0000000000
0
CIRCLE
5
882
100
AcDbEntity
8
0
100
AcDbCircle
62
7
6
CONTINUOUS
10
513.0406632053
20
314.3568752405
40
1.2000000000
0
CIRCLE
5
883
100
AcDbEntity
8
0
100
AcDbCircle
62
7
6
CONTINUOUS
10
514.8909306691
20
310.6049039839
40
1.2000000000
0
CIRCLE
5
884
100
AcDbEntity
8
0
100
AcDbCircle
62
7
6
CONTINUOUS
10
515.5273225964
20
306.4701992407
40
1.2000000000
0
CIRCLE
5
885
100
AcDbEntity
8
0
100
AcDbCircle
62
7
6
CONTINUOUS
10
514.8909306691
20
302.3354944975
40
1.2000000000
0
CIRCLE
5
886
100
AcDbEntity
8
0
100
AcDbCircle
62
7
6
CONTINUOUS
10
513.0406632053
20
298.5835232409
40
1.2000000000
0
CIRCLE
5
887
100
AcDbEntity
8
0
100
AcDbCircle
62
7
6
CONTINUOUS
10
490.5139819874
20
314.3568752405
40
1.2000000000
0
CIRCLE
5
888
100
AcDbEntity
8
0
100
AcDbCircle
62
7
6
CONTINUOUS
10
488.6637145236
20
310.6049039839
40
1.2000000000
0
CIRCLE
5
889
100
AcDbEntity
8
0
100
AcDbCircle
62
7
6
CONTINUOUS
10
488.0273225964
20
306.4701992407
40
1.2000000000
0
CIRCLE
5
88A
100
AcDbEntity
8
0
100
AcDbCircle
62
7
6
CONTINUOUS
10
488.6637145236
20
302.3354944975
40
1.2000000000
0
CIRCLE
5
88B
100
AcDbEntity
8
0
100
AcDbCircle
62
7
6
CONTINUOUS
10
490.5139819874
20
298.5835232409
40
1.2000000000
0
CIRCLE
5
88C
100
AcDbEntity
8
0
100
AcDbCircle
62
7
6
CONTINUOUS
10
513.7773225964
20
287.2201992407
40
1.6000000000
0
CIRCLE
5
88D
100
AcDbEntity
8
0
100
AcDbCircle
62
7
6
CONTINUOUS
10
486.9773225964
20
287.2201992407
40
1.6000000000
0
CIRCLE
5
88E
100
AcDbEntity
8
0
100
AcDbCircle
62
7
6
CONTINUOUS
10
515.2773225964
20
324.1201992407
40
1.2000000000
0
CIRCLE
5
88F
100
AcDbEntity
8
0
100
AcDbCircle
62
7
6
CONTINUOUS
10
486.7773225964
20
324.1201992407
40
1.2000000000
0
ARC
5
890
100
AcDbEntity
8
0
100
AcDbCircle
62
7
6
CONTINUOUS
10
501.7773225964
20
306.4701992407
40
16.5000000000
100
AcDbArc
50
179.4947712239
51
216.4432170056
0
ARC
5
891
100
AcDbEntity
8
0
100
AcDbCircle
62
7
6
CONTINUOUS
10
483.7773225964
20
316.1201992407
40
7.5000000000
100
AcDbArc
50
225.0000000000
51
266.9873824952
0
ARC
5
892
100
AcDbEntity
8
0
100
AcDbCircle
62
7
6
CONTINUOUS
10
483.2780418297
20
306.6333283806
40
2.0000000000
100
AcDbArc
50
359.4947712239
51
86.9873824952
0
ARC
5
893
100
AcDbEntity
8
0
100
AcDbCircle
62
7
6
CONTINUOUS
10
486.8950722438
20
295.4807213439
40
2.0000000000
100
AcDbArc
50
285.0000000000
51
36.4432170056
0
ARC
5
894
100
AcDbEntity
8
0
100
AcDbCircle
62
7
6
CONTINUOUS
10
518.1305332903
20
315.1201992407
40
2.0000000000
100
AcDbArc
50
90.0000000000
51
207.8765175802
0
ARC
5
895
100
AcDbEntity
8
0
100
AcDbCircle
62
7
6
CONTINUOUS
10
519.0037252932
20
315.1201992407
40
2.0000000000
100
AcDbArc
50
20.0000000000
51
90.0000000000
0
ARC
5
896
100
AcDbEntity
8
0
100
AcDbCircle
62
7
6
CONTINUOUS
10
516.6595729489
20
295.4807213439
40
2.0000000000
100
AcDbArc
50
143.5567829944
51
255.0000000000
0
ARC
5
897
100
AcDbEntity
8
0
100
AcDbCircle
62
7
6
CONTINUOUS
10
529.2718615497
20
312.1201992407
40
2.0000000000
100
AcDbArc
50
110.0000000000
51
200.0000000000
0
ARC
5
898
100
AcDbEntity
8
0
100
AcDbCircle
62
7
6
CONTINUOUS
10
522.3875746042
20
297.0517364674
40
5.0000000000
100
AcDbArc
50
255.0000000000
51
20.0000000000
0
ARC
5
899
100
AcDbEntity
8
0
100
AcDbCircle
62
7
6
CONTINUOUS
10
501.7773225964
20
306.4701992407
40
11.0000000000
100
AcDbArc
50
140.5994312463
51
39.4005687537
0
ARC
5
89A
100
AcDbEntity
8
0
100
AcDbCircle
62
2
6
CONTINUOUS
10
501.7773225964
20
306.4701992407
40
16.5000000000
100
AcDbArc
50
27.8765175802
51
179.4947712239
0
ARC
5
89B
100
AcDbEntity
8
0
100
AcDbCircle
62
2
6
CONTINUOUS
10
501.7773225964
20
306.4701992407
40
16.5000000000
100
AcDbArc
50
216.4432170056
51
238.9549419751
0
ARC
5
89C
100
AcDbEntity
8
0
100
AcDbCircle
62
2
6
CONTINUOUS
10
488.7583438997
20
172.5007091280
40
1.5000000000
100
AcDbArc
50
255.0000000000
51
195.0000000000
0
ARC
5
89D
100
AcDbEntity
8
0
100
AcDbCircle
62
2
6
CONTINUOUS
10
517.2583438997
20
172.5007091280
40
1.5000000000
100
AcDbArc
50
255.0000000000
51
195.0000000000
0
ARC
5
89E
100
AcDbEntity
8
0
100
AcDbCircle
62
2
6
CONTINUOUS
10
492.4950032907
20
146.9640331281
40
1.5000000000
100
AcDbArc
50
255.0000000000
51
195.0000000000
0
ARC
5
89F
100
AcDbEntity
8
0
100
AcDbCircle
62
2
6
CONTINUOUS
10
490.6447358269
20
150.7160043848
40
1.5000000000
100
AcDbArc
50
255.0000000000
51
195.0000000000
0
ARC
5
8A0
100
AcDbEntity
8
0
100
AcDbCircle
62
2
6
CONTINUOUS
10
490.0083438997
20
154.8507091280
40
1.5000000000
100
AcDbArc
50
255.0000000000
51
195.0000000000
0
ARC
5
8A1
100
AcDbEntity
8
0
100
AcDbCircle
62
2
6
CONTINUOUS
10
490.6447358269
20
158.9854138711
40
1.5000000000
100
AcDbArc
50
255.0000000000
51
195.0000000000
0
ARC
5
8A2
100
AcDbEntity
8
0
100
AcDbCircle
62
2
6
CONTINUOUS
10
492.4950032907
20
162.7373851278
40
1.5000000000
100
AcDbArc
50
255.0000000000
51
195.0000000000
0
ARC
5
8A3
100
AcDbEntity
8
0
100
AcDbCircle
62
2
6
CONTINUOUS
10
488.9583438997
20
135.6007091280
40
2.0000000000
100
AcDbArc
50
255.0000000000
51
195.0000000000
0
ARC
5
8A4
100
AcDbEntity
8
0
100
AcDbCircle
62
2
6
CONTINUOUS
10
515.7583438997
20
135.6007091280
40
2.0000000000
100
AcDbArc
50
255.0000000000
51
195.0000000000
0
ARC
5
8A5
100
AcDbEntity
8
0
100
AcDbCircle
62
2
6
CONTINUOUS
10
515.0216845086
20
146.9640331281
40
1.5000000000
100
AcDbArc
50
255.0000000000
51
195.0000000000
0
ARC
5
8A6
100
AcDbEntity
8
0
100
AcDbCircle
62
2
6
CONTINUOUS
10
516.8719519724
20
150.7160043848
40
1.5000000000
100
AcDbArc
50
255.0000000000
51
195.0000000000
0
ARC
5
8A7
100
AcDbEntity
8
0
100
AcDbCircle
62
2
6
CONTINUOUS
10
517.5083438997
20
154.8507091280
40
1.5000000000
100
AcDbArc
50
255.0000000000
51
195.0000000000
0
ARC
5
8A8
100
AcDbEntity
8
0
100
AcDbCircle
62
2
6
CONTINUOUS
10
516.8719519724
20
158.9854138711
40
1.5000000000
100
AcDbArc
50
255.0000000000
51
195.0000000000
0
ARC
5
8A9
100
AcDbEntity
8
0
100
AcDbCircle
62
2
6
CONTINUOUS
10
515.0216845086
20
162.7373851278
40
1.5000000000
100
AcDbArc
50
255.0000000000
51
195.0000000000
0
CIRCLE
5
8AA
100
AcDbEntity
8
0
100
AcDbCircle
62
7
6
CONTINUOUS
10
485.7583438997
20
164.5007091280
40
3.5000000000
0
ARC
5
8AB
100
AcDbEntity
8
0
100
AcDbCircle
62
7
6
CONTINUOUS
10
503.7583438997
20
154.8507091280
40
16.5000000000
100
AcDbArc
50
323.5567829944
51
27.8765175802
0
CIRCLE
5
8AC
100
AcDbEntity
8
0
100
AcDbCircle
62
7
6
CONTINUOUS
10
522.7583438997
20
170.5007091280
40
3.0000000000
0
CIRCLE
5
8AD
100
AcDbEntity
8
0
100
AcDbCircle
62
7
6
CONTINUOUS
10
509.7583438997
20
139.0007091280
40
3.0000000000
0
CIRCLE
5
8AE
100
AcDbEntity
8
0
100
AcDbCircle
62
7
6
CONTINUOUS
10
497.7583438997
20
139.0007091280
40
3.0000000000
0
CIRCLE
5
8AF
100
AcDbEntity
8
0
100
AcDbCircle
62
7
6
CONTINUOUS
10
515.0216845086
20
162.7373851278
40
1.2000000000
0
CIRCLE
5
8B0
100
AcDbEntity
8
0
100
AcDbCircle
62
7
6
CONTINUOUS
10
516.8719519724
20
158.9854138711
40
1.2000000000
0
CIRCLE
5
8B1
100
AcDbEntity
8
0
100
AcDbCircle
62
7
6
CONTINUOUS
10
517.5083438997
20
154.8507091280
40
1.2000000000
0
CIRCLE
5
8B2
100
AcDbEntity
8
0
100
AcDbCircle
62
7
6
CONTINUOUS
10
516.8719519724
20
150.7160043848
40
1.2000000000
0
CIRCLE
5
8B3
100
AcDbEntity
8
0
100
AcDbCircle
62
7
6
CONTINUOUS
10
515.0216845086
20
146.9640331281
40
1.2000000000
0
CIRCLE
5
8B4
100
AcDbEntity
8
0
100
AcDbCircle
62
7
6
CONTINUOUS
10
492.4950032907
20
162.7373851278
40
1.2000000000
0
CIRCLE
5
8B5
100
AcDbEntity
8
0
100
AcDbCircle
62
7
6
CONTINUOUS
10
490.6447358269
20
158.9854138711
40
1.2000000000
0
CIRCLE
5
8B6
100
AcDbEntity
8
0
100
AcDbCircle
62
7
6
CONTINUOUS
10
490.0083438997
20
154.8507091280
40
1.2000000000
0
CIRCLE
5
8B7
100
AcDbEntity
8
0
100
AcDbCircle
62
7
6
CONTINUOUS
10
490.6447358269
20
150.7160043848
40
1.2000000000
0
CIRCLE
5
8B8
100
AcDbEntity
8
0
100
AcDbCircle
62
7
6
CONTINUOUS
10
492.4950032907
20
146.9640331281
40
1.2000000000
0
CIRCLE
5
8B9
100
AcDbEntity
8
0
100
AcDbCircle
62
7
6
CONTINUOUS
10
515.7583438997
20
135.6007091280
40
1.6000000000
0
CIRCLE
5
8BA
100
AcDbEntity
8
0
100
AcDbCircle
62
7
6
CONTINUOUS
10
488.9583438997
20
135.6007091280
40
1.6000000000
0
CIRCLE
5
8BB
100
AcDbEntity
8
0
100
AcDbCircle
62
7
6
CONTINUOUS
10
517.2583438997
20
172.5007091280
40
1.2000000000
0
CIRCLE
5
8BC
100
AcDbEntity
8
0
100
AcDbCircle
62
7
6
CONTINUOUS
10
488.7583438997
20
172.5007091280
40
1.2000000000
0
ARC
5
8BD
100
AcDbEntity
8
0
100
AcDbCircle
62
7
6
CONTINUOUS
10
503.7583438997
20
154.8507091280
40
16.5000000000
100
AcDbArc
50
179.4947712239
51
216.4432170056
0
ARC
5
8BE
100
AcDbEntity
8
0
100
AcDbCircle
62
7
6
CONTINUOUS
10
485.7583438997
20
164.5007091280
40
7.5000000000
100
AcDbArc
50
225.0000000000
51
266.9873824952
0
ARC
5
8BF
100
AcDbEntity
8
0
100
AcDbCircle
62
7
6
CONTINUOUS
10
485.2590631330
20
155.0138382679
40
2.0000000000
100
AcDbArc
50
359.4947712239
51
86.9873824952
0
ARC
5
8C0
100
AcDbEntity
8
0
100
AcDbCircle
62
7
6
CONTINUOUS
10
488.8760935471
20
143.8612312312
40
2.0000000000
100
AcDbArc
50
285.0000000000
51
36.4432170056
0
ARC
5
8C1
100
AcDbEntity
8
0
100
AcDbCircle
62
7
6
CONTINUOUS
10
520.1115545936
20
163.5007091280
40
2.0000000000
100
AcDbArc
50
90.0000000000
51
207.8765175802
0
ARC
5
8C2
100
AcDbEntity
8
0
100
AcDbCircle
62
7
6
CONTINUOUS
10
520.9847465965
20
163.5007091280
40
2.0000000000
100
AcDbArc
50
20.0000000000
51
90.0000000000
0
ARC
5
8C3
100
AcDbEntity
8
0
100
AcDbCircle
62
7
6
CONTINUOUS
10
518.6405942522
20
143.8612312312
40
2.0000000000
100
AcDbArc
50
143.5567829944
51
255.0000000000
0
ARC
5
8C4
100
AcDbEntity
8
0
100
AcDbCircle
62
7
6
CONTINUOUS
10
531.2528828530
20
160.5007091280
40
2.0000000000
100
AcDbArc
50
110.0000000000
51
200.0000000000
0
ARC
5
8C5
100
AcDbEntity
8
0
100
AcDbCircle
62
7
6
CONTINUOUS
10
524.3685959075
20
145.4322463546
40
5.0000000000
100
AcDbArc
50
255.0000000000
51
20.0000000000
0
ARC
5
8C6
100
AcDbEntity
8
0
100
AcDbCircle
62
7
6
CONTINUOUS
10
503.7583438997
20
154.8507091280
40
11.0000000000
100
AcDbArc
50
140.5994312463
51
39.4005687537
0
SPLINE
5
8C7
100
AcDbEntity
8
0
100
AcDbSpline
62
2
6
CONTINUOUS
70
0
71
3
72
18
73
14
74
12
42
0.0000001000
43
0.0000001000
44
0.0000000001
12
6.2405968428
22
0.0000000000
32
0.0224602114
13
-6.2406088289
23
0.0000000000
33
-0.0224594585
40
0.0000000000
40
0.0000000000
40
0.0000000000
40
0.0000000000
40
0.0909090909
40
0.1818181818
40
0.2727272727
40
0.3636363636
40
0.4545454545
40
0.5454545455
40
0.6363636364
40
0.7272727273
40
0.8181818182
40
0.9090909091
40
1.0000000000
40
1.0000000000
40
1.0000000000
40
1.0000000000
10
303.9740776838
20
92.5589088779
30
-11.0000000000
10
304.1631866790
20
92.5589088779
30
-10.9993193875
10
304.5422804592
20
92.6123141560
30
-10.9903763239
10
305.0724755344
20
92.8551374278
30
-10.9485710854
10
305.5039224831
20
93.2280860734
30
-10.8953105846
10
305.8205464133
20
93.7221653117
30
-10.8447951678
10
305.9800590366
20
94.2651422359
30
-10.8155728534
10
305.9800595211
20
94.8526696453
30
-10.8155727420
10
305.8205503336
20
95.3956446678
30
-10.8447945191
10
305.5039241072
20
95.8897295802
30
-10.8953103057
10
305.0724838351
20
96.2626749377
30
-10.9485702542
10
304.5422817741
20
96.5055040151
30
-10.9903763551
10
304.1631870422
20
96.5589088779
30
-10.9993194103
10
303.9740776838
20
96.5589088779
30
-11.0000000000
11
303.9740776838
21
92.5589088779
31
-11.0000000000
11
304.5358728600
21
92.6394333818
31
-10.9856445500
11
305.0560175133
21
92.8768249901
31
-10.9466618750
11
305.4847853134
21
93.2482745055
31
-10.8957680986
11
305.7943611955
21
93.7303149260
31
-10.8483440182
11
305.9534736801
21
94.2725673168
31
-10.8204432206
11
305.9534745758
21
94.8452442475
31
-10.8204430567
11
305.7943641604
21
95.3874963161
31
-10.8483435207
11
305.4847884329
21
95.8695396544
31
-10.8957676660
11
305.0560235369
21
96.2409888910
31
-10.9466612796
11
304.5358751013
21
96.4783837179
31
-10.9856444354
11
303.9740776838
21
96.5589088779
31
-11.0000000000
0
SPLINE
5
8C8
100
AcDbEntity
8
0
100
AcDbSpline
62
2
6
CONTINUOUS
70
0
71
3
72
14
73
10
74
8
42
0.0000001000
43
0.0000001000
44
0.0000000001
12
-3.6403481583
22
0.0000000000
32
0.0131017900
13
0.9368912183
23
-3.5054967571
33
-0.1674649631
40
0.0000000000
40
0.0000000000
40
0.0000000000
40
0.0000000000
40
0.1558441558
40
0.3116883117
40
0.4675324675
40
0.6233766234
40
0.7792207792
40
0.9350649351
40
1.0000000000
40
1.0000000000
40
1.0000000000
40
1.0000000000
10
303.9740776838
20
96.5589088779
30
-11.0000000000
10
303.7849686885
20
96.5589088779
30
-10.9993193875
10
303.4058749084
20
96.5055035997
30
-10.9903763239
10
302.8756798332
20
96.2626803279
30
-10.9485710854
10
302.4442328844
20
95.8897316823
30
-10.8953105846
10
302.1276089543
20
95.3956524440
30
-10.8447951678
10
301.9680963309
20
94.8526755198
30
-10.8155728534
10
301.9680959406
20
94.3793895511
30
-10.8155727636
10
302.0214502202
20
94.1168484131
30
-10.8253471622
10
302.0417292509
20
94.0409718599
30
-10.8289719449
11
303.9740776838
21
96.5589088779
31
-11.0000000000
11
303.4122825076
21
96.4783843739
31
-10.9856445500
11
302.8921378543
21
96.2409927656
31
-10.9466618750
11
302.4633700542
21
95.8695432502
31
-10.8957680986
11
302.1537941721
21
95.3875028297
31
-10.8483440182
11
301.9946816874
21
94.8452504389
31
-10.8204432206
11
301.9946807918
21
94.2725735082
31
-10.8204430567
11
302.0417292509
21
94.0409718599
31
-10.8289719449
0
SPLINE
5
8C9
100
AcDbEntity
8
0
100
AcDbSpline
62
2
6
CONTINUOUS
70
0
71
3
72
8
73
4
74
2
42
0.0000001000
43
0.0000001000
44
0.0000000001
12
0.5064425835
22
-0.1355903474
32
-0.0231586537
13
0.5200507357
23
0.0000000000
33
-0.0018716215
40
0.0000000000
40
0.0000000000
40
0.0000000000
40
0.0000000000
40
1.0000000000
40
1.0000000000
40
1.0000000000
40
1.0000000000
10
303.4581949508
20
92.6265431200
30
-10.9878472601
10
303.6270091453
20
92.5813463375
30
-10.9955668114
10
303.8007274385
20
92.5589088779
30
-10.9993761262
10
303.9740776838
20
92.5589088779
30
-11.0000000000
11
303.4581949508
21
92.6265431200
31
-10.9878472601
11
303.9740776838
21
92.5589088779
31
-11.0000000000
0
SPLINE
5
8CA
100
AcDbEntity
8
0
100
AcDbSpline
62
2
6
CONTINUOUS
70
0
71
3
72
12
73
8
74
6
42
0.0000001000
43
0.0000001000
44
0.0000000001
12
-0.4947763895
22
1.8744943538
32
-0.1325550744
13
1.3060688665
23
1.4871030748
33
0.3496406680
40
0.0000000000
40
0.0000000000
40
0.0000000000
40
0.0000000000
40
0.1201220029
40
0.4084148097
40
0.6967076166
40
0.9850004235
40
1.0000000000
40
1.0000000000
40
1.0000000000
40
1.0000000000
10
273.5401293450
20
94.0470043950
30
-17.2270983966
10
273.5203181681
20
94.1220604004
30
-17.2324059902
10
273.4682464663
20
94.3815669501
30
-17.2463537225
10
273.4682464663
20
94.8491047597
30
-17.2463537225
10
273.6239210349
20
95.3859457252
30
-17.2046553118
10
273.8364044993
20
95.7228333319
30
-17.1476809646
10
273.9673658259
20
95.8742367732
30
-17.1126203873
10
273.9738959858
20
95.8816720786
30
-17.1108722333
11
273.5401293450
21
94.0470043950
31
-17.2270983966
11
273.4941922278
21
94.2759714624
31
-17.2394039874
11
273.4941922278
21
94.8418462933
31
-17.2394039874
11
273.6497492659
21
95.3785586957
31
-17.1977226046
11
273.9544660963
21
95.8592090828
31
-17.1160739760
11
273.9738959858
21
95.8816720786
31
-17.1108722333
0
SPLINE
5
8CB
100
AcDbEntity
8
0
100
AcDbSpline
62
2
6
CONTINUOUS
70
0
71
3
72
18
73
14
74
12
42
0.0000001000
43
0.0000001000
44
0.0000000001
12
0.0000000000
22
0.0224594585
32
-6.2406088289
13
0.0000000000
23
-0.0224602114
33
6.2405968428
40
0.0000000000
40
0.0000000000
40
0.0000000000
40
0.0000000000
40
0.0909090909
40
0.1818181818
40
0.2727272727
40
0.3636363636
40
0.4545454545
40
0.5454545455
40
0.6363636364
40
0.7272727273
40
0.8181818182
40
0.9090909091
40
1.0000000000
40
1.0000000000
40
1.0000000000
40
1.0000000000
10
205.2827444293
20
201.0991466347
30
-0.0000000000
10
205.2827444293
20
201.0998272244
30
-0.1891093585
10
205.3361492920
20
201.1087702796
30
-0.5682040904
10
205.5789783694
20
201.1505763805
30
-1.0984061513
10
205.9519237269
20
201.2038363290
30
-1.5298464234
10
206.4460086393
20
201.2543521156
30
-1.8464726498
10
206.9889836618
20
201.2835738927
30
-2.0059818374
10
207.5765110712
20
201.2835737813
30
-2.0059813528
10
208.1194879955
20
201.2543514669
30
-1.8464687295
10
208.6135672337
20
201.2038360501
30
-1.5298447993
10
208.9865158793
20
201.1505755493
30
-1.0983978506
10
209.2293391511
20
201.1087703108
30
-0.5682027754
10
209.2827444293
20
201.0998272472
30
-0.1891089952
10
209.2827444293
20
201.0991466347
30
-0.0000000000
11
205.2827444293
21
201.0991466347
31
-0.0000000000
11
205.3632695892
21
201.1135021993
31
-0.5617974175
11
205.6006644161
21
201.1524853551
31
-1.0819458532
11
205.9721136527
21
201.2033789687
31
-1.5107107491
11
206.4541569910
21
201.2508031140
31
-1.8202864767
11
206.9964090596
21
201.2787035780
31
-1.9793968920
11
207.5690859903
21
201.2787034141
31
-1.9793959964
11
208.1113383811
21
201.2508026165
31
-1.8202835117
11
208.5933788016
21
201.2033785361
31
-1.5107076296
11
208.9648283170
21
201.1524847597
31
-1.0819398295
11
209.2022199253
21
201.1135020847
31
-0.5617951762
11
209.2827444293
21
201.0991466347
31
-0.0000000000
0
SPLINE
5
8CC
100
AcDbEntity
8
0
100
AcDbSpline
62
7
6
CONTINUOUS
70
0
71
3
72
13
73
9
74
7
42
0.0000001000
43
0.0000001000
44
0.0000000001
12
1.5888861020
22
0.2311113073
32
0.0000000000
13
1.6056082358
23
0.0000000000
33
0.0000000000
40
0.0000000000
40
0.0000000000
40
0.0000000000
40
0.0000000000
40
0.0342245457
40
0.1349191718
40
0.2939713968
40
0.5020137628
40
0.7426852686
40
1.0000000000
40
1.0000000000
40
1.0000000000
40
1.0000000000
10
205.6827444293
20
201.0991466347
30
0.0000000000
10
205.7008707310
20
201.1017831945
30
0.0000000000
10
205.7723525926
20
201.1120076530
30
0.0000000000
10
205.9283089883
20
201.1328242393
30
0.0000000000
10
206.1770547760
20
201.1614116465
30
0.0000000000
10
206.5011185655
20
201.1900653307
30
0.0000000000
10
206.8784769209
20
201.2110684030
30
0.0000000000
10
207.1450288786
20
201.2161323464
30
0.0000000000
10
207.2827444293
20
201.2161323464
30
0.0000000000
11
205.6827444293
21
201.0991466347
31
0.0000000000
11
205.7371420179
21
201.1069272585
31
0.0000000000
11
205.8973974686
21
201.1283132023
31
0.0000000000
11
206.1511048065
21
201.1574553470
31
0.0000000000
11
206.4838435814
21
201.1868488673
31
0.0000000000
11
206.8696721029
21
201.2082959449
31
0.0000000000
11
207.2827444293
21
201.2161323464
31
0.0000000000
0
SPLINE
5
8CD
100
AcDbEntity
8
0
100
AcDbSpline
62
7
6
CONTINUOUS
70
0
71
3
72
13
73
9
74
7
42
0.0000001000
43
0.0000001000
44
0.0000000001
12
1.6056082518
22
0.0000000000
32
0.0000000000
13
1.5888861142
23
-0.2311113100
33
0.0000000000
40
0.0000000000
40
0.0000000000
40
0.0000000000
40
0.0000000000
40
0.2572727335
40
0.4979543975
40
0.7059340245
40
0.8650087238
40
0.9657600389
40
1.0000000000
40
1.0000000000
40
1.0000000000
40
1.0000000000
10
207.2827444293
20
201.2161323464
30
0.0000000000
10
207.4204375039
20
201.2161323464
30
0.0000000000
10
207.6869724081
20
201.2110695556
30
0.0000000000
10
208.0642803467
20
201.1900713321
30
0.0000000000
10
208.3883283120
20
201.1614220357
30
0.0000000000
10
208.6370831819
20
201.1328365619
30
0.0000000000
10
208.7930898877
20
201.1120142286
30
0.0000000000
10
208.8646099630
20
201.1017843821
30
0.0000000000
10
208.8827444293
20
201.0991466347
30
0.0000000000
11
207.2827444293
21
201.2161323464
31
0.0000000000
11
207.6957493639
21
201.2082985008
31
0.0000000000
11
208.0815942900
21
201.1868526000
31
0.0000000000
11
208.4142329921
21
201.1574709693
31
0.0000000000
11
208.6679765261
21
201.1283277062
31
0.0000000000
11
208.8283223301
21
201.1069307049
31
0.0000000000
11
208.8827444293
21
201.0991466347
31
0.0000000000
0
SPLINE
5
8CE
100
AcDbEntity
8
0
100
AcDbSpline
62
2
6
CONTINUOUS
70
0
71
3
72
14
73
10
74
8
42
0.0000001000
43
0.0000001000
44
0.0000000001
12
-3.6403481583
22
0.0000000000
32
0.0131017900
13
0.9368912183
23
-3.5054967571
33
-0.1674649631
40
0.0000000000
40
0.0000000000
40
0.0000000000
40
0.0000000000
40
0.1558441558
40
0.3116883117
40
0.4675324675
40
0.6233766234
40
0.7792207792
40
0.9350649351
40
1.0000000000
40
1.0000000000
40
1.0000000000
40
1.0000000000
10
126.5175167105
20
91.6882066102
30
-11.0000000000
10
126.3284077152
20
91.6882066102
30
-10.9993193875
10
125.9493139351
20
91.6348013321
30
-10.9903763239
10
125.4191188599
20
91.3919780602
30
-10.9485710854
10
124.9876719111
20
91.0190294147
30
-10.8953105846
10
124.6710479810
20
90.5249501764
30
-10.8447951678
10
124.5115353576
20
89.9819732521
30
-10.8155728534
10
124.5115349673
20
89.5086872835
30
-10.8155727636
10
124.5648892469
20
89.2461461455
30
-10.8253471622
10
124.5851682776
20
89.1702695923
30
-10.8289719449
11
126.5175167105
21
91.6882066102
31
-11.0000000000
11
125.9557215343
21
91.6076821063
31
-10.9856445500
11
125.4355768810
21
91.3702904979
31
-10.9466618750
11
125.0068090809
21
90.9988409826
31
-10.8957680986
11
124.6972331988
21
90.5168005621
31
-10.8483440182
11
124.5381207141
21
89.9745481713
31
-10.8204432206
11
124.5381198185
21
89.4018712406
31
-10.8204430567
11
124.5851682776
21
89.1702695923
31
-10.8289719449
0
SPLINE
5
8CF
100
AcDbEntity
8
0
100
AcDbSpline
62
2
6
CONTINUOUS
70
0
71
3
72
8
73
4
74
2
42
0.0000001000
43
0.0000001000
44
0.0000000001
12
0.5064425835
22
-0.1355903474
32
-0.0231586537
13
0.5200507357
23
0.0000000000
33
-0.0018716215
40
0.0000000000
40
0.0000000000
40
0.0000000000
40
0.0000000000
40
1.0000000000
40
1.0000000000
40
1.0000000000
40
1.0000000000
10
126.0016339775
20
87.7558408524
30
-10.9878472601
10
126.1704481720
20
87.7106440699
30
-10.9955668114
10
126.3441664652
20
87.6882066102
30
-10.9993761262
10
126.5175167105
20
87.6882066102
30
-11.0000000000
11
126.0016339775
21
87.7558408524
31
-10.9878472601
11
126.5175167105
21
87.6882066102
31
-11.0000000000
0
SPLINE
5
8D0
100
AcDbEntity
8
0
100
AcDbSpline
62
2
6
CONTINUOUS
70
0
71
3
72
18
73
14
74
12
42
0.0000001000
43
0.0000001000
44
0.0000000001
12
6.2405968428
22
0.0000000000
32
0.0224602114
13
-6.2406088289
23
-0.0000000000
33
-0.0224594585
40
0.0000000000
40
0.0000000000
40
0.0000000000
40
0.0000000000
40
0.0909090909
40
0.1818181818
40
0.2727272727
40
0.3636363636
40
0.4545454545
40
0.5454545455
40
0.6363636364
40
0.7272727273
40
0.8181818182
40
0.9090909091
40
1.0000000000
40
1.0000000000
40
1.0000000000
40
1.0000000000
10
126.5175167105
20
87.6882066102
30
-11.0000000000
10
126.7066257057
20
87.6882066102
30
-10.9993193875
10
127.0857194859
20
87.7416118884
30
-10.9903763239
10
127.6159145611
20
87.9844351602
30
-10.9485710854
10
128.0473615098
20
88.3573838058
30
-10.8953105846
10
128.3639854400
20
88.8514630440
30
-10.8447951678
10
128.5234980633
20
89.3944399683
30
-10.8155728534
10
128.5234985478
20
89.9819673777
30
-10.8155727420
10
128.3639893603
20
90.5249424002
30
-10.8447945191
10
128.0473631339
20
91.0190273126
30
-10.8953103057
10
127.6159228618
20
91.3919726701
30
-10.9485702542
10
127.0857208008
20
91.6348017475
30
-10.9903763551
10
126.7066260689
20
91.6882066102
30
-10.9993194103
10
126.5175167105
20
91.6882066102
30
-11.0000000000
11
126.5175167105
21
87.6882066102
31
-11.0000000000
11
127.0793118867
21
87.7687311142
31
-10.9856445500
11
127.5994565400
21
88.0061227225
31
-10.9466618750
11
128.0282243400
21
88.3775722379
31
-10.8957680986
11
128.3378002222
21
88.8596126584
31
-10.8483440182
11
128.4969127068
21
89.4018650492
31
-10.8204432206
11
128.4969136025
21
89.9745419799
31
-10.8204430567
11
128.3378031871
21
90.5167940485
31
-10.8483435207
11
128.0282274596
21
90.9988373868
31
-10.8957676660
11
127.5994625636
21
91.3702866234
31
-10.9466612796
11
127.0793141280
21
91.6076814503
31
-10.9856444354
11
126.5175167105
21
91.6882066102
31
-11.0000000000
0
SPLINE
5
8D1
100
AcDbEntity
8
0
100
AcDbSpline
62
2
6
CONTINUOUS
70
0
71
3
72
14
73
10
74
8
42
0.0000001000
43
0.0000001000
44
0.0000000001
12
-0.9152763755
22
3.4675874485
32
0.2452108277
13
3.7473915534
23
-0.0000000000
33
-1.0306082509
40
0.0000000000
40
0.0000000000
40
0.0000000000
40
0.0000000000
40
0.0649350649
40
0.2207792208
40
0.3766233766
40
0.5324675325
40
0.6883116883
40
0.8441558442
40
1.0000000000
40
1.0000000000
40
1.0000000000
40
1.0000000000
10
153.0835683717
20
89.1763021274
30
-16.1906921602
10
153.0637571948
20
89.2513581328
30
-16.1853845665
10
153.0116854930
20
89.5108646825
30
-16.1714368342
10
153.0116854930
20
89.9784024920
30
-16.1714368342
10
153.1673600616
20
90.5152434576
30
-16.2131352450
10
153.4780040165
20
91.0077622461
30
-16.2964298984
10
153.9080546103
20
91.3847484495
30
-16.4114446455
10
154.4356288591
20
91.6311777246
30
-16.5536177315
10
154.8228470194
20
91.6882066102
30
-16.6553571874
10
155.0175167105
20
91.6882066102
30
-16.7088952784
11
153.0835683717
21
89.1763021274
31
-16.1906921602
11
153.0376312545
21
89.4052691948
31
-16.1783865693
11
153.0376312545
21
89.9711440257
31
-16.1783865693
11
153.1931882926
21
90.5078564281
31
-16.2200679521
11
153.4979051230
21
90.9885068152
31
-16.3017165807
11
153.9243085528
21
91.3629889615
31
-16.4159710354
11
154.4445043577
21
91.6043634002
31
-16.5553570812
11
155.0175167105
21
91.6882066102
31
-16.7088952784
0
SPLINE
5
8D2
100
AcDbEntity
8
0
100
AcDbSpline
62
2
6
CONTINUOUS
70
0
71
3
72
8
73
4
74
2
42
0.0000001000
43
0.0000001000
44
0.0000000001
12
-0.5353416505
22
0.0000000000
32
0.1472297501
13
-0.5119360435
23
0.1398317437
33
0.1359234838
40
0.0000000000
40
0.0000000000
40
0.0000000000
40
0.0000000000
40
1.0000000000
40
1.0000000000
40
1.0000000000
40
1.0000000000
10
155.0175167105
20
87.6882066102
30
-16.7088952784
10
154.8390694936
20
87.6882066102
30
-16.6598186950
10
154.6615134846
20
87.7121666629
30
-16.6129842778
10
154.4908681368
20
87.7587772441
30
-16.5676764498
11
155.0175167105
21
87.6882066102
31
-16.7088952784
11
154.4908681368
21
87.7587772441
31
-16.5676764498
0
SPLINE
5
8D3
100
AcDbEntity
8
0
100
AcDbSpline
62
2
6
CONTINUOUS
70
0
71
3
72
18
73
14
74
12
42
0.0000001000
43
0.0000001000
44
0.0000000001
12
6.4240998058
22
0.0000000000
32
-1.7667570015
13
-6.4240998058
23
0.0000000000
33
1.7667570015
40
0.0000000000
40
0.0000000000
40
0.0000000000
40
0.0000000000
40
0.0909090909
40
0.1818181818
40
0.2727272727
40
0.3636363636
40
0.4545454545
40
0.5454545455
40
0.6363636364
40
0.7272727273
40
0.8181818182
40
0.9090909091
40
1.0000000000
40
1.0000000000
40
1.0000000000
40
1.0000000000
10
155.0175167105
20
91.6882066102
30
-16.7088952784
10
155.2121864016
20
91.6882066102
30
-16.7624333693
10
155.5994045619
20
91.6311777246
30
-16.8641728252
10
156.1269788106
20
91.3847484495
30
-17.0063459112
10
156.5570294045
20
91.0077622461
30
-17.1213606583
10
156.8676733594
20
90.5152434576
30
-17.2046553118
10
157.0233479279
20
89.9784024920
30
-17.2463537225
10
157.0233479279
20
89.3980107284
30
-17.2463537225
10
156.8676733594
20
88.8611697629
30
-17.2046553118
10
156.5570294045
20
88.3686509744
30
-17.1213606583
10
156.1269788106
20
87.9916647709
30
-17.0063459112
10
155.5994045619
20
87.7452354959
30
-16.8641728252
10
155.2121864016
20
87.6882066102
30
-16.7624333693
10
155.0175167105
20
87.6882066102
30
-16.7088952784
11
155.0175167105
21
91.6882066102
31
-16.7088952784
11
155.5905290633
21
91.6043634002
31
-16.8624334755
11
156.1107248681
21
91.3629889615
31
-17.0018195214
11
156.5371282980
21
90.9885068152
31
-17.1160739760
11
156.8418451283
21
90.5078564281
31
-17.1977226046
11
156.9974021665
21
89.9711440257
31
-17.2394039874
11
156.9974021665
21
89.4052691948
31
-17.2394039874
11
156.8418451283
21
88.8685567924
31
-17.1977226046
11
156.5371282980
21
88.3879064052
31
-17.1160739760
11
156.1107248681
21
88.0134242590
31
-17.0018195214
11
155.5905290633
21
87.7720498203
31
-16.8624334755
11
155.0175167105
21
87.6882066102
31
-16.7088952784
0
ENDSEC
0
SECTION
2
OBJECTS
0
DICTIONARY
5
8D4
100
AcDbDictionary
3
ACAD_GROUP
350
8D5
3
ACAD_MLINESTYLE
350
8D6
0
DICTIONARY
5
8D5
102
{ACAD_REACTORS
330
8D4
102
}
100
AcDbDictionary
0
DICTIONARY
5
8D6
102
{ACAD_REACTORS
330
8D4
102
}
100
AcDbDictionary
3
STANDARD
350
8D7
0
MLINESTYLE
5
8D7
102
{ACAD_REACTORS
330
8D6
102
}
100
AcDbMlineStyle
2
STANDARD
70
0
3

62
256
51
90.0
52
90.0
71
2
49
0.5
62
256
6
BYLAYER
49
-0.5
62
256
6
BYLAYER
0
ENDSEC
0
EOF
