  0
SECTION
  2
HEADER
  9
$ACADVER
  1
AC1014
  9
$ACADMAINTVER
 70
     0
  9
$DWGCODEPAGE
  3
ANSI_1252
  9
$INSBASE
 10
0.0
 20
0.0
 30
0.0
  9
$EXTMIN
 10
0.0
 20
0.0
 30
0.0
  9
$EXTMAX
 10
210.0
 20
297.0
 30
0.0
  9
$LIMMIN
 10
0.0
 20
0.0
  9
$LIMMAX
 10
12.0
 20
9.0
  9
$ORTHOMODE
 70
     0
  9
$REGENMODE
 70
     1
  9
$FILLMODE
 70
     0
  9
$QTEXTMODE
 70
     0
  9
$MIRRTEXT
 70
     1
  9
$DRAGMODE
 70
     2
  9
$LTSCALE
 40
2.1
  9
$OSMODE
 70
     0
  9
$ATTMODE
 70
     1
  9
$TEXTSIZE
 40
0.2
  9
$TRACEWID
 40
0.05
  9
$TEXTSTYLE
  7
STANDARD
  9
$CLAYER
  8
0
  9
$CELTYPE
  6
BYLAYER
  9
$CECOLOR
 62
   256
  9
$CELTSCALE
 40
1.0
  9
$DELOBJ
 70
     1
  9
$DISPSILH
 70
     0
  9
$DIMSCALE
 40
1.0
  9
$DIMASZ
 40
0.18
  9
$DIMEXO
 40
0.0625
  9
$DIMDLI
 40
0.38
  9
$DIMRND
 40
0.0
  9
$DIMDLE
 40
0.0
  9
$DIMEXE
 40
0.18
  9
$DIMTP
 40
0.0
  9
$DIMTM
 40
0.0
  9
$DIMTXT
 40
0.18
  9
$DIMCEN
 40
0.09
  9
$DIMTSZ
 40
0.0
  9
$DIMTOL
 70
     0
  9
$DIMLIM
 70
     0
  9
$DIMTIH
 70
     0
  9
$DIMTOH
 70
     0
  9
$DIMSE1
 70
     0
  9
$DIMSE2
 70
     0
  9
$DIMTAD
 70
     1
  9
$DIMZIN
 70
     0
  9
$DIMBLK
  1

  9
$DIMASO
 70
     1
  9
$DIMSHO
 70
     1
  9
$DIMPOST
  1

  9
$DIMAPOST
  1

  9
$DIMALT
 70
     0
  9
$DIMALTD
 70
     2
  9
$DIMALTF
 40
25.4
  9
$DIMLFAC
 40
1.0
  9
$DIMTOFL
 70
     0
  9
$DIMTVP
 40
0.0
  9
$DIMTIX
 70
     0
  9
$DIMSOXD
 70
     0
  9
$DIMSAH
 70
     0
  9
$DIMBLK1
  1

  9
$DIMBLK2
  1

  9
$DIMSTYLE
  2
STANDARD
  9
$DIMCLRD
 70
     0
  9
$DIMCLRE
 70
     0
  9
$DIMCLRT
 70
     0
  9
$DIMTFAC
 40
1.0
  9
$DIMGAP
 40
0.09
  9
$DIMJUST
 70
     0
  9
$DIMSD1
 70
     0
  9
$DIMSD2
 70
     0
  9
$DIMTOLJ
 70
     1
  9
$DIMTZIN
 70
     0
  9
$DIMALTZ
 70
     0
  9
$DIMALTTZ
 70
     0
  9
$DIMFIT
 70
     3
  9
$DIMUPT
 70
     0
  9
$DIMUNIT
 70
     2
  9
$DIMDEC
 70
     2
  9
$DIMTDEC
 70
     4
  9
$DIMALTU
 70
     2
  9
$DIMALTTD
 70
     2
  9
$DIMTXSTY
  7
_VISDIMTXTSTYLE
  9
$DIMAUNIT
 70
     0
  9
$LUNITS
 70
     2
  9
$LUPREC
 70
     4
  9
$SKETCHINC
 40
0.1
  9
$FILLETRAD
 40
0.5
  9
$AUNITS
 70
     0
  9
$AUPREC
 70
     0
  9
$MENU
  1
.
  9
$ELEVATION
 40
0.0
  9
$PELEVATION
 40
0.0
  9
$THICKNESS
 40
0.0
  9
$LIMCHECK
 70
     0
  9
$BLIPMODE
 70
     0
  9
$CHAMFERA
 40
0.5
  9
$CHAMFERB
 40
0.5
  9
$CHAMFERC
 40
1.0
  9
$CHAMFERD
 40
0.0
  9
$SKPOLY
 70
     0
  9
$TDCREATE
 40
2450772.666465926
  9
$TDUPDATE
 40
2458999.868796296
  9
$TDINDWG
 40
0.0011564931
  9
$TDUSRTIMER
 40
0.0000000000
  9
$USRTIMER
 70
     1
  9
$ANGBASE
 50
0.0
  9
$ANGDIR
 70
     0
  9
$PDMODE
 70
     0
  9
$PDSIZE
 40
0.0
  9
$PLINEWID
 40
0.0
  9
$COORDS
 70
     1
  9
$SPLFRAME
 70
     0
  9
$SPLINETYPE
 70
     6
  9
$SPLINESEGS
 70
     8
  9
$ATTDIA
 70
     0
  9
$ATTREQ
 70
     1
  9
$HANDLING
 70
     1
  9
$HANDSEED
  5
7E
  9
$SURFTAB1
 70
     6
  9
$SURFTAB2
 70
     6
  9
$SURFTYPE
 70
     6
  9
$SURFU
 70
     6
  9
$SURFV
 70
     6
  9
$UCSNAME
  2

  9
$UCSORG
 10
0.0
 20
0.0
 30
0.0
  9
$UCSXDIR
 10
1.0
 20
0.0
 30
0.0
  9
$UCSYDIR
 10
0.0
 20
1.0
 30
0.0
  9
$PUCSNAME
  2

  9
$PUCSORG
 10
0.0
 20
0.0
 30
0.0
  9
$PUCSXDIR
 10
1.0
 20
0.0
 30
0.0
  9
$PUCSYDIR
 10
0.0
 20
1.0
 30
0.0
  9
$USERI1
 70
     0
  9
$USERI2
 70
     0
  9
$USERI3
 70
     0
  9
$USERI4
 70
     0
  9
$USERI5
 70
     0
  9
$USERR1
 40
0.0
  9
$USERR2
 40
0.0
  9
$USERR3
 40
0.0
  9
$USERR4
 40
0.0
  9
$USERR5
 40
0.0
  9
$WORLDVIEW
 70
     1
  9
$SHADEDGE
 70
     3
  9
$SHADEDIF
 70
    70
  9
$TILEMODE
 70
     1
  9
$MAXACTVP
 70
    48
  9
$PINSBASE
 10
0.0
 20
0.0
 30
0.0
  9
$PLIMCHECK
 70
     0
  9
$PEXTMIN
 10
0.0
 20
0.0
 30
0.0
  9
$PEXTMAX
 10
0.0
 20
0.0
 30
0.0
  9
$PLIMMIN
 10
0.0
 20
0.0
  9
$PLIMMAX
 10
12.0
 20
9.0
  9
$UNITMODE
 70
     0
  9
$VISRETAIN
 70
     1
  9
$PLINEGEN
 70
     0
  9
$PSLTSCALE
 70
     1
  9
$TREEDEPTH
 70
  3020
  9
$PICKSTYLE
 70
     1
  9
$CMLSTYLE
  2
STANDARD
  9
$CMLJUST
 70
     0
  9
$CMLSCALE
 40
1.0
  9
$PROXYGRAPHICS
 70
     1
  9
$MEASUREMENT
 70
     0
  0
ENDSEC
  0
SECTION
  2
CLASSES
  0
CLASS
  1
LWPOLYLINE
  2
AcDbPolyline
  3
"AutoCAD"
 90
        0
280
     0
281
     1
  0
CLASS
  1
IMAGE
  2
AcDbRasterImage
  3
ISM
 90
      127
280
     0
281
     1
  0
CLASS
  1
OLE2FRAME
  2
AcDbOle2Frame
  3
""
 90
        0
280
     0
281
     1
  0
CLASS
  1
HATCH
  2
AcDbHatch
  3
"ACAD_SEDONA"
 90
        0
280
     0
281
     1
  0
CLASS
  1
DICTIONARYVAR
  2
AcDbDictionaryVar
  3
"AutoCAD"
 90
        0
280
     0
281
     0
  0
CLASS
  1
RASTERVARIABLES
  2
AcDbRasterVariables
  3
ISM
 90
        0
280
     0
281
     0
  0
CLASS
  1
IMAGEDEF
  2
AcDbRasterImageDef
  3
ISM
 90
        0
280
     0
281
     0
  0
CLASS
  1
IMAGEDEF_REACTOR
  2
AcDbRasterImageDefReactor
  3
ISM
 90
        1
280
     0
281
     0
  0
CLASS
  1
IDBUFFER
  2
AcDbIdBuffer
  3
"Acad"
 90
        0
280
     0
281
     0
  0
CLASS
  1
SPATIAL_FILTER
  2
AcDbSpatialFilter
  3
"Acad"
 90
        0
280
     0
281
     0
  0
CLASS
  1
XRECORD
  2
AcDbXrecord
  3
"<Built In>"
 90
        0
280
     0
281
     0
  0
CLASS
  1
SORTENTSTABLE
  2
AcDbSortentsTable
  3
"AutoCAD"
 90
        0
280
     0
281
     0
  0
CLASS
  1
LAYER_INDEX
  2
AcDbLayerIndex
  3
"Acad"
 90
        0
280
     0
281
     0
  0
CLASS
  1
SPATIAL_INDEX
  2
AcDbSpatialIndex
  3
"Acad"
 90
        0
280
     0
281
     0
  0
CLASS
  1
OBJECT_PTR
  2
CAseDLPNTableRecord
  3
"ASE-LPNTableRecord"
 90
        1
280
     0
281
     0
  0
CLASS
  1
LAYOUT
  2
AcDbLayout
  3
"AutoCAD 2000"
 90
        1
280
     0
281
     0
  0
CLASS
  1
PLOTSETTINGS
  2
AcDbPlotSettings
  3
"AutoCAD 2000"
 90
        1
280
     0
281
     0
  0
CLASS
  1
ACDBDICTIONARYWDFLT
  2
AcDbDictionaryWithDefault
  3
"AutoCAD 2000"
 90
        1
280
     0
281
     0
  0
CLASS
  1
ACDBPLACEHOLDER
  2
AcDbPlaceHolder
  3
"AutoCAD 2000"
 90
        1
280
     0
281
     0
  0
CLASS
  1
VBA_PROJECT
  2
AcDbVbaProject
  3
"acadvba"
 90
        1
280
     0
281
     0
  0
CLASS
  1
WIPEOUT
  2
AcDbWipeout
  3
WipeOut|AutoCAD Express Tool|expresstools@autodesk.com
 90
      127
280
     0
281
     1
  0
CLASS
  1
WIPEOUTVARIABLES
  2
AcDbWipeoutVariables
  3
WipeOut|AutoCAD Express Tool|expresstools@autodesk.com
 90
        0
280
     0
281
     0
  0
CLASS
  1
RTEXT
  2
RText
  3
RText|AutoCAD Express Tool|expresstools@autodesk.com
 90
        0
280
     0
281
     1
  0
CLASS
  1
ARCALIGNEDTEXT
  2
AcDbArcAlignedText
  3
ATEXT|AutoCAD Express Tool|expresstools@autodesk.com
 90
        0
280
     0
281
     1
  0
ENDSEC
  0
SECTION
  2
TABLES
  0
TABLE
  2
VPORT
  5
8
100
AcDbSymbolTable
 70
     1
  0
VPORT
  5
25
100
AcDbSymbolTableRecord
100
AcDbViewportTableRecord
  2
*ACTIVE
 70
     0
 10
0.0
 20
0.0
 11
1.0
 21
1.0
 12
105.0
 22
148.5
 13
0.0
 23
0.0
 14
0.5
 24
0.5
 15
0.5
 25
0.5
 16
0.0
 26
0.0
 36
1.0
 17
0.0
 27
0.0
 37
0.0
 40
297.0
 41
0.707071
 42
50.0
 43
0.0
 44
0.0
 50
0.0
 51
0.0
 71
     0
 72
   100
 73
     1
 74
     1
 75
     0
 76
     0
 77
     0
 78
     0
  0
ENDTAB
  0
TABLE
  2
LTYPE
  5
5
100
AcDbSymbolTable
 70
     5
  0
LTYPE
  5
12
100
AcDbSymbolTableRecord
100
AcDbLinetypeTableRecord
  2
BYBLOCK
 70
    64
  3

 72
    65
 73
     0
 40
0.0
  0
LTYPE
  5
13
100
AcDbSymbolTableRecord
100
AcDbLinetypeTableRecord
  2
BYLAYER
 70
    64
  3

 72
    65
 73
     0
 40
0.0
  0
LTYPE
  5
14
100
AcDbSymbolTableRecord
100
AcDbLinetypeTableRecord
  2
CONTINUOUS
 70
     0
  3
Solid line
 72
    65
 73
     0
 40
0.0
  0
LTYPE
  5
33
100
AcDbSymbolTableRecord
100
AcDbLinetypeTableRecord
  2
DASHED
 70
     0
  3
DASHED
 72
    65
 73
     2
 40
0.75
 49
0.5
 74
     0
 49
-0.25
 74
     0
  0
LTYPE
  5
35
100
AcDbSymbolTableRecord
100
AcDbLinetypeTableRecord
  2
DASHDOT
 70
     0
  3
DASHDOT
 72
    65
 73
     4
 40
1.0
 49
0.5
 74
     0
 49
-0.25
 74
     0
 49
0.0
 74
     0
 49
-0.25
 74
     0
  0
ENDTAB
  0
TABLE
  2
LAYER
  5
2
100
AcDbSymbolTable
 70
     3
  0
LAYER
  5
E
100
AcDbSymbolTableRecord
100
AcDbLayerTableRecord
  2
0
 70
     0
 62
     7
  6
CONTINUOUS
  0
LAYER
  5
3E
100
AcDbSymbolTableRecord
100
AcDbLayerTableRecord
  2
DIMENSIONS
 70
     0
 62
     7
  6
CONTINUOUS
  0
LAYER
  5
44
100
AcDbSymbolTableRecord
100
AcDbLayerTableRecord
  2
DEFPOINTS
 70
     0
 62
     7
  6
CONTINUOUS
  0
ENDTAB
  0
TABLE
  2
STYLE
  5
3
100
AcDbSymbolTable
 70
     2
  0
STYLE
  5
F
100
AcDbSymbolTableRecord
100
AcDbTextStyleTableRecord
  2
STANDARD
 70
     0
 40
0.0
 41
1.0
 50
0.0
 71
     0
 42
0.2
  3
txt.shx
  4

  0
STYLE
  5
42
100
AcDbSymbolTableRecord
100
AcDbTextStyleTableRecord
  2
_VISDIMTXTSTYLE
 70
     0
 40
0.0
 41
1.0
 50
0.0
 71
     0
 42
0.2
  3
arial.ttf
  4

1001
ACAD
1000
Arial
1071
       34
  0
ENDTAB
  0
TABLE
  2
VIEW
  5
6
100
AcDbSymbolTable
 70
     0
  0
ENDTAB
  0
TABLE
  2
UCS
  5
7
100
AcDbSymbolTable
 70
     0
  0
ENDTAB
  0
TABLE
  2
APPID
  5
9
100
AcDbSymbolTable
 70
     1
  0
APPID
  5
10
100
AcDbSymbolTableRecord
100
AcDbRegAppTableRecord
  2
ACAD
 70
     0
  0
ENDTAB
  0
TABLE
  2
DIMSTYLE
  5
A
100
AcDbSymbolTable
 70
     1
  0
DIMSTYLE
105
1D
102
{ACAD_REACTORS
330
49
330
54
330
5F
330
6E
330
7C
102
}
100
AcDbSymbolTableRecord
100
AcDbDimStyleTableRecord
  2
STANDARD
 70
     0
  3

  4

  5

  6

  7

 40
1.0
 41
0.18
 42
0.0625
 43
0.38
 44
0.18
 45
0.0
 46
0.0
 47
0.0
 48
0.0
 71
     0
 72
     0
 73
     1
 74
     1
 75
     0
 76
     0
 77
     1
 78
     0
140
0.18
141
0.09
142
0.0
143
25.4
144
1.0
145
0.0
146
1.0
147
0.09
170
     0
171
     2
172
     0
173
     0
174
     0
175
     0
176
     0
177
     0
178
     0
270
     2
271
     4
272
     2
273
     2
274
     2
275
     0
280
     0
281
     0
282
     0
283
     1
284
     0
285
     0
286
     0
287
     3
288
     0
340
42
  0
ENDTAB
  0
TABLE
  2
BLOCK_RECORD
  5
1
100
AcDbSymbolTable
 70
     5
  0
BLOCK_RECORD
  5
18
100
AcDbSymbolTableRecord
100
AcDbBlockTableRecord
  2
*MODEL_SPACE
  0
BLOCK_RECORD
  5
15
100
AcDbSymbolTableRecord
100
AcDbBlockTableRecord
  2
*PAPER_SPACE
  0
BLOCK_RECORD
  5
3C
100
AcDbSymbolTableRecord
100
AcDbBlockTableRecord
  2
*D0
  0
BLOCK_RECORD
  5
4A
100
AcDbSymbolTableRecord
100
AcDbBlockTableRecord
  2
*D1
  0
BLOCK_RECORD
  5
55
100
AcDbSymbolTableRecord
100
AcDbBlockTableRecord
  2
*D2
  0
BLOCK_RECORD
  5
60
100
AcDbSymbolTableRecord
100
AcDbBlockTableRecord
  2
*D3
  0
BLOCK_RECORD
  5
6F
100
AcDbSymbolTableRecord
100
AcDbBlockTableRecord
  2
*D4
  0
ENDTAB
  0
ENDSEC
  0
SECTION
  2
BLOCKS
  0
BLOCK
  5
19
100
AcDbEntity
  8
0
100
AcDbBlockBegin
  2
*MODEL_SPACE
 70
     0
 10
0.0
 20
0.0
 30
0.0
  3
*MODEL_SPACE
  1

  0
ENDBLK
  5
1A
100
AcDbEntity
  8
0
100
AcDbBlockEnd
  0
BLOCK
  5
16
100
AcDbEntity
 67
     1
  8
0
100
AcDbBlockBegin
  2
*PAPER_SPACE
 70
     0
 10
0.0
 20
0.0
 30
0.0
  3
*PAPER_SPACE
  1

  0
ENDBLK
  5
17
100
AcDbEntity
 67
     1
  8
0
100
AcDbBlockEnd
  0
BLOCK
  5
3D
100
AcDbEntity
  8
0
100
AcDbBlockBegin
  2
*D0
 70
    66
 10
0.0
 20
0.0
 30
0.0
  3
*D0
  1

  0
LWPOLYLINE
  5
3F
100
AcDbEntity
  8
DIMENSIONS
  6
CONTINUOUS
100
AcDbPolyline
 90
        2
 70
     1
 10
41.5
 20
237.5
 10
43.5
 20
237.5
  0
LWPOLYLINE
  5
40
100
AcDbEntity
  8
DIMENSIONS
  6
CONTINUOUS
100
AcDbPolyline
 90
        2
 70
     1
 10
42.5
 20
236.5
 10
42.5
 20
238.5
  0
LWPOLYLINE
  5
41
100
AcDbEntity
  8
DIMENSIONS
  6
CONTINUOUS
100
AcDbPolyline
 90
        3
 70
     0
 10
58.5
 20
263.0
 10
53.5
 20
263.0
 10
46.06482
 20
245.763901
  0
MTEXT
  5
43
100
AcDbEntity
  8
0
100
AcDbMText
 10
58.5
 20
266.697111
 30
0.0
 40
2.822222
 41
15.064358
 71
     5
 72
     1
  1
%%c18.00
  7
_VISDIMTXTSTYLE
  0
POINT
  5
45
100
AcDbEntity
  8
DEFPOINTS
100
AcDbPoint
 10
38.93518
 20
229.236099
 30
0.0
  0
POINT
  5
46
100
AcDbEntity
  8
DEFPOINTS
100
AcDbPoint
 10
46.06482
 20
245.763901
 30
0.0
  0
SOLID
  5
47
100
AcDbEntity
  8
0
100
AcDbTrace
 10
46.06482
 20
245.763901
 30
0.0
 11
47.176072
 21
250.263784
 31
0.0
 12
48.575425
 22
249.660141
 32
0.0
 13
48.575425
 23
249.660141
 33
0.0
  0
ENDBLK
  5
48
100
AcDbEntity
  8
0
100
AcDbBlockEnd
  0
BLOCK
  5
4B
100
AcDbEntity
  8
0
100
AcDbBlockBegin
  2
*D1
 70
    66
 10
0.0
 20
0.0
 30
0.0
  3
*D1
  1

  0
LWPOLYLINE
  5
4C
100
AcDbEntity
  8
DIMENSIONS
  6
CONTINUOUS
100
AcDbPolyline
 90
        2
 70
     1
 10
41.5
 20
237.5
 10
43.5
 20
237.5
  0
LWPOLYLINE
  5
4D
100
AcDbEntity
  8
DIMENSIONS
  6
CONTINUOUS
100
AcDbPolyline
 90
        2
 70
     1
 10
42.5
 20
236.5
 10
42.5
 20
238.5
  0
LWPOLYLINE
  5
4E
100
AcDbEntity
  8
DIMENSIONS
  6
CONTINUOUS
100
AcDbPolyline
 90
        3
 70
     0
 10
65.4
 20
255.4
 10
60.4
 20
255.4
 10
45.330482
 20
240.330482
  0
MTEXT
  5
4F
100
AcDbEntity
  8
0
100
AcDbMText
 10
65.4
 20
259.097111
 30
0.0
 40
2.822222
 41
12.709996
 71
     5
 72
     1
  1
%%c8.01
  7
_VISDIMTXTSTYLE
  0
POINT
  5
50
100
AcDbEntity
  8
DEFPOINTS
100
AcDbPoint
 10
39.669518
 20
234.669518
 30
0.0
  0
POINT
  5
51
100
AcDbEntity
  8
DEFPOINTS
100
AcDbPoint
 10
45.330482
 20
240.330482
 30
0.0
  0
SOLID
  5
52
100
AcDbEntity
  8
0
100
AcDbTrace
 10
45.330482
 20
240.330482
 30
0.0
 11
48.024559
 21
244.102189
 31
0.0
 12
49.102189
 22
243.024559
 32
0.0
 13
49.102189
 23
243.024559
 33
0.0
  0
ENDBLK
  5
53
100
AcDbEntity
  8
0
100
AcDbBlockEnd
  0
BLOCK
  5
56
100
AcDbEntity
  8
0
100
AcDbBlockBegin
  2
*D2
 70
    66
 10
0.0
 20
0.0
 30
0.0
  3
*D2
  1

  0
LWPOLYLINE
  5
57
100
AcDbEntity
  8
DIMENSIONS
  6
CONTINUOUS
100
AcDbPolyline
 90
        2
 70
     1
 10
41.5
 20
237.5
 10
43.5
 20
237.5
  0
LWPOLYLINE
  5
58
100
AcDbEntity
  8
DIMENSIONS
  6
CONTINUOUS
100
AcDbPolyline
 90
        2
 70
     1
 10
42.5
 20
236.5
 10
42.5
 20
238.5
  0
LWPOLYLINE
  5
59
100
AcDbEntity
  8
DIMENSIONS
  6
CONTINUOUS
100
AcDbPolyline
 90
        3
 70
     0
 10
62.5
 20
259.5
 10
57.5
 20
259.5
 10
46.443358
 20
243.283591
  0
MTEXT
  5
5A
100
AcDbEntity
  8
0
100
AcDbMText
 10
62.5
 20
263.197111
 30
0.0
 40
2.822222
 41
15.064358
 71
     5
 72
     1
  1
%%c14.00
  7
_VISDIMTXTSTYLE
  0
POINT
  5
5B
100
AcDbEntity
  8
DEFPOINTS
100
AcDbPoint
 10
38.556642
 20
231.716409
 30
0.0
  0
POINT
  5
5C
100
AcDbEntity
  8
DEFPOINTS
100
AcDbPoint
 10
46.443358
 20
243.283591
 30
0.0
  0
SOLID
  5
5D
100
AcDbEntity
  8
0
100
AcDbTrace
 10
46.443358
 20
243.283591
 30
0.0
 11
48.389348
 21
247.490365
 31
0.0
 12
49.648519
 22
246.63184
 32
0.0
 13
49.648519
 23
246.63184
 33
0.0
  0
ENDBLK
  5
5E
100
AcDbEntity
  8
0
100
AcDbBlockEnd
  0
BLOCK
  5
61
100
AcDbEntity
  8
0
100
AcDbBlockBegin
  2
*D3
 70
    66
 10
0.0
 20
0.0
 30
0.0
  3
*D3
  1

  0
LWPOLYLINE
  5
62
100
AcDbEntity
  8
DIMENSIONS
  6
CONTINUOUS
100
AcDbPolyline
 90
        2
 70
     1
 10
81.75
 20
228.822222
 10
81.75
 20
220.411111
  0
LWPOLYLINE
  5
63
100
AcDbEntity
  8
DIMENSIONS
  6
CONTINUOUS
100
AcDbPolyline
 90
        2
 70
     1
 10
86.75
 20
228.822222
 10
86.75
 20
220.411111
  0
LINE
  5
64
100
AcDbEntity
  8
DIMENSIONS
  6
CONTINUOUS
100
AcDbLine
 10
84.25
 20
226.0
 30
0.0
 11
81.75
 21
226.0
 31
0.0
  0
LINE
  5
65
100
AcDbEntity
  8
DIMENSIONS
  6
CONTINUOUS
100
AcDbLine
 10
84.25
 20
226.0
 30
0.0
 11
86.75
 21
226.0
 31
0.0
  0
LWPOLYLINE
  5
66
100
AcDbEntity
  8
DIMENSIONS
  6
CONTINUOUS
100
AcDbPolyline
 90
        2
 70
     1
 10
81.75
 20
226.0
 10
74.379302
 20
226.0
  0
POINT
  5
67
100
AcDbEntity
  8
DEFPOINTS
100
AcDbPoint
 10
86.75
 20
226.0
 30
0.0
  0
POINT
  5
68
100
AcDbEntity
  8
DEFPOINTS
100
AcDbPoint
 10
81.75
 20
219.0
 30
0.0
  0
POINT
  5
69
100
AcDbEntity
  8
DEFPOINTS
100
AcDbPoint
 10
86.75
 20
219.0
 30
0.0
  0
MTEXT
  5
6A
100
AcDbEntity
  8
0
100
AcDbMText
 10
74.379302
 20
229.697111
 30
0.0
 40
2.822222
 41
9.417173
 71
     5
 72
     1
  1
5.00
  7
_VISDIMTXTSTYLE
  0
SOLID
  5
6B
100
AcDbEntity
  8
0
100
AcDbTrace
 10
81.75
 20
226.0
 30
0.0
 11
86.322
 21
226.762
 31
0.0
 12
86.322
 22
225.238
 32
0.0
 13
86.322
 23
225.238
 33
0.0
  0
SOLID
  5
6C
100
AcDbEntity
  8
0
100
AcDbTrace
 10
86.75
 20
226.0
 30
0.0
 11
82.178
 21
226.762
 31
0.0
 12
82.178
 22
225.238
 32
0.0
 13
82.178
 23
225.238
 33
0.0
  0
ENDBLK
  5
6D
100
AcDbEntity
  8
0
100
AcDbBlockEnd
  0
BLOCK
  5
70
100
AcDbEntity
  8
0
100
AcDbBlockBegin
  2
*D4
 70
    66
 10
0.0
 20
0.0
 30
0.0
  3
*D4
  1

  0
LWPOLYLINE
  5
71
100
AcDbEntity
  8
DIMENSIONS
  6
CONTINUOUS
100
AcDbPolyline
 90
        2
 70
     1
 10
86.8
 20
228.822222
 10
86.8
 20
220.411111
  0
LWPOLYLINE
  5
72
100
AcDbEntity
  8
DIMENSIONS
  6
CONTINUOUS
100
AcDbPolyline
 90
        2
 70
     1
 10
110.8
 20
223.177778
 10
110.8
 20
226.788889
  0
LINE
  5
73
100
AcDbEntity
  8
DIMENSIONS
  6
CONTINUOUS
100
AcDbLine
 10
98.8
 20
226.0
 30
0.0
 11
86.8
 21
226.0
 31
0.0
  0
LINE
  5
74
100
AcDbEntity
  8
DIMENSIONS
  6
CONTINUOUS
100
AcDbLine
 10
98.8
 20
226.0
 30
0.0
 11
110.8
 21
226.0
 31
0.0
  0
POINT
  5
75
100
AcDbEntity
  8
DEFPOINTS
100
AcDbPoint
 10
110.8
 20
226.0
 30
0.0
  0
POINT
  5
76
100
AcDbEntity
  8
DEFPOINTS
100
AcDbPoint
 10
86.8
 20
219.0
 30
0.0
  0
POINT
  5
77
100
AcDbEntity
  8
DEFPOINTS
100
AcDbPoint
 10
110.8
 20
228.2
 30
0.0
  0
MTEXT
  5
78
100
AcDbEntity
  8
0
100
AcDbMText
 10
98.8
 20
229.697111
 30
0.0
 40
2.822222
 41
11.771535
 71
     5
 72
     1
  1
24.00
  7
_VISDIMTXTSTYLE
  0
SOLID
  5
79
100
AcDbEntity
  8
0
100
AcDbTrace
 10
86.8
 20
226.0
 30
0.0
 11
91.372
 21
226.762
 31
0.0
 12
91.372
 22
225.238
 32
0.0
 13
91.372
 23
225.238
 33
0.0
  0
SOLID
  5
7A
100
AcDbEntity
  8
0
100
AcDbTrace
 10
110.8
 20
226.0
 30
0.0
 11
106.228
 21
226.762
 31
0.0
 12
106.228
 22
225.238
 32
0.0
 13
106.228
 23
225.238
 33
0.0
  0
ENDBLK
  5
7B
100
AcDbEntity
  8
0
100
AcDbBlockEnd
  0
ENDSEC
  0
SECTION
  2
ENTITIES
  0
LWPOLYLINE
  5
31
100
AcDbEntity
  8
0
  6
CONTINUOUS
 62
     7
100
AcDbPolyline
 90
        4
 70
     1
 10
81.75
 20
229.5
 10
86.75
 20
229.5
 10
86.75
 20
247.5
 10
81.75
 20
247.5
  0
LWPOLYLINE
  5
32
100
AcDbEntity
  8
0
  6
CONTINUOUS
 62
     7
100
AcDbPolyline
 90
        4
 70
     1
 10
86.75
 20
231.5
 10
110.75
 20
231.5
 10
110.75
 20
245.5
 10
86.75
 20
245.5
  0
LWPOLYLINE
  5
34
100
AcDbEntity
  8
0
  6
DASHED
 62
     7
100
AcDbPolyline
 90
        4
 70
     1
 10
81.75
 20
234.5
 10
110.75
 20
234.5
 10
110.75
 20
242.5
 10
81.75
 20
242.5
  0
LINE
  5
36
100
AcDbEntity
  8
0
  6
DASHDOT
 62
     7
100
AcDbLine
 10
78.25
 20
238.5
 30
0.0
 11
124.75
 21
238.5
 31
0.0
  0
CIRCLE
  5
37
100
AcDbEntity
  8
0
  6
CONTINUOUS
 62
     7
100
AcDbCircle
 10
42.5
 20
237.5
 30
0.0
 40
9.0
  0
CIRCLE
  5
38
100
AcDbEntity
  8
0
  6
CONTINUOUS
 62
     7
100
AcDbCircle
 10
42.5
 20
237.5
 30
0.0
 40
7.0
  0
ELLIPSE
  5
39
100
AcDbEntity
  8
0
  6
CONTINUOUS
 62
     7
100
AcDbEllipse
 10
42.5
 20
237.5
 30
0.0
 11
0.0
 21
-4.0500000000000282
 31
0.0
210
0.0
220
0.0
230
1.0
 40
0.987654
 41
0.0
 42
6.2831853071796004
  0
LINE
  5
3A
100
AcDbEntity
  8
0
  6
DASHDOT
 62
     7
100
AcDbLine
 10
31.175
 20
237.5
 30
0.0
 11
53.825
 21
237.5
 31
0.0
  0
LINE
  5
3B
100
AcDbEntity
  8
0
  6
DASHDOT
 62
     7
100
AcDbLine
 10
42.5
 20
227.85
 30
0.0
 11
42.5
 21
247.15
 31
0.0
  0
DIMENSION
  5
49
100
AcDbEntity
  8
0
100
AcDbDimension
  2
*D0
 10
38.93518
 20
229.236099
 30
0.0
 11
58.5
 21
263.0
 31
0.0
 70
   163
  3
STANDARD
100
AcDbDiametricDimension
 15
46.06482
 25
245.763901
 35
0.0
 40
0.0
1001
ACAD
1000
DSTYLE
1002
{
1070
   140
1040
2.822222
1070
    73
1070
     0
1070
    74
1070
     1
1070
   271
1070
     2
1070
   179
1070
     2
1070
   172
1070
     0
1070
   288
1070
     1
1070
   270
1070
     2
1070
   277
1070
     2
1070
   276
1070
     0
1002
}
  0
DIMENSION
  5
54
100
AcDbEntity
  8
0
100
AcDbDimension
  2
*D1
 10
39.669518
 20
234.669518
 30
0.0
 11
65.4
 21
255.4
 31
0.0
 70
   163
  3
STANDARD
100
AcDbDiametricDimension
 15
45.330482
 25
240.330482
 35
0.0
 40
0.0
1001
ACAD
1000
DSTYLE
1002
{
1070
   140
1040
2.822222
1070
    73
1070
     0
1070
    74
1070
     1
1070
   271
1070
     2
1070
   179
1070
     2
1070
   172
1070
     0
1070
   288
1070
     1
1070
   270
1070
     2
1070
   277
1070
     2
1070
   276
1070
     0
1002
}
  0
DIMENSION
  5
5F
100
AcDbEntity
  8
0
100
AcDbDimension
  2
*D2
 10
38.556642
 20
231.716409
 30
0.0
 11
62.5
 21
259.5
 31
0.0
 70
   163
  3
STANDARD
100
AcDbDiametricDimension
 15
46.443358
 25
243.283591
 35
0.0
 40
0.0
1001
ACAD
1000
DSTYLE
1002
{
1070
   140
1040
2.822222
1070
    73
1070
     0
1070
    74
1070
     1
1070
   271
1070
     2
1070
   179
1070
     2
1070
   172
1070
     0
1070
   288
1070
     1
1070
   270
1070
     2
1070
   277
1070
     2
1070
   276
1070
     0
1002
}
  0
DIMENSION
  5
6E
100
AcDbEntity
  8
0
100
AcDbDimension
  2
*D3
 10
86.75
 20
226.0
 30
0.0
 11
74.379302
 21
229.697111
 31
0.0
 70
    32
  3
STANDARD
100
AcDbAlignedDimension
 13
81.75
 23
219.0
 33
0.0
 14
86.75
 24
219.0
 34
0.0
100
AcDbRotatedDimension
1001
ACAD
1000
DSTYLE
1002
{
1070
   140
1040
2.822222
1070
    77
1070
     1
1070
    73
1070
     0
1070
   271
1070
     2
1070
   179
1070
     2
1070
   270
1070
     2
1070
   277
1070
     2
1070
   276
1070
     0
1002
}
  0
DIMENSION
  5
7C
100
AcDbEntity
  8
0
100
AcDbDimension
  2
*D4
 10
110.8
 20
226.0
 30
0.0
 11
98.8
 21
229.697111
 31
0.0
 70
    32
  3
STANDARD
100
AcDbAlignedDimension
 13
86.8
 23
219.0
 33
0.0
 14
110.8
 24
228.2
 34
0.0
100
AcDbRotatedDimension
1001
ACAD
1000
DSTYLE
1002
{
1070
   140
1040
2.822222
1070
    77
1070
     1
1070
    73
1070
     0
1070
   271
1070
     2
1070
   179
1070
     2
1070
   270
1070
     2
1070
   277
1070
     2
1070
   276
1070
     0
1002
}
  0
MTEXT
  5
7D
100
AcDbEntity
  8
0
100
AcDbMText
 10
70.0
 20
204.5
 30
0.0
 40
3.082006
 41
35.0
 71
     5
 72
     5
  1
\C7;\fArial|b0|i0|;\H3.0820059355348;INOX \P6 pieces
  0
ENDSEC
  0
SECTION
  2
OBJECTS
  0
DICTIONARY
  5
C
100
AcDbDictionary
  3
ACAD_GROUP
350
D
  3
ACAD_MLINESTYLE
350
1B
  0
DICTIONARY
  5
D
102
{ACAD_REACTORS
330
C
102
}
100
AcDbDictionary
  0
DICTIONARY
  5
1B
102
{ACAD_REACTORS
330
C
102
}
100
AcDbDictionary
  3
STANDARD
350
1C
  0
MLINESTYLE
  5
1C
102
{ACAD_REACTORS
330
1B
102
}
100
AcDbMlineStyle
  2
STANDARD
 70
     0
  3

 62
   256
 51
90.0
 52
90.0
 71
     2
 49
0.5
 62
   256
  6
BYLAYER
 49
-0.5
 62
   256
  6
BYLAYER
  0
ENDSEC
  0
EOF
