  0
SECTION
  2
HEADER
  9
$ACADVER
  1
AC1015
  9
$ACADMAINTVER
 70
     6
  9
$DWGCODEPAGE
  3
ANSI_1252
  9
$INSBASE
 10
0.0
 20
0.0
 30
0.0
  9
$EXTMIN
 10
0.0
 20
0.0
 30
0.0
  9
$EXTMAX
 10
279.4
 20
215.9
 30
0.0
  9
$LIMMIN
 10
0.0
 20
0.0
  9
$LIMMAX
 10
279.4
 20
215.9
  9
$ORTHOMODE
 70
     0
  9
$REGENMODE
 70
     1
  9
$FILLMODE
 70
     1
  9
$QTEXTMODE
 70
     0
  9
$MIRRTEXT
 70
     1
  9
$LTSCALE
 40
1.0
  9
$ATTMODE
 70
     1
  9
$TEXTSIZE
 40
3.5
  9
$TRACEWID
 40
1.0
  9
$TEXTSTYLE
  7
Standard
  9
$CLAYER
  8
0
  9
$CELTYPE
  6
ByLayer
  9
$CECOLOR
 62
   256
  9
$CELTSCALE
 40
1.0
  9
$DISPSILH
 70
     0
  9
$DIMSCALE
 40
1.0
  9
$DIMASZ
 40
3.302
  9
$DIMEXO
 40
1.0
  9
$DIMDLI
 40
3.75
  9
$DIMRND
 40
0.0
  9
$DIMDLE
 40
0.0
  9
$DIMEXE
 40
1.0
  9
$DIMTP
 40
0.0
  9
$DIMTM
 40
0.0
  9
$DIMTXT
 40
3.5
  9
$DIMCEN
 40
2.5
  9
$DIMTSZ
 40
0.0
  9
$DIMTOL
 70
     0
  9
$DIMLIM
 70
     0
  9
$DIMTIH
 70
     1
  9
$DIMTOH
 70
     1
  9
$DIMSE1
 70
     0
  9
$DIMSE2
 70
     0
  9
$DIMTAD
 70
     1
  9
$DIMZIN
 70
     1
  9
$DIMBLK
  1

  9
$DIMASO
 70
     1
  9
$DIMSHO
 70
     1
  9
$DIMPOST
  1

  9
$DIMAPOST
  1

  9
$DIMALT
 70
     0
  9
$DIMALTD
 70
     3
  9
$DIMALTF
 40
0.0393700787
  9
$DIMLFAC
 40
1.0
  9
$DIMTOFL
 70
     1
  9
$DIMTVP
 40
0.0
  9
$DIMTIX
 70
     0
  9
$DIMSOXD
 70
     0
  9
$DIMSAH
 70
     0
  9
$DIMBLK1
  1

  9
$DIMBLK2
  1

  9
$DIMSTYLE
  2
ISO-25
  9
$DIMCLRD
 70
     0
  9
$DIMCLRE
 70
     0
  9
$DIMCLRT
 70
     0
  9
$DIMTFAC
 40
1.0
  9
$DIMGAP
 40
1.524
  9
$DIMJUST
 70
     0
  9
$DIMSD1
 70
     0
  9
$DIMSD2
 70
     0
  9
$DIMTOLJ
 70
     0
  9
$DIMTZIN
 70
     1
  9
$DIMALTZ
 70
     0
  9
$DIMALTTZ
 70
     0
  9
$DIMUPT
 70
     0
  9
$DIMDEC
 70
     2
  9
$DIMTDEC
 70
     2
  9
$DIMALTU
 70
     2
  9
$DIMALTTD
 70
     3
  9
$DIMTXSTY
  7
Standard
  9
$DIMAUNIT
 70
     0
  9
$DIMADEC
 70
     2
  9
$DIMALTRND
 40
0.0
  9
$DIMAZIN
 70
     0
  9
$DIMDSEP
 70
    44
  9
$DIMATFIT
 70
     3
  9
$DIMFRAC
 70
     0
  9
$DIMLDRBLK
  1

  9
$DIMLUNIT
 70
     2
  9
$DIMLWD
 70
    -2
  9
$DIMLWE
 70
    -2
  9
$DIMTMOVE
 70
     0
  9
$LUNITS
 70
     2
  9
$LUPREC
 70
     2
  9
$SKETCHINC
 40
1.0
  9
$FILLETRAD
 40
10.0
  9
$AUNITS
 70
     0
  9
$AUPREC
 70
     2
  9
$MENU
  1
.
  9
$ELEVATION
 40
0.0
  9
$PELEVATION
 40
0.0
  9
$THICKNESS
 40
0.0
  9
$LIMCHECK
 70
     0
  9
$CHAMFERA
 40
0.0
  9
$CHAMFERB
 40
0.0
  9
$CHAMFERC
 40
0.0
  9
$CHAMFERD
 40
0.0
  9
$SKPOLY
 70
     0
  9
$TDCREATE
 40
2458993.921516331
  9
$TDUCREATE
 40
2458993.838182998
  9
$TDUPDATE
 40
2458993.92151713
  9
$TDUUPDATE
 40
2458993.838183796
  9
$TDINDWG
 40
0.0000000116
  9
$TDUSRTIMER
 40
0.0000000116
  9
$USRTIMER
 70
     1
  9
$ANGBASE
 50
0.0
  9
$ANGDIR
 70
     0
  9
$PDMODE
 70
     0
  9
$PDSIZE
 40
-1.0
  9
$PLINEWID
 40
0.0
  9
$SPLFRAME
 70
     0
  9
$SPLINETYPE
 70
     6
  9
$SPLINESEGS
 70
     8
  9
$HANDSEED
  5
1EA
  9
$SURFTAB1
 70
     6
  9
$SURFTAB2
 70
     6
  9
$SURFTYPE
 70
     6
  9
$SURFU
 70
     6
  9
$SURFV
 70
     6
  9
$UCSBASE
  2

  9
$UCSNAME
  2

  9
$UCSORG
 10
0.0
 20
0.0
 30
0.0
  9
$UCSXDIR
 10
1.0
 20
0.0
 30
0.0
  9
$UCSYDIR
 10
0.0
 20
1.0
 30
0.0
  9
$UCSORTHOREF
  2

  9
$UCSORTHOVIEW
 70
     0
  9
$UCSORGTOP
 10
0.0
 20
0.0
 30
0.0
  9
$UCSORGBOTTOM
 10
0.0
 20
0.0
 30
0.0
  9
$UCSORGLEFT
 10
0.0
 20
0.0
 30
0.0
  9
$UCSORGRIGHT
 10
0.0
 20
0.0
 30
0.0
  9
$UCSORGFRONT
 10
0.0
 20
0.0
 30
0.0
  9
$UCSORGBACK
 10
0.0
 20
0.0
 30
0.0
  9
$PUCSBASE
  2

  9
$PUCSNAME
  2

  9
$PUCSORG
 10
0.0
 20
0.0
 30
0.0
  9
$PUCSXDIR
 10
1.0
 20
0.0
 30
0.0
  9
$PUCSYDIR
 10
0.0
 20
1.0
 30
0.0
  9
$PUCSORTHOREF
  2

  9
$PUCSORTHOVIEW
 70
     0
  9
$PUCSORGTOP
 10
0.0
 20
0.0
 30
0.0
  9
$PUCSORGBOTTOM
 10
0.0
 20
0.0
 30
0.0
  9
$PUCSORGLEFT
 10
0.0
 20
0.0
 30
0.0
  9
$PUCSORGRIGHT
 10
0.0
 20
0.0
 30
0.0
  9
$PUCSORGFRONT
 10
0.0
 20
0.0
 30
0.0
  9
$PUCSORGBACK
 10
0.0
 20
0.0
 30
0.0
  9
$USERI1
 70
     0
  9
$USERI2
 70
     0
  9
$USERI3
 70
     0
  9
$USERI4
 70
     0
  9
$USERI5
 70
     0
  9
$USERR1
 40
0.0
  9
$USERR2
 40
0.0
  9
$USERR3
 40
0.0
  9
$USERR4
 40
0.0
  9
$USERR5
 40
0.0
  9
$WORLDVIEW
 70
     1
  9
$SHADEDGE
 70
     3
  9
$SHADEDIF
 70
    70
  9
$TILEMODE
 70
     1
  9
$MAXACTVP
 70
    64
  9
$PINSBASE
 10
0.0
 20
0.0
 30
0.0
  9
$PLIMCHECK
 70
     0
  9
$PEXTMIN
 10
1.0000000000E+20
 20
1.0000000000E+20
 30
1.0000000000E+20
  9
$PEXTMAX
 10
-1.0000000000E+20
 20
-1.0000000000E+20
 30
-1.0000000000E+20
  9
$PLIMMIN
 10
0.0
 20
0.0
  9
$PLIMMAX
 10
420.0
 20
297.0
  9
$UNITMODE
 70
     0
  9
$VISRETAIN
 70
     1
  9
$PLINEGEN
 70
     0
  9
$PSLTSCALE
 70
     1
  9
$TREEDEPTH
 70
  3020
  9
$CMLSTYLE
  2
Standard
  9
$CMLJUST
 70
     0
  9
$CMLSCALE
 40
20.0
  9
$PROXYGRAPHICS
 70
     1
  9
$MEASUREMENT
 70
     1
  9
$CELWEIGHT
370
    -1
  9
$ENDCAPS
280
     0
  9
$JOINSTYLE
280
     0
  9
$LWDISPLAY
290
     1
  9
$INSUNITS
 70
     4
  9
$HYPERLINKBASE
  1

  9
$STYLESHEET
  1

  9
$XEDIT
290
     1
  9
$CEPSNTYPE
380
     0
  9
$PSTYLEMODE
290
     1
  9
$FINGERPRINTGUID
  2
{2F8AD2EA-127C-471D-A397-6FE0F30A872A}
  9
$VERSIONGUID
  2
{FAEB1C32-E019-11D5-929B-00C0DF256EC4}
  9
$EXTNAMES
290
     1
  9
$PSVPSCALE
 40
0.0
  9
$OLESTARTUP
290
     0
  0
ENDSEC
  0
SECTION
  2
CLASSES
  0
CLASS
  1
ACDBDICTIONARYWDFLT
  2
AcDbDictionaryWithDefault
  3
ObjectDBX Classes
 90
        0
280
     0
281
     0
  0
CLASS
  1
VISUALSTYLE
  2
AcDbVisualStyle
  3
ObjectDBX Classes
 90
     4095
280
     0
281
     0
  0
CLASS
  1
MATERIAL
  2
AcDbMaterial
  3
ObjectDBX Classes
 90
     1153
280
     0
281
     0
  0
CLASS
  1
SCALE
  2
AcDbScale
  3
ObjectDBX Classes
 90
     1153
280
     0
281
     0
  0
CLASS
  1
TABLESTYLE
  2
AcDbTableStyle
  3
ObjectDBX Classes
 90
     4095
280
     0
281
     0
  0
CLASS
  1
MLEADERSTYLE
  2
AcDbMLeaderStyle
  3
ACDB_MLEADERSTYLE_CLASS
 90
     4095
280
     0
281
     0
  0
CLASS
  1
SUN
  2
AcDbSun
  3
SCENEOE
 90
     1153
280
     0
281
     0
  0
CLASS
  1
ACDBPLACEHOLDER
  2
AcDbPlaceHolder
  3
ObjectDBX Classes
 90
        0
280
     0
281
     0
  0
CLASS
  1
LAYOUT
  2
AcDbLayout
  3
ObjectDBX Classes
 90
        0
280
     0
281
     0
  0
ENDSEC
  0
SECTION
  2
TABLES
  0
TABLE
  2
VPORT
  5
8
330
0
100
AcDbSymbolTable
 70
     1
  0
VPORT
  5
29
330
8
100
AcDbSymbolTableRecord
100
AcDbViewportTableRecord
  2
*Active
 70
     0
 10
0.0
 20
0.0
 11
1.0
 21
1.0
 12
139.7
 22
107.95
 13
0.0
 23
0.0
 14
10.0
 24
10.0
 15
10.0
 25
10.0
 16
0.0
 26
0.0
 36
1.0
 17
0.0
 27
0.0
 37
0.0
 40
215.9
 41
1.2941176471
 42
50.0
 43
0.0
 44
0.0
 50
0.0
 51
0.0
 71
     0
 72
  2000
 73
     1
 74
     3
 75
     0
 76
     0
 77
     0
 78
     0
281
     0
 65
     1
110
0.0
120
0.0
130
0.0
111
1.0
121
0.0
131
0.0
112
0.0
122
1.0
132
0.0
 79
     0
146
0.0
  0
ENDTAB
  0
TABLE
  2
LTYPE
  5
5
330
0
100
AcDbSymbolTable
 70
     6
  0
LTYPE
  5
14
330
5
100
AcDbSymbolTableRecord
100
AcDbLinetypeTableRecord
  2
ByBlock
 70
     0
  3

 72
    65
 73
     0
 40
0.0
  0
LTYPE
  5
15
330
5
100
AcDbSymbolTableRecord
100
AcDbLinetypeTableRecord
  2
ByLayer
 70
     0
  3

 72
    65
 73
     0
 40
0.0
  0
LTYPE
  5
16
330
5
100
AcDbSymbolTableRecord
100
AcDbLinetypeTableRecord
  2
Continuous
 70
     0
  3
Solid line
 72
    65
 73
     0
 40
0.0
  0
LTYPE
  5
6E
330
5
100
AcDbSymbolTableRecord
100
AcDbLinetypeTableRecord
  2
HIDDEN
 70
     0
  3
Hidden __ __ __ __ __ __ __ __ __ __ __ __ __ __
 72
    65
 73
     2
 40
1.905
 49
1.27
 74
     0
 49
-0.635
 74
     0
  0
LTYPE
  5
6F
330
5
100
AcDbSymbolTableRecord
100
AcDbLinetypeTableRecord
  2
PHANTOM
 70
     0
  3
Phantom ______  __  __  ______  __  __  ______
 72
    65
 73
     6
 40
12.7
 49
6.35
 74
     0
 49
-1.27
 74
     0
 49
1.27
 74
     0
 49
-1.27
 74
     0
 49
1.27
 74
     0
 49
-1.27
 74
     0
  0
LTYPE
  5
70
330
5
100
AcDbSymbolTableRecord
100
AcDbLinetypeTableRecord
  2
CENTER
 70
     0
  3
Center ____ _ ____ _ ____ _ ____ _ ____ _ ____
 72
    65
 73
     4
 40
10.16
 49
6.35
 74
     0
 49
-1.27
 74
     0
 49
1.27
 74
     0
 49
-1.27
 74
     0
  0
LTYPE
  5
71
330
5
100
AcDbSymbolTableRecord
100
AcDbLinetypeTableRecord
  2
CENTERX2
 70
     0
  3
Center (2x) ________  __  ________  __  _____
 72
    65
 73
     4
 40
20.32
 49
12.7
 74
     0
 49
-2.54
 74
     0
 49
2.54
 74
     0
 49
-2.54
 74
     0
  0
LTYPE
  5
72
330
5
100
AcDbSymbolTableRecord
100
AcDbLinetypeTableRecord
  2
DOT2
 70
     0
  3
Dot (.5x) ........................................
 72
    65
 73
     2
 40
0.635
 49
0.0
 74
     0
 49
-0.635
 74
     0
  0
ENDTAB
  0
TABLE
  2
LAYER
  5
2
330
0
100
AcDbSymbolTable
 70
     1
  0
LAYER
  5
10
330
2
100
AcDbSymbolTableRecord
100
AcDbLayerTableRecord
  2
0
 70
     0
 62
     7
  6
Continuous
370
    -3
390
F
  0
ENDTAB
  0
TABLE
  2
STYLE
  5
3
330
0
100
AcDbSymbolTable
 70
     2
  0
STYLE
  5
11
330
3
100
AcDbSymbolTableRecord
100
AcDbTextStyleTableRecord
  2
Standard
 70
     0
 40
0.0
 41
1.0
 50
0.0
 71
     0
 42
3.5
  3
txt
  4

  0
STYLE
  5
1CC
330
3
100
AcDbSymbolTableRecord
100
AcDbTextStyleTableRecord
  2
SLDTEXTSTYLE0
 70
     0
 40
0.0
 41
0.75
 50
0.0
 71
     0
 42
3.5
  3
TXT
  4

  0
ENDTAB
  0
TABLE
  2
VIEW
  5
6
330
0
100
AcDbSymbolTable
 70
     0
  0
ENDTAB
  0
TABLE
  2
UCS
  5
7
330
0
100
AcDbSymbolTable
 70
     0
  0
ENDTAB
  0
TABLE
  2
APPID
  5
9
330
0
100
AcDbSymbolTable
 70
     1
  0
APPID
  5
12
330
9
100
AcDbSymbolTableRecord
100
AcDbRegAppTableRecord
  2
ACAD
 70
     0
  0
ENDTAB
  0
TABLE
  2
DIMSTYLE
  5
A
330
0
100
AcDbSymbolTable
 70
     3
100
AcDbDimStyleTable
  0
DIMSTYLE
105
27
330
A
100
AcDbSymbolTableRecord
100
AcDbDimStyleTableRecord
  2
ISO-25
 70
     0
 41
2.5
 42
0.625
 43
3.75
 44
1.25
 73
     0
 74
     0
 77
     1
 78
     8
140
2.5
141
2.5
143
0.0393700787
147
0.625
171
     3
172
     1
178
     0
271
     2
272
     2
274
     3
278
    44
283
     0
284
     8
340
11
  0
DIMSTYLE
105
1CD
102
{ACAD_REACTORS
330
1CB
330
1D7
102
}
330
A
100
AcDbSymbolTableRecord
100
AcDbDimStyleTableRecord
  2
SLDDIMSTYLE0
 70
     0
 41
3.302
 44
0.0
 45
0.000000001
 73
     0
 74
     0
 77
     1
 78
     4
 79
     1
140
3.5
147
0.875
173
     1
178
     0
271
     2
272
     2
276
     2
284
    12
340
1CC
  0
DIMSTYLE
105
1E2
102
{ACAD_REACTORS
330
1E1
102
}
330
A
100
AcDbSymbolTableRecord
100
AcDbDimStyleTableRecord
  2
SLDDIMSTYLE1
 70
     0
 41
3.302
 44
0.0
 45
0.000000001
 73
     0
 74
     0
 77
     1
 78
     4
 79
     1
140
3.5
141
0.0
147
0.875
173
     1
178
     0
271
     2
272
     2
276
     2
284
    12
340
1CC
  0
ENDTAB
  0
TABLE
  2
BLOCK_RECORD
  5
1
330
0
100
AcDbSymbolTable
 70
     4
  0
BLOCK_RECORD
  5
1F
330
1
100
AcDbSymbolTableRecord
100
AcDbBlockTableRecord
  2
*Model_Space
340
22
  0
BLOCK_RECORD
  5
1B
330
1
100
AcDbSymbolTableRecord
100
AcDbBlockTableRecord
  2
*Paper_Space
340
1E
  0
BLOCK_RECORD
  5
23
330
1
100
AcDbSymbolTableRecord
100
AcDbBlockTableRecord
  2
*Paper_Space0
340
26
  0
BLOCK_RECORD
  5
1CE
330
1
100
AcDbSymbolTableRecord
100
AcDbBlockTableRecord
  2
_D
340
0
  0
BLOCK_RECORD
  5
1D8
330
1
100
AcDbSymbolTableRecord
100
AcDbBlockTableRecord
  2
_D_1
340
0
  0
BLOCK_RECORD
  5
1E3
330
1
100
AcDbSymbolTableRecord
100
AcDbBlockTableRecord
  2
_D_2
340
0
  0
ENDTAB
  0
ENDSEC
  0
SECTION
  2
BLOCKS
  0
BLOCK
  5
20
330
1F
100
AcDbEntity
  8
0
100
AcDbBlockBegin
  2
*Model_Space
 70
     0
 10
0.0
 20
0.0
 30
0.0
  3
*Model_Space
  1

  0
ENDBLK
  5
21
330
1F
100
AcDbEntity
  8
0
100
AcDbBlockEnd
  0
BLOCK
  5
1C
330
1B
100
AcDbEntity
 67
     1
  8
0
100
AcDbBlockBegin
  2
*Paper_Space
 70
     0
 10
0.0
 20
0.0
 30
0.0
  3
*Paper_Space
  1

  0
ENDBLK
  5
1D
330
1B
100
AcDbEntity
 67
     1
  8
0
100
AcDbBlockEnd
  0
BLOCK
  5
24
330
23
100
AcDbEntity
  8
0
100
AcDbBlockBegin
  2
*Paper_Space0
 70
     0
 10
0.0
 20
0.0
 30
0.0
  3
*Paper_Space0
  1

  0
ENDBLK
  5
25
330
23
100
AcDbEntity
  8
0
100
AcDbBlockEnd
  0
BLOCK
  5
1CF
330
1CE
100
AcDbEntity
  8
0
100
AcDbBlockBegin
  2
_D
 70
     0
 10
0.0
 20
0.0
 30
0.0
  3
_D
  1

  0
SOLID
  5
1D1
330
1CE
100
AcDbEntity
  8
0
  6
Continuous
 62
     7
370
    18
100
AcDbTrace
 10
65.6750359362
 20
88.2604333192
 30
0.0
 11
66.1830359362
 21
91.5624333192
 31
0.0
 12
65.1670359362
 22
91.5624333192
 32
0.0
 13
65.1670359362
 23
91.5624333192
 33
0.0
  0
SOLID
  5
1D2
330
1CE
100
AcDbEntity
  8
0
  6
Continuous
 62
     7
370
    18
100
AcDbTrace
 10
65.6750359362
 20
128.2604333192
 30
0.0
 11
65.1670359362
 21
124.9584333192
 31
0.0
 12
66.1830359362
 22
124.9584333192
 32
0.0
 13
66.1830359362
 23
124.9584333192
 33
0.0
  0
LINE
  5
1D3
330
1CE
100
AcDbEntity
  8
0
  6
Continuous
 62
     7
370
    18
100
AcDbLine
 10
83.6750359362
 20
88.2604333192
 30
0.0
 11
64.6750359362
 21
88.2604333192
 31
0.0
  0
LINE
  5
1D4
330
1CE
100
AcDbEntity
  8
0
  6
Continuous
 62
     7
370
    18
100
AcDbLine
 10
83.6750359362
 20
128.2604333192
 30
0.0
 11
64.6750359362
 21
128.2604333192
 31
0.0
  0
LINE
  5
1D5
330
1CE
100
AcDbEntity
  8
0
  6
Continuous
 62
     7
370
    18
100
AcDbLine
 10
65.6750359362
 20
88.2604333192
 30
0.0
 11
65.6750359362
 21
128.2604333192
 31
0.0
  0
MTEXT
  5
1D6
330
1CE
100
AcDbEntity
  8
0
  6
Continuous
 62
     7
370
    18
100
AcDbMText
 10
61.1632990216
 20
109.4911259292
 30
0.0
 40
3.5
 41
0.0
 71
     1
 72
     1
  1
40.00
  7
SLDTEXTSTYLE0
 11
6.123233995736766E-17
 21
1.0
 31
0.0
 73
     1
 44
1.0
  0
ENDBLK
  5
1D0
330
1CE
100
AcDbEntity
  8
0
100
AcDbBlockEnd
  0
BLOCK
  5
1D9
330
1D8
100
AcDbEntity
  8
0
100
AcDbBlockBegin
  2
_D_1
 70
     0
 10
0.0
 20
0.0
 30
0.0
  3
_D_1
  1

  0
SOLID
  5
1DB
330
1D8
100
AcDbEntity
  8
0
  6
Continuous
 62
     7
370
    18
100
AcDbTrace
 10
81.6750359362
 20
78.2604333192
 30
0.0
 11
84.9770359362
 21
77.7524333192
 31
0.0
 12
84.9770359362
 22
78.7684333192
 32
0.0
 13
84.9770359362
 23
78.7684333192
 33
0.0
  0
SOLID
  5
1DC
330
1D8
100
AcDbEntity
  8
0
  6
Continuous
 62
     7
370
    18
100
AcDbTrace
 10
181.6750359362
 20
78.2604333192
 30
0.0
 11
178.3730359362
 21
78.7684333192
 31
0.0
 12
178.3730359362
 22
77.7524333192
 32
0.0
 13
178.3730359362
 23
77.7524333192
 33
0.0
  0
LINE
  5
1DD
330
1D8
100
AcDbEntity
  8
0
  6
Continuous
 62
     7
370
    18
100
AcDbLine
 10
81.6750359362
 20
90.2604333192
 30
0.0
 11
81.6750359362
 21
77.2604333192
 31
0.0
  0
LINE
  5
1DE
330
1D8
100
AcDbEntity
  8
0
  6
Continuous
 62
     7
370
    18
100
AcDbLine
 10
181.6750359362
 20
90.2604333192
 30
0.0
 11
181.6750359362
 21
77.2604333192
 31
0.0
  0
LINE
  5
1DF
330
1D8
100
AcDbEntity
  8
0
  6
Continuous
 62
     7
370
    18
100
AcDbLine
 10
81.6750359362
 20
78.2604333192
 30
0.0
 11
181.6750359362
 21
78.2604333192
 31
0.0
  0
MTEXT
  5
1E0
330
1D8
100
AcDbEntity
  8
0
  6
Continuous
 62
     7
370
    18
100
AcDbMText
 10
125.5404056805
 20
82.7721702338
 30
0.0
 40
3.5
 41
0.0
 71
     1
 72
     1
  1
100.00
  7
SLDTEXTSTYLE0
 73
     1
 44
1.0
  0
ENDBLK
  5
1DA
330
1D8
100
AcDbEntity
  8
0
100
AcDbBlockEnd
  0
BLOCK
  5
1E4
330
1E3
100
AcDbEntity
  8
0
100
AcDbBlockBegin
  2
_D_2
 70
     0
 10
0.0
 20
0.0
 30
0.0
  3
_D_2
  1

  0
SOLID
  5
1E6
330
1E3
100
AcDbEntity
  8
0
  6
Continuous
 62
     7
370
    18
100
AcDbTrace
 10
180.8488434834
 20
127.3279344069
 30
0.0
 11
183.5915778412
 21
129.2354658594
 31
0.0
 12
182.8913841395
 22
129.9716620154
 32
0.0
 13
182.8913841395
 23
129.9716620154
 33
0.0
  0
LINE
  5
1E7
330
1E3
100
AcDbEntity
  8
0
  6
Continuous
 62
     7
370
    18
100
AcDbLine
 10
180.8488434834
 20
127.3279344069
 30
0.0
 11
193.9816347342
 21
139.8184882418
 31
0.0
  0
LINE
  5
1E8
330
1E3
100
AcDbEntity
  8
0
  6
Continuous
 62
     7
370
    18
100
AcDbLine
 10
180.8488434834
 20
127.3279344069
 30
0.0
 11
178.6750359362
 21
125.2604333192
 31
0.0
  0
MTEXT
  5
1E9
330
1E3
100
AcDbEntity
  8
0
  6
Continuous
 62
     7
370
    18
100
AcDbMText
 10
182.2904054519
 20
134.8647929396
 30
0.0
 40
3.5
 41
0.0
 71
     1
 72
     1
  1
R3.00
  7
SLDTEXTSTYLE0
 11
0.7246025157442352
 21
0.6891670292295804
 31
0.0
 73
     1
 44
1.0
  0
ENDBLK
  5
1E5
330
1E3
100
AcDbEntity
  8
0
100
AcDbBlockEnd
  0
ENDSEC
  0
SECTION
  2
ENTITIES
  0
LINE
  5
73
330
1F
100
AcDbEntity
  8
0
  6
Continuous
 62
     7
370
    25
100
AcDbLine
 10
89.272056608
 20
97.0293470143
 30
0.0
 11
88.5797097088
 21
97.0293470143
 31
0.0
  0
SPLINE
  5
74
330
1F
100
AcDbEntity
  8
0
  6
Continuous
 62
     7
370
    25
100
AcDbSpline
210
0.0
220
0.0
230
1.0
 70
     8
 71
     3
 72
    23
 73
    19
 74
     0
 42
0.000000001
 43
0.00000001
 40
0.0
 40
0.0
 40
0.0
 40
0.0
 40
0.0794265030086145
 40
0.1531534185191677
 40
0.2231802027627926
 40
0.289018506866188
 40
0.3505727963890556
 40
0.4097738163698403
 40
0.4668696792798284
 40
0.5216734757562956
 40
0.5766034336807571
 40
0.6302108781325212
 40
0.6849614670270512
 40
0.7419039835645813
 40
0.8018389285116748
 40
0.863782619321479
 40
0.9299576097425312
 40
1.0
 40
1.0
 40
1.0
 40
1.0
 10
90.35116280953899
 20
95.81177143290552
 30
0.0
 10
90.35020491485898
 20
95.86114034131485
 30
0.0
 10
90.3483578633174
 20
95.95633548153937
 30
0.0
 10
90.33536570318074
 20
96.09458162243595
 30
0.0
 10
90.31487718764136
 20
96.22327209830507
 30
0.0
 10
90.28735541933982
 20
96.34308894957022
 30
0.0
 10
90.24794765487435
 20
96.45232757797429
 30
0.0
 10
90.20282722988212
 20
96.5535107924003
 30
0.0
 10
90.14617624372096
 20
96.64375393420863
 30
0.0
 10
90.08428053629494
 20
96.72725755013138
 30
0.0
 10
90.01087643703035
 20
96.7980141492812
 30
0.0
 10
89.9297796388962
 20
96.85926790376313
 30
0.0
 10
89.84170528385826
 20
96.9126436056324
 30
0.0
 10
89.74371736367499
 20
96.95553494554603
 30
0.0
 10
89.63734644057969
 20
96.98838300429054
 30
0.0
 10
89.52282777389198
 20
97.01246148719393
 30
0.0
 10
89.40028040538047
 20
97.02677166229017
 30
0.0
 10
89.3155992785562
 20
97.02847246755933
 30
0.0
 10
89.27205660798859
 20
97.02934701430087
 30
0.0
  0
SPLINE
  5
75
330
1F
100
AcDbEntity
  8
0
  6
Continuous
 62
     7
370
    25
100
AcDbSpline
210
0.0
220
0.0
230
1.0
 70
     8
 71
     3
 72
    23
 73
    19
 74
     0
 42
0.000000001
 43
0.00000001
 40
0.0
 40
0.0
 40
0.0
 40
0.0
 40
0.0717773941043755
 40
0.1384523732599304
 40
0.2023753716464096
 40
0.2621190043958383
 40
0.3202967851908163
 40
0.3755905416196553
 40
0.4300657535911842
 40
0.4852923832929293
 40
0.5401671282221274
 40
0.5960835149389329
 40
0.6545580870190612
 40
0.7160022195808871
 40
0.7807452699111895
 40
0.8489602334877214
 40
0.9218713698323663
 40
1.0
 40
1.0
 40
1.0
 40
1.0
 10
89.31662146586974
 20
94.6865087714068
 30
0.0
 10
89.35856336878928
 20
94.68750051395028
 30
0.0
 10
89.43946566498859
 20
94.68941349937586
 30
0.0
 10
89.5572354596717
 20
94.70199679199621
 30
0.0
 10
89.66636980346257
 20
94.72416806161752
 30
0.0
 10
89.76842769250149
 20
94.75439698876173
 30
0.0
 10
89.86180805820163
 20
94.79396126590383
 30
0.0
 10
89.94772075153142
 20
94.84194635727286
 30
0.0
 10
90.024757016955
 20
94.90032656281748
 30
0.0
 10
90.09482381765116
 20
94.96655498818498
 30
0.0
 10
90.15561347500848
 20
95.04250727969087
 30
0.0
 10
90.20869978650273
 20
95.12615390464572
 30
0.0
 10
90.25374361072846
 20
95.21884459888422
 30
0.0
 10
90.28750642997323
 20
95.32152896944457
 30
0.0
 10
90.31657755977207
 20
95.43139600459642
 30
0.0
 10
90.33755264058175
 20
95.55004940485998
 30
0.0
 10
90.34774013144201
 20
95.67789877015204
 30
0.0
 10
90.34999594205159
 20
95.76613124905228
 30
0.0
 10
90.35116280953899
 20
95.81177143290552
 30
0.0
  0
LINE
  5
76
330
1F
100
AcDbEntity
  8
0
  6
Continuous
 62
     7
370
    25
100
AcDbLine
 10
88.5797097088
 20
94.6865087714
 30
0.0
 11
89.3166214659
 21
94.6865087714
 31
0.0
  0
LINE
  5
77
330
1F
100
AcDbEntity
  8
0
  6
Continuous
 62
     7
370
    25
100
AcDbLine
 10
88.5797097088
 20
93.2604333192
 30
0.0
 11
88.5797097088
 21
94.6865087714
 31
0.0
  0
LINE
  5
78
330
1F
100
AcDbEntity
  8
0
  6
Continuous
 62
     7
370
    25
100
AcDbLine
 10
89.3500451093
 20
93.2604333192
 30
0.0
 11
88.5797097088
 21
93.2604333192
 31
0.0
  0
SPLINE
  5
79
330
1F
100
AcDbEntity
  8
0
  6
Continuous
 62
     7
370
    25
100
AcDbSpline
210
0.0
220
0.0
230
1.0
 70
     8
 71
     3
 72
    23
 73
    19
 74
     0
 42
0.000000001
 43
0.00000001
 40
0.0
 40
0.0
 40
0.0
 40
0.0
 40
0.0654612863078793
 40
0.1274741201242156
 40
0.186147454171977
 40
0.2423100542185422
 40
0.2964775765780244
 40
0.3499079608180541
 40
0.4028891892497943
 40
0.4568536259902855
 40
0.5128861225645015
 40
0.5707726032200601
 40
0.6318450945614791
 40
0.6965322041558102
 40
0.7653386539335173
 40
0.838328428027882
 40
0.9165886144994982
 40
1.0
 40
1.0
 40
1.0
 40
1.0
 10
92.39637146586973
 20
95.65738603238871
 30
0.0
 10
92.39467738664214
 20
95.56068768335912
 30
0.0
 10
92.39137847103662
 20
95.37238498331689
 30
0.0
 10
92.35300984303174
 20
95.09975593708364
 30
0.0
 10
92.29603322370825
 20
94.84455046351759
 30
0.0
 10
92.21063282929714
 20
94.60945237594132
 30
0.0
 10
92.10356344369114
 20
94.39220575698579
 30
0.0
 10
91.97301968614728
 20
94.19346618998166
 30
0.0
 10
91.81619440381314
 20
94.01521354895252
 30
0.0
 10
91.63626699797103
 20
93.85469106261307
 30
0.0
 10
91.43212595428207
 20
93.7130492038374
 30
0.0
 10
91.20334296008744
 20
93.59208621575934
 30
0.0
 10
90.95245353500148
 20
93.48837943684384
 30
0.0
 10
90.67732972979175
 20
93.40460365853454
 30
0.0
 10
90.37917159765027
 20
93.33984942522444
 30
0.0
 10
90.05728972741065
 20
93.29474284647861
 30
0.0
 10
89.71188333222125
 20
93.26535387958138
 30
0.0
 10
89.47319291120759
 20
93.26210797975074
 30
0.0
 10
89.3500451092806
 20
93.26043331921042
 30
0.0
  0
SPLINE
  5
7A
330
1F
100
AcDbEntity
  8
0
  6
Continuous
 62
     7
370
    25
100
AcDbSpline
210
0.0
220
0.0
230
1.0
 70
     8
 71
     3
 72
    23
 73
    19
 74
     0
 42
0.000000001
 43
0.00000001
 40
0.0
 40
0.0
 40
0.0
 40
0.0
 40
0.0591992976196074
 40
0.1163657147895312
 40
0.1724927683579047
 40
0.2275258313288636
 40
0.282354736627057
 40
0.3376355973593848
 40
0.3938281743747526
 40
0.4510191080750931
 40
0.5097011117019491
 40
0.5706073791439475
 40
0.6339367944748723
 40
0.6998849183054315
 40
0.769312344268706
 40
0.8422332883882875
 40
0.9188775195668534
 40
1.0
 40
1.0
 40
1.0
 40
1.0
 10
91.07693335217465
 20
97.74556794453343
 30
0.0
 10
91.12816608386207
 20
97.73165807996449
 30
0.0
 10
91.22887223550823
 20
97.70431601007054
 30
0.0
 10
91.37297240821567
 20
97.64754706009872
 30
0.0
 10
91.5085190290243
 20
97.58101529443266
 30
0.0
 10
91.63549180320541
 20
97.50291325800163
 30
0.0
 10
91.75190968957305
 20
97.41109604443406
 30
0.0
 10
91.86055600334825
 20
97.30884300680688
 30
0.0
 10
91.9612067104986
 20
97.1957477755354
 30
0.0
 10
92.05196221163415
 20
97.07083490026118
 30
0.0
 10
92.13409688681772
 20
96.9350557015126
 30
0.0
 10
92.20326921068889
 20
96.78616641140891
 30
0.0
 10
92.26405272819021
 20
96.62680686113495
 30
0.0
 10
92.31391381241366
 20
96.45558130588728
 30
0.0
 10
92.34922188333721
 20
96.2720865431688
 30
0.0
 10
92.3760090164342
 20
96.07764003193101
 30
0.0
 10
92.39472383779285
 20
95.87155178913902
 30
0.0
 10
92.3958119609575
 20
95.73011287809786
 30
0.0
 10
92.39637146586973
 20
95.65738603238871
 30
0.0
  0
SPLINE
  5
7B
330
1F
100
AcDbEntity
  8
0
  6
Continuous
 62
     7
370
    25
100
AcDbSpline
210
0.0
220
0.0
230
1.0
 70
     8
 71
     3
 72
    23
 73
    19
 74
     0
 42
0.000000001
 43
0.00000001
 40
0.0
 40
0.0
 40
0.0
 40
0.0
 40
0.0835443471781373
 40
0.1628117311592774
 40
0.237940256472859
 40
0.3085962142520737
 40
0.3757084647455111
 40
0.4396220743064002
 40
0.5004863709083633
 40
0.5586981369431958
 40
0.6147540807514321
 40
0.6690417161402008
 40
0.722692888867136
 40
0.7763781462729428
 40
0.8298471670883887
 40
0.8848895823885439
 40
0.9415478108394343
 40
1.0
 40
1.0
 40
1.0
 40
1.0
 10
92.25312727982322
 20
99.69528047683316
 30
0.0
 10
92.25230717321466
 20
99.6257492225342
 30
0.0
 10
92.25070894447525
 20
99.49024629188169
 30
0.0
 10
92.23552703926627
 20
99.29273745582005
 30
0.0
 10
92.21433840921206
 20
99.1065909580627
 30
0.0
 10
92.18235241772804
 20
98.93221905928002
 30
0.0
 10
92.14144085320707
 20
98.76927718715456
 30
0.0
 10
92.0898993552605
 20
98.61806168049687
 30
0.0
 10
92.03247793711206
 20
98.47674173280512
 30
0.0
 10
91.96100436162516
 20
98.34948430558688
 30
0.0
 10
91.8840093009184
 20
98.2319354802115
 30
0.0
 10
91.79464772968838
 20
98.12848530492136
 30
0.0
 10
91.6997904988332
 20
98.03280656059842
 30
0.0
 10
91.59250742634424
 20
97.95208039467346
 30
0.0
 10
91.47620140018367
 20
97.88329523366147
 30
0.0
 10
91.3520953352402
 20
97.82369626687424
 30
0.0
 10
91.21779018617882
 20
97.77773379571782
 30
0.0
 10
91.12437093368426
 20
97.75640071809514
 30
0.0
 10
91.07693335217465
 20
97.74556794453343
 30
0.0
  0
SPLINE
  5
7C
330
1F
100
AcDbEntity
  8
0
  6
Continuous
 62
     7
370
    25
100
AcDbSpline
210
0.0
220
0.0
230
1.0
 70
     8
 71
     3
 72
    23
 73
    19
 74
     0
 42
0.000000001
 43
0.00000001
 40
0.0
 40
0.0
 40
0.0
 40
0.0
 40
0.0842752245368891
 40
0.1632950672886614
 40
0.2373085813767376
 40
0.306694569777776
 40
0.3722278733712066
 40
0.4334505036142346
 40
0.4920182806470369
 40
0.547449812367119
 40
0.6014864637350037
 40
0.6547008821570648
 40
0.7077074358540826
 40
0.7613698788011877
 40
0.816521156870217
 40
0.874638673296876
 40
0.9353967868735428
 40
1.0
 40
1.0
 40
1.0
 40
1.0
 10
89.21794213770437
 20
102.0206110969882
 30
0.0
 10
89.3405500359474
 20
102.0187919815777
 30
0.0
 10
89.57812003476664
 20
102.0152671903358
 30
0.0
 10
89.92247595088645
 20
101.9878167497709
 30
0.0
 10
90.24330572420789
 20
101.9444629418591
 30
0.0
 10
90.54096023373906
 20
101.8811958653204
 30
0.0
 10
90.81428730694498
 20
101.7984195285891
 30
0.0
 10
91.0659725480517
 20
101.700581132262
 30
0.0
 10
91.29165056308334
 20
101.5809333754996
 30
0.0
 10
91.49523633851113
 20
101.4448075034489
 30
0.0
 10
91.67498797481338
 20
101.2898283107971
 30
0.0
 10
91.83025756567781
 20
101.1150616268926
 30
0.0
 10
91.96188890445117
 20
100.9225394803687
 30
0.0
 10
92.0689461190158
 20
100.7122331198808
 30
0.0
 10
92.15267411635877
 20
100.4835905845558
 30
0.0
 10
92.2095256322153
 20
100.2365019406518
 30
0.0
 10
92.24825991653306
 20
99.97184255369923
 30
0.0
 10
92.2514719850599
 20
99.78933381336904
 30
0.0
 10
92.25312727982322
 20
99.69528047683316
 30
0.0
  0
LINE
  5
7D
330
1F
100
AcDbEntity
  8
0
  6
Continuous
 62
     7
370
    25
100
AcDbLine
 10
88.5797097088
 20
102.020611097
 30
0.0
 11
89.2179421377
 21
102.020611097
 31
0.0
  0
LINE
  5
7E
330
1F
100
AcDbEntity
  8
0
  6
Continuous
 62
     7
370
    25
100
AcDbLine
 10
88.5797097088
 20
100.5945356448
 30
0.0
 11
88.5797097088
 21
102.020611097
 31
0.0
  0
LINE
  5
7F
330
1F
100
AcDbEntity
  8
0
  6
Continuous
 62
     7
370
    25
100
AcDbLine
 10
89.272056608
 20
100.5945356448
 30
0.0
 11
88.5797097088
 21
100.5945356448
 31
0.0
  0
SPLINE
  5
80
330
1F
100
AcDbEntity
  8
0
  6
Continuous
 62
     7
370
    25
100
AcDbSpline
210
0.0
220
0.0
230
1.0
 70
     8
 71
     3
 72
    23
 73
    19
 74
     0
 42
0.000000001
 43
0.00000001
 40
0.0
 40
0.0
 40
0.0
 40
0.0
 40
0.0829270578456753
 40
0.1604610220081268
 40
0.2328074370046682
 40
0.3011737058895823
 40
0.363167097876282
 40
0.4223027734058529
 40
0.477943102432085
 40
0.5312784915980369
 40
0.5826126622692241
 40
0.6348466740846612
 40
0.6881737419479381
 40
0.7429863905200425
 40
0.8013819914042236
 40
0.86290831554062
 40
0.9292852724111424
 40
1.0
 40
1.0
 40
1.0
 40
1.0
 10
90.20791862349247
 20
99.46768138122593
 30
0.0
 10
90.20750089682645
 20
99.51439519412773
 30
0.0
 10
90.20669261000793
 20
99.60478482514621
 30
0.0
 10
90.19503566201118
 20
99.73549100968636
 30
0.0
 10
90.17767766528809
 20
99.85720743013901
 30
0.0
 10
90.1546099872825
 20
99.9691033194708
 30
0.0
 10
90.12420777211503
 20
100.0715822234289
 30
0.0
 10
90.08594592155953
 20
100.163627141113
 30
0.0
 10
90.04174691364808
 20
100.2476098894003
 30
0.0
 10
89.98869614859821
 20
100.3209520733755
 30
0.0
 10
89.92899049908587
 20
100.3864571515827
 30
0.0
 10
89.85981506637873
 20
100.4418626582318
 30
0.0
 10
89.78327822141264
 20
100.4902663536746
 30
0.0
 10
89.69730127290337
 20
100.528372817034
 30
0.0
 10
89.60350247658761
 20
100.5587675975487
 30
0.0
 10
89.50034040817775
 20
100.5788188076435
 30
0.0
 10
89.38909830514972
 20
100.591681739677
 30
0.0
 10
89.31188488686463
 20
100.593564485525
 30
0.0
 10
89.27205660798859
 20
100.5945356447918
 30
0.0
  0
SPLINE
  5
81
330
1F
100
AcDbEntity
  8
0
  6
Continuous
 62
     7
370
    25
100
AcDbSpline
210
0.0
220
0.0
230
1.0
 70
     8
 71
     3
 72
    15
 73
    11
 74
     0
 42
0.000000001
 43
0.00000001
 40
0.0
 40
0.0
 40
0.0
 40
0.0
 40
0.1407398038586628
 40
0.2659071061007452
 40
0.3801739043772065
 40
0.4903787169527167
 40
0.6027327956261287
 40
0.7231448191325373
 40
0.8532817581221842
 40
1.0
 40
1.0
 40
1.0
 40
1.0
 10
89.27205660798859
 20
98.45542246649724
 30
0.0
 10
89.34613758983278
 20
98.45789026719596
 30
0.0
 10
89.48610268115173
 20
98.46255281271783
 30
0.0
 10
89.68105822707061
 20
98.51266414200468
 30
0.0
 10
89.8477097395719
 20
98.59389570607891
 30
0.0
 10
89.98154471763806
 20
98.71274524687671
 30
0.0
 10
90.0854791366093
 20
98.86178348300561
 30
0.0
 10
90.15777993659025
 20
99.0395521114864
 30
0.0
 10
90.20108186491201
 20
99.24492428264175
 30
0.0
 10
90.2055504928563
 20
99.3905223147806
 30
0.0
 10
90.20791862349247
 20
99.46768138122593
 30
0.0
  0
LINE
  5
82
330
1F
100
AcDbEntity
  8
0
  6
Continuous
 62
     7
370
    25
100
AcDbLine
 10
88.5797097088
 20
98.4554224665
 30
0.0
 11
89.272056608
 21
98.4554224665
 31
0.0
  0
LINE
  5
83
330
1F
100
AcDbEntity
  8
0
  6
Continuous
 62
     7
370
    25
100
AcDbLine
 10
88.5797097088
 20
97.0293470143
 30
0.0
 11
88.5797097088
 21
98.4554224665
 31
0.0
  0
LINE
  5
84
330
1F
100
AcDbEntity
  8
0
  6
Continuous
 62
     7
370
    25
100
AcDbLine
 10
88.2168244374
 20
93.2604333192
 30
0.0
 11
86.2257302514
 21
93.2604333192
 31
0.0
  0
LINE
  5
85
330
1F
100
AcDbEntity
  8
0
  6
Continuous
 62
     7
370
    25
100
AcDbLine
 10
88.2168244374
 20
102.020611097
 30
0.0
 11
88.2168244374
 21
93.2604333192
 31
0.0
  0
LINE
  5
86
330
1F
100
AcDbEntity
  8
0
  6
Continuous
 62
     7
370
    25
100
AcDbLine
 10
86.2257302514
 20
102.020611097
 30
0.0
 11
88.2168244374
 21
102.020611097
 31
0.0
  0
LINE
  5
87
330
1F
100
AcDbEntity
  8
0
  6
Continuous
 62
     7
370
    25
100
AcDbLine
 10
86.2257302514
 20
93.2604333192
 30
0.0
 11
86.2257302514
 21
102.020611097
 31
0.0
  0
LINE
  5
88
330
1F
100
AcDbEntity
  8
0
  6
Continuous
 62
     7
370
    25
100
AcDbLine
 10
177.6140785597
 20
119.8737125949
 30
0.0
 11
177.6140785597
 21
119.3271464975
 31
0.0
  0
SPLINE
  5
89
330
1F
100
AcDbEntity
  8
0
  6
Continuous
 62
     7
370
    25
100
AcDbSpline
210
0.0
220
0.0
230
1.0
 70
     8
 71
     3
 72
    23
 73
    19
 74
     0
 42
0.000000001
 43
0.00000001
 40
0.0
 40
0.0
 40
0.0
 40
0.0
 40
0.0842146660067164
 40
0.1628235302410221
 40
0.2361766000072625
 40
0.3045956676702086
 40
0.3681464557595164
 40
0.4281013542191214
 40
0.4845926045783792
 40
0.5383608334972784
 40
0.5910318670555333
 40
0.6437414597314077
 40
0.6968336861301365
 40
0.7517032270831921
 40
0.8088710910543505
 40
0.868750637705639
 40
0.9324587109395488
 40
1.0
 40
1.0
 40
1.0
 40
1.0
 10
174.434057629468
 20
122.5071674277376
 30
0.0
 10
174.5672178983193
 20
122.5048290897181
 30
0.0
 10
174.8246745396659
 20
122.500308066608
 30
0.0
 10
175.1973693601648
 20
122.4719164302828
 30
0.0
 10
175.5422978231495
 20
122.4204742490691
 30
0.0
 10
175.859617225586
 20
122.3499897213963
 30
0.0
 10
176.1489917277188
 20
122.2573927452975
 30
0.0
 10
176.4119876180742
 20
122.1469326656461
 30
0.0
 10
176.6450364820123
 20
122.0110586841676
 30
0.0
 10
176.8530337989095
 20
121.8578246196458
 30
0.0
 10
177.0323191730318
 20
121.6802065892861
 30
0.0
 10
177.1903198208621
 20
121.4849653748323
 30
0.0
 10
177.3220773674631
 20
121.2667579253529
 30
0.0
 10
177.4279657938511
 20
121.0275718565513
 30
0.0
 10
177.5138725501583
 20
120.7690459028084
 30
0.0
 10
177.5706897236645
 20
120.4884916939859
 30
0.0
 10
177.6093223051717
 20
120.1882546083565
 30
0.0
 10
177.6124625704184
 20
119.9805816700112
 30
0.0
 10
177.6140785597005
 20
119.8737125948887
 30
0.0
  0
LINE
  5
8A
330
1F
100
AcDbEntity
  8
0
  6
Continuous
 62
     7
370
    25
100
AcDbLine
 10
174.4340576295
 20
120.8840317446
 30
0.0
 11
174.4340576295
 21
122.5071674277
 31
0.0
  0
SPLINE
  5
8B
330
1F
100
AcDbEntity
  8
0
  6
Continuous
 62
     7
370
    25
100
AcDbSpline
210
0.0
220
0.0
230
1.0
 70
     8
 71
     3
 72
    15
 73
    11
 74
     0
 42
0.000000001
 43
0.00000001
 40
0.0
 40
0.0
 40
0.0
 40
0.0
 40
0.1320355297279747
 40
0.2506057617231393
 40
0.3616590038086773
 40
0.4683604851447979
 40
0.5795690465259369
 40
0.7017809412126963
 40
0.841464792194515
 40
1.0
 40
1.0
 40
1.0
 40
1.0
 10
175.3376399655467
 20
120.0154149164326
 30
0.0
 10
175.3337575810907
 20
120.0770877947537
 30
0.0
 10
175.3263887469903
 20
120.1941440044054
 30
0.0
 10
175.2806322708234
 20
120.357927373975
 30
0.0
 10
175.2127512638687
 20
120.5004465053184
 30
0.0
 10
175.1179325954007
 20
120.6231213992962
 30
0.0
 10
174.9921213607618
 20
120.7222845428975
 30
0.0
 10
174.8351970839955
 20
120.8004212356983
 30
0.0
 10
174.6452161557475
 20
120.8534885596208
 30
0.0
 10
174.5073488131351
 20
120.8734304858216
 30
0.0
 10
174.434057629468
 20
120.884031744598
 30
0.0
  0
LINE
  5
8C
330
1F
100
AcDbEntity
  8
0
  6
Continuous
 62
     7
370
    25
100
AcDbLine
 10
175.3376399655
 20
119.3271464975
 30
0.0
 11
175.3376399655
 21
120.0154149164
 31
0.0
  0
LINE
  5
8D
330
1F
100
AcDbEntity
  8
0
  6
Continuous
 62
     7
370
    25
100
AcDbLine
 10
177.6140785597
 20
119.3271464975
 30
0.0
 11
175.3376399655
 21
119.3271464975
 31
0.0
  0
SPLINE
  5
8E
330
1F
100
AcDbEntity
  8
0
  6
Continuous
 62
     7
370
    25
100
AcDbSpline
210
0.0
220
0.0
230
1.0
 70
     8
 71
     3
 72
    15
 73
    11
 74
     0
 42
0.000000001
 43
0.00000001
 40
0.0
 40
0.0
 40
0.0
 40
0.0
 40
0.1294708282704561
 40
0.2450288346174018
 40
0.3526104018260545
 40
0.4593747819051147
 40
0.5740082111616421
 40
0.6981770995570754
 40
0.8392196019288171
 40
1.0
 40
1.0
 40
1.0
 40
1.0
 10
175.3762860532405
 20
116.3550783248629
 30
0.0
 10
175.373639853538
 20
116.4130068820482
 30
0.0
 10
175.3686318124377
 20
116.522639044349
 30
0.0
 10
175.3264597280705
 20
116.6762906548338
 30
0.0
 10
175.2524459894234
 20
116.8055088103238
 30
0.0
 10
175.1494137546877
 20
116.9126741507073
 30
0.0
 10
175.0157605817431
 20
116.9931205106049
 30
0.0
 10
174.8549128887316
 20
117.0497737032477
 30
0.0
 10
174.6668061158974
 20
117.0846561997172
 30
0.0
 10
174.5317602988958
 20
117.0877212470457
 30
0.0
 10
174.4598216879305
 20
117.0893539910451
 30
0.0
  0
LINE
  5
8F
330
1F
100
AcDbEntity
  8
0
  6
Continuous
 62
     7
370
    25
100
AcDbLine
 10
175.3762860532
 20
114.7705887294
 30
0.0
 11
175.3762860532
 21
116.3550783249
 31
0.0
  0
SPLINE
  5
90
330
1F
100
AcDbEntity
  8
0
  6
Continuous
 62
     7
370
    25
100
AcDbSpline
210
0.0
220
0.0
230
1.0
 70
     8
 71
     3
 72
    15
 73
    11
 74
     0
 42
0.000000001
 43
0.00000001
 40
0.0
 40
0.0
 40
0.0
 40
0.0
 40
0.1495757418160831
 40
0.2816901475361399
 40
0.4013827531447061
 40
0.5114033441249787
 40
0.6206422513796775
 40
0.7346069530351794
 40
0.8593116664658373
 40
1.0
 40
1.0
 40
1.0
 40
1.0
 10
174.332841685508
 20
113.7915545078409
 30
0.0
 10
174.4146796947686
 20
113.7938202502951
 30
0.0
 10
174.568802018501
 20
113.7980872344894
 30
0.0
 10
174.7845943462965
 20
113.8442182025017
 30
0.0
 10
174.9684773685916
 20
113.9204545601415
 30
0.0
 10
175.1200239206858
 20
114.030370752468
 30
0.0
 10
175.2363638188691
 20
114.1727670551016
 30
0.0
 10
175.3210566627055
 20
114.344781974946
 30
0.0
 10
175.3676308798556
 20
114.5485845866465
 30
0.0
 10
175.3732874377451
 20
114.6936746073126
 30
0.0
 10
175.3762860532405
 20
114.7705887294171
 30
0.0
  0
LINE
  5
91
330
1F
100
AcDbEntity
  8
0
  6
Continuous
 62
     7
370
    25
100
AcDbLine
 10
174.3328416855
 20
112.1426547662
 30
0.0
 11
174.3328416855
 21
113.7915545078
 31
0.0
  0
SPLINE
  5
92
330
1F
100
AcDbEntity
  8
0
  6
Continuous
 62
     7
370
    25
100
AcDbSpline
210
0.0
220
0.0
230
1.0
 70
     8
 71
     3
 72
    23
 73
    19
 74
     0
 42
0.000000001
 43
0.00000001
 40
0.0
 40
0.0
 40
0.0
 40
0.0
 40
0.0680359742355555
 40
0.1320607758859584
 40
0.193018235598679
 40
0.250622488227856
 40
0.3064942462150883
 40
0.3606221978603151
 40
0.4144631105830493
 40
0.4685620483271306
 40
0.5237651598456701
 40
0.5808695314093958
 40
0.6410833597930753
 40
0.704414578718694
 40
0.7716309097916564
 40
0.8430129880212774
 40
0.9190505727638132
 40
1.0
 40
1.0
 40
1.0
 40
1.0
 10
177.6656066766256
 20
114.9398953993138
 30
0.0
 10
177.6632468902788
 20
114.8269174807533
 30
0.0
 10
177.6586664426645
 20
114.6076224423458
 30
0.0
 10
177.620017897335
 20
114.2888682425862
 30
0.0
 10
177.5538130237723
 20
113.9926266450135
 30
0.0
 10
177.4640212755846
 20
113.7167337240611
 30
0.0
 10
177.3463612858351
 20
113.4637313184225
 30
0.0
 10
177.2009652600292
 20
113.233059604686
 30
0.0
 10
177.030996428672
 20
113.0235864349393
 30
0.0
 10
176.8341375056335
 20
112.8365016621845
 30
0.0
 10
176.6114989730637
 20
112.6717579395165
 30
0.0
 10
176.3621000879602
 20
112.5298191421344
 30
0.0
 10
176.0874753604545
 20
112.4078361887308
 30
0.0
 10
175.7851546356116
 20
112.3120229976736
 30
0.0
 10
175.4588212564603
 20
112.2336564515569
 30
0.0
 10
175.1058073198498
 20
112.1827338381014
 30
0.0
 10
174.7279621174434
 20
112.1482645604576
 30
0.0
 10
174.4672673865903
 20
112.1445632995867
 30
0.0
 10
174.332841685508
 20
112.1426547662388
 30
0.0
  0
LINE
  5
93
330
1F
100
AcDbEntity
  8
0
  6
Continuous
 62
     7
370
    25
100
AcDbLine
 10
177.6656066766
 20
116.4654957183
 30
0.0
 11
177.6656066766
 21
114.9398953993
 31
0.0
  0
SPLINE
  5
94
330
1F
100
AcDbEntity
  8
0
  6
Continuous
 62
     7
370
    25
100
AcDbSpline
210
0.0
220
0.0
230
1.0
 70
     8
 71
     3
 72
    23
 73
    19
 74
     0
 42
0.000000001
 43
0.00000001
 40
0.0
 40
0.0
 40
0.0
 40
0.0
 40
0.0842901177381428
 40
0.1632334500019502
 40
0.2370964999386022
 40
0.3057517131563747
 40
0.369482270015008
 40
0.429324896870055
 40
0.4858684267982396
 40
0.5391661120228809
 40
0.5909623817467413
 40
0.642841366741633
 40
0.6955057736323095
 40
0.7497721158790875
 40
0.8068759166560959
 40
0.8670917544100302
 40
0.9314166459979882
 40
1.0
 40
1.0
 40
1.0
 40
1.0
 10
174.9677416976204
 20
118.6204751796755
 30
0.0
 10
175.0794328658229
 20
118.6193033828284
 30
0.0
 10
175.2957302825269
 20
118.6170341198687
 30
0.0
 10
175.6091354886033
 20
118.5927889741001
 30
0.0
 10
175.9000975387367
 20
118.5534221118786
 30
0.0
 10
176.1675695863307
 20
118.496326435678
 30
0.0
 10
176.4124078531926
 20
118.4252507867655
 30
0.0
 10
176.6346407854064
 20
118.3371187375569
 30
0.0
 10
176.8339278305082
 20
118.2322820512893
 30
0.0
 10
177.0120807896833
 20
118.1122946923727
 30
0.0
 10
177.1660898053189
 20
117.9716930680508
 30
0.0
 10
177.3025544635987
 20
117.8150166737469
 30
0.0
 10
177.4145253930983
 20
117.6360272847482
 30
0.0
 10
177.5074792541089
 20
117.4390530169697
 30
0.0
 10
177.5784281069143
 20
117.2225574776129
 30
0.0
 10
177.630341541959
 20
116.9871714487397
 30
0.0
 10
177.6586917750745
 20
116.732414934331
 30
0.0
 10
177.6632529946759
 20
116.5563492085525
 30
0.0
 10
177.6656066766256
 20
116.4654957182737
 30
0.0
  0
SPLINE
  5
95
330
1F
100
AcDbEntity
  8
0
  6
Continuous
 62
     7
370
    25
100
AcDbSpline
210
0.0
220
0.0
230
1.0
 70
     8
 71
     3
 72
    15
 73
    11
 74
     0
 42
0.000000001
 43
0.00000001
 40
0.0
 40
0.0
 40
0.0
 40
0.0
 40
0.1217959550244968
 40
0.2431132180581012
 40
0.3632471410348092
 40
0.4851624753776274
 40
0.6090234304343431
 40
0.7357276858183918
 40
0.8651609598898743
 40
1.0
 40
1.0
 40
1.0
 40
1.0
 10
172.9839091960054
 20
117.9653319787712
 30
0.0
 10
173.0530006315468
 20
118.0174504928177
 30
0.0
 10
173.1909119540642
 20
118.1214826806496
 30
0.0
 10
173.4119662685843
 20
118.2554225698152
 30
0.0
 10
173.6441251441915
 20
118.3688900327198
 30
0.0
 10
173.8876440430639
 20
118.4606977872388
 30
0.0
 10
174.1425714786599
 20
118.5324720196108
 30
0.0
 10
174.4077708071202
 20
118.5841996327772
 30
0.0
 10
174.6842936461496
 20
118.6134720504707
 30
0.0
 10
174.8719792925412
 20
118.6181091852993
 30
0.0
 10
174.9677416976204
 20
118.6204751796755
 30
0.0
  0
LINE
  5
96
330
1F
100
AcDbEntity
  8
0
  6
Continuous
 62
     7
370
    25
100
AcDbLine
 10
172.983909196
 20
120.0006925973
 30
0.0
 11
172.983909196
 21
117.9653319788
 31
0.0
  0
SPLINE
  5
97
330
1F
100
AcDbEntity
  8
0
  6
Continuous
 62
     7
370
    25
100
AcDbSpline
210
0.0
220
0.0
230
1.0
 70
     8
 71
     3
 72
    15
 73
    11
 74
     0
 42
0.000000001
 43
0.00000001
 40
0.0
 40
0.0
 40
0.0
 40
0.0
 40
0.1613953674658487
 40
0.3040132375773451
 40
0.4309298316901175
 40
0.5432960912066314
 40
0.6507185789167178
 40
0.7583161849111906
 40
0.873168200681469
 40
0.9999999999999999
 40
0.9999999999999999
 40
0.9999999999999999
 40
0.9999999999999999
 10
174.078881680663
 20
120.8582676861355
 30
0.0
 10
173.9934446683683
 20
120.8562601903874
 30
0.0
 10
173.8325107882671
 20
120.8524787604036
 30
0.0
 10
173.6069604727944
 20
120.8126192547231
 30
0.0
 10
173.4154930232141
 20
120.7455755523811
 30
0.0
 10
173.2553620255862
 20
120.6527132869294
 30
0.0
 10
173.132840653481
 20
120.5274404960092
 30
0.0
 10
173.0437322005856
 20
120.3755694168045
 30
0.0
 10
172.9917156989219
 20
120.1959873009187
 30
0.0
 10
172.9865959554603
 20
120.0679070590261
 30
0.0
 10
172.9839091960054
 20
120.0006925973112
 30
0.0
  0
LINE
  5
98
330
1F
100
AcDbEntity
  8
0
  6
Continuous
 62
     7
370
    25
100
AcDbLine
 10
174.0788816807
 20
122.5071674277
 30
0.0
 11
174.0788816807
 21
120.8582676861
 31
0.0
  0
SPLINE
  5
99
330
1F
100
AcDbEntity
  8
0
  6
Continuous
 62
     7
370
    25
100
AcDbSpline
210
0.0
220
0.0
230
1.0
 70
     8
 71
     3
 72
    23
 73
    19
 74
     0
 42
0.000000001
 43
0.00000001
 40
0.0
 40
0.0
 40
0.0
 40
0.0
 40
0.0635173511154199
 40
0.1237454827767026
 40
0.1804902036406733
 40
0.2351677301788295
 40
0.288690381275775
 40
0.3410871013901521
 40
0.3938562620342936
 40
0.4478465349580185
 40
0.5036196790571623
 40
0.5620945549697216
 40
0.6240711493471408
 40
0.6897647207054478
 40
0.7600945147674922
 40
0.834974560988186
 40
0.9147268112640212
 40
1.0
 40
1.0
 40
1.0
 40
1.0
 10
170.6945885726204
 20
119.9822896984094
 30
0.0
 10
170.6967694583946
 20
120.084262862706
 30
0.0
 10
170.7010182936856
 20
120.282928553648
 30
0.0
 10
170.742310411352
 20
120.5703062890888
 30
0.0
 10
170.8084237724989
 20
120.8381318306322
 30
0.0
 10
170.9004211389394
 20
121.0869762280253
 30
0.0
 10
171.0199653434861
 20
121.316154868542
 30
0.0
 10
171.1676448361653
 20
121.5244092719498
 30
0.0
 10
171.3396913593421
 20
121.7140823859719
 30
0.0
 10
171.5403088423451
 20
121.8819468965978
 30
0.0
 10
171.7670611173483
 20
122.0293659779441
 30
0.0
 10
172.0189304222006
 20
122.1590106794476
 30
0.0
 10
172.2980349349633
 20
122.2668191526388
 30
0.0
 10
172.6037251531611
 20
122.3545252875483
 30
0.0
 10
172.9351931405974
 20
122.4242217462465
 30
0.0
 10
173.2931074581219
 20
122.4729095380402
 30
0.0
 10
173.6771847973712
 20
122.5027749221147
 30
0.0
 10
173.9420292558143
 20
122.5056709634366
 30
0.0
 10
174.078881680663
 20
122.5071674277376
 30
0.0
  0
LINE
  5
9A
330
1F
100
AcDbEntity
  8
0
  6
Continuous
 62
     7
370
    25
100
AcDbLine
 10
170.6945885726
 20
115.0355904736
 30
0.0
 11
170.6945885726
 21
119.9822896984
 31
0.0
  0
SPLINE
  5
9B
330
1F
100
AcDbEntity
  8
0
  6
Continuous
 62
     7
370
    25
100
AcDbSpline
210
0.0
220
0.0
230
1.0
 70
     8
 71
     3
 72
    23
 73
    19
 74
     0
 42
0.000000001
 43
0.00000001
 40
0.0
 40
0.0
 40
0.0
 40
0.0
 40
0.07990231581241
 40
0.1549563256695078
 40
0.2250544898015078
 40
0.2906918475183344
 40
0.3528571157888488
 40
0.4114774307773492
 40
0.4672118730777846
 40
0.5211167854806414
 40
0.5742449741977078
 40
0.6272804456787061
 40
0.681572615410079
 40
0.7384176971351013
 40
0.7980537180164669
 40
0.8609253599306405
 40
0.9281060174227572
 40
1.0
 40
1.0
 40
1.0
 40
1.0
 10
173.9887074760442
 20
112.1426547662388
 30
0.0
 10
173.8542819391821
 20
112.1445668259252
 30
0.0
 10
173.5935875268048
 20
112.148274925502
 30
0.0
 10
173.2163444736437
 20
112.1826412144659
 30
0.0
 10
172.8651160084748
 20
112.2334254789648
 30
0.0
 10
172.5413019572177
 20
112.3122098890012
 30
0.0
 10
172.2423404789292
 20
112.4079382208408
 30
0.0
 10
171.9699426350455
 20
112.5275966223764
 30
0.0
 10
171.7247375337114
 20
112.6701205949445
 30
0.0
 10
171.5052280322791
 20
112.8348130485499
 30
0.0
 10
171.3118590225696
 20
113.0234586184898
 30
0.0
 10
171.1473497847164
 20
113.2383080356593
 30
0.0
 10
171.0052307873334
 20
113.4759391430156
 30
0.0
 10
170.8929269883507
 20
113.7410286017432
 30
0.0
 10
170.8014777926242
 20
114.0290679200804
 30
0.0
 10
170.7410815096314
 20
114.3428524865127
 30
0.0
 10
170.7011214468409
 20
114.6806075117918
 30
0.0
 10
170.6968148484499
 20
114.9146192194351
 30
0.0
 10
170.6945885726204
 20
115.0355904736032
 30
0.0
  0
LINE
  5
9C
330
1F
100
AcDbEntity
  8
0
  6
Continuous
 62
     7
370
    25
100
AcDbLine
 10
173.988707476
 20
113.75474871
 30
0.0
 11
173.988707476
 21
112.1426547662
 31
0.0
  0
SPLINE
  5
9D
330
1F
100
AcDbEntity
  8
0
  6
Continuous
 62
     7
370
    25
100
AcDbSpline
210
0.0
220
0.0
230
1.0
 70
     8
 71
     3
 72
    15
 73
    11
 74
     0
 42
0.000000001
 43
0.00000001
 40
0.0
 40
0.0
 40
0.0
 40
0.0
 40
0.1308421409526353
 40
0.2495448006707678
 40
0.3590114686087235
 40
0.466222141786536
 40
0.5772346168074076
 40
0.7012627851747155
 40
0.8402227226255484
 40
1.0
 40
1.0
 40
1.0
 40
1.0
 10
172.9839091960054
 20
114.7411440911742
 30
0.0
 10
172.9864501823388
 20
114.672191741665
 30
0.0
 10
172.991296403315
 20
114.5406844139126
 30
0.0
 10
173.0354203716449
 20
114.3553858612452
 30
0.0
 10
173.1105449617286
 20
114.194363183974
 30
0.0
 10
173.2157053589179
 20
114.0556278790148
 30
0.0
 10
173.3579045341849
 20
113.942175010073
 30
0.0
 10
173.5357710227413
 20
113.8550761896284
 30
0.0
 10
173.7498783886513
 20
113.7911127997764
 30
0.0
 10
173.9054833642862
 20
113.7674204038476
 30
0.0
 10
173.9887074760442
 20
113.7547487100373
 30
0.0
  0
LINE
  5
9E
330
1F
100
AcDbEntity
  8
0
  6
Continuous
 62
     7
370
    25
100
AcDbLine
 10
172.983909196
 20
116.4949403565
 30
0.0
 11
172.983909196
 21
114.7411440912
 31
0.0
  0
SPLINE
  5
9F
330
1F
100
AcDbEntity
  8
0
  6
Continuous
 62
     7
370
    25
100
AcDbSpline
210
0.0
220
0.0
230
1.0
 70
     8
 71
     3
 72
    15
 73
    11
 74
     0
 42
0.000000001
 43
0.00000001
 40
0.0
 40
0.0
 40
0.0
 40
0.0
 40
0.171916508153699
 40
0.324853912537878
 40
0.4618388942121749
 40
0.5830122834166104
 40
0.6920298126586877
 40
0.7947152727604841
 40
0.8958274278649127
 40
1.0
 40
1.0
 40
1.0
 40
1.0
 10
174.4598216879305
 20
117.0893539910451
 30
0.0
 10
174.3628442853739
 20
117.0882712483965
 30
0.0
 10
174.1795955154529
 20
117.0862252948727
 30
0.0
 10
173.9199187892392
 20
117.0624383096809
 30
0.0
 10
173.6911479569367
 20
117.0231875192611
 30
0.0
 10
173.4912148570519
 20
116.967443672777
 30
0.0
 10
173.3188954930184
 20
116.8904773558286
 30
0.0
 10
173.1749278320882
 20
116.7859884704126
 30
0.0
 10
173.0616195537823
 20
116.6517033906757
 30
0.0
 10
173.0100688240624
 20
116.5477114771755
 30
0.0
 10
172.9839091960054
 20
116.4949403565166
 30
0.0
  0
SPLINE
  5
A0
330
1F
100
AcDbEntity
  8
0
  6
Continuous
 62
     7
370
    25
100
AcDbSpline
210
0.0
220
0.0
230
1.0
 70
     8
 71
     3
 72
    23
 73
    19
 74
     0
 42
0.000000001
 43
0.00000001
 40
0.0
 40
0.0
 40
0.0
 40
0.0
 40
0.0731434943858804
 40
0.1417200532775954
 40
0.2064875524599859
 40
0.2679545950147534
 40
0.3267155475231557
 40
0.3831615682708814
 40
0.4381640062569112
 40
0.4924522253857444
 40
0.547344173016366
 40
0.6032343089946514
 40
0.6609565793497146
 40
0.7214986247385853
 40
0.7849154458008906
 40
0.8524172615329573
 40
0.9239056843468288
 40
1.0
 40
1.0
 40
1.0
 40
1.0
 10
162.7997449437444
 20
119.1375966388164
 30
0.0
 10
162.8025069103516
 20
119.2738969389471
 30
0.0
 10
162.8078583918199
 20
119.5379872173576
 30
0.0
 10
162.850861669443
 20
119.9208191877196
 30
0.0
 10
162.9198197844231
 20
120.277582345598
 30
0.0
 10
163.0172409518908
 20
120.6087451814612
 30
0.0
 10
163.1417312403851
 20
120.9142142426953
 30
0.0
 10
163.295954932564
 20
121.1920359573909
 30
0.0
 10
163.4744234503811
 20
121.4449793083464
 30
0.0
 10
163.6836011714512
 20
121.6692769068163
 30
0.0
 10
163.9179585042109
 20
121.8694863277058
 30
0.0
 10
164.1816017944016
 20
122.0415851793651
 30
0.0
 10
164.4735149054096
 20
122.1846101326961
 30
0.0
 10
164.7905526675328
 20
122.3045464429716
 30
0.0
 10
165.1358053941956
 20
122.3967874277868
 30
0.0
 10
165.5081297535121
 20
122.4585206191269
 30
0.0
 10
165.907015524969
 20
122.5011198685053
 30
0.0
 10
166.1820771087594
 20
122.5051100647999
 30
0.0
 10
166.3239000834408
 20
122.5071674277376
 30
0.0
  0
LINE
  5
A1
330
1F
100
AcDbEntity
  8
0
  6
Continuous
 62
     7
370
    25
100
AcDbLine
 10
165.0651417986
 20
119.1375966388
 30
0.0
 11
162.7997449437
 21
119.1375966388
 31
0.0
  0
LINE
  5
A2
330
1F
100
AcDbEntity
  8
0
  6
Continuous
 62
     7
370
    25
100
AcDbLine
 10
165.1019475964
 20
119.6528778081
 30
0.0
 11
165.0651417986
 21
119.1375966388
 31
0.0
  0
SPLINE
  5
A3
330
1F
100
AcDbEntity
  8
0
  6
Continuous
 62
     7
370
    25
100
AcDbSpline
210
0.0
220
0.0
230
1.0
 70
     8
 71
     3
 72
    23
 73
    19
 74
     0
 42
0.000000001
 43
0.00000001
 40
0.0
 40
0.0
 40
0.0
 40
0.0
 40
0.0770799982090173
 40
0.1498829137700304
 40
0.2178456321191058
 40
0.2813898393087308
 40
0.3415933584457006
 40
0.3983899683361637
 40
0.4524964807387741
 40
0.5047405529809743
 40
0.5566690435242557
 40
0.6092580683700095
 40
0.6648258655802899
 40
0.7225696292642251
 40
0.7845887364675799
 40
0.8518097337425763
 40
0.9228933498769747
 40
1.0
 40
1.0
 40
1.0
 40
1.0
 10
166.3754282003659
 20
120.8582676861355
 30
0.0
 10
166.3232575758996
 20
120.8577404535755
 30
0.0
 10
166.2218112164044
 20
120.8567152439989
 30
0.0
 10
166.0748445472506
 20
120.843690482426
 30
0.0
 10
165.9381013320608
 20
120.8222722521412
 30
0.0
 10
165.812273570893
 20
120.7902351977731
 30
0.0
 10
165.6958676106447
 20
120.7526483298071
 30
0.0
 10
165.5902411674555
 20
120.7046069489347
 30
0.0
 10
165.4953832473593
 20
120.6475342251918
 30
0.0
 10
165.411803925569
 20
120.5801548963829
 30
0.0
 10
165.3369193161987
 20
120.5045850865986
 30
0.0
 10
165.2735400129937
 20
120.4161712954066
 30
0.0
 10
165.2211964318309
 20
120.3166412109273
 30
0.0
 10
165.1756814903118
 20
120.2067941221208
 30
0.0
 10
165.1435852621439
 20
120.0840897301752
 30
0.0
 10
165.1202136309176
 20
119.950496641077
 30
0.0
 10
165.1051462751157
 20
119.8053418822028
 30
0.0
 10
165.1030423268505
 20
119.7050578121682
 30
0.0
 10
165.1019475963607
 20
119.652877808067
 30
0.0
  0
SPLINE
  5
A4
330
1F
100
AcDbEntity
  8
0
  6
Continuous
 62
     7
370
    25
100
AcDbSpline
210
0.0
220
0.0
230
1.0
 70
     8
 71
     3
 72
    15
 73
    11
 74
     0
 42
0.000000001
 43
0.00000001
 40
0.0
 40
0.0
 40
0.0
 40
0.0
 40
0.1659136286416198
 40
0.3115511126813981
 40
0.4393563063045584
 40
0.5544010273645364
 40
0.6606462056105918
 40
0.7655389070523995
 40
0.8774169363358659
 40
0.9999999999999999
 40
0.9999999999999999
 40
0.9999999999999999
 40
0.9999999999999999
 10
167.3673444511734
 20
119.5166963561936
 30
0.0
 10
167.3653002806223
 20
119.6218175615937
 30
0.0
 10
167.3614617556325
 20
119.8192132112274
 30
0.0
 10
167.3133350510942
 20
120.094233200689
 30
0.0
 10
167.2376895292026
 20
120.3291639819516
 30
0.0
 10
167.1296334682669
 20
120.5242062652835
 30
0.0
 10
166.9850161121961
 20
120.6748828505138
 30
0.0
 10
166.8093386212378
 20
120.7830735937234
 30
0.0
 10
166.6020359911356
 20
120.8491354079603
 30
0.0
 10
166.4532288777564
 20
120.8551323242588
 30
0.0
 10
166.3754282003659
 20
120.8582676861355
 30
0.0
  0
SPLINE
  5
A5
330
1F
100
AcDbEntity
  8
0
  6
Continuous
 62
     7
370
    25
100
AcDbSpline
210
0.0
220
0.0
230
1.0
 70
     8
 71
     3
 72
    23
 73
    19
 74
     0
 42
0.000000001
 43
0.00000001
 40
0.0
 40
0.0
 40
0.0
 40
0.0
 40
0.0892289898708231
 40
0.1736431510098963
 40
0.2538021952002888
 40
0.3288801933948827
 40
0.3999173325822986
 40
0.466612281204667
 40
0.5287773711635523
 40
0.5873877585070811
 40
0.6431214563016199
 40
0.6962943281842771
 40
0.7485029989718259
 40
0.7991602906691565
 40
0.8494730737311201
 40
0.8994481322419209
 40
0.9491323241034613
 40
1.0
 40
1.0
 40
1.0
 40
1.0
 10
165.2804557157082
 20
117.1390418180799
 30
0.0
 10
165.3678983927259
 20
117.1856736990804
 30
0.0
 10
165.5380653081205
 20
117.2764211878301
 30
0.0
 10
165.7812132220571
 20
117.419061027335
 30
0.0
 10
166.0075133157881
 20
117.5592495542592
 30
0.0
 10
166.2142908989098
 20
117.7021471282367
 30
0.0
 10
166.4042392603864
 20
117.8428972104829
 30
0.0
 10
166.5750134852046
 20
117.9848421372193
 30
0.0
 10
166.7296140420469
 20
118.1244636655188
 30
0.0
 10
166.8644661045651
 20
118.266991281006
 30
0.0
 10
166.9828654094446
 20
118.4106550510271
 30
0.0
 10
167.0857163785363
 20
118.5573666744169
 30
0.0
 10
167.1714145889323
 20
118.7081850200642
 30
0.0
 10
167.2449447757419
 20
118.8618167543669
 30
0.0
 10
167.3001469506014
 20
119.0205203950127
 30
0.0
 10
167.3380180155032
 20
119.1828525651312
 30
0.0
 10
167.3638242365143
 20
119.3484071126545
 30
0.0
 10
167.3661618750406
 20
119.4601614962237
 30
0.0
 10
167.3673444511734
 20
119.5166963561936
 30
0.0
  0
SPLINE
  5
A6
330
1F
100
AcDbEntity
  8
0
  6
Continuous
 62
     7
370
    25
100
AcDbSpline
210
0.0
220
0.0
230
1.0
 70
     8
 71
     3
 72
    15
 73
    11
 74
     0
 42
0.000000001
 43
0.00000001
 40
0.0
 40
0.0
 40
0.0
 40
0.0
 40
0.1240729431169455
 40
0.2459178118730558
 40
0.3666345983241937
 40
0.48722018928699
 40
0.6096713115187825
 40
0.7354710367761094
 40
0.8648314909944366
 40
1.0
 40
1.0
 40
1.0
 40
1.0
 10
162.7500571167095
 20
114.2792313287388
 30
0.0
 10
162.8087186748174
 20
114.4300677109993
 30
0.0
 10
162.9249883597991
 20
114.7290317892624
 30
0.0
 10
163.1454477200217
 20
115.1543793569366
 30
0.0
 10
163.4050730513967
 20
115.5510027468433
 30
0.0
 10
163.6985871887555
 20
115.9244663433418
 30
0.0
 10
164.0347040191622
 20
116.2694787041033
 30
0.0
 10
164.4086217113159
 20
116.5906716937582
 30
0.0
 10
164.8259874923865
 20
116.8836064720148
 30
0.0
 10
165.1267649960893
 20
117.0526594482282
 30
0.0
 10
165.2804557157082
 20
117.1390418180799
 30
0.0
  0
LINE
  5
A7
330
1F
100
AcDbEntity
  8
0
  6
Continuous
 62
     7
370
    25
100
AcDbLine
 10
165.3945536889
 20
114.2792313287
 30
0.0
 11
162.7500571167
 21
114.2792313287
 31
0.0
  0
SPLINE
  5
A8
330
1F
100
AcDbEntity
  8
0
  6
Continuous
 62
     7
370
    25
100
AcDbSpline
210
0.0
220
0.0
230
1.0
 70
     8
 71
     3
 72
    15
 73
    11
 74
     0
 42
0.000000001
 43
0.00000001
 40
0.0
 40
0.0
 40
0.0
 40
0.0
 40
0.1561021175735033
 40
0.301414238018254
 40
0.4352518363190784
 40
0.5599837778515291
 40
0.6775136166028751
 40
0.7879722246351302
 40
0.8950149462029106
 40
0.9999999999999999
 40
0.9999999999999999
 40
0.9999999999999999
 40
0.9999999999999999
 10
167.4685603951333
 20
116.5335864442104
 30
0.0
 10
167.323074373324
 20
116.4555005187745
 30
0.0
 10
167.0421585274174
 20
116.3047260764987
 30
0.0
 10
166.6579879675826
 20
116.0502845325745
 30
0.0
 10
166.3207894564321
 20
115.7873340287293
 30
0.0
 10
166.0349739350065
 20
115.5097955642654
 30
0.0
 10
165.7969896377637
 20
115.221293264629
 30
0.0
 10
165.6107480245465
 20
114.9191054159919
 30
0.0
 10
165.4690729539913
 20
114.60677050338
 30
0.0
 10
165.4192322139776
 20
114.3877023895513
 30
0.0
 10
165.3945536888994
 20
114.2792313287388
 30
0.0
  0
SPLINE
  5
A9
330
1F
100
AcDbEntity
  8
0
  6
Continuous
 62
     7
370
    25
100
AcDbSpline
210
0.0
220
0.0
230
1.0
 70
     8
 71
     3
 72
    23
 73
    19
 74
     0
 42
0.000000001
 43
0.00000001
 40
0.0
 40
0.0
 40
0.0
 40
0.0
 40
0.0711269433144189
 40
0.1394124729369526
 40
0.2051115654187459
 40
0.2684136705623998
 40
0.3299846468489911
 40
0.3896764698064219
 40
0.4477902698635528
 40
0.5052339023397405
 40
0.5620174468210559
 40
0.6198509471661627
 40
0.6784373866492317
 40
0.7384874800818505
 40
0.8003428364820024
 40
0.8644205744270403
 40
0.9307946175170961
 40
0.9999999999999999
 40
0.9999999999999999
 40
0.9999999999999999
 40
0.9999999999999999
 10
169.5168030429046
 20
119.9859702781897
 30
0.0
 10
169.5154023270231
 20
119.8847182181593
 30
0.0
 10
169.5126568517387
 20
119.6862589645905
 30
0.0
 10
169.490761939676
 20
119.3948868287943
 30
0.0
 10
169.4519732792448
 20
119.1165803284399
 30
0.0
 10
169.3986160001018
 20
118.8504449638577
 30
0.0
 10
169.3309089109914
 20
118.5964010129987
 30
0.0
 10
169.2480848886136
 20
118.3546433266715
 30
0.0
 10
169.1502700223066
 20
118.1249182658876
 30
0.0
 10
169.0364394566927
 20
117.9072460442462
 30
0.0
 10
168.9037541137136
 20
117.701069826559
 30
0.0
 10
168.7553027833087
 20
117.5038853234964
 30
0.0
 10
168.5864513391939
 20
117.3174614275748
 30
0.0
 10
168.3998057876952
 20
117.1406562995233
 30
0.0
 10
168.1953752534629
 20
116.9719144485904
 30
0.0
 10
167.9691620460597
 20
116.8174714572397
 30
0.0
 10
167.7285705157105
 20
116.6657274505596
 30
0.0
 10
167.5564287287993
 20
116.5782424368736
 30
0.0
 10
167.4685603951333
 20
116.5335864442104
 30
0.0
  0
SPLINE
  5
AA
330
1F
100
AcDbEntity
  8
0
  6
Continuous
 62
     7
370
    25
100
AcDbSpline
210
0.0
220
0.0
230
1.0
 70
     8
 71
     3
 72
    23
 73
    19
 74
     0
 42
0.000000001
 43
0.00000001
 40
0.0
 40
0.0
 40
0.0
 40
0.0
 40
0.0831578907231089
 40
0.1614026070127864
 40
0.2346325029229835
 40
0.3032062563339759
 40
0.3678204927068134
 40
0.4286943420344908
 40
0.4866089719808062
 40
0.5420671935517642
 40
0.5961809467934909
 40
0.6495114266189824
 40
0.7032021427821723
 40
0.7575542996689161
 40
0.8133969239085349
 40
0.8723561354042709
 40
0.9342258898045541
 40
1.0
 40
1.0
 40
1.0
 40
1.0
 10
166.3239000834408
 20
122.5071674277376
 30
0.0
 10
166.4527812263004
 20
122.5056521796124
 30
0.0
 10
166.7029288944463
 20
122.5027112079794
 30
0.0
 10
167.0655712176575
 20
122.4729395843369
 30
0.0
 10
167.40336459541
 20
122.4244282291222
 30
0.0
 10
167.7156432357593
 20
122.3539869996402
 30
0.0
 10
168.0039893928782
 20
122.2672421308251
 30
0.0
 10
168.2666760210242
 20
122.1576902666059
 30
0.0
 10
168.5060379110443
 20
122.031649301614
 30
0.0
 10
168.7195352175645
 20
121.8829789559515
 30
0.0
 10
168.9090134407704
 20
121.7151794545264
 30
0.0
 10
169.0722089327304
 20
121.525251403315
 30
0.0
 10
169.2109209534877
 20
121.3164389137649
 30
0.0
 10
169.3237931481277
 20
121.0881891990023
 30
0.0
 10
169.4105442832307
 20
120.8402278105793
 30
0.0
 10
169.4725292948849
 20
120.5731097291823
 30
0.0
 10
169.5095056577951
 20
120.2857415610083
 30
0.0
 10
169.514321479271
 20
120.0879111107873
 30
0.0
 10
169.5168030429046
 20
119.9859702781897
 30
0.0
  0
LINE
  5
AB
330
1F
100
AcDbEntity
  8
0
  6
Continuous
 62
     7
370
    25
100
AcDbLine
 10
169.3382949236
 20
113.9093330608
 30
0.0
 11
169.3382949236
 21
112.2604333192
 31
0.0
  0
LINE
  5
AC
330
1F
100
AcDbEntity
  8
0
  6
Continuous
 62
     7
370
    25
100
AcDbLine
 10
162.6101950851
 20
113.9093330608
 30
0.0
 11
169.3382949236
 21
113.9093330608
 31
0.0
  0
LINE
  5
AD
330
1F
100
AcDbEntity
  8
0
  6
Continuous
 62
     7
370
    25
100
AcDbLine
 10
162.6101950851
 20
112.2604333192
 30
0.0
 11
162.6101950851
 21
113.9093330608
 31
0.0
  0
LINE
  5
AE
330
1F
100
AcDbEntity
  8
0
  6
Continuous
 62
     7
370
    25
100
AcDbLine
 10
169.3382949236
 20
112.2604333192
 30
0.0
 11
162.6101950851
 21
112.2604333192
 31
0.0
  0
LINE
  5
AF
330
1F
100
AcDbEntity
  8
0
  6
Continuous
 62
     7
370
    25
100
AcDbLine
 10
158.0886028249
 20
112.1426547662
 30
0.0
 11
158.0886028249
 21
113.6811371144
 31
0.0
  0
SPLINE
  5
B0
330
1F
100
AcDbEntity
  8
0
  6
Continuous
 62
     7
370
    25
100
AcDbSpline
210
0.0
220
0.0
230
1.0
 70
     8
 71
     3
 72
    23
 73
    19
 74
     0
 42
0.000000001
 43
0.00000001
 40
0.0
 40
0.0
 40
0.0
 40
0.0
 40
0.06880194463242
 40
0.1337582193264485
 40
0.1953157266109195
 40
0.2537856539624073
 40
0.309894011630188
 40
0.3643924965142168
 40
0.4186388883742044
 40
0.4728045032584242
 40
0.5277390571966408
 40
0.584745026048337
 40
0.6445381665791987
 40
0.7072881818980312
 40
0.7736478039929122
 40
0.844341266556037
 40
0.9198146885977727
 40
1.0
 40
1.0
 40
1.0
 40
1.0
 10
161.5097017307276
 20
115.0815977208577
 30
0.0
 10
161.507569375735
 20
114.9630741866313
 30
0.0
 10
161.5034238532747
 20
114.7326519657027
 30
0.0
 10
161.4615803227094
 20
114.3983641108719
 30
0.0
 10
161.3968858212394
 20
114.0860987193529
 30
0.0
 10
161.3033557541946
 20
113.7967676918451
 30
0.0
 10
161.1802906973689
 20
113.5323297098967
 30
0.0
 10
161.0351050986935
 20
113.2875975039019
 30
0.0
 10
160.8588424087498
 20
113.0682506288033
 30
0.0
 10
160.6568538631426
 20
112.8715414908012
 30
0.0
 10
160.4277477488381
 20
112.6990759190115
 30
0.0
 10
160.1718104384606
 20
112.5497952118141
 30
0.0
 10
159.8892995672699
 20
112.4227737068728
 30
0.0
 10
159.5799949095615
 20
112.3206959524242
 30
0.0
 10
159.2453299732765
 20
112.2391777036282
 30
0.0
 10
158.8832484793639
 20
112.1839870718042
 30
0.0
 10
158.4948125684543
 20
112.1479376850225
 30
0.0
 10
158.2267112719454
 20
112.1444509213551
 30
0.0
 10
158.0886028248813
 20
112.1426547662388
 30
0.0
  0
LINE
  5
B1
330
1F
100
AcDbEntity
  8
0
  6
Continuous
 62
     7
370
    25
100
AcDbLine
 10
161.5097017307
 20
119.6694404171
 30
0.0
 11
161.5097017307
 21
115.0815977209
 31
0.0
  0
SPLINE
  5
B2
330
1F
100
AcDbEntity
  8
0
  6
Continuous
 62
     7
370
    25
100
AcDbSpline
210
0.0
220
0.0
230
1.0
 70
     8
 71
     3
 72
    23
 73
    19
 74
     0
 42
0.000000001
 43
0.00000001
 40
0.0
 40
0.0
 40
0.0
 40
0.0
 40
0.0814314821074197
 40
0.1580462472183783
 40
0.2297827372563197
 40
0.2970064204589913
 40
0.3606175432858164
 40
0.4209018539417395
 40
0.4782519859585523
 40
0.5333924881674086
 40
0.587648789940477
 40
0.6413363885334605
 40
0.6954477489030488
 40
0.7507908370291263
 40
0.8084527991017116
 40
0.868845573880339
 40
0.9322980575245411
 40
1.0
 40
1.0
 40
1.0
 40
1.0
 10
158.0886028248814
 20
122.5071674277376
 30
0.0
 10
158.2266929867796
 20
122.5051739658446
 30
0.0
 10
158.494705201478
 20
122.501304956427
 30
0.0
 10
158.8832428263464
 20
122.4679604356683
 30
0.0
 10
159.2449112533272
 20
122.4135109519171
 30
0.0
 10
159.5802982948933
 20
122.3372968587464
 30
0.0
 10
159.8883088485244
 20
122.2353009470675
 30
0.0
 10
160.1716194905773
 20
122.1150340364252
 30
0.0
 10
160.4274021063482
 20
121.9709571965158
 30
0.0
 10
160.6567976686855
 20
121.8043462136779
 30
0.0
 10
160.857406812585
 20
121.6131887462926
 30
0.0
 10
161.0356673735756
 20
121.4029372780668
 30
0.0
 10
161.1796424925414
 20
121.1658074385579
 30
0.0
 10
161.3034705220451
 20
120.9103961863208
 30
0.0
 10
161.3966114177769
 20
120.630643961319
 30
0.0
 10
161.4614876599554
 20
120.3294470551621
 30
0.0
 10
161.5035414053268
 20
120.0067809195972
 30
0.0
 10
161.5076044079269
 20
119.7842901825526
 30
0.0
 10
161.5097017307276
 20
119.6694404170786
 30
0.0
  0
LINE
  5
B3
330
1F
100
AcDbEntity
  8
0
  6
Continuous
 62
     7
370
    25
100
AcDbLine
 10
158.0886028249
 20
120.8122604389
 30
0.0
 11
158.0886028249
 21
122.5071674277
 31
0.0
  0
SPLINE
  5
B4
330
1F
100
AcDbEntity
  8
0
  6
Continuous
 62
     7
370
    25
100
AcDbSpline
210
0.0
220
0.0
230
1.0
 70
     8
 71
     3
 72
    15
 73
    11
 74
     0
 42
0.000000001
 43
0.00000001
 40
0.0
 40
0.0
 40
0.0
 40
0.0
 40
0.1396853908949436
 40
0.2653310810423191
 40
0.381469429869822
 40
0.4922506623126915
 40
0.6047449770800724
 40
0.7238454742606993
 40
0.8546111973471571
 40
1.0
 40
1.0
 40
1.0
 40
1.0
 10
159.0934011049201
 20
119.7577743318073
 30
0.0
 10
159.0902144507133
 20
119.8340596618439
 30
0.0
 10
159.0841614311371
 20
119.9789629259333
 30
0.0
 10
159.0391337317316
 20
120.1838680708848
 30
0.0
 10
158.958746347384
 20
120.3602177043432
 30
0.0
 10
158.8480894323328
 20
120.5108705632722
 30
0.0
 10
158.7020442186242
 20
120.6305838806629
 30
0.0
 10
158.5246434640488
 20
120.7203913225218
 30
0.0
 10
158.3177547984373
 20
120.7862169665589
 30
0.0
 10
158.1676365298813
 20
120.8032781374121
 30
0.0
 10
158.0886028248813
 20
120.812260438881
 30
0.0
  0
LINE
  5
B5
330
1F
100
AcDbEntity
  8
0
  6
Continuous
 62
     7
370
    25
100
AcDbLine
 10
159.0934011049
 20
114.7485052507
 30
0.0
 11
159.0934011049
 21
119.7577743318
 31
0.0
  0
SPLINE
  5
B6
330
1F
100
AcDbEntity
  8
0
  6
Continuous
 62
     7
370
    25
100
AcDbSpline
210
0.0
220
0.0
230
1.0
 70
     8
 71
     3
 72
    15
 73
    11
 74
     0
 42
0.000000001
 43
0.00000001
 40
0.0
 40
0.0
 40
0.0
 40
0.0
 40
0.144644240329361
 40
0.2742576763077229
 40
0.3931307050380348
 40
0.50563574778824
 40
0.6166180831130387
 40
0.7330435729509516
 40
0.86007793496291
 40
1.0
 40
1.0
 40
1.0
 40
1.0
 10
158.0886028248813
 20
113.6811371144301
 30
0.0
 10
158.167520177292
 20
113.6911662098044
 30
0.0
 10
158.3171541319051
 20
113.7101822203042
 30
0.0
 10
158.5254867065001
 20
113.7720635932587
 30
0.0
 10
158.7021239350755
 20
113.8649733209096
 30
0.0
 10
158.8482276993075
 20
113.9862462555887
 30
0.0
 10
158.9587419463547
 20
114.138824301975
 30
0.0
 10
159.039470560107
 20
114.317479514126
 30
0.0
 10
159.0839393306214
 20
114.5249389582709
 30
0.0
 10
159.0901472809296
 20
114.6716226975337
 30
0.0
 10
159.0934011049201
 20
114.748505250735
 30
0.0
  0
LINE
  5
B7
330
1F
100
AcDbEntity
  8
0
  6
Continuous
 62
     7
370
    25
100
AcDbLine
 10
157.6690167299
 20
113.6811371144
 30
0.0
 11
157.6690167299
 21
112.1426547662
 31
0.0
  0
SPLINE
  5
B8
330
1F
100
AcDbEntity
  8
0
  6
Continuous
 62
     7
370
    25
100
AcDbSpline
210
0.0
220
0.0
230
1.0
 70
     8
 71
     3
 72
    15
 73
    11
 74
     0
 42
0.000000001
 43
0.00000001
 40
0.0
 40
0.0
 40
0.0
 40
0.0
 40
0.1408349888948382
 40
0.2675844518979609
 40
0.3853118409607162
 40
0.496391771746754
 40
0.6096250142196324
 40
0.7273087479961688
 40
0.8563383675164645
 40
1.0
 40
1.0
 40
1.0
 40
1.0
 10
156.6899825083439
 20
114.748505250735
 30
0.0
 10
156.692299425223
 20
114.6721679466818
 30
0.0
 10
156.6967015339465
 20
114.5271281676841
 30
0.0
 10
156.7434384950135
 20
114.3225177261597
 30
0.0
 10
156.8200003320607
 20
114.1444803429167
 30
0.0
 10
156.9307646150884
 20
113.9943204031135
 30
0.0
 10
157.0705732151407
 20
113.8705507471405
 30
0.0
 10
157.2437079209491
 20
113.7784461492367
 30
0.0
 10
157.4452384578749
 20
113.7111302689521
 30
0.0
 10
157.5918025371664
 20
113.6914861853805
 30
0.0
 10
157.6690167299201
 20
113.6811371144301
 30
0.0
  0
LINE
  5
B9
330
1F
100
AcDbEntity
  8
0
  6
Continuous
 62
     7
370
    25
100
AcDbLine
 10
156.6899825083
 20
119.7577743318
 30
0.0
 11
156.6899825083
 21
114.7485052507
 31
0.0
  0
SPLINE
  5
BA
330
1F
100
AcDbEntity
  8
0
  6
Continuous
 62
     7
370
    25
100
AcDbSpline
210
0.0
220
0.0
230
1.0
 70
     8
 71
     3
 72
    15
 73
    11
 74
     0
 42
0.000000001
 43
0.00000001
 40
0.0
 40
0.0
 40
0.0
 40
0.0
 40
0.1451269760448237
 40
0.2756647050787244
 40
0.3943900331659801
 40
0.5078733369262165
 40
0.6190167675009149
 40
0.7356982100070592
 40
0.8613415408419091
 40
1.0
 40
1.0
 40
1.0
 40
1.0
 10
157.6690167299201
 20
120.812260438881
 30
0.0
 10
157.591764938156
 20
120.8013421613983
 30
0.0
 10
157.4450272814238
 20
120.780603193191
 30
0.0
 10
157.2439656064824
 20
120.7110226370814
 30
0.0
 10
157.0711639516423
 20
120.6191388816004
 30
0.0
 10
156.9307693070904
 20
120.4974254801134
 30
0.0
 10
156.8205504190481
 20
120.3493735692945
 30
0.0
 10
156.7433379165343
 20
120.1747397441759
 30
0.0
 10
156.6968447862396
 20
119.9742583769688
 30
0.0
 10
156.6923438153992
 20
119.8322664044067
 30
0.0
 10
156.6899825083439
 20
119.7577743318073
 30
0.0
  0
LINE
  5
BB
330
1F
100
AcDbEntity
  8
0
  6
Continuous
 62
     7
370
    25
100
AcDbLine
 10
157.6690167299
 20
122.5071674277
 30
0.0
 11
157.6690167299
 21
120.8122604389
 31
0.0
  0
SPLINE
  5
BC
330
1F
100
AcDbEntity
  8
0
  6
Continuous
 62
     7
370
    25
100
AcDbSpline
210
0.0
220
0.0
230
1.0
 70
     8
 71
     3
 72
    23
 73
    19
 74
     0
 42
0.000000001
 43
0.00000001
 40
0.0
 40
0.0
 40
0.0
 40
0.0
 40
0.0670307357835369
 40
0.130401260327632
 40
0.1903389729855079
 40
0.2474129510405927
 40
0.3026712255789903
 40
0.3565542335511098
 40
0.4099156225145399
 40
0.4641597583786148
 40
0.519313943479077
 40
0.5769624414613017
 40
0.6373053766276882
 40
0.701325894573642
 40
0.7689335834363686
 40
0.8411893978486151
 40
0.9181049856902389
 40
1.0
 40
1.0
 40
1.0
 40
1.0
 10
154.3233697095713
 20
119.7688160711484
 30
0.0
 10
154.3257483897238
 20
119.8793428097869
 30
0.0
 10
154.3303758622732
 20
120.0943609779436
 30
0.0
 10
154.3688717260417
 20
120.406398122532
 30
0.0
 10
154.4348854130026
 20
120.6968586277047
 30
0.0
 10
154.5271905371858
 20
120.9660239467385
 30
0.0
 10
154.6449071722152
 20
121.214172777103
 30
0.0
 10
154.7893857479803
 20
121.4406181342238
 30
0.0
 10
154.9606070651101
 20
121.6454526987195
 30
0.0
 10
155.1585139871601
 20
121.8276527007203
 30
0.0
 10
155.3820931702845
 20
121.9894712679789
 30
0.0
 10
155.6316950462276
 20
122.1291384665313
 30
0.0
 10
155.9080669786557
 20
122.2474069577175
 30
0.0
 10
156.2106804127637
 20
122.3413838736771
 30
0.0
 10
156.5383617450226
 20
122.417572436591
 30
0.0
 10
156.8922489013001
 20
122.4696376583488
 30
0.0
 10
157.272175310854
 20
122.5008539102955
 30
0.0
 10
157.5339997985708
 20
122.5050193864543
 30
0.0
 10
157.6690167299201
 20
122.5071674277376
 30
0.0
  0
LINE
  5
BD
330
1F
100
AcDbEntity
  8
0
  6
Continuous
 62
     7
370
    25
100
AcDbLine
 10
154.3233697096
 20
115.112882649
 30
0.0
 11
154.3233697096
 21
119.7688160711
 31
0.0
  0
SPLINE
  5
BE
330
1F
100
AcDbEntity
  8
0
  6
Continuous
 62
     7
370
    25
100
AcDbSpline
210
0.0
220
0.0
230
1.0
 70
     8
 71
     3
 72
    23
 73
    19
 74
     0
 42
0.000000001
 43
0.00000001
 40
0.0
 40
0.0
 40
0.0
 40
0.0
 40
0.0789932680116435
 40
0.1532460294205819
 40
0.2231105665976354
 40
0.2885741402790795
 40
0.3508921522252416
 40
0.4098283342553338
 40
0.4665217361331539
 40
0.521456308205281
 40
0.5757694244695041
 40
0.629757797500522
 40
0.6850989171201101
 40
0.7419874073049932
 40
0.801127617640779
 40
0.8638495067877547
 40
0.9299641830721013
 40
1.0
 40
1.0
 40
1.0
 40
1.0
 10
157.6690167299201
 20
112.1426547662388
 30
0.0
 10
157.5339840789918
 20
112.1445081960264
 30
0.0
 10
157.2720222926551
 20
112.1481038284505
 30
0.0
 10
156.8919158259268
 20
112.1833734963583
 30
0.0
 10
156.5382203348863
 20
112.2416759804189
 30
0.0
 10
156.2097321036429
 20
112.3221449422927
 30
0.0
 10
155.907658264257
 20
112.4265497042698
 30
0.0
 10
155.6308383148885
 20
112.5537187711793
 30
0.0
 10
155.380415394971
 20
112.7044497669898
 30
0.0
 10
155.1581229758122
 20
112.8816416122826
 30
0.0
 10
154.9596115908317
 20
113.0785580677907
 30
0.0
 10
154.7880853788672
 20
113.3005557246456
 30
0.0
 10
154.6449123840156
 20
113.5467264122096
 30
0.0
 10
154.5267923178159
 20
113.8153549790597
 30
0.0
 10
154.4344641491658
 20
114.1071698307539
 30
0.0
 10
154.3690313802661
 20
114.422173589783
 30
0.0
 10
154.3303219112761
 20
114.7604179689764
 30
0.0
 10
154.3257311812205
 20
114.9931600942477
 30
0.0
 10
154.3233697095713
 20
115.1128826489908
 30
0.0
  0
LINE
  5
BF
330
1F
100
AcDbEntity
  8
0
  6
Continuous
 62
     7
370
    25
100
AcDbLine
 10
103.1476434297
 20
94.9920963683
 30
0.0
 11
100.123599502
 21
94.9920963683
 31
0.0
  0
LINE
  5
C0
330
1F
100
AcDbEntity
  8
0
  6
Continuous
 62
     7
370
    25
100
AcDbLine
 10
103.1476434297
 20
96.2828856448
 30
0.0
 11
103.1476434297
 21
94.9920963683
 31
0.0
  0
LINE
  5
C1
330
1F
100
AcDbEntity
  8
0
  6
Continuous
 62
     7
370
    25
100
AcDbLine
 10
101.7613580292
 20
96.2828856448
 30
0.0
 11
103.1476434297
 21
96.2828856448
 31
0.0
  0
LINE
  5
C2
330
1F
100
AcDbEntity
  8
0
  6
Continuous
 62
     7
370
    25
100
AcDbLine
 10
103.1476434297
 20
98.6543727249
 30
0.0
 11
101.7613580292
 21
96.2828856448
 31
0.0
  0
LINE
  5
C3
330
1F
100
AcDbEntity
  8
0
  6
Continuous
 62
     7
370
    25
100
AcDbLine
 10
103.1476434297
 20
101.356913035
 30
0.0
 11
103.1476434297
 21
98.6543727249
 31
0.0
  0
LINE
  5
C4
330
1F
100
AcDbEntity
  8
0
  6
Continuous
 62
     7
370
    25
100
AcDbLine
 10
100.123599502
 20
96.2335459807
 30
0.0
 11
103.1476434297
 21
101.356913035
 31
0.0
  0
LINE
  5
C5
330
1F
100
AcDbEntity
  8
0
  6
Continuous
 62
     7
370
    25
100
AcDbLine
 10
100.123599502
 20
94.9920963683
 30
0.0
 11
100.123599502
 21
96.2335459807
 31
0.0
  0
LINE
  5
C6
330
1F
100
AcDbEntity
  8
0
  6
Continuous
 62
     7
370
    25
100
AcDbLine
 10
96.1493691403
 20
94.5368981771
 30
0.0
 11
96.1493691403
 21
93.1585707869
 31
0.0
  0
SPLINE
  5
C7
330
1F
100
AcDbEntity
  8
0
  6
Continuous
 62
     7
370
    25
100
AcDbSpline
210
0.0
220
0.0
230
1.0
 70
     8
 71
     3
 72
    15
 73
    11
 74
     0
 42
0.000000001
 43
0.00000001
 40
0.0
 40
0.0
 40
0.0
 40
0.0
 40
0.1331154228739964
 40
0.2546758895421025
 40
0.3684470326653751
 40
0.4798670528112654
 40
0.5943932627678135
 40
0.7170691309761751
 40
0.850853479785506
 40
1.0
 40
1.0
 40
1.0
 40
1.0
 10
95.34720169842788
 20
95.36453125202696
 30
0.0
 10
95.34934479031313
 20
95.30750753327716
 30
0.0
 10
95.35344494505445
 20
95.19840998481838
 30
0.0
 10
95.39275709539896
 20
95.04465150572709
 30
0.0
 10
95.45485166868352
 20
94.90893001446915
 30
0.0
 10
95.54484029501062
 20
94.79318952449405
 30
0.0
 10
95.66082974015029
 20
94.69772130079676
 30
0.0
 10
95.80189846671792
 20
94.62339033819592
 30
0.0
 10
95.96679179989384
 20
94.56697207385548
 30
0.0
 10
96.0863462289579
 20
94.54727922725375
 30
0.0
 10
96.14936914028833
 20
94.53689817709156
 30
0.0
  0
LINE
  5
C8
330
1F
100
AcDbEntity
  8
0
  6
Continuous
 62
     7
370
    25
100
AcDbLine
 10
95.3472016984
 20
99.8480742753
 30
0.0
 11
95.3472016984
 21
95.364531252
 31
0.0
  0
SPLINE
  5
C9
330
1F
100
AcDbEntity
  8
0
  6
Continuous
 62
     7
370
    25
100
AcDbSpline
210
0.0
220
0.0
230
1.0
 70
     8
 71
     3
 72
    15
 73
    11
 74
     0
 42
0.000000001
 43
0.00000001
 40
0.0
 40
0.0
 40
0.0
 40
0.0
 40
0.1455823694680303
 40
0.2763734473559964
 40
0.3968857826154734
 40
0.5104152389437269
 40
0.6222410203990283
 40
0.7378759060581332
 40
0.8626049676046776
 40
1.0
 40
1.0
 40
1.0
 40
1.0
 10
96.14936914028834
 20
100.7075393915619
 30
0.0
 10
96.08633380957205
 20
100.6977971027926
 30
0.0
 10
95.96666759092936
 20
100.6793023500136
 30
0.0
 10
95.80153328186528
 20
100.6227857777938
 30
0.0
 10
95.6602410120789
 20
100.5466936432113
 30
0.0
 10
95.54418850165334
 20
100.4477139229237
 30
0.0
 10
95.45437603104398
 20
100.3269204124937
 30
0.0
 10
95.39253087476443
 20
100.1847675886785
 30
0.0
 10
95.35339287689845
 20
100.0231086415092
 30
0.0
 10
95.34933085097768
 20
99.90826877119703
 30
0.0
 10
95.34720169842788
 20
99.84807427528278
 30
0.0
  0
LINE
  5
CA
330
1F
100
AcDbEntity
  8
0
  6
Continuous
 62
     7
370
    25
100
AcDbLine
 10
96.1493691403
 20
102.1224736293
 30
0.0
 11
96.1493691403
 21
100.7075393916
 31
0.0
  0
SPLINE
  5
CB
330
1F
100
AcDbEntity
  8
0
  6
Continuous
 62
     7
370
    25
100
AcDbSpline
210
0.0
220
0.0
230
1.0
 70
     8
 71
     3
 72
    23
 73
    19
 74
     0
 42
0.000000001
 43
0.00000001
 40
0.0
 40
0.0
 40
0.0
 40
0.0
 40
0.0660988355874802
 40
0.1284617043274896
 40
0.1876360163851103
 40
0.2442617304737453
 40
0.2990681558557134
 40
0.3525393454821022
 40
0.4058727137425911
 40
0.4599294311651538
 40
0.5152256230109568
 40
0.5731453190661753
 40
0.6339042433444672
 40
0.6983779247806938
 40
0.7668251664699413
 40
0.8393880347727758
 40
0.9171260263588175
 40
1.0
 40
1.0
 40
1.0
 40
1.0
 10
93.30040144002994
 20
99.84489107114841
 30
0.0
 10
93.3024051602438
 20
99.93678181327475
 30
0.0
 10
93.30629934856616
 20
100.1153695484527
 30
0.0
 10
93.34028980725688
 20
100.3744281370229
 30
0.0
 10
93.39538545318862
 20
100.616217279434
 30
0.0
 10
93.47352671035596
 20
100.8406064722575
 30
0.0
 10
93.5737032029182
 20
101.0473780530787
 30
0.0
 10
93.69761435709985
 20
101.2354474613433
 30
0.0
 10
93.84357534314805
 20
101.4055802517674
 30
0.0
 10
94.01208742737057
 20
101.5571450793144
 30
0.0
 10
94.2018482216912
 20
101.6922614393108
 30
0.0
 10
94.41451911997359
 20
101.8085216072797
 30
0.0
 10
94.65060881798024
 20
101.904591296234
 30
0.0
 10
94.90734124941946
 20
101.9865154162094
 30
0.0
 10
95.1867550847556
 20
102.0470606021444
 30
0.0
 10
95.48760523912314
 20
102.0920625036605
 30
0.0
 10
95.8110159771289
 20
102.1164735853911
 30
0.0
 10
96.03420572980393
 20
102.1204314272533
 30
0.0
 10
96.14936914028834
 20
102.122473629288
 30
0.0
  0
LINE
  5
CC
330
1F
100
AcDbEntity
  8
0
  6
Continuous
 62
     7
370
    25
100
AcDbLine
 10
93.30040144
 20
95.64783642
 30
0.0
 11
93.30040144
 21
99.8448910711
 31
0.0
  0
SPLINE
  5
CD
330
1F
100
AcDbEntity
  8
0
  6
Continuous
 62
     7
370
    25
100
AcDbSpline
210
0.0
220
0.0
230
1.0
 70
     8
 71
     3
 72
    23
 73
    19
 74
     0
 42
0.000000001
 43
0.00000001
 40
0.0
 40
0.0
 40
0.0
 40
0.0
 40
0.07971035950191
 40
0.1545420811775669
 40
0.2245057067340346
 40
0.2906750736375325
 40
0.3531467795148007
 40
0.4124656263404021
 40
0.469267208861662
 40
0.5242082310582248
 40
0.5784739230747602
 40
0.6326102628108468
 40
0.6874591813480947
 40
0.7441657381524208
 40
0.8028067897985749
 40
0.8647409455032302
 40
0.9305537888730882
 40
1.0
 40
1.0
 40
1.0
 40
1.0
 10
96.14936914028834
 20
93.15857078691069
 30
0.0
 10
96.03418788563046
 20
93.16033674164612
 30
0.0
 10
95.81087499482551
 20
93.16376056662679
 30
0.0
 10
95.48737195222888
 20
93.19195173382984
 30
0.0
 10
95.18632132763
 20
93.24138737353164
 30
0.0
 10
94.90715196233751
 20
93.30909471457309
 30
0.0
 10
94.64951931748162
 20
93.39632584131182
 30
0.0
 10
94.41419601650011
 20
93.50315682225742
 30
0.0
 10
94.20038033376835
 20
93.62840593851996
 30
0.0
 10
94.01124143880412
 20
93.77692932773002
 30
0.0
 10
93.84267377614022
 20
93.94288695076852
 30
0.0
 10
93.6969212700551
 20
94.12915606535394
 30
0.0
 10
93.57319025608555
 20
94.33482570177489
 30
0.0
 10
93.4735760746868
 20
94.56025447884475
 30
0.0
 10
93.39495029724085
 20
94.8045329420582
 30
0.0
 10
93.34013681968322
 20
95.06860539650172
 30
0.0
 10
93.30637108688397
 20
95.3519816189946
 30
0.0
 10
93.3024266412602
 20
95.54746775135399
 30
0.0
 10
93.30040144002994
 20
95.64783641998561
 30
0.0
  0
LINE
  5
CE
330
1F
100
AcDbEntity
  8
0
  6
Continuous
 62
     7
370
    25
100
AcDbLine
 10
99.5156075124
 20
96.6218968851
 30
0.0
 11
99.5156075124
 21
95.6637524407
 31
0.0
  0
LINE
  5
CF
330
1F
100
AcDbEntity
  8
0
  6
Continuous
 62
     7
370
    25
100
AcDbLine
 10
97.4258339982
 20
96.6218968851
 30
0.0
 11
99.5156075124
 21
96.6218968851
 31
0.0
  0
LINE
  5
D0
330
1F
100
AcDbEntity
  8
0
  6
Continuous
 62
     7
370
    25
100
AcDbLine
 10
97.4258339982
 20
95.3931800892
 30
0.0
 11
97.4258339982
 21
96.6218968851
 31
0.0
  0
SPLINE
  5
D1
330
1F
100
AcDbEntity
  8
0
  6
Continuous
 62
     7
370
    25
100
AcDbSpline
210
0.0
220
0.0
230
1.0
 70
     8
 71
     3
 72
    15
 73
    11
 74
     0
 42
0.000000001
 43
0.00000001
 40
0.0
 40
0.0
 40
0.0
 40
0.0
 40
0.1503644628345908
 40
0.284924785583968
 40
0.4070444188212755
 40
0.5211918882383715
 40
0.6311643427469298
 40
0.7439313290986127
 40
0.8659624778513471
 40
1.0
 40
1.0
 40
1.0
 40
1.0
 10
96.5568192694873
 20
94.53689817709156
 30
0.0
 10
96.62508843880133
 20
94.54497532001686
 30
0.0
 10
96.75445130860516
 20
94.56028065329002
 30
0.0
 10
96.93370702214278
 20
94.61296958593941
 30
0.0
 10
97.08663868578499
 20
94.68768365421879
 30
0.0
 10
97.21240508629654
 20
94.78584119115146
 30
0.0
 10
97.30843450830436
 20
94.90759570323625
 30
0.0
 10
97.37904328594904
 20
95.04964444196557
 30
0.0
 10
97.41762495017883
 20
95.21505793886107
 30
0.0
 10
97.4230134316892
 20
95.33197867254145
 30
0.0
 10
97.42583399816948
 20
95.39318008923627
 30
0.0
  0
LINE
  5
D2
330
1F
100
AcDbEntity
  8
0
  6
Continuous
 62
     7
370
    25
100
AcDbLine
 10
96.5568192695
 20
93.1585707869
 30
0.0
 11
96.5568192695
 21
94.5368981771
 31
0.0
  0
SPLINE
  5
D3
330
1F
100
AcDbEntity
  8
0
  6
Continuous
 62
     7
370
    25
100
AcDbSpline
210
0.0
220
0.0
230
1.0
 70
     8
 71
     3
 72
    23
 73
    19
 74
     0
 42
0.000000001
 43
0.00000001
 40
0.0
 40
0.0
 40
0.0
 40
0.0
 40
0.0685288925651098
 40
0.1328362861245543
 40
0.1937390271620513
 40
0.2519047417256945
 40
0.3077245459475939
 40
0.3619615720073697
 40
0.4159991267176179
 40
0.4700164557877289
 40
0.5253051762026507
 40
0.582498004128721
 40
0.6423853977586723
 40
0.7055399663185042
 40
0.7722436283230789
 40
0.8433377250463668
 40
0.9192977289214493
 40
1.0
 40
1.0
 40
1.0
 40
1.0
 10
99.51560751238137
 20
95.66375244065746
 30
0.0
 10
99.51378128435451
 20
95.56230476941475
 30
0.0
 10
99.51024132712446
 20
95.36565877997225
 30
0.0
 10
99.47404728655168
 20
95.08075628483654
 30
0.0
 10
99.41780182569923
 20
94.81498925382087
 30
0.0
 10
99.33716160304928
 20
94.5683886169784
 30
0.0
 10
99.23070008365157
 20
94.3428499953058
 30
0.0
 10
99.10504356066369
 20
94.1344079905366
 30
0.0
 10
98.95274279399844
 20
93.94767823805887
 30
0.0
 10
98.77692969156274
 20
93.78109731516246
 30
0.0
 10
98.58034618711078
 20
93.63168234195784
 30
0.0
 10
98.35876284428942
 20
93.50396792205115
 30
0.0
 10
98.11337618943769
 20
93.39849074215154
 30
0.0
 10
97.84700069985338
 20
93.30876488947908
 30
0.0
 10
97.5570979436246
 20
93.24059475096995
 30
0.0
 10
97.2439549981385
 20
93.19472487079236
 30
0.0
 10
96.90814795246575
 20
93.16302548737085
 30
0.0
 10
96.67626854312716
 20
93.16008535363987
 30
0.0
 10
96.5568192694873
 20
93.15857078691069
 30
0.0
  0
LINE
  5
D4
330
1F
100
AcDbEntity
  8
0
  6
Continuous
 62
     7
370
    25
100
AcDbLine
 10
97.4258339982
 20
98.9663267301
 30
0.0
 11
97.4258339982
 21
99.8751315104
 31
0.0
  0
LINE
  5
D5
330
1F
100
AcDbEntity
  8
0
  6
Continuous
 62
     7
370
    25
100
AcDbLine
 10
99.5156075124
 20
98.9663267301
 30
0.0
 11
97.4258339982
 21
98.9663267301
 31
0.0
  0
LINE
  5
D6
330
1F
100
AcDbEntity
  8
0
  6
Continuous
 62
     7
370
    25
100
AcDbLine
 10
99.5156075124
 20
99.7669025699
 30
0.0
 11
99.5156075124
 21
98.9663267301
 31
0.0
  0
SPLINE
  5
D7
330
1F
100
AcDbEntity
  8
0
  6
Continuous
 62
     7
370
    25
100
AcDbSpline
210
0.0
220
0.0
230
1.0
 70
     8
 71
     3
 72
    23
 73
    19
 74
     0
 42
0.000000001
 43
0.00000001
 40
0.0
 40
0.0
 40
0.0
 40
0.0
 40
0.0828754053151115
 40
0.1608182510931353
 40
0.2337719540148946
 40
0.3020249443415888
 40
0.3665374376797607
 40
0.4274616111366375
 40
0.4852931247076878
 40
0.5407662433541107
 40
0.5947367463162705
 40
0.648253177618187
 40
0.7017696089201034
 40
0.756109369934358
 40
0.8127051286205387
 40
0.8716546160952365
 40
0.9340410634556306
 40
1.0
 40
1.0
 40
1.0
 40
1.0
 10
96.5568192694873
 20
102.122473629288
 30
0.0
 10
96.67623522303026
 20
102.1205829874347
 30
0.0
 10
96.9079597585348
 20
102.1169142305204
 30
0.0
 10
97.24405191909527
 20
102.0903561055444
 30
0.0
 10
97.55657948821121
 20
102.0441074731392
 30
0.0
 10
97.84683560861765
 20
101.9821078733781
 30
0.0
 10
98.11282429479701
 20
101.896495685969
 30
0.0
 10
98.35807891407909
 20
101.7977132269635
 30
0.0
 10
98.5794571233955
 20
101.6780167745485
 30
0.0
 10
98.77665236748895
 20
101.5384672712584
 30
0.0
 10
98.95188822960932
 20
101.3814627089203
 30
0.0
 10
99.10494256770225
 20
101.2060161181327
 30
0.0
 10
99.22974281931741
 20
101.0091289040201
 30
0.0
 10
99.33729140411171
 20
100.7974531765932
 30
0.0
 10
99.4175379118172
 20
100.5654046679468
 30
0.0
 10
99.47416054898449
 20
100.3150398726075
 30
0.0
 10
99.51011693016717
 20
100.047004442523
 30
0.0
 10
99.51374366826806
 20
99.8619865165359
 30
0.0
 10
99.51560751238137
 20
99.76690256985641
 30
0.0
  0
LINE
  5
D8
330
1F
100
AcDbEntity
  8
0
  6
Continuous
 62
     7
370
    25
100
AcDbLine
 10
96.5568192695
 20
100.6963981771
 30
0.0
 11
96.5568192695
 21
102.1224736293
 31
0.0
  0
SPLINE
  5
D9
330
1F
100
AcDbEntity
  8
0
  6
Continuous
 62
     7
370
    25
100
AcDbSpline
210
0.0
220
0.0
230
1.0
 70
     8
 71
     3
 72
    15
 73
    11
 74
     0
 42
0.000000001
 43
0.00000001
 40
0.0
 40
0.0
 40
0.0
 40
0.0
 40
0.1409794030309288
 40
0.2663902853265611
 40
0.3801921774175466
 40
0.489250851863555
 40
0.5998765857378565
 40
0.7190332117724323
 40
0.8509854041710967
 40
1.0
 40
1.0
 40
1.0
 40
1.0
 10
97.42583399816948
 20
99.87513151042491
 30
0.0
 10
97.4230769503355
 20
99.93950436826479
 30
0.0
 10
97.41786731869173
 20
100.0611413137943
 30
0.0
 10
97.37958600652041
 20
100.2320167152243
 30
0.0
 10
97.30904156004134
 20
100.3758287481582
 30
0.0
 10
97.21394536802964
 20
100.4969346183593
 30
0.0
 10
97.08592857861629
 20
100.5869146248168
 30
0.0
 10
96.93344495391155
 20
100.6528313862477
 30
0.0
 10
96.75326868792067
 20
100.6901287288876
 30
0.0
 10
96.62490089295784
 20
100.6942254335151
 30
0.0
 10
96.5568192694873
 20
100.6963981770916
 30
0.0
  0
LINE
  5
DA
330
1F
100
AcDbEntity
  8
0
  6
Continuous
 62
     7
370
    25
100
AcDbLine
 10
113.8734497604
 20
94.5368981771
 30
0.0
 11
113.8734497604
 21
93.1585707869
 31
0.0
  0
SPLINE
  5
DB
330
1F
100
AcDbEntity
  8
0
  6
Continuous
 62
     7
370
    25
100
AcDbSpline
210
0.0
220
0.0
230
1.0
 70
     8
 71
     3
 72
    15
 73
    11
 74
     0
 42
0.000000001
 43
0.00000001
 40
0.0
 40
0.0
 40
0.0
 40
0.0
 40
0.133115422873996
 40
0.2546758895421027
 40
0.368447032665374
 40
0.4798670528112657
 40
0.5943932627678137
 40
0.7170691309761729
 40
0.8508534797855088
 40
1.0
 40
1.0
 40
1.0
 40
1.0
 10
113.0712823185829
 20
95.36453125202696
 30
0.0
 10
113.0734254104681
 20
95.30750753327716
 30
0.0
 10
113.0775255652095
 20
95.19840998481838
 30
0.0
 10
113.116837715554
 20
95.04465150572709
 30
0.0
 10
113.1789322888386
 20
94.90893001446915
 30
0.0
 10
113.2689209151657
 20
94.79318952449404
 30
0.0
 10
113.3849103603053
 20
94.69772130079676
 30
0.0
 10
113.5259790868729
 20
94.62339033819592
 30
0.0
 10
113.6908724200489
 20
94.5669720738555
 30
0.0
 10
113.8104268491129
 20
94.54727922725375
 30
0.0
 10
113.8734497604434
 20
94.53689817709156
 30
0.0
  0
LINE
  5
DC
330
1F
100
AcDbEntity
  8
0
  6
Continuous
 62
     7
370
    25
100
AcDbLine
 10
113.0712823186
 20
99.8480742753
 30
0.0
 11
113.0712823186
 21
95.364531252
 31
0.0
  0
SPLINE
  5
DD
330
1F
100
AcDbEntity
  8
0
  6
Continuous
 62
     7
370
    25
100
AcDbSpline
210
0.0
220
0.0
230
1.0
 70
     8
 71
     3
 72
    15
 73
    11
 74
     0
 42
0.000000001
 43
0.00000001
 40
0.0
 40
0.0
 40
0.0
 40
0.0
 40
0.1455823694680275
 40
0.2763734473559985
 40
0.396885782615473
 40
0.5104152389437263
 40
0.6222410203990292
 40
0.7378759060581329
 40
0.862604967604678
 40
1.0
 40
1.0
 40
1.0
 40
1.0
 10
113.8734497604434
 20
100.7075393915619
 30
0.0
 10
113.8104144297271
 20
100.6977971027926
 30
0.0
 10
113.6907482110844
 20
100.6793023500136
 30
0.0
 10
113.5256139020203
 20
100.6227857777938
 30
0.0
 10
113.3843216322339
 20
100.5466936432113
 30
0.0
 10
113.2682691218084
 20
100.4477139229237
 30
0.0
 10
113.178456651199
 20
100.3269204124937
 30
0.0
 10
113.1166114949194
 20
100.1847675886785
 30
0.0
 10
113.0774734970535
 20
100.0231086415092
 30
0.0
 10
113.0734114711327
 20
99.90826877119703
 30
0.0
 10
113.0712823185829
 20
99.84807427528278
 30
0.0
  0
LINE
  5
DE
330
1F
100
AcDbEntity
  8
0
  6
Continuous
 62
     7
370
    25
100
AcDbLine
 10
113.8734497604
 20
102.1224736293
 30
0.0
 11
113.8734497604
 21
100.7075393916
 31
0.0
  0
SPLINE
  5
DF
330
1F
100
AcDbEntity
  8
0
  6
Continuous
 62
     7
370
    25
100
AcDbSpline
210
0.0
220
0.0
230
1.0
 70
     8
 71
     3
 72
    23
 73
    19
 74
     0
 42
0.000000001
 43
0.00000001
 40
0.0
 40
0.0
 40
0.0
 40
0.0
 40
0.0660988355874802
 40
0.1284617043274897
 40
0.1876360163851101
 40
0.2442617304737453
 40
0.2990681558557134
 40
0.3525393454821022
 40
0.4058727137425911
 40
0.4599294311651538
 40
0.515225623010956
 40
0.573145319066176
 40
0.633904243344467
 40
0.698377924780693
 40
0.7668251664699413
 40
0.8393880347727766
 40
0.9171260263588175
 40
1.0
 40
1.0
 40
1.0
 40
1.0
 10
111.024482060185
 20
99.84489107114841
 30
0.0
 10
111.0264857803988
 20
99.93678181327475
 30
0.0
 10
111.0303799687212
 20
100.1153695484527
 30
0.0
 10
111.0643704274119
 20
100.3744281370229
 30
0.0
 10
111.1194660733437
 20
100.616217279434
 30
0.0
 10
111.197607330511
 20
100.8406064722575
 30
0.0
 10
111.2977838230732
 20
101.0473780530787
 30
0.0
 10
111.4216949772549
 20
101.2354474613433
 30
0.0
 10
111.5676559633031
 20
101.4055802517674
 30
0.0
 10
111.7361680475256
 20
101.5571450793144
 30
0.0
 10
111.9259288418462
 20
101.6922614393108
 30
0.0
 10
112.1385997401286
 20
101.8085216072797
 30
0.0
 10
112.3746894381353
 20
101.904591296234
 30
0.0
 10
112.6314218695745
 20
101.9865154162094
 30
0.0
 10
112.9108357049106
 20
102.0470606021444
 30
0.0
 10
113.2116858592781
 20
102.0920625036605
 30
0.0
 10
113.535096597284
 20
102.1164735853911
 30
0.0
 10
113.758286349959
 20
102.1204314272533
 30
0.0
 10
113.8734497604434
 20
102.122473629288
 30
0.0
  0
LINE
  5
E0
330
1F
100
AcDbEntity
  8
0
  6
Continuous
 62
     7
370
    25
100
AcDbLine
 10
111.0244820602
 20
95.64783642
 30
0.0
 11
111.0244820602
 21
99.8448910711
 31
0.0
  0
SPLINE
  5
E1
330
1F
100
AcDbEntity
  8
0
  6
Continuous
 62
     7
370
    25
100
AcDbSpline
210
0.0
220
0.0
230
1.0
 70
     8
 71
     3
 72
    23
 73
    19
 74
     0
 42
0.000000001
 43
0.00000001
 40
0.0
 40
0.0
 40
0.0
 40
0.0
 40
0.07971035950191
 40
0.1545420811775661
 40
0.2245057067340346
 40
0.2906750736375333
 40
0.3531467795148007
 40
0.4124656263404013
 40
0.4692672088616626
 40
0.5242082310582248
 40
0.5784739230747602
 40
0.6326102628108468
 40
0.6874591813480947
 40
0.7441657381524208
 40
0.8028067897985752
 40
0.8647409455032302
 40
0.9305537888730882
 40
1.0
 40
1.0
 40
1.0
 40
1.0
 10
113.8734497604434
 20
93.15857078691069
 30
0.0
 10
113.7582685057855
 20
93.16033674164612
 30
0.0
 10
113.5349556149806
 20
93.16376056662679
 30
0.0
 10
113.2114525723839
 20
93.19195173382984
 30
0.0
 10
112.910401947785
 20
93.24138737353164
 30
0.0
 10
112.6312325824926
 20
93.30909471457309
 30
0.0
 10
112.3735999376367
 20
93.39632584131182
 30
0.0
 10
112.1382766366552
 20
93.50315682225742
 30
0.0
 10
111.9244609539234
 20
93.62840593851995
 30
0.0
 10
111.7353220589592
 20
93.77692932773002
 30
0.0
 10
111.5667543962953
 20
93.94288695076852
 30
0.0
 10
111.4210018902101
 20
94.12915606535394
 30
0.0
 10
111.2972708762406
 20
94.33482570177489
 30
0.0
 10
111.1976566948419
 20
94.56025447884475
 30
0.0
 10
111.1190309173959
 20
94.80453294205819
 30
0.0
 10
111.0642174398383
 20
95.06860539650174
 30
0.0
 10
111.030451707039
 20
95.3519816189946
 30
0.0
 10
111.0265072614152
 20
95.54746775135399
 30
0.0
 10
111.024482060185
 20
95.64783641998561
 30
0.0
  0
LINE
  5
E2
330
1F
100
AcDbEntity
  8
0
  6
Continuous
 62
     7
370
    25
100
AcDbLine
 10
117.2396881325
 20
96.6218968851
 30
0.0
 11
117.2396881325
 21
95.6637524407
 31
0.0
  0
LINE
  5
E3
330
1F
100
AcDbEntity
  8
0
  6
Continuous
 62
     7
370
    25
100
AcDbLine
 10
115.1499146183
 20
96.6218968851
 30
0.0
 11
117.2396881325
 21
96.6218968851
 31
0.0
  0
LINE
  5
E4
330
1F
100
AcDbEntity
  8
0
  6
Continuous
 62
     7
370
    25
100
AcDbLine
 10
115.1499146183
 20
95.3931800892
 30
0.0
 11
115.1499146183
 21
96.6218968851
 31
0.0
  0
SPLINE
  5
E5
330
1F
100
AcDbEntity
  8
0
  6
Continuous
 62
     7
370
    25
100
AcDbSpline
210
0.0
220
0.0
230
1.0
 70
     8
 71
     3
 72
    15
 73
    11
 74
     0
 42
0.000000001
 43
0.00000001
 40
0.0
 40
0.0
 40
0.0
 40
0.0
 40
0.1503644628345885
 40
0.284924785583966
 40
0.4070444188212737
 40
0.5211918882383719
 40
0.6311643427469288
 40
0.7439313290986119
 40
0.865962477851347
 40
1.0
 40
1.0
 40
1.0
 40
1.0
 10
114.2808998896424
 20
94.53689817709156
 30
0.0
 10
114.3491690589564
 20
94.54497532001686
 30
0.0
 10
114.4785319287602
 20
94.56028065329004
 30
0.0
 10
114.6577876422978
 20
94.61296958593941
 30
0.0
 10
114.81071930594
 20
94.68768365421879
 30
0.0
 10
114.9364857064516
 20
94.78584119115146
 30
0.0
 10
115.0325151284594
 20
94.90759570323625
 30
0.0
 10
115.1031239061041
 20
95.04964444196555
 30
0.0
 10
115.1417055703339
 20
95.21505793886107
 30
0.0
 10
115.1470940518442
 20
95.33197867254145
 30
0.0
 10
115.1499146183245
 20
95.39318008923627
 30
0.0
  0
LINE
  5
E6
330
1F
100
AcDbEntity
  8
0
  6
Continuous
 62
     7
370
    25
100
AcDbLine
 10
114.2808998896
 20
93.1585707869
 30
0.0
 11
114.2808998896
 21
94.5368981771
 31
0.0
  0
SPLINE
  5
E7
330
1F
100
AcDbEntity
  8
0
  6
Continuous
 62
     7
370
    25
100
AcDbSpline
210
0.0
220
0.0
230
1.0
 70
     8
 71
     3
 72
    23
 73
    19
 74
     0
 42
0.000000001
 43
0.00000001
 40
0.0
 40
0.0
 40
0.0
 40
0.0
 40
0.0685288925651098
 40
0.1328362861245542
 40
0.1937390271620515
 40
0.2519047417256948
 40
0.3077245459475942
 40
0.3619615720073696
 40
0.4159991267176182
 40
0.470016455787728
 40
0.5253051762026498
 40
0.5824980041287215
 40
0.6423853977586722
 40
0.7055399663185041
 40
0.772243628323078
 40
0.8433377250463675
 40
0.91929772892145
 40
1.0
 40
1.0
 40
1.0
 40
1.0
 10
117.2396881325364
 20
95.66375244065746
 30
0.0
 10
117.2378619045095
 20
95.56230476941475
 30
0.0
 10
117.2343219472795
 20
95.36565877997225
 30
0.0
 10
117.1981279067067
 20
95.08075628483653
 30
0.0
 10
117.1418824458543
 20
94.81498925382088
 30
0.0
 10
117.0612422232043
 20
94.5683886169784
 30
0.0
 10
116.9547807038066
 20
94.34284999530581
 30
0.0
 10
116.8291241808187
 20
94.1344079905366
 30
0.0
 10
116.6768234141535
 20
93.94767823805887
 30
0.0
 10
116.5010103117178
 20
93.78109731516246
 30
0.0
 10
116.3044268072658
 20
93.63168234195784
 30
0.0
 10
116.0828434644445
 20
93.50396792205115
 30
0.0
 10
115.8374568095927
 20
93.39849074215154
 30
0.0
 10
115.5710813200084
 20
93.30876488947908
 30
0.0
 10
115.2811785637796
 20
93.24059475096995
 30
0.0
 10
114.9680356182935
 20
93.19472487079234
 30
0.0
 10
114.6322285726208
 20
93.16302548737086
 30
0.0
 10
114.4003491632822
 20
93.16008535363987
 30
0.0
 10
114.2808998896424
 20
93.15857078691069
 30
0.0
  0
LINE
  5
E8
330
1F
100
AcDbEntity
  8
0
  6
Continuous
 62
     7
370
    25
100
AcDbLine
 10
115.1499146183
 20
98.9663267301
 30
0.0
 11
115.1499146183
 21
99.8751315104
 31
0.0
  0
LINE
  5
E9
330
1F
100
AcDbEntity
  8
0
  6
Continuous
 62
     7
370
    25
100
AcDbLine
 10
117.2396881325
 20
98.9663267301
 30
0.0
 11
115.1499146183
 21
98.9663267301
 31
0.0
  0
LINE
  5
EA
330
1F
100
AcDbEntity
  8
0
  6
Continuous
 62
     7
370
    25
100
AcDbLine
 10
117.2396881325
 20
99.7669025699
 30
0.0
 11
117.2396881325
 21
98.9663267301
 31
0.0
  0
SPLINE
  5
EB
330
1F
100
AcDbEntity
  8
0
  6
Continuous
 62
     7
370
    25
100
AcDbSpline
210
0.0
220
0.0
230
1.0
 70
     8
 71
     3
 72
    23
 73
    19
 74
     0
 42
0.000000001
 43
0.00000001
 40
0.0
 40
0.0
 40
0.0
 40
0.0
 40
0.0828754053151108
 40
0.1608182510931345
 40
0.2337719540148954
 40
0.3020249443415889
 40
0.3665374376797609
 40
0.4274616111366369
 40
0.4852931247076887
 40
0.5407662433541115
 40
0.5947367463162702
 40
0.6482531776181871
 40
0.7017696089201032
 40
0.7561093699343577
 40
0.8127051286205385
 40
0.8716546160952368
 40
0.9340410634556306
 40
1.0
 40
1.0
 40
1.0
 40
1.0
 10
114.2808998896424
 20
102.122473629288
 30
0.0
 10
114.4003158431853
 20
102.1205829874347
 30
0.0
 10
114.6320403786899
 20
102.1169142305204
 30
0.0
 10
114.9681325392503
 20
102.0903561055444
 30
0.0
 10
115.2806601083662
 20
102.0441074731392
 30
0.0
 10
115.5709162287727
 20
101.9821078733781
 30
0.0
 10
115.836904914952
 20
101.896495685969
 30
0.0
 10
116.0821595342341
 20
101.7977132269635
 30
0.0
 10
116.3035377435505
 20
101.6780167745485
 30
0.0
 10
116.500732987644
 20
101.5384672712584
 30
0.0
 10
116.6759688497643
 20
101.3814627089203
 30
0.0
 10
116.8290231878573
 20
101.2060161181327
 30
0.0
 10
116.9538234394724
 20
101.0091289040201
 30
0.0
 10
117.0613720242667
 20
100.7974531765932
 30
0.0
 10
117.1416185319722
 20
100.5654046679468
 30
0.0
 10
117.1982411691395
 20
100.3150398726075
 30
0.0
 10
117.2341975503222
 20
100.047004442523
 30
0.0
 10
117.2378242884231
 20
99.8619865165359
 30
0.0
 10
117.2396881325364
 20
99.76690256985641
 30
0.0
  0
LINE
  5
EC
330
1F
100
AcDbEntity
  8
0
  6
Continuous
 62
     7
370
    25
100
AcDbLine
 10
114.2808998896
 20
100.6963981771
 30
0.0
 11
114.2808998896
 21
102.1224736293
 31
0.0
  0
SPLINE
  5
ED
330
1F
100
AcDbEntity
  8
0
  6
Continuous
 62
     7
370
    25
100
AcDbSpline
210
0.0
220
0.0
230
1.0
 70
     8
 71
     3
 72
    15
 73
    11
 74
     0
 42
0.000000001
 43
0.00000001
 40
0.0
 40
0.0
 40
0.0
 40
0.0
 40
0.1409794030309289
 40
0.2663902853265619
 40
0.3801921774175476
 40
0.4892508518635547
 40
0.5998765857378584
 40
0.7190332117724343
 40
0.8509854041710989
 40
1.0
 40
1.0
 40
1.0
 40
1.0
 10
115.1499146183245
 20
99.87513151042491
 30
0.0
 10
115.1471575704905
 20
99.93950436826479
 30
0.0
 10
115.1419479388468
 20
100.0611413137943
 30
0.0
 10
115.1036666266754
 20
100.2320167152243
 30
0.0
 10
115.0331221801964
 20
100.3758287481582
 30
0.0
 10
114.9380259881847
 20
100.4969346183593
 30
0.0
 10
114.8100091987713
 20
100.5869146248168
 30
0.0
 10
114.6575255740666
 20
100.6528313862477
 30
0.0
 10
114.4773493080757
 20
100.6901287288876
 30
0.0
 10
114.3489815131129
 20
100.6942254335151
 30
0.0
 10
114.2808998896424
 20
100.6963981770916
 30
0.0
  0
LINE
  5
EE
330
1F
100
AcDbEntity
  8
0
  6
Continuous
 62
     7
370
    25
100
AcDbLine
 10
105.3711115175
 20
93.2604333192
 30
0.0
 11
103.4786966597
 21
93.2604333192
 31
0.0
  0
LINE
  5
EF
330
1F
100
AcDbEntity
  8
0
  6
Continuous
 62
     7
370
    25
100
AcDbLine
 10
105.3711115175
 20
94.9920963683
 30
0.0
 11
105.3711115175
 21
93.2604333192
 31
0.0
  0
LINE
  5
F0
330
1F
100
AcDbEntity
  8
0
  6
Continuous
 62
     7
370
    25
100
AcDbLine
 10
106.5918703031
 20
94.9920963683
 30
0.0
 11
105.3711115175
 21
94.9920963683
 31
0.0
  0
LINE
  5
F1
330
1F
100
AcDbEntity
  8
0
  6
Continuous
 62
     7
370
    25
100
AcDbLine
 10
106.5918703031
 20
96.2828856448
 30
0.0
 11
106.5918703031
 21
94.9920963683
 31
0.0
  0
LINE
  5
F2
330
1F
100
AcDbEntity
  8
0
  6
Continuous
 62
     7
370
    25
100
AcDbLine
 10
105.3711115175
 20
96.2828856448
 30
0.0
 11
106.5918703031
 21
96.2828856448
 31
0.0
  0
LINE
  5
F3
330
1F
100
AcDbEntity
  8
0
  6
Continuous
 62
     7
370
    25
100
AcDbLine
 10
105.3711115175
 20
102.020611097
 30
0.0
 11
105.3711115175
 21
96.2828856448
 31
0.0
  0
LINE
  5
F4
330
1F
100
AcDbEntity
  8
0
  6
Continuous
 62
     7
370
    25
100
AcDbLine
 10
103.5216699155
 20
102.020611097
 30
0.0
 11
105.3711115175
 21
102.020611097
 31
0.0
  0
LINE
  5
F5
330
1F
100
AcDbEntity
  8
0
  6
Continuous
 62
     7
370
    25
100
AcDbLine
 10
103.4786966597
 20
101.9091989523
 30
0.0
 11
103.5216699155
 21
102.020611097
 31
0.0
  0
LINE
  5
F6
330
1F
100
AcDbEntity
  8
0
  6
Continuous
 62
     7
370
    25
100
AcDbLine
 10
103.4786966597
 20
93.2604333192
 30
0.0
 11
103.4786966597
 21
101.9091989523
 31
0.0
  0
LINE
  5
F7
330
1F
100
AcDbEntity
  8
0
  6
Continuous
 62
     7
370
    25
100
AcDbLine
 10
134.994804993
 20
120.7404891332
 30
0.0
 11
127.8213550011
 21
120.7404891332
 31
0.0
  0
LINE
  5
F8
330
1F
100
AcDbEntity
  8
0
  6
Continuous
 62
     7
370
    25
100
AcDbLine
 10
134.994804993
 20
122.3893888748
 30
0.0
 11
134.994804993
 21
120.7404891332
 31
0.0
  0
LINE
  5
F9
330
1F
100
AcDbEntity
  8
0
  6
Continuous
 62
     7
370
    25
100
AcDbLine
 10
127.8213550011
 20
122.3893888748
 30
0.0
 11
134.994804993
 21
122.3893888748
 31
0.0
  0
LINE
  5
FA
330
1F
100
AcDbEntity
  8
0
  6
Continuous
 62
     7
370
    25
100
AcDbLine
 10
127.8213550011
 20
120.7404891332
 30
0.0
 11
127.8213550011
 21
122.3893888748
 31
0.0
  0
LINE
  5
FB
330
1F
100
AcDbEntity
  8
0
  6
Continuous
 62
     7
370
    25
100
AcDbLine
 10
132.5527403087
 20
120.2693749213
 30
0.0
 11
132.5527403087
 21
112.2604333192
 31
0.0
  0
LINE
  5
FC
330
1F
100
AcDbEntity
  8
0
  6
Continuous
 62
     7
370
    25
100
AcDbLine
 10
130.2376556269
 20
120.2693749213
 30
0.0
 11
132.5527403087
 21
120.2693749213
 31
0.0
  0
LINE
  5
FD
330
1F
100
AcDbEntity
  8
0
  6
Continuous
 62
     7
370
    25
100
AcDbLine
 10
130.2376556269
 20
112.2604333192
 30
0.0
 11
130.2376556269
 21
120.2693749213
 31
0.0
  0
LINE
  5
FE
330
1F
100
AcDbEntity
  8
0
  6
Continuous
 62
     7
370
    25
100
AcDbLine
 10
132.5527403087
 20
112.2604333192
 30
0.0
 11
130.2376556269
 21
112.2604333192
 31
0.0
  0
LINE
  5
FF
330
1F
100
AcDbEntity
  8
0
  6
Continuous
 62
     7
370
    25
100
AcDbLine
 10
137.8380528733
 20
119.4449250505
 30
0.0
 11
135.6499481939
 21
119.4449250505
 31
0.0
  0
LINE
  5
100
330
1F
100
AcDbEntity
  8
0
  6
Continuous
 62
     7
370
    25
100
AcDbLine
 10
137.8380528733
 20
119.9344421613
 30
0.0
 11
137.8380528733
 21
119.4449250505
 31
0.0
  0
SPLINE
  5
101
330
1F
100
AcDbEntity
  8
0
  6
Continuous
 62
     7
370
    25
100
AcDbSpline
210
0.0
220
0.0
230
1.0
 70
     8
 71
     3
 72
    15
 73
    11
 74
     0
 42
0.000000001
 43
0.00000001
 40
0.0
 40
0.0
 40
0.0
 40
0.0
 40
0.142609915202231
 40
0.2725696915506304
 40
0.3908931842426822
 40
0.5033546289868693
 40
0.6159663440220859
 40
0.7336940867180591
 40
0.8595978116588476
 40
1.0
 40
1.0
 40
1.0
 40
1.0
 10
138.6661833239124
 20
120.8509065265748
 30
0.0
 10
138.6013422221373
 20
120.8405682013202
 30
0.0
 10
138.4774117150224
 20
120.8208086066117
 30
0.0
 10
138.3064556643119
 20
120.7621340343435
 30
0.0
 10
138.1607741547439
 20
120.6805364022686
 30
0.0
 10
138.0421201462488
 20
120.5747197042848
 30
0.0
 10
137.9470582492788
 20
120.4472255168518
 30
0.0
 10
137.8839489002411
 20
120.2947666132762
 30
0.0
 10
137.8441590241696
 20
120.1217306494657
 30
0.0
 10
137.8401608149644
 20
119.999097164422
 30
0.0
 10
137.838052873331
 20
119.9344421612647
 30
0.0
  0
LINE
  5
102
330
1F
100
AcDbEntity
  8
0
  6
Continuous
 62
     7
370
    25
100
AcDbLine
 10
138.6661833239
 20
122.5071674277
 30
0.0
 11
138.6661833239
 21
120.8509065266
 31
0.0
  0
SPLINE
  5
103
330
1F
100
AcDbEntity
  8
0
  6
Continuous
 62
     7
370
    25
100
AcDbSpline
210
0.0
220
0.0
230
1.0
 70
     8
 71
     3
 72
    23
 73
    19
 74
     0
 42
0.000000001
 43
0.00000001
 40
0.0
 40
0.0
 40
0.0
 40
0.0
 40
0.0754080091336819
 40
0.1459546247762359
 40
0.2127043677075386
 40
0.2753434090854286
 40
0.3353532470506529
 40
0.3924281806171708
 40
0.4483148986739506
 40
0.5027936900503361
 40
0.5574880176176419
 40
0.6124515268054793
 40
0.6695423150286778
 40
0.7285094418012439
 40
0.7906306486963995
 40
0.856279326281786
 40
0.926083889222743
 40
0.9999999999999999
 40
0.9999999999999999
 40
0.9999999999999999
 40
0.9999999999999999
 10
135.6499481939059
 20
119.4449250504766
 30
0.0
 10
135.6515472951072
 20
119.5689480593575
 30
0.0
 10
135.6546424068663
 20
119.8089985782983
 30
0.0
 10
135.6932450158455
 20
120.1570276967836
 30
0.0
 10
135.7508296915794
 20
120.4808432799037
 30
0.0
 10
135.8310728020867
 20
120.7822481798543
 30
0.0
 10
135.9379530522676
 20
121.0582784639203
 30
0.0
 10
136.0672280319552
 20
121.3122041486918
 30
0.0
 10
136.2219744191869
 20
121.5407684420608
 30
0.0
 10
136.4009048171903
 20
121.745579479881
 30
0.0
 10
136.6017525352365
 20
121.9268743393712
 30
0.0
 10
136.8280183638919
 20
122.082803737559
 30
0.0
 10
137.0765874194826
 20
122.2156108603176
 30
0.0
 10
137.3502319884578
 20
122.3215347003732
 30
0.0
 10
137.6455220727406
 20
122.4072989368314
 30
0.0
 10
137.9657851750051
 20
122.4637090882969
 30
0.0
 10
138.3082169535019
 20
122.5024122968537
 30
0.0
 10
138.5446069922682
 20
122.5055524398026
 30
0.0
 10
138.6661833239124
 20
122.5071674277376
 30
0.0
  0
LINE
  5
104
330
1F
100
AcDbEntity
  8
0
  6
Continuous
 62
     7
370
    25
100
AcDbLine
 10
138.7416352094
 20
113.6995400133
 30
0.0
 11
138.7416352094
 21
112.1426547662
 31
0.0
  0
SPLINE
  5
105
330
1F
100
AcDbEntity
  8
0
  6
Continuous
 62
     7
370
    25
100
AcDbSpline
210
0.0
220
0.0
230
1.0
 70
     8
 71
     3
 72
    23
 73
    19
 74
     0
 42
0.000000001
 43
0.00000001
 40
0.0
 40
0.0
 40
0.0
 40
0.0
 40
0.0900635709118199
 40
0.1749783594630804
 40
0.2540425408333529
 40
0.3283505194987001
 40
0.3981592491188361
 40
0.4637785594572874
 40
0.5255813196519541
 40
0.5832279755049298
 40
0.6380757705169328
 40
0.6907490694889419
 40
0.7413470527913231
 40
0.7906105029771365
 40
0.8407753558613262
 40
0.8919248321109206
 40
0.9448122360611333
 40
1.0
 40
1.0
 40
1.0
 40
1.0
 10
137.8012470755274
 20
115.3226756964714
 30
0.0
 10
137.8019160948665
 20
115.2600891461059
 30
0.0
 10
137.8032158868383
 20
115.1384940128401
 30
0.0
 10
137.8142741420335
 20
114.9622304314389
 30
0.0
 10
137.8324531230248
 20
114.7975880512544
 30
0.0
 10
137.8580016762587
 20
114.6445368472455
 30
0.0
 10
137.8908772024955
 20
114.5024413313138
 30
0.0
 10
137.9312621173138
 20
114.3713563547017
 30
0.0
 10
137.9784908709529
 20
114.2515626340545
 30
0.0
 10
138.0341121409784
 20
114.1437247507757
 30
0.0
 10
138.0968779845497
 20
114.0474440109888
 30
0.0
 10
138.1664015591965
 20
113.9619315936335
 30
0.0
 10
138.2447738911011
 20
113.8901826108111
 30
0.0
 10
138.3285148543426
 20
113.8276616168831
 30
0.0
 10
138.421191495243
 20
113.778256603538
 30
0.0
 10
138.5213089641698
 20
113.7396635472758
 30
0.0
 10
138.6286121573635
 20
113.7110087730161
 30
0.0
 10
138.7034300305235
 20
113.7034167978233
 30
0.0
 10
138.7416352094098
 20
113.6995400133319
 30
0.0
  0
LINE
  5
106
330
1F
100
AcDbEntity
  8
0
  6
Continuous
 62
     7
370
    25
100
AcDbLine
 10
135.5873783376
 20
115.3226756965
 30
0.0
 11
137.8012470755
 21
115.3226756965
 31
0.0
  0
SPLINE
  5
107
330
1F
100
AcDbEntity
  8
0
  6
Continuous
 62
     7
370
    25
100
AcDbSpline
210
0.0
220
0.0
230
1.0
 70
     8
 71
     3
 72
    23
 73
    19
 74
     0
 42
0.000000001
 43
0.00000001
 40
0.0
 40
0.0
 40
0.0
 40
0.0
 40
0.0736630824071821
 40
0.1429877382283417
 40
0.208420071275985
 40
0.2703778629344122
 40
0.3295296518417118
 40
0.3863981968749866
 40
0.4415910612074999
 40
0.4962874807042095
 40
0.5512532177621496
 40
0.6068337810336175
 40
0.6645051469515111
 40
0.7243247018822793
 40
0.7874169680996365
 40
0.8540436859214584
 40
0.9248737748663276
 40
1.0
 40
1.0
 40
1.0
 40
1.0
 10
138.7416352094098
 20
112.1426547662388
 30
0.0
 10
138.6157965345964
 20
112.1451603551212
 30
0.0
 10
138.3715305209404
 20
112.1500239648904
 30
0.0
 10
138.0168956816117
 20
112.1865797685078
 30
0.0
 10
137.686410603628
 20
112.2491037935007
 30
0.0
 10
137.378871506763
 20
112.3345054208499
 30
0.0
 10
137.0960896199694
 20
112.4475206512623
 30
0.0
 10
136.8360572365065
 20
112.5828848349411
 30
0.0
 10
136.6025699550369
 20
112.7472902831732
 30
0.0
 10
136.3906806481329
 20
112.9336728077685
 30
0.0
 10
136.2039676353367
 20
113.146488572352
 30
0.0
 10
136.043030987142
 20
113.3852730063927
 30
0.0
 10
135.9044786892739
 20
113.6470972581934
 30
0.0
 10
135.7922610464479
 20
113.9351113323007
 30
0.0
 10
135.705187136004
 20
114.2473359709877
 30
0.0
 10
135.6383267098263
 20
114.583657247305
 30
0.0
 10
135.5983877449128
 20
114.9450971627285
 30
0.0
 10
135.5911194526655
 20
115.1943704488807
 30
0.0
 10
135.5873783376398
 20
115.3226756964714
 30
0.0
  0
LINE
  5
108
330
1F
100
AcDbEntity
  8
0
  6
Continuous
 62
     7
370
    25
100
AcDbLine
 10
145.7605008506
 20
112.2604333192
 30
0.0
 11
143.4343744294
 21
112.2604333192
 31
0.0
  0
LINE
  5
109
330
1F
100
AcDbEntity
  8
0
  6
Continuous
 62
     7
370
    25
100
AcDbLine
 10
145.7605008506
 20
122.3893888748
 30
0.0
 11
145.7605008506
 21
112.2604333192
 31
0.0
  0
LINE
  5
10A
330
1F
100
AcDbEntity
  8
0
  6
Continuous
 62
     7
370
    25
100
AcDbLine
 10
143.4343744294
 20
122.3893888748
 30
0.0
 11
145.7605008506
 21
122.3893888748
 31
0.0
  0
LINE
  5
10B
330
1F
100
AcDbEntity
  8
0
  6
Continuous
 62
     7
370
    25
100
AcDbLine
 10
143.4343744294
 20
112.2604333192
 30
0.0
 11
143.4343744294
 21
122.3893888748
 31
0.0
  0
LINE
  5
10C
330
1F
100
AcDbEntity
  8
0
  6
Continuous
 62
     7
370
    25
100
AcDbLine
 10
149.1447939586
 20
122.3893888748
 30
0.0
 11
149.1447939586
 21
120.7404891332
 31
0.0
  0
LINE
  5
10D
330
1F
100
AcDbEntity
  8
0
  6
Continuous
 62
     7
370
    25
100
AcDbLine
 10
146.1175170893
 20
122.3893888748
 30
0.0
 11
149.1447939586
 21
122.3893888748
 31
0.0
  0
LINE
  5
10E
330
1F
100
AcDbEntity
  8
0
  6
Continuous
 62
     7
370
    25
100
AcDbLine
 10
146.1175170893
 20
120.7404891332
 30
0.0
 11
146.1175170893
 21
122.3893888748
 31
0.0
  0
LINE
  5
10F
330
1F
100
AcDbEntity
  8
0
  6
Continuous
 62
     7
370
    25
100
AcDbLine
 10
149.1447939586
 20
120.7404891332
 30
0.0
 11
146.1175170893
 21
120.7404891332
 31
0.0
  0
LINE
  5
110
330
1F
100
AcDbEntity
  8
0
  6
Continuous
 62
     7
370
    25
100
AcDbLine
 10
148.9662858393
 20
118.3849180737
 30
0.0
 11
148.9662858393
 21
116.7360183321
 31
0.0
  0
LINE
  5
111
330
1F
100
AcDbEntity
  8
0
  6
Continuous
 62
     7
370
    25
100
AcDbLine
 10
146.1175170893
 20
118.3849180737
 30
0.0
 11
148.9662858393
 21
118.3849180737
 31
0.0
  0
LINE
  5
112
330
1F
100
AcDbEntity
  8
0
  6
Continuous
 62
     7
370
    25
100
AcDbLine
 10
146.1175170893
 20
116.7360183321
 30
0.0
 11
146.1175170893
 21
118.3849180737
 31
0.0
  0
LINE
  5
113
330
1F
100
AcDbEntity
  8
0
  6
Continuous
 62
     7
370
    25
100
AcDbLine
 10
148.9662858393
 20
116.7360183321
 30
0.0
 11
146.1175170893
 21
116.7360183321
 31
0.0
  0
SPLINE
  5
114
330
1F
100
AcDbEntity
  8
0
  6
Continuous
 62
     7
370
    25
100
AcDbSpline
210
0.0
220
0.0
230
1.0
 70
     8
 71
     3
 72
    23
 73
    19
 74
     0
 42
0.000000001
 43
0.00000001
 40
0.0
 40
0.0
 40
0.0
 40
0.0
 40
0.0748502776755777
 40
0.1452742174483228
 40
0.2117295143065506
 40
0.274150885994623
 40
0.334059256460405
 40
0.3910648214768126
 40
0.446618512752026
 40
0.5013195362770235
 40
0.5557232889418326
 40
0.6109502616820451
 40
0.6681383152243323
 40
0.7273098420613237
 40
0.789837802346036
 40
0.8555152072470473
 40
0.9255453557556658
 40
1.0
 40
1.0
 40
1.0
 40
1.0
 10
139.1115334773361
 20
122.5071674277376
 30
0.0
 10
139.2275435226663
 20
122.5051211653886
 30
0.0
 10
139.4527032558677
 20
122.5011496482391
 30
0.0
 10
139.779679415542
 20
122.4684434957247
 30
0.0
 10
140.0834534775629
 20
122.4110897213435
 30
0.0
 10
140.3663815404827
 20
122.3348502149045
 30
0.0
 10
140.6255971108141
 20
122.2332842285401
 30
0.0
 10
140.8644329950967
 20
122.1120287897366
 30
0.0
 10
141.0789430282017
 20
121.9653291486956
 30
0.0
 10
141.2720367356319
 20
121.7974996942344
 30
0.0
 10
141.440586733514
 20
121.6056651132652
 30
0.0
 10
141.5874487104869
 20
121.3921367669599
 30
0.0
 10
141.7099244574544
 20
121.1554606965965
 30
0.0
 10
141.8121101223074
 20
120.8972455052526
 30
0.0
 10
141.8899998874745
 20
120.6170329874554
 30
0.0
 10
141.9474395403722
 20
120.3149101782249
 30
0.0
 10
141.9800427631189
 20
119.9903722731282
 30
0.0
 10
141.9840178689197
 20
119.7664349486542
 30
0.0
 10
141.9860662857987
 20
119.6510375181768
 30
0.0
  0
LINE
  5
115
330
1F
100
AcDbEntity
  8
0
  6
Continuous
 62
     7
370
    25
100
AcDbLine
 10
139.1115334773
 20
120.8509065266
 30
0.0
 11
139.1115334773
 21
122.5071674277
 31
0.0
  0
SPLINE
  5
116
330
1F
100
AcDbEntity
  8
0
  6
Continuous
 62
     7
370
    25
100
AcDbSpline
210
0.0
220
0.0
230
1.0
 70
     8
 71
     3
 72
    15
 73
    11
 74
     0
 42
0.000000001
 43
0.00000001
 40
0.0
 40
0.0
 40
0.0
 40
0.0
 40
0.156222441330214
 40
0.2961820828516176
 40
0.4227609145364586
 40
0.5387037406392693
 40
0.6482725217950572
 40
0.7586325195729067
 40
0.8740697602468438
 40
1.0
 40
1.0
 40
1.0
 40
1.0
 10
139.9120595795648
 20
119.7430520126859
 30
0.0
 10
139.9097060704669
 20
119.8223388224011
 30
0.0
 10
139.9052440532261
 20
119.9726586627784
 30
0.0
 10
139.8690074087587
 20
120.1848448058745
 30
0.0
 10
139.8076581644096
 20
120.3699537462848
 30
0.0
 10
139.7184059616115
 20
120.5261243790101
 30
0.0
 10
139.6032771873319
 20
120.6538230985261
 30
0.0
 10
139.4616698911493
 20
120.7503185987238
 30
0.0
 10
139.2960356833123
 20
120.8209522473453
 30
0.0
 10
139.1747911719991
 20
120.8406365211874
 30
0.0
 10
139.1115334773361
 20
120.8509065265748
 30
0.0
  0
SPLINE
  5
117
330
1F
100
AcDbEntity
  8
0
  6
Continuous
 62
     7
370
    25
100
AcDbSpline
210
0.0
220
0.0
230
1.0
 70
     8
 71
     3
 72
    23
 73
    19
 74
     0
 42
0.000000001
 43
0.00000001
 40
0.0
 40
0.0
 40
0.0
 40
0.0
 40
0.0767309617841145
 40
0.148869619812854
 40
0.2168213510734683
 40
0.28084728491185
 40
0.3408535698588059
 40
0.3979148898143304
 40
0.4530240200930266
 40
0.505850774637553
 40
0.5583806083037135
 40
0.6126315855108998
 40
0.6686206404551751
 40
0.7272424856742643
 40
0.7885647955444679
 40
0.854273596162393
 40
0.9248828002891777
 40
1.0
 40
1.0
 40
1.0
 40
1.0
 10
138.4747931753336
 20
118.3849180737324
 30
0.0
 10
138.533092678208
 20
118.386103121169
 30
0.0
 10
138.6462024923742
 20
118.3884022916374
 30
0.0
 10
138.8105523508021
 20
118.4025277289266
 30
0.0
 10
138.9635161929945
 20
118.4287973323806
 30
0.0
 10
139.1057002204973
 20
118.4624100948402
 30
0.0
 10
139.2353022317642
 20
118.5093320200453
 30
0.0
 10
139.3543992162245
 20
118.5640364479517
 30
0.0
 10
139.4611528645424
 20
118.6303865331539
 30
0.0
 10
139.5567565848987
 20
118.7066218170179
 30
0.0
 10
139.6404595779426
 20
118.7947792687401
 30
0.0
 10
139.71510947396
 20
118.8939684167583
 30
0.0
 10
139.7745628503593
 20
119.0080594379691
 30
0.0
 10
139.8272540490588
 20
119.1311442818139
 30
0.0
 10
139.8652337404068
 20
119.2673824415703
 30
0.0
 10
139.8925488988158
 20
119.415175700778
 30
0.0
 10
139.9091169943501
 20
119.5752111727382
 30
0.0
 10
139.911058695873
 20
119.6859630425214
 30
0.0
 10
139.9120595795648
 20
119.7430520126859
 30
0.0
  0
LINE
  5
118
330
1F
100
AcDbEntity
  8
0
  6
Continuous
 62
     7
370
    25
100
AcDbLine
 10
137.8380528733
 20
118.3849180737
 30
0.0
 11
138.4747931753
 21
118.3849180737
 31
0.0
  0
LINE
  5
119
330
1F
100
AcDbEntity
  8
0
  6
Continuous
 62
     7
370
    25
100
AcDbLine
 10
137.8380528733
 20
116.7360183321
 30
0.0
 11
137.8380528733
 21
118.3849180737
 31
0.0
  0
LINE
  5
11A
330
1F
100
AcDbEntity
  8
0
  6
Continuous
 62
     7
370
    25
100
AcDbLine
 10
138.5631270901
 20
116.7360183321
 30
0.0
 11
137.8380528733
 21
116.7360183321
 31
0.0
  0
SPLINE
  5
11B
330
1F
100
AcDbEntity
  8
0
  6
Continuous
 62
     7
370
    25
100
AcDbSpline
210
0.0
220
0.0
230
1.0
 70
     8
 71
     3
 72
    23
 73
    19
 74
     0
 42
0.000000001
 43
0.00000001
 40
0.0
 40
0.0
 40
0.0
 40
0.0
 40
0.0781819152040195
 40
0.1518939241812157
 40
0.2200484914899045
 40
0.2849967437331651
 40
0.3453904675903692
 40
0.4028729093261093
 40
0.4574199382218394
 40
0.5101719789988407
 40
0.5625549969721749
 40
0.6154294730217739
 40
0.6708126009266258
 40
0.728109939464214
 40
0.7898200138438096
 40
0.8548641988952062
 40
0.9251933214653276
 40
1.0
 40
1.0
 40
1.0
 40
1.0
 10
140.1531375551785
 20
115.0116667050308
 30
0.0
 10
140.1522932406373
 20
115.0822534036573
 30
0.0
 10
140.1506528836753
 20
115.2193911371266
 30
0.0
 10
140.1319378562723
 20
115.41736921436
 30
0.0
 10
140.1021909606775
 20
115.601724282201
 30
0.0
 10
140.0634887251945
 20
115.7723092314932
 30
0.0
 10
140.0090212604536
 20
115.9283930369102
 30
0.0
 10
139.945172944649
 20
116.0705420260727
 30
0.0
 10
139.869730420668
 20
116.1991931639005
 30
0.0
 10
139.7801746603751
 20
116.3126863327371
 30
0.0
 10
139.6781294048598
 20
116.4128290004009
 30
0.0
 10
139.5624038718457
 20
116.5008946401589
 30
0.0
 10
139.431556382113
 20
116.5740972015784
 30
0.0
 10
139.2852346940351
 20
116.6328933472113
 30
0.0
 10
139.1258973001613
 20
116.680775344793
 30
0.0
 10
138.9507672313919
 20
116.7138181720444
 30
0.0
 10
138.7616143796579
 20
116.7310477266534
 30
0.0
 10
138.6306364447369
 20
116.7343277333581
 30
0.0
 10
138.5631270900622
 20
116.7360183321303
 30
0.0
  0
SPLINE
  5
11C
330
1F
100
AcDbEntity
  8
0
  6
Continuous
 62
     7
370
    25
100
AcDbSpline
210
0.0
220
0.0
230
1.0
 70
     8
 71
     3
 72
    15
 73
    11
 74
     0
 42
0.000000001
 43
0.00000001
 40
0.0
 40
0.0
 40
0.0
 40
0.0
 40
0.1305662456809732
 40
0.2496462199960058
 40
0.361444951060334
 40
0.471260079612835
 40
0.5855585848839556
 40
0.7093446268483418
 40
0.8464088342141537
 40
1.0
 40
1.0
 40
1.0
 40
1.0
 10
139.1225752166772
 20
113.6995400133319
 30
0.0
 10
139.2035226084649
 20
113.710104801304
 30
0.0
 10
139.35829622758
 20
113.7303049638233
 30
0.0
 10
139.5730439254336
 20
113.8060878338577
 30
0.0
 10
139.7536970146299
 20
113.9211417049598
 30
0.0
 10
139.9042104976199
 20
114.0698660283986
 30
0.0
 10
140.0167467183411
 20
114.2577626064211
 30
0.0
 10
140.0976021621742
 20
114.4786239714429
 30
0.0
 10
140.1445037710484
 20
114.7342948738288
 30
0.0
 10
140.1501525618168
 20
114.9157698118049
 30
0.0
 10
140.1531375551785
 20
115.0116667050308
 30
0.0
  0
LINE
  5
11D
330
1F
100
AcDbEntity
  8
0
  6
Continuous
 62
     7
370
    25
100
AcDbLine
 10
139.1225752167
 20
112.1426547662
 30
0.0
 11
139.1225752167
 21
113.6995400133
 31
0.0
  0
SPLINE
  5
11E
330
1F
100
AcDbEntity
  8
0
  6
Continuous
 62
     7
370
    25
100
AcDbSpline
210
0.0
220
0.0
230
1.0
 70
     8
 71
     3
 72
    15
 73
    11
 74
     0
 42
0.000000001
 43
0.00000001
 40
0.0
 40
0.0
 40
0.0
 40
0.0
 40
0.1220189299756274
 40
0.2402070630062314
 40
0.3561995823412569
 40
0.4732253932787027
 40
0.5942962153668042
 40
0.7211168985805394
 40
0.8555375854339174
 40
1.0
 40
1.0
 40
1.0
 40
1.0
 10
140.9683859765287
 20
117.5788711018332
 30
0.0
 10
141.0678506688963
 20
117.5222630148388
 30
0.0
 10
141.2636573493124
 20
117.4108240576047
 30
0.0
 10
141.5207539580195
 20
117.1956685937978
 30
0.0
 10
141.741589967854
 20
116.9504815232432
 30
0.0
 10
141.9213493916548
 20
116.6702181154774
 30
0.0
 10
142.0632033361039
 20
116.3582155840428
 30
0.0
 10
142.1677815788618
 20
116.0149667351655
 30
0.0
 10
142.234942115548
 20
115.6398786067612
 30
0.0
 10
142.2467775327055
 20
115.3787887060374
 30
0.0
 10
142.2529083198749
 20
115.2435432311936
 30
0.0
  0
SPLINE
  5
11F
330
1F
100
AcDbEntity
  8
0
  6
Continuous
 62
     7
370
    25
100
AcDbSpline
210
0.0
220
0.0
230
1.0
 70
     8
 71
     3
 72
    15
 73
    11
 74
     0
 42
0.000000001
 43
0.00000001
 40
0.0
 40
0.0
 40
0.0
 40
0.0
 40
0.1377569854955367
 40
0.2676984796526089
 40
0.3928602331710096
 40
0.5135132251199954
 40
0.6326874900070815
 40
0.7520870557768891
 40
0.8736974634795134
 40
1.0
 40
1.0
 40
1.0
 40
1.0
 10
141.9860662857987
 20
119.6510375181768
 30
0.0
 10
141.9829788430451
 20
119.5404300692233
 30
0.0
 10
141.9769791202129
 20
119.3254903635045
 30
0.0
 10
141.927716999765
 20
119.01321592894
 30
0.0
 10
141.8495940657351
 20
118.7213495330595
 30
0.0
 10
141.7385847510136
 20
118.4493207551224
 30
0.0
 10
141.5936486594957
 20
118.1990444947453
 30
0.0
 10
141.4170101804447
 20
117.9694463912473
 30
0.0
 10
141.2098126843921
 20
117.7581418015824
 30
0.0
 10
141.0498705947661
 20
117.6393772681124
 30
0.0
 10
140.9683859765287
 20
117.5788711018332
 30
0.0
  0
LINE
  5
120
330
1F
100
AcDbEntity
  8
0
  6
Continuous
 62
     7
370
    25
100
AcDbLine
 10
104.5435281802
 20
112.2604333192
 30
0.0
 11
102.2523672669
 21
112.2604333192
 31
0.0
  0
LINE
  5
121
330
1F
100
AcDbEntity
  8
0
  6
Continuous
 62
     7
370
    25
100
AcDbLine
 10
106.323088504
 20
120.1368740492
 30
0.0
 11
104.5435281802
 21
112.2604333192
 31
0.0
  0
LINE
  5
122
330
1F
100
AcDbEntity
  8
0
  6
Continuous
 62
     7
370
    25
100
AcDbLine
 10
107.1125728669
 20
116.0293470143
 30
0.0
 11
106.323088504
 21
120.1368740492
 31
0.0
  0
LINE
  5
123
330
1F
100
AcDbEntity
  8
0
  6
Continuous
 62
     7
370
    25
100
AcDbLine
 10
105.7765224066
 20
116.0293470143
 30
0.0
 11
107.1125728669
 21
116.0293470143
 31
0.0
  0
LINE
  5
124
330
1F
100
AcDbEntity
  8
0
  6
Continuous
 62
     7
370
    25
100
AcDbLine
 10
105.4452702264
 20
114.3804472727
 30
0.0
 11
105.7765224066
 21
116.0293470143
 31
0.0
  0
LINE
  5
125
330
1F
100
AcDbEntity
  8
0
  6
Continuous
 62
     7
370
    25
100
AcDbLine
 10
107.4548667864
 20
114.3804472727
 30
0.0
 11
105.4452702264
 21
114.3804472727
 31
0.0
  0
LINE
  5
126
330
1F
100
AcDbEntity
  8
0
  6
Continuous
 62
     7
370
    25
100
AcDbLine
 10
107.9259809983
 20
112.2604333192
 30
0.0
 11
107.4548667864
 21
114.3804472727
 31
0.0
  0
LINE
  5
127
330
1F
100
AcDbEntity
  8
0
  6
Continuous
 62
     7
370
    25
100
AcDbLine
 10
110.3551636534
 20
112.2604333192
 30
0.0
 11
107.9259809983
 21
112.2604333192
 31
0.0
  0
LINE
  5
128
330
1F
100
AcDbEntity
  8
0
  6
Continuous
 62
     7
370
    25
100
AcDbLine
 10
107.7990009959
 20
122.3893888748
 30
0.0
 11
110.3551636534
 21
112.2604333192
 31
0.0
  0
LINE
  5
129
330
1F
100
AcDbEntity
  8
0
  6
Continuous
 62
     7
370
    25
100
AcDbLine
 10
104.8103702143
 20
122.3893888748
 30
0.0
 11
107.7990009959
 21
122.3893888748
 31
0.0
  0
LINE
  5
12A
330
1F
100
AcDbEntity
  8
0
  6
Continuous
 62
     7
370
    25
100
AcDbLine
 10
102.2523672669
 20
112.2604333192
 30
0.0
 11
104.8103702143
 21
122.3893888748
 31
0.0
  0
LINE
  5
12B
330
1F
100
AcDbEntity
  8
0
  6
Continuous
 62
     7
370
    25
100
AcDbLine
 10
114.9503675092
 20
120.8748302951
 30
0.0
 11
114.9503675092
 21
122.5071674277
 31
0.0
  0
SPLINE
  5
12C
330
1F
100
AcDbEntity
  8
0
  6
Continuous
 62
     7
370
    25
100
AcDbSpline
210
0.0
220
0.0
230
1.0
 70
     8
 71
     3
 72
    15
 73
    11
 74
     0
 42
0.000000001
 43
0.00000001
 40
0.0
 40
0.0
 40
0.0
 40
0.0
 40
0.143288781792772
 40
0.2733080883485279
 40
0.3930304065767891
 40
0.5070095307361381
 40
0.6194943923980684
 40
0.7361559778153469
 40
0.862224404877968
 40
1.0
 40
1.0
 40
1.0
 40
1.0
 10
115.9422837599589
 20
119.6804821564197
 30
0.0
 10
115.9401428991239
 20
119.7629664993335
 30
0.0
 10
115.9360594351226
 20
119.9202965973244
 30
0.0
 10
115.88676433999
 20
120.1420760287509
 30
0.0
 10
115.8102005959442
 20
120.3375859183991
 30
0.0
 10
115.7002443604832
 20
120.5055666024481
 30
0.0
 10
115.5558198345194
 20
120.6419146412196
 30
0.0
 10
115.3831783682724
 20
120.7530737054106
 30
0.0
 10
115.1773818041751
 20
120.831699367371
 30
0.0
 10
115.0282447548095
 20
120.8600342319409
 30
0.0
 10
114.9503675091514
 20
120.8748302951471
 30
0.0
  0
LINE
  5
12D
330
1F
100
AcDbEntity
  8
0
  6
Continuous
 62
     7
370
    25
100
AcDbLine
 10
118.2831325003
 20
119.6804821564
 30
0.0
 11
115.94228376
 21
119.6804821564
 31
0.0
  0
SPLINE
  5
12E
330
1F
100
AcDbEntity
  8
0
  6
Continuous
 62
     7
370
    25
100
AcDbSpline
210
0.0
220
0.0
230
1.0
 70
     8
 71
     3
 72
    23
 73
    19
 74
     0
 42
0.000000001
 43
0.00000001
 40
0.0
 40
0.0
 40
0.0
 40
0.0
 40
0.0805774234290511
 40
0.1562655767799725
 40
0.2273757582909786
 40
0.2942831961214006
 40
0.3574380734087722
 40
0.4173751886128086
 40
0.4744012741579906
 40
0.5295705887731825
 40
0.5836752843481627
 40
0.6375544905139974
 40
0.6920577527696398
 40
0.7480061960152021
 40
0.8060445014516462
 40
0.8670808153044224
 40
0.9315416208468613
 40
1.0
 40
1.0
 40
1.0
 40
1.0
 10
114.9503675091514
 20
122.5071674277376
 30
0.0
 10
115.0847811513065
 20
122.5051874262238
 30
0.0
 10
115.3454524960159
 20
122.5013475655605
 30
0.0
 10
115.7235549602991
 20
122.4678414191756
 30
0.0
 10
116.076093158859
 20
122.4135338673434
 30
0.0
 10
116.4031218209808
 20
122.3367466388456
 30
0.0
 10
116.7045631100006
 20
122.2376460679637
 30
0.0
 10
116.9801889833207
 20
122.1167742555743
 30
0.0
 10
117.2290459754241
 20
121.972365938872
 30
0.0
 10
117.4517766828504
 20
121.8059647249496
 30
0.0
 10
117.6484944492086
 20
121.6169193893433
 30
0.0
 10
117.8191484126495
 20
121.4054400509079
 30
0.0
 10
117.9633052738282
 20
121.1715674803904
 30
0.0
 10
118.0820653987236
 20
120.9160684403773
 30
0.0
 10
118.1709333718793
 20
120.6374023690626
 30
0.0
 10
118.2378005494255
 20
120.3382915103592
 30
0.0
 10
118.2761318647825
 20
120.0164103652642
 30
0.0
 10
118.2807526315821
 20
119.7946810783343
 30
0.0
 10
118.283132500269
 20
119.6804821564197
 30
0.0
  0
SPLINE
  5
12F
330
1F
100
AcDbEntity
  8
0
  6
Continuous
 62
     7
370
    25
100
AcDbSpline
210
0.0
220
0.0
230
1.0
 70
     8
 71
     3
 72
    11
 73
     7
 74
     0
 42
0.000000001
 43
0.00000001
 40
0.0
 40
0.0
 40
0.0
 40
0.0
 40
0.2562169638253166
 40
0.4993707354622424
 40
0.7403254572605361
 40
1.0
 40
1.0
 40
1.0
 40
1.0
 10
113.3971628418387
 20
119.9234004219236
 30
0.0
 10
113.4012429053254
 20
119.8571737789319
 30
0.0
 10
113.4091950107351
 20
119.7280970506615
 30
0.0
 10
113.4764173733425
 20
119.5467004013751
 30
0.0
 10
113.5868246919873
 20
119.3867464027887
 30
0.0
 10
113.688538484415
 20
119.3063025627236
 30
0.0
 10
113.7412970513026
 20
119.2645766412388
 30
0.0
  0
SPLINE
  5
130
330
1F
100
AcDbEntity
  8
0
  6
Continuous
 62
     7
370
    25
100
AcDbSpline
210
0.0
220
0.0
230
1.0
 70
     8
 71
     3
 72
    15
 73
    11
 74
     0
 42
0.000000001
 43
0.00000001
 40
0.0
 40
0.0
 40
0.0
 40
0.0
 40
0.1712672692126622
 40
0.3166320866423216
 40
0.4384199657870821
 40
0.5419487149463688
 40
0.6411647347520695
 40
0.7473395858568659
 40
0.8659802603180974
 40
1.0
 40
1.0
 40
1.0
 40
1.0
 10
114.3780373533051
 20
120.8748302951471
 30
0.0
 10
114.2898515579294
 20
120.8637585061103
 30
0.0
 10
114.1268171817149
 20
120.8432894247633
 30
0.0
 10
113.9076803653223
 20
120.7805366892844
 30
0.0
 10
113.7309582678992
 20
120.7022293033477
 30
0.0
 10
113.5975423557776
 20
120.5963476592793
 30
0.0
 10
113.503652131079
 20
120.464266598841
 30
0.0
 10
113.44231117265
 20
120.3068191107959
 30
0.0
 10
113.4031488616584
 20
120.1240542234767
 30
0.0
 10
113.399237540553
 20
119.9929451606031
 30
0.0
 10
113.3971628418387
 20
119.9234004219236
 30
0.0
  0
LINE
  5
131
330
1F
100
AcDbEntity
  8
0
  6
Continuous
 62
     7
370
    25
100
AcDbLine
 10
114.3780373533
 20
122.5071674277
 30
0.0
 11
114.3780373533
 21
120.8748302951
 31
0.0
  0
SPLINE
  5
132
330
1F
100
AcDbEntity
  8
0
  6
Continuous
 62
     7
370
    25
100
AcDbSpline
210
0.0
220
0.0
230
1.0
 70
     8
 71
     3
 72
    23
 73
    19
 74
     0
 42
0.000000001
 43
0.00000001
 40
0.0
 40
0.0
 40
0.0
 40
0.0
 40
0.0645035969621801
 40
0.1256138972620923
 40
0.1835240973011096
 40
0.2389160844935371
 40
0.2925678480474662
 40
0.3456547810085464
 40
0.3987232561098167
 40
0.4526663943081793
 40
0.5083352345920817
 40
0.5666849255458778
 40
0.6281800079940694
 40
0.693031995309654
 40
0.7625556776029144
 40
0.8366762601175808
 40
0.9157315421407718
 40
1.0
 40
1.0
 40
1.0
 40
1.0
 10
111.0820781599912
 20
119.9804494085192
 30
0.0
 10
111.0844147757669
 20
120.0824067542922
 30
0.0
 10
111.0889650865684
 20
120.2809578453972
 30
0.0
 10
111.1281490398455
 20
120.5689173040142
 30
0.0
 10
111.1919245904314
 20
120.837490155858
 30
0.0
 10
111.2821405097951
 20
121.0860994786512
 30
0.0
 10
111.3991924883806
 20
121.3146934668121
 30
0.0
 10
111.5414028563661
 20
121.5241861710162
 30
0.0
 10
111.7104787184211
 20
121.7133260022421
 30
0.0
 10
111.9054159962472
 20
121.8819580463903
 30
0.0
 10
112.1268008917439
 20
122.0293570169647
 30
0.0
 10
112.3727024994907
 20
122.1586307514304
 30
0.0
 10
112.6443777972458
 20
122.2665660339946
 30
0.0
 10
112.9414132150717
 20
122.3546210106356
 30
0.0
 10
113.2637331361288
 20
122.4242483926273
 30
0.0
 10
113.6124719573484
 20
122.472941920134
 30
0.0
 10
113.986757890381
 20
122.5027371653024
 30
0.0
 10
114.2448646716401
 20
122.5056595798057
 30
0.0
 10
114.3780373533051
 20
122.5071674277376
 30
0.0
  0
SPLINE
  5
133
330
1F
100
AcDbEntity
  8
0
  6
Continuous
 62
     7
370
    25
100
AcDbSpline
210
0.0
220
0.0
230
1.0
 70
     8
 71
     3
 72
    15
 73
    11
 74
     0
 42
0.000000001
 43
0.00000001
 40
0.0
 40
0.0
 40
0.0
 40
0.0
 40
0.1276362879743397
 40
0.2524358828311581
 40
0.375439159694188
 40
0.4978093123607844
 40
0.6204207359661229
 40
0.7439840665184093
 40
0.8704842137369908
 40
1.0
 40
1.0
 40
1.0
 40
1.0
 10
112.3426767347651
 20
117.8365116864585
 30
0.0
 10
112.2598193374192
 20
117.9062728089786
 30
0.0
 10
112.0959460332041
 20
118.0442446258509
 30
0.0
 10
111.8744090687015
 20
118.2738225071838
 30
0.0
 10
111.6779729052461
 20
118.5193821231532
 30
0.0
 10
111.5088120087397
 20
118.78221577667
 30
0.0
 10
111.3622032609808
 20
119.0588197936801
 30
0.0
 10
111.2428847748477
 20
119.3519436543534
 30
0.0
 10
111.1454723214896
 20
119.6594288725767
 30
0.0
 10
111.1033748374122
 20
119.8726055529041
 30
0.0
 10
111.0820781599912
 20
119.9804494085192
 30
0.0
  0
SPLINE
  5
134
330
1F
100
AcDbEntity
  8
0
  6
Continuous
 62
     7
370
    25
100
AcDbSpline
210
0.0
220
0.0
230
1.0
 70
     8
 71
     3
 72
    13
 73
     9
 74
     0
 42
0.000000001
 43
0.00000001
 40
0.0
 40
0.0
 40
0.0
 40
0.0
 40
0.138280069233082
 40
0.2717456492338121
 40
0.4015299412639884
 40
0.5262175717242135
 40
0.7674801081076703
 40
1.0
 40
1.0
 40
1.0
 40
1.0
 10
115.4840515773038
 20
115.5269478742815
 30
0.0
 10
115.3397368410363
 20
115.6340863035571
 30
0.0
 10
115.0561319663892
 20
115.8446329295665
 30
0.0
 10
114.6397956199481
 20
116.1593616007279
 30
0.0
 10
114.235829288334
 20
116.4611475621789
 30
0.0
 10
113.7217998265856
 20
116.8496623521395
 30
0.0
 10
113.0989342441765
 20
117.3158896269806
 30
0.0
 10
112.591642240484
 20
117.6651190950286
 30
0.0
 10
112.3426767347651
 20
117.8365116864585
 30
0.0
  0
SPLINE
  5
135
330
1F
100
AcDbEntity
  8
0
  6
Continuous
 62
     7
370
    25
100
AcDbSpline
210
0.0
220
0.0
230
1.0
 70
     8
 71
     3
 72
    15
 73
    11
 74
     0
 42
0.000000001
 43
0.00000001
 40
0.0
 40
0.0
 40
0.0
 40
0.0
 40
0.1123726012866892
 40
0.2250902826613897
 40
0.3406035440510488
 40
0.4608585516593974
 40
0.5857752713243628
 40
0.716762562092914
 40
0.8545615519301726
 40
1.0
 40
1.0
 40
1.0
 40
1.0
 10
116.0821457916126
 20
114.6288864078732
 30
0.0
 10
116.0746437355663
 20
114.6696521706344
 30
0.0
 10
116.0596165857391
 20
114.7513088819481
 30
0.0
 10
116.0170979257156
 20
114.869781970287
 30
0.0
 10
115.963882535363
 20
114.9867056858445
 30
0.0
 10
115.8955503639801
 20
115.1010154895819
 30
0.0
 10
115.8115492290371
 20
115.2114430874513
 30
0.0
 10
115.7153549378926
 20
115.3200268865386
 30
0.0
 10
115.6070659335984
 20
115.4278244300858
 30
0.0
 10
115.5257871114336
 20
115.493317897969
 30
0.0
 10
115.4840515773038
 20
115.5269478742815
 30
0.0
  0
SPLINE
  5
136
330
1F
100
AcDbEntity
  8
0
  6
Continuous
 62
     7
370
    25
100
AcDbSpline
210
0.0
220
0.0
230
1.0
 70
     8
 71
     3
 72
    15
 73
    11
 74
     0
 42
0.000000001
 43
0.00000001
 40
0.0
 40
0.0
 40
0.0
 40
0.0
 40
0.1725300338035003
 40
0.3252251300480142
 40
0.4598016241563301
 40
0.5779653562403357
 40
0.6864747973184216
 40
0.7882753781785776
 40
0.8900759590387323
 40
1.0
 40
1.0
 40
1.0
 40
1.0
 10
114.9503675091514
 20
113.8117976966329
 30
0.0
 10
115.0390165397579
 20
113.8214849554412
 30
0.0
 10
115.2061230537488
 20
113.8397457761012
 30
0.0
 10
115.4376282287235
 20
113.8952215082013
 30
0.0
 10
115.6350405365766
 20
113.9669383335727
 30
0.0
 10
115.7980529798221
 20
114.0597861027048
 30
0.0
 10
115.9267141953739
 20
114.1726351712285
 30
0.0
 10
116.0185209245701
 20
114.3072665304077
 30
0.0
 10
116.0719004295604
 20
114.4625250890376
 30
0.0
 10
116.0786444196867
 20
114.5720321114249
 30
0.0
 10
116.0821457916126
 20
114.6288864078732
 30
0.0
  0
LINE
  5
137
330
1F
100
AcDbEntity
  8
0
  6
Continuous
 62
     7
370
    25
100
AcDbLine
 10
114.9503675092
 20
112.1426547662
 30
0.0
 11
114.9503675092
 21
113.8117976966
 31
0.0
  0
SPLINE
  5
138
330
1F
100
AcDbEntity
  8
0
  6
Continuous
 62
     7
370
    25
100
AcDbSpline
210
0.0
220
0.0
230
1.0
 70
     8
 71
     3
 72
    23
 73
    19
 74
     0
 42
0.000000001
 43
0.00000001
 40
0.0
 40
0.0
 40
0.0
 40
0.0
 40
0.0633340089142009
 40
0.1226334754070396
 40
0.1795842882276749
 40
0.2338823249170431
 40
0.2869131606612694
 40
0.3391586381650252
 40
0.3917533836797049
 40
0.445879879099801
 40
0.5018111943394121
 40
0.5604564735015183
 40
0.6226093789672777
 40
0.6888457052181853
 40
0.7592681742124555
 40
0.8343096507196518
 40
0.9145918554194478
 40
1.0
 40
1.0
 40
1.0
 40
1.0
 10
118.3585843857664
 20
114.6583310461161
 30
0.0
 10
118.3565195985443
 20
114.5563360428839
 30
0.0
 10
118.3525215564597
 20
114.358843385543
 30
0.0
 10
118.3099489074383
 20
114.0723635268865
 30
0.0
 10
118.2459724019239
 20
113.8049295175198
 30
0.0
 10
118.1504723503145
 20
113.5576172557021
 30
0.0
 10
118.0308407653503
 20
113.329751122962
 30
0.0
 10
117.8843548198077
 20
113.1211743208864
 30
0.0
 10
117.7089497977518
 20
112.9339474751242
 30
0.0
 10
117.5074005584417
 20
112.7659037271105
 30
0.0
 10
117.2786641407707
 20
112.6186421395178
 30
0.0
 10
117.0250031524174
 20
112.4889681360809
 30
0.0
 10
116.7435253007264
 20
112.3809568438725
 30
0.0
 10
116.4354696233585
 20
112.2932246470657
 30
0.0
 10
116.1011545678135
 20
112.2262313826622
 30
0.0
 10
115.7410893627893
 20
112.1766148947177
 30
0.0
 10
115.3544991635859
 20
112.1471712029075
 30
0.0
 10
115.0878280499965
 20
112.1441909780657
 30
0.0
 10
114.9503675091514
 20
112.1426547662388
 30
0.0
  0
SPLINE
  5
139
330
1F
100
AcDbEntity
  8
0
  6
Continuous
 62
     7
370
    25
100
AcDbSpline
210
0.0
220
0.0
230
1.0
 70
     8
 71
     3
 72
    15
 73
    11
 74
     0
 42
0.000000001
 43
0.00000001
 40
0.0
 40
0.0
 40
0.0
 40
0.0
 40
0.1430144959421621
 40
0.2773305316499154
 40
0.4047389722479117
 40
0.5268618934714298
 40
0.6455382976379869
 40
0.7627694956563813
 40
0.8801161000380638
 40
0.9999999999999999
 40
0.9999999999999999
 40
0.9999999999999999
 40
0.9999999999999999
 10
117.0096518962638
 20
117.0194229752182
 30
0.0
 10
117.1168236842518
 20
116.9373767458224
 30
0.0
 10
117.3246488333376
 20
116.7782745214758
 30
0.0
 10
117.6005906056315
 20
116.5132553716521
 30
0.0
 10
117.8349187077336
 20
116.2363528742411
 30
0.0
 10
118.0263960190187
 20
115.9455925757742
 30
0.0
 10
118.1757175779069
 20
115.6414908001462
 30
0.0
 10
118.2799371693929
 20
115.3242984071228
 30
0.0
 10
118.3483807757708
 20
114.9955771058777
 30
0.0
 10
118.3551590169064
 20
114.7715451097427
 30
0.0
 10
118.3585843857664
 20
114.6583310461161
 30
0.0
  0
SPLINE
  5
13A
330
1F
100
AcDbEntity
  8
0
  6
Continuous
 62
     7
370
    25
100
AcDbSpline
210
0.0
220
0.0
230
1.0
 70
     8
 71
     3
 72
    25
 73
    21
 74
     0
 42
0.000000001
 43
0.00000001
 40
0.0
 40
0.0
 40
0.0
 40
0.0
 40
0.036052638037408
 40
0.0756975894993194
 40
0.1199709599149462
 40
0.1681028145141368
 40
0.271058468080536
 40
0.3792929950324382
 40
0.489724226838228
 40
0.5999251574963682
 40
0.7047306199927459
 40
0.7985867041737924
 40
0.8405532391179392
 40
0.8787967070791349
 40
0.9124013439397741
 40
0.9420144297748871
 40
0.9663428456058729
 40
0.9843616981457658
 40
0.9954300407496735
 40
1.0
 40
1.0
 40
1.0
 40
1.0
 10
113.7412970513026
 20
119.2645766412388
 30
0.0
 10
113.7818596439407
 20
119.2395468856858
 30
0.0
 10
113.867026518092
 20
119.1869933899011
 30
0.0
 10
114.0004075590729
 20
119.1011692678694
 30
0.0
 10
114.1471846563229
 20
119.0066412492586
 30
0.0
 10
114.3605055508803
 20
118.8610178238214
 30
0.0
 10
114.6454183967275
 20
118.6703496680734
 30
0.0
 10
114.9971120430327
 20
118.4313930276751
 30
0.0
 10
115.355651241297
 20
118.1854602804089
 30
0.0
 10
115.706501055072
 20
117.9364302590326
 30
0.0
 10
116.0390969538654
 20
117.6995654121083
 30
0.0
 10
116.2980984482282
 20
117.5148567353079
 30
0.0
 10
116.486954789424
 20
117.383359603565
 30
0.0
 10
116.608864106526
 20
117.2951644521807
 30
0.0
 10
116.7183224673028
 20
117.217618931206
 30
0.0
 10
116.812465335949
 20
117.1503432207582
 30
0.0
 10
116.8903505538853
 20
117.0955793350672
 30
0.0
 10
116.9489842888547
 20
117.0565210801172
 30
0.0
 10
116.9849334445718
 20
117.0297067408048
 30
0.0
 10
117.0040619884345
 20
117.0217485780708
 30
0.0
 10
117.0096518962638
 20
117.0194229752182
 30
0.0
  0
LINE
  5
13B
330
1F
100
AcDbEntity
  8
0
  6
Continuous
 62
     7
370
    25
100
AcDbLine
 10
114.3890790926
 20
113.8246797259
 30
0.0
 11
114.3890790926
 21
112.1426547662
 31
0.0
  0
SPLINE
  5
13C
330
1F
100
AcDbEntity
  8
0
  6
Continuous
 62
     7
370
    25
100
AcDbSpline
210
0.0
220
0.0
230
1.0
 70
     8
 71
     3
 72
    15
 73
    11
 74
     0
 42
0.000000001
 43
0.00000001
 40
0.0
 40
0.0
 40
0.0
 40
0.0
 40
0.1485359088230178
 40
0.2815297237158848
 40
0.402910496607734
 40
0.5165056316888997
 40
0.6288486423158621
 40
0.74309373867245
 40
0.8652089075128987
 40
1.0
 40
1.0
 40
1.0
 40
1.0
 10
113.1045567493
 20
115.3226756964714
 30
0.0
 10
113.1112041677544
 20
115.2136983666925
 30
0.0
 10
113.1238034502831
 20
115.0071465787307
 30
0.0
 10
113.1906891398393
 20
114.7177135572513
 30
0.0
 10
113.2921783287631
 20
114.4657013046542
 30
0.0
 10
113.4377276327016
 20
114.2540410728164
 30
0.0
 10
113.6205400405064
 20
114.080741137508
 30
0.0
 10
113.8444974503788
 20
113.9530045547068
 30
0.0
 10
114.1035076493561
 20
113.8628431604703
 30
0.0
 10
114.2908081024306
 20
113.8378125463786
 30
0.0
 10
114.3890790926462
 20
113.8246797258642
 30
0.0
  0
LINE
  5
13D
330
1F
100
AcDbEntity
  8
0
  6
Continuous
 62
     7
370
    25
100
AcDbLine
 10
110.8796462721
 20
115.3226756965
 30
0.0
 11
113.1045567493
 21
115.3226756965
 31
0.0
  0
SPLINE
  5
13E
330
1F
100
AcDbEntity
  8
0
  6
Continuous
 62
     7
370
    25
100
AcDbSpline
210
0.0
220
0.0
230
1.0
 70
     8
 71
     3
 72
    23
 73
    19
 74
     0
 42
0.000000001
 43
0.00000001
 40
0.0
 40
0.0
 40
0.0
 40
0.0
 40
0.0783304034497198
 40
0.1518539720272612
 40
0.2209481045444282
 40
0.2859719254081423
 40
0.3478267804479616
 40
0.4063481701499611
 40
0.4629699388836737
 40
0.5177027668316906
 40
0.5721114051777094
 40
0.6265453744139522
 40
0.6821227869877549
 40
0.739356002590053
 40
0.7992865563979937
 40
0.862234936513315
 40
0.9291224310539378
 40
1.0
 40
1.0
 40
1.0
 40
1.0
 10
114.3890790926462
 20
112.1426547662388
 30
0.0
 10
114.2472999621189
 20
112.1451533081947
 30
0.0
 10
113.972442139703
 20
112.1499970662193
 30
0.0
 10
113.5737830203762
 20
112.1864994510331
 30
0.0
 10
113.2028504400561
 20
112.2488043381743
 30
0.0
 10
112.8582246877434
 20
112.3345122729132
 30
0.0
 10
112.5412344566666
 20
112.446239662118
 30
0.0
 10
112.2509303991545
 20
112.5830601981931
 30
0.0
 10
111.9885707849433
 20
112.7447404331179
 30
0.0
 10
111.7537941540161
 20
112.9327471758945
 30
0.0
 10
111.5467264110865
 20
113.1453593903945
 30
0.0
 10
111.3663592445823
 20
113.3830503047614
 30
0.0
 10
111.2153710204154
 20
113.646266426695
 30
0.0
 10
111.0914335037814
 20
113.9339757092973
 30
0.0
 10
110.9961711841925
 20
114.2464171367544
 30
0.0
 10
110.9294222924431
 20
114.5836786551378
 30
0.0
 10
110.8854392186244
 20
114.9448704900153
 30
0.0
 10
110.8816141822914
 20
115.1943322498012
 30
0.0
 10
110.8796462720713
 20
115.3226756964714
 30
0.0
  0
LINE
  5
13F
330
1F
100
AcDbEntity
  8
0
  6
Continuous
 62
     7
370
    25
100
AcDbLine
 10
89.834091088
 20
116.6182397792
 30
0.0
 11
89.0335649857
 21
116.6182397792
 31
0.0
  0
SPLINE
  5
140
330
1F
100
AcDbEntity
  8
0
  6
Continuous
 62
     7
370
    25
100
AcDbSpline
210
0.0
220
0.0
230
1.0
 70
     8
 71
     3
 72
    23
 73
    19
 74
     0
 42
0.000000001
 43
0.00000001
 40
0.0
 40
0.0
 40
0.0
 40
0.0
 40
0.0794265030086144
 40
0.153153418519168
 40
0.2231802027627927
 40
0.2890185068661889
 40
0.3505727963890569
 40
0.4097738163698419
 40
0.4668696792798289
 40
0.5216734757562979
 40
0.5766034336807602
 40
0.6302108781325261
 40
0.6849614670270547
 40
0.7419039835645836
 40
0.8018389285116777
 40
0.8637826193214826
 40
0.9299576097425335
 40
1.0
 40
1.0
 40
1.0
 40
1.0
 10
91.0818076335054
 20
115.2104180131704
 30
0.0
 10
91.08070006778163
 20
115.2675008135187
 30
0.0
 10
91.07856441443668
 20
115.3775701944033
 30
0.0
 10
91.06354222927868
 20
115.5374172948149
 30
0.0
 10
91.03985238318627
 20
115.6862156575386
 30
0.0
 10
91.00803033858762
 20
115.8247538918139
 30
0.0
 10
90.96246511092438
 20
115.9510610559061
 30
0.0
 10
90.91029461952712
 20
116.0680541475862
 30
0.0
 10
90.84479191677829
 20
116.1723977803021
 30
0.0
 10
90.77322500506699
 20
116.2689488362128
 30
0.0
 10
90.68835151529228
 20
116.3507611539798
 30
0.0
 10
90.59458334244962
 20
116.4215858075995
 30
0.0
 10
90.49274736943708
 20
116.4833014628858
 30
0.0
 10
90.37944883672513
 20
116.532894574661
 30
0.0
 10
90.2564574568962
 20
116.5708751425843
 30
0.0
 10
90.12404524853852
 20
116.5987158884413
 30
0.0
 10
89.9823498536971
 20
116.6152620283964
 30
0.0
 10
89.88443730080655
 20
116.6172285844888
 30
0.0
 10
89.83409108796275
 20
116.6182397791588
 30
0.0
  0
SPLINE
  5
141
330
1F
100
AcDbEntity
  8
0
  6
Continuous
 62
     7
370
    25
100
AcDbSpline
210
0.0
220
0.0
230
1.0
 70
     8
 71
     3
 72
    23
 73
    19
 74
     0
 42
0.000000001
 43
0.00000001
 40
0.0
 40
0.0
 40
0.0
 40
0.0
 40
0.0717773941043744
 40
0.1384523732599303
 40
0.2023753716464063
 40
0.2621190043958378
 40
0.3202967851908143
 40
0.3755905416196548
 40
0.4300657535911848
 40
0.4852923832929283
 40
0.5401671282221266
 40
0.5960835149389321
 40
0.6545580870190597
 40
0.7160022195808873
 40
0.7807452699111889
 40
0.8489602334877204
 40
0.9218713698323666
 40
1.0
 40
1.0
 40
1.0
 40
1.0
 10
89.88561920488783
 20
113.9093330608125
 30
0.0
 10
89.93411453013854
 20
113.9104797631284
 30
0.0
 10
90.02765781011901
 20
113.9126916525267
 30
0.0
 10
90.16382913522132
 20
113.927241084619
 30
0.0
 10
90.29001572022955
 20
113.9528766151186
 30
0.0
 10
90.40802015443076
 20
113.9878288121291
 30
0.0
 10
90.5159912022716
 20
114.0335750075747
 30
0.0
 10
90.61532775393412
 20
114.0890577694701
 30
0.0
 10
90.70440093583011
 20
114.1565598821311
 30
0.0
 10
90.78541567413511
 20
114.2331364989623
 30
0.0
 10
90.85570371545448
 20
114.3209563360159
 30
0.0
 10
90.91708476311975
 20
114.41767274612
 30
0.0
 10
90.96916668488069
 20
114.5248463613333
 30
0.0
 10
91.00820494463251
 20
114.6435751647936
 30
0.0
 10
91.0418184384624
 20
114.770608924188
 30
0.0
 10
91.06607087564858
 20
114.9078019182427
 30
0.0
 10
91.07785016195572
 20
115.0556277468617
 30
0.0
 10
91.0804584429731
 20
115.1576465505901
 30
0.0
 10
91.0818076335054
 20
115.2104180131704
 30
0.0
  0
LINE
  5
142
330
1F
100
AcDbEntity
  8
0
  6
Continuous
 62
     7
370
    25
100
AcDbLine
 10
89.0335649857
 20
113.9093330608
 30
0.0
 11
89.8856192049
 21
113.9093330608
 31
0.0
  0
LINE
  5
143
330
1F
100
AcDbEntity
  8
0
  6
Continuous
 62
     7
370
    25
100
AcDbLine
 10
89.0335649857
 20
112.2604333192
 30
0.0
 11
89.0335649857
 21
113.9093330608
 31
0.0
  0
LINE
  5
144
330
1F
100
AcDbEntity
  8
0
  6
Continuous
 62
     7
370
    25
100
AcDbLine
 10
89.9242652926
 20
112.2604333192
 30
0.0
 11
89.0335649857
 21
112.2604333192
 31
0.0
  0
SPLINE
  5
145
330
1F
100
AcDbEntity
  8
0
  6
Continuous
 62
     7
370
    25
100
AcDbSpline
210
0.0
220
0.0
230
1.0
 70
     8
 71
     3
 72
    23
 73
    19
 74
     0
 42
0.000000001
 43
0.00000001
 40
0.0
 40
0.0
 40
0.0
 40
0.0
 40
0.0654612863078792
 40
0.1274741201242154
 40
0.1861474541719769
 40
0.2423100542185421
 40
0.2964775765780239
 40
0.3499079608180545
 40
0.4028891892497942
 40
0.4568536259902855
 40
0.5128861225645025
 40
0.5707726032200602
 40
0.6318450945614789
 40
0.6965322041558114
 40
0.7653386539335174
 40
0.838328428027882
 40
0.916588614499498
 40
1.0
 40
1.0
 40
1.0
 40
1.0
 10
93.44658014238783
 20
115.0319098938228
 30
0.0
 10
93.4446213632809
 20
114.9201024277574
 30
0.0
 10
93.44080699211202
 20
114.7023774308335
 30
0.0
 10
93.39644326598139
 20
114.3871500961263
 30
0.0
 10
93.3305640498886
 20
114.0920687673156
 30
0.0
 10
93.23181984385076
 20
113.8202366035555
 30
0.0
 10
93.1080208667438
 20
113.5690452003882
 30
0.0
 10
92.95707964708375
 20
113.3392525760397
 30
0.0
 10
92.77575041438487
 20
113.1331479598497
 30
0.0
 10
92.56770935137995
 20
112.9475438350197
 30
0.0
 10
92.33167126961459
 20
112.7837704358104
 30
0.0
 10
92.06714093257706
 20
112.6439069808451
 30
0.0
 10
91.7770500348214
 20
112.5239960177241
 30
0.0
 10
91.45893813504766
 20
112.4271302740539
 30
0.0
 10
91.11419279475908
 20
112.3522581917891
 30
0.0
 10
90.74201688229446
 20
112.3001037101143
 30
0.0
 10
90.34264073785675
 20
112.2661227171393
 30
0.0
 10
90.0666549385597
 20
112.2623696454602
 30
0.0
 10
89.92426529258162
 20
112.2604333192104
 30
0.0
  0
SPLINE
  5
146
330
1F
100
AcDbEntity
  8
0
  6
Continuous
 62
     7
370
    25
100
AcDbSpline
210
0.0
220
0.0
230
1.0
 70
     8
 71
     3
 72
    23
 73
    19
 74
     0
 42
0.000000001
 43
0.00000001
 40
0.0
 40
0.0
 40
0.0
 40
0.0
 40
0.0591992976196076
 40
0.1163657147895308
 40
0.1724927683579037
 40
0.2275258313288639
 40
0.2823547366270563
 40
0.3376355973593849
 40
0.3938281743747524
 40
0.4510191080750921
 40
0.5097011117019493
 40
0.5706073791439468
 40
0.633936794474872
 40
0.6998849183054311
 40
0.7693123442687062
 40
0.8422332883882876
 40
0.918877519566853
 40
1.0
 40
1.0
 40
1.0
 40
1.0
 10
91.92097982342787
 20
117.4463702297401
 30
0.0
 10
91.98021766944143
 20
117.4302869488323
 30
0.0
 10
92.09665915728229
 20
117.3986726805174
 30
0.0
 10
92.2632749819753
 20
117.3330335821125
 30
0.0
 10
92.4200007622853
 20
117.2561062280611
 30
0.0
 10
92.5668130324322
 20
117.1658007484378
 30
0.0
 10
92.70142121354475
 20
117.0596370952503
 30
0.0
 10
92.82704351384736
 20
116.9414070204938
 30
0.0
 10
92.94342089398992
 20
116.8106406593362
 30
0.0
 10
93.04835694217792
 20
116.6662101473004
 30
0.0
 10
93.14332516035891
 20
116.5092154487473
 30
0.0
 10
93.22330565983496
 20
116.3370622070649
 30
0.0
 10
93.29358660194585
 20
116.1528027270606
 30
0.0
 10
93.35123848057924
 20
115.9548231788055
 30
0.0
 10
93.3920634375846
 20
115.7426573594123
 30
0.0
 10
93.42303606022797
 20
115.5178285807936
 30
0.0
 10
93.44467507242395
 20
115.2795390500654
 30
0.0
 10
93.44593321483305
 20
115.116000309174
 30
0.0
 10
93.44658014238783
 20
115.0319098938228
 30
0.0
  0
SPLINE
  5
147
330
1F
100
AcDbEntity
  8
0
  6
Continuous
 62
     7
370
    25
100
AcDbSpline
210
0.0
220
0.0
230
1.0
 70
     8
 71
     3
 72
    23
 73
    19
 74
     0
 42
0.000000001
 43
0.00000001
 40
0.0
 40
0.0
 40
0.0
 40
0.0
 40
0.0835443471781375
 40
0.1628117311592777
 40
0.2379402564728588
 40
0.3085962142520735
 40
0.3757084647455118
 40
0.4396220743063999
 40
0.5004863709083627
 40
0.5586981369431959
 40
0.6147540807514319
 40
0.6690417161401999
 40
0.722692888867135
 40
0.7763781462729417
 40
0.8298471670883873
 40
0.8848895823885427
 40
0.9415478108394364
 40
1.0
 40
1.0
 40
1.0
 40
1.0
 10
93.28095405227155
 20
119.7007253452117
 30
0.0
 10
93.28000580400538
 20
119.6203298324285
 30
0.0
 10
93.27815785202544
 20
119.4636545688616
 30
0.0
 10
93.26060377412752
 20
119.2352849771653
 30
0.0
 10
93.23610442062738
 20
119.0200530891334
 30
0.0
 10
93.199120617974
 20
118.8184355811659
 30
0.0
 10
93.15181662149661
 20
118.6300340415208
 30
0.0
 10
93.09222176449592
 20
118.4551911119479
 30
0.0
 10
93.02582824976174
 20
118.2917899224293
 30
0.0
 10
92.94318692810502
 20
118.1446485222082
 30
0.0
 10
92.8541613891628
 20
118.0087326928679
 30
0.0
 10
92.75083707242813
 20
117.8891184276887
 30
0.0
 10
92.64115839925184
 20
117.7784898795653
 30
0.0
 10
92.51711234668647
 20
117.6851502502146
 30
0.0
 10
92.3826335039383
 20
117.6056174077944
 30
0.0
 10
92.23913586634743
 20
117.5367061024467
 30
0.0
 10
92.08384553774518
 20
117.4835619951721
 30
0.0
 10
91.97582952704836
 20
117.4588956241709
 30
0.0
 10
91.92097982342787
 20
117.4463702297401
 30
0.0
  0
SPLINE
  5
148
330
1F
100
AcDbEntity
  8
0
  6
Continuous
 62
     7
370
    25
100
AcDbSpline
210
0.0
220
0.0
230
1.0
 70
     8
 71
     3
 72
    23
 73
    19
 74
     0
 42
0.000000001
 43
0.00000001
 40
0.0
 40
0.0
 40
0.0
 40
0.0
 40
0.0842752245368899
 40
0.1632950672886598
 40
0.2373085813767373
 40
0.3066945697777753
 40
0.3722278733712072
 40
0.4334505036142355
 40
0.492018280647037
 40
0.5474498123671188
 40
0.6014864637350033
 40
0.6547008821570648
 40
0.7077074358540828
 40
0.7613698788011872
 40
0.816521156870217
 40
0.8746386732968755
 40
0.9353967868735424
 40
1.0
 40
1.0
 40
1.0
 40
1.0
 10
89.7715212316966
 20
122.389388874766
 30
0.0
 10
89.91328661404013
 20
122.3872855225726
 30
0.0
 10
90.18797692517485
 20
122.3832099826992
 30
0.0
 10
90.5861384531884
 20
122.351470410796
 30
0.0
 10
90.9570978785913
 20
122.301342570398
 30
0.0
 10
91.30126090523672
 20
122.2281900131501
 30
0.0
 10
91.61729533363108
 20
122.1324798738045
 30
0.0
 10
91.90830639366071
 20
122.0193542280513
 30
0.0
 10
92.16924659854106
 20
121.8810115092948
 30
0.0
 10
92.40464265137943
 20
121.7236159697361
 30
0.0
 10
92.61248048085392
 20
121.5444212782325
 30
0.0
 10
92.7920109452909
 20
121.3423472999679
 30
0.0
 10
92.94420968074762
 20
121.1197435680496
 30
0.0
 10
93.06799458508793
 20
120.8765768387356
 30
0.0
 10
93.1648050820158
 20
120.612208907266
 30
0.0
 10
93.23053964722489
 20
120.326512662752
 30
0.0
 10
93.27532616346731
 20
120.0205002465881
 30
0.0
 10
93.27904011770144
 20
119.8094745155813
 30
0.0
 10
93.28095405227155
 20
119.7007253452117
 30
0.0
  0
LINE
  5
149
330
1F
100
AcDbEntity
  8
0
  6
Continuous
 62
     7
370
    25
100
AcDbLine
 10
89.0335649857
 20
122.3893888748
 30
0.0
 11
89.7715212317
 21
122.3893888748
 31
0.0
  0
LINE
  5
14A
330
1F
100
AcDbEntity
  8
0
  6
Continuous
 62
     7
370
    25
100
AcDbLine
 10
89.0335649857
 20
120.7404891332
 30
0.0
 11
89.0335649857
 21
122.3893888748
 31
0.0
  0
LINE
  5
14B
330
1F
100
AcDbEntity
  8
0
  6
Continuous
 62
     7
370
    25
100
AcDbLine
 10
89.834091088
 20
120.7404891332
 30
0.0
 11
89.0335649857
 21
120.7404891332
 31
0.0
  0
SPLINE
  5
14C
330
1F
100
AcDbEntity
  8
0
  6
Continuous
 62
     7
370
    25
100
AcDbSpline
210
0.0
220
0.0
230
1.0
 70
     8
 71
     3
 72
    23
 73
    19
 74
     0
 42
0.000000001
 43
0.00000001
 40
0.0
 40
0.0
 40
0.0
 40
0.0
 40
0.082927057845675
 40
0.1604610220081275
 40
0.2328074370046698
 40
0.3011737058895843
 40
0.363167097876284
 40
0.4223027734058545
 40
0.4779431024320868
 40
0.5312784915980383
 40
0.582612662269228
 40
0.6348466740846642
 40
0.6881737419479429
 40
0.7429863905200449
 40
0.8013819914042248
 40
0.8629083155406229
 40
0.9292852724111441
 40
1.0
 40
1.0
 40
1.0
 40
1.0
 10
90.91618154338911
 20
119.4375638909159
 30
0.0
 10
90.9156985469315
 20
119.4915767370836
 30
0.0
 10
90.9147639652976
 20
119.5960897479487
 30
0.0
 10
90.90128561917635
 20
119.7472187738232
 30
0.0
 10
90.88121543546528
 20
119.8879533849716
 30
0.0
 10
90.85454343277132
 20
120.0173330070115
 30
0.0
 10
90.81939087148392
 20
120.1358242397131
 30
0.0
 10
90.77515060677912
 20
120.2422511757853
 30
0.0
 10
90.72404550388153
 20
120.3393562284925
 30
0.0
 10
90.66270555679262
 20
120.4241581287137
 30
0.0
 10
90.59367089954398
 20
120.4998983753909
 30
0.0
 10
90.51368680547637
 20
120.5639609924539
 30
0.0
 10
90.4251910784843
 20
120.6199277653096
 30
0.0
 10
90.32578023177045
 20
120.6639883635689
 30
0.0
 10
90.21732537353033
 20
120.6991323285391
 30
0.0
 10
90.09804423193147
 20
120.7223165402112
 30
0.0
 10
89.9694205503053
 20
120.7371893053749
 30
0.0
 10
89.88014253541317
 20
120.7393662302617
 30
0.0
 10
89.83409108796275
 20
120.7404891331639
 30
0.0
  0
SPLINE
  5
14D
330
1F
100
AcDbEntity
  8
0
  6
Continuous
 62
     7
370
    25
100
AcDbSpline
210
0.0
220
0.0
230
1.0
 70
     8
 71
     3
 72
    15
 73
    11
 74
     0
 42
0.000000001
 43
0.00000001
 40
0.0
 40
0.0
 40
0.0
 40
0.0
 40
0.1407398038586582
 40
0.2659071061007465
 40
0.3801739043772037
 40
0.4903787169527129
 40
0.6027327956261261
 40
0.7231448191325348
 40
0.8532817581221837
 40
1.0
 40
1.0
 40
1.0
 40
1.0
 10
89.83409108796275
 20
118.2671395207608
 30
0.0
 10
89.9197472232201
 20
118.2699929153187
 30
0.0
 10
90.08158186005763
 20
118.2753839835784
 30
0.0
 10
90.30699921002632
 20
118.3333252080663
 30
0.0
 10
90.49969002135595
 20
118.4272492040271
 30
0.0
 10
90.65443671474493
 20
118.5646689855746
 30
0.0
 10
90.77461088668043
 20
118.7369944460986
 30
0.0
 10
90.85820868665839
 20
118.9425394227795
 30
0.0
 10
90.90827654128044
 20
119.1800009956779
 30
0.0
 10
90.91344339234104
 20
119.3483487203384
 30
0.0
 10
90.9161815433891
 20
119.4375638909159
 30
0.0
  0
LINE
  5
14E
330
1F
100
AcDbEntity
  8
0
  6
Continuous
 62
     7
370
    25
100
AcDbLine
 10
89.0335649857
 20
118.2671395208
 30
0.0
 11
89.834091088
 21
118.2671395208
 31
0.0
  0
LINE
  5
14F
330
1F
100
AcDbEntity
  8
0
  6
Continuous
 62
     7
370
    25
100
AcDbLine
 10
89.0335649857
 20
116.6182397792
 30
0.0
 11
89.0335649857
 21
118.2671395208
 31
0.0
  0
LINE
  5
150
330
1F
100
AcDbEntity
  8
0
  6
Continuous
 62
     7
370
    25
100
AcDbLine
 10
99.2618961954
 20
118.8578725755
 30
0.0
 11
99.2618961954
 21
119.9086781028
 31
0.0
  0
LINE
  5
151
330
1F
100
AcDbEntity
  8
0
  6
Continuous
 62
     7
370
    25
100
AcDbLine
 10
101.6781968212
 20
118.8578725755
 30
0.0
 11
99.2618961954
 21
118.8578725755
 31
0.0
  0
LINE
  5
152
330
1F
100
AcDbEntity
  8
0
  6
Continuous
 62
     7
370
    25
100
AcDbLine
 10
101.6781968212
 20
119.7835383903
 30
0.0
 11
101.6781968212
 21
118.8578725755
 31
0.0
  0
SPLINE
  5
153
330
1F
100
AcDbEntity
  8
0
  6
Continuous
 62
     7
370
    25
100
AcDbSpline
210
0.0
220
0.0
230
1.0
 70
     8
 71
     3
 72
    23
 73
    19
 74
     0
 42
0.000000001
 43
0.00000001
 40
0.0
 40
0.0
 40
0.0
 40
0.0
 40
0.0828754053151104
 40
0.1608182510931335
 40
0.2337719540148946
 40
0.3020249443415889
 40
0.3665374376797611
 40
0.4274616111366371
 40
0.4852931247076878
 40
0.540766243354111
 40
0.59473674631627
 40
0.6482531776181865
 40
0.7017696089201034
 40
0.7561093699343571
 40
0.8127051286205382
 40
0.8716546160952365
 40
0.9340410634556304
 40
1.0
 40
1.0
 40
1.0
 40
1.0
 10
98.25709791532064
 20
122.5071674277376
 30
0.0
 10
98.39517261160468
 20
122.5049813730948
 30
0.0
 10
98.66310410578181
 20
122.5007393729126
 30
0.0
 10
99.05171066642983
 20
122.470031540909
 30
0.0
 10
99.41307066822017
 20
122.4165565596906
 30
0.0
 10
99.74867930744009
 20
122.3448695224668
 30
0.0
 10
100.056228725835
 20
122.245880430775
 30
0.0
 10
100.3398043793799
 20
122.1316632125499
 30
0.0
 10
100.595772933902
 20
121.9932641894451
 30
0.0
 10
100.823779934885
 20
121.8319100762659
 30
0.0
 10
101.0263964004617
 20
121.6503735510625
 30
0.0
 10
101.2033654788817
 20
121.4475134304643
 30
0.0
 10
101.3476657698117
 20
121.2198625891467
 30
0.0
 10
101.4720188209801
 20
120.9751125293093
 30
0.0
 10
101.5648038455146
 20
120.7068064411869
 30
0.0
 10
101.6302737697393
 20
120.4173221465758
 30
0.0
 10
101.6718483354817
 20
120.1074061805406
 30
0.0
 10
101.6760417514109
 20
119.893479203618
 30
0.0
 10
101.6781968211669
 20
119.7835383902699
 30
0.0
  0
LINE
  5
154
330
1F
100
AcDbEntity
  8
0
  6
Continuous
 62
     7
370
    25
100
AcDbLine
 10
98.2570979153
 20
120.8582676861
 30
0.0
 11
98.2570979153
 21
122.5071674277
 31
0.0
  0
SPLINE
  5
155
330
1F
100
AcDbEntity
  8
0
  6
Continuous
 62
     7
370
    25
100
AcDbSpline
210
0.0
220
0.0
230
1.0
 70
     8
 71
     3
 72
    15
 73
    11
 74
     0
 42
0.000000001
 43
0.00000001
 40
0.0
 40
0.0
 40
0.0
 40
0.0
 40
0.1409794030309289
 40
0.2663902853265623
 40
0.3801921774175497
 40
0.4892508518635569
 40
0.5998765857378571
 40
0.7190332117724365
 40
0.8509854041711027
 40
1.0
 40
1.0
 40
1.0
 40
1.0
 10
99.26189619535938
 20
119.9086781028022
 30
0.0
 10
99.25870835880136
 20
119.9831092196795
 30
0.0
 10
99.25268472221325
 20
120.123751937948
 30
0.0
 10
99.20842195501517
 20
120.3213266208514
 30
0.0
 10
99.12685493877372
 20
120.4876092839313
 30
0.0
 10
99.01689996676022
 20
120.6276379463514
 30
0.0
 10
98.86888055400104
 20
120.7316773288178
 30
0.0
 10
98.69257136293615
 20
120.8078935842223
 30
0.0
 10
98.48424255538423
 20
120.8510186366496
 30
0.0
 10
98.33581729245844
 20
120.8557554513752
 30
0.0
 10
98.25709791532064
 20
120.8582676861355
 30
0.0
  0
LINE
  5
156
330
1F
100
AcDbEntity
  8
0
  6
Continuous
 62
     7
370
    25
100
AcDbLine
 10
101.6781968212
 20
116.1471255673
 30
0.0
 11
101.6781968212
 21
115.0392710534
 31
0.0
  0
LINE
  5
157
330
1F
100
AcDbEntity
  8
0
  6
Continuous
 62
     7
370
    25
100
AcDbLine
 10
99.2618961954
 20
116.1471255673
 30
0.0
 11
101.6781968212
 21
116.1471255673
 31
0.0
  0
LINE
  5
158
330
1F
100
AcDbEntity
  8
0
  6
Continuous
 62
     7
370
    25
100
AcDbLine
 10
99.2618961954
 20
114.7264217721
 30
0.0
 11
99.2618961954
 21
116.1471255673
 31
0.0
  0
SPLINE
  5
159
330
1F
100
AcDbEntity
  8
0
  6
Continuous
 62
     7
370
    25
100
AcDbSpline
210
0.0
220
0.0
230
1.0
 70
     8
 71
     3
 72
    15
 73
    11
 74
     0
 42
0.000000001
 43
0.00000001
 40
0.0
 40
0.0
 40
0.0
 40
0.0
 40
0.1503644628345849
 40
0.2849247855839641
 40
0.4070444188212751
 40
0.5211918882383699
 40
0.6311643427469277
 40
0.7439313290986118
 40
0.8659624778513471
 40
1.0
 40
1.0
 40
1.0
 40
1.0
 10
98.25709791532064
 20
113.7363458111355
 30
0.0
 10
98.33603414233997
 20
113.7456850076429
 30
0.0
 10
98.48560996055065
 20
113.76338179924
 30
0.0
 10
98.69287437932853
 20
113.8243033776158
 30
0.0
 10
98.86970161541483
 20
113.9106915190638
 30
0.0
 10
99.0151190160063
 20
114.0241861711422
 30
0.0
 10
99.12615303520285
 20
114.1649648257403
 30
0.0
 10
99.20779443435451
 20
114.329208679896
 30
0.0
 10
99.25240448362021
 20
114.5204680356815
 30
0.0
 10
99.25863491536657
 20
114.6556576339994
 30
0.0
 10
99.2618961953594
 20
114.7264217720528
 30
0.0
  0
LINE
  5
15A
330
1F
100
AcDbEntity
  8
0
  6
Continuous
 62
     7
370
    25
100
AcDbLine
 10
98.2570979153
 20
112.1426547662
 30
0.0
 11
98.2570979153
 21
113.7363458111
 31
0.0
  0
SPLINE
  5
15B
330
1F
100
AcDbEntity
  8
0
  6
Continuous
 62
     7
370
    25
100
AcDbSpline
210
0.0
220
0.0
230
1.0
 70
     8
 71
     3
 72
    23
 73
    19
 74
     0
 42
0.000000001
 43
0.00000001
 40
0.0
 40
0.0
 40
0.0
 40
0.0
 40
0.0685288925651096
 40
0.1328362861245543
 40
0.1937390271620513
 40
0.2519047417256952
 40
0.3077245459475937
 40
0.3619615720073699
 40
0.415999126717618
 40
0.4700164557877282
 40
0.5253051762026504
 40
0.5824980041287212
 40
0.6423853977586718
 40
0.7055399663185041
 40
0.7722436283230787
 40
0.8433377250463684
 40
0.9192977289214505
 40
1.0
 40
1.0
 40
1.0
 40
1.0
 10
101.6781968211669
 20
115.0392710533835
 30
0.0
 10
101.6760852450108
 20
114.9219721835092
 30
0.0
 10
101.6719921694636
 20
114.6946002582163
 30
0.0
 10
101.6301428100513
 20
114.3651817482156
 30
0.0
 10
101.5651089959407
 20
114.0578886186037
 30
0.0
 10
101.4718687385016
 20
113.7727566322547
 30
0.0
 10
101.3487726066981
 20
113.5119776009457
 30
0.0
 10
101.2034822519933
 20
113.2709665329313
 30
0.0
 10
101.0273844905366
 20
113.0550602566289
 30
0.0
 10
100.8241005908453
 20
112.8624510645299
 30
0.0
 10
100.5968009138228
 20
112.6896900017621
 30
0.0
 10
100.3405951736856
 20
112.542020203745
 30
0.0
 10
100.0568668540133
 20
112.4200622144861
 30
0.0
 10
99.74887019418144
 20
112.3163166973335
 30
0.0
 10
99.41367013229188
 20
112.2374949746824
 30
0.0
 10
99.05159860157357
 20
112.184457925727
 30
0.0
 10
98.6633217050145
 20
112.1478055136459
 30
0.0
 10
98.39521113796673
 20
112.1444059840195
 30
0.0
 10
98.25709791532064
 20
112.1426547662388
 30
0.0
  0
LINE
  5
15C
330
1F
100
AcDbEntity
  8
0
  6
Continuous
 62
     7
370
    25
100
AcDbLine
 10
97.7859837034
 20
113.7363458111
 30
0.0
 11
97.7859837034
 21
112.1426547662
 31
0.0
  0
SPLINE
  5
15D
330
1F
100
AcDbEntity
  8
0
  6
Continuous
 62
     7
370
    25
100
AcDbSpline
210
0.0
220
0.0
230
1.0
 70
     8
 71
     3
 72
    15
 73
    11
 74
     0
 42
0.000000001
 43
0.00000001
 40
0.0
 40
0.0
 40
0.0
 40
0.0
 40
0.1331154228739959
 40
0.2546758895421034
 40
0.3684470326653746
 40
0.479867052811267
 40
0.594393262767815
 40
0.7170691309761728
 40
0.8508534797855101
 40
1.0
 40
1.0
 40
1.0
 40
1.0
 10
96.85847759878315
 20
114.6932965540295
 30
0.0
 10
96.86095554877546
 20
114.6273628792251
 30
0.0
 10
96.86569635269512
 20
114.5012188388196
 30
0.0
 10
96.91115102653097
 20
114.3234355973703
 30
0.0
 10
96.98294787689126
 20
114.1665076231033
 30
0.0
 10
97.08699722608195
 20
114.0326826815696
 30
0.0
 10
97.22111002202472
 20
113.9222975479196
 30
0.0
 10
97.3842207371185
 20
113.8363523724124
 30
0.0
 10
97.57487865360321
 20
113.7711187542688
 30
0.0
 10
97.71311346220851
 20
113.7483489003855
 30
0.0
 10
97.78598370343433
 20
113.7363458111355
 30
0.0
  0
LINE
  5
15E
330
1F
100
AcDbEntity
  8
0
  6
Continuous
 62
     7
370
    25
100
AcDbLine
 10
96.8584775988
 20
119.8773931747
 30
0.0
 11
96.8584775988
 21
114.693296554
 31
0.0
  0
SPLINE
  5
15F
330
1F
100
AcDbEntity
  8
0
  6
Continuous
 62
     7
370
    25
100
AcDbSpline
210
0.0
220
0.0
230
1.0
 70
     8
 71
     3
 72
    15
 73
    11
 74
     0
 42
0.000000001
 43
0.00000001
 40
0.0
 40
0.0
 40
0.0
 40
0.0
 40
0.1455823694680263
 40
0.2763734473559984
 40
0.3968857826154711
 40
0.510415238943726
 40
0.6222410203990272
 40
0.7378759060581312
 40
0.8626049676046781
 40
1.0
 40
1.0
 40
1.0
 40
1.0
 10
97.78598370343433
 20
120.8711497153668
 30
0.0
 10
97.71309910229364
 20
120.8598851939773
 30
0.0
 10
97.57473503698803
 20
120.8385006360765
 30
0.0
 10
97.38379849213266
 20
120.7731533494475
 30
0.0
 10
97.22042930519214
 20
120.6851718188365
 30
0.0
 10
97.0862435900126
 20
120.5707265172538
 30
0.0
 10
96.98239792087054
 20
120.4310590208192
 30
0.0
 10
96.91088945892228
 20
120.2666948182829
 30
0.0
 10
96.86563614888976
 20
120.0797766606183
 30
0.0
 10
96.86093943141886
 20
119.9469930605699
 30
0.0
 10
96.85847759878315
 20
119.8773931746691
 30
0.0
  0
LINE
  5
160
330
1F
100
AcDbEntity
  8
0
  6
Continuous
 62
     7
370
    25
100
AcDbLine
 10
97.7859837034
 20
122.5071674277
 30
0.0
 11
97.7859837034
 21
120.8711497154
 31
0.0
  0
SPLINE
  5
161
330
1F
100
AcDbEntity
  8
0
  6
Continuous
 62
     7
370
    25
100
AcDbSpline
210
0.0
220
0.0
230
1.0
 70
     8
 71
     3
 72
    23
 73
    19
 74
     0
 42
0.000000001
 43
0.00000001
 40
0.0
 40
0.0
 40
0.0
 40
0.0
 40
0.0660988355874807
 40
0.1284617043274896
 40
0.1876360163851105
 40
0.2442617304737458
 40
0.2990681558557138
 40
0.3525393454821028
 40
0.405872713742591
 40
0.4599294311651537
 40
0.5152256230109568
 40
0.5731453190661762
 40
0.6339042433444668
 40
0.6983779247806934
 40
0.7668251664699417
 40
0.8393880347727775
 40
0.9171260263588177
 40
1.0
 40
1.0
 40
1.0
 40
1.0
 10
94.49186480001056
 20
119.8737125948887
 30
0.0
 10
94.49418160150783
 20
119.9799612654723
 30
0.0
 10
94.49868425675555
 20
120.1864533342718
 30
0.0
 10
94.53798572461669
 20
120.4859898273061
 30
0.0
 10
94.60169006522528
 20
120.7655585232189
 30
0.0
 10
94.69204089382501
 20
121.0250085274211
 30
0.0
 10
94.80786996335009
 20
121.2640881677457
 30
0.0
 10
94.95114223537266
 20
121.4815434210515
 30
0.0
 10
95.11990962549086
 20
121.6782594599794
 30
0.0
 10
95.31475172287318
 20
121.8535062918306
 30
0.0
 10
95.53416264130638
 20
122.0097345830765
 30
0.0
 10
95.78006336744542
 20
122.1441604022905
 30
0.0
 10
96.0530420807656
 20
122.255240980144
 30
0.0
 10
96.34988895461719
 20
122.3499657438655
 30
0.0
 10
96.6729612017246
 20
122.4199711151029
 30
0.0
 10
97.02081919271205
 20
122.4720045637309
 30
0.0
 10
97.39476285853124
 20
122.5002298769818
 30
0.0
 10
97.65282601006173
 20
122.504806131635
 30
0.0
 10
97.78598370343433
 20
122.5071674277376
 30
0.0
  0
LINE
  5
162
330
1F
100
AcDbEntity
  8
0
  6
Continuous
 62
     7
370
    25
100
AcDbLine
 10
94.4918648
 20
115.0208681545
 30
0.0
 11
94.4918648
 21
119.8737125949
 31
0.0
  0
SPLINE
  5
163
330
1F
100
AcDbEntity
  8
0
  6
Continuous
 62
     7
370
    25
100
AcDbSpline
210
0.0
220
0.0
230
1.0
 70
     8
 71
     3
 72
    23
 73
    19
 74
     0
 42
0.000000001
 43
0.00000001
 40
0.0
 40
0.0
 40
0.0
 40
0.0
 40
0.0797103595019098
 40
0.1545420811775654
 40
0.2245057067340343
 40
0.2906750736375332
 40
0.3531467795148013
 40
0.4124656263404015
 40
0.4692672088616619
 40
0.5242082310582249
 40
0.5784739230747604
 40
0.6326102628108461
 40
0.6874591813480947
 40
0.7441657381524207
 40
0.8028067897985749
 40
0.8647409455032301
 40
0.9305537888730884
 40
1.0
 40
1.0
 40
1.0
 40
1.0
 10
97.78598370343433
 20
112.1426547662388
 30
0.0
 10
97.65280537773616
 20
112.1446966514017
 30
0.0
 10
97.39459984774295
 20
112.1486554490356
 30
0.0
 10
97.02054945474057
 20
112.1812514861141
 30
0.0
 10
96.67245967004811
 20
112.2384114445193
 30
0.0
 10
96.34967009142869
 20
112.3166980575985
 30
0.0
 10
96.05178234581405
 20
112.4175590478902
 30
0.0
 10
95.77968977905421
 20
112.5410823696085
 30
0.0
 10
95.53246539589557
 20
112.6859016602871
 30
0.0
 10
95.3137735485932
 20
112.8576318290612
 30
0.0
 10
95.11886718863808
 20
113.0495203306995
 30
0.0
 10
94.95034085347714
 20
113.2648939944389
 30
0.0
 10
94.80727686857483
 20
113.5026995115506
 30
0.0
 10
94.69209797133259
 20
113.7633515350376
 30
0.0
 10
94.60118691616063
 20
114.0457985081282
 30
0.0
 10
94.5378088327347
 20
114.3511322835785
 30
0.0
 10
94.49876720418551
 20
114.6787860408359
 30
0.0
 10
94.49420643893302
 20
114.9048168813764
 30
0.0
 10
94.49186480001056
 20
115.0208681544817
 30
0.0
  0
LINE
  5
164
330
1F
100
AcDbEntity
  8
0
  6
Continuous
 62
     7
370
    25
100
AcDbLine
 10
120.2334916209
 20
102.020611097
 30
0.0
 11
120.2334916209
 21
95.4568441719
 31
0.0
  0
LINE
  5
165
330
1F
100
AcDbEntity
  8
0
  6
Continuous
 62
     7
370
    25
100
AcDbLine
 10
118.1882829646
 20
102.020611097
 30
0.0
 11
120.2334916209
 21
102.020611097
 31
0.0
  0
LINE
  5
166
330
1F
100
AcDbEntity
  8
0
  6
Continuous
 62
     7
370
    25
100
AcDbLine
 10
118.1882829646
 20
95.743332544
 30
0.0
 11
118.1882829646
 21
102.020611097
 31
0.0
  0
SPLINE
  5
167
330
1F
100
AcDbEntity
  8
0
  6
Continuous
 62
     7
370
    25
100
AcDbSpline
210
0.0
220
0.0
230
1.0
 70
     8
 71
     3
 72
    23
 73
    19
 74
     0
 42
0.000000001
 43
0.00000001
 40
0.0
 40
0.0
 40
0.0
 40
0.0
 40
0.078767361414034
 40
0.1528077732251516
 40
0.2224725103396903
 40
0.2878361345482316
 40
0.34997592814234
 40
0.4087435632482
 40
0.4654614586304677
 40
0.5202389276660926
 40
0.5746503804739103
 40
0.6287679480322773
 40
0.6842598223417566
 40
0.7413132295696733
 40
0.800625432893407
 40
0.8631679486718753
 40
0.9294491282806844
 40
1.0
 40
1.0
 40
1.0
 40
1.0
 10
121.0818155227173
 20
93.15857078691069
 30
0.0
 10
120.9650266735824
 20
93.16015798313278
 30
0.0
 10
120.7384576524365
 20
93.1632371255087
 30
0.0
 10
120.4097693878146
 20
93.19395531013895
 30
0.0
 10
120.1035610639757
 20
93.24365623839753
 30
0.0
 10
119.8199608375256
 20
93.3158359413726
 30
0.0
 10
119.5585280567302
 20
93.4056956979742
 30
0.0
 10
119.3185397595215
 20
93.51537306681108
 30
0.0
 10
119.1030171562235
 20
93.64793154039576
 30
0.0
 10
118.9096452776073
 20
93.80077062658965
 30
0.0
 10
118.7385775232923
 20
93.972925051922
 30
0.0
 10
118.5901554267855
 20
94.16639211034769
 30
0.0
 10
118.4663763128749
 20
94.38091083729914
 30
0.0
 10
118.36419079233
 20
94.6148052359013
 30
0.0
 10
118.2846223249683
 20
94.86829845293806
 30
0.0
 10
118.2275802826469
 20
95.14168773251996
 30
0.0
 10
118.1942753848049
 20
95.43585545987135
 30
0.0
 10
118.1903215628602
 20
95.63873002418813
 30
0.0
 10
118.1882829645778
 20
95.74333254401662
 30
0.0
  0
LINE
  5
168
330
1F
100
AcDbEntity
  8
0
  6
Continuous
 62
     7
370
    25
100
AcDbLine
 10
121.0818155227
 20
94.5193905544
 30
0.0
 11
121.0818155227
 21
93.1585707869
 31
0.0
  0
SPLINE
  5
169
330
1F
100
AcDbEntity
  8
0
  6
Continuous
 62
     7
370
    25
100
AcDbSpline
210
0.0
220
0.0
230
1.0
 70
     8
 71
     3
 72
    15
 73
    11
 74
     0
 42
0.000000001
 43
0.00000001
 40
0.0
 40
0.0
 40
0.0
 40
0.0
 40
0.1417591233578373
 40
0.2695131688998327
 40
0.3871675301527253
 40
0.4990268355111776
 40
0.6112012698318745
 40
0.7298585974427371
 40
0.8576817018969759
 40
1.0
 40
1.0
 40
1.0
 40
1.0
 10
120.2334916209085
 20
95.4568441719236
 30
0.0
 10
120.2355317821192
 20
95.38978286714821
 30
0.0
 10
120.2394105470264
 20
95.26228557221253
 30
0.0
 10
120.2793171318454
 20
95.0824639636084
 30
0.0
 10
120.3465276156256
 20
94.92652862872318
 30
0.0
 10
120.440515851985
 20
94.79349064212366
 30
0.0
 10
120.5638976282388
 20
94.6864926236117
 30
0.0
 10
120.7126421283923
 20
94.60318585384273
 30
0.0
 10
120.8883955058638
 20
94.54552797185156
 30
0.0
 10
121.0150763780843
 20
94.52840921185852
 30
0.0
 10
121.0818155227173
 20
94.51939055435254
 30
0.0
  0
LINE
  5
16A
330
1F
100
AcDbEntity
  8
0
  6
Continuous
 62
     7
370
    25
100
AcDbLine
 10
124.381206608
 20
102.020611097
 30
0.0
 11
124.381206608
 21
95.7226417171
 31
0.0
  0
LINE
  5
16B
330
1F
100
AcDbEntity
  8
0
  6
Continuous
 62
     7
370
    25
100
AcDbLine
 10
122.3137155227
 20
102.020611097
 30
0.0
 11
124.381206608
 21
102.020611097
 31
0.0
  0
LINE
  5
16C
330
1F
100
AcDbEntity
  8
0
  6
Continuous
 62
     7
370
    25
100
AcDbLine
 10
122.3137155227
 20
95.4568441719
 30
0.0
 11
122.3137155227
 21
102.020611097
 31
0.0
  0
SPLINE
  5
16D
330
1F
100
AcDbEntity
  8
0
  6
Continuous
 62
     7
370
    25
100
AcDbSpline
210
0.0
220
0.0
230
1.0
 70
     8
 71
     3
 72
    15
 73
    11
 74
     0
 42
0.000000001
 43
0.00000001
 40
0.0
 40
0.0
 40
0.0
 40
0.0
 40
0.1413586496560841
 40
0.2677936695915129
 40
0.3841870665798372
 40
0.4937930851595096
 40
0.6023543971020662
 40
0.7197793048338337
 40
0.8503251180752721
 40
0.9999999999999999
 40
0.9999999999999999
 40
0.9999999999999999
 40
0.9999999999999999
 10
121.4335595795648
 20
94.51939055435254
 30
0.0
 10
121.5013282641873
 20
94.52858510856149
 30
0.0
 10
121.6297111030343
 20
94.54600352206404
 30
0.0
 10
121.8078567157977
 20
94.60106100236263
 30
0.0
 10
121.9619438008572
 20
94.67527689684698
 30
0.0
 10
122.0918086587497
 20
94.77378983527268
 30
0.0
 10
122.1946115244442
 20
94.90139802269222
 30
0.0
 10
122.2661672419169
 20
95.0598527682073
 30
0.0
 10
122.3064683338295
 20
95.2490159828464
 30
0.0
 10
122.3111923003376
 20
95.38448553108515
 30
0.0
 10
122.3137155227173
 20
95.4568441719236
 30
0.0
  0
LINE
  5
16E
330
1F
100
AcDbEntity
  8
0
  6
Continuous
 62
     7
370
    25
100
AcDbLine
 10
121.4335595796
 20
93.1585707869
 30
0.0
 11
121.4335595796
 21
94.5193905544
 31
0.0
  0
SPLINE
  5
16F
330
1F
100
AcDbEntity
  8
0
  6
Continuous
 62
     7
370
    25
100
AcDbSpline
210
0.0
220
0.0
230
1.0
 70
     8
 71
     3
 72
    23
 73
    19
 74
     0
 42
0.000000001
 43
0.00000001
 40
0.0
 40
0.0
 40
0.0
 40
0.0
 40
0.06945973909947
 40
0.135059206279403
 40
0.1966316968315818
 40
0.2557214751604633
 40
0.3124220846029818
 40
0.3673560187497618
 40
0.4213280738371567
 40
0.4754360789008507
 40
0.5307491654417525
 40
0.5876994308566315
 40
0.646934798192975
 40
0.7092861619860887
 40
0.7755809407129666
 40
0.8455593856252497
 40
0.9206045953396784
 40
0.9999999999999999
 40
0.9999999999999999
 40
0.9999999999999999
 40
0.9999999999999999
 10
124.3812066079886
 20
95.72264171714325
 30
0.0
 10
124.3786050794486
 20
95.61909721074335
 30
0.0
 10
124.3735466040745
 20
95.41776275382959
 30
0.0
 10
124.339054963177
 20
95.12613374749037
 30
0.0
 10
124.2794653584001
 20
94.85459037448608
 30
0.0
 10
124.1995681658678
 20
94.60202909610096
 30
0.0
 10
124.0938190507986
 20
94.3698779514697
 30
0.0
 10
123.9660937364839
 20
94.1579368292544
 30
0.0
 10
123.8149052927045
 20
93.96686051884039
 30
0.0
 10
123.6414296994683
 20
93.79515138094828
 30
0.0
 10
123.4449620435168
 20
93.6425024587708
 30
0.0
 10
123.2226650693288
 20
93.51522622905482
 30
0.0
 10
122.981554804161
 20
93.40154509869858
 30
0.0
 10
122.7149155265564
 20
93.31396562296143
 30
0.0
 10
122.4268651762193
 20
93.24450592286053
 30
0.0
 10
122.115732542913
 20
93.19352679065227
 30
0.0
 10
121.7821924931564
 20
93.16339128360666
 30
0.0
 10
121.5519324947672
 20
93.16020751202865
 30
0.0
 10
121.4335595795648
 20
93.15857078691069
 30
0.0
  0
LINE
  5
170
330
1F
100
AcDbEntity
  8
0
  6
Continuous
 62
     7
370
    25
100
AcDbLine
 10
127.4338993728
 20
93.2604333192
 30
0.0
 11
125.4428051868
 21
93.2604333192
 31
0.0
  0
LINE
  5
171
330
1F
100
AcDbEntity
  8
0
  6
Continuous
 62
     7
370
    25
100
AcDbLine
 10
127.4338993728
 20
102.020611097
 30
0.0
 11
127.4338993728
 21
93.2604333192
 31
0.0
  0
LINE
  5
172
330
1F
100
AcDbEntity
  8
0
  6
Continuous
 62
     7
370
    25
100
AcDbLine
 10
125.4428051868
 20
102.020611097
 30
0.0
 11
127.4338993728
 21
102.020611097
 31
0.0
  0
LINE
  5
173
330
1F
100
AcDbEntity
  8
0
  6
Continuous
 62
     7
370
    25
100
AcDbLine
 10
125.4428051868
 20
93.2604333192
 30
0.0
 11
125.4428051868
 21
102.020611097
 31
0.0
  0
LINE
  5
174
330
1F
100
AcDbEntity
  8
0
  6
Continuous
 62
     7
370
    25
100
AcDbLine
 10
128.4891315434
 20
97.0293470143
 30
0.0
 11
127.7967846442
 21
97.0293470143
 31
0.0
  0
SPLINE
  5
175
330
1F
100
AcDbEntity
  8
0
  6
Continuous
 62
     7
370
    25
100
AcDbSpline
210
0.0
220
0.0
230
1.0
 70
     8
 71
     3
 72
    23
 73
    19
 74
     0
 42
0.000000001
 43
0.00000001
 40
0.0
 40
0.0
 40
0.0
 40
0.0
 40
0.0729667453700926
 40
0.14145982766593
 40
0.2052799941065371
 40
0.2654791703078059
 40
0.3222123273484917
 40
0.3767418205274655
 40
0.4295795422585853
 40
0.4816354759659262
 40
0.5343431436948498
 40
0.5890913751196332
 40
0.6471410266603962
 40
0.7084938190782741
 40
0.7742428299940797
 40
0.844203387979023
 40
0.9194786447081139
 40
1.0
 40
1.0
 40
1.0
 40
1.0
 10
131.4702022152237
 20
99.70642169130345
 30
0.0
 10
131.4681271302951
 20
99.59387635056207
 30
0.0
 10
131.46410418594
 20
99.37568593484421
 30
0.0
 10
131.4314537245459
 20
99.06023823940733
 30
0.0
 10
131.3732888971717
 20
98.7687936095685
 30
0.0
 10
131.2974592273834
 20
98.50000375132234
 30
0.0
 10
131.1942466217813
 20
98.25584321086266
 30
0.0
 10
131.0703272136317
 20
98.03450558156347
 30
0.0
 10
130.9228496229011
 20
97.83683702866034
 30
0.0
 10
130.7521277662026
 20
97.66277250271365
 30
0.0
 10
130.5569674882206
 20
97.5118025527302
 30
0.0
 10
130.3362838312386
 20
97.38227107522293
 30
0.0
 10
130.0902263962818
 20
97.27346091410946
 30
0.0
 10
129.8192641981914
 20
97.18207647199633
 30
0.0
 10
129.5228046442033
 20
97.11316566789424
 30
0.0
 10
129.2008116293493
 20
97.0648092056054
 30
0.0
 10
128.8536817881973
 20
97.03389925459486
 30
0.0
 10
128.6133458810365
 20
97.030898113281
 30
0.0
 10
128.4891315433891
 20
97.02934701430087
 30
0.0
  0
SPLINE
  5
176
330
1F
100
AcDbEntity
  8
0
  6
Continuous
 62
     7
370
    25
100
AcDbSpline
210
0.0
220
0.0
230
1.0
 70
     8
 71
     3
 72
    23
 73
    19
 74
     0
 42
0.000000001
 43
0.00000001
 40
0.0
 40
0.0
 40
0.0
 40
0.0
 40
0.0844373694256914
 40
0.1636092457518186
 40
0.2377651612761117
 40
0.3072846477892636
 40
0.3728392252763181
 40
0.4341796473926698
 40
0.4926903450254284
 40
0.5482285265894735
 40
0.60236914406217
 40
0.6554135328391505
 40
0.7082207772465193
 40
0.7619864663242903
 40
0.817243855031397
 40
0.8747625985175546
 40
0.9356376102410229
 40
1.0
 40
1.0
 40
1.0
 40
1.0
 10
128.4350170731049
 20
102.0206110969882
 30
0.0
 10
128.5576265318493
 20
102.0187969478562
 30
0.0
 10
128.7951995543588
 20
102.0152817794754
 30
0.0
 10
129.1395343216464
 20
101.9877640329842
 30
0.0
 10
129.4604370011096
 20
101.9446422480685
 30
0.0
 10
129.7576946428136
 20
101.8806181152019
 30
0.0
 10
130.0317250014774
 20
101.8005911200304
 30
0.0
 10
130.2825363292229
 20
101.7016697466887
 30
0.0
 10
130.5091517287539
 20
101.5844291377214
 30
0.0
 10
130.7123098702835
 20
101.4479285942671
 30
0.0
 10
130.8915647769815
 20
101.2930971331286
 30
0.0
 10
131.0473060945621
 20
101.1199201334598
 30
0.0
 10
131.1793593332082
 20
100.9286402174483
 30
0.0
 10
131.2860172365206
 20
100.7185766737484
 30
0.0
 10
131.3691956887045
 20
100.4908882224118
 30
0.0
 10
131.4270539254109
 20
100.2450991337039
 30
0.0
 10
131.4651765375503
 20
99.9818991381657
 30
0.0
 10
131.4684961762925
 20
99.79993649260499
 30
0.0
 10
131.4702022152237
 20
99.70642169130345
 30
0.0
  0
LINE
  5
177
330
1F
100
AcDbEntity
  8
0
  6
Continuous
 62
     7
370
    25
100
AcDbLine
 10
127.7967846442
 20
102.020611097
 30
0.0
 11
128.4350170731
 21
102.020611097
 31
0.0
  0
LINE
  5
178
330
1F
100
AcDbEntity
  8
0
  6
Continuous
 62
     7
370
    25
100
AcDbLine
 10
127.7967846442
 20
100.5945356448
 30
0.0
 11
127.7967846442
 21
102.020611097
 31
0.0
  0
LINE
  5
179
330
1F
100
AcDbEntity
  8
0
  6
Continuous
 62
     7
370
    25
100
AcDbLine
 10
128.4891315434
 20
100.5945356448
 30
0.0
 11
127.7967846442
 21
100.5945356448
 31
0.0
  0
SPLINE
  5
17A
330
1F
100
AcDbEntity
  8
0
  6
Continuous
 62
     7
370
    25
100
AcDbSpline
210
0.0
220
0.0
230
1.0
 70
     8
 71
     3
 72
    23
 73
    19
 74
     0
 42
0.000000001
 43
0.00000001
 40
0.0
 40
0.0
 40
0.0
 40
0.0
 40
0.0829270578456756
 40
0.160461022008127
 40
0.2328074370046693
 40
0.3011737058895838
 40
0.3631670978762837
 40
0.4223027734058548
 40
0.4779431024320871
 40
0.5312784915980392
 40
0.5826126622692266
 40
0.634846674084664
 40
0.688173741947941
 40
0.7429863905200456
 40
0.801381991404227
 40
0.8629083155406235
 40
0.9292852724111421
 40
1.0
 40
1.0
 40
1.0
 40
1.0
 10
129.424993558893
 20
99.46768138122593
 30
0.0
 10
129.4245758322269
 20
99.51439519412773
 30
0.0
 10
129.4237675454084
 20
99.60478482514621
 30
0.0
 10
129.4121105974117
 20
99.73549100968637
 30
0.0
 10
129.3947526006886
 20
99.85720743013901
 30
0.0
 10
129.371684922683
 20
99.9691033194708
 30
0.0
 10
129.3412827075155
 20
100.0715822234289
 30
0.0
 10
129.30302085696
 20
100.163627141113
 30
0.0
 10
129.2588218490486
 20
100.2476098894003
 30
0.0
 10
129.2057710839987
 20
100.3209520733755
 30
0.0
 10
129.1460654344864
 20
100.3864571515827
 30
0.0
 10
129.0768900017792
 20
100.4418626582318
 30
0.0
 10
129.0003531568132
 20
100.4902663536746
 30
0.0
 10
128.9143762083039
 20
100.528372817034
 30
0.0
 10
128.8205774119881
 20
100.5587675975487
 30
0.0
 10
128.7174153435782
 20
100.5788188076435
 30
0.0
 10
128.6061732405502
 20
100.591681739677
 30
0.0
 10
128.5289598222651
 20
100.593564485525
 30
0.0
 10
128.4891315433891
 20
100.5945356447918
 30
0.0
  0
SPLINE
  5
17B
330
1F
100
AcDbEntity
  8
0
  6
Continuous
 62
     7
370
    25
100
AcDbSpline
210
0.0
220
0.0
230
1.0
 70
     8
 71
     3
 72
    15
 73
    11
 74
     0
 42
0.000000001
 43
0.00000001
 40
0.0
 40
0.0
 40
0.0
 40
0.0
 40
0.1407398038586589
 40
0.265907106100746
 40
0.3801739043772037
 40
0.4903787169527143
 40
0.6027327956261266
 40
0.7231448191325356
 40
0.853281758122184
 40
0.9999999999999999
 40
0.9999999999999999
 40
0.9999999999999999
 40
0.9999999999999999
 10
128.4891315433891
 20
98.45542246649724
 30
0.0
 10
128.5632125252333
 20
98.45789026719596
 30
0.0
 10
128.7031776165523
 20
98.46255281271782
 30
0.0
 10
128.8981331624711
 20
98.51266414200468
 30
0.0
 10
129.0647846749724
 20
98.59389570607891
 30
0.0
 10
129.1986196530386
 20
98.71274524687672
 30
0.0
 10
129.3025540720098
 20
98.86178348300561
 30
0.0
 10
129.3748548719907
 20
99.0395521114864
 30
0.0
 10
129.4181568003125
 20
99.24492428264175
 30
0.0
 10
129.4226254282568
 20
99.3905223147806
 30
0.0
 10
129.424993558893
 20
99.46768138122593
 30
0.0
  0
LINE
  5
17C
330
1F
100
AcDbEntity
  8
0
  6
Continuous
 62
     7
370
    25
100
AcDbLine
 10
127.7967846442
 20
98.4554224665
 30
0.0
 11
128.4891315434
 21
98.4554224665
 31
0.0
  0
LINE
  5
17D
330
1F
100
AcDbEntity
  8
0
  6
Continuous
 62
     7
370
    25
100
AcDbLine
 10
127.7967846442
 20
97.0293470143
 30
0.0
 11
127.7967846442
 21
98.4554224665
 31
0.0
  0
LINE
  5
17E
330
1F
100
AcDbEntity
  8
0
  6
Continuous
 62
     7
370
    25
100
AcDbLine
 10
138.0467019568
 20
98.2692050246
 30
0.0
 11
138.0467019568
 21
101.3139397792
 31
0.0
  0
LINE
  5
17F
330
1F
100
AcDbEntity
  8
0
  6
Continuous
 62
     7
370
    25
100
AcDbLine
 10
140.2240135847
 20
93.8445512779
 30
0.0
 11
138.0467019568
 21
98.2692050246
 31
0.0
  0
LINE
  5
180
330
1F
100
AcDbEntity
  8
0
  6
Continuous
 62
     7
370
    25
100
AcDbLine
 10
140.2240135847
 20
96.855862389
 30
0.0
 11
140.2240135847
 21
93.8445512779
 31
0.0
  0
LINE
  5
181
330
1F
100
AcDbEntity
  8
0
  6
Continuous
 62
     7
370
    25
100
AcDbLine
 10
138.0467019568
 20
101.3139397792
 30
0.0
 11
140.2240135847
 21
96.855862389
 31
0.0
  0
LINE
  5
182
330
1F
100
AcDbEntity
  8
0
  6
Continuous
 62
     7
370
    25
100
AcDbLine
 10
137.8047784426
 20
93.2604333192
 30
0.0
 11
135.9346460137
 21
93.2604333192
 31
0.0
  0
LINE
  5
183
330
1F
100
AcDbEntity
  8
0
  6
Continuous
 62
     7
370
    25
100
AcDbLine
 10
137.8047784426
 20
102.020611097
 30
0.0
 11
137.8047784426
 21
93.2604333192
 31
0.0
  0
LINE
  5
184
330
1F
100
AcDbEntity
  8
0
  6
Continuous
 62
     7
370
    25
100
AcDbLine
 10
135.9346460137
 20
102.020611097
 30
0.0
 11
137.8047784426
 21
102.020611097
 31
0.0
  0
LINE
  5
185
330
1F
100
AcDbEntity
  8
0
  6
Continuous
 62
     7
370
    25
100
AcDbLine
 10
135.9346460137
 20
93.2604333192
 30
0.0
 11
135.9346460137
 21
102.020611097
 31
0.0
  0
LINE
  5
186
330
1F
100
AcDbEntity
  8
0
  6
Continuous
 62
     7
370
    25
100
AcDbLine
 10
142.3583519568
 20
93.2604333192
 30
0.0
 11
140.4547958845
 21
93.2604333192
 31
0.0
  0
LINE
  5
187
330
1F
100
AcDbEntity
  8
0
  6
Continuous
 62
     7
370
    25
100
AcDbLine
 10
142.3583519568
 20
102.020611097
 30
0.0
 11
142.3583519568
 21
93.2604333192
 31
0.0
  0
LINE
  5
188
330
1F
100
AcDbEntity
  8
0
  6
Continuous
 62
     7
370
    25
100
AcDbLine
 10
140.4547958845
 20
102.020611097
 30
0.0
 11
142.3583519568
 21
102.020611097
 31
0.0
  0
LINE
  5
189
330
1F
100
AcDbEntity
  8
0
  6
Continuous
 62
     7
370
    25
100
AcDbLine
 10
140.4547958845
 20
93.2604333192
 30
0.0
 11
140.4547958845
 21
102.020611097
 31
0.0
  0
SPLINE
  5
18A
330
1F
100
AcDbEntity
  8
0
  6
Continuous
 62
     7
370
    25
100
AcDbSpline
210
0.0
220
0.0
230
1.0
 70
     8
 71
     3
 72
    23
 73
    19
 74
     0
 42
0.000000001
 43
0.00000001
 40
0.0
 40
0.0
 40
0.0
 40
0.0
 40
0.0499720320778448
 40
0.1019276751798726
 40
0.1556295964255718
 40
0.2123725808122324
 40
0.2705646782034662
 40
0.3283877517196798
 40
0.3873343972807524
 40
0.4471485504115817
 40
0.5078155315280725
 40
0.5699668020100142
 40
0.6343017788722899
 40
0.7007321063034911
 40
0.7696761247202324
 40
0.8418669005624647
 40
0.9179055705998295
 40
1.0
 40
1.0
 40
1.0
 40
1.0
 10
145.2868997604434
 20
102.122473629288
 30
0.0
 10
145.3373698694025
 20
102.1213229633552
 30
0.0
 10
145.4403134692198
 20
102.1189759564685
 30
0.0
 10
145.5961721382101
 20
102.096879219137
 30
0.0
 10
145.756622967102
 20
102.0629465199328
 30
0.0
 10
145.9207860784313
 20
102.0174473135838
 30
0.0
 10
146.0852014895213
 20
101.9584900561675
 30
0.0
 10
146.2441596945905
 20
101.8807460121789
 30
0.0
 10
146.396710724742
 20
101.7881786186532
 30
0.0
 10
146.5437064631663
 20
101.6819301346969
 30
0.0
 10
146.681484784771
 20
101.5588582153532
 30
0.0
 10
146.8076531920974
 20
101.4177288507639
 30
0.0
 10
146.9220121030086
 20
101.2597353811689
 30
0.0
 10
147.0247619141059
 20
101.0859188682735
 30
0.0
 10
147.1104507693437
 20
100.8940205544857
 30
0.0
 10
147.1704368288312
 20
100.6824458081978
 30
0.0
 10
147.205336816216
 20
100.4519178002744
 30
0.0
 10
147.2102089202832
 20
100.2922559969747
 30
0.0
 10
147.2127382617354
 20
100.2093679445334
 30
0.0
  0
SPLINE
  5
18B
330
1F
100
AcDbEntity
  8
0
  6
Continuous
 62
     7
370
    25
100
AcDbSpline
210
0.0
220
0.0
230
1.0
 70
     8
 71
     3
 72
    23
 73
    19
 74
     0
 42
0.000000001
 43
0.00000001
 40
0.0
 40
0.0
 40
0.0
 40
0.0
 40
0.0813173162900266
 40
0.1566361975695462
 40
0.2281436091598023
 40
0.2964349974167493
 40
0.3622364895087548
 40
0.4262700407488842
 40
0.4878329818221618
 40
0.548705326602817
 40
0.6083748752560436
 40
0.6676571179468569
 40
0.7258714571461802
 40
0.7840019408197717
 40
0.8412113756213997
 40
0.8964444804628421
 40
0.9489406055298546
 40
1.0
 40
1.0
 40
1.0
 40
1.0
 10
143.3292292178077
 20
100.2093679445334
 30
0.0
 10
143.3317576272371
 20
100.2922567119926
 30
0.0
 10
143.33662793601
 20
100.451919892584
 30
0.0
 10
143.3715404191304
 20
100.6824383141826
 30
0.0
 10
143.4314827114335
 20
100.8940466372405
 30
0.0
 10
143.517324526018
 20
101.0858276055591
 30
0.0
 10
143.6196932707585
 20
101.2603292772529
 30
0.0
 10
143.7361986138782
 20
101.4170755753472
 30
0.0
 10
143.8620412488575
 20
101.5600467190861
 30
0.0
 10
144.0031274095914
 20
101.6813095050368
 30
0.0
 10
144.1518111622206
 20
101.7887560720751
 30
0.0
 10
144.307457935391
 20
101.8807528321681
 30
0.0
 10
144.4691507790433
 20
101.9581585626502
 30
0.0
 10
144.6359655797931
 20
102.0177285040365
 30
0.0
 10
144.8038463350342
 20
102.0634178752197
 30
0.0
 10
144.9687002397479
 20
102.0965227860802
 30
0.0
 10
145.1292393842131
 20
102.1191091267523
 30
0.0
 10
145.2348346450311
 20
102.1213625497827
 30
0.0
 10
145.2868997604434
 20
102.122473629288
 30
0.0
  0
SPLINE
  5
18C
330
1F
100
AcDbEntity
  8
0
  6
Continuous
 62
     7
370
    25
100
AcDbSpline
210
0.0
220
0.0
230
1.0
 70
     8
 71
     3
 72
    23
 73
    19
 74
     0
 42
0.000000001
 43
0.00000001
 40
0.0
 40
0.0
 40
0.0
 40
0.0
 40
0.0518153447404028
 40
0.1050342314060937
 40
0.1604281814967183
 40
0.2177524528732956
 40
0.2761328013936591
 40
0.3334570727702352
 40
0.392095668154731
 40
0.4507409851939543
 40
0.5106036596258704
 40
0.5716551199551938
 40
0.6342285308995619
 40
0.6996555655828604
 40
0.7679131732938586
 40
0.8396691775796482
 40
0.916877850377417
 40
1.0
 40
1.0
 40
1.0
 40
1.0
 10
145.2868997604434
 20
98.25169740189776
 30
0.0
 10
145.2332471526197
 20
98.25281625077406
 30
0.0
 10
145.124488628404
 20
98.25508425521116
 30
0.0
 10
144.9596649845071
 20
98.27743878642353
 30
0.0
 10
144.7911751352085
 20
98.31086294070725
 30
0.0
 10
144.6197571529791
 20
98.35603764346679
 30
0.0
 10
144.451248105163
 20
98.41741573927521
 30
0.0
 10
144.2879048293103
 20
98.49474834356253
 30
0.0
 10
144.1330669698908
 20
98.58845797938794
 30
0.0
 10
143.9850835043155
 20
98.69715097317352
 30
0.0
 10
143.8477805224915
 20
98.82299985689177
 30
0.0
 10
143.723478912822
 20
98.96712603861363
 30
0.0
 10
143.6118349229383
 20
99.12808695359126
 30
0.0
 10
143.5100341615855
 20
99.30430152875786
 30
0.0
 10
143.4287760131359
 20
99.501504876345
 30
0.0
 10
143.3697215239626
 20
99.71893894578801
 30
0.0
 10
143.3347047282205
 20
99.95728669319243
 30
0.0
 10
143.3310987213589
 20
100.1232998414613
 30
0.0
 10
143.3292292178077
 20
100.2093679445334
 30
0.0
  0
SPLINE
  5
18D
330
1F
100
AcDbEntity
  8
0
  6
Continuous
 62
     7
370
    25
100
AcDbSpline
210
0.0
220
0.0
230
1.0
 70
     8
 71
     3
 72
    23
 73
    19
 74
     0
 42
0.000000001
 43
0.00000001
 40
0.0
 40
0.0
 40
0.0
 40
0.0
 40
0.082796748629152
 40
0.1595851067574239
 40
0.2325238498404645
 40
0.3017018293954725
 40
0.3683386141391415
 40
0.432424181335313
 40
0.4947053642805316
 40
0.5554386189141016
 40
0.6152474032708554
 40
0.67385011257879
 40
0.731531718635041
 40
0.7894823253068495
 40
0.8459219961688788
 40
0.8990640313750775
 40
0.9505489668450402
 40
1.0
 40
1.0
 40
1.0
 40
1.0
 10
147.2127382617354
 20
100.2093679445334
 30
0.0
 10
147.2102107569365
 20
100.1248884699157
 30
0.0
 10
147.2053391631863
 20
99.96206002316029
 30
0.0
 10
147.170362714302
 20
99.72683324718935
 30
0.0
 10
147.1107899264304
 20
99.51088895936631
 30
0.0
 10
147.024663231163
 20
99.31546493307744
 30
0.0
 10
146.9225578477675
 20
99.1385494411946
 30
0.0
 10
146.8071408344385
 20
98.97869334188871
 30
0.0
 10
146.6816375945057
 20
98.83443863969659
 30
0.0
 10
146.543700605997
 20
98.70838309243702
 30
0.0
 10
146.3972929467812
 20
98.59852308260771
 30
0.0
 10
146.243746745852
 20
98.50496046748948
 30
0.0
 10
146.0854340393584
 20
98.42349210727512
 30
0.0
 10
145.9207978107757
 20
98.3619070402085
 30
0.0
 10
145.7571587653371
 20
98.31189474249308
 30
0.0
 10
145.5959643298015
 20
98.27965693605742
 30
0.0
 10
145.4404685413037
 20
98.2546459652033
 30
0.0
 10
145.3373970426819
 20
98.25266696376187
 30
0.0
 10
145.2868997604434
 20
98.25169740189776
 30
0.0
  0
LINE
  5
18E
330
1F
100
AcDbEntity
  8
0
  6
Continuous
 62
     7
370
    25
100
AcDbLine
 10
81.6750359362
 20
125.2604333192
 30
0.0
 11
81.6750359362
 21
91.2604333192
 31
0.0
  0
ARC
  5
18F
330
1F
100
AcDbEntity
  8
0
  6
Continuous
 62
     7
370
    25
100
AcDbCircle
 10
84.6750359362
 20
125.2604333192
 30
0.0
 40
3.000000000000014
100
AcDbArc
 50
90.0
 51
180.0
  0
LINE
  5
190
330
1F
100
AcDbEntity
  8
0
  6
Continuous
 62
     7
370
    25
100
AcDbLine
 10
178.6750359362
 20
128.2604333192
 30
0.0
 11
84.6750359362
 21
128.2604333192
 31
0.0
  0
ARC
  5
191
330
1F
100
AcDbEntity
  8
0
  6
Continuous
 62
     7
370
    25
100
AcDbCircle
 10
178.6750359362
 20
125.2604333192
 30
0.0
 40
3.0
100
AcDbArc
 50
0.0
 51
90.0
  0
LINE
  5
192
330
1F
100
AcDbEntity
  8
0
  6
Continuous
 62
     7
370
    25
100
AcDbLine
 10
181.6750359362
 20
91.2604333192
 30
0.0
 11
181.6750359362
 21
125.2604333192
 31
0.0
  0
ARC
  5
193
330
1F
100
AcDbEntity
  8
0
  6
Continuous
 62
     7
370
    25
100
AcDbCircle
 10
178.6750359362
 20
91.2604333192
 30
0.0
 40
3.0
100
AcDbArc
 50
270.0
 51
0.0
  0
LINE
  5
194
330
1F
100
AcDbEntity
  8
0
  6
Continuous
 62
     7
370
    25
100
AcDbLine
 10
84.6750359362
 20
88.2604333192
 30
0.0
 11
178.6750359362
 21
88.2604333192
 31
0.0
  0
ARC
  5
195
330
1F
100
AcDbEntity
  8
0
  6
Continuous
 62
     7
370
    25
100
AcDbCircle
 10
84.6750359362
 20
91.2604333192
 30
0.0
 40
3.000000000000028
100
AcDbArc
 50
180.0
 51
270.0
  0
LINE
  5
196
330
1F
100
AcDbEntity
  8
0
  6
Continuous
 62
     7
370
    25
100
AcDbLine
 10
88.6139788908
 20
112.2604333192
 30
0.0
 11
86.3117762382
 21
112.2604333192
 31
0.0
  0
LINE
  5
197
330
1F
100
AcDbEntity
  8
0
  6
Continuous
 62
     7
370
    25
100
AcDbLine
 10
88.6139788908
 20
122.3893888748
 30
0.0
 11
88.6139788908
 21
112.2604333192
 31
0.0
  0
LINE
  5
198
330
1F
100
AcDbEntity
  8
0
  6
Continuous
 62
     7
370
    25
100
AcDbLine
 10
86.3117762382
 20
122.3893888748
 30
0.0
 11
88.6139788908
 21
122.3893888748
 31
0.0
  0
LINE
  5
199
330
1F
100
AcDbEntity
  8
0
  6
Continuous
 62
     7
370
    25
100
AcDbLine
 10
86.3117762382
 20
112.2604333192
 30
0.0
 11
86.3117762382
 21
122.3893888748
 31
0.0
  0
LINE
  5
19A
330
1F
100
AcDbEntity
  8
0
  6
Continuous
 62
     7
370
    25
100
AcDbLine
 10
165.721478701
 20
93.1585707869
 30
0.0
 11
165.721478701
 21
94.4891501151
 31
0.0
  0
SPLINE
  5
19B
330
1F
100
AcDbEntity
  8
0
  6
Continuous
 62
     7
370
    25
100
AcDbSpline
210
0.0
220
0.0
230
1.0
 70
     8
 71
     3
 72
    23
 73
    19
 74
     0
 42
0.000000001
 43
0.00000001
 40
0.0
 40
0.0
 40
0.0
 40
0.0
 40
0.0688019446324199
 40
0.1337582193264482
 40
0.1953157266109197
 40
0.2537856539624063
 40
0.3098940116301865
 40
0.3643924965142157
 40
0.4186388883742046
 40
0.4728045032584242
 40
0.5277390571966408
 40
0.5847450260483367
 40
0.6445381665791976
 40
0.7072881818980301
 40
0.7736478039929109
 40
0.8443412665560351
 40
0.9198146885977702
 40
1.0
 40
1.0
 40
1.0
 40
1.0
 10
168.6802669439059
 20
95.70035928820266
 30
0.0
 10
168.6784227449934
 20
95.59785244779061
 30
0.0
 10
168.6748374282709
 20
95.39856836482538
 30
0.0
 10
168.6386484288632
 20
95.10945454443117
 30
0.0
 10
168.5826964275917
 20
94.8393871787931
 30
0.0
 10
168.5018055587962
 20
94.58915493878635
 30
0.0
 10
168.3953709150552
 20
94.36045181926345
 30
0.0
 10
168.2698049918764
 20
94.14879153299762
 30
0.0
 10
168.1173615843575
 20
93.959086127507
 30
0.0
 10
167.9426687881567
 20
93.78895930545112
 30
0.0
 10
167.744522959569
 20
93.63979989201133
 30
0.0
 10
167.5231717722155
 20
93.51069225335414
 30
0.0
 10
167.2788380457803
 20
93.40083581664815
 30
0.0
 10
167.0113313147893
 20
93.31255235334129
 30
0.0
 10
166.7218913698942
 20
93.24205008411231
 30
0.0
 10
166.4087398075914
 20
93.19431764577804
 30
0.0
 10
166.0727952359938
 20
93.16313979775057
 30
0.0
 10
165.8409238444186
 20
93.16012421836254
 30
0.0
 10
165.7214787010118
 20
93.15857078691069
 30
0.0
  0
LINE
  5
19C
330
1F
100
AcDbEntity
  8
0
  6
Continuous
 62
     7
370
    25
100
AcDbLine
 10
168.6802669439
 20
99.6682232417
 30
0.0
 11
168.6802669439
 21
95.7003592882
 31
0.0
  0
SPLINE
  5
19D
330
1F
100
AcDbEntity
  8
0
  6
Continuous
 62
     7
370
    25
100
AcDbSpline
210
0.0
220
0.0
230
1.0
 70
     8
 71
     3
 72
    23
 73
    19
 74
     0
 42
0.000000001
 43
0.00000001
 40
0.0
 40
0.0
 40
0.0
 40
0.0
 40
0.0814314821074223
 40
0.1580462472183802
 40
0.2297827372563211
 40
0.2970064204589927
 40
0.3606175432858176
 40
0.4209018539417401
 40
0.4782519859585525
 40
0.5333924881674087
 40
0.5876487899404771
 40
0.6413363885334616
 40
0.6954477489030505
 40
0.7507908370291275
 40
0.8084527991017114
 40
0.86884557388034
 40
0.9322980575245418
 40
1.0
 40
1.0
 40
1.0
 40
1.0
 10
165.7214787010118
 20
102.122473629288
 30
0.0
 10
165.8409080302211
 20
102.1207495541372
 30
0.0
 10
166.0727023780684
 20
102.1174033838301
 30
0.0
 10
166.4087349184952
 20
102.0885648793902
 30
0.0
 10
166.7215292337217
 20
102.0414734339838
 30
0.0
 10
167.0115937021032
 20
101.9755585425929
 30
0.0
 10
167.2779812079464
 20
101.8873458622219
 30
0.0
 10
167.5230066281002
 20
101.7833312368016
 30
0.0
 10
167.7442240255237
 20
101.6587242401232
 30
0.0
 10
167.9426201875452
 20
101.5146282549661
 30
0.0
 10
168.1161199876744
 20
101.349302877768
 30
0.0
 10
168.2702912836663
 20
101.1674637701132
 30
0.0
 10
168.3948103054746
 20
100.9623785035109
 30
0.0
 10
168.5019048174778
 20
100.7414822853599
 30
0.0
 10
168.5824591056782
 20
100.4995344150881
 30
0.0
 10
168.638568288103
 20
100.239039793547
 30
0.0
 10
168.6749390949105
 20
99.95997718981519
 30
0.0
 10
168.6784530431053
 20
99.76755276858744
 30
0.0
 10
168.6802669439059
 20
99.66822324169104
 30
0.0
  0
LINE
  5
19E
330
1F
100
AcDbEntity
  8
0
  6
Continuous
 62
     7
370
    25
100
AcDbLine
 10
165.721478701
 20
100.6566081254
 30
0.0
 11
165.721478701
 21
102.1224736293
 31
0.0
  0
SPLINE
  5
19F
330
1F
100
AcDbEntity
  8
0
  6
Continuous
 62
     7
370
    25
100
AcDbSpline
210
0.0
220
0.0
230
1.0
 70
     8
 71
     3
 72
    15
 73
    11
 74
     0
 42
0.000000001
 43
0.00000001
 40
0.0
 40
0.0
 40
0.0
 40
0.0
 40
0.1396853908949448
 40
0.2653310810423206
 40
0.3814694298698192
 40
0.4922506623126868
 40
0.6047449770800726
 40
0.7238454742606993
 40
0.8546111973471509
 40
1.0
 40
1.0
 40
1.0
 40
1.0
 10
166.590493429694
 20
99.74462014091586
 30
0.0
 10
166.5877374044341
 20
99.81059664256911
 30
0.0
 10
166.5825023604763
 20
99.93591838448424
 30
0.0
 10
166.5435594853147
 20
100.1131336449829
 30
0.0
 10
166.4740352610141
 20
100.2656522468928
 30
0.0
 10
166.378331983132
 20
100.3959466113719
 30
0.0
 10
166.2520226091138
 20
100.4994824534396
 30
0.0
 10
166.0985949294809
 20
100.5771537545068
 30
0.0
 10
165.9196641916548
 20
100.6340840412415
 30
0.0
 10
165.7898321756064
 20
100.6488396484659
 30
0.0
 10
165.7214787010118
 20
100.656608125412
 30
0.0
  0
LINE
  5
1A0
330
1F
100
AcDbEntity
  8
0
  6
Continuous
 62
     7
370
    25
100
AcDbLine
 10
166.5904934297
 20
95.412279314
 30
0.0
 11
166.5904934297
 21
99.7446201409
 31
0.0
  0
SPLINE
  5
1A1
330
1F
100
AcDbEntity
  8
0
  6
Continuous
 62
     7
370
    25
100
AcDbSpline
210
0.0
220
0.0
230
1.0
 70
     8
 71
     3
 72
    15
 73
    11
 74
     0
 42
0.000000001
 43
0.00000001
 40
0.0
 40
0.0
 40
0.0
 40
0.0
 40
0.1446442403293671
 40
0.2742576763077229
 40
0.3931307050380349
 40
0.5056357477882448
 40
0.616618083113042
 40
0.7330435729509516
 40
0.8600779349629099
 40
0.9999999999999999
 40
0.9999999999999999
 40
0.9999999999999999
 40
0.9999999999999999
 10
165.7214787010118
 20
94.48915011507606
 30
0.0
 10
165.78973154634
 20
94.4978239272917
 30
0.0
 10
165.9191446962757
 20
94.51427020664288
 30
0.0
 10
166.0993242202497
 20
94.56778923190087
 30
0.0
 10
166.2520915530716
 20
94.64814359095024
 30
0.0
 10
166.3784515653804
 20
94.75302829121321
 30
0.0
 10
166.4740314547186
 20
94.88498768268246
 30
0.0
 10
166.5438507963422
 20
95.03950029859688
 30
0.0
 10
166.5823102735438
 20
95.21892468272219
 30
0.0
 10
166.5876793116481
 20
95.34578629505761
 30
0.0
 10
166.590493429694
 20
95.41227931404246
 30
0.0
  0
LINE
  5
1A2
330
1F
100
AcDbEntity
  8
0
  6
Continuous
 62
     7
370
    25
100
AcDbLine
 10
165.3585934297
 20
94.4891501151
 30
0.0
 11
165.3585934297
 21
93.1585707869
 31
0.0
  0
SPLINE
  5
1A3
330
1F
100
AcDbEntity
  8
0
  6
Continuous
 62
     7
370
    25
100
AcDbSpline
210
0.0
220
0.0
230
1.0
 70
     8
 71
     3
 72
    15
 73
    11
 74
     0
 42
0.000000001
 43
0.00000001
 40
0.0
 40
0.0
 40
0.0
 40
0.0
 40
0.1408349888948388
 40
0.267584451897962
 40
0.3853118409607153
 40
0.4963917717467539
 40
0.609625014219634
 40
0.72730874799617
 40
0.8563383675164684
 40
1.0
 40
1.0
 40
1.0
 40
1.0
 10
164.5118611299524
 20
95.41227931404246
 30
0.0
 10
164.513864949956
 20
95.34625786188835
 30
0.0
 10
164.5176721791223
 20
95.22081805302551
 30
0.0
 10
164.5580933346397
 20
95.04385767116655
 30
0.0
 10
164.6243089774913
 20
94.88987939376717
 30
0.0
 10
164.7201051141639
 20
94.76001133772124
 30
0.0
 10
164.8410206601551
 20
94.65296731093375
 30
0.0
 10
164.9907587840974
 20
94.57330928031423
 30
0.0
 10
165.1650554646819
 20
94.51509014060866
 30
0.0
 10
165.2918135873124
 20
94.49810066292508
 30
0.0
 10
165.358593429694
 20
94.48915011507606
 30
0.0
  0
LINE
  5
1A4
330
1F
100
AcDbEntity
  8
0
  6
Continuous
 62
     7
370
    25
100
AcDbLine
 10
164.51186113
 20
99.7446201409
 30
0.0
 11
164.51186113
 21
95.412279314
 31
0.0
  0
SPLINE
  5
1A5
330
1F
100
AcDbEntity
  8
0
  6
Continuous
 62
     7
370
    25
100
AcDbSpline
210
0.0
220
0.0
230
1.0
 70
     8
 71
     3
 72
    15
 73
    11
 74
     0
 42
0.000000001
 43
0.00000001
 40
0.0
 40
0.0
 40
0.0
 40
0.0
 40
0.1451269760448197
 40
0.2756647050787231
 40
0.3943900331659781
 40
0.5078733369262162
 40
0.6190167675009157
 40
0.7356982100070576
 40
0.8613415408419077
 40
1.0
 40
1.0
 40
1.0
 40
1.0
 10
165.358593429694
 20
100.656608125412
 30
0.0
 10
165.2917810692494
 20
100.6471652908324
 30
0.0
 10
165.1648728255891
 20
100.6292288858963
 30
0.0
 10
164.9909816472614
 20
100.5690511076394
 30
0.0
 10
164.8415315673997
 20
100.489584075872
 30
0.0
 10
164.7201091721115
 20
100.3843184313427
 30
0.0
 10
164.6247847283993
 20
100.2562735354993
 30
0.0
 10
164.5580063478468
 20
100.1052388759373
 30
0.0
 10
164.5177960729973
 20
99.93184958537984
 30
0.0
 10
164.5139033414597
 20
99.80904571721797
 30
0.0
 10
164.5118611299524
 20
99.74462014091586
 30
0.0
  0
LINE
  5
1A6
330
1F
100
AcDbEntity
  8
0
  6
Continuous
 62
     7
370
    25
100
AcDbLine
 10
165.3585934297
 20
102.1224736293
 30
0.0
 11
165.3585934297
 21
100.6566081254
 31
0.0
  0
SPLINE
  5
1A7
330
1F
100
AcDbEntity
  8
0
  6
Continuous
 62
     7
370
    25
100
AcDbSpline
210
0.0
220
0.0
230
1.0
 70
     8
 71
     3
 72
    23
 73
    19
 74
     0
 42
0.000000001
 43
0.00000001
 40
0.0
 40
0.0
 40
0.0
 40
0.0
 40
0.0670307357835368
 40
0.130401260327632
 40
0.1903389729855078
 40
0.2474129510405931
 40
0.3026712255789898
 40
0.35655423355111
 40
0.4099156225145414
 40
0.4641597583786151
 40
0.519313943479077
 40
0.5769624414613039
 40
0.6373053766276869
 40
0.7013258945736431
 40
0.7689335834363701
 40
0.8411893978486167
 40
0.918104985690241
 40
1.0
 40
1.0
 40
1.0
 40
1.0
 10
162.4650608715545
 20
99.75416975331895
 30
0.0
 10
162.4671181084431
 20
99.8497604461955
 30
0.0
 10
162.4711202468642
 20
100.0357221051418
 30
0.0
 10
162.5044139668802
 20
100.3055920680291
 30
0.0
 10
162.5615068853329
 20
100.5568011535839
 30
0.0
 10
162.6413383440859
 20
100.7895927808563
 30
0.0
 10
162.743147325733
 20
101.0042079854959
 30
0.0
 10
162.8681017696379
 20
101.2000526186815
 30
0.0
 10
163.0161850709395
 20
101.3772068366237
 30
0.0
 10
163.187347814334
 20
101.5347852167325
 30
0.0
 10
163.3807135943334
 20
101.6747364100373
 30
0.0
 10
163.5965854870411
 20
101.7955296628393
 30
0.0
 10
163.8356098610329
 20
101.8978159254868
 30
0.0
 10
164.097329587829
 20
101.9790932582087
 30
0.0
 10
164.3807296589718
 20
102.0449860693774
 30
0.0
 10
164.6867942265632
 20
102.0900154503571
 30
0.0
 10
165.0153792294206
 20
102.1170132898786
 30
0.0
 10
165.2418220296081
 20
102.1206158638538
 30
0.0
 10
165.358593429694
 20
102.122473629288
 30
0.0
  0
LINE
  5
1A8
330
1F
100
AcDbEntity
  8
0
  6
Continuous
 62
     7
370
    25
100
AcDbLine
 10
162.4650608716
 20
95.7274165233
 30
0.0
 11
162.4650608716
 21
99.7541697533
 31
0.0
  0
SPLINE
  5
1A9
330
1F
100
AcDbEntity
  8
0
  6
Continuous
 62
     7
370
    25
100
AcDbSpline
210
0.0
220
0.0
230
1.0
 70
     8
 71
     3
 72
    23
 73
    19
 74
     0
 42
0.000000001
 43
0.00000001
 40
0.0
 40
0.0
 40
0.0
 40
0.0
 40
0.0789932680116415
 40
0.1532460294205804
 40
0.2231105665976338
 40
0.2885741402790785
 40
0.3508921522252428
 40
0.4098283342553318
 40
0.466521736133154
 40
0.5214563082052808
 40
0.5757694244695029
 40
0.6297577975005219
 40
0.6850989171201107
 40
0.7419874073049932
 40
0.8011276176407792
 40
0.8638495067877551
 40
0.9299641830721014
 40
1.0
 40
1.0
 40
1.0
 40
1.0
 10
165.358593429694
 20
93.15857078691069
 30
0.0
 10
165.2418084342965
 20
93.16017375321343
 30
0.0
 10
165.0152468893567
 20
93.16328348936399
 30
0.0
 10
164.6865061613754
 20
93.19378698593289
 30
0.0
 10
164.3806073583134
 20
93.24421075593128
 30
0.0
 10
164.0965094285894
 20
93.31380553376805
 30
0.0
 10
163.8352563783097
 20
93.40410154412666
 30
0.0
 10
163.5958445302072
 20
93.51408560199437
 30
0.0
 10
163.3792625454137
 20
93.64444754431688
 30
0.0
 10
163.1870096423575
 20
93.79769454565125
 30
0.0
 10
163.0153241202122
 20
93.96800066933392
 30
0.0
 10
162.8669771260807
 20
94.15999864283006
 30
0.0
 10
162.743151833236
 20
94.37290302126372
 30
0.0
 10
162.6409939381444
 20
94.6052304304314
 30
0.0
 10
162.5611425490417
 20
94.85761084270749
 30
0.0
 10
162.5045520462095
 20
95.13004652619213
 30
0.0
 10
162.4710735865425
 20
95.42258220549454
 30
0.0
 10
162.4671032254132
 20
95.6238726922156
 30
0.0
 10
162.4650608715545
 20
95.7274165233448
 30
0.0
  0
LINE
  5
1AA
330
1F
100
AcDbEntity
  8
0
  6
Continuous
 62
     7
370
    25
100
AcDbLine
 10
158.4892389077
 20
93.1585707869
 30
0.0
 11
158.4892389077
 21
94.4891501151
 31
0.0
  0
SPLINE
  5
1AB
330
1F
100
AcDbEntity
  8
0
  6
Continuous
 62
     7
370
    25
100
AcDbSpline
210
0.0
220
0.0
230
1.0
 70
     8
 71
     3
 72
    23
 73
    19
 74
     0
 42
0.000000001
 43
0.00000001
 40
0.0
 40
0.0
 40
0.0
 40
0.0
 40
0.0688019446324199
 40
0.1337582193264487
 40
0.1953157266109196
 40
0.2537856539624073
 40
0.3098940116301875
 40
0.3643924965142152
 40
0.4186388883742042
 40
0.4728045032584239
 40
0.5277390571966406
 40
0.5847450260483391
 40
0.6445381665792002
 40
0.7072881818980297
 40
0.7736478039929107
 40
0.844341266556035
 40
0.91981468859777
 40
1.0
 40
1.0
 40
1.0
 40
1.0
 10
161.4480271506243
 20
95.70035928820266
 30
0.0
 10
161.4461829517117
 20
95.59785244779061
 30
0.0
 10
161.4425976349893
 20
95.39856836482538
 30
0.0
 10
161.4064086355815
 20
95.10945454443117
 30
0.0
 10
161.3504566343101
 20
94.8393871787931
 30
0.0
 10
161.2695657655146
 20
94.58915493878635
 30
0.0
 10
161.1631311217735
 20
94.36045181926345
 30
0.0
 10
161.0375651985948
 20
94.14879153299762
 30
0.0
 10
160.8851217910758
 20
93.95908612750699
 30
0.0
 10
160.7104289948751
 20
93.7889593054511
 30
0.0
 10
160.5122831662873
 20
93.63979989201133
 30
0.0
 10
160.2909319789339
 20
93.51069225335415
 30
0.0
 10
160.0465982524987
 20
93.40083581664817
 30
0.0
 10
159.7790915215076
 20
93.31255235334127
 30
0.0
 10
159.4896515766125
 20
93.24205008411232
 30
0.0
 10
159.1765000143097
 20
93.19431764577804
 30
0.0
 10
158.8405554427122
 20
93.16313979775057
 30
0.0
 10
158.6086840511369
 20
93.16012421836254
 30
0.0
 10
158.4892389077302
 20
93.15857078691069
 30
0.0
  0
LINE
  5
1AC
330
1F
100
AcDbEntity
  8
0
  6
Continuous
 62
     7
370
    25
100
AcDbLine
 10
161.4480271506
 20
99.6682232417
 30
0.0
 11
161.4480271506
 21
95.7003592882
 31
0.0
  0
SPLINE
  5
1AD
330
1F
100
AcDbEntity
  8
0
  6
Continuous
 62
     7
370
    25
100
AcDbSpline
210
0.0
220
0.0
230
1.0
 70
     8
 71
     3
 72
    23
 73
    19
 74
     0
 42
0.000000001
 43
0.00000001
 40
0.0
 40
0.0
 40
0.0
 40
0.0
 40
0.0814314821074224
 40
0.1580462472183803
 40
0.2297827372563213
 40
0.2970064204589931
 40
0.360617543285815
 40
0.4209018539417376
 40
0.4782519859585528
 40
0.533392488167409
 40
0.5876487899404775
 40
0.6413363885334622
 40
0.6954477489030495
 40
0.7507908370291266
 40
0.8084527991017115
 40
0.8688455738803395
 40
0.9322980575245419
 40
1.0
 40
1.0
 40
1.0
 40
1.0
 10
158.4892389077302
 20
102.122473629288
 30
0.0
 10
158.6086682369395
 20
102.1207495541372
 30
0.0
 10
158.8404625847868
 20
102.1174033838301
 30
0.0
 10
159.1764951252135
 20
102.0885648793902
 30
0.0
 10
159.4892894404401
 20
102.0414734339838
 30
0.0
 10
159.7793539088215
 20
101.9755585425929
 30
0.0
 10
160.0457414146647
 20
101.8873458622219
 30
0.0
 10
160.2907668348185
 20
101.7833312368016
 30
0.0
 10
160.511984232242
 20
101.6587242401232
 30
0.0
 10
160.7103803942635
 20
101.5146282549661
 30
0.0
 10
160.8838801943928
 20
101.349302877768
 30
0.0
 10
161.0380514903847
 20
101.1674637701132
 30
0.0
 10
161.1625705121929
 20
100.9623785035109
 30
0.0
 10
161.2696650241961
 20
100.7414822853599
 30
0.0
 10
161.3502193123966
 20
100.4995344150881
 30
0.0
 10
161.4063284948213
 20
100.239039793547
 30
0.0
 10
161.4426993016289
 20
99.95997718981519
 30
0.0
 10
161.4462132498236
 20
99.76755276858744
 30
0.0
 10
161.4480271506243
 20
99.66822324169104
 30
0.0
  0
LINE
  5
1AE
330
1F
100
AcDbEntity
  8
0
  6
Continuous
 62
     7
370
    25
100
AcDbLine
 10
158.4892389077
 20
100.6566081254
 30
0.0
 11
158.4892389077
 21
102.1224736293
 31
0.0
  0
SPLINE
  5
1AF
330
1F
100
AcDbEntity
  8
0
  6
Continuous
 62
     7
370
    25
100
AcDbSpline
210
0.0
220
0.0
230
1.0
 70
     8
 71
     3
 72
    15
 73
    11
 74
     0
 42
0.000000001
 43
0.00000001
 40
0.0
 40
0.0
 40
0.0
 40
0.0
 40
0.1396853908949449
 40
0.2653310810423207
 40
0.3814694298698194
 40
0.492250662312687
 40
0.6047449770800729
 40
0.7238454742606997
 40
0.8546111973471606
 40
1.0
 40
1.0
 40
1.0
 40
1.0
 10
159.3582536364124
 20
99.74462014091586
 30
0.0
 10
159.3554976111525
 20
99.81059664256911
 30
0.0
 10
159.3502625671947
 20
99.93591838448424
 30
0.0
 10
159.3113196920331
 20
100.1131336449829
 30
0.0
 10
159.2417954677325
 20
100.2656522468928
 30
0.0
 10
159.1460921898503
 20
100.3959466113719
 30
0.0
 10
159.0197828158321
 20
100.4994824534396
 30
0.0
 10
158.8663551361993
 20
100.5771537545068
 30
0.0
 10
158.6874243983731
 20
100.6340840412415
 30
0.0
 10
158.5575923823247
 20
100.6488396484659
 30
0.0
 10
158.4892389077302
 20
100.656608125412
 30
0.0
  0
LINE
  5
1B0
330
1F
100
AcDbEntity
  8
0
  6
Continuous
 62
     7
370
    25
100
AcDbLine
 10
159.3582536364
 20
95.412279314
 30
0.0
 11
159.3582536364
 21
99.7446201409
 31
0.0
  0
SPLINE
  5
1B1
330
1F
100
AcDbEntity
  8
0
  6
Continuous
 62
     7
370
    25
100
AcDbSpline
210
0.0
220
0.0
230
1.0
 70
     8
 71
     3
 72
    15
 73
    11
 74
     0
 42
0.000000001
 43
0.00000001
 40
0.0
 40
0.0
 40
0.0
 40
0.0
 40
0.1446442403293575
 40
0.2742576763077227
 40
0.3931307050380347
 40
0.5056357477882447
 40
0.6166180831130419
 40
0.7330435729509516
 40
0.8600779349629099
 40
1.0
 40
1.0
 40
1.0
 40
1.0
 10
158.4892389077302
 20
94.48915011507606
 30
0.0
 10
158.5574917530583
 20
94.4978239272917
 30
0.0
 10
158.686904902994
 20
94.51427020664288
 30
0.0
 10
158.867084426968
 20
94.56778923190087
 30
0.0
 10
159.01985175979
 20
94.64814359095026
 30
0.0
 10
159.1462117720988
 20
94.75302829121321
 30
0.0
 10
159.2417916614369
 20
94.88498768268246
 30
0.0
 10
159.3116110030605
 20
95.03950029859689
 30
0.0
 10
159.3500704802621
 20
95.21892468272218
 30
0.0
 10
159.3554395183665
 20
95.3457862950576
 30
0.0
 10
159.3582536364124
 20
95.41227931404246
 30
0.0
  0
LINE
  5
1B2
330
1F
100
AcDbEntity
  8
0
  6
Continuous
 62
     7
370
    25
100
AcDbLine
 10
158.1263536364
 20
94.4891501151
 30
0.0
 11
158.1263536364
 21
93.1585707869
 31
0.0
  0
SPLINE
  5
1B3
330
1F
100
AcDbEntity
  8
0
  6
Continuous
 62
     7
370
    25
100
AcDbSpline
210
0.0
220
0.0
230
1.0
 70
     8
 71
     3
 72
    15
 73
    11
 74
     0
 42
0.000000001
 43
0.00000001
 40
0.0
 40
0.0
 40
0.0
 40
0.0
 40
0.1408349888948391
 40
0.2675844518979597
 40
0.3853118409607167
 40
0.4963917717467551
 40
0.6096250142196349
 40
0.7273087479961706
 40
0.8563383675164687
 40
1.0
 40
1.0
 40
1.0
 40
1.0
 10
157.2796213366707
 20
95.41227931404246
 30
0.0
 10
157.2816251566743
 20
95.34625786188835
 30
0.0
 10
157.2854323858406
 20
95.22081805302551
 30
0.0
 10
157.325853541358
 20
95.04385767116653
 30
0.0
 10
157.3920691842097
 20
94.88987939376717
 30
0.0
 10
157.4878653208822
 20
94.76001133772124
 30
0.0
 10
157.6087808668735
 20
94.65296731093373
 30
0.0
 10
157.7585189908158
 20
94.57330928031423
 30
0.0
 10
157.9328156714003
 20
94.51509014060866
 30
0.0
 10
158.0595737940308
 20
94.49810066292507
 30
0.0
 10
158.1263536364124
 20
94.48915011507606
 30
0.0
  0
LINE
  5
1B4
330
1F
100
AcDbEntity
  8
0
  6
Continuous
 62
     7
370
    25
100
AcDbLine
 10
157.2796213367
 20
99.7446201409
 30
0.0
 11
157.2796213367
 21
95.412279314
 31
0.0
  0
SPLINE
  5
1B5
330
1F
100
AcDbEntity
  8
0
  6
Continuous
 62
     7
370
    25
100
AcDbSpline
210
0.0
220
0.0
230
1.0
 70
     8
 71
     3
 72
    15
 73
    11
 74
     0
 42
0.000000001
 43
0.00000001
 40
0.0
 40
0.0
 40
0.0
 40
0.0
 40
0.1451269760448194
 40
0.2756647050787225
 40
0.3943900331659772
 40
0.507873336926215
 40
0.6190167675009142
 40
0.7356982100070599
 40
0.8613415408419074
 40
1.0
 40
1.0
 40
1.0
 40
1.0
 10
158.1263536364124
 20
100.656608125412
 30
0.0
 10
158.0595412759677
 20
100.6471652908324
 30
0.0
 10
157.9326330323075
 20
100.6292288858963
 30
0.0
 10
157.7587418539797
 20
100.5690511076394
 30
0.0
 10
157.609291774118
 20
100.4895840758721
 30
0.0
 10
157.4878693788299
 20
100.3843184313427
 30
0.0
 10
157.3925449351177
 20
100.2562735354993
 30
0.0
 10
157.3257665545652
 20
100.1052388759373
 30
0.0
 10
157.2855562797156
 20
99.93184958537982
 30
0.0
 10
157.281663548178
 20
99.80904571721797
 30
0.0
 10
157.2796213366707
 20
99.74462014091586
 30
0.0
  0
LINE
  5
1B6
330
1F
100
AcDbEntity
  8
0
  6
Continuous
 62
     7
370
    25
100
AcDbLine
 10
158.1263536364
 20
102.1224736293
 30
0.0
 11
158.1263536364
 21
100.6566081254
 31
0.0
  0
SPLINE
  5
1B7
330
1F
100
AcDbEntity
  8
0
  6
Continuous
 62
     7
370
    25
100
AcDbSpline
210
0.0
220
0.0
230
1.0
 70
     8
 71
     3
 72
    23
 73
    19
 74
     0
 42
0.000000001
 43
0.00000001
 40
0.0
 40
0.0
 40
0.0
 40
0.0
 40
0.0670307357835366
 40
0.1304012603276321
 40
0.1903389729855079
 40
0.2474129510405931
 40
0.3026712255789898
 40
0.3565542335511082
 40
0.4099156225145394
 40
0.4641597583786154
 40
0.5193139434790773
 40
0.5769624414613013
 40
0.6373053766276873
 40
0.7013258945736434
 40
0.7689335834363672
 40
0.8411893978486168
 40
0.9181049856902411
 40
1.0
 40
1.0
 40
1.0
 40
1.0
 10
155.2328210782728
 20
99.75416975331895
 30
0.0
 10
155.2348783151615
 20
99.8497604461955
 30
0.0
 10
155.2388804535826
 20
100.0357221051418
 30
0.0
 10
155.2721741735986
 20
100.3055920680291
 30
0.0
 10
155.3292670920513
 20
100.5568011535839
 30
0.0
 10
155.4090985508043
 20
100.7895927808563
 30
0.0
 10
155.5109075324513
 20
101.0042079854959
 30
0.0
 10
155.6358619763563
 20
101.2000526186815
 30
0.0
 10
155.7839452776578
 20
101.3772068366237
 30
0.0
 10
155.9551080210524
 20
101.5347852167325
 30
0.0
 10
156.1484738010518
 20
101.6747364100372
 30
0.0
 10
156.3643456937594
 20
101.7955296628393
 30
0.0
 10
156.6033700677511
 20
101.8978159254868
 30
0.0
 10
156.8650897945473
 20
101.9790932582087
 30
0.0
 10
157.1484898656902
 20
102.0449860693774
 30
0.0
 10
157.4545544332816
 20
102.0900154503571
 30
0.0
 10
157.783139436139
 20
102.1170132898786
 30
0.0
 10
158.0095822363265
 20
102.1206158638538
 30
0.0
 10
158.1263536364124
 20
102.122473629288
 30
0.0
  0
LINE
  5
1B8
330
1F
100
AcDbEntity
  8
0
  6
Continuous
 62
     7
370
    25
100
AcDbLine
 10
155.2328210783
 20
95.7274165233
 30
0.0
 11
155.2328210783
 21
99.7541697533
 31
0.0
  0
SPLINE
  5
1B9
330
1F
100
AcDbEntity
  8
0
  6
Continuous
 62
     7
370
    25
100
AcDbSpline
210
0.0
220
0.0
230
1.0
 70
     8
 71
     3
 72
    23
 73
    19
 74
     0
 42
0.000000001
 43
0.00000001
 40
0.0
 40
0.0
 40
0.0
 40
0.0
 40
0.0789932680116414
 40
0.1532460294205802
 40
0.2231105665976366
 40
0.2885741402790782
 40
0.3508921522252423
 40
0.4098283342553342
 40
0.4665217361331536
 40
0.5214563082052803
 40
0.5757694244695045
 40
0.6297577975005235
 40
0.6850989171201107
 40
0.7419874073049932
 40
0.8011276176407791
 40
0.8638495067877549
 40
0.9299641830721016
 40
1.0
 40
1.0
 40
1.0
 40
1.0
 10
158.1263536364124
 20
93.15857078691069
 30
0.0
 10
158.0095686410149
 20
93.16017375321341
 30
0.0
 10
157.7830070960751
 20
93.16328348936399
 30
0.0
 10
157.4542663680938
 20
93.19378698593289
 30
0.0
 10
157.1483675650317
 20
93.24421075593128
 30
0.0
 10
156.8642696353077
 20
93.31380553376805
 30
0.0
 10
156.603016585028
 20
93.40410154412666
 30
0.0
 10
156.3636047369255
 20
93.51408560199437
 30
0.0
 10
156.147022752132
 20
93.64444754431688
 30
0.0
 10
155.9547698490758
 20
93.79769454565124
 30
0.0
 10
155.7830843269305
 20
93.96800066933392
 30
0.0
 10
155.6347373327991
 20
94.15999864283006
 30
0.0
 10
155.5109120399544
 20
94.37290302126374
 30
0.0
 10
155.4087541448628
 20
94.6052304304314
 30
0.0
 10
155.32890275576
 20
94.8576108427075
 30
0.0
 10
155.2723122529278
 20
95.13004652619213
 30
0.0
 10
155.2388337932609
 20
95.42258220549452
 30
0.0
 10
155.2348634321316
 20
95.6238726922156
 30
0.0
 10
155.2328210782728
 20
95.7274165233448
 30
0.0
  0
LINE
  5
1BA
330
1F
100
AcDbEntity
  8
0
  6
Continuous
 62
     7
370
    25
100
AcDbLine
 10
151.2569991144
 20
93.1585707869
 30
0.0
 11
151.2569991144
 21
94.4891501151
 31
0.0
  0
SPLINE
  5
1BB
330
1F
100
AcDbEntity
  8
0
  6
Continuous
 62
     7
370
    25
100
AcDbSpline
210
0.0
220
0.0
230
1.0
 70
     8
 71
     3
 72
    23
 73
    19
 74
     0
 42
0.000000001
 43
0.00000001
 40
0.0
 40
0.0
 40
0.0
 40
0.0
 40
0.0688019446324199
 40
0.1337582193264487
 40
0.1953157266109196
 40
0.2537856539624073
 40
0.3098940116301875
 40
0.3643924965142152
 40
0.4186388883742062
 40
0.4728045032584237
 40
0.5277390571966404
 40
0.584745026048339
 40
0.6445381665792
 40
0.7072881818980296
 40
0.7736478039929106
 40
0.844341266556038
 40
0.9198146885977732
 40
1.0
 40
1.0
 40
1.0
 40
1.0
 10
154.2157873573426
 20
95.70035928820266
 30
0.0
 10
154.2139431584301
 20
95.59785244779061
 30
0.0
 10
154.2103578417077
 20
95.39856836482538
 30
0.0
 10
154.1741688422998
 20
95.10945454443117
 30
0.0
 10
154.1182168410284
 20
94.8393871787931
 30
0.0
 10
154.0373259722329
 20
94.58915493878635
 30
0.0
 10
153.9308913284919
 20
94.36045181926345
 30
0.0
 10
153.8053254053131
 20
94.1487915329976
 30
0.0
 10
153.6528819977941
 20
93.959086127507
 30
0.0
 10
153.4781892015934
 20
93.7889593054511
 30
0.0
 10
153.2800433730057
 20
93.63979989201134
 30
0.0
 10
153.0586921856522
 20
93.51069225335414
 30
0.0
 10
152.814358459217
 20
93.40083581664817
 30
0.0
 10
152.546851728226
 20
93.31255235334127
 30
0.0
 10
152.2574117833309
 20
93.24205008411232
 30
0.0
 10
151.944260221028
 20
93.19431764577804
 30
0.0
 10
151.6083156494305
 20
93.16313979775057
 30
0.0
 10
151.3764442578553
 20
93.16012421836254
 30
0.0
 10
151.2569991144485
 20
93.15857078691069
 30
0.0
  0
LINE
  5
1BC
330
1F
100
AcDbEntity
  8
0
  6
Continuous
 62
     7
370
    25
100
AcDbLine
 10
154.2157873573
 20
99.6682232417
 30
0.0
 11
154.2157873573
 21
95.7003592882
 31
0.0
  0
SPLINE
  5
1BD
330
1F
100
AcDbEntity
  8
0
  6
Continuous
 62
     7
370
    25
100
AcDbSpline
210
0.0
220
0.0
230
1.0
 70
     8
 71
     3
 72
    23
 73
    19
 74
     0
 42
0.000000001
 43
0.00000001
 40
0.0
 40
0.0
 40
0.0
 40
0.0
 40
0.0814314821074193
 40
0.1580462472183773
 40
0.2297827372563214
 40
0.2970064204589931
 40
0.3606175432858151
 40
0.4209018539417377
 40
0.478251985958553
 40
0.5333924881674093
 40
0.5876487899404754
 40
0.6413363885334622
 40
0.6954477489030494
 40
0.7507908370291265
 40
0.8084527991017115
 40
0.8688455738803395
 40
0.9322980575245418
 40
1.0
 40
1.0
 40
1.0
 40
1.0
 10
151.2569991144485
 20
102.122473629288
 30
0.0
 10
151.3764284436578
 20
102.1207495541372
 30
0.0
 10
151.6082227915051
 20
102.1174033838301
 30
0.0
 10
151.9442553319319
 20
102.0885648793902
 30
0.0
 10
152.2570496471584
 20
102.0414734339838
 30
0.0
 10
152.5471141155399
 20
101.9755585425929
 30
0.0
 10
152.8135016213831
 20
101.8873458622219
 30
0.0
 10
153.0585270415369
 20
101.7833312368016
 30
0.0
 10
153.2797444389604
 20
101.6587242401232
 30
0.0
 10
153.4781406009819
 20
101.5146282549661
 30
0.0
 10
153.6516404011111
 20
101.349302877768
 30
0.0
 10
153.805811697103
 20
101.1674637701132
 30
0.0
 10
153.9303307189113
 20
100.9623785035109
 30
0.0
 10
154.0374252309145
 20
100.7414822853599
 30
0.0
 10
154.1179795191149
 20
100.4995344150881
 30
0.0
 10
154.1740887015396
 20
100.239039793547
 30
0.0
 10
154.2104595083473
 20
99.95997718981519
 30
0.0
 10
154.213973456542
 20
99.76755276858744
 30
0.0
 10
154.2157873573426
 20
99.66822324169104
 30
0.0
  0
LINE
  5
1BE
330
1F
100
AcDbEntity
  8
0
  6
Continuous
 62
     7
370
    25
100
AcDbLine
 10
151.2569991144
 20
100.6566081254
 30
0.0
 11
151.2569991144
 21
102.1224736293
 31
0.0
  0
SPLINE
  5
1BF
330
1F
100
AcDbEntity
  8
0
  6
Continuous
 62
     7
370
    25
100
AcDbSpline
210
0.0
220
0.0
230
1.0
 70
     8
 71
     3
 72
    15
 73
    11
 74
     0
 42
0.000000001
 43
0.00000001
 40
0.0
 40
0.0
 40
0.0
 40
0.0
 40
0.1396853908949451
 40
0.2653310810423212
 40
0.3814694298698242
 40
0.492250662312686
 40
0.6047449770800721
 40
0.7238454742606991
 40
0.8546111973471603
 40
1.0
 40
1.0
 40
1.0
 40
1.0
 10
152.1260138431307
 20
99.74462014091586
 30
0.0
 10
152.1232578178708
 20
99.81059664256911
 30
0.0
 10
152.118022773913
 20
99.93591838448424
 30
0.0
 10
152.0790798987514
 20
100.1131336449829
 30
0.0
 10
152.0095556744508
 20
100.2656522468928
 30
0.0
 10
151.9138523965687
 20
100.3959466113719
 30
0.0
 10
151.7875430225505
 20
100.4994824534396
 30
0.0
 10
151.6341153429176
 20
100.5771537545068
 30
0.0
 10
151.4551846050915
 20
100.6340840412415
 30
0.0
 10
151.3253525890431
 20
100.6488396484659
 30
0.0
 10
151.2569991144485
 20
100.656608125412
 30
0.0
  0
LINE
  5
1C0
330
1F
100
AcDbEntity
  8
0
  6
Continuous
 62
     7
370
    25
100
AcDbLine
 10
152.1260138431
 20
95.412279314
 30
0.0
 11
152.1260138431
 21
99.7446201409
 31
0.0
  0
SPLINE
  5
1C1
330
1F
100
AcDbEntity
  8
0
  6
Continuous
 62
     7
370
    25
100
AcDbSpline
210
0.0
220
0.0
230
1.0
 70
     8
 71
     3
 72
    15
 73
    11
 74
     0
 42
0.000000001
 43
0.00000001
 40
0.0
 40
0.0
 40
0.0
 40
0.0
 40
0.1446442403293578
 40
0.2742576763077232
 40
0.3931307050380355
 40
0.5056357477882457
 40
0.6166180831130373
 40
0.7330435729509511
 40
0.8600779349629097
 40
1.0
 40
1.0
 40
1.0
 40
1.0
 10
151.2569991144485
 20
94.48915011507606
 30
0.0
 10
151.3252519597766
 20
94.4978239272917
 30
0.0
 10
151.4546651097124
 20
94.51427020664288
 30
0.0
 10
151.6348446336864
 20
94.56778923190087
 30
0.0
 10
151.7876119665083
 20
94.64814359095026
 30
0.0
 10
151.9139719788171
 20
94.75302829121321
 30
0.0
 10
152.0095518681552
 20
94.88498768268246
 30
0.0
 10
152.0793712097789
 20
95.03950029859688
 30
0.0
 10
152.1178306869805
 20
95.21892468272218
 30
0.0
 10
152.1231997250848
 20
95.3457862950576
 30
0.0
 10
152.1260138431307
 20
95.41227931404246
 30
0.0
  0
LINE
  5
1C2
330
1F
100
AcDbEntity
  8
0
  6
Continuous
 62
     7
370
    25
100
AcDbLine
 10
150.8941138431
 20
94.4891501151
 30
0.0
 11
150.8941138431
 21
93.1585707869
 31
0.0
  0
SPLINE
  5
1C3
330
1F
100
AcDbEntity
  8
0
  6
Continuous
 62
     7
370
    25
100
AcDbSpline
210
0.0
220
0.0
230
1.0
 70
     8
 71
     3
 72
    15
 73
    11
 74
     0
 42
0.000000001
 43
0.00000001
 40
0.0
 40
0.0
 40
0.0
 40
0.0
 40
0.140834988894838
 40
0.2675844518979604
 40
0.385311840960717
 40
0.4963917717467491
 40
0.609625014219636
 40
0.7273087479961713
 40
0.8563383675164595
 40
1.0
 40
1.0
 40
1.0
 40
1.0
 10
150.0473815433891
 20
95.41227931404246
 30
0.0
 10
150.0493853633926
 20
95.34625786188835
 30
0.0
 10
150.053192592559
 20
95.22081805302551
 30
0.0
 10
150.0936137480763
 20
95.04385767116653
 30
0.0
 10
150.159829390928
 20
94.88987939376717
 30
0.0
 10
150.2556255276006
 20
94.76001133772124
 30
0.0
 10
150.3765410735918
 20
94.65296731093375
 30
0.0
 10
150.5262791975341
 20
94.57330928031423
 30
0.0
 10
150.7005758781186
 20
94.51509014060866
 30
0.0
 10
150.8273340007491
 20
94.49810066292507
 30
0.0
 10
150.8941138431307
 20
94.48915011507606
 30
0.0
  0
LINE
  5
1C4
330
1F
100
AcDbEntity
  8
0
  6
Continuous
 62
     7
370
    25
100
AcDbLine
 10
150.0473815434
 20
99.7446201409
 30
0.0
 11
150.0473815434
 21
95.412279314
 31
0.0
  0
SPLINE
  5
1C5
330
1F
100
AcDbEntity
  8
0
  6
Continuous
 62
     7
370
    25
100
AcDbSpline
210
0.0
220
0.0
230
1.0
 70
     8
 71
     3
 72
    15
 73
    11
 74
     0
 42
0.000000001
 43
0.00000001
 40
0.0
 40
0.0
 40
0.0
 40
0.0
 40
0.1451269760448287
 40
0.2756647050787219
 40
0.3943900331659762
 40
0.507873336926221
 40
0.6190167675009138
 40
0.7356982100070592
 40
0.8613415408419085
 40
0.9999999999999999
 40
0.9999999999999999
 40
0.9999999999999999
 40
0.9999999999999999
 10
150.8941138431307
 20
100.656608125412
 30
0.0
 10
150.8273014826861
 20
100.6471652908324
 30
0.0
 10
150.7003932390258
 20
100.6292288858963
 30
0.0
 10
150.5265020606981
 20
100.5690511076394
 30
0.0
 10
150.3770519808364
 20
100.489584075872
 30
0.0
 10
150.2556295855482
 20
100.3843184313427
 30
0.0
 10
150.160305141836
 20
100.2562735354993
 30
0.0
 10
150.0935267612835
 20
100.1052388759373
 30
0.0
 10
150.053316486434
 20
99.93184958537984
 30
0.0
 10
150.0494237548964
 20
99.80904571721797
 30
0.0
 10
150.0473815433891
 20
99.74462014091586
 30
0.0
  0
LINE
  5
1C6
330
1F
100
AcDbEntity
  8
0
  6
Continuous
 62
     7
370
    25
100
AcDbLine
 10
150.8941138431
 20
102.1224736293
 30
0.0
 11
150.8941138431
 21
100.6566081254
 31
0.0
  0
SPLINE
  5
1C7
330
1F
100
AcDbEntity
  8
0
  6
Continuous
 62
     7
370
    25
100
AcDbSpline
210
0.0
220
0.0
230
1.0
 70
     8
 71
     3
 72
    23
 73
    19
 74
     0
 42
0.000000001
 43
0.00000001
 40
0.0
 40
0.0
 40
0.0
 40
0.0
 40
0.0670307357835366
 40
0.1304012603276321
 40
0.1903389729855079
 40
0.2474129510405931
 40
0.3026712255789898
 40
0.3565542335511082
 40
0.4099156225145394
 40
0.4641597583786154
 40
0.5193139434790773
 40
0.5769624414613013
 40
0.6373053766276873
 40
0.7013258945736403
 40
0.7689335834363672
 40
0.8411893978486168
 40
0.9181049856902378
 40
1.0
 40
1.0
 40
1.0
 40
1.0
 10
148.0005812849912
 20
99.75416975331895
 30
0.0
 10
148.0026385218798
 20
99.8497604461955
 30
0.0
 10
148.0066406603009
 20
100.0357221051418
 30
0.0
 10
148.0399343803169
 20
100.3055920680291
 30
0.0
 10
148.0970272987696
 20
100.5568011535839
 30
0.0
 10
148.1768587575226
 20
100.7895927808563
 30
0.0
 10
148.2786677391697
 20
101.0042079854959
 30
0.0
 10
148.4036221830746
 20
101.2000526186815
 30
0.0
 10
148.5517054843761
 20
101.3772068366237
 30
0.0
 10
148.7228682277707
 20
101.5347852167325
 30
0.0
 10
148.9162340077702
 20
101.6747364100372
 30
0.0
 10
149.1321059004778
 20
101.7955296628393
 30
0.0
 10
149.3711302744695
 20
101.8978159254868
 30
0.0
 10
149.6328500012657
 20
101.9790932582087
 30
0.0
 10
149.9162500724085
 20
102.0449860693774
 30
0.0
 10
150.2223146399999
 20
102.0900154503571
 30
0.0
 10
150.5508996428573
 20
102.1170132898786
 30
0.0
 10
150.7773424430448
 20
102.1206158638538
 30
0.0
 10
150.8941138431307
 20
102.122473629288
 30
0.0
  0
LINE
  5
1C8
330
1F
100
AcDbEntity
  8
0
  6
Continuous
 62
     7
370
    25
100
AcDbLine
 10
148.000581285
 20
95.7274165233
 30
0.0
 11
148.000581285
 21
99.7541697533
 31
0.0
  0
SPLINE
  5
1C9
330
1F
100
AcDbEntity
  8
0
  6
Continuous
 62
     7
370
    25
100
AcDbSpline
210
0.0
220
0.0
230
1.0
 70
     8
 71
     3
 72
    23
 73
    19
 74
     0
 42
0.000000001
 43
0.00000001
 40
0.0
 40
0.0
 40
0.0
 40
0.0
 40
0.0789932680116445
 40
0.1532460294205802
 40
0.2231105665976367
 40
0.2885741402790812
 40
0.3508921522252424
 40
0.4098283342553343
 40
0.4665217361331537
 40
0.5214563082052804
 40
0.5757694244695046
 40
0.6297577975005236
 40
0.6850989171201108
 40
0.7419874073049934
 40
0.8011276176407792
 40
0.863849506787755
 40
0.9299641830721016
 40
1.0
 40
1.0
 40
1.0
 40
1.0
 10
150.8941138431307
 20
93.15857078691069
 30
0.0
 10
150.7773288477332
 20
93.16017375321341
 30
0.0
 10
150.5507673027934
 20
93.16328348936399
 30
0.0
 10
150.2220265748121
 20
93.19378698593289
 30
0.0
 10
149.9161277717501
 20
93.24421075593128
 30
0.0
 10
149.6320298420261
 20
93.31380553376805
 30
0.0
 10
149.3707767917464
 20
93.40410154412666
 30
0.0
 10
149.1313649436439
 20
93.51408560199435
 30
0.0
 10
148.9147829588504
 20
93.64444754431688
 30
0.0
 10
148.7225300557942
 20
93.79769454565124
 30
0.0
 10
148.5508445336489
 20
93.96800066933392
 30
0.0
 10
148.4024975395174
 20
94.15999864283006
 30
0.0
 10
148.2786722466727
 20
94.37290302126374
 30
0.0
 10
148.1765143515811
 20
94.6052304304314
 30
0.0
 10
148.0966629624784
 20
94.8576108427075
 30
0.0
 10
148.0400724596462
 20
95.13004652619213
 30
0.0
 10
148.0065939999792
 20
95.42258220549452
 30
0.0
 10
148.0026236388499
 20
95.6238726922156
 30
0.0
 10
148.0005812849912
 20
95.7274165233448
 30
0.0
  0
SPLINE
  5
1CA
330
1F
100
AcDbEntity
  8
0
  6
Continuous
 62
     7
370
    25
100
AcDbSpline
210
0.0
220
0.0
230
1.0
 70
     8
 71
     3
 72
    23
 73
    19
 74
     0
 42
0.000000001
 43
0.00000001
 40
0.0
 40
0.0
 40
0.0
 40
0.0
 40
0.0736232816705772
 40
0.1428452278869256
 40
0.2084078798673278
 40
0.2699633854031923
 40
0.3284738277640476
 40
0.384569307904624
 40
0.4390677060409177
 40
0.4923084999562189
 40
0.5456885759558714
 40
0.6000964701855913
 40
0.6573341402000236
 40
0.7171188352544178
 40
0.7810588221892855
 40
0.8488264120205595
 40
0.9220173410946422
 40
1.0
 40
1.0
 40
1.0
 40
1.0
 10
142.2529083198749
 20
115.2435432311936
 30
0.0
 10
142.2510641803329
 20
115.1189307916558
 30
0.0
 10
142.2474861473092
 20
114.8771554738565
 30
0.0
 10
142.21200736687
 20
114.5258304678837
 30
0.0
 10
142.1538222128318
 20
114.1984249225581
 30
0.0
 10
142.0734335810342
 20
113.8943426917
 30
0.0
 10
141.9688110208383
 20
113.6145642842333
 30
0.0
 10
141.8387484525984
 20
113.3591135276051
 30
0.0
 10
141.6885670445659
 20
113.1253587338736
 30
0.0
 10
141.5116764307528
 20
112.9167842819444
 30
0.0
 10
141.3092130511021
 20
112.7333593203679
 30
0.0
 10
141.0798377623337
 20
112.5727153082159
 30
0.0
 10
140.821340670504
 20
112.4392882274346
 30
0.0
 10
140.5343905574236
 20
112.3309682525337
 30
0.0
 10
140.2215881922938
 20
112.244649657955
 30
0.0
 10
139.879682349004
 20
112.1843476447267
 30
0.0
 10
139.5103372530019
 20
112.1505467512534
 30
0.0
 10
139.2545319711896
 20
112.1453404358806
 30
0.0
 10
139.1225752166772
 20
112.1426547662388
 30
0.0
  0
DIMENSION
  5
1CB
330
1F
100
AcDbEntity
  8
0
  6
Continuous
 62
     7
370
    18
100
AcDbDimension
  2
_D
 10
65.6750359362
 20
128.2604333192
 30
0.0
 11
65.6750359362
 21
115.3098761728
 31
0.0
 70
   160
  1
<>
 71
     2
 42
-1.0
  3
SLDDIMSTYLE0
100
AcDbAlignedDimension
 13
84.6750359362
 23
88.2604333192
 33
0.0
 14
84.6750359362
 24
128.2604333192
 34
0.0
 50
90.0
100
AcDbRotatedDimension
  0
DIMENSION
  5
1D7
330
1F
100
AcDbEntity
  8
0
  6
Continuous
 62
     7
370
    18
100
AcDbDimension
  2
_D_1
 10
181.6750359362
 20
78.2604333192
 30
0.0
 11
132.6522116373
 21
78.2604333192
 31
0.0
 70
   160
  1
<>
 71
     2
 42
-1.0
  3
SLDDIMSTYLE0
100
AcDbAlignedDimension
 13
81.6750359362
 23
91.2604333192
 33
0.0
 14
181.6750359362
 24
91.2604333192
 34
0.0
100
AcDbRotatedDimension
  0
DIMENSION
  5
1E1
330
1F
100
AcDbEntity
  8
0
  6
Continuous
 62
     7
370
    18
100
AcDbDimension
  2
_D_2
 10
178.6750359362
 20
125.2604333192
 30
0.0
 11
189.8525207129
 21
135.8913021954
 31
0.0
 70
   164
  1
<>
 71
     1
 42
-1.0
  3
SLDDIMSTYLE1
100
AcDbRadialDimension
 15
180.8488434834
 25
127.3279344069
 35
0.0
 40
0.0
  0
ENDSEC
  0
SECTION
  2
OBJECTS
  0
DICTIONARY
  5
C
330
0
100
AcDbDictionary
281
     1
  3
ACAD_GROUP
350
D
  3
ACAD_LAYOUT
350
1A
  3
ACAD_MLINESTYLE
350
17
  3
ACAD_PLOTSETTINGS
350
19
  3
ACAD_PLOTSTYLENAME
350
E
  3
ACAD_SCALELIST
350
47
  0
DICTIONARY
  5
D
102
{ACAD_REACTORS
330
C
102
}
330
C
100
AcDbDictionary
281
     1
  0
DICTIONARY
  5
1A
102
{ACAD_REACTORS
330
C
102
}
330
C
100
AcDbDictionary
281
     1
  3
Layout1
350
1E
  3
Layout2
350
26
  3
Model
350
22
  0
DICTIONARY
  5
17
102
{ACAD_REACTORS
330
C
102
}
330
C
100
AcDbDictionary
281
     1
  3
Standard
350
18
  0
DICTIONARY
  5
19
102
{ACAD_REACTORS
330
C
102
}
330
C
100
AcDbDictionary
281
     1
  0
ACDBDICTIONARYWDFLT
  5
E
102
{ACAD_REACTORS
330
C
102
}
330
C
100
AcDbDictionary
281
     1
  3
Normal
350
F
100
AcDbDictionaryWithDefault
340
F
  0
DICTIONARY
  5
47
102
{ACAD_REACTORS
330
C
102
}
330
C
100
AcDbDictionary
281
     1
  3
A0
350
48
  3
A1
350
49
  3
A2
350
4A
  3
A3
350
4B
  3
A4
350
4C
  3
A5
350
4D
  3
A6
350
4E
  3
A7
350
4F
  3
A8
350
50
  3
A9
350
51
  3
B0
350
52
  3
B1
350
53
  3
B2
350
54
  3
B3
350
55
  3
B4
350
56
  3
B5
350
57
  3
B6
350
58
  3
B7
350
59
  3
B8
350
5A
  3
B9
350
5B
  3
C0
350
5C
  3
C1
350
5D
  3
C2
350
5E
  3
C3
350
5F
  3
C4
350
60
  3
C5
350
61
  3
C6
350
62
  3
C7
350
63
  3
C8
350
64
  3
C9
350
65
  3
D0
350
66
  3
D1
350
67
  3
D2
350
68
  0
LAYOUT
  5
1E
102
{ACAD_REACTORS
330
1A
102
}
330
1A
100
AcDbPlotSettings
  1

  2
none_device
  4

  6

 40
0.0
 41
0.0
 42
0.0
 43
0.0
 44
0.0
 45
0.0
 46
0.0
 47
0.0
 48
0.0
 49
0.0
140
0.0
141
0.0
142
1.0
143
1.0
 70
   688
 72
     1
 73
     0
 74
     5
  7

 75
    16
147
1.0
148
0.0
149
0.0
100
AcDbLayout
  1
Layout1
 70
     1
 71
     1
 10
0.0
 20
0.0
 11
420.0
 21
297.0
 12
0.0
 22
0.0
 32
0.0
 14
1.0000000000E+20
 24
1.0000000000E+20
 34
1.0000000000E+20
 15
-1.0000000000E+20
 25
-1.0000000000E+20
 35
-1.0000000000E+20
146
0.0
 13
0.0
 23
0.0
 33
0.0
 16
1.0
 26
0.0
 36
0.0
 17
0.0
 27
1.0
 37
0.0
 76
     0
330
1B
  0
LAYOUT
  5
26
102
{ACAD_REACTORS
330
1A
102
}
330
1A
100
AcDbPlotSettings
  1

  2
none_device
  4

  6

 40
0.0
 41
0.0
 42
0.0
 43
0.0
 44
0.0
 45
0.0
 46
0.0
 47
0.0
 48
0.0
 49
0.0
140
0.0
141
0.0
142
1.0
143
1.0
 70
   688
 72
     1
 73
     0
 74
     5
  7

 75
    16
147
1.0
148
0.0
149
0.0
100
AcDbLayout
  1
Layout2
 70
     1
 71
     2
 10
0.0
 20
0.0
 11
0.0
 21
0.0
 12
0.0
 22
0.0
 32
0.0
 14
0.0
 24
0.0
 34
0.0
 15
0.0
 25
0.0
 35
0.0
146
0.0
 13
0.0
 23
0.0
 33
0.0
 16
1.0
 26
0.0
 36
0.0
 17
0.0
 27
1.0
 37
0.0
 76
     0
330
23
  0
LAYOUT
  5
22
102
{ACAD_REACTORS
330
1A
102
}
330
1A
100
AcDbPlotSettings
  1

  2
none_device
  4
Letter_(8.50_x_11.00_Inches)
  6

 40
6.35
 41
6.35
 42
6.35000508
 43
6.35000508
 44
215.9
 45
279.4
 46
0.0
 47
0.0
 48
0.0
 49
0.0
140
0.0
141
0.0
142
1.0
143
1.0
 70
  1712
 72
     1
 73
     0
 74
     0
  7

 75
     0
147
1.0
148
0.0
149
0.0
100
AcDbLayout
  1
Model
 70
     1
 71
     0
 10
0.0
 20
0.0
 11
279.4
 21
215.9
 12
0.0
 22
0.0
 32
0.0
 14
0.0
 24
0.0
 34
0.0
 15
279.4
 25
215.9
 35
0.0
146
0.0
 13
0.0
 23
0.0
 33
0.0
 16
1.0
 26
0.0
 36
0.0
 17
0.0
 27
1.0
 37
0.0
 76
     0
330
1F
331
29
  0
MLINESTYLE
  5
18
102
{ACAD_REACTORS
330
17
102
}
330
17
100
AcDbMlineStyle
  2
Standard
 70
     0
  3

 62
   256
 51
90.0
 52
90.0
 71
     2
 49
0.5
 62
   256
  6
BYLAYER
 49
-0.5
 62
   256
  6
BYLAYER
  0
ACDBPLACEHOLDER
  5
F
102
{ACAD_REACTORS
330
E
102
}
330
E
  0
SCALE
  5
48
102
{ACAD_REACTORS
330
47
102
}
330
47
100
AcDbScale
 70
     0
300
1:1
140
1.0
141
1.0
290
     1
  0
SCALE
  5
49
102
{ACAD_REACTORS
330
47
102
}
330
47
100
AcDbScale
 70
     0
300
1:2
140
1.0
141
2.0
290
     0
  0
SCALE
  5
4A
102
{ACAD_REACTORS
330
47
102
}
330
47
100
AcDbScale
 70
     0
300
1:4
140
1.0
141
4.0
290
     0
  0
SCALE
  5
4B
102
{ACAD_REACTORS
330
47
102
}
330
47
100
AcDbScale
 70
     0
300
1:5
140
1.0
141
5.0
290
     0
  0
SCALE
  5
4C
102
{ACAD_REACTORS
330
47
102
}
330
47
100
AcDbScale
 70
     0
300
1:8
140
1.0
141
8.0
290
     0
  0
SCALE
  5
4D
102
{ACAD_REACTORS
330
47
102
}
330
47
100
AcDbScale
 70
     0
300
1:10
140
1.0
141
10.0
290
     0
  0
SCALE
  5
4E
102
{ACAD_REACTORS
330
47
102
}
330
47
100
AcDbScale
 70
     0
300
1:16
140
1.0
141
16.0
290
     0
  0
SCALE
  5
4F
102
{ACAD_REACTORS
330
47
102
}
330
47
100
AcDbScale
 70
     0
300
1:20
140
1.0
141
20.0
290
     0
  0
SCALE
  5
50
102
{ACAD_REACTORS
330
47
102
}
330
47
100
AcDbScale
 70
     0
300
1:30
140
1.0
141
30.0
290
     0
  0
SCALE
  5
51
102
{ACAD_REACTORS
330
47
102
}
330
47
100
AcDbScale
 70
     0
300
1:40
140
1.0
141
40.0
290
     0
  0
SCALE
  5
52
102
{ACAD_REACTORS
330
47
102
}
330
47
100
AcDbScale
 70
     0
300
1:50
140
1.0
141
50.0
290
     0
  0
SCALE
  5
53
102
{ACAD_REACTORS
330
47
102
}
330
47
100
AcDbScale
 70
     0
300
1:100
140
1.0
141
100.0
290
     0
  0
SCALE
  5
54
102
{ACAD_REACTORS
330
47
102
}
330
47
100
AcDbScale
 70
     0
300
2:1
140
2.0
141
1.0
290
     0
  0
SCALE
  5
55
102
{ACAD_REACTORS
330
47
102
}
330
47
100
AcDbScale
 70
     0
300
4:1
140
4.0
141
1.0
290
     0
  0
SCALE
  5
56
102
{ACAD_REACTORS
330
47
102
}
330
47
100
AcDbScale
 70
     0
300
8:1
140
8.0
141
1.0
290
     0
  0
SCALE
  5
57
102
{ACAD_REACTORS
330
47
102
}
330
47
100
AcDbScale
 70
     0
300
10:1
140
10.0
141
1.0
290
     0
  0
SCALE
  5
58
102
{ACAD_REACTORS
330
47
102
}
330
47
100
AcDbScale
 70
     0
300
100:1
140
100.0
141
1.0
290
     0
  0
SCALE
  5
59
102
{ACAD_REACTORS
330
47
102
}
330
47
100
AcDbScale
 70
     0
300
1/128" = 1'-0"
140
0.0078125
141
12.0
290
     0
  0
SCALE
  5
5A
102
{ACAD_REACTORS
330
47
102
}
330
47
100
AcDbScale
 70
     0
300
1/64" = 1'-0"
140
0.015625
141
12.0
290
     0
  0
SCALE
  5
5B
102
{ACAD_REACTORS
330
47
102
}
330
47
100
AcDbScale
 70
     0
300
1/32" = 1'-0"
140
0.03125
141
12.0
290
     0
  0
SCALE
  5
5C
102
{ACAD_REACTORS
330
47
102
}
330
47
100
AcDbScale
 70
     0
300
1/16" = 1'-0"
140
0.0625
141
12.0
290
     0
  0
SCALE
  5
5D
102
{ACAD_REACTORS
330
47
102
}
330
47
100
AcDbScale
 70
     0
300
3/32" = 1'-0"
140
0.09375
141
12.0
290
     0
  0
SCALE
  5
5E
102
{ACAD_REACTORS
330
47
102
}
330
47
100
AcDbScale
 70
     0
300
1/8" = 1'-0"
140
0.125
141
12.0
290
     0
  0
SCALE
  5
5F
102
{ACAD_REACTORS
330
47
102
}
330
47
100
AcDbScale
 70
     0
300
3/16" = 1'-0"
140
0.1875
141
12.0
290
     0
  0
SCALE
  5
60
102
{ACAD_REACTORS
330
47
102
}
330
47
100
AcDbScale
 70
     0
300
1/4" = 1'-0"
140
0.25
141
12.0
290
     0
  0
SCALE
  5
61
102
{ACAD_REACTORS
330
47
102
}
330
47
100
AcDbScale
 70
     0
300
3/8" = 1'-0"
140
0.375
141
12.0
290
     0
  0
SCALE
  5
62
102
{ACAD_REACTORS
330
47
102
}
330
47
100
AcDbScale
 70
     0
300
1/2" = 1'-0"
140
0.5
141
12.0
290
     0
  0
SCALE
  5
63
102
{ACAD_REACTORS
330
47
102
}
330
47
100
AcDbScale
 70
     0
300
3/4" = 1'-0"
140
0.75
141
12.0
290
     0
  0
SCALE
  5
64
102
{ACAD_REACTORS
330
47
102
}
330
47
100
AcDbScale
 70
     0
300
1" = 1'-0"
140
1.0
141
12.0
290
     0
  0
SCALE
  5
65
102
{ACAD_REACTORS
330
47
102
}
330
47
100
AcDbScale
 70
     0
300
1-1/2" = 1'-0"
140
1.5
141
12.0
290
     0
  0
SCALE
  5
66
102
{ACAD_REACTORS
330
47
102
}
330
47
100
AcDbScale
 70
     0
300
3" = 1'-0"
140
3.0
141
12.0
290
     0
  0
SCALE
  5
67
102
{ACAD_REACTORS
330
47
102
}
330
47
100
AcDbScale
 70
     0
300
6" = 1'-0"
140
6.0
141
12.0
290
     0
  0
SCALE
  5
68
102
{ACAD_REACTORS
330
47
102
}
330
47
100
AcDbScale
 70
     0
300
1'-0" = 1'-0"
140
12.0
141
12.0
290
     0
  0
ENDSEC
  0
EOF
