  0
SECTION
  2
HEADER
  9
$ACADVER
  1
AC1027
  9
$ACADMAINTVER
 70
     8
  9
$DWGCODEPAGE
  3
ANSI_1252
  9
$REQUIREDVERSIONS
160
                 0
  9
$INSBASE
 10
0.0
 20
0.0
 30
0.0
  9
$EXTMIN
 10
1.000000000000000E+20
 20
1.000000000000000E+20
 30
1.000000000000000E+20
  9
$EXTMAX
 10
-1.000000000000000E+20
 20
-1.000000000000000E+20
 30
-1.000000000000000E+20
  9
$LIMMIN
 10
0.0
 20
0.0
  9
$LIMMAX
 10
12.0
 20
9.0
  9
$ORTHOMODE
 70
     0
  9
$REGENMODE
 70
     1
  9
$FILLMODE
 70
     1
  9
$QTEXTMODE
 70
     0
  9
$MIRRTEXT
 70
     1
  9
$LTSCALE
 40
1.0
  9
$ATTMODE
 70
     1
  9
$TEXTSIZE
 40
0.2
  9
$TRACEWID
 40
0.05
  9
$TEXTSTYLE
  7
Standard
  9
$CLAYER
  8
0
  9
$CELTYPE
  6
ByLayer
  9
$CECOLOR
 62
    18
  9
$CELTSCALE
 40
1.0
  9
$DISPSILH
 70
     0
  9
$DIMSCALE
 40
1.0
  9
$DIMASZ
 40
2.5
  9
$DIMEXO
 40
0.625
  9
$DIMDLI
 40
0.38
  9
$DIMRND
 40
0.0
  9
$DIMDLE
 40
0.0
  9
$DIMEXE
 40
1.25
  9
$DIMTP
 40
0.0
  9
$DIMTM
 40
0.0
  9
$DIMTXT
 40
2.5
  9
$DIMCEN
 40
0.09
  9
$DIMTSZ
 40
0.0
  9
$DIMTOL
 70
     0
  9
$DIMLIM
 70
     0
  9
$DIMTIH
 70
     1
  9
$DIMTOH
 70
     1
  9
$DIMSE1
 70
     0
  9
$DIMSE2
 70
     0
  9
$DIMTAD
 70
     0
  9
$DIMZIN
 70
     8
  9
$DIMBLK
  1

  9
$DIMASO
 70
     1
  9
$DIMSHO
 70
     1
  9
$DIMPOST
  1

  9
$DIMAPOST
  1

  9
$DIMALT
 70
     0
  9
$DIMALTD
 70
     2
  9
$DIMALTF
 40
25.4
  9
$DIMLFAC
 40
1.0
  9
$DIMTOFL
 70
     0
  9
$DIMTVP
 40
0.0
  9
$DIMTIX
 70
     0
  9
$DIMSOXD
 70
     0
  9
$DIMSAH
 70
     0
  9
$DIMBLK1
  1

  9
$DIMBLK2
  1

  9
$DIMSTYLE
  2
Standard
  9
$DIMCLRD
 70
    18
  9
$DIMCLRE
 70
    18
  9
$DIMCLRT
 70
    18
  9
$DIMTFAC
 40
1.0
  9
$DIMGAP
 40
0.625
  9
$DIMJUST
 70
     0
  9
$DIMSD1
 70
     0
  9
$DIMSD2
 70
     0
  9
$DIMTOLJ
 70
     1
  9
$DIMTZIN
 70
     0
  9
$DIMALTZ
 70
     0
  9
$DIMALTTZ
 70
     0
  9
$DIMUPT
 70
     0
  9
$DIMDEC
 70
     4
  9
$DIMTDEC
 70
     4
  9
$DIMALTU
 70
     2
  9
$DIMALTTD
 70
     2
  9
$DIMTXSTY
  7
Standard
  9
$DIMAUNIT
 70
     0
  9
$DIMADEC
 70
     0
  9
$DIMALTRND
 40
0.0
  9
$DIMAZIN
 70
     2
  9
$DIMDSEP
 70
    46
  9
$DIMATFIT
 70
     3
  9
$DIMFRAC
 70
     0
  9
$DIMLDRBLK
  1

  9
$DIMLUNIT
 70
     2
  9
$DIMLWD
 70
    -2
  9
$DIMLWE
 70
    -2
  9
$DIMTMOVE
 70
     0
  9
$DIMFXL
 40
1.0
  9
$DIMFXLON
 70
     0
  9
$DIMJOGANG
 40
0.7853981633974483
  9
$DIMTFILL
 70
     0
  9
$DIMTFILLCLR
 70
     0
  9
$DIMARCSYM
 70
     0
  9
$DIMLTYPE
  6

  9
$DIMLTEX1
  6

  9
$DIMLTEX2
  6

  9
$DIMTXTDIRECTION
 70
     0
  9
$LUNITS
 70
     2
  9
$LUPREC
 70
     4
  9
$SKETCHINC
 40
0.1
  9
$FILLETRAD
 40
0.5
  9
$AUNITS
 70
     0
  9
$AUPREC
 70
     0
  9
$MENU
  1
.
  9
$ELEVATION
 40
0.0
  9
$PELEVATION
 40
0.0
  9
$THICKNESS
 40
0.0
  9
$LIMCHECK
 70
     0
  9
$CHAMFERA
 40
0.0
  9
$CHAMFERB
 40
0.0
  9
$CHAMFERC
 40
0.0
  9
$CHAMFERD
 40
0.0
  9
$SKPOLY
 70
     0
  9
$TDCREATE
 40
2458170.937966852
  9
$TDUCREATE
 40
2458170.896300185
  9
$TDUPDATE
 40
2458170.937967581
  9
$TDUUPDATE
 40
2458170.896300914
  9
$TDINDWG
 40
0.0000000116
  9
$TDUSRTIMER
 40
0.0000000116
  9
$USRTIMER
 70
     1
  9
$ANGBASE
 50
0.0
  9
$ANGDIR
 70
     0
  9
$PDMODE
 70
     0
  9
$PDSIZE
 40
0.0
  9
$PLINEWID
 40
0.0
  9
$SPLFRAME
 70
     0
  9
$SPLINETYPE
 70
     6
  9
$SPLINESEGS
 70
     8
  9
$HANDSEED
  5
37A
  9
$SURFTAB1
 70
     6
  9
$SURFTAB2
 70
     6
  9
$SURFTYPE
 70
     6
  9
$SURFU
 70
     6
  9
$SURFV
 70
     6
  9
$UCSBASE
  2

  9
$UCSNAME
  2

  9
$UCSORG
 10
0.0
 20
0.0
 30
0.0
  9
$UCSXDIR
 10
1.0
 20
0.0
 30
0.0
  9
$UCSYDIR
 10
0.0
 20
1.0
 30
0.0
  9
$UCSORTHOREF
  2

  9
$UCSORTHOVIEW
 70
     0
  9
$UCSORGTOP
 10
0.0
 20
0.0
 30
0.0
  9
$UCSORGBOTTOM
 10
0.0
 20
0.0
 30
0.0
  9
$UCSORGLEFT
 10
0.0
 20
0.0
 30
0.0
  9
$UCSORGRIGHT
 10
0.0
 20
0.0
 30
0.0
  9
$UCSORGFRONT
 10
0.0
 20
0.0
 30
0.0
  9
$UCSORGBACK
 10
0.0
 20
0.0
 30
0.0
  9
$PUCSBASE
  2

  9
$PUCSNAME
  2

  9
$PUCSORG
 10
0.0
 20
0.0
 30
0.0
  9
$PUCSXDIR
 10
1.0
 20
0.0
 30
0.0
  9
$PUCSYDIR
 10
0.0
 20
1.0
 30
0.0
  9
$PUCSORTHOREF
  2

  9
$PUCSORTHOVIEW
 70
     0
  9
$PUCSORGTOP
 10
0.0
 20
0.0
 30
0.0
  9
$PUCSORGBOTTOM
 10
0.0
 20
0.0
 30
0.0
  9
$PUCSORGLEFT
 10
0.0
 20
0.0
 30
0.0
  9
$PUCSORGRIGHT
 10
0.0
 20
0.0
 30
0.0
  9
$PUCSORGFRONT
 10
0.0
 20
0.0
 30
0.0
  9
$PUCSORGBACK
 10
0.0
 20
0.0
 30
0.0
  9
$USERI1
 70
     0
  9
$USERI2
 70
     0
  9
$USERI3
 70
     0
  9
$USERI4
 70
     0
  9
$USERI5
 70
     0
  9
$USERR1
 40
0.0
  9
$USERR2
 40
0.0
  9
$USERR3
 40
0.0
  9
$USERR4
 40
0.0
  9
$USERR5
 40
0.0
  9
$WORLDVIEW
 70
     1
  9
$SHADEDGE
 70
     3
  9
$SHADEDIF
 70
    70
  9
$TILEMODE
 70
     1
  9
$MAXACTVP
 70
     2
  9
$PINSBASE
 10
0.0
 20
0.0
 30
0.0
  9
$PLIMCHECK
 70
     0
  9
$PEXTMIN
 10
1.000000000000000E+20
 20
1.000000000000000E+20
 30
1.000000000000000E+20
  9
$PEXTMAX
 10
-1.000000000000000E+20
 20
-1.000000000000000E+20
 30
-1.000000000000000E+20
  9
$PLIMMIN
 10
0.0
 20
0.0
  9
$PLIMMAX
 10
12.0
 20
9.0
  9
$UNITMODE
 70
     0
  9
$VISRETAIN
 70
     1
  9
$PLINEGEN
 70
     0
  9
$PSLTSCALE
 70
     1
  9
$TREEDEPTH
 70
  3020
  9
$CMLSTYLE
  2
Standard
  9
$CMLJUST
 70
     0
  9
$CMLSCALE
 40
1.0
  9
$PROXYGRAPHICS
 70
     1
  9
$MEASUREMENT
 70
     1
  9
$CELWEIGHT
370
    -1
  9
$ENDCAPS
280
     0
  9
$JOINSTYLE
280
     0
  9
$LWDISPLAY
290
     0
  9
$INSUNITS
 70
     4
  9
$HYPERLINKBASE
  1

  9
$STYLESHEET
  1

  9
$XEDIT
290
     1
  9
$CEPSNTYPE
380
     0
  9
$PSTYLEMODE
290
     1
  9
$FINGERPRINTGUID
  2
{5AFB5AE6-47AA-40D3-A747-F3B72A5D9909}
  9
$VERSIONGUID
  2
{FAEB1C32-E019-11D5-929B-00C0DF256EC4}
  9
$EXTNAMES
290
     1
  9
$PSVPSCALE
 40
0.0
  9
$OLESTARTUP
290
     0
  9
$SORTENTS
280
   127
  9
$INDEXCTL
280
     0
  9
$HIDETEXT
280
     1
  9
$XCLIPFRAME
280
     2
  9
$HALOGAP
280
     0
  9
$OBSCOLOR
 70
   257
  9
$OBSLTYPE
280
     0
  9
$INTERSECTIONDISPLAY
280
     0
  9
$INTERSECTIONCOLOR
 70
   257
  9
$DIMASSOC
280
     2
  9
$PROJECTNAME
  1

  9
$CAMERADISPLAY
290
     0
  9
$LENSLENGTH
 40
50.0
  9
$CAMERAHEIGHT
 40
0.0
  9
$STEPSPERSEC
 40
2.0
  9
$STEPSIZE
 40
6.0
  9
$3DDWFPREC
 40
2.0
  9
$PSOLWIDTH
 40
0.25
  9
$PSOLHEIGHT
 40
4.0
  9
$LOFTANG1
 40
1.570796326794897
  9
$LOFTANG2
 40
1.570796326794897
  9
$LOFTMAG1
 40
0.0
  9
$LOFTMAG2
 40
0.0
  9
$LOFTPARAM
 70
     7
  9
$LOFTNORMALS
280
     1
  9
$LATITUDE
 40
37.795
  9
$LONGITUDE
 40
-122.394
  9
$NORTHDIRECTION
 40
0.0
  9
$TIMEZONE
 70
 -8000
  9
$LIGHTGLYPHDISPLAY
280
     1
  9
$TILEMODELIGHTSYNCH
280
     1
  9
$CMATERIAL
347
1F9
  9
$SOLIDHIST
280
     0
  9
$SHOWHIST
280
     1
  9
$DWFFRAME
280
     2
  9
$DGNFRAME
280
     2
  9
$REALWORLDSCALE
290
     1
  9
$INTERFERECOLOR
 62
   256
  9
$CSHADOW
280
     0
  9
$SHADOWPLANELOCATION
 40
0.0
  0
ENDSEC
  0
SECTION
  2
CLASSES
  0
CLASS
  1
ACDBDICTIONARYWDFLT
  2
AcDbDictionaryWithDefault
  3
ObjectDBX Classes
 90
        0
 91
        4
280
     0
281
     0
  0
CLASS
  1
VISUALSTYLE
  2
AcDbVisualStyle
  3
ObjectDBX Classes
 90
     4095
 91
        4
280
     0
281
     0
  0
CLASS
  1
MATERIAL
  2
AcDbMaterial
  3
ObjectDBX Classes
 90
     1153
 91
        4
280
     0
281
     0
  0
CLASS
  1
SCALE
  2
AcDbScale
  3
ObjectDBX Classes
 90
     1153
 91
        4
280
     0
281
     0
  0
CLASS
  1
TABLESTYLE
  2
AcDbTableStyle
  3
ObjectDBX Classes
 90
     4095
 91
        4
280
     0
281
     0
  0
CLASS
  1
MLEADERSTYLE
  2
AcDbMLeaderStyle
  3
ACDB_MLEADERSTYLE_CLASS
 90
     4095
 91
        4
280
     0
281
     0
  0
CLASS
  1
SUN
  2
AcDbSun
  3
SCENEOE
 90
     1153
 91
        4
280
     0
281
     0
  0
CLASS
  1
DICTIONARYVAR
  2
AcDbDictionaryVar
  3
ObjectDBX Classes
 90
        0
 91
        4
280
     0
281
     0
  0
CLASS
  1
CELLSTYLEMAP
  2
AcDbCellStyleMap
  3
ObjectDBX Classes
 90
     1152
 91
        4
280
     0
281
     0
  0
ENDSEC
  0
SECTION
  2
TABLES
  0
TABLE
  2
VPORT
  5
1BE
330
0
100
AcDbSymbolTable
 70
     1
  0
VPORT
  5
1DE
330
1BE
100
AcDbSymbolTableRecord
100
AcDbViewportTableRecord
  2
*Active
 70
     0
 10
0.0
 20
0.0
 11
1.0
 21
1.0
 12
10.42990654205607
 22
4.5
 13
0.0
 23
0.0
 14
0.5
 24
0.5
 15
0.5
 25
0.5
 16
0.0
 26
0.0
 36
1.0
 17
0.0
 27
0.0
 37
0.0
 40
9.0
 41
1.972972972850329
 42
50.0
 43
0.0
 44
0.0
 50
0.0
 51
0.0
 71
     0
 72
   100
 73
     1
 74
     3
 75
     0
 76
     0
 77
     0
 78
     0
281
     0
 65
     1
110
0.0
120
0.0
130
0.0
111
1.0
121
0.0
131
0.0
112
0.0
122
1.0
132
0.0
 79
     0
146
0.0
 60
     3
 61
     5
292
     1
282
     1
141
0.0
142
0.0
 63
   250
361
222
  0
ENDTAB
  0
TABLE
  2
LTYPE
  5
1BB
330
0
100
AcDbSymbolTable
 70
    48
  0
LTYPE
  5
1C9
330
1BB
100
AcDbSymbolTableRecord
100
AcDbLinetypeTableRecord
  2
ByBlock
 70
     0
  3

 72
    65
 73
     0
 40
0.0
  0
LTYPE
  5
1CA
330
1BB
100
AcDbSymbolTableRecord
100
AcDbLinetypeTableRecord
  2
ByLayer
 70
     0
  3

 72
    65
 73
     0
 40
0.0
  0
LTYPE
  5
1CB
330
1BB
100
AcDbSymbolTableRecord
100
AcDbLinetypeTableRecord
  2
Continuous
 70
     0
  3
Solid line
 72
    65
 73
     0
 40
0.0
  0
LTYPE
  5
256
330
1BB
100
AcDbSymbolTableRecord
100
AcDbLinetypeTableRecord
  2
ACAD_ISO02W100
 70
     0
  3
ISO dash __ __ __ __ __ __ __ __ __ __ __ __ __
 72
    65
 73
     2
 40
15.0
 49
12.0
 74
     0
 49
-3.0
 74
     0
  0
LTYPE
  5
257
330
1BB
100
AcDbSymbolTableRecord
100
AcDbLinetypeTableRecord
  2
ACAD_ISO03W100
 70
     0
  3
ISO dash space __    __    __    __    __    __
 72
    65
 73
     2
 40
30.0
 49
12.0
 74
     0
 49
-18.0
 74
     0
  0
LTYPE
  5
258
330
1BB
100
AcDbSymbolTableRecord
100
AcDbLinetypeTableRecord
  2
ACAD_ISO04W100
 70
     0
  3
ISO long-dash dot ____ . ____ . ____ . ____ . _
 72
    65
 73
     4
 40
30.0
 49
24.0
 74
     0
 49
-3.0
 74
     0
 49
0.0
 74
     0
 49
-3.0
 74
     0
  0
LTYPE
  5
259
330
1BB
100
AcDbSymbolTableRecord
100
AcDbLinetypeTableRecord
  2
ACAD_ISO05W100
 70
     0
  3
ISO long-dash double-dot ____ .. ____ .. ____ . 
 72
    65
 73
     6
 40
33.0
 49
24.0
 74
     0
 49
-3.0
 74
     0
 49
0.0
 74
     0
 49
-3.0
 74
     0
 49
0.0
 74
     0
 49
-3.0
 74
     0
  0
LTYPE
  5
25A
330
1BB
100
AcDbSymbolTableRecord
100
AcDbLinetypeTableRecord
  2
ACAD_ISO06W100
 70
     0
  3
ISO long-dash triple-dot ____ ... ____ ... ____
 72
    65
 73
     8
 40
36.0
 49
24.0
 74
     0
 49
-3.0
 74
     0
 49
0.0
 74
     0
 49
-3.0
 74
     0
 49
0.0
 74
     0
 49
-3.0
 74
     0
 49
0.0
 74
     0
 49
-3.0
 74
     0
  0
LTYPE
  5
25B
330
1BB
100
AcDbSymbolTableRecord
100
AcDbLinetypeTableRecord
  2
ACAD_ISO07W100
 70
     0
  3
ISO dot . . . . . . . . . . . . . . . . . . . . 
 72
    65
 73
     2
 40
3.0
 49
0.0
 74
     0
 49
-3.0
 74
     0
  0
LTYPE
  5
25C
330
1BB
100
AcDbSymbolTableRecord
100
AcDbLinetypeTableRecord
  2
ACAD_ISO08W100
 70
     0
  3
ISO long-dash short-dash ____ __ ____ __ ____ _
 72
    65
 73
     4
 40
36.0
 49
24.0
 74
     0
 49
-3.0
 74
     0
 49
6.0
 74
     0
 49
-3.0
 74
     0
  0
LTYPE
  5
25D
330
1BB
100
AcDbSymbolTableRecord
100
AcDbLinetypeTableRecord
  2
ACAD_ISO09W100
 70
     0
  3
ISO long-dash double-short-dash ____ __ __ ____
 72
    65
 73
     6
 40
45.0
 49
24.0
 74
     0
 49
-3.0
 74
     0
 49
6.0
 74
     0
 49
-3.0
 74
     0
 49
6.0
 74
     0
 49
-3.0
 74
     0
  0
LTYPE
  5
25E
330
1BB
100
AcDbSymbolTableRecord
100
AcDbLinetypeTableRecord
  2
ACAD_ISO10W100
 70
     0
  3
ISO dash dot __ . __ . __ . __ . __ . __ . __ . 
 72
    65
 73
     4
 40
18.0
 49
12.0
 74
     0
 49
-3.0
 74
     0
 49
0.0
 74
     0
 49
-3.0
 74
     0
  0
LTYPE
  5
25F
330
1BB
100
AcDbSymbolTableRecord
100
AcDbLinetypeTableRecord
  2
ACAD_ISO11W100
 70
     0
  3
ISO double-dash dot __ __ . __ __ . __ __ . __ _
 72
    65
 73
     6
 40
33.0
 49
12.0
 74
     0
 49
-3.0
 74
     0
 49
12.0
 74
     0
 49
-3.0
 74
     0
 49
0.0
 74
     0
 49
-3.0
 74
     0
  0
LTYPE
  5
260
330
1BB
100
AcDbSymbolTableRecord
100
AcDbLinetypeTableRecord
  2
ACAD_ISO12W100
 70
     0
  3
ISO dash double-dot __ . . __ . . __ . . __ . . 
 72
    65
 73
     6
 40
21.0
 49
12.0
 74
     0
 49
-3.0
 74
     0
 49
0.0
 74
     0
 49
-3.0
 74
     0
 49
0.0
 74
     0
 49
-3.0
 74
     0
  0
LTYPE
  5
261
330
1BB
100
AcDbSymbolTableRecord
100
AcDbLinetypeTableRecord
  2
ACAD_ISO13W100
 70
     0
  3
ISO double-dash double-dot __ __ . . __ __ . . _
 72
    65
 73
     8
 40
36.0
 49
12.0
 74
     0
 49
-3.0
 74
     0
 49
12.0
 74
     0
 49
-3.0
 74
     0
 49
0.0
 74
     0
 49
-3.0
 74
     0
 49
0.0
 74
     0
 49
-3.0
 74
     0
  0
LTYPE
  5
262
330
1BB
100
AcDbSymbolTableRecord
100
AcDbLinetypeTableRecord
  2
ACAD_ISO14W100
 70
     0
  3
ISO dash triple-dot __ . . . __ . . . __ . . . _
 72
    65
 73
     8
 40
24.0
 49
12.0
 74
     0
 49
-3.0
 74
     0
 49
0.0
 74
     0
 49
-3.0
 74
     0
 49
0.0
 74
     0
 49
-3.0
 74
     0
 49
0.0
 74
     0
 49
-3.0
 74
     0
  0
LTYPE
  5
263
330
1BB
100
AcDbSymbolTableRecord
100
AcDbLinetypeTableRecord
  2
ACAD_ISO15W100
 70
     0
  3
ISO double-dash triple-dot __ __ . . . __ __ . .
 72
    65
 73
    10
 40
39.0
 49
12.0
 74
     0
 49
-3.0
 74
     0
 49
12.0
 74
     0
 49
-3.0
 74
     0
 49
0.0
 74
     0
 49
-3.0
 74
     0
 49
0.0
 74
     0
 49
-3.0
 74
     0
 49
0.0
 74
     0
 49
-3.0
 74
     0
  0
LTYPE
  5
266
330
1BB
100
AcDbSymbolTableRecord
100
AcDbLinetypeTableRecord
  2
BATTING
 70
     0
  3
Batting SSSSSSSSSSSSSSSSSSSSSSSSSSSSSSSSSSSSSSSSSSSSSSS
 72
    65
 73
     4
 40
10.16254
 49
0.00254
 74
     0
 49
-2.54
 74
     2
 75
     0
340
264
 46
2.54
 50
0.0
 44
-2.54
 45
0.0
  9
BAT
 49
-5.08
 74
     2
 75
     0
340
265
 46
2.54
 50
180.0
 44
2.54
 45
0.0
  9
BAT
 49
-2.54
 74
     0
  0
LTYPE
  5
267
330
1BB
100
AcDbSymbolTableRecord
100
AcDbLinetypeTableRecord
  2
BORDER
 70
     0
  3
Border __ __ . __ __ . __ __ . __ __ . __ __ .
 72
    65
 73
     6
 40
44.45
 49
12.7
 74
     0
 49
-6.35
 74
     0
 49
12.7
 74
     0
 49
-6.35
 74
     0
 49
0.0
 74
     0
 49
-6.35
 74
     0
  0
LTYPE
  5
268
330
1BB
100
AcDbSymbolTableRecord
100
AcDbLinetypeTableRecord
  2
BORDER2
 70
     0
  3
Border (.5x) __.__.__.__.__.__.__.__.__.__.__.
 72
    65
 73
     6
 40
22.225
 49
6.35
 74
     0
 49
-3.175
 74
     0
 49
6.35
 74
     0
 49
-3.175
 74
     0
 49
0.0
 74
     0
 49
-3.175
 74
     0
  0
LTYPE
  5
269
330
1BB
100
AcDbSymbolTableRecord
100
AcDbLinetypeTableRecord
  2
BORDERX2
 70
     0
  3
Border (2x) ____  ____  .  ____  ____  .  ___
 72
    65
 73
     6
 40
88.89999999999999
 49
25.4
 74
     0
 49
-12.7
 74
     0
 49
25.4
 74
     0
 49
-12.7
 74
     0
 49
0.0
 74
     0
 49
-12.7
 74
     0
  0
LTYPE
  5
26A
330
1BB
100
AcDbSymbolTableRecord
100
AcDbLinetypeTableRecord
  2
CENTER
 70
     0
  3
Center ____ _ ____ _ ____ _ ____ _ ____ _ ____
 72
    65
 73
     4
 40
50.8
 49
31.75
 74
     0
 49
-6.35
 74
     0
 49
6.35
 74
     0
 49
-6.35
 74
     0
  0
LTYPE
  5
26B
330
1BB
100
AcDbSymbolTableRecord
100
AcDbLinetypeTableRecord
  2
CENTER2
 70
     0
  3
Center (.5x) ___ _ ___ _ ___ _ ___ _ ___ _ ___
 72
    65
 73
     4
 40
28.575
 49
19.05
 74
     0
 49
-3.175
 74
     0
 49
3.175
 74
     0
 49
-3.175
 74
     0
  0
LTYPE
  5
26C
330
1BB
100
AcDbSymbolTableRecord
100
AcDbLinetypeTableRecord
  2
CENTERX2
 70
     0
  3
Center (2x) ________  __  ________  __  _____
 72
    65
 73
     4
 40
101.6
 49
63.5
 74
     0
 49
-12.7
 74
     0
 49
12.7
 74
     0
 49
-12.7
 74
     0
  0
LTYPE
  5
26D
330
1BB
100
AcDbSymbolTableRecord
100
AcDbLinetypeTableRecord
  2
DASHDOT
 70
     0
  3
Dash dot __ . __ . __ . __ . __ . __ . __ . __
 72
    65
 73
     4
 40
25.4
 49
12.7
 74
     0
 49
-6.35
 74
     0
 49
0.0
 74
     0
 49
-6.35
 74
     0
  0
LTYPE
  5
26E
330
1BB
100
AcDbSymbolTableRecord
100
AcDbLinetypeTableRecord
  2
DASHDOT2
 70
     0
  3
Dash dot (.5x) _._._._._._._._._._._._._._._.
 72
    65
 73
     4
 40
12.7
 49
6.35
 74
     0
 49
-3.175
 74
     0
 49
0.0
 74
     0
 49
-3.175
 74
     0
  0
LTYPE
  5
26F
330
1BB
100
AcDbSymbolTableRecord
100
AcDbLinetypeTableRecord
  2
DASHDOTX2
 70
     0
  3
Dash dot (2x) ____  .  ____  .  ____  .  ___
 72
    65
 73
     4
 40
50.8
 49
25.4
 74
     0
 49
-12.7
 74
     0
 49
0.0
 74
     0
 49
-12.7
 74
     0
  0
LTYPE
  5
270
330
1BB
100
AcDbSymbolTableRecord
100
AcDbLinetypeTableRecord
  2
DASHED
 70
     0
  3
Dashed __ __ __ __ __ __ __ __ __ __ __ __ __ _
 72
    65
 73
     2
 40
19.05
 49
12.7
 74
     0
 49
-6.35
 74
     0
  0
LTYPE
  5
271
330
1BB
100
AcDbSymbolTableRecord
100
AcDbLinetypeTableRecord
  2
DASHED2
 70
     0
  3
Dashed (.5x) _ _ _ _ _ _ _ _ _ _ _ _ _ _ _ _ _ 
 72
    65
 73
     2
 40
9.524999999999999
 49
6.35
 74
     0
 49
-3.175
 74
     0
  0
LTYPE
  5
272
330
1BB
100
AcDbSymbolTableRecord
100
AcDbLinetypeTableRecord
  2
DASHEDX2
 70
     0
  3
Dashed (2x) ____  ____  ____  ____  ____  ___
 72
    65
 73
     2
 40
38.09999999999999
 49
25.4
 74
     0
 49
-12.7
 74
     0
  0
LTYPE
  5
273
330
1BB
100
AcDbSymbolTableRecord
100
AcDbLinetypeTableRecord
  2
DIVIDE
 70
     0
  3
Divide ____ . . ____ . . ____ . . ____ . . ____
 72
    65
 73
     6
 40
31.75
 49
12.7
 74
     0
 49
-6.35
 74
     0
 49
0.0
 74
     0
 49
-6.35
 74
     0
 49
0.0
 74
     0
 49
-6.35
 74
     0
  0
LTYPE
  5
274
330
1BB
100
AcDbSymbolTableRecord
100
AcDbLinetypeTableRecord
  2
DIVIDE2
 70
     0
  3
Divide (.5x) __..__..__..__..__..__..__..__.._
 72
    65
 73
     6
 40
15.875
 49
6.35
 74
     0
 49
-3.175
 74
     0
 49
0.0
 74
     0
 49
-3.175
 74
     0
 49
0.0
 74
     0
 49
-3.175
 74
     0
  0
LTYPE
  5
275
330
1BB
100
AcDbSymbolTableRecord
100
AcDbLinetypeTableRecord
  2
DIVIDEX2
 70
     0
  3
Divide (2x) ________  .  .  ________  .  .  _
 72
    65
 73
     6
 40
63.5
 49
25.4
 74
     0
 49
-12.7
 74
     0
 49
0.0
 74
     0
 49
-12.7
 74
     0
 49
0.0
 74
     0
 49
-12.7
 74
     0
  0
LTYPE
  5
276
330
1BB
100
AcDbSymbolTableRecord
100
AcDbLinetypeTableRecord
  2
DOT
 70
     0
  3
Dot . . . . . . . . . . . . . . . . . . . . . . . .
 72
    65
 73
     2
 40
6.35
 49
0.0
 74
     0
 49
-6.35
 74
     0
  0
LTYPE
  5
277
330
1BB
100
AcDbSymbolTableRecord
100
AcDbLinetypeTableRecord
  2
DOT2
 70
     0
  3
Dot (.5x) ........................................
 72
    65
 73
     2
 40
3.175
 49
0.0
 74
     0
 49
-3.175
 74
     0
  0
LTYPE
  5
278
330
1BB
100
AcDbSymbolTableRecord
100
AcDbLinetypeTableRecord
  2
DOTX2
 70
     0
  3
Dot (2x) .  .  .  .  .  .  .  .  .  .  .  .  .  .
 72
    65
 73
     2
 40
12.7
 49
0.0
 74
     0
 49
-12.7
 74
     0
  0
LTYPE
  5
27A
330
1BB
100
AcDbSymbolTableRecord
100
AcDbLinetypeTableRecord
  2
DRAINAGE
 70
     0
  3
Drainage ---->---->---->----
 72
    65
 73
     2
 40
10.16
 49
5.08
 74
     2
 75
     0
340
279
 46
2.54
 50
180.0
 44
0.0
 45
0.0
  9
RIGHT_ARROW
 49
5.08
 74
     0
  0
LTYPE
  5
27C
330
1BB
100
AcDbSymbolTableRecord
100
AcDbLinetypeTableRecord
  2
DRAINAGE2
 70
     0
  3
Drainage reversed----<----<----<----
 72
    65
 73
     2
 40
10.16
 49
5.08
 74
     2
 75
     0
340
27B
 46
2.54
 50
0.0
 44
0.0
 45
0.0
  9
RIGHT_ARROW
 49
5.08
 74
     0
  0
LTYPE
  5
27E
330
1BB
100
AcDbSymbolTableRecord
100
AcDbLinetypeTableRecord
  2
FENCELINE1
 70
     0
  3
Fenceline circle ----0-----0----0-----0----0-----0--
 72
    65
 73
     4
 40
36.83
 49
6.35
 74
     0
 49
-2.54
 74
     2
 75
     0
340
27D
 46
2.54
 50
0.0
 44
-2.54
 45
0.0
  9
CIRC1
 49
-2.54
 74
     0
 49
25.4
 74
     0
  0
LTYPE
  5
280
330
1BB
100
AcDbSymbolTableRecord
100
AcDbLinetypeTableRecord
  2
FENCELINE2
 70
     0
  3
Fenceline square ----[]-----[]----[]-----[]----[]---
 72
    65
 73
     4
 40
36.83
 49
6.35
 74
     0
 49
-2.54
 74
     2
 75
     0
340
27F
 46
2.54
 50
0.0
 44
-2.54
 45
0.0
  9
BOX
 49
-2.54
 74
     0
 49
25.4
 74
     0
  0
LTYPE
  5
282
330
1BB
100
AcDbSymbolTableRecord
100
AcDbLinetypeTableRecord
  2
GAS_LINE
 70
     0
  3
Gas line ----GAS----GAS----GAS----GAS----GAS----GAS--
 72
    65
 73
     3
 40
24.13
 49
12.7
 74
     0
 49
-5.08
 74
     2
 75
     0
340
281
 46
2.54
 50
0.0
 44
-2.54
 45
-1.27
  9
GAS
 49
-6.35
 74
     0
  0
LTYPE
  5
283
330
1BB
100
AcDbSymbolTableRecord
100
AcDbLinetypeTableRecord
  2
HIDDEN
 70
     0
  3
Hidden __ __ __ __ __ __ __ __ __ __ __ __ __ __
 72
    65
 73
     2
 40
9.524999999999999
 49
6.35
 74
     0
 49
-3.175
 74
     0
  0
LTYPE
  5
284
330
1BB
100
AcDbSymbolTableRecord
100
AcDbLinetypeTableRecord
  2
HIDDEN2
 70
     0
  3
Hidden (.5x) _ _ _ _ _ _ _ _ _ _ _ _ _ _ _ _ _ 
 72
    65
 73
     2
 40
4.762499999999999
 49
3.175
 74
     0
 49
-1.5875
 74
     0
  0
LTYPE
  5
285
330
1BB
100
AcDbSymbolTableRecord
100
AcDbLinetypeTableRecord
  2
HIDDENX2
 70
     0
  3
Hidden (2x) ____ ____ ____ ____ ____ ____ ____ 
 72
    65
 73
     2
 40
19.05
 49
12.7
 74
     0
 49
-6.35
 74
     0
  0
LTYPE
  5
287
330
1BB
100
AcDbSymbolTableRecord
100
AcDbLinetypeTableRecord
  2
HOT_WATER_SUPPLY
 70
     0
  3
Hot water supply ---- HW ---- HW ---- HW ----
 72
    65
 73
     3
 40
22.86
 49
12.7
 74
     0
 49
-5.08
 74
     2
 75
     0
340
286
 46
2.54
 50
0.0
 44
-2.54
 45
-1.27
  9
HW
 49
-5.08
 74
     0
  0
LTYPE
  5
288
330
1BB
100
AcDbSymbolTableRecord
100
AcDbLinetypeTableRecord
  2
PHANTOM
 70
     0
  3
Phantom ______  __  __  ______  __  __  ______ 
 72
    65
 73
     6
 40
63.50000000000001
 49
31.75
 74
     0
 49
-6.35
 74
     0
 49
6.35
 74
     0
 49
-6.35
 74
     0
 49
6.35
 74
     0
 49
-6.35
 74
     0
  0
LTYPE
  5
289
330
1BB
100
AcDbSymbolTableRecord
100
AcDbLinetypeTableRecord
  2
PHANTOM2
 70
     0
  3
Phantom (.5x) ___ _ _ ___ _ _ ___ _ _ ___ _ _
 72
    65
 73
     6
 40
31.75
 49
15.875
 74
     0
 49
-3.175
 74
     0
 49
3.175
 74
     0
 49
-3.175
 74
     0
 49
3.175
 74
     0
 49
-3.175
 74
     0
  0
LTYPE
  5
28A
330
1BB
100
AcDbSymbolTableRecord
100
AcDbLinetypeTableRecord
  2
PHANTOMX2
 70
     0
  3
Phantom (2x) ____________    ____    ____   _
 72
    65
 73
     6
 40
127.0
 49
63.5
 74
     0
 49
-12.7
 74
     0
 49
12.7
 74
     0
 49
-12.7
 74
     0
 49
12.7
 74
     0
 49
-12.7
 74
     0
  0
LTYPE
  5
28C
330
1BB
100
AcDbSymbolTableRecord
100
AcDbLinetypeTableRecord
  2
TRACKS
 70
     0
  3
Tracks -|-|-|-|-|-|-|-|-|-|-|-|-|-|-|-|-|-|-|-|-|-|-|-|-
 72
    65
 73
     2
 40
7.62
 49
3.81
 74
     2
 75
     0
340
28B
 46
6.35
 50
0.0
 44
0.0
 45
0.0
  9
TRACK1
 49
3.81
 74
     0
  0
LTYPE
  5
28F
330
1BB
100
AcDbSymbolTableRecord
100
AcDbLinetypeTableRecord
  2
ZIGZAG
 70
     0
  3
Zig zag /\/\/\/\/\/\/\/\/\/\/\/\/\/\/\/\/\/\/\/\/\/\/\/
 72
    65
 73
     4
 40
20.32254
 49
0.00254
 74
     0
 49
-5.08
 74
     2
 75
     0
340
28D
 46
5.08
 50
0.0
 44
-5.08
 45
0.0
  9
ZIG
 49
-10.16
 74
     2
 75
     0
340
28E
 46
5.08
 50
180.0
 44
5.08
 45
0.0
  9
ZIG
 49
-5.08
 74
     0
  0
ENDTAB
  0
TABLE
  2
LAYER
  5
1B8
330
0
100
AcDbSymbolTable
 70
    10
  0
LAYER
  5
1C6
330
1B8
100
AcDbSymbolTableRecord
100
AcDbLayerTableRecord
  2
0
 70
     0
 62
     7
420
 16777215
  6
Continuous
370
    25
390
1C5
347
1FB
348
0
  0
LAYER
  5
290
330
1B8
100
AcDbSymbolTableRecord
100
AcDbLayerTableRecord
  2
layer 6
 70
     0
 62
    18
420
        0
  6
Continuous
370
    25
390
1C5
347
1FB
348
0
  0
LAYER
  5
291
330
1B8
100
AcDbSymbolTableRecord
100
AcDbLayerTableRecord
  2
layer 2
 70
     0
 62
    18
420
        0
  6
ACAD_ISO07W100
370
    25
390
1C5
347
1FB
348
0
  0
LAYER
  5
292
330
1B8
100
AcDbSymbolTableRecord
100
AcDbLayerTableRecord
  2
layer 7
 70
     0
 62
     1
420
 16711680
  6
Continuous
370
    25
390
1C5
347
1FB
348
0
  0
LAYER
  5
293
330
1B8
100
AcDbSymbolTableRecord
100
AcDbLayerTableRecord
  2
layer 3
 70
     0
 62
    18
420
        0
  6
CENTER
370
    25
390
1C5
347
1FB
348
0
  0
LAYER
  5
294
330
1B8
100
AcDbSymbolTableRecord
100
AcDbLayerTableRecord
  2
layer 4
 70
     0
 62
    18
420
        0
  6
Continuous
370
    25
390
1C5
347
1FB
348
0
  0
LAYER
  5
295
330
1B8
100
AcDbSymbolTableRecord
100
AcDbLayerTableRecord
  2
layer 5
 70
     0
 62
    18
420
        0
  6
ACAD_ISO07W100
370
    25
390
1C5
347
1FB
348
0
  0
LAYER
  5
296
330
1B8
100
AcDbSymbolTableRecord
100
AcDbLayerTableRecord
  2
layer 1
 70
     0
 62
    18
420
        0
  6
CENTER
370
    25
390
1C5
347
1FB
348
0
  0
LAYER
  5
297
330
1B8
100
AcDbSymbolTableRecord
100
AcDbLayerTableRecord
  2
Defpoints
 70
     0
 62
     7
420
 16777215
  6
Continuous
290
     0
370
    -3
390
1C5
347
1FB
348
0
  0
LAYER
  5
298
330
1B8
100
AcDbSymbolTableRecord
100
AcDbLayerTableRecord
  2
layer 8
 70
     0
 62
     1
420
 16711680
  6
Continuous
370
    25
390
1C5
347
1FB
348
0
  0
ENDTAB
  0
TABLE
  2
STYLE
  5
1B9
330
0
100
AcDbSymbolTable
 70
    13
  0
STYLE
  5
1C7
330
1B9
100
AcDbSymbolTableRecord
100
AcDbTextStyleTableRecord
  2
Standard
 70
     0
 40
0.0
 41
1.0
 50
0.0
 71
     0
 42
0.2
  3
txt
  4

  0
STYLE
  5
254
330
1B9
100
AcDbSymbolTableRecord
100
AcDbTextStyleTableRecord
  2
QCADDimTextStyle
 70
     0
 40
0.0
 41
1.0
 50
0.0
 71
     0
 42
0.2
  3
txt
  4

  0
STYLE
  5
264
330
1B9
100
AcDbSymbolTableRecord
100
AcDbTextStyleTableRecord
  2
textstyle0
 70
     0
 40
0.0
 41
1.0
 50
0.0
 71
     0
 42
0.2
  3
ltypeshp.shx
  4

  0
STYLE
  5
265
330
1B9
100
AcDbSymbolTableRecord
100
AcDbTextStyleTableRecord
  2
textstyle1
 70
     0
 40
0.0
 41
1.0
 50
0.0
 71
     0
 42
0.2
  3
ltypeshp.shx
  4

  0
STYLE
  5
279
330
1B9
100
AcDbSymbolTableRecord
100
AcDbTextStyleTableRecord
  2
textstyle2
 70
     0
 40
0.0
 41
1.0
 50
0.0
 71
     0
 42
0.2
  3
qcadshp.shx
  4

  0
STYLE
  5
27B
330
1B9
100
AcDbSymbolTableRecord
100
AcDbTextStyleTableRecord
  2
textstyle3
 70
     0
 40
0.0
 41
1.0
 50
0.0
 71
     0
 42
0.2
  3
qcadshp.shx
  4

  0
STYLE
  5
27D
330
1B9
100
AcDbSymbolTableRecord
100
AcDbTextStyleTableRecord
  2
textstyle4
 70
     0
 40
0.0
 41
1.0
 50
0.0
 71
     0
 42
0.2
  3
ltypeshp.shx
  4

  0
STYLE
  5
27F
330
1B9
100
AcDbSymbolTableRecord
100
AcDbTextStyleTableRecord
  2
textstyle5
 70
     0
 40
0.0
 41
1.0
 50
0.0
 71
     0
 42
0.2
  3
ltypeshp.shx
  4

  0
STYLE
  5
281
330
1B9
100
AcDbSymbolTableRecord
100
AcDbTextStyleTableRecord
  2
textstyle6
 70
     0
 40
0.0
 41
1.0
 50
0.0
 71
     0
 42
0.2
  3
STANDARD
  4

  0
STYLE
  5
286
330
1B9
100
AcDbSymbolTableRecord
100
AcDbTextStyleTableRecord
  2
textstyle7
 70
     0
 40
0.0
 41
1.0
 50
0.0
 71
     0
 42
0.2
  3
STANDARD
  4

  0
STYLE
  5
28B
330
1B9
100
AcDbSymbolTableRecord
100
AcDbTextStyleTableRecord
  2
textstyle8
 70
     0
 40
0.0
 41
1.0
 50
0.0
 71
     0
 42
0.2
  3
ltypeshp.shx
  4

  0
STYLE
  5
28D
330
1B9
100
AcDbSymbolTableRecord
100
AcDbTextStyleTableRecord
  2
textstyle9
 70
     0
 40
0.0
 41
1.0
 50
0.0
 71
     0
 42
0.2
  3
ltypeshp.shx
  4

  0
STYLE
  5
28E
330
1B9
100
AcDbSymbolTableRecord
100
AcDbTextStyleTableRecord
  2
textstyle10
 70
     0
 40
0.0
 41
1.0
 50
0.0
 71
     0
 42
0.2
  3
ltypeshp.shx
  4

  0
ENDTAB
  0
TABLE
  2
VIEW
  5
1BC
330
0
100
AcDbSymbolTable
 70
     0
  0
ENDTAB
  0
TABLE
  2
UCS
  5
1BD
330
0
100
AcDbSymbolTable
 70
     0
  0
ENDTAB
  0
TABLE
  2
APPID
  5
1BF
330
0
100
AcDbSymbolTable
 70
     2
  0
APPID
  5
1C8
330
1BF
100
AcDbSymbolTableRecord
100
AcDbRegAppTableRecord
  2
ACAD
 70
     0
  0
APPID
  5
223
330
1BF
100
AcDbSymbolTableRecord
100
AcDbRegAppTableRecord
  2
QCAD
 70
     0
  0
ENDTAB
  0
TABLE
  2
DIMSTYLE
  5
1C0
330
0
100
AcDbSymbolTable
 70
     2
100
AcDbDimStyleTable
  0
DIMSTYLE
105
1DC
330
1C0
100
AcDbSymbolTableRecord
100
AcDbDimStyleTableRecord
  2
Standard
 70
     0
178
     0
340
1C7
  0
DIMSTYLE
105
255
102
{ACAD_REACTORS
330
C1
330
C2
330
C3
330
C4
330
C5
330
C6
330
C7
330
C8
330
C9
330
CA
330
CB
330
CC
330
CD
330
CE
330
CF
330
1B2
330
1B4
330
1B5
102
}
330
1C0
100
AcDbSymbolTableRecord
100
AcDbDimStyleTableRecord
  2
QCADDimStyle
 70
     0
 41
2.5
 42
0.625
 44
1.25
 73
     0
 77
     1
140
2.5
147
0.625
178
     0
340
254
  0
ENDTAB
  0
TABLE
  2
BLOCK_RECORD
  5
1B7
330
0
100
AcDbSymbolTable
 70
    19
  0
BLOCK_RECORD
  5
1D4
330
1B7
100
AcDbSymbolTableRecord
100
AcDbBlockTableRecord
  2
*Model_Space
340
1D7
 70
     0
280
     1
281
     0
  0
BLOCK_RECORD
  5
1D0
330
1B7
100
AcDbSymbolTableRecord
100
AcDbBlockTableRecord
  2
*Paper_Space
340
1D3
 70
     0
280
     1
281
     0
  0
BLOCK_RECORD
  5
1D8
330
1B7
100
AcDbSymbolTableRecord
100
AcDbBlockTableRecord
  2
*Paper_Space0
340
1DB
 70
     0
280
     1
281
     0
  0
BLOCK_RECORD
  5
299
330
1B7
100
AcDbSymbolTableRecord
100
AcDbBlockTableRecord
  2
*D1
340
0
 70
     0
280
     1
281
     0
  0
BLOCK_RECORD
  5
2A5
330
1B7
100
AcDbSymbolTableRecord
100
AcDbBlockTableRecord
  2
*D2
340
0
 70
     0
280
     1
281
     0
  0
BLOCK_RECORD
  5
2B1
330
1B7
100
AcDbSymbolTableRecord
100
AcDbBlockTableRecord
  2
*D3
340
0
 70
     0
280
     1
281
     0
  0
BLOCK_RECORD
  5
2BD
330
1B7
100
AcDbSymbolTableRecord
100
AcDbBlockTableRecord
  2
*D4
340
0
 70
     0
280
     1
281
     0
  0
BLOCK_RECORD
  5
2C9
330
1B7
100
AcDbSymbolTableRecord
100
AcDbBlockTableRecord
  2
*D5
340
0
 70
     0
280
     1
281
     0
  0
BLOCK_RECORD
  5
2D6
330
1B7
100
AcDbSymbolTableRecord
100
AcDbBlockTableRecord
  2
*D6
340
0
 70
     0
280
     1
281
     0
  0
BLOCK_RECORD
  5
2E2
330
1B7
100
AcDbSymbolTableRecord
100
AcDbBlockTableRecord
  2
*D7
340
0
 70
     0
280
     1
281
     0
  0
BLOCK_RECORD
  5
2EE
330
1B7
100
AcDbSymbolTableRecord
100
AcDbBlockTableRecord
  2
*D8
340
0
 70
     0
280
     1
281
     0
  0
BLOCK_RECORD
  5
2FA
330
1B7
100
AcDbSymbolTableRecord
100
AcDbBlockTableRecord
  2
*D9
340
0
 70
     0
280
     1
281
     0
  0
BLOCK_RECORD
  5
307
330
1B7
100
AcDbSymbolTableRecord
100
AcDbBlockTableRecord
  2
*D10
340
0
 70
     0
280
     1
281
     0
  0
BLOCK_RECORD
  5
313
330
1B7
100
AcDbSymbolTableRecord
100
AcDbBlockTableRecord
  2
*D11
340
0
 70
     0
280
     1
281
     0
  0
BLOCK_RECORD
  5
31F
330
1B7
100
AcDbSymbolTableRecord
100
AcDbBlockTableRecord
  2
*D12
340
0
 70
     0
280
     1
281
     0
  0
BLOCK_RECORD
  5
32B
330
1B7
100
AcDbSymbolTableRecord
100
AcDbBlockTableRecord
  2
*D13
340
0
 70
     0
280
     1
281
     0
  0
BLOCK_RECORD
  5
336
330
1B7
100
AcDbSymbolTableRecord
100
AcDbBlockTableRecord
  2
*D14
340
0
 70
     0
280
     1
281
     0
  0
BLOCK_RECORD
  5
341
330
1B7
100
AcDbSymbolTableRecord
100
AcDbBlockTableRecord
  2
*D15
340
0
 70
     0
280
     1
281
     0
  0
BLOCK_RECORD
  5
34D
330
1B7
100
AcDbSymbolTableRecord
100
AcDbBlockTableRecord
  2
*D16
340
0
 70
     0
280
     1
281
     0
  0
BLOCK_RECORD
  5
359
330
1B7
100
AcDbSymbolTableRecord
100
AcDbBlockTableRecord
  2
*D17
340
0
 70
     0
280
     1
281
     0
  0
BLOCK_RECORD
  5
365
330
1B7
100
AcDbSymbolTableRecord
100
AcDbBlockTableRecord
  2
*D18
340
0
 70
     0
280
     1
281
     0
  0
ENDTAB
  0
ENDSEC
  0
SECTION
  2
BLOCKS
  0
BLOCK
  5
1D5
330
1D4
100
AcDbEntity
  8
0
100
AcDbBlockBegin
  2
*Model_Space
 70
     0
 10
0.0
 20
0.0
 30
0.0
  3
*Model_Space
  1
*Model_Space
  0
ENDBLK
  5
1D6
330
1D4
100
AcDbEntity
  8
0
100
AcDbBlockEnd
  0
BLOCK
  5
1D1
330
1D0
100
AcDbEntity
 67
     1
  8
0
100
AcDbBlockBegin
  2
*Paper_Space
 70
     0
 10
0.0
 20
0.0
 30
0.0
  3
*Paper_Space
  1
*Paper_Space
  0
ENDBLK
  5
1D2
330
1D0
100
AcDbEntity
 67
     1
  8
0
100
AcDbBlockEnd
  0
BLOCK
  5
1D9
330
1D8
100
AcDbEntity
  8
0
100
AcDbBlockBegin
  2
*Paper_Space0
 70
     0
 10
0.0
 20
0.0
 30
0.0
  3
*Paper_Space0
  1
*Paper_Space0
  0
ENDBLK
  5
1DA
330
1D8
100
AcDbEntity
  8
0
100
AcDbBlockEnd
  0
BLOCK
  5
29A
330
299
100
AcDbEntity
  8
0
100
AcDbBlockBegin
  2
*D1
 70
     1
 10
0.0
 20
0.0
 30
0.0
  3
*D1
  1
*D1
  0
LINE
  5
29C
330
299
100
AcDbEntity
  8
layer 7
 62
     0
370
    -2
100
AcDbLine
 10
244.4614496322316
 20
144.2308559912081
 30
0.0
 11
244.407036047178
 21
147.6730469557925
 31
0.0
  0
LINE
  5
29D
330
299
100
AcDbEntity
  8
layer 7
 62
     0
370
    -2
100
AcDbLine
 10
307.7535421704754
 20
145.2313669146236
 30
0.0
 11
307.6991285854218
 21
148.673557879208
 31
0.0
  0
LINE
  5
29E
330
299
100
AcDbEntity
  8
layer 7
 62
     0
370
    -2
100
AcDbLine
 10
246.9264810708798
 20
146.4627177557217
 30
0.0
 11
305.219198211144
 21
147.384199380289
 31
0.0
  0
SOLID
  5
29F
330
299
100
AcDbEntity
  8
layer 7
 62
     0
100
AcDbTrace
 10
246.9198952959758
 20
146.87933237222
 30
0.0
 11
246.9330668457839
 21
146.0461031392234
 31
0.0
 12
244.4267933718901
 22
146.4232031062976
 32
0.0
 13
244.4267933718901
 23
146.4232031062976
 33
0.0
  0
SOLID
  5
2A0
330
299
100
AcDbEntity
  8
layer 7
 62
     0
100
AcDbTrace
 10
305.225783986048
 20
146.9675847637907
 30
0.0
 11
305.21261243624
 21
147.8008139967873
 31
0.0
 12
307.7188859101338
 22
147.4237140297131
 32
0.0
 13
307.7188859101338
 23
147.4237140297131
 33
0.0
  0
MTEXT
  5
2A1
330
299
100
AcDbEntity
  8
layer 7
 62
     0
100
AcDbMText
 10
276.0432036539439
 20
148.7982243422477
 30
0.0
 40
2.5
 41
0.0
 46
0.0
 71
     5
 72
     1
  1
\A1;ø63.3
  7
QCADDimTextStyle
 11
0.9998750795959175
 21
0.01580585976964162
 31
0.0
 73
     1
 44
1.0
  0
POINT
  5
2A2
330
299
100
AcDbEntity
  8
Defpoints
 62
     0
100
AcDbPoint
 10
244.4713282945876
 20
143.6059340664607
 30
0.0
  0
POINT
  5
2A3
330
299
100
AcDbEntity
  8
Defpoints
 62
     0
100
AcDbPoint
 10
307.7634208328314
 20
144.6064449898762
 30
0.0
  0
POINT
  5
2A4
330
299
100
AcDbEntity
  8
Defpoints
 62
     0
100
AcDbPoint
 10
307.7188859101338
 20
147.4237140297131
 30
0.0
  0
ENDBLK
  5
29B
330
299
100
AcDbEntity
  8
0
100
AcDbBlockEnd
  0
BLOCK
  5
2A6
330
2A5
100
AcDbEntity
  8
0
100
AcDbBlockBegin
  2
*D2
 70
     1
 10
0.0
 20
0.0
 30
0.0
  3
*D2
  1
*D2
  0
LINE
  5
2A8
330
2A5
100
AcDbEntity
  8
layer 7
 62
     0
370
    -2
100
AcDbLine
 10
115.4535445417963
 20
145.2312169054092
 30
0.0
 11
115.4022014354195
 21
148.4791700900764
 31
0.0
  0
LINE
  5
2A9
330
2A5
100
AcDbEntity
  8
layer 7
 62
     0
370
    -2
100
AcDbLine
 10
52.1614520035525
 20
144.2307059819937
 30
0.0
 11
52.11010889717569
 21
147.4786591666609
 31
0.0
  0
LINE
  5
2AA
330
2A5
100
AcDbEntity
  8
layer 7
 62
     0
370
    -2
100
AcDbLine
 10
112.9222710611417
 20
147.1898115911574
 30
0.0
 11
54.62955392087754
 21
146.2683299665901
 31
0.0
  0
SOLID
  5
2AB
330
2A5
100
AcDbEntity
  8
layer 7
 62
     0
100
AcDbTrace
 10
112.9288568360458
 20
146.7731969746591
 30
0.0
 11
112.9156852862377
 21
147.6064262076557
 31
0.0
 12
115.4219587601315
 22
147.2293262405815
 32
0.0
 13
115.4219587601315
 23
147.2293262405815
 33
0.0
  0
SOLID
  5
2AC
330
2A5
100
AcDbEntity
  8
layer 7
 62
     0
100
AcDbTrace
 10
54.62296814597352
 20
146.6849445830884
 30
0.0
 11
54.63613969578156
 21
145.8517153500918
 31
0.0
 12
52.12986622188775
 22
146.228815317166
 32
0.0
 13
52.12986622188775
 23
146.228815317166
 33
0.0
  0
MTEXT
  5
2AD
330
2A5
100
AcDbEntity
  8
layer 7
 62
     0
100
AcDbMText
 10
83.74627650394156
 20
148.6038365531161
 30
0.0
 40
2.5
 41
0.0
 46
0.0
 71
     5
 72
     1
  1
\A1;ø63.3
  7
QCADDimTextStyle
 11
0.9998750795959175
 21
0.01580585976964163
 31
0.0
 73
     1
 44
1.0
  0
POINT
  5
2AE
330
2A5
100
AcDbEntity
  8
Defpoints
 62
     0
100
AcDbPoint
 10
115.4634232041523
 20
144.6062949806618
 30
0.0
  0
POINT
  5
2AF
330
2A5
100
AcDbEntity
  8
Defpoints
 62
     0
100
AcDbPoint
 10
52.17133066590853
 20
143.6057840572463
 30
0.0
  0
POINT
  5
2B0
330
2A5
100
AcDbEntity
  8
Defpoints
 62
     0
100
AcDbPoint
 10
52.12986622188775
 20
146.228815317166
 30
0.0
  0
ENDBLK
  5
2A7
330
2A5
100
AcDbEntity
  8
0
100
AcDbBlockEnd
  0
BLOCK
  5
2B2
330
2B1
100
AcDbEntity
  8
0
100
AcDbBlockBegin
  2
*D3
 70
     1
 10
0.0
 20
0.0
 30
0.0
  3
*D3
  1
*D3
  0
LINE
  5
2B4
330
2B1
100
AcDbEntity
  8
layer 7
 62
     0
370
    -2
100
AcDbLine
 10
85.16737574937002
 20
95.83111452356127
 30
0.0
 11
85.16737574937002
 21
84.50611452356118
 31
0.0
  0
LINE
  5
2B5
330
2B1
100
AcDbEntity
  8
layer 7
 62
     0
370
    -2
100
AcDbLine
 10
275.7673757493699
 20
95.83111452356137
 30
0.0
 11
275.7673757493699
 21
84.50611452356128
 31
0.0
  0
LINE
  5
2B6
330
2B1
100
AcDbEntity
  8
layer 7
 62
     0
370
    -2
100
AcDbLine
 10
87.66737574937002
 20
85.75611452356118
 30
0.0
 11
273.2673757493699
 21
85.75611452356128
 31
0.0
  0
SOLID
  5
2B7
330
2B1
100
AcDbEntity
  8
layer 7
 62
     0
100
AcDbTrace
 10
87.66737574937002
 20
86.17278119022785
 30
0.0
 11
87.66737574937002
 21
85.33944785689451
 31
0.0
 12
85.16737574937002
 22
85.75611452356118
 32
0.0
 13
85.16737574937002
 23
85.75611452356118
 33
0.0
  0
SOLID
  5
2B8
330
2B1
100
AcDbEntity
  8
layer 7
 62
     0
100
AcDbTrace
 10
273.2673757493699
 20
85.33944785689461
 30
0.0
 11
273.2673757493699
 21
86.17278119022795
 31
0.0
 12
275.7673757493699
 22
85.75611452356128
 32
0.0
 13
275.7673757493699
 23
85.75611452356128
 33
0.0
  0
MTEXT
  5
2B9
330
2B1
100
AcDbEntity
  8
layer 7
 62
     0
100
AcDbMText
 10
180.4673757493699
 20
87.63111452356122
 30
0.0
 40
2.5
 41
0.0
 46
0.0
 71
     5
 72
     1
  1
\A1;190.6
  7
QCADDimTextStyle
 73
     1
 44
1.0
  0
POINT
  5
2BA
330
2B1
100
AcDbEntity
  8
Defpoints
 62
     0
100
AcDbPoint
 10
85.16737574937002
 20
96.45611452356127
 30
0.0
  0
POINT
  5
2BB
330
2B1
100
AcDbEntity
  8
Defpoints
 62
     0
100
AcDbPoint
 10
275.7673757493699
 20
96.45611452356137
 30
0.0
  0
POINT
  5
2BC
330
2B1
100
AcDbEntity
  8
Defpoints
 62
     0
100
AcDbPoint
 10
275.7673757493699
 20
85.75611452356128
 30
0.0
  0
ENDBLK
  5
2B3
330
2B1
100
AcDbEntity
  8
0
100
AcDbBlockEnd
  0
BLOCK
  5
2BE
330
2BD
100
AcDbEntity
  8
0
100
AcDbBlockBegin
  2
*D4
 70
     1
 10
0.0
 20
0.0
 30
0.0
  3
*D4
  1
*D4
  0
LINE
  5
2C0
330
2BD
100
AcDbEntity
  8
layer 7
 62
     0
370
    -2
100
AcDbLine
 10
115.4583908089675
 20
145.8561981160825
 30
0.0
 11
115.5475333844958
 21
157.3521459885128
 31
0.0
  0
LINE
  5
2C1
330
2BD
100
AcDbEntity
  8
layer 7
 62
     0
370
    -2
100
AcDbLine
 10
244.4662958994028
 20
144.8558372018813
 30
0.0
 11
244.5554384749311
 21
156.3517850743116
 31
0.0
  0
LINE
  5
2C2
330
2BD
100
AcDbEntity
  8
layer 7
 62
     0
370
    -2
100
AcDbLine
 10
118.0377656928461
 20
156.0827984984816
 30
0.0
 11
242.045821097896
 21
155.1212077216502
 31
0.0
  0
SOLID
  5
2C3
330
2BD
100
AcDbEntity
  8
layer 7
 62
     0
100
AcDbTrace
 10
118.0409965376269
 20
156.4994526389304
 30
0.0
 11
118.0345348480653
 21
155.6661443580329
 31
0.0
 12
115.5378408501534
 22
156.1021835671665
 32
0.0
 13
115.5378408501534
 23
156.1021835671665
 33
0.0
  0
SOLID
  5
2C4
330
2BD
100
AcDbEntity
  8
layer 7
 62
     0
100
AcDbTrace
 10
242.0425902531152
 20
154.7045535812014
 30
0.0
 11
242.0490519426768
 21
155.5378618620989
 31
0.0
 12
244.5457459405887
 22
155.1018226529653
 32
0.0
 13
244.5457459405887
 23
155.1018226529653
 33
0.0
  0
MTEXT
  5
2C5
330
2BD
100
AcDbEntity
  8
layer 7
 62
     0
100
AcDbMText
 10
180.0563321968847
 20
157.4769467420854
 30
0.0
 40
2.5
 41
0.0
 46
0.0
 71
     5
 72
     1
  1
\A1;129
  7
QCADDimTextStyle
 11
0.999969937077077
 21
-0.007754027473951297
 31
0.0
 73
     1
 44
1.0
  0
POINT
  5
2C6
330
2BD
100
AcDbEntity
  8
Defpoints
 62
     0
100
AcDbPoint
 10
115.4535445417963
 20
145.2312169054093
 30
0.0
  0
POINT
  5
2C7
330
2BD
100
AcDbEntity
  8
Defpoints
 62
     0
100
AcDbPoint
 10
244.4614496322316
 20
144.2308559912081
 30
0.0
  0
POINT
  5
2C8
330
2BD
100
AcDbEntity
  8
Defpoints
 62
     0
100
AcDbPoint
 10
244.5457459405887
 20
155.1018226529653
 30
0.0
  0
ENDBLK
  5
2BF
330
2BD
100
AcDbEntity
  8
0
100
AcDbBlockEnd
  0
BLOCK
  5
2CA
330
2C9
100
AcDbEntity
  8
0
100
AcDbBlockBegin
  2
*D5
 70
     1
 10
0.0
 20
0.0
 30
0.0
  3
*D5
  1
*D5
  0
LINE
  5
2CC
330
2C9
100
AcDbEntity
  8
layer 7
 62
     0
370
    -2
100
AcDbLine
 10
275.7673757493699
 20
95.83111452356137
 30
0.0
 11
275.7673757493697
 21
74.50611452356138
 31
0.0
  0
LINE
  5
2CD
330
2C9
100
AcDbEntity
  8
layer 7
 62
     0
370
    -2
100
AcDbLine
 10
277.7673757493699
 20
95.83111452356135
 30
0.0
 11
277.7673757493697
 21
74.50611452356137
 31
0.0
  0
LINE
  5
2CE
330
2C9
100
AcDbEntity
  8
layer 7
 62
     0
370
    -2
100
AcDbLine
 10
273.2673757493697
 20
75.7561145235614
 30
0.0
 11
270.7673757493697
 21
75.75611452356141
 31
0.0
  0
LINE
  5
2CF
330
2C9
100
AcDbEntity
  8
layer 7
 62
     0
370
    -2
100
AcDbLine
 10
280.2673757493697
 20
75.75611452356135
 30
0.0
 11
282.7673757493697
 21
75.75611452356134
 31
0.0
  0
SOLID
  5
2D0
330
2C9
100
AcDbEntity
  8
layer 7
 62
     0
100
AcDbTrace
 10
273.2673757493697
 20
75.33944785689472
 30
0.0
 11
273.2673757493697
 21
76.17278119022806
 31
0.0
 12
275.7673757493697
 22
75.75611452356138
 32
0.0
 13
275.7673757493697
 23
75.75611452356138
 33
0.0
  0
SOLID
  5
2D1
330
2C9
100
AcDbEntity
  8
layer 7
 62
     0
100
AcDbTrace
 10
280.2673757493697
 20
76.17278119022802
 30
0.0
 11
280.2673757493697
 21
75.33944785689468
 31
0.0
 12
277.7673757493697
 22
75.75611452356137
 32
0.0
 13
277.7673757493697
 23
75.75611452356137
 33
0.0
  0
MTEXT
  5
2D2
330
2C9
100
AcDbEntity
  8
layer 7
 62
     0
100
AcDbMText
 10
276.7673757493697
 20
69.81861452356137
 30
0.0
 40
2.5
 41
0.0
 46
0.0
 71
     5
 72
     1
  1
\A1;2
  7
QCADDimTextStyle
 73
     1
 44
1.0
  0
POINT
  5
2D3
330
2C9
100
AcDbEntity
  8
Defpoints
 62
     0
100
AcDbPoint
 10
275.7673757493699
 20
96.45611452356137
 30
0.0
  0
POINT
  5
2D4
330
2C9
100
AcDbEntity
  8
Defpoints
 62
     0
100
AcDbPoint
 10
277.7673757493699
 20
96.45611452356135
 30
0.0
  0
POINT
  5
2D5
330
2C9
100
AcDbEntity
  8
Defpoints
 62
     0
100
AcDbPoint
 10
277.7673757493697
 20
75.75611452356137
 30
0.0
  0
ENDBLK
  5
2CB
330
2C9
100
AcDbEntity
  8
0
100
AcDbBlockEnd
  0
BLOCK
  5
2D7
330
2D6
100
AcDbEntity
  8
0
100
AcDbBlockBegin
  2
*D6
 70
     1
 10
0.0
 20
0.0
 30
0.0
  3
*D6
  1
*D6
  0
LINE
  5
2D9
330
2D6
100
AcDbEntity
  8
layer 7
 62
     0
370
    -2
100
AcDbLine
 10
84.16737574937002
 20
187.3811145235613
 30
0.0
 11
84.16737574937002
 21
207.0061145235613
 31
0.0
  0
LINE
  5
2DA
330
2D6
100
AcDbEntity
  8
layer 7
 62
     0
370
    -2
100
AcDbLine
 10
122.16737574937
 20
187.3811145235613
 30
0.0
 11
122.16737574937
 21
207.0061145235613
 31
0.0
  0
LINE
  5
2DB
330
2D6
100
AcDbEntity
  8
layer 7
 62
     0
370
    -2
100
AcDbLine
 10
86.66737574937002
 20
205.7561145235613
 30
0.0
 11
119.66737574937
 21
205.7561145235613
 31
0.0
  0
SOLID
  5
2DC
330
2D6
100
AcDbEntity
  8
layer 7
 62
     0
100
AcDbTrace
 10
86.66737574937002
 20
206.172781190228
 30
0.0
 11
86.66737574937002
 21
205.3394478568947
 31
0.0
 12
84.16737574937002
 22
205.7561145235613
 32
0.0
 13
84.16737574937002
 23
205.7561145235613
 33
0.0
  0
SOLID
  5
2DD
330
2D6
100
AcDbEntity
  8
layer 7
 62
     0
100
AcDbTrace
 10
119.66737574937
 20
205.3394478568947
 30
0.0
 11
119.66737574937
 21
206.172781190228
 31
0.0
 12
122.16737574937
 22
205.7561145235613
 32
0.0
 13
122.16737574937
 23
205.7561145235613
 33
0.0
  0
MTEXT
  5
2DE
330
2D6
100
AcDbEntity
  8
layer 7
 62
     0
100
AcDbMText
 10
103.16737574937
 20
207.6311145235613
 30
0.0
 40
2.5
 41
0.0
 46
0.0
 71
     5
 72
     1
  1
\A1;38
  7
QCADDimTextStyle
 73
     1
 44
1.0
  0
POINT
  5
2DF
330
2D6
100
AcDbEntity
  8
Defpoints
 62
     0
100
AcDbPoint
 10
84.16737574937002
 20
186.7561145235613
 30
0.0
  0
POINT
  5
2E0
330
2D6
100
AcDbEntity
  8
Defpoints
 62
     0
100
AcDbPoint
 10
122.16737574937
 20
186.7561145235613
 30
0.0
  0
POINT
  5
2E1
330
2D6
100
AcDbEntity
  8
Defpoints
 62
     0
100
AcDbPoint
 10
122.16737574937
 20
205.7561145235613
 30
0.0
  0
ENDBLK
  5
2D8
330
2D6
100
AcDbEntity
  8
0
100
AcDbBlockEnd
  0
BLOCK
  5
2E3
330
2E2
100
AcDbEntity
  8
0
100
AcDbBlockBegin
  2
*D7
 70
     1
 10
0.0
 20
0.0
 30
0.0
  3
*D7
  1
*D7
  0
LINE
  5
2E5
330
2E2
100
AcDbEntity
  8
layer 7
 62
     0
370
    -2
100
AcDbLine
 10
82.16737574937002
 20
188.3811145235613
 30
0.0
 11
82.16737574937002
 21
207.0061145235613
 31
0.0
  0
LINE
  5
2E6
330
2E2
100
AcDbEntity
  8
layer 7
 62
     0
370
    -2
100
AcDbLine
 10
57.16737574937002
 20
188.3811145235613
 30
0.0
 11
57.16737574937002
 21
207.0061145235613
 31
0.0
  0
LINE
  5
2E7
330
2E2
100
AcDbEntity
  8
layer 7
 62
     0
370
    -2
100
AcDbLine
 10
79.66737574937002
 20
205.7561145235613
 30
0.0
 11
59.66737574937002
 21
205.7561145235613
 31
0.0
  0
SOLID
  5
2E8
330
2E2
100
AcDbEntity
  8
layer 7
 62
     0
100
AcDbTrace
 10
79.66737574937002
 20
205.3394478568947
 30
0.0
 11
79.66737574937002
 21
206.172781190228
 31
0.0
 12
82.16737574937002
 22
205.7561145235613
 32
0.0
 13
82.16737574937002
 23
205.7561145235613
 33
0.0
  0
SOLID
  5
2E9
330
2E2
100
AcDbEntity
  8
layer 7
 62
     0
100
AcDbTrace
 10
59.66737574937002
 20
206.172781190228
 30
0.0
 11
59.66737574937002
 21
205.3394478568947
 31
0.0
 12
57.16737574937002
 22
205.7561145235613
 32
0.0
 13
57.16737574937002
 23
205.7561145235613
 33
0.0
  0
MTEXT
  5
2EA
330
2E2
100
AcDbEntity
  8
layer 7
 62
     0
100
AcDbMText
 10
69.66737574937002
 20
207.6311145235613
 30
0.0
 40
2.5
 41
0.0
 46
0.0
 71
     5
 72
     1
  1
\A1;25
  7
QCADDimTextStyle
 73
     1
 44
1.0
  0
POINT
  5
2EB
330
2E2
100
AcDbEntity
  8
Defpoints
 62
     0
100
AcDbPoint
 10
82.16737574937002
 20
187.7561145235613
 30
0.0
  0
POINT
  5
2EC
330
2E2
100
AcDbEntity
  8
Defpoints
 62
     0
100
AcDbPoint
 10
57.16737574937002
 20
187.7561145235613
 30
0.0
  0
POINT
  5
2ED
330
2E2
100
AcDbEntity
  8
Defpoints
 62
     0
100
AcDbPoint
 10
57.16737574937002
 20
205.7561145235613
 30
0.0
  0
ENDBLK
  5
2E4
330
2E2
100
AcDbEntity
  8
0
100
AcDbBlockEnd
  0
BLOCK
  5
2EF
330
2EE
100
AcDbEntity
  8
0
100
AcDbBlockBegin
  2
*D8
 70
     1
 10
0.0
 20
0.0
 30
0.0
  3
*D8
  1
*D8
  0
LINE
  5
2F1
330
2EE
100
AcDbEntity
  8
layer 7
 62
     0
370
    -2
100
AcDbLine
 10
56.54237574937002
 20
187.7561145235613
 30
0.0
 11
24.97110292484201
 21
187.7561145235613
 31
0.0
  0
LINE
  5
2F2
330
2EE
100
AcDbEntity
  8
layer 7
 62
     0
370
    -2
100
AcDbLine
 10
56.54237574937002
 20
179.7561145235613
 30
0.0
 11
24.97110292484201
 21
179.7561145235613
 31
0.0
  0
LINE
  5
2F3
330
2EE
100
AcDbEntity
  8
layer 7
 62
     0
370
    -2
100
AcDbLine
 10
26.22110292484201
 20
185.2561145235613
 30
0.0
 11
26.22110292484201
 21
182.2561145235613
 31
0.0
  0
SOLID
  5
2F4
330
2EE
100
AcDbEntity
  8
layer 7
 62
     0
100
AcDbTrace
 10
26.63776959150868
 20
185.2561145235613
 30
0.0
 11
25.80443625817534
 21
185.2561145235613
 31
0.0
 12
26.22110292484201
 22
187.7561145235613
 32
0.0
 13
26.22110292484201
 23
187.7561145235613
 33
0.0
  0
SOLID
  5
2F5
330
2EE
100
AcDbEntity
  8
layer 7
 62
     0
100
AcDbTrace
 10
25.80443625817534
 20
182.2561145235613
 30
0.0
 11
26.63776959150868
 21
182.2561145235613
 31
0.0
 12
26.22110292484201
 22
179.7561145235613
 32
0.0
 13
26.22110292484201
 23
179.7561145235613
 33
0.0
  0
MTEXT
  5
2F6
330
2EE
100
AcDbEntity
  8
layer 7
 62
     0
100
AcDbMText
 10
24.34610292484201
 20
183.7561145235613
 30
0.0
 40
2.5
 41
0.0
 46
0.0
 71
     5
 72
     1
  1
\A1;ø8
  7
QCADDimTextStyle
 11
0.0
 21
1.0
 31
0.0
 73
     1
 44
1.0
  0
POINT
  5
2F7
330
2EE
100
AcDbEntity
  8
Defpoints
 62
     0
100
AcDbPoint
 10
57.16737574937002
 20
187.7561145235613
 30
0.0
  0
POINT
  5
2F8
330
2EE
100
AcDbEntity
  8
Defpoints
 62
     0
100
AcDbPoint
 10
57.16737574937002
 20
179.7561145235613
 30
0.0
  0
POINT
  5
2F9
330
2EE
100
AcDbEntity
  8
Defpoints
 62
     0
100
AcDbPoint
 10
26.22110292484201
 20
179.7561145235613
 30
0.0
  0
ENDBLK
  5
2F0
330
2EE
100
AcDbEntity
  8
0
100
AcDbBlockEnd
  0
BLOCK
  5
2FB
330
2FA
100
AcDbEntity
  8
0
100
AcDbBlockBegin
  2
*D9
 70
     1
 10
0.0
 20
0.0
 30
0.0
  3
*D9
  1
*D9
  0
LINE
  5
2FD
330
2FA
100
AcDbEntity
  8
layer 7
 62
     0
370
    -2
100
AcDbLine
 10
122.79237574937
 20
186.7561145235613
 30
0.0
 11
155.3671485601056
 21
186.7561145235613
 31
0.0
  0
LINE
  5
2FE
330
2FA
100
AcDbEntity
  8
layer 7
 62
     0
370
    -2
100
AcDbLine
 10
122.79237574937
 20
180.7561145235613
 30
0.0
 11
155.3671485601056
 21
180.7561145235613
 31
0.0
  0
LINE
  5
2FF
330
2FA
100
AcDbEntity
  8
layer 7
 62
     0
370
    -2
100
AcDbLine
 10
154.1171485601056
 20
189.2561145235613
 30
0.0
 11
154.1171485601056
 21
191.7561145235613
 31
0.0
  0
LINE
  5
300
330
2FA
100
AcDbEntity
  8
layer 7
 62
     0
370
    -2
100
AcDbLine
 10
154.1171485601056
 20
178.2561145235613
 30
0.0
 11
154.1171485601056
 21
175.7561145235613
 31
0.0
  0
SOLID
  5
301
330
2FA
100
AcDbEntity
  8
layer 7
 62
     0
100
AcDbTrace
 10
153.7004818934389
 20
189.2561145235613
 30
0.0
 11
154.5338152267722
 21
189.2561145235613
 31
0.0
 12
154.1171485601056
 22
186.7561145235613
 32
0.0
 13
154.1171485601056
 23
186.7561145235613
 33
0.0
  0
SOLID
  5
302
330
2FA
100
AcDbEntity
  8
layer 7
 62
     0
100
AcDbTrace
 10
154.5338152267722
 20
178.2561145235613
 30
0.0
 11
153.7004818934389
 21
178.2561145235613
 31
0.0
 12
154.1171485601056
 22
180.7561145235613
 32
0.0
 13
154.1171485601056
 23
180.7561145235613
 33
0.0
  0
MTEXT
  5
303
330
2FA
100
AcDbEntity
  8
layer 7
 62
     0
100
AcDbMText
 10
152.2421485601056
 20
183.7561145235613
 30
0.0
 40
2.5
 41
0.0
 46
0.0
 71
     5
 72
     1
  1
\A1;M8
  7
QCADDimTextStyle
 11
0.0
 21
1.0
 31
0.0
 73
     1
 44
1.0
  0
POINT
  5
304
330
2FA
100
AcDbEntity
  8
Defpoints
 62
     0
100
AcDbPoint
 10
122.16737574937
 20
186.7561145235613
 30
0.0
  0
POINT
  5
305
330
2FA
100
AcDbEntity
  8
Defpoints
 62
     0
100
AcDbPoint
 10
122.16737574937
 20
180.7561145235613
 30
0.0
  0
POINT
  5
306
330
2FA
100
AcDbEntity
  8
Defpoints
 62
     0
100
AcDbPoint
 10
154.1171485601056
 20
180.7561145235613
 30
0.0
  0
ENDBLK
  5
2FC
330
2FA
100
AcDbEntity
  8
0
100
AcDbBlockEnd
  0
BLOCK
  5
308
330
307
100
AcDbEntity
  8
0
100
AcDbBlockBegin
  2
*D10
 70
     1
 10
0.0
 20
0.0
 30
0.0
  3
*D10
  1
*D10
  0
LINE
  5
30A
330
307
100
AcDbEntity
  8
layer 7
 62
     0
370
    -2
100
AcDbLine
 10
232.46737574937
 20
192.3811145235613
 30
0.0
 11
232.46737574937
 21
207.0061145235613
 31
0.0
  0
LINE
  5
30B
330
307
100
AcDbEntity
  8
layer 7
 62
     0
370
    -2
100
AcDbLine
 10
274.7673757493699
 20
192.3811145235613
 30
0.0
 11
274.7673757493699
 21
207.0061145235613
 31
0.0
  0
LINE
  5
30C
330
307
100
AcDbEntity
  8
layer 7
 62
     0
370
    -2
100
AcDbLine
 10
234.96737574937
 20
205.7561145235613
 30
0.0
 11
272.2673757493699
 21
205.7561145235613
 31
0.0
  0
SOLID
  5
30D
330
307
100
AcDbEntity
  8
layer 7
 62
     0
100
AcDbTrace
 10
234.96737574937
 20
206.172781190228
 30
0.0
 11
234.96737574937
 21
205.3394478568947
 31
0.0
 12
232.46737574937
 22
205.7561145235613
 32
0.0
 13
232.46737574937
 23
205.7561145235613
 33
0.0
  0
SOLID
  5
30E
330
307
100
AcDbEntity
  8
layer 7
 62
     0
100
AcDbTrace
 10
272.2673757493699
 20
205.3394478568947
 30
0.0
 11
272.2673757493699
 21
206.172781190228
 31
0.0
 12
274.7673757493699
 22
205.7561145235613
 32
0.0
 13
274.7673757493699
 23
205.7561145235613
 33
0.0
  0
MTEXT
  5
30F
330
307
100
AcDbEntity
  8
layer 7
 62
     0
100
AcDbMText
 10
253.61737574937
 20
207.6311145235613
 30
0.0
 40
2.5
 41
0.0
 46
0.0
 71
     5
 72
     1
  1
\A1;42.3
  7
QCADDimTextStyle
 73
     1
 44
1.0
  0
POINT
  5
310
330
307
100
AcDbEntity
  8
Defpoints
 62
     0
100
AcDbPoint
 10
232.46737574937
 20
191.7561145235613
 30
0.0
  0
POINT
  5
311
330
307
100
AcDbEntity
  8
Defpoints
 62
     0
100
AcDbPoint
 10
274.7673757493699
 20
191.7561145235613
 30
0.0
  0
POINT
  5
312
330
307
100
AcDbEntity
  8
Defpoints
 62
     0
100
AcDbPoint
 10
274.7673757493699
 20
205.7561145235613
 30
0.0
  0
ENDBLK
  5
309
330
307
100
AcDbEntity
  8
0
100
AcDbBlockEnd
  0
BLOCK
  5
314
330
313
100
AcDbEntity
  8
0
100
AcDbBlockBegin
  2
*D11
 70
     1
 10
0.0
 20
0.0
 30
0.0
  3
*D11
  1
*D11
  0
LINE
  5
316
330
313
100
AcDbEntity
  8
layer 7
 62
     0
370
    -2
100
AcDbLine
 10
304.3923757493699
 20
191.7561145235613
 30
0.0
 11
361.41737574937
 21
191.7561145235613
 31
0.0
  0
LINE
  5
317
330
313
100
AcDbEntity
  8
layer 7
 62
     0
370
    -2
100
AcDbLine
 10
304.3923757493699
 20
96.45611452356128
 30
0.0
 11
361.41737574937
 21
96.45611452356128
 31
0.0
  0
LINE
  5
318
330
313
100
AcDbEntity
  8
layer 7
 62
     0
370
    -2
100
AcDbLine
 10
360.16737574937
 20
189.2561145235613
 30
0.0
 11
360.16737574937
 21
98.95611452356128
 31
0.0
  0
SOLID
  5
319
330
313
100
AcDbEntity
  8
layer 7
 62
     0
100
AcDbTrace
 10
360.5840424160367
 20
189.2561145235613
 30
0.0
 11
359.7507090827033
 21
189.2561145235613
 31
0.0
 12
360.16737574937
 22
191.7561145235613
 32
0.0
 13
360.16737574937
 23
191.7561145235613
 33
0.0
  0
SOLID
  5
31A
330
313
100
AcDbEntity
  8
layer 7
 62
     0
100
AcDbTrace
 10
359.7507090827033
 20
98.95611452356128
 30
0.0
 11
360.5840424160367
 21
98.95611452356128
 31
0.0
 12
360.16737574937
 22
96.45611452356128
 32
0.0
 13
360.16737574937
 23
96.45611452356128
 33
0.0
  0
MTEXT
  5
31B
330
313
100
AcDbEntity
  8
layer 7
 62
     0
100
AcDbMText
 10
358.29237574937
 20
144.1061145235613
 30
0.0
 40
2.5
 41
0.0
 46
0.0
 71
     5
 72
     1
  1
\A1;95.3
  7
QCADDimTextStyle
 11
0.0
 21
1.0
 31
0.0
 73
     1
 44
1.0
  0
POINT
  5
31C
330
313
100
AcDbEntity
  8
Defpoints
 62
     0
100
AcDbPoint
 10
303.7673757493699
 20
191.7561145235613
 30
0.0
  0
POINT
  5
31D
330
313
100
AcDbEntity
  8
Defpoints
 62
     0
100
AcDbPoint
 10
303.7673757493699
 20
96.45611452356128
 30
0.0
  0
POINT
  5
31E
330
313
100
AcDbEntity
  8
Defpoints
 62
     0
100
AcDbPoint
 10
360.16737574937
 20
96.45611452356128
 30
0.0
  0
ENDBLK
  5
315
330
313
100
AcDbEntity
  8
0
100
AcDbBlockEnd
  0
BLOCK
  5
320
330
31F
100
AcDbEntity
  8
0
100
AcDbBlockBegin
  2
*D12
 70
     1
 10
0.0
 20
0.0
 30
0.0
  3
*D12
  1
*D12
  0
LINE
  5
322
330
31F
100
AcDbEntity
  8
layer 7
 62
     0
370
    -2
100
AcDbLine
 10
320.3610951720412
 20
111.4561145235614
 30
0.0
 11
351.41737574937
 21
111.4561145235614
 31
0.0
  0
LINE
  5
323
330
31F
100
AcDbEntity
  8
layer 7
 62
     0
370
    -2
100
AcDbLine
 10
320.3610951720412
 20
176.7561145235613
 30
0.0
 11
351.41737574937
 21
176.7561145235613
 31
0.0
  0
LINE
  5
324
330
31F
100
AcDbEntity
  8
layer 7
 62
     0
370
    -2
100
AcDbLine
 10
350.16737574937
 20
113.9561145235614
 30
0.0
 11
350.16737574937
 21
174.2561145235613
 31
0.0
  0
SOLID
  5
325
330
31F
100
AcDbEntity
  8
layer 7
 62
     0
100
AcDbTrace
 10
349.7507090827033
 20
113.9561145235614
 30
0.0
 11
350.5840424160367
 21
113.9561145235614
 31
0.0
 12
350.16737574937
 22
111.4561145235614
 32
0.0
 13
350.16737574937
 23
111.4561145235614
 33
0.0
  0
SOLID
  5
326
330
31F
100
AcDbEntity
  8
layer 7
 62
     0
100
AcDbTrace
 10
350.5840424160367
 20
174.2561145235613
 30
0.0
 11
349.7507090827033
 21
174.2561145235613
 31
0.0
 12
350.16737574937
 22
176.7561145235613
 32
0.0
 13
350.16737574937
 23
176.7561145235613
 33
0.0
  0
MTEXT
  5
327
330
31F
100
AcDbEntity
  8
layer 7
 62
     0
100
AcDbMText
 10
348.29237574937
 20
144.1061145235614
 30
0.0
 40
2.5
 41
0.0
 46
0.0
 71
     5
 72
     1
  1
\A1;65.3
  7
QCADDimTextStyle
 11
0.0
 21
1.0
 31
0.0
 73
     1
 44
1.0
  0
POINT
  5
328
330
31F
100
AcDbEntity
  8
Defpoints
 62
     0
100
AcDbPoint
 10
319.7360951720412
 20
111.4561145235614
 30
0.0
  0
POINT
  5
329
330
31F
100
AcDbEntity
  8
Defpoints
 62
     0
100
AcDbPoint
 10
319.7360951720412
 20
176.7561145235613
 30
0.0
  0
POINT
  5
32A
330
31F
100
AcDbEntity
  8
Defpoints
 62
     0
100
AcDbPoint
 10
350.16737574937
 20
176.7561145235613
 30
0.0
  0
ENDBLK
  5
321
330
31F
100
AcDbEntity
  8
0
100
AcDbBlockEnd
  0
BLOCK
  5
32C
330
32B
100
AcDbEntity
  8
0
100
AcDbBlockBegin
  2
*D13
 70
     1
 10
0.0
 20
0.0
 30
0.0
  3
*D13
  1
*D13
  0
LINE
  5
32E
330
32B
100
AcDbEntity
  8
layer 7
 62
     0
370
    -2
100
AcDbLine
 10
237.3937153631048
 20
172.7610452241661
 30
0.0
 11
219.6258582202476
 21
172.7610452241661
 31
0.0
  0
LINE
  5
32F
330
32B
100
AcDbEntity
  8
layer 7
 62
     0
370
    -2
100
AcDbLine
 10
217.1991003323298
 20
177.1326406026782
 30
0.0
 11
219.6258582202476
 21
172.7610452241661
 31
0.0
  0
MTEXT
  5
330
330
32B
100
AcDbEntity
  8
layer 7
 62
     0
100
AcDbMText
 10
228.8222867916762
 20
174.6360452241661
 30
0.0
 40
2.5
 41
0.0
 46
0.0
 71
     5
 72
     1
  1
\A1;R74.1436
  7
QCADDimTextStyle
 73
     1
 44
1.0
  0
SOLID
  5
331
330
32B
100
AcDbEntity
  8
layer 7
 62
     0
100
AcDbTrace
 10
217.5633999472058
 20
177.3348704266714
 30
0.0
 11
216.8348007174538
 21
176.9304107786851
 31
0.0
 12
215.9857213883709
 22
179.3184382919343
 32
0.0
 13
215.9857213883709
 23
179.3184382919343
 33
0.0
  0
LINE
  5
332
330
32B
100
AcDbEntity
  8
layer 7
 62
     0
100
AcDbLine
 10
179.91
 20
244.1436168138859
 30
0.0
 11
180.09
 21
244.1436168138859
 31
0.0
  0
LINE
  5
333
330
32B
100
AcDbEntity
  8
layer 7
 62
     0
100
AcDbLine
 10
180.0
 20
244.0536168138859
 30
0.0
 11
180.0
 21
244.2336168138859
 31
0.0
  0
POINT
  5
334
330
32B
100
AcDbEntity
  8
Defpoints
 62
     0
100
AcDbPoint
 10
215.9857213883709
 20
179.3184382919343
 30
0.0
  0
POINT
  5
335
330
32B
100
AcDbEntity
  8
Defpoints
 62
     0
100
AcDbPoint
 10
180.0
 20
244.1436168138859
 30
0.0
  0
ENDBLK
  5
32D
330
32B
100
AcDbEntity
  8
0
100
AcDbBlockEnd
  0
BLOCK
  5
337
330
336
100
AcDbEntity
  8
0
100
AcDbBlockBegin
  2
*D14
 70
     1
 10
0.0
 20
0.0
 30
0.0
  3
*D14
  1
*D14
  0
LINE
  5
339
330
336
100
AcDbEntity
  8
layer 7
 62
     0
370
    -2
100
AcDbLine
 10
238.5480197524019
 20
111.9101843241613
 30
0.0
 11
220.7801626095447
 21
111.9101843241613
 31
0.0
  0
LINE
  5
33A
330
336
100
AcDbEntity
  8
layer 7
 62
     0
370
    -2
100
AcDbLine
 10
219.4911300953028
 20
109.7681303619028
 30
0.0
 11
220.7801626095447
 21
111.9101843241613
 31
0.0
  0
MTEXT
  5
33B
330
336
100
AcDbEntity
  8
layer 7
 62
     0
100
AcDbMText
 10
229.9765911809733
 20
113.7851843241613
 30
0.0
 40
2.5
 41
0.0
 46
0.0
 71
     5
 72
     1
  1
\A1;R74.0906
  7
QCADDimTextStyle
 73
     1
 44
1.0
  0
SOLID
  5
33C
330
336
100
AcDbEntity
  8
layer 7
 62
     0
100
AcDbTrace
 10
219.134121101593
 20
109.9829691142765
 30
0.0
 11
219.8481390890125
 21
109.5532916095292
 31
0.0
 12
218.2020975810608
 22
107.6260763996444
 32
0.0
 13
218.2020975810608
 23
107.6260763996444
 33
0.0
  0
LINE
  5
33D
330
336
100
AcDbEntity
  8
layer 7
 62
     0
100
AcDbLine
 10
179.91
 20
44.14361681388587
 30
0.0
 11
180.09
 21
44.14361681388587
 31
0.0
  0
LINE
  5
33E
330
336
100
AcDbEntity
  8
layer 7
 62
     0
100
AcDbLine
 10
180.0
 20
44.05361681388587
 30
0.0
 11
180.0
 21
44.23361681388587
 31
0.0
  0
POINT
  5
33F
330
336
100
AcDbEntity
  8
Defpoints
 62
     0
100
AcDbPoint
 10
218.2020975810608
 20
107.6260763996444
 30
0.0
  0
POINT
  5
340
330
336
100
AcDbEntity
  8
Defpoints
 62
     0
100
AcDbPoint
 10
180.0
 20
44.14361681388587
 30
0.0
  0
ENDBLK
  5
338
330
336
100
AcDbEntity
  8
0
100
AcDbBlockEnd
  0
BLOCK
  5
342
330
341
100
AcDbEntity
  8
0
100
AcDbBlockBegin
  2
*D15
 70
     1
 10
0.0
 20
0.0
 30
0.0
  3
*D15
  1
*D15
  0
LINE
  5
344
330
341
100
AcDbEntity
  8
layer 7
 62
     0
370
    -2
100
AcDbLine
 10
180.6019631000945
 20
170.0000037787309
 30
0.0
 11
191.4173616002371
 21
170.0000072374797
 31
0.0
  0
LINE
  5
345
330
341
100
AcDbEntity
  8
layer 7
 62
     0
370
    -2
100
AcDbLine
 10
180.6019796547067
 20
118.2342534310162
 30
0.0
 11
191.4173781548493
 21
118.234256889765
 31
0.0
  0
LINE
  5
346
330
341
100
AcDbEntity
  8
layer 7
 62
     0
370
    -2
100
AcDbLine
 10
190.1673623997336
 20
167.5000068377316
 30
0.0
 11
190.167377355353
 21
120.7342564900167
 31
0.0
  0
SOLID
  5
347
330
341
100
AcDbEntity
  8
layer 7
 62
     0
100
AcDbTrace
 10
190.5840290664002
 20
167.500006970981
 30
0.0
 11
189.7506957330669
 21
167.5000067044822
 31
0.0
 12
190.1673616002372
 22
170.0000068377315
 32
0.0
 13
190.1673616002372
 23
170.0000068377315
 33
0.0
  0
SOLID
  5
348
330
341
100
AcDbEntity
  8
layer 7
 62
     0
100
AcDbTrace
 10
189.7507106886864
 20
120.7342563567673
 30
0.0
 11
190.5840440220197
 21
120.7342566232661
 31
0.0
 12
190.1673781548494
 22
118.2342564900168
 32
0.0
 13
190.1673781548494
 23
118.2342564900168
 33
0.0
  0
MTEXT
  5
349
330
341
100
AcDbEntity
  8
layer 7
 62
     0
100
AcDbMText
 10
188.2923698775434
 20
144.1171310642519
 30
0.0
 40
2.5
 41
0.0
 46
0.0
 71
     5
 72
     1
  1
\A1;51.7658
  7
QCADDimTextStyle
 11
-3.197985555419829E-7
 21
0.9999999999999489
 31
0.0
 73
     1
 44
1.0
  0
POINT
  5
34A
330
341
100
AcDbEntity
  8
Defpoints
 62
     0
100
AcDbPoint
 10
179.9769631000945
 20
170.0000035788568
 30
0.0
  0
POINT
  5
34B
330
341
100
AcDbEntity
  8
Defpoints
 62
     0
100
AcDbPoint
 10
179.9769796547067
 20
118.2342532311421
 30
0.0
  0
POINT
  5
34C
330
341
100
AcDbEntity
  8
Defpoints
 62
     0
100
AcDbPoint
 10
190.1673781548494
 20
118.2342564900168
 30
0.0
  0
ENDBLK
  5
343
330
341
100
AcDbEntity
  8
0
100
AcDbBlockEnd
  0
BLOCK
  5
34E
330
34D
100
AcDbEntity
  8
0
100
AcDbBlockBegin
  2
*D16
 70
     1
 10
0.0
 20
0.0
 30
0.0
  3
*D16
  1
*D16
  0
LINE
  5
350
330
34D
100
AcDbEntity
  8
layer 8
 62
     0
370
    -2
100
AcDbLine
 10
58.16737574937002
 20
112.0811145235613
 30
0.0
 11
58.16737574937002
 21
121.25
 31
0.0
  0
LINE
  5
351
330
34D
100
AcDbEntity
  8
layer 8
 62
     0
370
    -2
100
AcDbLine
 10
40.1986563266987
 20
112.0811145235613
 30
0.0
 11
40.1986563266987
 21
121.25
 31
0.0
  0
LINE
  5
352
330
34D
100
AcDbEntity
  8
layer 8
 62
     0
370
    -2
100
AcDbLine
 10
55.66737574937002
 20
120.0
 30
0.0
 11
42.6986563266987
 21
120.0
 31
0.0
  0
SOLID
  5
353
330
34D
100
AcDbEntity
  8
layer 8
 62
     0
100
AcDbTrace
 10
55.66737574937002
 20
119.5833333333333
 30
0.0
 11
55.66737574937002
 21
120.4166666666667
 31
0.0
 12
58.16737574937002
 22
120.0
 32
0.0
 13
58.16737574937002
 23
120.0
 33
0.0
  0
SOLID
  5
354
330
34D
100
AcDbEntity
  8
layer 8
 62
     0
100
AcDbTrace
 10
42.6986563266987
 20
120.4166666666667
 30
0.0
 11
42.6986563266987
 21
119.5833333333333
 31
0.0
 12
40.1986563266987
 22
120.0
 32
0.0
 13
40.1986563266987
 23
120.0
 33
0.0
  0
MTEXT
  5
355
330
34D
100
AcDbEntity
  8
layer 8
 62
     0
100
AcDbMText
 10
49.18301603803437
 20
121.875
 30
0.0
 40
2.5
 41
0.0
 46
0.0
 71
     5
 72
     1
  1
\A1;18
  7
QCADDimTextStyle
 73
     1
 44
1.0
  0
POINT
  5
356
330
34D
100
AcDbEntity
  8
Defpoints
 62
     0
100
AcDbPoint
 10
58.16737574937002
 20
111.4561145235613
 30
0.0
  0
POINT
  5
357
330
34D
100
AcDbEntity
  8
Defpoints
 62
     0
100
AcDbPoint
 10
40.1986563266987
 20
111.4561145235613
 30
0.0
  0
POINT
  5
358
330
34D
100
AcDbEntity
  8
Defpoints
 62
     0
100
AcDbPoint
 10
40.1986563266987
 20
120.0
 30
0.0
  0
ENDBLK
  5
34F
330
34D
100
AcDbEntity
  8
0
100
AcDbBlockEnd
  0
BLOCK
  5
35A
330
359
100
AcDbEntity
  8
0
100
AcDbBlockBegin
  2
*D17
 70
     1
 10
0.0
 20
0.0
 30
0.0
  3
*D17
  1
*D17
  0
LINE
  5
35C
330
359
100
AcDbEntity
  8
layer 8
 62
     0
370
    -2
100
AcDbLine
 10
57.54237574937002
 20
111.4561145235613
 30
0.0
 11
28.75
 21
111.4561145235613
 31
0.0
  0
LINE
  5
35D
330
359
100
AcDbEntity
  8
layer 8
 62
     0
370
    -2
100
AcDbLine
 10
57.54237574937002
 20
97.45611452356127
 30
0.0
 11
28.75
 21
97.45611452356127
 31
0.0
  0
LINE
  5
35E
330
359
100
AcDbEntity
  8
layer 8
 62
     0
370
    -2
100
AcDbLine
 10
30.0
 20
108.9561145235613
 30
0.0
 11
30.0
 21
99.95611452356127
 31
0.0
  0
SOLID
  5
35F
330
359
100
AcDbEntity
  8
layer 8
 62
     0
100
AcDbTrace
 10
30.41666666666667
 20
108.9561145235613
 30
0.0
 11
29.58333333333333
 21
108.9561145235613
 31
0.0
 12
30.0
 22
111.4561145235613
 32
0.0
 13
30.0
 23
111.4561145235613
 33
0.0
  0
SOLID
  5
360
330
359
100
AcDbEntity
  8
layer 8
 62
     0
100
AcDbTrace
 10
29.58333333333333
 20
99.95611452356127
 30
0.0
 11
30.41666666666667
 21
99.95611452356127
 31
0.0
 12
30.0
 22
97.45611452356127
 32
0.0
 13
30.0
 23
97.45611452356127
 33
0.0
  0
MTEXT
  5
361
330
359
100
AcDbEntity
  8
layer 8
 62
     0
100
AcDbMText
 10
28.125
 20
104.4561145235613
 30
0.0
 40
2.5
 41
0.0
 46
0.0
 71
     5
 72
     1
  1
\A1;ø14
  7
QCADDimTextStyle
 11
0.0
 21
1.0
 31
0.0
 73
     1
 44
1.0
  0
POINT
  5
362
330
359
100
AcDbEntity
  8
Defpoints
 62
     0
100
AcDbPoint
 10
58.16737574937002
 20
111.4561145235613
 30
0.0
  0
POINT
  5
363
330
359
100
AcDbEntity
  8
Defpoints
 62
     0
100
AcDbPoint
 10
58.16737574937002
 20
97.45611452356127
 30
0.0
  0
POINT
  5
364
330
359
100
AcDbEntity
  8
Defpoints
 62
     0
100
AcDbPoint
 10
30.0
 20
97.45611452356127
 30
0.0
  0
ENDBLK
  5
35B
330
359
100
AcDbEntity
  8
0
100
AcDbBlockEnd
  0
BLOCK
  5
366
330
365
100
AcDbEntity
  8
0
100
AcDbBlockBegin
  2
*D18
 70
     1
 10
0.0
 20
0.0
 30
0.0
  3
*D18
  1
*D18
  0
LINE
  5
368
330
365
100
AcDbEntity
  8
layer 8
 62
     0
370
    -2
100
AcDbLine
 10
276.7672787251051
 20
176.3744392465322
 30
0.0
 11
276.762576472066
 21
206.6648838099954
 31
0.0
  0
LINE
  5
369
330
365
100
AcDbEntity
  8
layer 8
 62
     0
370
    -2
100
AcDbLine
 10
319.7672787251052
 20
176.3811145160304
 30
0.0
 11
319.7625764720661
 21
206.6715590794935
 31
0.0
  0
LINE
  5
36A
330
365
100
AcDbEntity
  8
layer 8
 62
     0
370
    -2
100
AcDbLine
 10
279.2627704904717
 20
205.4152719221165
 30
0.0
 11
317.2627705507196
 21
205.4211709974963
 31
0.0
  0
SOLID
  5
36B
330
365
100
AcDbEntity
  8
layer 8
 62
     0
100
AcDbTrace
 10
279.2627058076285
 20
205.8319385837625
 30
0.0
 11
279.2628351733149
 21
204.9986052604704
 31
0.0
 12
276.7627705205956
 22
205.4148838250573
 32
0.0
 13
276.7627705205956
 23
205.4148838250573
 33
0.0
  0
SOLID
  5
36C
330
365
100
AcDbEntity
  8
layer 8
 62
     0
100
AcDbTrace
 10
317.2628352335628
 20
205.0045043358502
 30
0.0
 11
317.2627058678764
 21
205.8378376591423
 31
0.0
 12
319.7627705205957
 22
205.4215590945554
 32
0.0
 13
319.7627705205957
 23
205.4215590945554
 33
0.0
  0
MTEXT
  5
36D
330
365
100
AcDbEntity
  8
layer 8
 62
     0
100
AcDbMText
 10
298.2624794478013
 20
207.2932214372135
 30
0.0
 40
2.5
 41
0.0
 46
0.0
 71
     5
 72
     1
  1
\A1;43
  7
QCADDimTextStyle
 11
0.9999999879504536
 21
0.0001552388236670605
 31
0.0
 73
     1
 44
1.0
  0
POINT
  5
36E
330
365
100
AcDbEntity
  8
Defpoints
 62
     0
100
AcDbPoint
 10
276.7673757493699
 20
175.7494392540632
 30
0.0
  0
POINT
  5
36F
330
365
100
AcDbEntity
  8
Defpoints
 62
     0
100
AcDbPoint
 10
319.76737574937
 20
175.7561145235613
 30
0.0
  0
POINT
  5
370
330
365
100
AcDbEntity
  8
Defpoints
 62
     0
100
AcDbPoint
 10
319.7627705205957
 20
205.4215590945554
 30
0.0
  0
ENDBLK
  5
367
330
365
100
AcDbEntity
  8
0
100
AcDbBlockEnd
  0
ENDSEC
  0
SECTION
  2
ENTITIES
  0
LINE
  5
68
330
1D4
100
AcDbEntity
  8
0
100
AcDbLine
 10
274.7673757493699
 20
191.7561145235613
 30
0.0
 11
232.46737574937
 21
191.7561145235613
 31
0.0
  0
LINE
  5
46
330
1D4
100
AcDbEntity
  8
0
100
AcDbLine
 10
85.16737574937002
 20
96.45611452356127
 30
0.0
 11
127.46737574937
 21
96.45611452356127
 31
0.0
  0
LINE
  5
6A
330
1D4
100
AcDbEntity
  8
0
100
AcDbLine
 10
232.4673757493699
 20
96.45611452356128
 30
0.0
 11
275.7673757493699
 21
96.45611452356137
 31
0.0
  0
LINE
  5
48
330
1D4
100
AcDbEntity
  8
0
100
AcDbLine
 10
127.46737574937
 20
191.7561145235613
 30
0.0
 11
84.16737574937002
 21
191.7561145235613
 31
0.0
  0
LINE
  5
6B
330
1D4
100
AcDbEntity
  8
0
100
AcDbLine
 10
319.7673757493699
 20
112.4561145235613
 30
0.0
 11
319.7673757493699
 21
175.7561145235613
 31
0.0
  0
LINE
  5
49
330
1D4
100
AcDbEntity
  8
0
100
AcDbLine
 10
40.16737574937004
 20
175.7561145235613
 30
0.0
 11
40.16737574937004
 21
112.4561145235613
 31
0.0
  0
LINE
  5
4B
330
1D4
100
AcDbEntity
  8
0
100
AcDbLine
 10
319.76737574937
 20
112.4561145235613
 30
0.0
 11
319.76737574937
 21
175.7561145235613
 31
0.0
  0
LINE
  5
6E
330
1D4
100
AcDbEntity
  8
0
100
AcDbLine
 10
303.7673757493699
 20
96.45611452356128
 30
0.0
 11
277.7673757493699
 21
96.45611452356137
 31
0.0
  0
LINE
  5
5F
330
1D4
100
AcDbEntity
  8
0
100
AcDbLine
 10
56.16737574937002
 20
191.7561145235613
 30
0.0
 11
82.16737574937002
 21
191.7561145235613
 31
0.0
  0
LINE
  5
6F
330
1D4
100
AcDbEntity
  8
0
100
AcDbLine
 10
277.7673757493699
 20
96.45611452356137
 30
0.0
 11
277.7673757493699
 21
112.499153265003
 31
0.0
  0
LINE
  5
60
330
1D4
100
AcDbEntity
  8
0
100
AcDbLine
 10
82.16737574937002
 20
191.7561145235613
 30
0.0
 11
82.16737574937002
 21
175.7130757821195
 31
0.0
  0
LINE
  5
70
330
1D4
100
AcDbEntity
  8
0
100
AcDbLine
 10
275.7673757493699
 20
96.45611452356137
 30
0.0
 11
275.7673757493699
 21
112.4580498117973
 31
0.0
  0
LINE
  5
61
330
1D4
100
AcDbEntity
  8
0
100
AcDbLine
 10
84.16737574937002
 20
191.7561145235613
 30
0.0
 11
84.16737574937002
 21
175.7541792353253
 31
0.0
  0
LINE
  5
71
330
1D4
100
AcDbEntity
  8
0
100
AcDbLine
 10
274.7673757493699
 20
191.7561145235613
 30
0.0
 11
274.7673757493699
 21
175.7273099468845
 31
0.0
  0
LINE
  5
63
330
1D4
100
AcDbEntity
  8
0
100
AcDbLine
 10
85.16737574937002
 20
96.45611452356127
 30
0.0
 11
85.16737574937002
 21
112.484919100238
 31
0.0
  0
LINE
  5
72
330
1D4
100
AcDbEntity
  8
0
100
AcDbLine
 10
276.7673757493699
 20
191.7561145235613
 30
0.0
 11
276.7673757493699
 21
175.7494392540633
 31
0.0
  0
LINE
  5
64
330
1D4
100
AcDbEntity
  8
0
100
AcDbLine
 10
83.16737574937002
 20
96.45611452356127
 30
0.0
 11
83.16737574937002
 21
112.4627897930593
 31
0.0
  0
ARC
  5
73
330
1D4
100
AcDbEntity
  8
0
100
AcDbCircle
 10
276.1173757493699
 20
144.1061145235612
 30
0.0
 40
31.65
100
AcDbArc
 50
92.44463747286832
 51
269.3663844684316
  0
ARC
  5
65
330
1D4
100
AcDbEntity
  8
0
100
AcDbCircle
 10
83.81737574937003
 20
144.1061145235613
 30
0.0
 40
31.65
100
AcDbArc
 50
272.4446374728683
 51
89.36638446843162
  0
ARC
  5
74
330
1D4
100
AcDbEntity
  8
0
100
AcDbCircle
 10
276.1173757493699
 20
144.1061145235612
 30
0.0
 40
31.65000000000001
100
AcDbArc
 50
272.9883384368453
 51
88.82322669362901
  0
ARC
  5
66
330
1D4
100
AcDbEntity
  8
0
100
AcDbCircle
 10
83.81737574937003
 20
144.1061145235613
 30
0.0
 40
31.65000000000001
100
AcDbArc
 50
92.98833843684534
 51
268.823226693629
  0
LINE
  5
75
330
1D4
100
AcDbEntity
  8
0
100
AcDbLine
 10
303.7673757493699
 20
191.7561145235613
 30
0.0
 11
276.7673757493699
 21
191.7561145235613
 31
0.0
  0
LINE
  5
67
330
1D4
100
AcDbEntity
  8
0
100
AcDbLine
 10
56.16737574937002
 20
96.45611452356127
 30
0.0
 11
83.16737574937002
 21
96.45611452356127
 31
0.0
  0
LINE
  5
B3
330
1D4
100
AcDbEntity
  8
layer 2
100
AcDbLine
 10
276.7673757493699
 20
179.7561145235613
 30
0.0
 11
301.7673757493699
 21
179.7561145235613
 31
0.0
  0
LINE
  5
A7
330
1D4
100
AcDbEntity
  8
layer 2
100
AcDbLine
 10
83.16737574937002
 20
108.4561145235613
 30
0.0
 11
58.16737574937002
 21
108.4561145235613
 31
0.0
  0
LINE
  5
9B
330
1D4
100
AcDbEntity
  8
layer 2
100
AcDbLine
 10
277.7673757493699
 20
100.4561145235614
 30
0.0
 11
302.7673757493699
 21
100.4561145235614
 31
0.0
  0
LINE
  5
88
330
1D4
100
AcDbEntity
  8
layer 2
100
AcDbLine
 10
82.16737574937002
 20
187.7561145235613
 30
0.0
 11
57.16737574937002
 21
187.7561145235613
 31
0.0
  0
LINE
  5
B4
330
1D4
100
AcDbEntity
  8
layer 2
100
AcDbLine
 10
276.7673757493699
 20
187.7561145235613
 30
0.0
 11
301.7673757493699
 21
187.7561145235613
 31
0.0
  0
LINE
  5
A8
330
1D4
100
AcDbEntity
  8
layer 2
100
AcDbLine
 10
83.16737574937002
 20
100.4561145235613
 30
0.0
 11
58.16737574937002
 21
100.4561145235613
 31
0.0
  0
LINE
  5
9C
330
1D4
100
AcDbEntity
  8
layer 2
100
AcDbLine
 10
277.7673757493699
 20
108.4561145235614
 30
0.0
 11
302.7673757493699
 21
108.4561145235614
 31
0.0
  0
LINE
  5
89
330
1D4
100
AcDbEntity
  8
layer 2
100
AcDbLine
 10
82.16737574937002
 20
179.7561145235613
 30
0.0
 11
57.16737574937002
 21
179.7561145235613
 31
0.0
  0
LINE
  5
B5
330
1D4
100
AcDbEntity
  8
layer 2
100
AcDbLine
 10
274.7673757493699
 20
180.7561145235613
 30
0.0
 11
236.7673757493699
 21
180.7561145235613
 31
0.0
  0
LINE
  5
A9
330
1D4
100
AcDbEntity
  8
layer 2
100
AcDbLine
 10
85.16737574937002
 20
107.4561145235613
 30
0.0
 11
123.16737574937
 21
107.4561145235613
 31
0.0
  0
LINE
  5
9D
330
1D4
100
AcDbEntity
  8
layer 2
100
AcDbLine
 10
275.7673757493699
 20
101.4561145235614
 30
0.0
 11
237.7673757493699
 21
101.4561145235614
 31
0.0
  0
LINE
  5
8B
330
1D4
100
AcDbEntity
  8
layer 2
100
AcDbLine
 10
84.16737574937002
 20
186.7561145235613
 30
0.0
 11
122.16737574937
 21
186.7561145235613
 31
0.0
  0
LINE
  5
B6
330
1D4
100
AcDbEntity
  8
layer 2
100
AcDbLine
 10
274.7673757493699
 20
186.7561145235613
 30
0.0
 11
236.7673757493699
 21
186.7561145235613
 31
0.0
  0
LINE
  5
AA
330
1D4
100
AcDbEntity
  8
layer 2
100
AcDbLine
 10
85.16737574937002
 20
101.4561145235613
 30
0.0
 11
123.16737574937
 21
101.4561145235613
 31
0.0
  0
LINE
  5
9E
330
1D4
100
AcDbEntity
  8
layer 2
100
AcDbLine
 10
275.7673757493699
 20
107.4561145235614
 30
0.0
 11
237.7673757493699
 21
107.4561145235614
 31
0.0
  0
LINE
  5
8C
330
1D4
100
AcDbEntity
  8
layer 2
100
AcDbLine
 10
84.16737574937002
 20
180.7561145235613
 30
0.0
 11
122.16737574937
 21
180.7561145235613
 31
0.0
  0
LINE
  5
B7
330
1D4
100
AcDbEntity
  8
layer 2
100
AcDbLine
 10
236.7673757493699
 20
186.7561145235613
 30
0.0
 11
232.7673757493699
 21
183.7561145235613
 31
0.0
  0
LINE
  5
AB
330
1D4
100
AcDbEntity
  8
layer 2
100
AcDbLine
 10
123.16737574937
 20
101.4561145235613
 30
0.0
 11
127.16737574937
 21
104.4561145235613
 31
0.0
  0
LINE
  5
9F
330
1D4
100
AcDbEntity
  8
layer 2
100
AcDbLine
 10
237.7673757493699
 20
107.4561145235614
 30
0.0
 11
233.7673757493699
 21
104.4561145235614
 31
0.0
  0
LINE
  5
8D
330
1D4
100
AcDbEntity
  8
layer 2
100
AcDbLine
 10
122.16737574937
 20
180.7561145235613
 30
0.0
 11
126.16737574937
 21
183.7561145235613
 31
0.0
  0
LINE
  5
B8
330
1D4
100
AcDbEntity
  8
layer 2
100
AcDbLine
 10
232.7673757493699
 20
183.7561145235613
 30
0.0
 11
236.7673757493699
 21
180.7561145235613
 31
0.0
  0
LINE
  5
AC
330
1D4
100
AcDbEntity
  8
layer 2
100
AcDbLine
 10
127.16737574937
 20
104.4561145235613
 30
0.0
 11
123.16737574937
 21
107.4561145235613
 31
0.0
  0
LINE
  5
A0
330
1D4
100
AcDbEntity
  8
layer 2
100
AcDbLine
 10
233.7673757493699
 20
104.4561145235614
 30
0.0
 11
237.7673757493699
 21
101.4561145235614
 31
0.0
  0
LINE
  5
8E
330
1D4
100
AcDbEntity
  8
layer 2
100
AcDbLine
 10
126.16737574937
 20
183.7561145235613
 30
0.0
 11
122.16737574937
 21
186.7561145235613
 31
0.0
  0
LINE
  5
B9
330
1D4
100
AcDbEntity
  8
layer 3
100
AcDbLine
 10
274.7673757493699
 20
183.7561145235613
 30
0.0
 11
232.7673757493699
 21
183.7551468793583
 31
0.0
  0
LINE
  5
AD
330
1D4
100
AcDbEntity
  8
layer 3
100
AcDbLine
 10
85.16737574937002
 20
104.4561145235613
 30
0.0
 11
127.16737574937
 21
104.4570821676793
 31
0.0
  0
LINE
  5
A1
330
1D4
100
AcDbEntity
  8
layer 3
100
AcDbLine
 10
275.7673757493699
 20
104.4561145235614
 30
0.0
 11
233.7673757493699
 21
104.4551468793584
 31
0.0
  0
LINE
  5
90
330
1D4
100
AcDbEntity
  8
layer 3
100
AcDbLine
 10
84.16737574937002
 20
183.7561145235613
 30
0.0
 11
126.16737574937
 21
183.7570821676793
 31
0.0
  0
LINE
  5
BA
330
1D4
100
AcDbEntity
  8
layer 3
100
AcDbLine
 10
276.7673757493699
 20
183.7776338942822
 30
0.0
 11
316.7673757493699
 21
183.7561145235613
 31
0.0
  0
LINE
  5
AE
330
1D4
100
AcDbEntity
  8
layer 3
100
AcDbLine
 10
83.16737574937002
 20
104.4345951528404
 30
0.0
 11
43.16737574937004
 21
104.4561145235613
 31
0.0
  0
LINE
  5
A2
330
1D4
100
AcDbEntity
  8
layer 3
100
AcDbLine
 10
277.7673757493699
 20
104.4776338942823
 30
0.0
 11
317.7673757493699
 21
104.4561145235614
 31
0.0
  0
LINE
  5
91
330
1D4
100
AcDbEntity
  8
layer 3
100
AcDbLine
 10
82.16737574937002
 20
183.7345951528404
 30
0.0
 11
42.16737574937004
 21
183.7561145235613
 31
0.0
  0
ARC
  5
94
330
1D4
100
AcDbEntity
  8
layer 4
100
AcDbCircle
 10
56.16737574937002
 20
175.7561145235613
 30
0.0
 40
16.0
100
AcDbArc
 50
90.0
 51
180.0
  0
LINE
  5
BB
330
1D4
100
AcDbEntity
  8
layer 5
100
AcDbLine
 10
301.7673757493699
 20
176.7561145235613
 30
0.0
 11
301.7673757493699
 21
190.7561145235613
 31
0.0
  0
LINE
  5
AF
330
1D4
100
AcDbEntity
  8
layer 5
100
AcDbLine
 10
58.16737574937002
 20
111.4561145235613
 30
0.0
 11
58.16737574937002
 21
97.45611452356127
 31
0.0
  0
LINE
  5
A3
330
1D4
100
AcDbEntity
  8
layer 5
100
AcDbLine
 10
302.7673757493699
 20
97.45611452356137
 30
0.0
 11
302.7673757493699
 21
111.4561145235614
 31
0.0
  0
LINE
  5
96
330
1D4
100
AcDbEntity
  8
layer 5
100
AcDbLine
 10
57.16737574937002
 20
190.7561145235613
 30
0.0
 11
57.16737574937002
 21
176.7561145235613
 31
0.0
  0
LINE
  5
BC
330
1D4
100
AcDbEntity
  8
layer 5
100
AcDbLine
 10
301.7673757493699
 20
190.7561145235613
 30
0.0
 11
309.3351401122
 21
190.7561145235613
 31
0.0
  0
LINE
  5
B0
330
1D4
100
AcDbEntity
  8
layer 5
100
AcDbLine
 10
58.16737574937002
 20
97.45611452356127
 30
0.0
 11
50.59961138654002
 21
97.45611452356127
 31
0.0
  0
LINE
  5
A4
330
1D4
100
AcDbEntity
  8
layer 5
100
AcDbLine
 10
302.7673757493699
 20
111.4561145235614
 30
0.0
 11
319.7673757493699
 21
111.4561145235614
 31
0.0
  0
LINE
  5
97
330
1D4
100
AcDbEntity
  8
layer 5
100
AcDbLine
 10
57.16737574937002
 20
176.7561145235613
 30
0.0
 11
40.16737574937004
 21
176.7561145235613
 31
0.0
  0
LINE
  5
BD
330
1D4
100
AcDbEntity
  8
layer 5
100
AcDbLine
 10
301.7673757493699
 20
176.7561145235613
 30
0.0
 11
319.7673757493699
 21
176.7561145235613
 31
0.0
  0
LINE
  5
B1
330
1D4
100
AcDbEntity
  8
layer 5
100
AcDbLine
 10
58.16737574937002
 20
111.4561145235613
 30
0.0
 11
40.16737574937004
 21
111.4561145235613
 31
0.0
  0
LINE
  5
A5
330
1D4
100
AcDbEntity
  8
layer 5
100
AcDbLine
 10
302.7673757493699
 20
97.45611452356137
 30
0.0
 11
309.7673757493699
 21
97.45611452356137
 31
0.0
  0
LINE
  5
98
330
1D4
100
AcDbEntity
  8
layer 5
100
AcDbLine
 10
57.16737574937002
 20
190.7561145235613
 30
0.0
 11
50.16737574937004
 21
190.7561145235613
 31
0.0
  0
ARC
  5
9A
330
1D4
100
AcDbEntity
  8
layer 6
100
AcDbCircle
 10
303.7673757493699
 20
112.4561145235613
 30
0.0
 40
16.0
100
AcDbArc
 50
269.9999999999998
 51
0.0
  0
ARC
  5
A6
330
1D4
100
AcDbEntity
  8
layer 6
100
AcDbCircle
 10
56.16737574937002
 20
112.4561145235613
 30
0.0
 40
16.0
100
AcDbArc
 50
180.0
 51
270.0
  0
ARC
  5
B2
330
1D4
100
AcDbEntity
  8
layer 6
100
AcDbCircle
 10
303.7673757493699
 20
175.7561145235613
 30
0.0
 40
16.0
100
AcDbArc
 50
0.0
 51
89.99999999999994
  0
ARC
  5
BE
330
1D4
100
AcDbEntity
  8
layer 6
100
AcDbCircle
 10
180.0
 20
244.1436168138859
 30
0.0
 40
74.14361681388587
100
AcDbArc
 50
224.9207504716991
 51
315.0436451913234
  0
ARC
  5
BF
330
1D4
100
AcDbEntity
  8
layer 6
100
AcDbCircle
 10
180.0
 20
44.14361681388587
 30
0.0
 40
74.09063999352657
100
AcDbArc
 50
44.91530957942501
 51
135.1202946115924
  0
DIMENSION
  5
C1
330
1D4
100
AcDbEntity
  8
layer 7
100
AcDbDimension
280
     0
  2
*D1
 10
307.7188859101338
 20
147.4237140297131
 30
0.0
 11
276.0432036539439
 21
148.7982243422477
 31
0.0
 70
    33
  1
ø<>
 71
     5
 42
63.29999999982219
 73
     0
 74
     0
 75
     0
  3
QCADDimStyle
100
AcDbAlignedDimension
 13
244.4713282945876
 23
143.6059340664607
 33
0.0
 14
307.7634208328314
 24
144.6064449898762
 34
0.0
1001
ACAD
1000
DSTYLE
1002
{
1070
   279
1070
     2
1070
    41
1040
2.5
1070
    79
1070
     2
1070
   176
1070
     0
1070
   177
1070
     0
1070
   178
1070
     0
1070
    44
1040
1.25
1070
    42
1040
0.625
1070
   147
1040
0.625
1070
   140
1040
2.5
1070
    78
1070
     8
1002
}
  0
DIMENSION
  5
C2
330
1D4
100
AcDbEntity
  8
layer 7
100
AcDbDimension
280
     0
  2
*D2
 10
52.12986622188775
 20
146.228815317166
 30
0.0
 11
83.74627650394156
 21
148.6038365531161
 31
0.0
 70
    33
  1
ø<>
 71
     5
 42
63.29999999982218
 73
     0
 74
     0
 75
     0
  3
QCADDimStyle
100
AcDbAlignedDimension
 13
115.4634232041523
 23
144.6062949806618
 33
0.0
 14
52.17133066590853
 24
143.6057840572463
 34
0.0
1001
ACAD
1000
DSTYLE
1002
{
1070
   279
1070
     2
1070
    41
1040
2.5
1070
    79
1070
     2
1070
   176
1070
     0
1070
   177
1070
     0
1070
   178
1070
     0
1070
    44
1040
1.25
1070
    42
1040
0.625
1070
   147
1040
0.625
1070
   140
1040
2.5
1070
    78
1070
     8
1002
}
  0
DIMENSION
  5
C3
330
1D4
100
AcDbEntity
  8
layer 7
100
AcDbDimension
280
     0
  2
*D3
 10
275.7673757493699
 20
85.75611452356128
 30
0.0
 11
180.4673757493699
 21
87.63111452356122
 31
0.0
 70
    33
 71
     5
 42
190.5999999999999
 73
     0
 74
     0
 75
     0
  3
QCADDimStyle
100
AcDbAlignedDimension
 13
85.16737574937002
 23
96.45611452356127
 33
0.0
 14
275.7673757493699
 24
96.45611452356137
 34
0.0
1001
ACAD
1000
DSTYLE
1002
{
1070
   279
1070
     2
1070
    41
1040
2.5
1070
    79
1070
     2
1070
   176
1070
     0
1070
   177
1070
     0
1070
   178
1070
     0
1070
    44
1040
1.25
1070
    42
1040
0.625
1070
   147
1040
0.625
1070
   140
1040
2.5
1070
    78
1070
     8
1002
}
  0
DIMENSION
  5
C4
330
1D4
100
AcDbEntity
  8
layer 7
100
AcDbDimension
280
     0
  2
*D4
 10
244.5457459405887
 20
155.1018226529653
 30
0.0
 11
180.0563321968847
 21
157.4769467420854
 31
0.0
 70
    33
  1
129
 71
     5
 42
129.0117835617407
 73
     0
 74
     0
 75
     0
  3
QCADDimStyle
100
AcDbAlignedDimension
 13
115.4535445417963
 23
145.2312169054093
 33
0.0
 14
244.4614496322316
 24
144.2308559912081
 34
0.0
1001
ACAD
1000
DSTYLE
1002
{
1070
   279
1070
     2
1070
    41
1040
2.5
1070
    79
1070
     2
1070
   176
1070
     0
1070
   177
1070
     0
1070
   178
1070
     0
1070
    44
1040
1.25
1070
    42
1040
0.625
1070
   147
1040
0.625
1070
   140
1040
2.5
1070
    78
1070
     8
1002
}
  0
DIMENSION
  5
C5
330
1D4
100
AcDbEntity
  8
layer 7
100
AcDbDimension
280
     0
  2
*D5
 10
277.7673757493697
 20
75.75611452356137
 30
0.0
 11
276.7673757493697
 21
69.81861452356137
 31
0.0
 70
    33
 71
     5
 42
2.0
 73
     0
 74
     0
 75
     0
  3
QCADDimStyle
100
AcDbAlignedDimension
 13
275.7673757493699
 23
96.45611452356137
 33
0.0
 14
277.7673757493699
 24
96.45611452356135
 34
0.0
1001
ACAD
1000
DSTYLE
1002
{
1070
   279
1070
     2
1070
    41
1040
2.5
1070
    79
1070
     2
1070
   176
1070
     0
1070
   177
1070
     0
1070
   178
1070
     0
1070
    44
1040
1.25
1070
    42
1040
0.625
1070
   147
1040
0.625
1070
   140
1040
2.5
1070
    78
1070
     8
1002
}
  0
DIMENSION
  5
C6
330
1D4
100
AcDbEntity
  8
layer 7
100
AcDbDimension
280
     0
  2
*D6
 10
122.16737574937
 20
205.7561145235613
 30
0.0
 11
103.16737574937
 21
207.6311145235613
 31
0.0
 70
    33
 71
     5
 42
37.99999999999997
 73
     0
 74
     0
 75
     0
  3
QCADDimStyle
100
AcDbAlignedDimension
 13
84.16737574937002
 23
186.7561145235613
 33
0.0
 14
122.16737574937
 24
186.7561145235613
 34
0.0
1001
ACAD
1000
DSTYLE
1002
{
1070
   279
1070
     2
1070
    41
1040
2.5
1070
    79
1070
     2
1070
   176
1070
     0
1070
   177
1070
     0
1070
   178
1070
     0
1070
    44
1040
1.25
1070
    42
1040
0.625
1070
   147
1040
0.625
1070
   140
1040
2.5
1070
    78
1070
     8
1002
}
  0
DIMENSION
  5
C7
330
1D4
100
AcDbEntity
  8
layer 7
100
AcDbDimension
280
     0
  2
*D7
 10
57.16737574937002
 20
205.7561145235613
 30
0.0
 11
69.66737574937002
 21
207.6311145235613
 31
0.0
 70
    33
 71
     5
 42
25.00000000000001
 73
     0
 74
     0
 75
     0
  3
QCADDimStyle
100
AcDbAlignedDimension
 13
82.16737574937002
 23
187.7561145235613
 33
0.0
 14
57.16737574937002
 24
187.7561145235613
 34
0.0
1001
ACAD
1000
DSTYLE
1002
{
1070
   279
1070
     2
1070
    41
1040
2.5
1070
    79
1070
     2
1070
   176
1070
     0
1070
   177
1070
     0
1070
   178
1070
     0
1070
    44
1040
1.25
1070
    42
1040
0.625
1070
   147
1040
0.625
1070
   140
1040
2.5
1070
    78
1070
     8
1002
}
  0
DIMENSION
  5
C8
330
1D4
100
AcDbEntity
  8
layer 7
100
AcDbDimension
280
     0
  2
*D8
 10
26.22110292484201
 20
179.7561145235613
 30
0.0
 11
24.34610292484201
 21
183.7561145235613
 31
0.0
 70
    33
  1
ø8
 71
     5
 42
8.0
 73
     0
 74
     0
 75
     0
  3
QCADDimStyle
100
AcDbAlignedDimension
 13
57.16737574937002
 23
187.7561145235613
 33
0.0
 14
57.16737574937002
 24
179.7561145235613
 34
0.0
1001
ACAD
1000
DSTYLE
1002
{
1070
   279
1070
     2
1070
    41
1040
2.5
1070
    79
1070
     2
1070
   176
1070
     0
1070
   177
1070
     0
1070
   178
1070
     0
1070
    44
1040
1.25
1070
    42
1040
0.625
1070
   147
1040
0.625
1070
   140
1040
2.5
1070
    78
1070
     8
1002
}
  0
DIMENSION
  5
C9
330
1D4
100
AcDbEntity
  8
layer 7
100
AcDbDimension
280
     0
  2
*D9
 10
154.1171485601056
 20
180.7561145235613
 30
0.0
 11
152.2421485601056
 21
183.7561145235613
 31
0.0
 70
    33
  1
M8
 71
     5
 42
6.0
 73
     0
 74
     0
 75
     0
  3
QCADDimStyle
100
AcDbAlignedDimension
 13
122.16737574937
 23
186.7561145235613
 33
0.0
 14
122.16737574937
 24
180.7561145235613
 34
0.0
1001
ACAD
1000
DSTYLE
1002
{
1070
   279
1070
     2
1070
    41
1040
2.5
1070
    79
1070
     2
1070
   176
1070
     0
1070
   177
1070
     0
1070
   178
1070
     0
1070
    44
1040
1.25
1070
    42
1040
0.625
1070
   147
1040
0.625
1070
   140
1040
2.5
1070
    78
1070
     8
1002
}
  0
DIMENSION
  5
CA
330
1D4
100
AcDbEntity
  8
layer 7
100
AcDbDimension
280
     0
  2
*D10
 10
274.7673757493699
 20
205.7561145235613
 30
0.0
 11
253.61737574937
 21
207.6311145235613
 31
0.0
 70
    33
 71
     5
 42
42.29999999999987
 73
     0
 74
     0
 75
     0
  3
QCADDimStyle
100
AcDbAlignedDimension
 13
232.46737574937
 23
191.7561145235613
 33
0.0
 14
274.7673757493699
 24
191.7561145235613
 34
0.0
1001
ACAD
1000
DSTYLE
1002
{
1070
   279
1070
     2
1070
    41
1040
2.5
1070
    79
1070
     2
1070
   176
1070
     0
1070
   177
1070
     0
1070
   178
1070
     0
1070
    44
1040
1.25
1070
    42
1040
0.625
1070
   147
1040
0.625
1070
   140
1040
2.5
1070
    78
1070
     8
1002
}
  0
DIMENSION
  5
CB
330
1D4
100
AcDbEntity
  8
layer 7
100
AcDbDimension
280
     0
  2
*D11
 10
360.16737574937
 20
96.45611452356128
 30
0.0
 11
358.29237574937
 21
144.1061145235613
 31
0.0
 70
    33
 71
     5
 42
95.30000000000003
 73
     0
 74
     0
 75
     0
  3
QCADDimStyle
100
AcDbAlignedDimension
 13
303.7673757493699
 23
191.7561145235613
 33
0.0
 14
303.7673757493699
 24
96.45611452356128
 34
0.0
1001
ACAD
1000
DSTYLE
1002
{
1070
   279
1070
     2
1070
    41
1040
2.5
1070
    79
1070
     2
1070
   176
1070
     0
1070
   177
1070
     0
1070
   178
1070
     0
1070
    44
1040
1.25
1070
    42
1040
0.625
1070
   147
1040
0.625
1070
   140
1040
2.5
1070
    78
1070
     8
1002
}
  0
DIMENSION
  5
CC
330
1D4
100
AcDbEntity
  8
layer 7
100
AcDbDimension
280
     0
  2
*D12
 10
350.16737574937
 20
176.7561145235613
 30
0.0
 11
348.29237574937
 21
144.1061145235614
 31
0.0
 70
    33
 71
     5
 42
65.29999999999991
 73
     0
 74
     0
 75
     0
  3
QCADDimStyle
100
AcDbAlignedDimension
 13
319.7360951720412
 23
111.4561145235614
 33
0.0
 14
319.7360951720412
 24
176.7561145235613
 34
0.0
1001
ACAD
1000
DSTYLE
1002
{
1070
   279
1070
     2
1070
    41
1040
2.5
1070
    79
1070
     2
1070
   176
1070
     0
1070
   177
1070
     0
1070
   178
1070
     0
1070
    44
1040
1.25
1070
    42
1040
0.625
1070
   147
1040
0.625
1070
   140
1040
2.5
1070
    78
1070
     8
1002
}
  0
DIMENSION
  5
CD
330
1D4
100
AcDbEntity
  8
layer 7
100
AcDbDimension
280
     0
  2
*D13
 10
180.0
 20
244.1436168138859
 30
0.0
 11
228.8222867916762
 21
174.6360452241661
 31
0.0
 70
    36
 71
     5
 42
74.14361681388593
 73
     0
 74
     0
 75
     0
  3
QCADDimStyle
100
AcDbRadialDimension
 15
215.9857213883709
 25
179.3184382919343
 35
0.0
 40
0.0
1001
ACAD
1000
DSTYLE
1002
{
1070
   279
1070
     2
1070
    41
1040
2.5
1070
    79
1070
     2
1070
   176
1070
     0
1070
   177
1070
     0
1070
   178
1070
     0
1070
    44
1040
1.25
1070
    42
1040
0.625
1070
   147
1040
0.625
1070
   140
1040
2.5
1070
    78
1070
     8
1002
}
  0
DIMENSION
  5
CE
330
1D4
100
AcDbEntity
  8
layer 7
100
AcDbDimension
280
     0
  2
*D14
 10
180.0
 20
44.14361681388587
 30
0.0
 11
229.9765911809733
 21
113.7851843241613
 31
0.0
 70
    36
 71
     5
 42
74.09063999352655
 73
     0
 74
     0
 75
     0
  3
QCADDimStyle
100
AcDbRadialDimension
 15
218.2020975810608
 25
107.6260763996444
 35
0.0
 40
0.0
1001
ACAD
1000
DSTYLE
1002
{
1070
   279
1070
     2
1070
    41
1040
2.5
1070
    79
1070
     2
1070
   176
1070
     0
1070
   177
1070
     0
1070
   178
1070
     0
1070
    44
1040
1.25
1070
    42
1040
0.625
1070
   147
1040
0.625
1070
   140
1040
2.5
1070
    78
1070
     8
1002
}
  0
DIMENSION
  5
CF
330
1D4
100
AcDbEntity
  8
layer 7
100
AcDbDimension
280
     0
  2
*D15
 10
190.1673781548494
 20
118.2342564900168
 30
0.0
 11
188.2923698775434
 21
144.1171310642519
 31
0.0
 70
    33
 71
     5
 42
51.76575034771734
 73
     0
 74
     0
 75
     0
  3
QCADDimStyle
100
AcDbAlignedDimension
 13
179.9769631000945
 23
170.0000035788568
 33
0.0
 14
179.9769796547067
 24
118.2342532311421
 34
0.0
1001
ACAD
1000
DSTYLE
1002
{
1070
   279
1070
     2
1070
    41
1040
2.5
1070
    79
1070
     2
1070
   176
1070
     0
1070
   177
1070
     0
1070
   178
1070
     0
1070
    44
1040
1.25
1070
    42
1040
0.625
1070
   147
1040
0.625
1070
   140
1040
2.5
1070
    78
1070
     8
1002
}
  0
DIMENSION
  5
1B2
330
1D4
100
AcDbEntity
  8
layer 8
100
AcDbDimension
280
     0
  2
*D16
 10
40.1986563266987
 20
120.0
 30
0.0
 11
49.18301603803437
 21
121.875
 31
0.0
 70
    33
  1
18
 71
     5
 42
17.96871942267132
 73
     0
 74
     0
 75
     0
  3
QCADDimStyle
100
AcDbAlignedDimension
 13
58.16737574937002
 23
111.4561145235613
 33
0.0
 14
40.1986563266987
 24
111.4561145235613
 34
0.0
1001
ACAD
1000
DSTYLE
1002
{
1070
   279
1070
     2
1070
    41
1040
2.5
1070
    79
1070
     2
1070
   176
1070
     0
1070
   177
1070
     0
1070
   178
1070
     0
1070
    44
1040
1.25
1070
    42
1040
0.625
1070
   147
1040
0.625
1070
   140
1040
2.5
1070
    78
1070
     8
1002
}
  0
DIMENSION
  5
1B4
330
1D4
100
AcDbEntity
  8
layer 8
100
AcDbDimension
280
     0
  2
*D17
 10
30.0
 20
97.45611452356127
 30
0.0
 11
28.125
 21
104.4561145235613
 31
0.0
 70
    33
  1
ø<>
 71
     5
 42
14.00000000000004
 73
     0
 74
     0
 75
     0
  3
QCADDimStyle
100
AcDbAlignedDimension
 13
58.16737574937002
 23
111.4561145235613
 33
0.0
 14
58.16737574937002
 24
97.45611452356127
 34
0.0
1001
ACAD
1000
DSTYLE
1002
{
1070
   279
1070
     2
1070
    41
1040
2.5
1070
    79
1070
     2
1070
   176
1070
     0
1070
   177
1070
     0
1070
   178
1070
     0
1070
    44
1040
1.25
1070
    42
1040
0.625
1070
   147
1040
0.625
1070
   140
1040
2.5
1070
    78
1070
     8
1002
}
  0
DIMENSION
  5
1B5
330
1D4
100
AcDbEntity
  8
layer 8
100
AcDbDimension
280
     0
  2
*D18
 10
319.7627705205957
 20
205.4215590945554
 30
0.0
 11
298.2624794478013
 21
207.2932214372135
 31
0.0
 70
    33
 71
     5
 42
43.00000051813061
 73
     0
 74
     0
 75
     0
  3
QCADDimStyle
100
AcDbAlignedDimension
 13
276.7673757493699
 23
175.7494392540632
 33
0.0
 14
319.76737574937
 24
175.7561145235613
 34
0.0
1001
ACAD
1000
DSTYLE
1002
{
1070
   279
1070
     2
1070
    41
1040
2.5
1070
    79
1070
     2
1070
   176
1070
     0
1070
   177
1070
     0
1070
   178
1070
     0
1070
    44
1040
1.25
1070
    42
1040
0.625
1070
   147
1040
0.625
1070
   140
1040
2.5
1070
    78
1070
     8
1002
}
  0
ENDSEC
  0
SECTION
  2
OBJECTS
  0
DICTIONARY
  5
1C2
330
0
100
AcDbDictionary
281
     1
  3
ACAD_DETAILVIEWSTYLE
350
378
  3
ACAD_GROUP
350
1C3
  3
ACAD_LAYOUT
350
1CF
  3
ACAD_MATERIAL
350
1F8
  3
ACAD_MLEADERSTYLE
350
220
  3
ACAD_MLINESTYLE
350
1CC
  3
ACAD_PLOTSETTINGS
350
1CE
  3
ACAD_PLOTSTYLENAME
350
1C4
  3
ACAD_SCALELIST
350
1FC
  3
ACAD_SECTIONVIEWSTYLE
350
379
  3
ACAD_TABLESTYLE
350
21E
  3
ACAD_VISUALSTYLE
350
1DF
  3
ACDB_RECOMPOSE_DATA
350
375
  3
AcDbVariableDictionary
350
371
  3
QCAD_OBJECTS
350
224
  0
SUN
  5
222
330
1DE
100
AcDbSun
 90
        1
290
     0
 63
     7
421
 16777215
 40
1.0
291
     1
 91
  2455826
 92
 54000000
292
     0
 70
     2
 71
   256
280
     1
  0
DICTIONARY
  5
378
102
{ACAD_REACTORS
330
1C2
102
}
330
1C2
100
AcDbDictionary
281
     1
  0
DICTIONARY
  5
1C3
102
{ACAD_REACTORS
330
1C2
102
}
330
1C2
100
AcDbDictionary
281
     1
  0
DICTIONARY
  5
1CF
102
{ACAD_REACTORS
330
1C2
102
}
330
1C2
100
AcDbDictionary
281
     1
  3
Layout1
350
1D3
  3
Layout2
350
1DB
  3
Model
350
1D7
  0
DICTIONARY
  5
1F8
102
{ACAD_REACTORS
330
1C2
102
}
330
1C2
100
AcDbDictionary
281
     1
  3
ByBlock
350
1FA
  3
ByLayer
350
1F9
  3
Global
350
1FB
  0
DICTIONARY
  5
220
102
{ACAD_REACTORS
330
1C2
102
}
330
1C2
100
AcDbDictionary
281
     1
  3
Standard
350
221
  0
DICTIONARY
  5
1CC
102
{ACAD_REACTORS
330
1C2
102
}
330
1C2
100
AcDbDictionary
281
     1
  3
Standard
350
1CD
  0
DICTIONARY
  5
1CE
102
{ACAD_REACTORS
330
1C2
102
}
330
1C2
100
AcDbDictionary
281
     1
  0
ACDBDICTIONARYWDFLT
  5
1C4
102
{ACAD_REACTORS
330
1C2
102
}
330
1C2
100
AcDbDictionary
281
     1
  3
Normal
350
1C5
100
AcDbDictionaryWithDefault
340
1C5
  0
DICTIONARY
  5
1FC
102
{ACAD_REACTORS
330
1C2
102
}
330
1C2
100
AcDbDictionary
281
     1
  3
A0
350
1FD
  3
A1
350
1FE
  3
A2
350
1FF
  3
A3
350
200
  3
A4
350
201
  3
A5
350
202
  3
A6
350
203
  3
A7
350
204
  3
A8
350
205
  3
A9
350
206
  3
B0
350
207
  3
B1
350
208
  3
B2
350
209
  3
B3
350
20A
  3
B4
350
20B
  3
B5
350
20C
  3
B6
350
20D
  3
B7
350
20E
  3
B8
350
20F
  3
B9
350
210
  3
C0
350
211
  3
C1
350
212
  3
C2
350
213
  3
C3
350
214
  3
C4
350
215
  3
C5
350
216
  3
C6
350
217
  3
C7
350
218
  3
C8
350
219
  3
C9
350
21A
  3
D0
350
21B
  3
D1
350
21C
  3
D2
350
21D
  0
DICTIONARY
  5
379
102
{ACAD_REACTORS
330
1C2
102
}
330
1C2
100
AcDbDictionary
281
     1
  0
DICTIONARY
  5
21E
102
{ACAD_REACTORS
330
1C2
102
}
330
1C2
100
AcDbDictionary
281
     1
  3
Standard
350
21F
  0
DICTIONARY
  5
1DF
102
{ACAD_REACTORS
330
1C2
102
}
330
1C2
100
AcDbDictionary
281
     1
  3
2dWireframe
350
1E4
  3
Basic
350
1E7
  3
Brighten
350
1EB
  3
ColorChange
350
1EF
  3
Conceptual
350
1E9
  3
Dim
350
1EA
  3
EdgeColorOff
350
1F2
  3
Facepattern
350
1EE
  3
Flat
350
1E0
  3
FlatWithEdges
350
1E1
  3
Gouraud
350
1E2
  3
GouraudWithEdges
350
1E3
  3
Hidden
350
1E6
  3
JitterOff
350
1F0
  3
Linepattern
350
1ED
  3
OverhangOff
350
1F1
  3
Realistic
350
1E8
  3
Shaded
350
1F7
  3
Shaded with edges
350
1F6
  3
Shades of Gray
350
1F3
  3
Sketchy
350
1F4
  3
Thicken
350
1EC
  3
Wireframe
350
1E5
  3
X-Ray
350
1F5
  0
XRECORD
  5
375
102
{ACAD_REACTORS
330
1C2
102
}
330
1C2
100
AcDbXrecord
280
     1
 90
        1
330
21F
  0
DICTIONARY
  5
371
102
{ACAD_REACTORS
330
1C2
102
}
330
1C2
100
AcDbDictionary
281
     1
  3
CANNOSCALE
350
372
  3
CMLEADERSTYLE
350
377
  3
CTABLESTYLE
350
376
  0
DICTIONARY
  5
224
102
{ACAD_REACTORS
330
1C2
102
}
330
1C2
100
AcDbDictionary
281
     1
  3
ColorSettings/BackgroundColor
350
226
  3
ColorSettings/ColorMode
350
227
  3
Grid/DisplayGrid00
350
228
  3
Grid/DisplayGrid01
350
229
  3
Grid/DisplayGrid02
350
22A
  3
Grid/DisplayGrid03
350
22B
  3
Grid/GridSpacingX00
350
22C
  3
Grid/GridSpacingX01
350
22D
  3
Grid/GridSpacingX02
350
22E
  3
Grid/GridSpacingX03
350
22F
  3
Grid/GridSpacingY00
350
230
  3
Grid/GridSpacingY01
350
231
  3
Grid/GridSpacingY02
350
232
  3
Grid/GridSpacingY03
350
233
  3
Grid/IsometricGrid00
350
234
  3
Grid/IsometricGrid01
350
235
  3
Grid/IsometricGrid02
350
236
  3
Grid/IsometricGrid03
350
237
  3
Grid/IsometricProjection00
350
238
  3
Grid/IsometricProjection01
350
239
  3
Grid/IsometricProjection02
350
23A
  3
Grid/IsometricProjection03
350
23B
  3
Grid/MetaGridSpacingX00
350
23C
  3
Grid/MetaGridSpacingX01
350
23D
  3
Grid/MetaGridSpacingX02
350
23E
  3
Grid/MetaGridSpacingX03
350
23F
  3
Grid/MetaGridSpacingY00
350
240
  3
Grid/MetaGridSpacingY01
350
241
  3
Grid/MetaGridSpacingY02
350
242
  3
Grid/MetaGridSpacingY03
350
243
  3
MultiPageSettings/Columns
350
244
  3
MultiPageSettings/GlueMarginsBottom
350
245
  3
MultiPageSettings/GlueMarginsLeft
350
246
  3
MultiPageSettings/GlueMarginsRight
350
247
  3
MultiPageSettings/GlueMarginsTop
350
248
  3
MultiPageSettings/PrintCropMarks
350
249
  3
MultiPageSettings/Rows
350
24A
  3
PageSettings/OffsetX
350
24B
  3
PageSettings/OffsetY
350
24C
  3
PageSettings/PageOrientation
350
24D
  3
PageSettings/PaperHeight
350
24E
  3
PageSettings/PaperWidth
350
24F
  3
PageSettings/Scale
350
250
  3
PageSettings/ShowPaperBorders
350
251
  3
QCADVersion
350
252
  3
UnitSettings/PaperUnit
350
253
  0
LAYOUT
  5
1D3
102
{ACAD_REACTORS
330
1CF
102
}
330
1CF
100
AcDbPlotSettings
  1

  2
none_device
  4

  6

 40
0.0
 41
0.0
 42
0.0
 43
0.0
 44
0.0
 45
0.0
 46
0.0
 47
0.0
 48
0.0
 49
0.0
140
0.0
141
0.0
142
1.0
143
1.0
 70
   688
 72
     0
 73
     0
 74
     5
  7

 75
    16
 76
     0
 77
     2
 78
   300
147
1.0
148
0.0
149
0.0
100
AcDbLayout
  1
Layout1
 70
     1
 71
     1
 10
0.0
 20
0.0
 11
12.0
 21
9.0
 12
0.0
 22
0.0
 32
0.0
 14
1.000000000000000E+20
 24
1.000000000000000E+20
 34
1.000000000000000E+20
 15
-1.000000000000000E+20
 25
-1.000000000000000E+20
 35
-1.000000000000000E+20
146
0.0
 13
0.0
 23
0.0
 33
0.0
 16
1.0
 26
0.0
 36
0.0
 17
0.0
 27
1.0
 37
0.0
 76
     0
330
1D0
  0
LAYOUT
  5
1DB
102
{ACAD_REACTORS
330
1CF
102
}
330
1CF
100
AcDbPlotSettings
  1

  2
none_device
  4

  6

 40
0.0
 41
0.0
 42
0.0
 43
0.0
 44
0.0
 45
0.0
 46
0.0
 47
0.0
 48
0.0
 49
0.0
140
0.0
141
0.0
142
1.0
143
1.0
 70
   688
 72
     0
 73
     0
 74
     5
  7

 75
    16
 76
     0
 77
     2
 78
   300
147
1.0
148
0.0
149
0.0
100
AcDbLayout
  1
Layout2
 70
     1
 71
     2
 10
0.0
 20
0.0
 11
0.0
 21
0.0
 12
0.0
 22
0.0
 32
0.0
 14
0.0
 24
0.0
 34
0.0
 15
0.0
 25
0.0
 35
0.0
146
0.0
 13
0.0
 23
0.0
 33
0.0
 16
1.0
 26
0.0
 36
0.0
 17
0.0
 27
1.0
 37
0.0
 76
     0
330
1D8
  0
LAYOUT
  5
1D7
102
{ACAD_REACTORS
330
1CF
102
}
330
1CF
100
AcDbPlotSettings
  1

  2
none_device
  4
Letter_(8.50_x_11.00_Inches)
  6

 40
6.35
 41
6.35
 42
6.35000508
 43
6.35000508
 44
215.9
 45
279.4
 46
0.0
 47
0.0
 48
0.0
 49
0.0
140
0.0
141
0.0
142
1.0
143
1.0
 70
  1712
 72
     0
 73
     0
 74
     0
  7

 75
     0
 76
     0
 77
     2
 78
   300
147
1.0
148
0.0
149
0.0
100
AcDbLayout
  1
Model
 70
     1
 71
     0
 10
0.0
 20
0.0
 11
12.0
 21
9.0
 12
0.0
 22
0.0
 32
0.0
 14
1.000000000000000E+20
 24
1.000000000000000E+20
 34
1.000000000000000E+20
 15
-1.000000000000000E+20
 25
-1.000000000000000E+20
 35
-1.000000000000000E+20
146
0.0
 13
0.0
 23
0.0
 33
0.0
 16
1.0
 26
0.0
 36
0.0
 17
0.0
 27
1.0
 37
0.0
 76
     0
330
1D4
331
1DE
  0
MATERIAL
  5
1FA
102
{ACAD_REACTORS
330
1F8
102
}
330
1F8
100
AcDbMaterial
  1
ByBlock
 72
     1
 94
      127
  0
MATERIAL
  5
1F9
102
{ACAD_REACTORS
330
1F8
102
}
330
1F8
100
AcDbMaterial
  1
ByLayer
 72
     1
 94
      127
  0
MATERIAL
  5
1FB
102
{ACAD_REACTORS
330
1F8
102
}
330
1F8
100
AcDbMaterial
  1
Global
 72
     1
 94
      127
  0
MLEADERSTYLE
  5
221
102
{ACAD_REACTORS
330
220
102
}
330
220
100
AcDbMLeaderStyle
179
     2
170
     2
171
     1
172
     0
 90
        2
 40
0.0
 41
0.0
173
     1
 91
-1056964608
340
1C9
 92
       -2
290
     1
 42
0.09
291
     1
 43
0.36
  3
Standard
341
0
 44
0.18
300

342
1C7
174
     1
178
     6
175
     1
176
     0
 93
-1056964608
 45
0.18
292
     0
297
     0
 46
0.18
343
0
 94
-1056964608
 47
1.0
 49
1.0
140
1.0
293
     1
141
0.0
294
     1
177
     0
142
1.0
295
     0
296
     0
143
0.125
271
     0
272
     9
273
     9
298
     0
  0
MLINESTYLE
  5
1CD
102
{ACAD_REACTORS
330
1CC
102
}
330
1CC
100
AcDbMlineStyle
  2
Standard
 70
     0
  3

 62
   256
 51
90.0
 52
90.0
 71
     2
 49
0.5
 62
   256
  6
BYLAYER
 49
-0.5
 62
   256
  6
BYLAYER
  0
ACDBPLACEHOLDER
  5
1C5
102
{ACAD_REACTORS
330
1C4
102
}
330
1C4
  0
SCALE
  5
1FD
102
{ACAD_REACTORS
330
1FC
102
}
330
1FC
100
AcDbScale
 70
     0
300
1:1
140
1.0
141
1.0
290
     1
  0
SCALE
  5
1FE
102
{ACAD_REACTORS
330
1FC
102
}
330
1FC
100
AcDbScale
 70
     0
300
1:2
140
1.0
141
2.0
290
     0
  0
SCALE
  5
1FF
102
{ACAD_REACTORS
330
1FC
102
}
330
1FC
100
AcDbScale
 70
     0
300
1:4
140
1.0
141
4.0
290
     0
  0
SCALE
  5
200
102
{ACAD_REACTORS
330
1FC
102
}
330
1FC
100
AcDbScale
 70
     0
300
1:5
140
1.0
141
5.0
290
     0
  0
SCALE
  5
201
102
{ACAD_REACTORS
330
1FC
102
}
330
1FC
100
AcDbScale
 70
     0
300
1:8
140
1.0
141
8.0
290
     0
  0
SCALE
  5
202
102
{ACAD_REACTORS
330
1FC
102
}
330
1FC
100
AcDbScale
 70
     0
300
1:10
140
1.0
141
10.0
290
     0
  0
SCALE
  5
203
102
{ACAD_REACTORS
330
1FC
102
}
330
1FC
100
AcDbScale
 70
     0
300
1:16
140
1.0
141
16.0
290
     0
  0
SCALE
  5
204
102
{ACAD_REACTORS
330
1FC
102
}
330
1FC
100
AcDbScale
 70
     0
300
1:20
140
1.0
141
20.0
290
     0
  0
SCALE
  5
205
102
{ACAD_REACTORS
330
1FC
102
}
330
1FC
100
AcDbScale
 70
     0
300
1:30
140
1.0
141
30.0
290
     0
  0
SCALE
  5
206
102
{ACAD_REACTORS
330
1FC
102
}
330
1FC
100
AcDbScale
 70
     0
300
1:40
140
1.0
141
40.0
290
     0
  0
SCALE
  5
207
102
{ACAD_REACTORS
330
1FC
102
}
330
1FC
100
AcDbScale
 70
     0
300
1:50
140
1.0
141
50.0
290
     0
  0
SCALE
  5
208
102
{ACAD_REACTORS
330
1FC
102
}
330
1FC
100
AcDbScale
 70
     0
300
1:100
140
1.0
141
100.0
290
     0
  0
SCALE
  5
209
102
{ACAD_REACTORS
330
1FC
102
}
330
1FC
100
AcDbScale
 70
     0
300
2:1
140
2.0
141
1.0
290
     0
  0
SCALE
  5
20A
102
{ACAD_REACTORS
330
1FC
102
}
330
1FC
100
AcDbScale
 70
     0
300
4:1
140
4.0
141
1.0
290
     0
  0
SCALE
  5
20B
102
{ACAD_REACTORS
330
1FC
102
}
330
1FC
100
AcDbScale
 70
     0
300
8:1
140
8.0
141
1.0
290
     0
  0
SCALE
  5
20C
102
{ACAD_REACTORS
330
1FC
102
}
330
1FC
100
AcDbScale
 70
     0
300
10:1
140
10.0
141
1.0
290
     0
  0
SCALE
  5
20D
102
{ACAD_REACTORS
330
1FC
102
}
330
1FC
100
AcDbScale
 70
     0
300
100:1
140
100.0
141
1.0
290
     0
  0
SCALE
  5
20E
102
{ACAD_REACTORS
330
1FC
102
}
330
1FC
100
AcDbScale
 70
     0
300
1/128" = 1'-0"
140
0.0078125
141
12.0
290
     0
  0
SCALE
  5
20F
102
{ACAD_REACTORS
330
1FC
102
}
330
1FC
100
AcDbScale
 70
     0
300
1/64" = 1'-0"
140
0.015625
141
12.0
290
     0
  0
SCALE
  5
210
102
{ACAD_REACTORS
330
1FC
102
}
330
1FC
100
AcDbScale
 70
     0
300
1/32" = 1'-0"
140
0.03125
141
12.0
290
     0
  0
SCALE
  5
211
102
{ACAD_REACTORS
330
1FC
102
}
330
1FC
100
AcDbScale
 70
     0
300
1/16" = 1'-0"
140
0.0625
141
12.0
290
     0
  0
SCALE
  5
212
102
{ACAD_REACTORS
330
1FC
102
}
330
1FC
100
AcDbScale
 70
     0
300
3/32" = 1'-0"
140
0.09375
141
12.0
290
     0
  0
SCALE
  5
213
102
{ACAD_REACTORS
330
1FC
102
}
330
1FC
100
AcDbScale
 70
     0
300
1/8" = 1'-0"
140
0.125
141
12.0
290
     0
  0
SCALE
  5
214
102
{ACAD_REACTORS
330
1FC
102
}
330
1FC
100
AcDbScale
 70
     0
300
3/16" = 1'-0"
140
0.1875
141
12.0
290
     0
  0
SCALE
  5
215
102
{ACAD_REACTORS
330
1FC
102
}
330
1FC
100
AcDbScale
 70
     0
300
1/4" = 1'-0"
140
0.25
141
12.0
290
     0
  0
SCALE
  5
216
102
{ACAD_REACTORS
330
1FC
102
}
330
1FC
100
AcDbScale
 70
     0
300
3/8" = 1'-0"
140
0.375
141
12.0
290
     0
  0
SCALE
  5
217
102
{ACAD_REACTORS
330
1FC
102
}
330
1FC
100
AcDbScale
 70
     0
300
1/2" = 1'-0"
140
0.5
141
12.0
290
     0
  0
SCALE
  5
218
102
{ACAD_REACTORS
330
1FC
102
}
330
1FC
100
AcDbScale
 70
     0
300
3/4" = 1'-0"
140
0.75
141
12.0
290
     0
  0
SCALE
  5
219
102
{ACAD_REACTORS
330
1FC
102
}
330
1FC
100
AcDbScale
 70
     0
300
1" = 1'-0"
140
1.0
141
12.0
290
     0
  0
SCALE
  5
21A
102
{ACAD_REACTORS
330
1FC
102
}
330
1FC
100
AcDbScale
 70
     0
300
1-1/2" = 1'-0"
140
1.5
141
12.0
290
     0
  0
SCALE
  5
21B
102
{ACAD_REACTORS
330
1FC
102
}
330
1FC
100
AcDbScale
 70
     0
300
3" = 1'-0"
140
3.0
141
12.0
290
     0
  0
SCALE
  5
21C
102
{ACAD_REACTORS
330
1FC
102
}
330
1FC
100
AcDbScale
 70
     0
300
6" = 1'-0"
140
6.0
141
12.0
290
     0
  0
SCALE
  5
21D
102
{ACAD_REACTORS
330
1FC
102
}
330
1FC
100
AcDbScale
 70
     0
300
1'-0" = 1'-0"
140
12.0
141
12.0
290
     0
  0
TABLESTYLE
  5
21F
102
{ACAD_REACTORS
330
21E
102
}
102
{ACAD_XDICTIONARY
360
373
102
}
330
21E
100
AcDbTableStyle
  3
Standard
 70
     0
 71
     0
 40
0.06
 41
0.06
280
     0
281
     0
  7
Standard
140
0.18
170
     2
 62
     0
 63
   257
283
     0
 90
        4
 91
        0
  1

274
    -2
284
     1
 64
     0
275
    -2
285
     1
 65
     0
276
    -2
286
     1
 66
     0
277
    -2
287
     1
 67
     0
278
    -2
288
     1
 68
     0
279
    -2
289
     1
 69
     0
  7
Standard
140
0.25
170
     5
 62
     0
 63
   257
283
     0
 90
        4
 91
        0
  1

274
    -2
284
     1
 64
     0
275
    -2
285
     1
 65
     0
276
    -2
286
     1
 66
     0
277
    -2
287
     1
 67
     0
278
    -2
288
     1
 68
     0
279
    -2
289
     1
 69
     0
  7
Standard
140
0.18
170
     5
 62
     0
 63
   257
283
     0
 90
        4
 91
        0
  1

274
    -2
284
     1
 64
     0
275
    -2
285
     1
 65
     0
276
    -2
286
     1
 66
     0
277
    -2
287
     1
 67
     0
278
    -2
288
     1
 68
     0
279
    -2
289
     1
 69
     0
  0
VISUALSTYLE
  5
1E4
102
{ACAD_REACTORS
330
1DF
102
}
330
1DF
100
AcDbVisualStyle
  2
2dWireframe
 70
     4
177
     3
291
     0
 70
    58
 90
        0
176
     1
 90
        2
176
     1
 90
        0
176
     1
 90
        0
176
     1
 40
0.6
176
     1
 40
30.0
176
     1
 62
     7
420
 16777215
176
     1
 90
        1
176
     1
 90
        4
176
     1
 62
     7
176
     1
 62
   257
176
     1
 90
        1
176
     1
 90
        1
176
     1
 40
1.0
176
     1
 90
        0
176
     1
 62
   257
176
     1
 40
1.0
176
     1
 90
        1
176
     1
 90
        6
176
     1
 90
        2
176
     1
 62
     7
176
     1
 90
        5
176
     1
 90
        0
176
     1
 90
        0
176
     1
290
     0
176
     1
 90
        1
176
     1
 40
0.0
176
     1
 90
        0
176
     1
290
     1
176
     1
290
     1
176
     1
290
     0
176
     1
290
     0
176
     1
290
     0
176
     1
290
     0
176
     1
290
     0
176
     1
290
     0
176
     1
290
     0
176
     1
 90
       50
176
     1
 40
0.0
176
     1
 40
1.0
176
     1
 90
        0
176
     1
 62
    18
420
        0
176
     1
 90
       50
176
     1
 90
        3
176
     1
 62
     5
420
      255
176
     1
290
     0
176
     1
 90
       50
176
     1
 90
       50
176
     1
 90
       50
176
     1
290
     0
176
     1
 90
       50
176
     1
 62
   256
176
     0
 40
1.0
176
     0
 90
        2
176
     1
  1
strokes_ogs.tif
176
     1
290
     0
176
     1
 40
1.0
176
     1
 40
1.0
176
     1
  0
VISUALSTYLE
  5
1E7
102
{ACAD_REACTORS
330
1DF
102
}
330
1DF
100
AcDbVisualStyle
  2
Basic
 70
     7
177
     3
291
     1
 70
    58
 90
        1
176
     1
 90
        0
176
     1
 90
        1
176
     1
 90
        0
176
     1
 40
0.6
176
     1
 40
30.0
176
     1
 62
     7
420
 16777215
176
     1
 90
        0
176
     1
 90
        4
176
     1
 62
     7
176
     1
 62
   257
176
     1
 90
        1
176
     1
 90
        1
176
     1
 40
1.0
176
     1
 90
        8
176
     1
 62
     7
176
     1
 40
1.0
176
     1
 90
        1
176
     1
 90
        6
176
     1
 90
        2
176
     1
 62
     7
176
     1
 90
        5
176
     1
 90
        0
176
     1
 90
        0
176
     1
290
     0
176
     1
 90
        1
176
     1
 40
0.0
176
     1
 90
        0
176
     1
290
     0
176
     1
290
     1
176
     1
290
     1
176
     1
290
     0
176
     1
290
     0
176
     1
290
     0
176
     1
290
     0
176
     1
290
     0
176
     1
290
     0
176
     1
 90
       50
176
     1
 40
0.0
176
     1
 40
1.0
176
     1
 90
        0
176
     1
 62
    18
420
        0
176
     1
 90
       50
176
     1
 90
        3
176
     1
 62
     5
420
      255
176
     1
290
     0
176
     1
 90
       50
176
     1
 90
       50
176
     1
 90
       50
176
     1
290
     0
176
     1
 90
       50
176
     1
 62
   256
176
     0
 40
1.0
176
     0
 90
        2
176
     1
  1
strokes_ogs.tif
176
     1
290
     0
176
     1
 40
1.0
176
     1
 40
1.0
176
     1
  0
VISUALSTYLE
  5
1EB
102
{ACAD_REACTORS
330
1DF
102
}
330
1DF
100
AcDbVisualStyle
  2
Brighten
 70
    12
177
     3
291
     1
 70
    58
 90
        2
176
     1
 90
        2
176
     1
 90
        0
176
     1
 90
        0
176
     1
 40
0.6
176
     1
 40
30.0
176
     1
 62
     7
420
 16777215
176
     1
 90
        1
176
     1
 90
        4
176
     1
 62
     7
176
     1
 62
   257
176
     1
 90
        1
176
     1
 90
        1
176
     1
 40
1.0
176
     1
 90
        8
176
     1
 62
     7
176
     1
 40
1.0
176
     1
 90
        1
176
     1
 90
        6
176
     1
 90
        2
176
     1
 62
     7
176
     1
 90
        5
176
     1
 90
        0
176
     1
 90
        0
176
     1
290
     0
176
     1
 90
        1
176
     1
 40
50.0
176
     1
 90
        0
176
     1
290
     0
176
     1
290
     1
176
     1
290
     1
176
     1
290
     0
176
     1
290
     0
176
     1
290
     0
176
     1
290
     0
176
     1
290
     0
176
     1
290
     0
176
     1
 90
       50
176
     1
 40
0.0
176
     1
 40
1.0
176
     1
 90
        0
176
     1
 62
    18
420
        0
176
     1
 90
       50
176
     1
 90
        3
176
     1
 62
     5
420
      255
176
     1
290
     0
176
     1
 90
       50
176
     1
 90
       50
176
     1
 90
       50
176
     1
290
     0
176
     1
 90
       50
176
     1
 62
   256
176
     0
 40
1.0
176
     0
 90
        2
176
     1
  1
strokes_ogs.tif
176
     1
290
     0
176
     1
 40
1.0
176
     1
 40
1.0
176
     1
  0
VISUALSTYLE
  5
1EF
102
{ACAD_REACTORS
330
1DF
102
}
330
1DF
100
AcDbVisualStyle
  2
ColorChange
 70
    16
177
     3
291
     1
 70
    58
 90
        2
176
     1
 90
        2
176
     1
 90
        3
176
     1
 90
        0
176
     1
 40
0.6
176
     1
 40
30.0
176
     1
 62
     8
420
  8421504
176
     1
 90
        1
176
     1
 90
        4
176
     1
 62
     7
176
     1
 62
   257
176
     1
 90
        1
176
     1
 90
        1
176
     1
 40
1.0
176
     1
 90
        8
176
     1
 62
     8
420
  8421504
176
     1
 40
1.0
176
     1
 90
        1
176
     1
 90
        6
176
     1
 90
        2
176
     1
 62
     7
176
     1
 90
        5
176
     1
 90
        0
176
     1
 90
        0
176
     1
290
     0
176
     1
 90
        1
176
     1
 40
0.0
176
     1
 90
        0
176
     1
290
     0
176
     1
290
     1
176
     1
290
     1
176
     1
290
     0
176
     1
290
     0
176
     1
290
     0
176
     1
290
     0
176
     1
290
     0
176
     1
290
     0
176
     1
 90
       50
176
     1
 40
0.0
176
     1
 40
1.0
176
     1
 90
        0
176
     1
 62
    18
420
        0
176
     1
 90
       50
176
     1
 90
        3
176
     1
 62
     5
420
      255
176
     1
290
     0
176
     1
 90
       50
176
     1
 90
       50
176
     1
 90
       50
176
     1
290
     0
176
     1
 90
       50
176
     1
 62
   256
176
     0
 40
1.0
176
     0
 90
        2
176
     1
  1
strokes_ogs.tif
176
     1
290
     0
176
     1
 40
1.0
176
     1
 40
1.0
176
     1
  0
VISUALSTYLE
  5
1E9
102
{ACAD_REACTORS
330
1DF
102
}
330
1DF
100
AcDbVisualStyle
  2
Conceptual
 70
     9
177
     3
291
     0
 70
    58
 90
        3
176
     1
 90
        2
176
     1
 90
        0
176
     1
 90
        0
176
     1
 40
0.6
176
     1
 40
30.0
176
     1
 62
     7
420
 16777215
176
     1
 90
        2
176
     1
 90
        2
176
     1
 62
     7
176
     1
 62
   257
176
     1
 90
        1
176
     1
 90
        1
176
     1
 40
179.0
176
     1
 90
        8
176
     1
 62
     7
176
     1
 40
1.0
176
     1
 90
        1
176
     1
 90
        6
176
     1
 90
        2
176
     1
 62
     7
176
     1
 90
        3
176
     1
 90
        0
176
     1
 90
        0
176
     1
290
     0
176
     1
 90
        1
176
     1
 40
0.0
176
     1
 90
        0
176
     1
290
     0
176
     1
290
     1
176
     1
290
     1
176
     1
290
     0
176
     1
290
     0
176
     1
290
     0
176
     1
290
     0
176
     1
290
     0
176
     1
290
     0
176
     1
 90
       50
176
     1
 40
0.0
176
     1
 40
1.0
176
     1
 90
        0
176
     1
 62
    18
420
        0
176
     1
 90
       50
176
     1
 90
        3
176
     1
 62
     5
420
      255
176
     1
290
     0
176
     1
 90
       50
176
     1
 90
       50
176
     1
 90
       50
176
     1
290
     0
176
     1
 90
       50
176
     1
 62
   256
176
     0
 40
1.0
176
     0
 90
        2
176
     1
  1
strokes_ogs.tif
176
     1
290
     0
176
     1
 40
1.0
176
     1
 40
1.0
176
     1
  0
VISUALSTYLE
  5
1EA
102
{ACAD_REACTORS
330
1DF
102
}
330
1DF
100
AcDbVisualStyle
  2
Dim
 70
    11
177
     3
291
     1
 70
    58
 90
        2
176
     1
 90
        2
176
     1
 90
        0
176
     1
 90
        0
176
     1
 40
0.6
176
     1
 40
30.0
176
     1
 62
     7
420
 16777215
176
     1
 90
        1
176
     1
 90
        4
176
     1
 62
     7
176
     1
 62
   257
176
     1
 90
        1
176
     1
 90
        1
176
     1
 40
1.0
176
     1
 90
        8
176
     1
 62
     7
176
     1
 40
1.0
176
     1
 90
        1
176
     1
 90
        6
176
     1
 90
        2
176
     1
 62
     7
176
     1
 90
        5
176
     1
 90
        0
176
     1
 90
        0
176
     1
290
     0
176
     1
 90
        1
176
     1
 40
-50.0
176
     1
 90
        0
176
     1
290
     0
176
     1
290
     1
176
     1
290
     1
176
     1
290
     0
176
     1
290
     0
176
     1
290
     0
176
     1
290
     0
176
     1
290
     0
176
     1
290
     0
176
     1
 90
       50
176
     1
 40
0.0
176
     1
 40
1.0
176
     1
 90
        0
176
     1
 62
    18
420
        0
176
     1
 90
       50
176
     1
 90
        3
176
     1
 62
     5
420
      255
176
     1
290
     0
176
     1
 90
       50
176
     1
 90
       50
176
     1
 90
       50
176
     1
290
     0
176
     1
 90
       50
176
     1
 62
   256
176
     0
 40
1.0
176
     0
 90
        2
176
     1
  1
strokes_ogs.tif
176
     1
290
     0
176
     1
 40
1.0
176
     1
 40
1.0
176
     1
  0
VISUALSTYLE
  5
1F2
102
{ACAD_REACTORS
330
1DF
102
}
330
1DF
100
AcDbVisualStyle
  2
EdgeColorOff
 70
    22
177
     3
291
     1
 70
    58
 90
        2
176
     0
 90
        2
176
     0
 90
        0
176
     0
 90
        0
176
     0
 40
0.6
176
     0
 40
30.0
176
     0
 62
     7
420
 16777215
176
     0
 90
        1
176
     0
 90
        4
176
     0
 62
     7
176
     0
 62
   257
176
     0
 90
        1
176
     0
 90
        1
176
     0
 40
1.0
176
     0
 90
        8
176
     2
 62
     7
176
     0
 40
1.0
176
     0
 90
        1
176
     0
 90
        6
176
     0
 90
        2
176
     0
 62
     7
176
     0
 90
        5
176
     0
 90
        0
176
     0
 90
        0
176
     0
290
     0
176
     0
 90
        1
176
     0
 40
0.0
176
     0
 90
        0
176
     0
290
     0
176
     0
290
     1
176
     0
290
     1
176
     0
290
     0
176
     0
290
     0
176
     0
290
     0
176
     0
290
     0
176
     0
290
     0
176
     0
290
     0
176
     0
 90
       50
176
     0
 40
0.0
176
     0
 40
1.0
176
     0
 90
        0
176
     0
 62
    18
420
        0
176
     0
 90
       50
176
     0
 90
        3
176
     0
 62
     5
420
      255
176
     0
290
     0
176
     0
 90
       50
176
     0
 90
       50
176
     0
 90
       50
176
     0
290
     0
176
     0
 90
       50
176
     0
 62
   256
176
     0
 40
1.0
176
     0
 90
        2
176
     0
  1
strokes_ogs.tif
176
     0
290
     0
176
     0
 40
1.0
176
     0
 40
1.0
176
     0
  0
VISUALSTYLE
  5
1EE
102
{ACAD_REACTORS
330
1DF
102
}
330
1DF
100
AcDbVisualStyle
  2
Facepattern
 70
    15
177
     3
291
     1
 70
    58
 90
        2
176
     1
 90
        2
176
     1
 90
        0
176
     1
 90
        0
176
     1
 40
0.6
176
     1
 40
30.0
176
     1
 62
     7
420
 16777215
176
     1
 90
        1
176
     1
 90
        4
176
     1
 62
     7
176
     1
 62
   257
176
     1
 90
        1
176
     1
 90
        1
176
     1
 40
1.0
176
     1
 90
        8
176
     1
 62
     7
176
     1
 40
1.0
176
     1
 90
        1
176
     1
 90
        6
176
     1
 90
        2
176
     1
 62
     7
176
     1
 90
        5
176
     1
 90
        0
176
     1
 90
        0
176
     1
290
     0
176
     1
 90
        1
176
     1
 40
0.0
176
     1
 90
        0
176
     1
290
     0
176
     1
290
     1
176
     1
290
     1
176
     1
290
     0
176
     1
290
     0
176
     1
290
     0
176
     1
290
     0
176
     1
290
     0
176
     1
290
     0
176
     1
 90
       50
176
     1
 40
0.0
176
     1
 40
1.0
176
     1
 90
        0
176
     1
 62
    18
420
        0
176
     1
 90
       50
176
     1
 90
        3
176
     1
 62
     5
420
      255
176
     1
290
     0
176
     1
 90
       50
176
     1
 90
       50
176
     1
 90
       50
176
     1
290
     0
176
     1
 90
       50
176
     1
 62
   256
176
     0
 40
1.0
176
     0
 90
        2
176
     1
  1
strokes_ogs.tif
176
     1
290
     0
176
     1
 40
1.0
176
     1
 40
1.0
176
     1
  0
VISUALSTYLE
  5
1E0
102
{ACAD_REACTORS
330
1DF
102
}
330
1DF
100
AcDbVisualStyle
  2
Flat
 70
     0
177
     3
291
     1
 70
    58
 90
        2
176
     1
 90
        1
176
     1
 90
        1
176
     1
 90
        2
176
     1
 40
0.6
176
     1
 40
30.0
176
     1
 62
     7
420
 16777215
176
     1
 90
        0
176
     1
 90
        0
176
     1
 62
     7
176
     1
 62
   257
176
     1
 90
        1
176
     1
 90
        1
176
     1
 40
1.0
176
     1
 90
        8
176
     1
 62
     7
176
     1
 40
1.0
176
     1
 90
        1
176
     1
 90
        6
176
     1
 90
        2
176
     1
 62
     7
176
     1
 90
        5
176
     1
 90
        0
176
     1
 90
        0
176
     1
290
     0
176
     1
 90
       13
176
     1
 40
0.0
176
     1
 90
        0
176
     1
290
     0
176
     1
290
     1
176
     1
290
     1
176
     1
290
     0
176
     1
290
     0
176
     1
290
     0
176
     1
290
     0
176
     1
290
     0
176
     1
290
     0
176
     1
 90
       50
176
     1
 40
0.0
176
     1
 40
1.0
176
     1
 90
        0
176
     1
 62
    18
420
        0
176
     1
 90
       50
176
     1
 90
        3
176
     1
 62
     5
420
      255
176
     1
290
     0
176
     1
 90
       50
176
     1
 90
       50
176
     1
 90
       50
176
     1
290
     0
176
     1
 90
       50
176
     1
 62
   256
176
     0
 40
1.0
176
     0
 90
        2
176
     1
  1
strokes_ogs.tif
176
     1
290
     0
176
     1
 40
1.0
176
     1
 40
1.0
176
     1
  0
VISUALSTYLE
  5
1E1
102
{ACAD_REACTORS
330
1DF
102
}
330
1DF
100
AcDbVisualStyle
  2
FlatWithEdges
 70
     1
177
     3
291
     1
 70
    58
 90
        2
176
     1
 90
        1
176
     1
 90
        1
176
     1
 90
        2
176
     1
 40
0.6
176
     1
 40
30.0
176
     1
 62
     7
420
 16777215
176
     1
 90
        1
176
     1
 90
        0
176
     1
 62
     7
176
     1
 62
   257
176
     1
 90
        1
176
     1
 90
        1
176
     1
 40
1.0
176
     1
 90
        0
176
     1
 62
   257
176
     1
 40
1.0
176
     1
 90
        1
176
     1
 90
        6
176
     1
 90
        2
176
     1
 62
     7
176
     1
 90
        5
176
     1
 90
        0
176
     1
 90
        0
176
     1
290
     0
176
     1
 90
       13
176
     1
 40
0.0
176
     1
 90
        0
176
     1
290
     0
176
     1
290
     1
176
     1
290
     1
176
     1
290
     0
176
     1
290
     0
176
     1
290
     0
176
     1
290
     0
176
     1
290
     0
176
     1
290
     0
176
     1
 90
       50
176
     1
 40
0.0
176
     1
 40
1.0
176
     1
 90
        0
176
     1
 62
    18
420
        0
176
     1
 90
       50
176
     1
 90
        3
176
     1
 62
     5
420
      255
176
     1
290
     0
176
     1
 90
       50
176
     1
 90
       50
176
     1
 90
       50
176
     1
290
     0
176
     1
 90
       50
176
     1
 62
   256
176
     0
 40
1.0
176
     0
 90
        2
176
     1
  1
strokes_ogs.tif
176
     1
290
     0
176
     1
 40
1.0
176
     1
 40
1.0
176
     1
  0
VISUALSTYLE
  5
1E2
102
{ACAD_REACTORS
330
1DF
102
}
330
1DF
100
AcDbVisualStyle
  2
Gouraud
 70
     2
177
     3
291
     1
 70
    58
 90
        2
176
     1
 90
        2
176
     1
 90
        1
176
     1
 90
        2
176
     1
 40
0.6
176
     1
 40
30.0
176
     1
 62
     7
420
 16777215
176
     1
 90
        0
176
     1
 90
        0
176
     1
 62
     7
176
     1
 62
   257
176
     1
 90
        1
176
     1
 90
        1
176
     1
 40
1.0
176
     1
 90
        0
176
     1
 62
     7
176
     1
 40
1.0
176
     1
 90
        1
176
     1
 90
        6
176
     1
 90
        2
176
     1
 62
     7
176
     1
 90
        5
176
     1
 90
        0
176
     1
 90
        0
176
     1
290
     0
176
     1
 90
       13
176
     1
 40
0.0
176
     1
 90
        0
176
     1
290
     0
176
     1
290
     1
176
     1
290
     1
176
     1
290
     0
176
     1
290
     0
176
     1
290
     0
176
     1
290
     0
176
     1
290
     0
176
     1
290
     0
176
     1
 90
       50
176
     1
 40
0.0
176
     1
 40
1.0
176
     1
 90
        0
176
     1
 62
    18
420
        0
176
     1
 90
       50
176
     1
 90
        3
176
     1
 62
     5
420
      255
176
     1
290
     0
176
     1
 90
       50
176
     1
 90
       50
176
     1
 90
       50
176
     1
290
     0
176
     1
 90
       50
176
     1
 62
   256
176
     0
 40
1.0
176
     0
 90
        2
176
     1
  1
strokes_ogs.tif
176
     1
290
     0
176
     1
 40
1.0
176
     1
 40
1.0
176
     1
  0
VISUALSTYLE
  5
1E3
102
{ACAD_REACTORS
330
1DF
102
}
330
1DF
100
AcDbVisualStyle
  2
GouraudWithEdges
 70
     3
177
     3
291
     1
 70
    58
 90
        2
176
     1
 90
        2
176
     1
 90
        1
176
     1
 90
        2
176
     1
 40
0.6
176
     1
 40
30.0
176
     1
 62
     7
420
 16777215
176
     1
 90
        1
176
     1
 90
        0
176
     1
 62
     7
176
     1
 62
   257
176
     1
 90
        1
176
     1
 90
        1
176
     1
 40
1.0
176
     1
 90
        0
176
     1
 62
   257
176
     1
 40
1.0
176
     1
 90
        1
176
     1
 90
        6
176
     1
 90
        2
176
     1
 62
     7
176
     1
 90
        5
176
     1
 90
        0
176
     1
 90
        0
176
     1
290
     0
176
     1
 90
       13
176
     1
 40
0.0
176
     1
 90
        0
176
     1
290
     0
176
     1
290
     1
176
     1
290
     1
176
     1
290
     0
176
     1
290
     0
176
     1
290
     0
176
     1
290
     0
176
     1
290
     0
176
     1
290
     0
176
     1
 90
       50
176
     1
 40
0.0
176
     1
 40
1.0
176
     1
 90
        0
176
     1
 62
    18
420
        0
176
     1
 90
       50
176
     1
 90
        3
176
     1
 62
     5
420
      255
176
     1
290
     0
176
     1
 90
       50
176
     1
 90
       50
176
     1
 90
       50
176
     1
290
     0
176
     1
 90
       50
176
     1
 62
   256
176
     0
 40
1.0
176
     0
 90
        2
176
     1
  1
strokes_ogs.tif
176
     1
290
     0
176
     1
 40
1.0
176
     1
 40
1.0
176
     1
  0
VISUALSTYLE
  5
1E6
102
{ACAD_REACTORS
330
1DF
102
}
330
1DF
100
AcDbVisualStyle
  2
Hidden
 70
     6
177
     3
291
     0
 70
    58
 90
        1
176
     1
 90
        2
176
     1
 90
        2
176
     1
 90
        0
176
     1
 40
0.6
176
     1
 40
30.0
176
     1
 62
     7
420
 16777215
176
     1
 90
        2
176
     1
 90
        2
176
     1
 62
     7
176
     1
 62
   257
176
     1
 90
        2
176
     1
 90
        1
176
     1
 40
40.0
176
     1
 90
        0
176
     1
 62
   257
176
     1
 40
1.0
176
     1
 90
        1
176
     1
 90
        6
176
     1
 90
        2
176
     1
 62
     7
176
     1
 90
        3
176
     1
 90
        0
176
     1
 90
        0
176
     1
290
     0
176
     1
 90
        1
176
     1
 40
0.0
176
     1
 90
        0
176
     1
290
     0
176
     1
290
     1
176
     1
290
     1
176
     1
290
     0
176
     1
290
     0
176
     1
290
     0
176
     1
290
     0
176
     1
290
     0
176
     1
290
     0
176
     1
 90
       50
176
     1
 40
0.0
176
     1
 40
1.0
176
     1
 90
        0
176
     1
 62
    18
420
        0
176
     1
 90
       50
176
     1
 90
        3
176
     1
 62
     5
420
      255
176
     1
290
     0
176
     1
 90
       50
176
     1
 90
       50
176
     1
 90
       50
176
     1
290
     0
176
     1
 90
       50
176
     1
 62
   256
176
     0
 40
1.0
176
     0
 90
        2
176
     1
  1
strokes_ogs.tif
176
     1
290
     0
176
     1
 40
1.0
176
     1
 40
1.0
176
     1
  0
VISUALSTYLE
  5
1F0
102
{ACAD_REACTORS
330
1DF
102
}
330
1DF
100
AcDbVisualStyle
  2
JitterOff
 70
    20
177
     3
291
     1
 70
    58
 90
        2
176
     0
 90
        2
176
     0
 90
        0
176
     0
 90
        0
176
     0
 40
0.6
176
     0
 40
30.0
176
     0
 62
     7
420
 16777215
176
     0
 90
        1
176
     0
 90
        4
176
     0
 62
     7
176
     0
 62
   257
176
     0
 90
        1
176
     0
 90
        1
176
     0
 40
1.0
176
     0
 90
       10
176
     2
 62
     7
176
     0
 40
1.0
176
     0
 90
        1
176
     0
 90
        6
176
     0
 90
        2
176
     0
 62
     7
176
     0
 90
        5
176
     0
 90
        0
176
     0
 90
        0
176
     0
290
     0
176
     0
 90
        1
176
     0
 40
0.0
176
     0
 90
        0
176
     0
290
     0
176
     0
290
     1
176
     0
290
     1
176
     0
290
     0
176
     0
290
     0
176
     0
290
     0
176
     0
290
     0
176
     0
290
     0
176
     0
290
     0
176
     0
 90
       50
176
     0
 40
0.0
176
     0
 40
1.0
176
     0
 90
        0
176
     0
 62
    18
420
        0
176
     0
 90
       50
176
     0
 90
        3
176
     0
 62
     5
420
      255
176
     0
290
     0
176
     0
 90
       50
176
     0
 90
       50
176
     0
 90
       50
176
     0
290
     0
176
     0
 90
       50
176
     0
 62
   256
176
     0
 40
1.0
176
     0
 90
        2
176
     0
  1
strokes_ogs.tif
176
     0
290
     0
176
     0
 40
1.0
176
     0
 40
1.0
176
     0
  0
VISUALSTYLE
  5
1ED
102
{ACAD_REACTORS
330
1DF
102
}
330
1DF
100
AcDbVisualStyle
  2
Linepattern
 70
    14
177
     3
291
     1
 70
    58
 90
        2
176
     1
 90
        2
176
     1
 90
        0
176
     1
 90
        0
176
     1
 40
0.6
176
     1
 40
30.0
176
     1
 62
     7
420
 16777215
176
     1
 90
        1
176
     1
 90
        4
176
     1
 62
     7
176
     1
 62
   257
176
     1
 90
        7
176
     1
 90
        7
176
     1
 40
1.0
176
     1
 90
        8
176
     1
 62
     7
176
     1
 40
1.0
176
     1
 90
        1
176
     1
 90
        6
176
     1
 90
        2
176
     1
 62
     7
176
     1
 90
        5
176
     1
 90
        0
176
     1
 90
        0
176
     1
290
     0
176
     1
 90
        1
176
     1
 40
0.0
176
     1
 90
        0
176
     1
290
     0
176
     1
290
     1
176
     1
290
     1
176
     1
290
     0
176
     1
290
     0
176
     1
290
     0
176
     1
290
     0
176
     1
290
     0
176
     1
290
     0
176
     1
 90
       50
176
     1
 40
0.0
176
     1
 40
1.0
176
     1
 90
        0
176
     1
 62
    18
420
        0
176
     1
 90
       50
176
     1
 90
        3
176
     1
 62
     5
420
      255
176
     1
290
     0
176
     1
 90
       50
176
     1
 90
       50
176
     1
 90
       50
176
     1
290
     0
176
     1
 90
       50
176
     1
 62
   256
176
     0
 40
1.0
176
     0
 90
        2
176
     1
  1
strokes_ogs.tif
176
     1
290
     0
176
     1
 40
1.0
176
     1
 40
1.0
176
     1
  0
VISUALSTYLE
  5
1F1
102
{ACAD_REACTORS
330
1DF
102
}
330
1DF
100
AcDbVisualStyle
  2
OverhangOff
 70
    21
177
     3
291
     1
 70
    58
 90
        2
176
     0
 90
        2
176
     0
 90
        0
176
     0
 90
        0
176
     0
 40
0.6
176
     0
 40
30.0
176
     0
 62
     7
420
 16777215
176
     0
 90
        1
176
     0
 90
        4
176
     0
 62
     7
176
     0
 62
   257
176
     0
 90
        1
176
     0
 90
        1
176
     0
 40
1.0
176
     0
 90
        9
176
     2
 62
     7
176
     0
 40
1.0
176
     0
 90
        1
176
     0
 90
        6
176
     0
 90
        2
176
     0
 62
     7
176
     0
 90
        5
176
     0
 90
        0
176
     0
 90
        0
176
     0
290
     0
176
     0
 90
        1
176
     0
 40
0.0
176
     0
 90
        0
176
     0
290
     0
176
     0
290
     1
176
     0
290
     1
176
     0
290
     0
176
     0
290
     0
176
     0
290
     0
176
     0
290
     0
176
     0
290
     0
176
     0
290
     0
176
     0
 90
       50
176
     0
 40
0.0
176
     0
 40
1.0
176
     0
 90
        0
176
     0
 62
    18
420
        0
176
     0
 90
       50
176
     0
 90
        3
176
     0
 62
     5
420
      255
176
     0
290
     0
176
     0
 90
       50
176
     0
 90
       50
176
     0
 90
       50
176
     0
290
     0
176
     0
 90
       50
176
     0
 62
   256
176
     0
 40
1.0
176
     0
 90
        2
176
     0
  1
strokes_ogs.tif
176
     0
290
     0
176
     0
 40
1.0
176
     0
 40
1.0
176
     0
  0
VISUALSTYLE
  5
1E8
102
{ACAD_REACTORS
330
1DF
102
}
330
1DF
100
AcDbVisualStyle
  2
Realistic
 70
     8
177
     3
291
     0
 70
    58
 90
        2
176
     1
 90
        3
176
     1
 90
        0
176
     1
 90
        2
176
     1
 40
0.6
176
     1
 40
30.0
176
     1
 62
     7
420
 16777215
176
     1
 90
        0
176
     1
 90
        0
176
     1
 62
     7
176
     1
 62
   257
176
     1
 90
        1
176
     1
 90
        1
176
     1
 40
1.0
176
     1
 90
        8
176
     1
 62
   257
176
     1
 40
1.0
176
     1
 90
        1
176
     1
 90
        6
176
     1
 90
        2
176
     1
 62
     7
176
     1
 90
        3
176
     1
 90
        0
176
     1
 90
        0
176
     1
290
     0
176
     1
 90
       13
176
     1
 40
0.0
176
     1
 90
        0
176
     1
290
     0
176
     1
290
     1
176
     1
290
     1
176
     1
290
     0
176
     1
290
     0
176
     1
290
     0
176
     1
290
     0
176
     1
290
     0
176
     1
290
     0
176
     1
 90
       50
176
     1
 40
0.0
176
     1
 40
1.0
176
     1
 90
        0
176
     1
 62
    18
420
        0
176
     1
 90
       50
176
     1
 90
        3
176
     1
 62
     5
420
      255
176
     1
290
     0
176
     1
 90
       50
176
     1
 90
       50
176
     1
 90
       50
176
     1
290
     0
176
     1
 90
       50
176
     1
 62
   256
176
     0
 40
1.0
176
     0
 90
        2
176
     1
  1
strokes_ogs.tif
176
     1
290
     0
176
     1
 40
1.0
176
     1
 40
1.0
176
     1
  0
VISUALSTYLE
  5
1F7
102
{ACAD_REACTORS
330
1DF
102
}
330
1DF
100
AcDbVisualStyle
  2
Shaded
 70
    27
177
     3
291
     0
 70
    58
 90
        2
176
     1
 90
        2
176
     1
 90
        1
176
     1
 90
        2
176
     1
 40
0.6
176
     1
 40
30.0
176
     1
 62
     7
420
 16777215
176
     1
 90
        0
176
     1
 90
        4
176
     1
 62
     7
176
     1
 62
   257
176
     1
 90
        1
176
     1
 90
        1
176
     1
 40
1.0
176
     1
 90
        8
176
     1
 62
   257
176
     1
 40
1.0
176
     1
 90
        1
176
     1
 90
        6
176
     1
 90
        2
176
     1
 62
     8
420
  7895160
176
     1
 90
        3
176
     1
 90
        0
176
     1
 90
        0
176
     1
290
     0
176
     1
 90
        5
176
     1
 40
0.0
176
     1
 90
        0
176
     1
290
     0
176
     1
290
     1
176
     1
290
     1
176
     1
290
     0
176
     1
290
     0
176
     1
290
     0
176
     1
290
     0
176
     1
290
     0
176
     1
290
     0
176
     1
 90
       50
176
     1
 40
0.0
176
     1
 40
1.0
176
     1
 90
        0
176
     1
 62
    18
420
        0
176
     1
 90
       50
176
     1
 90
        3
176
     1
 62
     5
420
      255
176
     1
290
     0
176
     1
 90
       50
176
     1
 90
       50
176
     1
 90
       50
176
     1
290
     0
176
     1
 90
       50
176
     1
 62
   256
176
     0
 40
1.0
176
     0
 90
        2
176
     1
  1
strokes_ogs.tif
176
     1
290
     0
176
     1
 40
1.0
176
     1
 40
1.0
176
     1
  0
VISUALSTYLE
  5
1F6
102
{ACAD_REACTORS
330
1DF
102
}
330
1DF
100
AcDbVisualStyle
  2
Shaded with edges
 70
    26
177
     3
291
     0
 70
    58
 90
        2
176
     1
 90
        2
176
     1
 90
        1
176
     1
 90
        2
176
     1
 40
0.6
176
     1
 40
30.0
176
     1
 62
     7
420
 16777215
176
     1
 90
        1
176
     1
 90
       10
176
     1
 62
     7
176
     1
 62
   257
176
     1
 90
        2
176
     1
 90
        1
176
     1
 40
1.0
176
     1
 90
        8
176
     1
 62
   257
176
     1
 40
1.0
176
     1
 90
        1
176
     1
 90
        6
176
     1
 90
        2
176
     1
 62
     7
176
     1
 90
        3
176
     1
 90
        0
176
     1
 90
        0
176
     1
290
     0
176
     1
 90
        5
176
     1
 40
0.0
176
     1
 90
        0
176
     1
290
     0
176
     1
290
     1
176
     1
290
     1
176
     1
290
     0
176
     1
290
     0
176
     1
290
     0
176
     1
290
     0
176
     1
290
     0
176
     1
290
     0
176
     1
 90
       50
176
     1
 40
0.0
176
     1
 40
1.0
176
     1
 90
        0
176
     1
 62
    18
420
        0
176
     1
 90
       50
176
     1
 90
        3
176
     1
 62
     5
420
      255
176
     1
290
     0
176
     1
 90
       50
176
     1
 90
       50
176
     1
 90
       50
176
     1
290
     0
176
     1
 90
       50
176
     1
 62
   256
176
     0
 40
1.0
176
     0
 90
        2
176
     1
  1
strokes_ogs.tif
176
     1
290
     0
176
     1
 40
1.0
176
     1
 40
1.0
176
     1
  0
VISUALSTYLE
  5
1F3
102
{ACAD_REACTORS
330
1DF
102
}
330
1DF
100
AcDbVisualStyle
  2
Shades of Gray
 70
    23
177
     3
291
     0
 70
    58
 90
        2
176
     1
 90
        2
176
     1
 90
        3
176
     1
 90
        0
176
     1
 40
0.6
176
     1
 40
30.0
176
     1
 62
     7
420
 16777215
176
     1
 90
        2
176
     1
 90
        2
176
     1
 62
     7
176
     1
 62
     7
176
     1
 90
        1
176
     1
 90
        1
176
     1
 40
40.0
176
     1
 90
        8
176
     1
 62
     7
176
     1
 40
1.0
176
     1
 90
        1
176
     1
 90
        6
176
     1
 90
        2
176
     1
 62
     7
176
     1
 90
        3
176
     1
 90
        0
176
     1
 90
        0
176
     1
290
     0
176
     1
 90
        1
176
     1
 40
0.0
176
     1
 90
        0
176
     1
290
     0
176
     1
290
     1
176
     1
290
     1
176
     1
290
     0
176
     1
290
     0
176
     1
290
     0
176
     1
290
     0
176
     1
290
     0
176
     1
290
     0
176
     1
 90
       50
176
     1
 40
0.0
176
     1
 40
1.0
176
     1
 90
        0
176
     1
 62
    18
420
        0
176
     1
 90
       50
176
     1
 90
        3
176
     1
 62
     5
420
      255
176
     1
290
     0
176
     1
 90
       50
176
     1
 90
       50
176
     1
 90
       50
176
     1
290
     0
176
     1
 90
       50
176
     1
 62
   256
176
     0
 40
1.0
176
     0
 90
        2
176
     1
  1
strokes_ogs.tif
176
     1
290
     0
176
     1
 40
1.0
176
     1
 40
1.0
176
     1
  0
VISUALSTYLE
  5
1F4
102
{ACAD_REACTORS
330
1DF
102
}
330
1DF
100
AcDbVisualStyle
  2
Sketchy
 70
    24
177
     3
291
     0
 70
    58
 90
        1
176
     1
 90
        2
176
     1
 90
        2
176
     1
 90
        0
176
     1
 40
0.6
176
     1
 40
30.0
176
     1
 62
     7
420
 16777215
176
     1
 90
        2
176
     1
 90
        2
176
     1
 62
     7
176
     1
 62
     7
176
     1
 90
        1
176
     1
 90
        1
176
     1
 40
40.0
176
     1
 90
       11
176
     1
 62
     7
176
     1
 40
1.0
176
     1
 90
        1
176
     1
 90
        6
176
     1
 90
        2
176
     1
 62
     7
176
     1
 90
        6
176
     1
 90
        0
176
     1
 90
        0
176
     1
290
     0
176
     1
 90
        1
176
     1
 40
0.0
176
     1
 90
        0
176
     1
290
     0
176
     1
290
     1
176
     1
290
     1
176
     1
290
     0
176
     1
290
     0
176
     1
290
     0
176
     1
290
     0
176
     1
290
     0
176
     1
290
     0
176
     1
 90
       50
176
     1
 40
0.0
176
     1
 40
1.0
176
     1
 90
        0
176
     1
 62
    18
420
        0
176
     1
 90
       50
176
     1
 90
        3
176
     1
 62
     5
420
      255
176
     1
290
     0
176
     1
 90
       50
176
     1
 90
       50
176
     1
 90
       50
176
     1
290
     0
176
     1
 90
       50
176
     1
 62
   256
176
     0
 40
1.0
176
     0
 90
        2
176
     1
  1
strokes_ogs.tif
176
     1
290
     0
176
     1
 40
1.0
176
     1
 40
1.0
176
     1
  0
VISUALSTYLE
  5
1EC
102
{ACAD_REACTORS
330
1DF
102
}
330
1DF
100
AcDbVisualStyle
  2
Thicken
 70
    13
177
     3
291
     1
 70
    58
 90
        2
176
     1
 90
        2
176
     1
 90
        0
176
     1
 90
        0
176
     1
 40
0.6
176
     1
 40
30.0
176
     1
 62
     7
420
 16777215
176
     1
 90
        1
176
     1
 90
        4
176
     1
 62
     7
176
     1
 62
   257
176
     1
 90
        1
176
     1
 90
        1
176
     1
 40
1.0
176
     1
 90
       12
176
     1
 62
     7
176
     1
 40
1.0
176
     1
 90
        1
176
     1
 90
        6
176
     1
 90
        2
176
     1
 62
     7
176
     1
 90
        5
176
     1
 90
        0
176
     1
 90
        0
176
     1
290
     0
176
     1
 90
        1
176
     1
 40
0.0
176
     1
 90
        0
176
     1
290
     0
176
     1
290
     1
176
     1
290
     1
176
     1
290
     0
176
     1
290
     0
176
     1
290
     0
176
     1
290
     0
176
     1
290
     0
176
     1
290
     0
176
     1
 90
       50
176
     1
 40
0.0
176
     1
 40
1.0
176
     1
 90
        0
176
     1
 62
    18
420
        0
176
     1
 90
       50
176
     1
 90
        3
176
     1
 62
     5
420
      255
176
     1
290
     0
176
     1
 90
       50
176
     1
 90
       50
176
     1
 90
       50
176
     1
290
     0
176
     1
 90
       50
176
     1
 62
   256
176
     0
 40
1.0
176
     0
 90
        2
176
     1
  1
strokes_ogs.tif
176
     1
290
     0
176
     1
 40
1.0
176
     1
 40
1.0
176
     1
  0
VISUALSTYLE
  5
1E5
102
{ACAD_REACTORS
330
1DF
102
}
330
1DF
100
AcDbVisualStyle
  2
Wireframe
 70
     5
177
     3
291
     0
 70
    58
 90
        0
176
     1
 90
        2
176
     1
 90
        0
176
     1
 90
        0
176
     1
 40
0.6
176
     1
 40
30.0
176
     1
 62
     7
420
 16777215
176
     1
 90
        1
176
     1
 90
        4
176
     1
 62
     7
176
     1
 62
   257
176
     1
 90
        1
176
     1
 90
        1
176
     1
 40
1.0
176
     1
 90
        0
176
     1
 62
   257
176
     1
 40
1.0
176
     1
 90
        1
176
     1
 90
        6
176
     1
 90
        2
176
     1
 62
     7
176
     1
 90
        3
176
     1
 90
        0
176
     1
 90
        0
176
     1
290
     0
176
     1
 90
        1
176
     1
 40
0.0
176
     1
 90
        0
176
     1
290
     0
176
     1
290
     1
176
     1
290
     1
176
     1
290
     0
176
     1
290
     0
176
     1
290
     0
176
     1
290
     0
176
     1
290
     0
176
     1
290
     0
176
     1
 90
       50
176
     1
 40
0.0
176
     1
 40
1.0
176
     1
 90
        0
176
     1
 62
    18
420
        0
176
     1
 90
       50
176
     1
 90
        3
176
     1
 62
     5
420
      255
176
     1
290
     0
176
     1
 90
       50
176
     1
 90
       50
176
     1
 90
       50
176
     1
290
     0
176
     1
 90
       50
176
     1
 62
   256
176
     0
 40
1.0
176
     0
 90
        2
176
     1
  1
strokes_ogs.tif
176
     1
290
     0
176
     1
 40
1.0
176
     1
 40
1.0
176
     1
  0
VISUALSTYLE
  5
1F5
102
{ACAD_REACTORS
330
1DF
102
}
330
1DF
100
AcDbVisualStyle
  2
X-Ray
 70
    25
177
     3
291
     0
 70
    58
 90
        2
176
     1
 90
        2
176
     1
 90
        1
176
     1
 90
        1
176
     1
 40
0.5
176
     1
 40
30.0
176
     1
 62
     7
420
 16777215
176
     1
 90
        1
176
     1
 90
        0
176
     1
 62
     7
176
     1
 62
   257
176
     1
 90
        1
176
     1
 90
        1
176
     1
 40
1.0
176
     1
 90
        8
176
     1
 62
     7
176
     1
 40
1.0
176
     1
 90
        1
176
     1
 90
        6
176
     1
 90
        2
176
     1
 62
     7
176
     1
 90
        3
176
     1
 90
        0
176
     1
 90
        0
176
     1
290
     0
176
     1
 90
       13
176
     1
 40
0.0
176
     1
 90
        0
176
     1
290
     0
176
     1
290
     1
176
     1
290
     1
176
     1
290
     0
176
     1
290
     0
176
     1
290
     0
176
     1
290
     0
176
     1
290
     0
176
     1
290
     0
176
     1
 90
       50
176
     1
 40
0.0
176
     1
 40
1.0
176
     1
 90
        0
176
     1
 62
    18
420
        0
176
     1
 90
       50
176
     1
 90
        3
176
     1
 62
     5
420
      255
176
     1
290
     0
176
     1
 90
       50
176
     1
 90
       50
176
     1
 90
       50
176
     1
290
     0
176
     1
 90
       50
176
     1
 62
   256
176
     0
 40
1.0
176
     0
 90
        2
176
     1
  1
strokes_ogs.tif
176
     1
290
     0
176
     1
 40
1.0
176
     1
 40
1.0
176
     1
  0
DICTIONARYVAR
  5
372
102
{ACAD_REACTORS
330
371
102
}
330
371
100
DictionaryVariables
280
     0
  1
1:1
  0
DICTIONARYVAR
  5
377
102
{ACAD_REACTORS
330
371
102
}
330
371
100
DictionaryVariables
280
     0
  1
Standard
  0
DICTIONARYVAR
  5
376
102
{ACAD_REACTORS
330
371
102
}
330
371
100
DictionaryVariables
280
     0
  1
Standard
  0
XRECORD
  5
226
102
{ACAD_REACTORS
330
224
102
}
330
224
100
AcDbXrecord
280
     1
1000
#ffffff
  0
XRECORD
  5
227
102
{ACAD_REACTORS
330
224
102
}
330
224
100
AcDbXrecord
280
     1
1000
FullColor
  0
XRECORD
  5
228
102
{ACAD_REACTORS
330
224
102
}
330
224
100
AcDbXrecord
280
     1
290
     1
  0
XRECORD
  5
229
102
{ACAD_REACTORS
330
224
102
}
330
224
100
AcDbXrecord
280
     1
290
     1
  0
XRECORD
  5
22A
102
{ACAD_REACTORS
330
224
102
}
330
224
100
AcDbXrecord
280
     1
290
     1
  0
XRECORD
  5
22B
102
{ACAD_REACTORS
330
224
102
}
330
224
100
AcDbXrecord
280
     1
290
     1
  0
XRECORD
  5
22C
102
{ACAD_REACTORS
330
224
102
}
330
224
100
AcDbXrecord
280
     1
1000
auto
  0
XRECORD
  5
22D
102
{ACAD_REACTORS
330
224
102
}
330
224
100
AcDbXrecord
280
     1
1000
auto
  0
XRECORD
  5
22E
102
{ACAD_REACTORS
330
224
102
}
330
224
100
AcDbXrecord
280
     1
1000
auto
  0
XRECORD
  5
22F
102
{ACAD_REACTORS
330
224
102
}
330
224
100
AcDbXrecord
280
     1
1000
auto
  0
XRECORD
  5
230
102
{ACAD_REACTORS
330
224
102
}
330
224
100
AcDbXrecord
280
     1
1000
auto
  0
XRECORD
  5
231
102
{ACAD_REACTORS
330
224
102
}
330
224
100
AcDbXrecord
280
     1
1000
auto
  0
XRECORD
  5
232
102
{ACAD_REACTORS
330
224
102
}
330
224
100
AcDbXrecord
280
     1
1000
auto
  0
XRECORD
  5
233
102
{ACAD_REACTORS
330
224
102
}
330
224
100
AcDbXrecord
280
     1
1000
auto
  0
XRECORD
  5
234
102
{ACAD_REACTORS
330
224
102
}
330
224
100
AcDbXrecord
280
     1
290
     0
  0
XRECORD
  5
235
102
{ACAD_REACTORS
330
224
102
}
330
224
100
AcDbXrecord
280
     1
290
     0
  0
XRECORD
  5
236
102
{ACAD_REACTORS
330
224
102
}
330
224
100
AcDbXrecord
280
     1
290
     0
  0
XRECORD
  5
237
102
{ACAD_REACTORS
330
224
102
}
330
224
100
AcDbXrecord
280
     1
290
     0
  0
XRECORD
  5
238
102
{ACAD_REACTORS
330
224
102
}
330
224
100
AcDbXrecord
280
     1
 90
        0
  0
XRECORD
  5
239
102
{ACAD_REACTORS
330
224
102
}
330
224
100
AcDbXrecord
280
     1
 90
        0
  0
XRECORD
  5
23A
102
{ACAD_REACTORS
330
224
102
}
330
224
100
AcDbXrecord
280
     1
 90
        0
  0
XRECORD
  5
23B
102
{ACAD_REACTORS
330
224
102
}
330
224
100
AcDbXrecord
280
     1
 90
        0
  0
XRECORD
  5
23C
102
{ACAD_REACTORS
330
224
102
}
330
224
100
AcDbXrecord
280
     1
1000
auto
  0
XRECORD
  5
23D
102
{ACAD_REACTORS
330
224
102
}
330
224
100
AcDbXrecord
280
     1
1000
auto
  0
XRECORD
  5
23E
102
{ACAD_REACTORS
330
224
102
}
330
224
100
AcDbXrecord
280
     1
1000
auto
  0
XRECORD
  5
23F
102
{ACAD_REACTORS
330
224
102
}
330
224
100
AcDbXrecord
280
     1
1000
auto
  0
XRECORD
  5
240
102
{ACAD_REACTORS
330
224
102
}
330
224
100
AcDbXrecord
280
     1
1000
auto
  0
XRECORD
  5
241
102
{ACAD_REACTORS
330
224
102
}
330
224
100
AcDbXrecord
280
     1
1000
auto
  0
XRECORD
  5
242
102
{ACAD_REACTORS
330
224
102
}
330
224
100
AcDbXrecord
280
     1
1000
auto
  0
XRECORD
  5
243
102
{ACAD_REACTORS
330
224
102
}
330
224
100
AcDbXrecord
280
     1
1000
auto
  0
XRECORD
  5
244
102
{ACAD_REACTORS
330
224
102
}
330
224
100
AcDbXrecord
280
     1
 90
        1
  0
XRECORD
  5
245
102
{ACAD_REACTORS
330
224
102
}
330
224
100
AcDbXrecord
280
     1
 40
10.0
  0
XRECORD
  5
246
102
{ACAD_REACTORS
330
224
102
}
330
224
100
AcDbXrecord
280
     1
 40
10.0
  0
XRECORD
  5
247
102
{ACAD_REACTORS
330
224
102
}
330
224
100
AcDbXrecord
280
     1
 40
10.0
  0
XRECORD
  5
248
102
{ACAD_REACTORS
330
224
102
}
330
224
100
AcDbXrecord
280
     1
 40
10.0
  0
XRECORD
  5
249
102
{ACAD_REACTORS
330
224
102
}
330
224
100
AcDbXrecord
280
     1
290
     0
  0
XRECORD
  5
24A
102
{ACAD_REACTORS
330
224
102
}
330
224
100
AcDbXrecord
280
     1
 90
        1
  0
XRECORD
  5
24B
102
{ACAD_REACTORS
330
224
102
}
330
224
100
AcDbXrecord
280
     1
 40
0.0
  0
XRECORD
  5
24C
102
{ACAD_REACTORS
330
224
102
}
330
224
100
AcDbXrecord
280
     1
 40
0.0
  0
XRECORD
  5
24D
102
{ACAD_REACTORS
330
224
102
}
330
224
100
AcDbXrecord
280
     1
1000
Landscape
  0
XRECORD
  5
24E
102
{ACAD_REACTORS
330
224
102
}
330
224
100
AcDbXrecord
280
     1
 40
297.0
  0
XRECORD
  5
24F
102
{ACAD_REACTORS
330
224
102
}
330
224
100
AcDbXrecord
280
     1
 40
210.0
  0
XRECORD
  5
250
102
{ACAD_REACTORS
330
224
102
}
330
224
100
AcDbXrecord
280
     1
1000
1:1
  0
XRECORD
  5
251
102
{ACAD_REACTORS
330
224
102
}
330
224
100
AcDbXrecord
280
     1
290
     1
  0
XRECORD
  5
252
102
{ACAD_REACTORS
330
224
102
}
330
224
100
AcDbXrecord
280
     1
1000
3.12.6
  0
XRECORD
  5
253
102
{ACAD_REACTORS
330
224
102
}
330
224
100
AcDbXrecord
280
     1
 90
        4
  0
DICTIONARY
  5
373
330
21F
100
AcDbDictionary
280
     1
281
     1
  3
ACAD_ROUNDTRIP_2008_TABLESTYLE_CELLSTYLEMAP
360
374
  0
CELLSTYLEMAP
  5
374
102
{ACAD_REACTORS
330
373
102
}
330
373
100
AcDbCellStyleMap
 90
        3
300
CELLSTYLE
  1
TABLEFORMAT_BEGIN
 90
        5
170
     1
 91
        0
 92
    32768
 62
   257
 93
        1
300
CONTENTFORMAT
  1
CONTENTFORMAT_BEGIN
 90
        0
 91
        0
 92
        4
 93
        0
300

 40
0.0
140
1.0
 94
        5
 62
     0
340
1C7
144
0.25
309
CONTENTFORMAT_END
171
     1
301
MARGIN
  1
CELLMARGIN_BEGIN
 40
0.06
 40
0.06
 40
0.06
 40
0.06
 40
0.06
 40
0.06
309
CELLMARGIN_END
 94
        6
 95
        1
302
GRIDFORMAT
  1
GRIDFORMAT_BEGIN
 90
        0
 91
        1
 62
     0
 92
       -2
340
1C9
 93
        0
 40
0.045
309
GRIDFORMAT_END
 95
        2
302
GRIDFORMAT
  1
GRIDFORMAT_BEGIN
 90
        0
 91
        1
 62
     0
 92
       -2
340
1C9
 93
        0
 40
0.045
309
GRIDFORMAT_END
 95
        4
302
GRIDFORMAT
  1
GRIDFORMAT_BEGIN
 90
        0
 91
        1
 62
     0
 92
       -2
340
1C9
 93
        0
 40
0.045
309
GRIDFORMAT_END
 95
        8
302
GRIDFORMAT
  1
GRIDFORMAT_BEGIN
 90
        0
 91
        1
 62
     0
 92
       -2
340
1C9
 93
        0
 40
0.045
309
GRIDFORMAT_END
 95
       16
302
GRIDFORMAT
  1
GRIDFORMAT_BEGIN
 90
        0
 91
        1
 62
     0
 92
       -2
340
1C9
 93
        0
 40
0.045
309
GRIDFORMAT_END
 95
       32
302
GRIDFORMAT
  1
GRIDFORMAT_BEGIN
 90
        0
 91
        1
 62
     0
 92
       -2
340
1C9
 93
        0
 40
0.045
309
GRIDFORMAT_END
309
TABLEFORMAT_END
  1
CELLSTYLE_BEGIN
 90
        1
 91
        1
300
_TITLE
309
CELLSTYLE_END
300
CELLSTYLE
  1
TABLEFORMAT_BEGIN
 90
        5
170
     1
 91
        0
 92
        0
 62
   257
 93
        1
300
CONTENTFORMAT
  1
CONTENTFORMAT_BEGIN
 90
        0
 91
        0
 92
        4
 93
        0
300

 40
0.0
140
1.0
 94
        5
 62
     0
340
1C7
144
0.18
309
CONTENTFORMAT_END
171
     1
301
MARGIN
  1
CELLMARGIN_BEGIN
 40
0.06
 40
0.06
 40
0.06
 40
0.06
 40
0.06
 40
0.06
309
CELLMARGIN_END
 94
        6
 95
        1
302
GRIDFORMAT
  1
GRIDFORMAT_BEGIN
 90
        0
 91
        1
 62
     0
 92
       -2
340
1C9
 93
        0
 40
0.045
309
GRIDFORMAT_END
 95
        2
302
GRIDFORMAT
  1
GRIDFORMAT_BEGIN
 90
        0
 91
        1
 62
     0
 92
       -2
340
1C9
 93
        0
 40
0.045
309
GRIDFORMAT_END
 95
        4
302
GRIDFORMAT
  1
GRIDFORMAT_BEGIN
 90
        0
 91
        1
 62
     0
 92
       -2
340
1C9
 93
        0
 40
0.045
309
GRIDFORMAT_END
 95
        8
302
GRIDFORMAT
  1
GRIDFORMAT_BEGIN
 90
        0
 91
        1
 62
     0
 92
       -2
340
1C9
 93
        0
 40
0.045
309
GRIDFORMAT_END
 95
       16
302
GRIDFORMAT
  1
GRIDFORMAT_BEGIN
 90
        0
 91
        1
 62
     0
 92
       -2
340
1C9
 93
        0
 40
0.045
309
GRIDFORMAT_END
 95
       32
302
GRIDFORMAT
  1
GRIDFORMAT_BEGIN
 90
        0
 91
        1
 62
     0
 92
       -2
340
1C9
 93
        0
 40
0.045
309
GRIDFORMAT_END
309
TABLEFORMAT_END
  1
CELLSTYLE_BEGIN
 90
        2
 91
        1
300
_HEADER
309
CELLSTYLE_END
300
CELLSTYLE
  1
TABLEFORMAT_BEGIN
 90
        5
170
     1
 91
        0
 92
        0
 62
   257
 93
        1
300
CONTENTFORMAT
  1
CONTENTFORMAT_BEGIN
 90
        0
 91
        0
 92
        4
 93
        0
300

 40
0.0
140
1.0
 94
        2
 62
     0
340
1C7
144
0.18
309
CONTENTFORMAT_END
171
     1
301
MARGIN
  1
CELLMARGIN_BEGIN
 40
0.06
 40
0.06
 40
0.06
 40
0.06
 40
0.06
 40
0.06
309
CELLMARGIN_END
 94
        6
 95
        1
302
GRIDFORMAT
  1
GRIDFORMAT_BEGIN
 90
        0
 91
        1
 62
     0
 92
       -2
340
1C9
 93
        0
 40
0.045
309
GRIDFORMAT_END
 95
        2
302
GRIDFORMAT
  1
GRIDFORMAT_BEGIN
 90
        0
 91
        1
 62
     0
 92
       -2
340
1C9
 93
        0
 40
0.045
309
GRIDFORMAT_END
 95
        4
302
GRIDFORMAT
  1
GRIDFORMAT_BEGIN
 90
        0
 91
        1
 62
     0
 92
       -2
340
1C9
 93
        0
 40
0.045
309
GRIDFORMAT_END
 95
        8
302
GRIDFORMAT
  1
GRIDFORMAT_BEGIN
 90
        0
 91
        1
 62
     0
 92
       -2
340
1C9
 93
        0
 40
0.045
309
GRIDFORMAT_END
 95
       16
302
GRIDFORMAT
  1
GRIDFORMAT_BEGIN
 90
        0
 91
        1
 62
     0
 92
       -2
340
1C9
 93
        0
 40
0.045
309
GRIDFORMAT_END
 95
       32
302
GRIDFORMAT
  1
GRIDFORMAT_BEGIN
 90
        0
 91
        1
 62
     0
 92
       -2
340
1C9
 93
        0
 40
0.045
309
GRIDFORMAT_END
309
TABLEFORMAT_END
  1
CELLSTYLE_BEGIN
 90
        3
 91
        2
300
_DATA
309
CELLSTYLE_END
  0
ENDSEC
  0
EOF
