  0
SECTION
  2
HEADER
  9
$ACADVER
  1
AC1015
  9
$ACADMAINTVER
 70
     6
  9
$DWGCODEPAGE
  3
ANSI_1252
  9
$INSBASE
 10
0.0
 20
0.0
 30
0.0
  9
$EXTMIN
 10
0.0
 20
0.0
 30
0.0
  9
$EXTMAX
 10
279.4
 20
215.9
 30
0.0
  9
$LIMMIN
 10
0.0
 20
0.0
  9
$LIMMAX
 10
279.4
 20
215.9
  9
$ORTHOMODE
 70
     0
  9
$REGENMODE
 70
     1
  9
$FILLMODE
 70
     1
  9
$QTEXTMODE
 70
     0
  9
$MIRRTEXT
 70
     1
  9
$LTSCALE
 40
1.0
  9
$ATTMODE
 70
     1
  9
$TEXTSIZE
 40
7.0
  9
$TRACEWID
 40
1.0
  9
$TEXTSTYLE
  7
Standard
  9
$CLAYER
  8
0
  9
$CELTYPE
  6
ByLayer
  9
$CECOLOR
 62
   256
  9
$CELTSCALE
 40
1.0
  9
$DISPSILH
 70
     0
  9
$DIMSCALE
 40
1.0
  9
$DIMASZ
 40
3.0
  9
$DIMEXO
 40
1.0
  9
$DIMDLI
 40
3.75
  9
$DIMRND
 40
0.0
  9
$DIMDLE
 40
0.0
  9
$DIMEXE
 40
1.0
  9
$DIMTP
 40
0.0
  9
$DIMTM
 40
0.0
  9
$DIMTXT
 40
7.0
  9
$DIMCEN
 40
2.5
  9
$DIMTSZ
 40
0.0
  9
$DIMTOL
 70
     0
  9
$DIMLIM
 70
     0
  9
$DIMTIH
 70
     1
  9
$DIMTOH
 70
     1
  9
$DIMSE1
 70
     0
  9
$DIMSE2
 70
     0
  9
$DIMTAD
 70
     1
  9
$DIMZIN
 70
     0
  9
$DIMBLK
  1

  9
$DIMASO
 70
     1
  9
$DIMSHO
 70
     1
  9
$DIMPOST
  1

  9
$DIMAPOST
  1

  9
$DIMALT
 70
     0
  9
$DIMALTD
 70
     3
  9
$DIMALTF
 40
0.0393700787
  9
$DIMLFAC
 40
1.0
  9
$DIMTOFL
 70
     1
  9
$DIMTVP
 40
0.0
  9
$DIMTIX
 70
     0
  9
$DIMSOXD
 70
     0
  9
$DIMSAH
 70
     0
  9
$DIMBLK1
  1

  9
$DIMBLK2
  1

  9
$DIMSTYLE
  2
ISO-25
  9
$DIMCLRD
 70
     0
  9
$DIMCLRE
 70
     0
  9
$DIMCLRT
 70
     0
  9
$DIMTFAC
 40
1.0
  9
$DIMGAP
 40
1.524
  9
$DIMJUST
 70
     0
  9
$DIMSD1
 70
     0
  9
$DIMSD2
 70
     0
  9
$DIMTOLJ
 70
     0
  9
$DIMTZIN
 70
     0
  9
$DIMALTZ
 70
     0
  9
$DIMALTTZ
 70
     0
  9
$DIMUPT
 70
     0
  9
$DIMDEC
 70
     1
  9
$DIMTDEC
 70
     2
  9
$DIMALTU
 70
     2
  9
$DIMALTTD
 70
     3
  9
$DIMTXSTY
  7
Standard
  9
$DIMAUNIT
 70
     0
  9
$DIMADEC
 70
     1
  9
$DIMALTRND
 40
0.0
  9
$DIMAZIN
 70
     0
  9
$DIMDSEP
 70
    44
  9
$DIMATFIT
 70
     3
  9
$DIMFRAC
 70
     0
  9
$DIMLDRBLK
  1

  9
$DIMLUNIT
 70
     2
  9
$DIMLWD
 70
    -2
  9
$DIMLWE
 70
    -2
  9
$DIMTMOVE
 70
     0
  9
$LUNITS
 70
     2
  9
$LUPREC
 70
     2
  9
$SKETCHINC
 40
1.0
  9
$FILLETRAD
 40
10.0
  9
$AUNITS
 70
     0
  9
$AUPREC
 70
     2
  9
$MENU
  1
.
  9
$ELEVATION
 40
0.0
  9
$PELEVATION
 40
0.0
  9
$THICKNESS
 40
0.0
  9
$LIMCHECK
 70
     0
  9
$CHAMFERA
 40
0.0
  9
$CHAMFERB
 40
0.0
  9
$CHAMFERC
 40
0.0
  9
$CHAMFERD
 40
0.0
  9
$SKPOLY
 70
     0
  9
$TDCREATE
 40
2458737.631089584
  9
$TDUCREATE
 40
2458737.54775625
  9
$TDUPDATE
 40
2458737.631090197
  9
$TDUUPDATE
 40
2458737.547756863
  9
$TDINDWG
 40
0.0000000116
  9
$TDUSRTIMER
 40
0.0000000116
  9
$USRTIMER
 70
     1
  9
$ANGBASE
 50
0.0
  9
$ANGDIR
 70
     0
  9
$PDMODE
 70
     0
  9
$PDSIZE
 40
-1.0
  9
$PLINEWID
 40
0.0
  9
$SPLFRAME
 70
     0
  9
$SPLINETYPE
 70
     6
  9
$SPLINESEGS
 70
     8
  9
$HANDSEED
  5
178
  9
$SURFTAB1
 70
     6
  9
$SURFTAB2
 70
     6
  9
$SURFTYPE
 70
     6
  9
$SURFU
 70
     6
  9
$SURFV
 70
     6
  9
$UCSBASE
  2

  9
$UCSNAME
  2

  9
$UCSORG
 10
0.0
 20
0.0
 30
0.0
  9
$UCSXDIR
 10
1.0
 20
0.0
 30
0.0
  9
$UCSYDIR
 10
0.0
 20
1.0
 30
0.0
  9
$UCSORTHOREF
  2

  9
$UCSORTHOVIEW
 70
     0
  9
$UCSORGTOP
 10
0.0
 20
0.0
 30
0.0
  9
$UCSORGBOTTOM
 10
0.0
 20
0.0
 30
0.0
  9
$UCSORGLEFT
 10
0.0
 20
0.0
 30
0.0
  9
$UCSORGRIGHT
 10
0.0
 20
0.0
 30
0.0
  9
$UCSORGFRONT
 10
0.0
 20
0.0
 30
0.0
  9
$UCSORGBACK
 10
0.0
 20
0.0
 30
0.0
  9
$PUCSBASE
  2

  9
$PUCSNAME
  2

  9
$PUCSORG
 10
0.0
 20
0.0
 30
0.0
  9
$PUCSXDIR
 10
1.0
 20
0.0
 30
0.0
  9
$PUCSYDIR
 10
0.0
 20
1.0
 30
0.0
  9
$PUCSORTHOREF
  2

  9
$PUCSORTHOVIEW
 70
     0
  9
$PUCSORGTOP
 10
0.0
 20
0.0
 30
0.0
  9
$PUCSORGBOTTOM
 10
0.0
 20
0.0
 30
0.0
  9
$PUCSORGLEFT
 10
0.0
 20
0.0
 30
0.0
  9
$PUCSORGRIGHT
 10
0.0
 20
0.0
 30
0.0
  9
$PUCSORGFRONT
 10
0.0
 20
0.0
 30
0.0
  9
$PUCSORGBACK
 10
0.0
 20
0.0
 30
0.0
  9
$USERI1
 70
     0
  9
$USERI2
 70
     0
  9
$USERI3
 70
     0
  9
$USERI4
 70
     0
  9
$USERI5
 70
     0
  9
$USERR1
 40
0.0
  9
$USERR2
 40
0.0
  9
$USERR3
 40
0.0
  9
$USERR4
 40
0.0
  9
$USERR5
 40
0.0
  9
$WORLDVIEW
 70
     1
  9
$SHADEDGE
 70
     3
  9
$SHADEDIF
 70
    70
  9
$TILEMODE
 70
     1
  9
$MAXACTVP
 70
    64
  9
$PINSBASE
 10
0.0
 20
0.0
 30
0.0
  9
$PLIMCHECK
 70
     0
  9
$PEXTMIN
 10
1.0000000000E+20
 20
1.0000000000E+20
 30
1.0000000000E+20
  9
$PEXTMAX
 10
-1.0000000000E+20
 20
-1.0000000000E+20
 30
-1.0000000000E+20
  9
$PLIMMIN
 10
0.0
 20
0.0
  9
$PLIMMAX
 10
420.0
 20
297.0
  9
$UNITMODE
 70
     0
  9
$VISRETAIN
 70
     1
  9
$PLINEGEN
 70
     0
  9
$PSLTSCALE
 70
     1
  9
$TREEDEPTH
 70
  3020
  9
$CMLSTYLE
  2
Standard
  9
$CMLJUST
 70
     0
  9
$CMLSCALE
 40
20.0
  9
$PROXYGRAPHICS
 70
     1
  9
$MEASUREMENT
 70
     1
  9
$CELWEIGHT
370
    -1
  9
$ENDCAPS
280
     0
  9
$JOINSTYLE
280
     0
  9
$LWDISPLAY
290
     1
  9
$INSUNITS
 70
     4
  9
$HYPERLINKBASE
  1

  9
$STYLESHEET
  1

  9
$XEDIT
290
     1
  9
$CEPSNTYPE
380
     0
  9
$PSTYLEMODE
290
     1
  9
$FINGERPRINTGUID
  2
{23EB6C86-B25A-4D58-BE66-FCA8303A4128}
  9
$VERSIONGUID
  2
{FAEB1C32-E019-11D5-929B-00C0DF256EC4}
  9
$EXTNAMES
290
     1
  9
$PSVPSCALE
 40
0.0
  9
$OLESTARTUP
290
     0
  0
ENDSEC
  0
SECTION
  2
CLASSES
  0
CLASS
  1
ACDBDICTIONARYWDFLT
  2
AcDbDictionaryWithDefault
  3
ObjectDBX Classes
 90
        0
280
     0
281
     0
  0
CLASS
  1
VISUALSTYLE
  2
AcDbVisualStyle
  3
ObjectDBX Classes
 90
     4095
280
     0
281
     0
  0
CLASS
  1
MATERIAL
  2
AcDbMaterial
  3
ObjectDBX Classes
 90
     1153
280
     0
281
     0
  0
CLASS
  1
SCALE
  2
AcDbScale
  3
ObjectDBX Classes
 90
     1153
280
     0
281
     0
  0
CLASS
  1
TABLESTYLE
  2
AcDbTableStyle
  3
ObjectDBX Classes
 90
     4095
280
     0
281
     0
  0
CLASS
  1
MLEADERSTYLE
  2
AcDbMLeaderStyle
  3
ACDB_MLEADERSTYLE_CLASS
 90
     4095
280
     0
281
     0
  0
CLASS
  1
SUN
  2
AcDbSun
  3
SCENEOE
 90
     1153
280
     0
281
     0
  0
CLASS
  1
ACDBPLACEHOLDER
  2
AcDbPlaceHolder
  3
ObjectDBX Classes
 90
        0
280
     0
281
     0
  0
CLASS
  1
LAYOUT
  2
AcDbLayout
  3
ObjectDBX Classes
 90
        0
280
     0
281
     0
  0
ENDSEC
  0
SECTION
  2
TABLES
  0
TABLE
  2
VPORT
  5
8
330
0
100
AcDbSymbolTable
 70
     1
  0
VPORT
  5
29
330
8
100
AcDbSymbolTableRecord
100
AcDbViewportTableRecord
  2
*Active
 70
     0
 10
0.0
 20
0.0
 11
1.0
 21
1.0
 12
139.7
 22
107.95
 13
0.0
 23
0.0
 14
10.0
 24
10.0
 15
10.0
 25
10.0
 16
0.0
 26
0.0
 36
1.0
 17
0.0
 27
0.0
 37
0.0
 40
215.9
 41
1.2941176471
 42
50.0
 43
0.0
 44
0.0
 50
0.0
 51
0.0
 71
     0
 72
  2000
 73
     1
 74
     3
 75
     0
 76
     0
 77
     0
 78
     0
281
     0
 65
     1
110
0.0
120
0.0
130
0.0
111
1.0
121
0.0
131
0.0
112
0.0
122
1.0
132
0.0
 79
     0
146
0.0
  0
ENDTAB
  0
TABLE
  2
LTYPE
  5
5
330
0
100
AcDbSymbolTable
 70
     6
  0
LTYPE
  5
14
330
5
100
AcDbSymbolTableRecord
100
AcDbLinetypeTableRecord
  2
ByBlock
 70
     0
  3

 72
    65
 73
     0
 40
0.0
  0
LTYPE
  5
15
330
5
100
AcDbSymbolTableRecord
100
AcDbLinetypeTableRecord
  2
ByLayer
 70
     0
  3

 72
    65
 73
     0
 40
0.0
  0
LTYPE
  5
16
330
5
100
AcDbSymbolTableRecord
100
AcDbLinetypeTableRecord
  2
Continuous
 70
     0
  3
Solid line
 72
    65
 73
     0
 40
0.0
  0
LTYPE
  5
6E
330
5
100
AcDbSymbolTableRecord
100
AcDbLinetypeTableRecord
  2
HIDDEN
 70
     0
  3
Hidden __ __ __ __ __ __ __ __ __ __ __ __ __ __
 72
    65
 73
     2
 40
1.905
 49
1.27
 74
     0
 49
-0.635
 74
     0
  0
LTYPE
  5
6F
330
5
100
AcDbSymbolTableRecord
100
AcDbLinetypeTableRecord
  2
PHANTOM
 70
     0
  3
Phantom ______  __  __  ______  __  __  ______
 72
    65
 73
     6
 40
12.7
 49
6.35
 74
     0
 49
-1.27
 74
     0
 49
1.27
 74
     0
 49
-1.27
 74
     0
 49
1.27
 74
     0
 49
-1.27
 74
     0
  0
LTYPE
  5
70
330
5
100
AcDbSymbolTableRecord
100
AcDbLinetypeTableRecord
  2
CENTER
 70
     0
  3
Center ____ _ ____ _ ____ _ ____ _ ____ _ ____
 72
    65
 73
     4
 40
10.16
 49
6.35
 74
     0
 49
-1.27
 74
     0
 49
1.27
 74
     0
 49
-1.27
 74
     0
  0
LTYPE
  5
71
330
5
100
AcDbSymbolTableRecord
100
AcDbLinetypeTableRecord
  2
CENTERX2
 70
     0
  3
Center (2x) ________  __  ________  __  _____
 72
    65
 73
     4
 40
20.32
 49
12.7
 74
     0
 49
-2.54
 74
     0
 49
2.54
 74
     0
 49
-2.54
 74
     0
  0
LTYPE
  5
72
330
5
100
AcDbSymbolTableRecord
100
AcDbLinetypeTableRecord
  2
DOT2
 70
     0
  3
Dot (.5x) ........................................
 72
    65
 73
     2
 40
0.635
 49
0.0
 74
     0
 49
-0.635
 74
     0
  0
ENDTAB
  0
TABLE
  2
LAYER
  5
2
330
0
100
AcDbSymbolTable
 70
     2
  0
LAYER
  5
10
330
2
100
AcDbSymbolTableRecord
100
AcDbLayerTableRecord
  2
0
 70
     0
 62
     7
  6
Continuous
370
    -3
390
F
  0
LAYER
  5
73
330
2
100
AcDbSymbolTableRecord
100
AcDbLayerTableRecord
  2
COTATION
 70
     0
 62
     7
  6
Continuous
370
    -3
390
F
  0
ENDTAB
  0
TABLE
  2
STYLE
  5
3
330
0
100
AcDbSymbolTable
 70
     3
  0
STYLE
  5
11
330
3
100
AcDbSymbolTableRecord
100
AcDbTextStyleTableRecord
  2
Standard
 70
     0
 40
0.0
 41
1.0
 50
0.0
 71
     0
 42
7.0
  3
txt
  4

  0
STYLE
  5
7B
330
3
100
AcDbSymbolTableRecord
100
AcDbTextStyleTableRecord
  2
SLDTEXTSTYLE0
 70
     0
 40
0.0
 41
0.75
 50
0.0
 71
     0
 42
7.0
  3
TXT
  4

  0
STYLE
  5
7D
330
3
100
AcDbSymbolTableRecord
100
AcDbTextStyleTableRecord
  2
SLDTEXTSTYLE1
 70
     0
 40
0.0
 41
0.6875
 50
0.0
 71
     0
 42
7.0
  3
TXT
  4

  0
ENDTAB
  0
TABLE
  2
VIEW
  5
6
330
0
100
AcDbSymbolTable
 70
     0
  0
ENDTAB
  0
TABLE
  2
UCS
  5
7
330
0
100
AcDbSymbolTable
 70
     0
  0
ENDTAB
  0
TABLE
  2
APPID
  5
9
330
0
100
AcDbSymbolTable
 70
     1
  0
APPID
  5
12
330
9
100
AcDbSymbolTableRecord
100
AcDbRegAppTableRecord
  2
ACAD
 70
     0
  0
ENDTAB
  0
TABLE
  2
DIMSTYLE
  5
A
330
0
100
AcDbSymbolTable
 70
     3
100
AcDbDimStyleTable
  0
DIMSTYLE
105
27
330
A
100
AcDbSymbolTableRecord
100
AcDbDimStyleTableRecord
  2
ISO-25
 70
     0
 41
2.5
 42
0.625
 43
3.75
 44
1.25
 73
     0
 74
     0
 77
     1
 78
     8
140
2.5
141
2.5
143
0.0393700787
147
0.625
171
     3
172
     1
178
     0
271
     2
272
     2
274
     3
278
    44
283
     0
284
     8
340
11
  0
DIMSTYLE
105
87
102
{ACAD_REACTORS
330
86
330
9D
102
}
330
A
100
AcDbSymbolTableRecord
100
AcDbDimStyleTableRecord
  2
SLDDIMSTYLE0
 70
     0
 41
3.0
 44
0.0
 45
0.000000001
 73
     0
 74
     0
 77
     1
 78
    12
 79
     3
140
7.0
147
1.75
172
     1
173
     1
178
     0
271
     1
272
     2
276
     2
284
    12
289
     0
340
7B
  0
DIMSTYLE
105
D7
102
{ACAD_REACTORS
330
D6
102
}
330
A
100
AcDbSymbolTableRecord
100
AcDbDimStyleTableRecord
  2
SLDDIMSTYLE1
 70
     0
 41
3.0
 44
0.0
 45
0.000000001
 47
0.05
 48
0.05
 71
     1
 73
     0
 74
     0
 77
     1
 78
    12
 79
     3
140
7.0
147
1.75
172
     1
173
     1
178
     0
271
     1
272
     2
276
     2
284
     8
289
     0
340
7B
  0
ENDTAB
  0
TABLE
  2
BLOCK_RECORD
  5
1
330
0
100
AcDbSymbolTable
 70
    13
  0
BLOCK_RECORD
  5
1F
330
1
100
AcDbSymbolTableRecord
100
AcDbBlockTableRecord
  2
*Model_Space
340
22
  0
BLOCK_RECORD
  5
1B
330
1
100
AcDbSymbolTableRecord
100
AcDbBlockTableRecord
  2
*Paper_Space
340
1E
  0
BLOCK_RECORD
  5
23
330
1
100
AcDbSymbolTableRecord
100
AcDbBlockTableRecord
  2
*Paper_Space0
340
26
  0
BLOCK_RECORD
  5
78
330
1
100
AcDbSymbolTableRecord
100
AcDbBlockTableRecord
  2
SW_NOTE_0
340
0
102
{BLKREFS
331
7F
102
}
  0
BLOCK_RECORD
  5
88
330
1
100
AcDbSymbolTableRecord
100
AcDbBlockTableRecord
  2
_D
340
0
  0
BLOCK_RECORD
  5
9E
330
1
100
AcDbSymbolTableRecord
100
AcDbBlockTableRecord
  2
_D_1
340
0
  0
BLOCK_RECORD
  5
D8
330
1
100
AcDbSymbolTableRecord
100
AcDbBlockTableRecord
  2
_D_2
340
0
  0
BLOCK_RECORD
  5
E3
330
1
100
AcDbSymbolTableRecord
100
AcDbBlockTableRecord
  2
SW_CENTERMARKSYMBOL_0
340
0
102
{BLKREFS
331
EE
102
}
  0
BLOCK_RECORD
  5
EF
330
1
100
AcDbSymbolTableRecord
100
AcDbBlockTableRecord
  2
SW_CENTERMARKSYMBOL_1
340
0
102
{BLKREFS
331
FA
102
}
  0
BLOCK_RECORD
  5
FB
330
1
100
AcDbSymbolTableRecord
100
AcDbBlockTableRecord
  2
SW_CENTERMARKSYMBOL_2
340
0
102
{BLKREFS
331
106
102
}
  0
BLOCK_RECORD
  5
107
330
1
100
AcDbSymbolTableRecord
100
AcDbBlockTableRecord
  2
SW_CENTERMARKSYMBOL_3
340
0
102
{BLKREFS
331
112
102
}
  0
BLOCK_RECORD
  5
141
330
1
100
AcDbSymbolTableRecord
100
AcDbBlockTableRecord
  2
SW_CENTERMARKSYMBOL_4
340
0
102
{BLKREFS
331
14C
102
}
  0
BLOCK_RECORD
  5
14D
330
1
100
AcDbSymbolTableRecord
100
AcDbBlockTableRecord
  2
SW_CENTERMARKSYMBOL_5
340
0
102
{BLKREFS
331
158
102
}
  0
BLOCK_RECORD
  5
159
330
1
100
AcDbSymbolTableRecord
100
AcDbBlockTableRecord
  2
SW_CENTERMARKSYMBOL_6
340
0
102
{BLKREFS
331
164
102
}
  0
BLOCK_RECORD
  5
165
330
1
100
AcDbSymbolTableRecord
100
AcDbBlockTableRecord
  2
SW_CENTERMARKSYMBOL_7
340
0
102
{BLKREFS
331
170
102
}
  0
ENDTAB
  0
ENDSEC
  0
SECTION
  2
BLOCKS
  0
BLOCK
  5
20
330
1F
100
AcDbEntity
  8
0
100
AcDbBlockBegin
  2
*Model_Space
 70
     0
 10
0.0
 20
0.0
 30
0.0
  3
*Model_Space
  1

  0
ENDBLK
  5
21
330
1F
100
AcDbEntity
  8
0
100
AcDbBlockEnd
  0
BLOCK
  5
1C
330
1B
100
AcDbEntity
 67
     1
  8
0
100
AcDbBlockBegin
  2
*Paper_Space
 70
     0
 10
0.0
 20
0.0
 30
0.0
  3
*Paper_Space
  1

  0
ENDBLK
  5
1D
330
1B
100
AcDbEntity
 67
     1
  8
0
100
AcDbBlockEnd
  0
BLOCK
  5
24
330
23
100
AcDbEntity
  8
0
100
AcDbBlockBegin
  2
*Paper_Space0
 70
     0
 10
0.0
 20
0.0
 30
0.0
  3
*Paper_Space0
  1

  0
ENDBLK
  5
25
330
23
100
AcDbEntity
  8
0
100
AcDbBlockEnd
  0
BLOCK
  5
79
330
78
100
AcDbEntity
  8
0
100
AcDbBlockBegin
  2
SW_NOTE_0
 70
     0
 10
0.0
 20
0.0
 30
0.0
  3
SW_NOTE_0
  1

  0
MTEXT
  5
7C
330
78
100
AcDbEntity
  8
COTATION
 62
     0
100
AcDbMText
 10
0.0
 20
4.5117370892
 30
0.0
 40
3.5
 41
0.0
 71
     1
 72
     1
  1
Alliage Alu 2017 - (AU4G)
  7
SLDTEXTSTYLE0
 73
     1
 44
1.0
  0
MTEXT
  5
7E
330
78
100
AcDbEntity
  8
COTATION
 62
     0
100
AcDbMText
 10
0.0
 20
-0.988262881
 30
0.0
 40
3.5
 41
0.0
 71
     1
 72
     1
  1
Ep. 2 mm
  7
SLDTEXTSTYLE1
 73
     1
 44
1.0
  0
ENDBLK
  5
7A
330
78
100
AcDbEntity
  8
0
100
AcDbBlockEnd
  0
BLOCK
  5
89
330
88
100
AcDbEntity
  8
0
100
AcDbBlockBegin
  2
_D
 70
     0
 10
0.0
 20
0.0
 30
0.0
  3
_D
  1

  0
SOLID
  5
8B
330
88
100
AcDbEntity
  8
COTATION
100
AcDbTrace
 10
-32.4297671545
 20
186.4601024715
 30
0.0
 11
-29.4297671545
 21
185.8351024715
 31
0.0
 12
-29.4297671545
 22
187.0851024715
 32
0.0
 13
-29.4297671545
 23
187.0851024715
 33
0.0
  0
SOLID
  5
8C
330
88
100
AcDbEntity
  8
COTATION
100
AcDbTrace
 10
-33.4297671545
 20
186.4601024715
 30
0.0
 11
-36.4297671545
 21
187.0851024715
 31
0.0
 12
-36.4297671545
 22
185.8351024715
 32
0.0
 13
-36.4297671545
 23
185.8351024715
 33
0.0
  0
LINE
  5
8D
330
88
100
AcDbEntity
  8
COTATION
100
AcDbLine
 10
-32.4297671545
 20
184.3499978135
 30
0.0
 11
-32.4297671545
 21
187.4601024715
 31
0.0
  0
LINE
  5
8E
330
88
100
AcDbEntity
  8
COTATION
100
AcDbLine
 10
-32.4297671545
 20
186.4601024715
 30
0.0
 11
-25.5462708043
 21
186.4601024715
 31
0.0
  0
LINE
  5
8F
330
88
100
AcDbEntity
  8
COTATION
100
AcDbLine
 10
-32.4297671545
 20
186.4601024715
 30
0.0
 11
-33.4297671545
 21
186.4601024715
 31
0.0
  0
LINE
  5
90
330
88
100
AcDbEntity
  8
COTATION
100
AcDbLine
 10
-33.4297671545
 20
186.4601024715
 30
0.0
 11
-39.4297671545
 21
186.4601024715
 31
0.0
  0
MTEXT
  5
91
330
88
100
AcDbEntity
  8
COTATION
100
AcDbMText
 10
-30.7184931914
 20
195.4835763006
 30
0.0
 40
7.0
 41
0.0
 71
     1
 72
     1
  1
1
  7
SLDTEXTSTYLE0
 73
     1
 44
1.0
  0
ENDBLK
  5
8A
330
88
100
AcDbEntity
  8
0
100
AcDbBlockEnd
  0
BLOCK
  5
9F
330
9E
100
AcDbEntity
  8
0
100
AcDbBlockBegin
  2
_D_1
 70
     0
 10
0.0
 20
0.0
 30
0.0
  3
_D_1
  1

  0
SOLID
  5
A1
330
9E
100
AcDbEntity
  8
COTATION
100
AcDbTrace
 10
-32.439309277
 20
89.9995747639
 30
0.0
 11
-35.439309277
 21
90.6245747639
 31
0.0
 12
-35.439309277
 22
89.3745747639
 32
0.0
 13
-35.439309277
 23
89.3745747639
 33
0.0
  0
SOLID
  5
A2
330
9E
100
AcDbEntity
  8
COTATION
100
AcDbTrace
 10
-31.439309277
 20
89.9995747639
 30
0.0
 11
-28.439309277
 21
89.3745747639
 31
0.0
 12
-28.439309277
 22
90.6245747639
 32
0.0
 13
-28.439309277
 23
90.6245747639
 33
0.0
  0
LINE
  5
A3
330
9E
100
AcDbEntity
  8
COTATION
100
AcDbLine
 10
-32.439309277
 20
89.9995747639
 30
0.0
 11
-38.439309277
 21
89.9995747639
 31
0.0
  0
LINE
  5
A4
330
9E
100
AcDbEntity
  8
COTATION
100
AcDbLine
 10
-32.439309277
 20
89.9995747639
 30
0.0
 11
-31.439309277
 21
89.9995747639
 31
0.0
  0
LINE
  5
A5
330
9E
100
AcDbEntity
  8
COTATION
100
AcDbLine
 10
-31.439309277
 20
89.9995747639
 30
0.0
 11
-19.9153206919
 21
89.9995747639
 31
0.0
  0
MTEXT
  5
A6
330
9E
100
AcDbEntity
  8
COTATION
100
AcDbMText
 10
-25.0875430789
 20
99.023048593
 30
0.0
 40
7.0
 41
0.0
 71
     1
 72
     1
  1
1
  7
SLDTEXTSTYLE0
 73
     1
 44
1.0
  0
ENDBLK
  5
A0
330
9E
100
AcDbEntity
  8
0
100
AcDbBlockEnd
  0
BLOCK
  5
D9
330
D8
100
AcDbEntity
  8
0
100
AcDbBlockBegin
  2
_D_2
 70
     0
 10
0.0
 20
0.0
 30
0.0
  3
_D_2
  1

  0
SOLID
  5
DB
330
D8
100
AcDbEntity
  8
COTATION
100
AcDbTrace
 10
172.3956014242
 20
154.7880867075
 30
0.0
 11
172.7767608536
 21
157.8287021862
 31
0.0
 12
171.5308279312
 22
157.7279492563
 32
0.0
 13
171.5308279312
 23
157.7279492563
 33
0.0
  0
SOLID
  5
DC
330
D8
100
AcDbEntity
  8
COTATION
100
AcDbTrace
 10
172.7180107999
 20
150.8011013558
 30
0.0
 11
172.3368513705
 21
147.7604858771
 31
0.0
 12
173.5827842929
 22
147.861238807
 32
0.0
 13
173.5827842929
 23
147.861238807
 33
0.0
  0
LINE
  5
DD
330
D8
100
AcDbEntity
  8
COTATION
100
AcDbLine
 10
172.3956014242
 20
154.7880867075
 30
0.0
 11
169.3400447934
 21
192.5737729966
 31
0.0
  0
LINE
  5
DE
330
D8
100
AcDbEntity
  8
COTATION
100
AcDbLine
 10
172.3956014242
 20
154.7880867075
 30
0.0
 11
172.7180107999
 21
150.8011013558
 31
0.0
  0
LINE
  5
DF
330
D8
100
AcDbEntity
  8
COTATION
100
AcDbLine
 10
172.7180107999
 20
150.8011013558
 30
0.0
 11
173.2016248635
 21
144.8206233283
 31
0.0
  0
MTEXT
  5
E0
330
D8
100
AcDbEntity
  8
COTATION
100
AcDbMText
 10
178.3341592879
 20
193.3010861377
 30
0.0
 40
7.0
 41
0.0
 71
     1
 72
     1
  1
4
  7
SLDTEXTSTYLE0
 11
0.08060234393445873
 21
-0.9967463379176625
 31
0.0
 73
     1
 44
1.0
  0
MTEXT
  5
E1
330
D8
100
AcDbEntity
  8
COTATION
100
AcDbMText
 10
178.9626336885
 20
185.5292332775
 30
0.0
 40
7.0
 41
0.0
 71
     1
 72
     1
  1

  7
SLDTEXTSTYLE0
 11
0.08060234393445873
 21
-0.9967463379176625
 31
0.0
 73
     1
 44
1.0
  0
MTEXT
  5
E2
330
D8
100
AcDbEntity
  8
COTATION
100
AcDbMText
 10
176.842700147
 20
185.3968198759
 30
0.0
 40
4.9
 41
0.0
 71
     1
 72
     1
  1
±0,05
  7
SLDTEXTSTYLE0
 11
0.08060234393445873
 21
-0.9967463379176625
 31
0.0
 73
     1
 44
1.0
  0
ENDBLK
  5
DA
330
D8
100
AcDbEntity
  8
0
100
AcDbBlockEnd
  0
BLOCK
  5
E4
330
E3
100
AcDbEntity
  8
0
100
AcDbBlockBegin
  2
SW_CENTERMARKSYMBOL_0
 70
     0
 10
0.0
 20
0.0
 30
0.0
  3
SW_CENTERMARKSYMBOL_0
  1

  0
LINE
  5
E6
330
E3
100
AcDbEntity
  8
COTATION
 62
     0
100
AcDbLine
 10
0.0
 20
0.0
 30
0.0
 11
0.0
 21
2.5
 31
0.0
  0
LINE
  5
E7
330
E3
100
AcDbEntity
  8
COTATION
 62
     0
100
AcDbLine
 10
0.0
 20
0.0
 30
0.0
 11
-2.5
 21
0.0
 31
0.0
  0
LINE
  5
E8
330
E3
100
AcDbEntity
  8
COTATION
 62
     0
100
AcDbLine
 10
0.0
 20
0.0
 30
0.0
 11
0.0
 21
-2.5
 31
0.0
  0
LINE
  5
E9
330
E3
100
AcDbEntity
  8
COTATION
 62
     0
100
AcDbLine
 10
0.0
 20
0.0
 30
0.0
 11
2.5
 21
0.0
 31
0.0
  0
LINE
  5
EA
330
E3
100
AcDbEntity
  8
COTATION
 62
     0
100
AcDbLine
 10
0.0
 20
2.5
 30
0.0
 11
0.0
 21
4.5
 31
0.0
  0
LINE
  5
EB
330
E3
100
AcDbEntity
  8
COTATION
 62
     0
100
AcDbLine
 10
-2.5
 20
0.0
 30
0.0
 11
-4.5
 21
0.0
 31
0.0
  0
LINE
  5
EC
330
E3
100
AcDbEntity
  8
COTATION
 62
     0
100
AcDbLine
 10
0.0
 20
-2.5
 30
0.0
 11
0.0
 21
-4.5
 31
0.0
  0
LINE
  5
ED
330
E3
100
AcDbEntity
  8
COTATION
 62
     0
100
AcDbLine
 10
2.5
 20
0.0
 30
0.0
 11
4.5
 21
0.0
 31
0.0
  0
ENDBLK
  5
E5
330
E3
100
AcDbEntity
  8
0
100
AcDbBlockEnd
  0
BLOCK
  5
F0
330
EF
100
AcDbEntity
  8
0
100
AcDbBlockBegin
  2
SW_CENTERMARKSYMBOL_1
 70
     0
 10
0.0
 20
0.0
 30
0.0
  3
SW_CENTERMARKSYMBOL_1
  1

  0
LINE
  5
F2
330
EF
100
AcDbEntity
  8
COTATION
 62
     0
100
AcDbLine
 10
0.0
 20
0.0
 30
0.0
 11
0.0
 21
2.5
 31
0.0
  0
LINE
  5
F3
330
EF
100
AcDbEntity
  8
COTATION
 62
     0
100
AcDbLine
 10
0.0
 20
0.0
 30
0.0
 11
-2.5
 21
0.0
 31
0.0
  0
LINE
  5
F4
330
EF
100
AcDbEntity
  8
COTATION
 62
     0
100
AcDbLine
 10
0.0
 20
0.0
 30
0.0
 11
0.0
 21
-2.5
 31
0.0
  0
LINE
  5
F5
330
EF
100
AcDbEntity
  8
COTATION
 62
     0
100
AcDbLine
 10
0.0
 20
0.0
 30
0.0
 11
2.5
 21
0.0
 31
0.0
  0
LINE
  5
F6
330
EF
100
AcDbEntity
  8
COTATION
 62
     0
100
AcDbLine
 10
0.0
 20
2.5
 30
0.0
 11
0.0
 21
4.5
 31
0.0
  0
LINE
  5
F7
330
EF
100
AcDbEntity
  8
COTATION
 62
     0
100
AcDbLine
 10
-2.5
 20
0.0
 30
0.0
 11
-4.5
 21
0.0
 31
0.0
  0
LINE
  5
F8
330
EF
100
AcDbEntity
  8
COTATION
 62
     0
100
AcDbLine
 10
0.0
 20
-2.5
 30
0.0
 11
0.0
 21
-4.5
 31
0.0
  0
LINE
  5
F9
330
EF
100
AcDbEntity
  8
COTATION
 62
     0
100
AcDbLine
 10
2.5
 20
0.0
 30
0.0
 11
4.5
 21
0.0
 31
0.0
  0
ENDBLK
  5
F1
330
EF
100
AcDbEntity
  8
0
100
AcDbBlockEnd
  0
BLOCK
  5
FC
330
FB
100
AcDbEntity
  8
0
100
AcDbBlockBegin
  2
SW_CENTERMARKSYMBOL_2
 70
     0
 10
0.0
 20
0.0
 30
0.0
  3
SW_CENTERMARKSYMBOL_2
  1

  0
LINE
  5
FE
330
FB
100
AcDbEntity
  8
COTATION
 62
     0
100
AcDbLine
 10
0.0
 20
0.0
 30
0.0
 11
0.0
 21
2.5
 31
0.0
  0
LINE
  5
FF
330
FB
100
AcDbEntity
  8
COTATION
 62
     0
100
AcDbLine
 10
0.0
 20
0.0
 30
0.0
 11
-2.5
 21
0.0
 31
0.0
  0
LINE
  5
100
330
FB
100
AcDbEntity
  8
COTATION
 62
     0
100
AcDbLine
 10
0.0
 20
0.0
 30
0.0
 11
0.0
 21
-2.5
 31
0.0
  0
LINE
  5
101
330
FB
100
AcDbEntity
  8
COTATION
 62
     0
100
AcDbLine
 10
0.0
 20
0.0
 30
0.0
 11
2.5
 21
0.0
 31
0.0
  0
LINE
  5
102
330
FB
100
AcDbEntity
  8
COTATION
 62
     0
100
AcDbLine
 10
0.0
 20
2.5
 30
0.0
 11
0.0
 21
4.5
 31
0.0
  0
LINE
  5
103
330
FB
100
AcDbEntity
  8
COTATION
 62
     0
100
AcDbLine
 10
-2.5
 20
0.0
 30
0.0
 11
-4.5
 21
0.0
 31
0.0
  0
LINE
  5
104
330
FB
100
AcDbEntity
  8
COTATION
 62
     0
100
AcDbLine
 10
0.0
 20
-2.5
 30
0.0
 11
0.0
 21
-4.5
 31
0.0
  0
LINE
  5
105
330
FB
100
AcDbEntity
  8
COTATION
 62
     0
100
AcDbLine
 10
2.5
 20
0.0
 30
0.0
 11
4.5
 21
0.0
 31
0.0
  0
ENDBLK
  5
FD
330
FB
100
AcDbEntity
  8
0
100
AcDbBlockEnd
  0
BLOCK
  5
108
330
107
100
AcDbEntity
  8
0
100
AcDbBlockBegin
  2
SW_CENTERMARKSYMBOL_3
 70
     0
 10
0.0
 20
0.0
 30
0.0
  3
SW_CENTERMARKSYMBOL_3
  1

  0
LINE
  5
10A
330
107
100
AcDbEntity
  8
COTATION
 62
     0
100
AcDbLine
 10
0.0
 20
0.0
 30
0.0
 11
0.0
 21
2.5
 31
0.0
  0
LINE
  5
10B
330
107
100
AcDbEntity
  8
COTATION
 62
     0
100
AcDbLine
 10
0.0
 20
0.0
 30
0.0
 11
-2.5
 21
0.0
 31
0.0
  0
LINE
  5
10C
330
107
100
AcDbEntity
  8
COTATION
 62
     0
100
AcDbLine
 10
0.0
 20
0.0
 30
0.0
 11
0.0
 21
-2.5
 31
0.0
  0
LINE
  5
10D
330
107
100
AcDbEntity
  8
COTATION
 62
     0
100
AcDbLine
 10
0.0
 20
0.0
 30
0.0
 11
2.5
 21
0.0
 31
0.0
  0
LINE
  5
10E
330
107
100
AcDbEntity
  8
COTATION
 62
     0
100
AcDbLine
 10
0.0
 20
2.5
 30
0.0
 11
0.0
 21
4.5
 31
0.0
  0
LINE
  5
10F
330
107
100
AcDbEntity
  8
COTATION
 62
     0
100
AcDbLine
 10
-2.5
 20
0.0
 30
0.0
 11
-4.5
 21
0.0
 31
0.0
  0
LINE
  5
110
330
107
100
AcDbEntity
  8
COTATION
 62
     0
100
AcDbLine
 10
0.0
 20
-2.5
 30
0.0
 11
0.0
 21
-4.5
 31
0.0
  0
LINE
  5
111
330
107
100
AcDbEntity
  8
COTATION
 62
     0
100
AcDbLine
 10
2.5
 20
0.0
 30
0.0
 11
4.5
 21
0.0
 31
0.0
  0
ENDBLK
  5
109
330
107
100
AcDbEntity
  8
0
100
AcDbBlockEnd
  0
BLOCK
  5
142
330
141
100
AcDbEntity
  8
0
100
AcDbBlockBegin
  2
SW_CENTERMARKSYMBOL_4
 70
     0
 10
0.0
 20
0.0
 30
0.0
  3
SW_CENTERMARKSYMBOL_4
  1

  0
LINE
  5
144
330
141
100
AcDbEntity
  8
COTATION
 62
     0
100
AcDbLine
 10
0.0
 20
0.0
 30
0.0
 11
0.0
 21
2.5
 31
0.0
  0
LINE
  5
145
330
141
100
AcDbEntity
  8
COTATION
 62
     0
100
AcDbLine
 10
0.0
 20
0.0
 30
0.0
 11
-2.5
 21
0.0
 31
0.0
  0
LINE
  5
146
330
141
100
AcDbEntity
  8
COTATION
 62
     0
100
AcDbLine
 10
0.0
 20
0.0
 30
0.0
 11
0.0
 21
-2.5
 31
0.0
  0
LINE
  5
147
330
141
100
AcDbEntity
  8
COTATION
 62
     0
100
AcDbLine
 10
0.0
 20
0.0
 30
0.0
 11
2.5
 21
0.0
 31
0.0
  0
LINE
  5
148
330
141
100
AcDbEntity
  8
COTATION
 62
     0
100
AcDbLine
 10
0.0
 20
2.5
 30
0.0
 11
0.0
 21
4.5000000014
 31
0.0
  0
LINE
  5
149
330
141
100
AcDbEntity
  8
COTATION
 62
     0
100
AcDbLine
 10
-2.5
 20
0.0
 30
0.0
 11
-4.5000000014
 21
0.0
 31
0.0
  0
LINE
  5
14A
330
141
100
AcDbEntity
  8
COTATION
 62
     0
100
AcDbLine
 10
0.0
 20
-2.5
 30
0.0
 11
0.0
 21
-4.5000000014
 31
0.0
  0
LINE
  5
14B
330
141
100
AcDbEntity
  8
COTATION
 62
     0
100
AcDbLine
 10
2.5
 20
0.0
 30
0.0
 11
4.5000000014
 21
0.0
 31
0.0
  0
ENDBLK
  5
143
330
141
100
AcDbEntity
  8
0
100
AcDbBlockEnd
  0
BLOCK
  5
14E
330
14D
100
AcDbEntity
  8
0
100
AcDbBlockBegin
  2
SW_CENTERMARKSYMBOL_5
 70
     0
 10
0.0
 20
0.0
 30
0.0
  3
SW_CENTERMARKSYMBOL_5
  1

  0
LINE
  5
150
330
14D
100
AcDbEntity
  8
COTATION
 62
     0
100
AcDbLine
 10
0.0
 20
0.0
 30
0.0
 11
0.0
 21
2.5
 31
0.0
  0
LINE
  5
151
330
14D
100
AcDbEntity
  8
COTATION
 62
     0
100
AcDbLine
 10
0.0
 20
0.0
 30
0.0
 11
-2.5
 21
0.0
 31
0.0
  0
LINE
  5
152
330
14D
100
AcDbEntity
  8
COTATION
 62
     0
100
AcDbLine
 10
0.0
 20
0.0
 30
0.0
 11
0.0
 21
-2.5
 31
0.0
  0
LINE
  5
153
330
14D
100
AcDbEntity
  8
COTATION
 62
     0
100
AcDbLine
 10
0.0
 20
0.0
 30
0.0
 11
2.5
 21
0.0
 31
0.0
  0
LINE
  5
154
330
14D
100
AcDbEntity
  8
COTATION
 62
     0
100
AcDbLine
 10
0.0
 20
2.5
 30
0.0
 11
0.0
 21
4.5
 31
0.0
  0
LINE
  5
155
330
14D
100
AcDbEntity
  8
COTATION
 62
     0
100
AcDbLine
 10
-2.5
 20
0.0
 30
0.0
 11
-4.5
 21
0.0
 31
0.0
  0
LINE
  5
156
330
14D
100
AcDbEntity
  8
COTATION
 62
     0
100
AcDbLine
 10
0.0
 20
-2.5
 30
0.0
 11
0.0
 21
-4.5
 31
0.0
  0
LINE
  5
157
330
14D
100
AcDbEntity
  8
COTATION
 62
     0
100
AcDbLine
 10
2.5
 20
0.0
 30
0.0
 11
4.5
 21
0.0
 31
0.0
  0
ENDBLK
  5
14F
330
14D
100
AcDbEntity
  8
0
100
AcDbBlockEnd
  0
BLOCK
  5
15A
330
159
100
AcDbEntity
  8
0
100
AcDbBlockBegin
  2
SW_CENTERMARKSYMBOL_6
 70
     0
 10
0.0
 20
0.0
 30
0.0
  3
SW_CENTERMARKSYMBOL_6
  1

  0
LINE
  5
15C
330
159
100
AcDbEntity
  8
COTATION
 62
     0
100
AcDbLine
 10
0.0
 20
0.0
 30
0.0
 11
0.0
 21
2.5
 31
0.0
  0
LINE
  5
15D
330
159
100
AcDbEntity
  8
COTATION
 62
     0
100
AcDbLine
 10
0.0
 20
0.0
 30
0.0
 11
-2.5
 21
0.0
 31
0.0
  0
LINE
  5
15E
330
159
100
AcDbEntity
  8
COTATION
 62
     0
100
AcDbLine
 10
0.0
 20
0.0
 30
0.0
 11
0.0
 21
-2.5
 31
0.0
  0
LINE
  5
15F
330
159
100
AcDbEntity
  8
COTATION
 62
     0
100
AcDbLine
 10
0.0
 20
0.0
 30
0.0
 11
2.5
 21
0.0
 31
0.0
  0
LINE
  5
160
330
159
100
AcDbEntity
  8
COTATION
 62
     0
100
AcDbLine
 10
0.0
 20
2.5
 30
0.0
 11
0.0
 21
4.5
 31
0.0
  0
LINE
  5
161
330
159
100
AcDbEntity
  8
COTATION
 62
     0
100
AcDbLine
 10
-2.5
 20
0.0
 30
0.0
 11
-4.5
 21
0.0
 31
0.0
  0
LINE
  5
162
330
159
100
AcDbEntity
  8
COTATION
 62
     0
100
AcDbLine
 10
0.0
 20
-2.5
 30
0.0
 11
0.0
 21
-4.5
 31
0.0
  0
LINE
  5
163
330
159
100
AcDbEntity
  8
COTATION
 62
     0
100
AcDbLine
 10
2.5
 20
0.0
 30
0.0
 11
4.5
 21
0.0
 31
0.0
  0
ENDBLK
  5
15B
330
159
100
AcDbEntity
  8
0
100
AcDbBlockEnd
  0
BLOCK
  5
166
330
165
100
AcDbEntity
  8
0
100
AcDbBlockBegin
  2
SW_CENTERMARKSYMBOL_7
 70
     0
 10
0.0
 20
0.0
 30
0.0
  3
SW_CENTERMARKSYMBOL_7
  1

  0
LINE
  5
168
330
165
100
AcDbEntity
  8
COTATION
 62
     0
100
AcDbLine
 10
0.0
 20
0.0
 30
0.0
 11
0.0
 21
2.5
 31
0.0
  0
LINE
  5
169
330
165
100
AcDbEntity
  8
COTATION
 62
     0
100
AcDbLine
 10
0.0
 20
0.0
 30
0.0
 11
-2.5
 21
0.0
 31
0.0
  0
LINE
  5
16A
330
165
100
AcDbEntity
  8
COTATION
 62
     0
100
AcDbLine
 10
0.0
 20
0.0
 30
0.0
 11
0.0
 21
-2.5
 31
0.0
  0
LINE
  5
16B
330
165
100
AcDbEntity
  8
COTATION
 62
     0
100
AcDbLine
 10
0.0
 20
0.0
 30
0.0
 11
2.5
 21
0.0
 31
0.0
  0
LINE
  5
16C
330
165
100
AcDbEntity
  8
COTATION
 62
     0
100
AcDbLine
 10
0.0
 20
2.5
 30
0.0
 11
0.0
 21
4.5000000014
 31
0.0
  0
LINE
  5
16D
330
165
100
AcDbEntity
  8
COTATION
 62
     0
100
AcDbLine
 10
-2.5
 20
0.0
 30
0.0
 11
-4.5000000014
 21
0.0
 31
0.0
  0
LINE
  5
16E
330
165
100
AcDbEntity
  8
COTATION
 62
     0
100
AcDbLine
 10
0.0
 20
-2.5
 30
0.0
 11
0.0
 21
-4.5000000014
 31
0.0
  0
LINE
  5
16F
330
165
100
AcDbEntity
  8
COTATION
 62
     0
100
AcDbLine
 10
2.5
 20
0.0
 30
0.0
 11
4.5000000014
 21
0.0
 31
0.0
  0
ENDBLK
  5
167
330
165
100
AcDbEntity
  8
0
100
AcDbBlockEnd
  0
ENDSEC
  0
SECTION
  2
ENTITIES
  0
LINE
  5
74
330
1F
100
AcDbEntity
  8
COTATION
100
AcDbLine
 10
4.662610887
 20
210.4634758668
 30
0.0
 11
274.6758953454
 21
210.4634758668
 31
0.0
  0
LINE
  5
75
330
1F
100
AcDbEntity
  8
COTATION
100
AcDbLine
 10
4.662610887
 20
210.4634758668
 30
0.0
 11
4.662610887
 21
4.569441016
 31
0.0
  0
LINE
  5
76
330
1F
100
AcDbEntity
  8
COTATION
100
AcDbLine
 10
274.6758953454
 20
210.4634758668
 30
0.0
 11
274.6758953454
 21
4.569441016
 31
0.0
  0
LINE
  5
77
330
1F
100
AcDbEntity
  8
COTATION
100
AcDbLine
 10
4.662610887
 20
4.569441016
 30
0.0
 11
274.6758953454
 21
4.569441016
 31
0.0
  0
INSERT
  5
7F
330
1F
100
AcDbEntity
  8
COTATION
100
AcDbBlockReference
  2
SW_NOTE_0
 10
19.9222444209
 20
44.4697177182
 30
0.0
  0
MTEXT
  5
80
330
1F
100
AcDbEntity
  8
COTATION
100
AcDbMText
 10
19.9222444209
 20
34.6590933571
 30
0.0
 40
3.5
 41
0.0
 71
     1
 72
     1
  1
Version du 10/09/2019
  7
SLDTEXTSTYLE0
 73
     1
 44
1.0
  0
MTEXT
  5
81
330
1F
100
AcDbEntity
  8
COTATION
100
AcDbMText
 10
19.9222444209
 20
57.7643465136
 30
0.0
 40
5.0
 41
0.0
 71
     1
 72
     1
  1
Glissières extérieures
  7
SLDTEXTSTYLE0
 73
     1
 44
1.0
  0
LINE
  5
82
330
1F
100
AcDbEntity
  8
0
  6
Continuous
 62
     7
370
    15
100
AcDbLine
 10
-34.4297671547
 20
156.5800547692
 30
0.0
 11
-32.4297671547
 21
156.5800547691
 31
0.0
  0
LINE
  5
83
330
1F
100
AcDbEntity
  8
0
  6
Continuous
 62
     7
370
    15
100
AcDbLine
 10
-34.4297671544
 20
188.1537376624
 30
0.0
 11
-34.4297671547
 21
156.5800547692
 31
0.0
  0
LINE
  5
84
330
1F
100
AcDbEntity
  8
0
  6
Continuous
 62
     7
370
    15
100
AcDbLine
 10
-34.4297671544
 20
188.1537376624
 30
0.0
 11
-32.4297671544
 21
188.1537376624
 31
0.0
  0
LINE
  5
85
330
1F
100
AcDbEntity
  8
0
  6
Continuous
 62
     7
370
    15
100
AcDbLine
 10
-32.4297671544
 20
188.1537376624
 30
0.0
 11
-32.4297671547
 21
156.5800547691
 31
0.0
  0
DIMENSION
  5
86
330
1F
100
AcDbEntity
  8
COTATION
100
AcDbDimension
  2
_D
 10
-33.4297671545
 20
186.4601024715
 30
0.0
 11
-28.1323819979
 21
186.4601024715
 31
0.0
 70
   160
  1
<>
 71
     2
 42
-1.0
  3
SLDDIMSTYLE0
100
AcDbAlignedDimension
 13
-32.4297671545
 23
183.3499978135
 33
0.0
 14
-33.4297671545
 24
192.2988189399
 34
0.0
100
AcDbRotatedDimension
  0
LINE
  5
92
330
1F
100
AcDbEntity
  8
0
  6
CENTER
 62
     7
370
     0
100
AcDbLine
 10
-33.4297671545
 20
192.2988189399
 30
0.0
 11
-33.4297671545
 21
152.3126623049
 31
0.0
  0
LINE
  5
93
330
1F
100
AcDbEntity
  8
0
  6
Continuous
 62
     7
370
     0
100
AcDbLine
 10
-45.4297671545
 20
190.2988189399
 30
0.0
 11
-33.4297671545
 21
190.2988189399
 31
0.0
  0
SOLID
  5
94
330
1F
100
AcDbEntity
  8
0
  6
Continuous
 62
     7
370
     0
100
AcDbTrace
 10
-33.4297671545
 20
190.2988189399
 30
0.0
 11
-39.4297671545
 21
191.7988189399
 31
0.0
 12
-39.4297671545
 22
188.7988189399
 32
0.0
 13
-39.4297671545
 23
188.7988189399
 33
0.0
  0
LINE
  5
95
330
1F
100
AcDbEntity
  8
0
  6
Continuous
 62
     7
370
     0
100
AcDbLine
 10
-45.4297671545
 20
154.3126623049
 30
0.0
 11
-33.4297671545
 21
154.3126623049
 31
0.0
  0
SOLID
  5
96
330
1F
100
AcDbEntity
  8
0
  6
Continuous
 62
     7
370
     0
100
AcDbTrace
 10
-33.4297671545
 20
154.3126623049
 30
0.0
 11
-39.4297671545
 21
155.8126623049
 31
0.0
 12
-39.4297671545
 22
152.8126623049
 32
0.0
 13
-39.4297671545
 23
152.8126623049
 33
0.0
  0
MTEXT
  5
97
330
1F
100
AcDbEntity
  8
0
  6
Continuous
 62
     7
100
AcDbMText
 10
-45.4297671545
 20
200.3836349265
 30
0.0
 40
6.35
 41
0.0
 71
     1
 72
     1
  1
E
  7
SLDTEXTSTYLE0
 73
     1
 44
1.0
  0
MTEXT
  5
98
330
1F
100
AcDbEntity
  8
0
  6
Continuous
 62
     7
100
AcDbMText
 10
-45.4297671545
 20
164.3974782915
 30
0.0
 40
6.35
 41
0.0
 71
     1
 72
     1
  1
E
  7
SLDTEXTSTYLE0
 73
     1
 44
1.0
  0
LINE
  5
99
330
1F
100
AcDbEntity
  8
0
  6
Continuous
 62
     7
370
    15
100
AcDbLine
 10
-31.439309277
 20
98.4070268289
 30
0.0
 11
-33.439309277
 21
98.4070268289
 31
0.0
  0
LINE
  5
9A
330
1F
100
AcDbEntity
  8
0
  6
Continuous
 62
     7
370
    15
100
AcDbLine
 10
-31.439309277
 20
98.4070268289
 30
0.0
 11
-31.439309277
 21
60.9844709591
 31
0.0
  0
LINE
  5
9B
330
1F
100
AcDbEntity
  8
0
  6
Continuous
 62
     7
370
    15
100
AcDbLine
 10
-31.439309277
 20
60.9844709591
 30
0.0
 11
-33.439309277
 21
60.9844709591
 31
0.0
  0
LINE
  5
9C
330
1F
100
AcDbEntity
  8
0
  6
Continuous
 62
     7
370
    15
100
AcDbLine
 10
-33.439309277
 20
98.4070268289
 30
0.0
 11
-33.439309277
 21
60.9844709591
 31
0.0
  0
DIMENSION
  5
9D
330
1F
100
AcDbEntity
  8
COTATION
100
AcDbDimension
  2
_D_1
 10
-31.439309277
 20
89.9995747639
 30
0.0
 11
-22.5014318854
 21
89.9995747639
 31
0.0
 70
   160
  1
<>
 71
     2
 42
-1.0
  3
SLDDIMSTYLE0
100
AcDbAlignedDimension
 13
-32.439309277
 23
108.2296585771
 33
0.0
 14
-31.439309277
 24
98.4070268289
 34
0.0
100
AcDbRotatedDimension
  0
LINE
  5
A7
330
1F
100
AcDbEntity
  8
0
  6
CENTER
 62
     7
370
     0
100
AcDbLine
 10
-32.439309277
 20
108.2296585771
 30
0.0
 11
-32.439309277
 21
55.1680147647
 31
0.0
  0
LINE
  5
A8
330
1F
100
AcDbEntity
  8
0
  6
Continuous
 62
     7
370
     0
100
AcDbLine
 10
-44.439309277
 20
106.2296585771
 30
0.0
 11
-32.439309277
 21
106.2296585771
 31
0.0
  0
SOLID
  5
A9
330
1F
100
AcDbEntity
  8
0
  6
Continuous
 62
     7
370
     0
100
AcDbTrace
 10
-32.439309277
 20
106.2296585771
 30
0.0
 11
-38.439309277
 21
107.7296585771
 31
0.0
 12
-38.439309277
 22
104.7296585771
 32
0.0
 13
-38.439309277
 23
104.7296585771
 33
0.0
  0
LINE
  5
AA
330
1F
100
AcDbEntity
  8
0
  6
Continuous
 62
     7
370
     0
100
AcDbLine
 10
-44.439309277
 20
57.1680147647
 30
0.0
 11
-32.439309277
 21
57.1680147647
 31
0.0
  0
SOLID
  5
AB
330
1F
100
AcDbEntity
  8
0
  6
Continuous
 62
     7
370
     0
100
AcDbTrace
 10
-32.439309277
 20
57.1680147647
 30
0.0
 11
-38.439309277
 21
58.6680147647
 31
0.0
 12
-38.439309277
 22
55.6680147647
 32
0.0
 13
-38.439309277
 23
55.6680147647
 33
0.0
  0
MTEXT
  5
AC
330
1F
100
AcDbEntity
  8
0
  6
Continuous
 62
     7
100
AcDbMText
 10
-44.439309277
 20
116.3144745637
 30
0.0
 40
6.35
 41
0.0
 71
     1
 72
     1
  1
F
  7
SLDTEXTSTYLE0
 73
     1
 44
1.0
  0
MTEXT
  5
AD
330
1F
100
AcDbEntity
  8
0
  6
Continuous
 62
     7
100
AcDbMText
 10
-44.439309277
 20
67.2528307513
 30
0.0
 40
6.35
 41
0.0
 71
     1
 72
     1
  1
F
  7
SLDTEXTSTYLE0
 73
     1
 44
1.0
  0
ARC
  5
AE
330
1F
100
AcDbEntity
  8
0
  6
Continuous
 62
     7
370
    15
100
AcDbCircle
 10
109.8587560853
 20
139.1835263155
 30
0.0
 40
2.000000000000012
100
AcDbArc
 50
92.3023358502
 51
272.3023358501
  0
LINE
  5
AF
330
1F
100
AcDbEntity
  8
0
  6
Continuous
 62
     7
370
    15
100
AcDbLine
 10
149.503843033
 20
142.7790721533
 30
0.0
 11
109.7784110294
 21
141.1819118319
 31
0.0
  0
LINE
  5
B0
330
1F
100
AcDbEntity
  8
0
  6
Continuous
 62
     7
370
    15
100
AcDbLine
 10
189.2541777019
 20
139.3837394418
 30
0.0
 11
149.503843033
 21
142.7790721533
 31
0.0
  0
LINE
  5
B1
330
1F
100
AcDbEntity
  8
0
  6
Continuous
 62
     7
370
    15
100
AcDbLine
 10
192.3143544777
 20
138.6912351591
 30
0.0
 11
189.2541777019
 21
139.3837394418
 31
0.0
  0
ARC
  5
B2
330
1F
100
AcDbEntity
  8
0
  6
Continuous
 62
     7
370
    15
100
AcDbCircle
 10
191.8729250594
 20
136.7405583359
 30
0.0
 40
2.000000000000012
100
AcDbArc
 50
257.2489852405
 51
77.2489852405
  0
LINE
  5
B3
330
1F
100
AcDbEntity
  8
0
  6
Continuous
 62
     7
370
    15
100
AcDbLine
 10
188.6396419472
 20
135.4216654851
 30
0.0
 11
191.431495641
 21
134.7898815127
 31
0.0
  0
LINE
  5
B4
330
1F
100
AcDbEntity
  8
0
  6
Continuous
 62
     7
370
    15
100
AcDbLine
 10
149.4136207978
 20
138.7722131939
 30
0.0
 11
188.6396419472
 21
135.4216654851
 31
0.0
  0
LINE
  5
B5
330
1F
100
AcDbEntity
  8
0
  6
Continuous
 62
     7
370
    15
100
AcDbLine
 10
109.9391011412
 20
137.1851407992
 30
0.0
 11
149.4136207978
 21
138.7722131939
 31
0.0
  0
SPLINE
  5
B6
330
1F
100
AcDbEntity
  8
0
  6
Continuous
 62
     7
370
    15
100
AcDbSpline
210
0.0
220
0.0
230
1.0
 70
     8
 71
     3
 72
    11
 73
     7
 74
     0
 42
0.000000001
 43
0.00000001
 40
0.0
 40
0.0
 40
0.0
 40
0.0
 40
0.4215800251675252
 40
0.7210242111826743
 40
0.9274302613637347
 40
1.0
 40
1.0
 40
1.0
 40
1.0
 10
144.9112747172362
 20
131.2320760060538
 30
0.0
 10
132.9435410618269
 20
131.822349361349
 30
0.0
 10
112.4845802377258
 20
133.0258018883418
 30
0.0
 10
86.18679242608718
 20
134.8163326052978
 30
0.0
 10
69.79452659774643
 20
136.1103107655482
 30
0.0
 10
61.91533836155138
 20
137.0030108658718
 30
0.0
 10
59.86519413021995
 20
137.2291184802406
 30
0.0
  0
LINE
  5
B7
330
1F
100
AcDbEntity
  8
0
  6
Continuous
 62
     7
370
    15
100
AcDbLine
 10
144.9112747172
 20
131.2320760061
 30
0.0
 11
144.8353798267
 21
133.2391790887
 31
0.0
  0
SPLINE
  5
B8
330
1F
100
AcDbEntity
  8
0
  6
Continuous
 62
     7
370
    15
100
AcDbSpline
210
0.0
220
0.0
230
1.0
 70
     8
 71
     3
 72
     8
 73
     4
 74
     0
 42
0.000000001
 43
0.00000001
 40
0.2779069763326554
 40
0.2779069763326554
 40
0.2779069763326554
 40
0.2779069763326554
 40
1.0
 40
1.0
 40
1.0
 40
1.0
 10
191.9268955820519
 20
131.3959110451939
 30
0.0
 10
176.2230335404018
 20
131.8143874335637
 30
0.0
 10
160.5250443454602
 20
132.4605466095199
 30
0.0
 10
144.8353798267123
 20
133.2391790887276
 30
0.0
  0
LINE
  5
B9
330
1F
100
AcDbEntity
  8
0
  6
Continuous
 62
     7
370
    15
100
AcDbLine
 10
191.9268955821
 20
131.3959110452
 30
0.0
 11
191.8331431608
 21
133.9155516977
 31
0.0
  0
LINE
  5
BA
330
1F
100
AcDbEntity
  8
0
  6
Continuous
 62
     7
370
    15
100
AcDbLine
 10
196.9017313032
 20
134.0823647599
 30
0.0
 11
191.8331431608
 21
133.9155516977
 31
0.0
  0
LINE
  5
BB
330
1F
100
AcDbEntity
  8
0
  6
Continuous
 62
     7
370
    15
100
AcDbLine
 10
197.0037379887
 20
131.3408868517
 30
0.0
 11
196.9017313032
 21
134.0823647599
 31
0.0
  0
LINE
  5
BC
330
1F
100
AcDbEntity
  8
0
  6
Continuous
 62
     7
370
    15
100
AcDbLine
 10
197.0066468417
 20
131.2686110607
 30
0.0
 11
197.0037379887
 21
131.3408868517
 31
0.0
  0
SPLINE
  5
BD
330
1F
100
AcDbEntity
  8
0
  6
Continuous
 62
     7
370
    15
100
AcDbSpline
210
0.0
220
0.0
230
1.0
 70
     8
 71
     3
 72
     8
 73
     4
 74
     0
 42
0.000000001
 43
0.00000001
 40
0.0
 40
0.0
 40
0.0
 40
0.0
 40
0.2000512391175944
 40
0.2000512391175944
 40
0.2000512391175944
 40
0.2000512391175944
 10
210.0608776402862
 20
131.0193430131504
 30
0.0
 10
205.7090716617985
 20
131.0828193991825
 30
0.0
 10
201.3576440170706
 20
131.1665835921273
 30
0.0
 10
197.006646841723
 20
131.2686110606512
 30
0.0
  0
LINE
  5
BE
330
1F
100
AcDbEntity
  8
0
  6
Continuous
 62
     7
370
    15
100
AcDbLine
 10
210.0608776403
 20
131.0193430132
 30
0.0
 11
208.8669772237
 21
162.5930259064
 31
0.0
  0
SPLINE
  5
BF
330
1F
100
AcDbEntity
  8
0
  6
Continuous
 62
     7
370
    15
100
AcDbSpline
210
0.0
220
0.0
230
1.0
 70
     8
 71
     3
 72
     8
 73
     4
 74
     0
 42
0.000000001
 43
0.00000001
 40
0.882956457113027
 40
0.882956457113027
 40
0.882956457113027
 40
0.882956457113027
 40
1.0
 40
1.0
 40
1.0
 40
1.0
 10
195.8897521615187
 20
161.2822363662344
 30
0.0
 10
200.2106442806447
 20
161.762468065964
 30
0.0
 10
204.5363854671284
 20
162.2007482804281
 30
0.0
 10
208.8669772236613
 20
162.5930259063762
 30
0.0
  0
LINE
  5
C0
330
1F
100
AcDbEntity
  8
0
  6
Continuous
 62
     7
370
    15
100
AcDbLine
 10
195.8921776351
 20
161.2145969749
 30
0.0
 11
195.8897521615
 21
161.2822363662
 31
0.0
  0
LINE
  5
C1
330
1F
100
AcDbEntity
  8
0
  6
Continuous
 62
     7
370
    15
100
AcDbLine
 10
195.8921776351
 20
161.2145969749
 30
0.0
 11
195.9941677765
 21
158.4735636963
 31
0.0
  0
LINE
  5
C2
330
1F
100
AcDbEntity
  8
0
  6
Continuous
 62
     7
370
    15
100
AcDbLine
 10
190.9274771189
 20
158.2557548347
 30
0.0
 11
195.9941677765
 21
158.4735636963
 31
0.0
  0
LINE
  5
C3
330
1F
100
AcDbEntity
  8
0
  6
Continuous
 62
     7
370
    15
100
AcDbLine
 10
190.8364758202
 20
160.7014577697
 30
0.0
 11
190.9274771189
 21
158.2557548347
 31
0.0
  0
SPLINE
  5
C4
330
1F
100
AcDbEntity
  8
0
  6
Continuous
 62
     7
370
    15
100
AcDbSpline
210
0.0
220
0.0
230
1.0
 70
     8
 71
     3
 72
     9
 73
     5
 74
     0
 42
0.000000001
 43
0.00000001
 40
0.0
 40
0.0
 40
0.0
 40
0.0
 40
0.475998680534769
 40
0.8373090677895839
 40
0.8373090677895839
 40
0.8373090677895839
 40
0.8373090677895839
 10
98.93220940933156
 20
144.8023602399299
 30
0.0
 10
116.2040050382124
 20
148.5803284357014
 30
0.0
 10
146.7328897622668
 20
154.5631554403238
 30
0.0
 10
177.5096688695391
 20
159.1198837284294
 30
0.0
 10
190.8364758201628
 20
160.7014577696554
 30
0.0
  0
LINE
  5
C5
330
1F
100
AcDbEntity
  8
0
  6
Continuous
 62
     7
370
    15
100
AcDbLine
 10
98.9322094093
 20
144.8023602399
 30
0.0
 11
98.5880733164
 21
146.2633658433
 31
0.0
  0
LINE
  5
C6
330
1F
100
AcDbEntity
  8
0
  6
Continuous
 62
     7
370
    15
100
AcDbLine
 10
98.5880733164
 20
146.2633658433
 30
0.0
 11
59.8651941302
 21
137.2291184802
 31
0.0
  0
ARC
  5
C7
330
1F
100
AcDbEntity
  8
0
  6
Continuous
 62
     7
370
    15
100
AcDbCircle
 10
85.8684245664
 20
138.9862699499
 30
0.0
 40
2.000000000000056
100
AcDbArc
 50
101.1997181217
 51
281.1997181217
  0
LINE
  5
C8
330
1F
100
AcDbEntity
  8
0
  6
Continuous
 62
     7
370
    15
100
AcDbLine
 10
126.141249887
 20
148.9991253993
 30
0.0
 11
85.479965516
 21
140.9481821718
 31
0.0
  0
LINE
  5
C9
330
1F
100
AcDbEntity
  8
0
  6
Continuous
 62
     7
370
    15
100
AcDbLine
 10
167.2914379216
 20
154.3753362147
 30
0.0
 11
126.141249887
 21
148.9991253993
 31
0.0
  0
LINE
  5
CA
330
1F
100
AcDbEntity
  8
0
  6
Continuous
 62
     7
370
    15
100
AcDbLine
 10
200.8117851905
 20
157.0859742743
 30
0.0
 11
167.2914379216
 21
154.3753362147
 31
0.0
  0
LINE
  5
CB
330
1F
100
AcDbEntity
  8
0
  6
Continuous
 62
     7
370
    15
100
AcDbLine
 10
202.4445420443
 20
157.6717871765
 30
0.0
 11
200.8117851905
 21
157.0859742743
 31
0.0
  0
ARC
  5
CC
330
1F
100
AcDbEntity
  8
0
  6
Continuous
 62
     7
370
    15
100
AcDbCircle
 10
203.1199600904
 20
155.7892860575
 30
0.0
 40
2.000000000000064
100
AcDbArc
 50
289.7373566963
 51
109.7373566963
  0
LINE
  5
CD
330
1F
100
AcDbEntity
  8
0
  6
Continuous
 62
     7
370
    15
100
AcDbLine
 10
201.6631327522
 20
153.1417617486
 30
0.0
 11
203.7953781364
 21
153.9067849385
 31
0.0
  0
LINE
  5
CE
330
1F
100
AcDbEntity
  8
0
  6
Continuous
 62
     7
370
    15
100
AcDbLine
 10
167.7119924245
 20
150.3962874132
 30
0.0
 11
201.6631327522
 21
153.1417617486
 31
0.0
  0
LINE
  5
CF
330
1F
100
AcDbEntity
  8
0
  6
Continuous
 62
     7
370
    15
100
AcDbLine
 10
126.7895003637
 20
145.0498247379
 30
0.0
 11
167.7119924245
 21
150.3962874132
 31
0.0
  0
LINE
  5
D0
330
1F
100
AcDbEntity
  8
0
  6
Continuous
 62
     7
370
    15
100
AcDbLine
 10
86.2568836168
 20
137.0243577281
 30
0.0
 11
126.7895003637
 21
145.0498247379
 31
0.0
  0
LINE
  5
D1
330
1F
100
AcDbEntity
  8
COTATION
100
AcDbLine
 10
126.141249887
 20
148.9991253993
 30
0.0
 11
126.7895003637
 21
145.0498247379
 31
0.0
  0
LINE
  5
D2
330
1F
100
AcDbEntity
  8
COTATION
100
AcDbLine
 10
167.2914379216
 20
154.3753362147
 30
0.0
 11
167.7119924245
 21
150.3962874132
 31
0.0
  0
LINE
  5
D3
330
1F
100
AcDbEntity
  8
COTATION
100
AcDbLine
 10
149.503843033
 20
142.7790721533
 30
0.0
 11
149.4136207978
 21
138.7722131939
 31
0.0
  0
LINE
  5
D4
330
1F
100
AcDbEntity
  8
COTATION
100
AcDbLine
 10
200.8117851905
 20
157.0859742743
 30
0.0
 11
201.6631327522
 21
153.1417617486
 31
0.0
  0
LINE
  5
D5
330
1F
100
AcDbEntity
  8
COTATION
100
AcDbLine
 10
189.2541777019
 20
139.3837394418
 30
0.0
 11
188.6396419472
 21
135.4216654851
 31
0.0
  0
DIMENSION
  5
D6
330
1F
100
AcDbEntity
  8
COTATION
100
AcDbDimension
  2
_D_2
 10
172.7180107999
 20
150.8011013558
 30
0.0
 11
170.3079501815
 21
180.6044417839
 31
0.0
 70
   160
  1
<>
 71
     2
 42
-1.0
  3
SLDDIMSTYLE1
100
AcDbAlignedDimension
 13
167.2914379216
 23
154.3753362147
 33
0.0
 14
167.7119924245
 24
150.3962874132
 34
0.0
 50
-85.3768106866
100
AcDbRotatedDimension
  0
INSERT
  5
EE
330
1F
100
AcDbEntity
  8
COTATION
100
AcDbBlockReference
  2
SW_CENTERMARKSYMBOL_0
 10
109.8587560853
 20
139.1835263155
 30
0.0
  0
INSERT
  5
FA
330
1F
100
AcDbEntity
  8
COTATION
100
AcDbBlockReference
  2
SW_CENTERMARKSYMBOL_1
 10
191.8729250594
 20
136.7405583359
 30
0.0
  0
INSERT
  5
106
330
1F
100
AcDbEntity
  8
COTATION
100
AcDbBlockReference
  2
SW_CENTERMARKSYMBOL_2
 10
203.1199600904
 20
155.7892860575
 30
0.0
  0
INSERT
  5
112
330
1F
100
AcDbEntity
  8
COTATION
100
AcDbBlockReference
  2
SW_CENTERMARKSYMBOL_3
 10
85.8684245664
 20
138.9862699499
 30
0.0
  0
LINE
  5
113
330
1F
100
AcDbEntity
  8
COTATION
  6
CENTERX2
370
     0
100
AcDbLine
 10
83.9065123446
 20
138.5978108995
 30
0.0
 11
126.4653751253
 21
147.0244750686
 31
0.0
  0
LINE
  5
114
330
1F
100
AcDbEntity
  8
COTATION
  6
CENTERX2
370
     0
100
AcDbLine
 10
126.4653751253
 20
147.0244750686
 30
0.0
 11
167.5017151731
 21
152.3858118139
 31
0.0
  0
LINE
  5
115
330
1F
100
AcDbEntity
  8
COTATION
  6
CENTERX2
370
     0
100
AcDbLine
 10
167.5017151731
 20
152.3858118139
 30
0.0
 11
201.2374589713
 21
155.1138680115
 31
0.0
  0
LINE
  5
116
330
1F
100
AcDbEntity
  8
COTATION
  6
CENTERX2
370
     0
100
AcDbLine
 10
201.2374589713
 20
155.1138680115
 30
0.0
 11
207.6644694086
 21
157.419799619
 31
0.0
  0
LINE
  5
117
330
1F
100
AcDbEntity
  8
COTATION
  6
CENTERX2
370
     0
100
AcDbLine
 10
107.8603705689
 20
139.1031812597
 30
0.0
 11
149.4587319154
 21
140.7756426736
 31
0.0
  0
LINE
  5
118
330
1F
100
AcDbEntity
  8
COTATION
  6
CENTERX2
370
     0
100
AcDbLine
 10
149.4587319154
 20
140.7756426736
 30
0.0
 11
188.9469098246
 21
137.4027024634
 31
0.0
  0
LINE
  5
119
330
1F
100
AcDbEntity
  8
COTATION
  6
CENTERX2
370
     0
100
AcDbLine
 10
188.9469098246
 20
137.4027024634
 30
0.0
 11
193.8236018826
 21
136.2991289175
 31
0.0
  0
LINE
  5
11A
330
1F
100
AcDbEntity
  8
0
  6
Continuous
 62
     7
370
    15
100
AcDbLine
 10
203.8831740217
 20
102.187867428
 30
0.0
 11
169.9320336938
 21
99.4423930926
 31
0.0
  0
LINE
  5
11B
330
1F
100
AcDbEntity
  8
0
  6
Continuous
 62
     7
370
    15
100
AcDbLine
 10
169.9320336938
 20
99.4423930926
 30
0.0
 11
129.0095416331
 21
94.0959304173
 31
0.0
  0
LINE
  5
11C
330
1F
100
AcDbEntity
  8
0
  6
Continuous
 62
     7
370
    15
100
AcDbLine
 10
129.0095416331
 20
94.0959304173
 30
0.0
 11
88.4769248863
 21
86.0704634075
 31
0.0
  0
ARC
  5
11D
330
1F
100
AcDbEntity
  8
0
  6
Continuous
 62
     7
370
    15
100
AcDbCircle
 10
88.0884658356
 20
88.0323756307
 30
0.0
 40
2.00000000139349
100
AcDbArc
 50
101.1997181217
 51
281.1997181217
  0
LINE
  5
11E
330
1F
100
AcDbEntity
  8
0
  6
Continuous
 62
     7
370
    15
100
AcDbLine
 10
87.7000067849
 20
89.9942878539
 30
0.0
 11
128.3612911559
 21
98.0452310815
 31
0.0
  0
LINE
  5
11F
330
1F
100
AcDbEntity
  8
0
  6
Continuous
 62
     7
370
    15
100
AcDbLine
 10
128.3612911559
 20
98.0452310815
 30
0.0
 11
169.5114791907
 21
103.4214418969
 31
0.0
  0
LINE
  5
120
330
1F
100
AcDbEntity
  8
0
  6
Continuous
 62
     7
370
    15
100
AcDbLine
 10
169.5114791907
 20
103.4214418969
 30
0.0
 11
203.0318264594
 21
106.1320799565
 31
0.0
  0
LINE
  5
121
330
1F
100
AcDbEntity
  8
0
  6
Continuous
 62
     7
370
    15
100
AcDbLine
 10
203.0318264594
 20
106.1320799565
 30
0.0
 11
204.664583313
 21
106.7178928586
 31
0.0
  0
ARC
  5
122
330
1F
100
AcDbEntity
  8
0
  6
Continuous
 62
     7
370
    15
100
AcDbCircle
 10
205.3400013595
 20
104.8353917383
 30
0.0
 40
2.000000001393554
100
AcDbArc
 50
289.7373566963
 51
109.7373566963
  0
LINE
  5
123
330
1F
100
AcDbEntity
  8
0
  6
Continuous
 62
     7
370
    15
100
AcDbLine
 10
206.0154194061
 20
102.952890618
 30
0.0
 11
203.8831740217
 21
102.187867428
 31
0.0
  0
LINE
  5
124
330
1F
100
AcDbEntity
  8
0
  6
Continuous
 62
     7
370
    15
100
AcDbLine
 10
111.9984522986
 20
90.2280175127
 30
0.0
 11
151.7238843022
 21
91.8251778341
 31
0.0
  0
LINE
  5
125
330
1F
100
AcDbEntity
  8
0
  6
Continuous
 62
     7
370
    15
100
AcDbLine
 10
151.7238843022
 20
91.8251778341
 30
0.0
 11
191.4742189711
 21
88.4298451225
 31
0.0
  0
LINE
  5
126
330
1F
100
AcDbEntity
  8
0
  6
Continuous
 62
     7
370
    15
100
AcDbLine
 10
191.4742189711
 20
88.4298451225
 30
0.0
 11
194.5343957469
 21
87.7373408399
 31
0.0
  0
ARC
  5
127
330
1F
100
AcDbEntity
  8
0
  6
Continuous
 62
     7
370
    15
100
AcDbCircle
 10
194.0929663285
 20
85.7866640167
 30
0.0
 40
2.00000000000002
100
AcDbArc
 50
257.2489852405
 51
77.2489852405
  0
LINE
  5
128
330
1F
100
AcDbEntity
  8
0
  6
Continuous
 62
     7
370
    15
100
AcDbLine
 10
193.6515369102
 20
83.8359871935
 30
0.0
 11
190.8596832163
 21
84.4677711658
 31
0.0
  0
LINE
  5
129
330
1F
100
AcDbEntity
  8
0
  6
Continuous
 62
     7
370
    15
100
AcDbLine
 10
190.8596832163
 20
84.4677711658
 30
0.0
 11
151.633662067
 21
87.8183188747
 31
0.0
  0
LINE
  5
12A
330
1F
100
AcDbEntity
  8
0
  6
Continuous
 62
     7
370
    15
100
AcDbLine
 10
151.633662067
 20
87.8183188747
 30
0.0
 11
112.1591424103
 21
86.23124648
 31
0.0
  0
ARC
  5
12B
330
1F
100
AcDbEntity
  8
0
  6
Continuous
 62
     7
370
    15
100
AcDbCircle
 10
112.0787973545
 20
88.2296319963
 30
0.0
 40
2.000000000000008
100
AcDbArc
 50
92.3023358502
 51
272.3023358501
  0
LINE
  5
12C
330
1F
100
AcDbEntity
  8
0
  6
Continuous
 62
     7
370
    15
100
AcDbLine
 10
61.8887654831
 20
86.2381998682
 30
0.0
 11
61.8791923813
 21
86.2788417991
 31
0.0
  0
SPLINE
  5
12D
330
1F
100
AcDbEntity
  8
0
  6
Continuous
 62
     7
370
    15
100
AcDbSpline
210
0.0
220
0.0
230
1.0
 70
     8
 71
     3
 72
    10
 73
     6
 74
     0
 42
0.000000001
 43
0.00000001
 40
0.0
 40
0.0
 40
0.0
 40
0.0
 40
0.5241327744148868
 40
0.7702004123033186
 40
1.0
 40
1.0
 40
1.0
 40
1.0
 10
146.8609771854535
 20
78.31310576250509
 30
0.0
 10
131.9776230931524
 20
79.28176831544346
 30
0.0
 10
110.1533069171138
 20
81.23942744677016
 30
0.0
 10
81.78877963111914
 20
83.53867680597507
 30
0.0
 10
68.36243235097311
 20
85.32293181251828
 30
0.0
 10
61.8887654830848
 20
86.23819986815309
 30
0.0
  0
LINE
  5
12E
330
1F
100
AcDbEntity
  8
0
  6
Continuous
 62
     7
370
    15
100
AcDbLine
 10
146.786158863
 20
80.3238835564
 30
0.0
 11
146.8609771855
 21
78.3131057625
 31
0.0
  0
SPLINE
  5
12F
330
1F
100
AcDbEntity
  8
0
  6
Continuous
 62
     7
370
    15
100
AcDbSpline
210
0.0
220
0.0
230
1.0
 70
     8
 71
     3
 72
     8
 73
     4
 74
     0
 42
0.000000001
 43
0.00000001
 40
0.2956832624210376
 40
0.2956832624210376
 40
0.2956832624210376
 40
0.2956832624210376
 40
1.0
 40
1.0
 40
1.0
 40
1.0
 10
193.9138116342297
 20
77.59229378400072
 30
0.0
 10
178.1946049008624
 20
78.31625953709573
 30
0.0
 10
162.4847503971138
 20
79.24365869791653
 30
0.0
 10
146.7861588630452
 20
80.32388355636189
 30
0.0
  0
LINE
  5
130
330
1F
100
AcDbEntity
  8
0
  6
Continuous
 62
     7
370
    15
100
AcDbLine
 10
193.9138116342
 20
77.592293784
 30
0.0
 11
193.7408199663
 21
82.2415266345
 31
0.0
  0
LINE
  5
131
330
1F
100
AcDbEntity
  8
0
  6
Continuous
 62
     7
370
    15
100
AcDbLine
 10
198.8081080707
 20
82.4432788544
 30
0.0
 11
193.7408199663
 21
82.2415266345
 31
0.0
  0
LINE
  5
132
330
1F
100
AcDbEntity
  8
0
  6
Continuous
 62
     7
370
    15
100
AcDbLine
 10
198.9970510083
 20
77.3653480656
 30
0.0
 11
198.8081080708
 21
82.4432788544
 31
0.0
  0
SPLINE
  5
133
330
1F
100
AcDbEntity
  8
0
  6
Continuous
 62
     7
370
    15
100
AcDbSpline
210
0.0
220
0.0
230
1.0
 70
     8
 71
     3
 72
     8
 73
     4
 74
     0
 42
0.000000001
 43
0.00000001
 40
0.0
 40
0.0
 40
0.0
 40
0.0
 40
0.2197680091426045
 40
0.2197680091426045
 40
0.2197680091426045
 40
0.2197680091426045
 10
213.7161270093442
 20
76.79180411582612
 30
0.0
 10
208.8089165342435
 20
76.96162252020811
 30
0.0
 10
203.9025385177395
 20
77.15331632613213
 30
0.0
 10
198.9970510083319
 20
77.36534806561353
 30
0.0
  0
LINE
  5
134
330
1F
100
AcDbEntity
  8
0
  6
Continuous
 62
     7
370
    15
100
AcDbLine
 10
210.573506078
 20
114.2143599857
 30
0.0
 11
213.7161270093
 21
76.7918041158
 31
0.0
  0
SPLINE
  5
135
330
1F
100
AcDbEntity
  8
0
  6
Continuous
 62
     7
370
    15
100
AcDbSpline
210
0.0
220
0.0
230
1.0
 70
     8
 71
     3
 72
     8
 73
     4
 74
     0
 42
0.000000001
 43
0.00000001
 40
0.88308517326829
 40
0.88308517326829
 40
0.88308517326829
 40
0.88308517326829
 40
1.0
 40
1.0
 40
1.0
 40
1.0
 10
197.6954038945834
 20
112.3477297530807
 30
0.0
 10
201.9837681276976
 20
112.9985001017587
 30
0.0
 10
206.2763292684241
 20
113.6219944100411
 30
0.0
 10
210.5735060779642
 20
114.2143599856691
 30
0.0
  0
LINE
  5
136
330
1F
100
AcDbEntity
  8
0
  6
Continuous
 62
     7
370
    15
100
AcDbLine
 10
197.6954038946
 20
112.3477297531
 30
0.0
 11
197.8908090381
 21
107.0961241208
 31
0.0
  0
LINE
  5
137
330
1F
100
AcDbEntity
  8
0
  6
Continuous
 62
     7
370
    15
100
AcDbLine
 10
192.8229287418
 20
106.9102873589
 30
0.0
 11
197.8908090381
 21
107.0961241208
 31
0.0
  0
LINE
  5
138
330
1F
100
AcDbEntity
  8
0
  6
Continuous
 62
     7
370
    15
100
AcDbLine
 10
192.6495710663
 20
111.569356865
 30
0.0
 11
192.8229287418
 21
106.9102873589
 31
0.0
  0
SPLINE
  5
139
330
1F
100
AcDbEntity
  8
0
  6
Continuous
 62
     7
370
    15
100
AcDbSpline
210
0.0
220
0.0
230
1.0
 70
     8
 71
     3
 72
    10
 73
     6
 74
     0
 42
0.000000001
 43
0.00000001
 40
0.0
 40
0.0
 40
0.0
 40
0.0
 40
0.2589042906133582
 40
0.606458111311954
 40
0.8372124895071603
 40
0.8372124895071603
 40
0.8372124895071603
 40
0.8372124895071603
 10
101.1577912059947
 20
93.98885641169159
 30
0.0
 10
110.5285330917306
 20
96.09803759336795
 30
0.0
 10
132.5206017271553
 20
100.8539165954169
 30
0.0
 10
163.0353649233386
 20
106.6704153678393
 30
0.0
 10
184.1920147396323
 20
110.2438592638723
 30
0.0
 10
192.6495710662563
 20
111.569356864967
 30
0.0
  0
LINE
  5
13A
330
1F
100
AcDbEntity
  8
0
  6
Continuous
 62
     7
370
    15
100
AcDbLine
 10
100.8136792532
 20
95.4497595298
 30
0.0
 11
101.157791206
 21
93.9888564117
 31
0.0
  0
LINE
  5
13B
330
1F
100
AcDbEntity
  8
0
  6
Continuous
 62
     7
370
    15
100
AcDbLine
 10
61.8791923813
 20
86.2788417991
 30
0.0
 11
100.8136792532
 21
95.4497595298
 31
0.0
  0
LINE
  5
13C
330
1F
100
AcDbEntity
  8
COTATION
100
AcDbLine
 10
128.3612911559
 20
98.0452310815
 30
0.0
 11
129.0095416331
 21
94.0959304173
 31
0.0
  0
LINE
  5
13D
330
1F
100
AcDbEntity
  8
COTATION
100
AcDbLine
 10
169.5114791907
 20
103.4214418969
 30
0.0
 11
169.9320336938
 21
99.4423930926
 31
0.0
  0
LINE
  5
13E
330
1F
100
AcDbEntity
  8
COTATION
100
AcDbLine
 10
203.0318264594
 20
106.1320799565
 30
0.0
 11
203.8831740217
 21
102.187867428
 31
0.0
  0
LINE
  5
13F
330
1F
100
AcDbEntity
  8
COTATION
100
AcDbLine
 10
191.4742189711
 20
88.4298451225
 30
0.0
 11
190.8596832163
 21
84.4677711658
 31
0.0
  0
LINE
  5
140
330
1F
100
AcDbEntity
  8
COTATION
100
AcDbLine
 10
151.7238843022
 20
91.8251778341
 30
0.0
 11
151.633662067
 21
87.8183188747
 31
0.0
  0
INSERT
  5
14C
330
1F
100
AcDbEntity
  8
COTATION
100
AcDbBlockReference
  2
SW_CENTERMARKSYMBOL_4
 10
88.0884658356
 20
88.0323756307
 30
0.0
  0
INSERT
  5
158
330
1F
100
AcDbEntity
  8
COTATION
100
AcDbBlockReference
  2
SW_CENTERMARKSYMBOL_5
 10
112.0787973545
 20
88.2296319963
 30
0.0
  0
INSERT
  5
164
330
1F
100
AcDbEntity
  8
COTATION
100
AcDbBlockReference
  2
SW_CENTERMARKSYMBOL_6
 10
194.0929663285
 20
85.7866640167
 30
0.0
  0
INSERT
  5
170
330
1F
100
AcDbEntity
  8
COTATION
100
AcDbBlockReference
  2
SW_CENTERMARKSYMBOL_7
 10
205.3400013595
 20
104.8353917383
 30
0.0
  0
LINE
  5
171
330
1F
100
AcDbEntity
  8
COTATION
  6
CENTERX2
370
     0
100
AcDbLine
 10
128.6854163945
 20
96.0705807494
 30
0.0
 11
86.1265536138
 21
87.6439165803
 31
0.0
  0
LINE
  5
172
330
1F
100
AcDbEntity
  8
COTATION
  6
CENTERX2
370
     0
100
AcDbLine
 10
169.7217564422
 20
101.4319174947
 30
0.0
 11
128.6854163945
 21
96.0705807494
 31
0.0
  0
LINE
  5
173
330
1F
100
AcDbEntity
  8
COTATION
  6
CENTERX2
370
     0
100
AcDbLine
 10
203.4575002405
 20
104.1599736922
 30
0.0
 11
169.7217564422
 21
101.4319174947
 31
0.0
  0
LINE
  5
174
330
1F
100
AcDbEntity
  8
COTATION
  6
CENTERX2
370
     0
100
AcDbLine
 10
203.4575002405
 20
104.1599736922
 30
0.0
 11
207.2225024785
 21
105.5108097843
 31
0.0
  0
LINE
  5
175
330
1F
100
AcDbEntity
  8
COTATION
  6
CENTERX2
370
     0
100
AcDbLine
 10
191.1669510937
 20
86.4488081442
 30
0.0
 11
196.0436431518
 21
85.3452345983
 31
0.0
  0
LINE
  5
176
330
1F
100
AcDbEntity
  8
COTATION
  6
CENTERX2
370
     0
100
AcDbLine
 10
191.1669510937
 20
86.4488081442
 30
0.0
 11
151.6787731846
 21
89.8217483544
 31
0.0
  0
LINE
  5
177
330
1F
100
AcDbEntity
  8
COTATION
  6
CENTERX2
370
     0
100
AcDbLine
 10
110.0804118381
 20
88.1492869405
 30
0.0
 11
151.6787731846
 21
89.8217483544
 31
0.0
  0
ENDSEC
  0
SECTION
  2
OBJECTS
  0
DICTIONARY
  5
C
330
0
100
AcDbDictionary
281
     1
  3
ACAD_GROUP
350
D
  3
ACAD_LAYOUT
350
1A
  3
ACAD_MLINESTYLE
350
17
  3
ACAD_PLOTSETTINGS
350
19
  3
ACAD_PLOTSTYLENAME
350
E
  3
ACAD_SCALELIST
350
47
  0
DICTIONARY
  5
D
102
{ACAD_REACTORS
330
C
102
}
330
C
100
AcDbDictionary
281
     1
  0
DICTIONARY
  5
1A
102
{ACAD_REACTORS
330
C
102
}
330
C
100
AcDbDictionary
281
     1
  3
Layout1
350
1E
  3
Layout2
350
26
  3
Model
350
22
  0
DICTIONARY
  5
17
102
{ACAD_REACTORS
330
C
102
}
330
C
100
AcDbDictionary
281
     1
  3
Standard
350
18
  0
DICTIONARY
  5
19
102
{ACAD_REACTORS
330
C
102
}
330
C
100
AcDbDictionary
281
     1
  0
ACDBDICTIONARYWDFLT
  5
E
102
{ACAD_REACTORS
330
C
102
}
330
C
100
AcDbDictionary
281
     1
  3
Normal
350
F
100
AcDbDictionaryWithDefault
340
F
  0
DICTIONARY
  5
47
102
{ACAD_REACTORS
330
C
102
}
330
C
100
AcDbDictionary
281
     1
  3
A0
350
48
  3
A1
350
49
  3
A2
350
4A
  3
A3
350
4B
  3
A4
350
4C
  3
A5
350
4D
  3
A6
350
4E
  3
A7
350
4F
  3
A8
350
50
  3
A9
350
51
  3
B0
350
52
  3
B1
350
53
  3
B2
350
54
  3
B3
350
55
  3
B4
350
56
  3
B5
350
57
  3
B6
350
58
  3
B7
350
59
  3
B8
350
5A
  3
B9
350
5B
  3
C0
350
5C
  3
C1
350
5D
  3
C2
350
5E
  3
C3
350
5F
  3
C4
350
60
  3
C5
350
61
  3
C6
350
62
  3
C7
350
63
  3
C8
350
64
  3
C9
350
65
  3
D0
350
66
  3
D1
350
67
  3
D2
350
68
  0
LAYOUT
  5
1E
102
{ACAD_REACTORS
330
1A
102
}
330
1A
100
AcDbPlotSettings
  1

  2
none_device
  4

  6

 40
0.0
 41
0.0
 42
0.0
 43
0.0
 44
0.0
 45
0.0
 46
0.0
 47
0.0
 48
0.0
 49
0.0
140
0.0
141
0.0
142
1.0
143
1.0
 70
   688
 72
     1
 73
     0
 74
     5
  7

 75
    16
147
1.0
148
0.0
149
0.0
100
AcDbLayout
  1
Layout1
 70
     1
 71
     1
 10
0.0
 20
0.0
 11
420.0
 21
297.0
 12
0.0
 22
0.0
 32
0.0
 14
1.0000000000E+20
 24
1.0000000000E+20
 34
1.0000000000E+20
 15
-1.0000000000E+20
 25
-1.0000000000E+20
 35
-1.0000000000E+20
146
0.0
 13
0.0
 23
0.0
 33
0.0
 16
1.0
 26
0.0
 36
0.0
 17
0.0
 27
1.0
 37
0.0
 76
     0
330
1B
  0
LAYOUT
  5
26
102
{ACAD_REACTORS
330
1A
102
}
330
1A
100
AcDbPlotSettings
  1

  2
none_device
  4

  6

 40
0.0
 41
0.0
 42
0.0
 43
0.0
 44
0.0
 45
0.0
 46
0.0
 47
0.0
 48
0.0
 49
0.0
140
0.0
141
0.0
142
1.0
143
1.0
 70
   688
 72
     1
 73
     0
 74
     5
  7

 75
    16
147
1.0
148
0.0
149
0.0
100
AcDbLayout
  1
Layout2
 70
     1
 71
     2
 10
0.0
 20
0.0
 11
0.0
 21
0.0
 12
0.0
 22
0.0
 32
0.0
 14
0.0
 24
0.0
 34
0.0
 15
0.0
 25
0.0
 35
0.0
146
0.0
 13
0.0
 23
0.0
 33
0.0
 16
1.0
 26
0.0
 36
0.0
 17
0.0
 27
1.0
 37
0.0
 76
     0
330
23
  0
LAYOUT
  5
22
102
{ACAD_REACTORS
330
1A
102
}
330
1A
100
AcDbPlotSettings
  1

  2
none_device
  4
Letter_(8.50_x_11.00_Inches)
  6

 40
6.35
 41
6.35
 42
6.35000508
 43
6.35000508
 44
215.9
 45
279.4
 46
0.0
 47
0.0
 48
0.0
 49
0.0
140
0.0
141
0.0
142
1.0
143
1.0
 70
  1712
 72
     1
 73
     0
 74
     0
  7

 75
     0
147
1.0
148
0.0
149
0.0
100
AcDbLayout
  1
Model
 70
     1
 71
     0
 10
0.0
 20
0.0
 11
279.4
 21
215.9
 12
0.0
 22
0.0
 32
0.0
 14
0.0
 24
0.0
 34
0.0
 15
279.4
 25
215.9
 35
0.0
146
0.0
 13
0.0
 23
0.0
 33
0.0
 16
1.0
 26
0.0
 36
0.0
 17
0.0
 27
1.0
 37
0.0
 76
     0
330
1F
331
29
  0
MLINESTYLE
  5
18
102
{ACAD_REACTORS
330
17
102
}
330
17
100
AcDbMlineStyle
  2
Standard
 70
     0
  3

 62
   256
 51
90.0
 52
90.0
 71
     2
 49
0.5
 62
   256
  6
BYLAYER
 49
-0.5
 62
   256
  6
BYLAYER
  0
ACDBPLACEHOLDER
  5
F
102
{ACAD_REACTORS
330
E
102
}
330
E
  0
SCALE
  5
48
102
{ACAD_REACTORS
330
47
102
}
330
47
100
AcDbScale
 70
     0
300
1:1
140
1.0
141
1.0
290
     1
  0
SCALE
  5
49
102
{ACAD_REACTORS
330
47
102
}
330
47
100
AcDbScale
 70
     0
300
1:2
140
1.0
141
2.0
290
     0
  0
SCALE
  5
4A
102
{ACAD_REACTORS
330
47
102
}
330
47
100
AcDbScale
 70
     0
300
1:4
140
1.0
141
4.0
290
     0
  0
SCALE
  5
4B
102
{ACAD_REACTORS
330
47
102
}
330
47
100
AcDbScale
 70
     0
300
1:5
140
1.0
141
5.0
290
     0
  0
SCALE
  5
4C
102
{ACAD_REACTORS
330
47
102
}
330
47
100
AcDbScale
 70
     0
300
1:8
140
1.0
141
8.0
290
     0
  0
SCALE
  5
4D
102
{ACAD_REACTORS
330
47
102
}
330
47
100
AcDbScale
 70
     0
300
1:10
140
1.0
141
10.0
290
     0
  0
SCALE
  5
4E
102
{ACAD_REACTORS
330
47
102
}
330
47
100
AcDbScale
 70
     0
300
1:16
140
1.0
141
16.0
290
     0
  0
SCALE
  5
4F
102
{ACAD_REACTORS
330
47
102
}
330
47
100
AcDbScale
 70
     0
300
1:20
140
1.0
141
20.0
290
     0
  0
SCALE
  5
50
102
{ACAD_REACTORS
330
47
102
}
330
47
100
AcDbScale
 70
     0
300
1:30
140
1.0
141
30.0
290
     0
  0
SCALE
  5
51
102
{ACAD_REACTORS
330
47
102
}
330
47
100
AcDbScale
 70
     0
300
1:40
140
1.0
141
40.0
290
     0
  0
SCALE
  5
52
102
{ACAD_REACTORS
330
47
102
}
330
47
100
AcDbScale
 70
     0
300
1:50
140
1.0
141
50.0
290
     0
  0
SCALE
  5
53
102
{ACAD_REACTORS
330
47
102
}
330
47
100
AcDbScale
 70
     0
300
1:100
140
1.0
141
100.0
290
     0
  0
SCALE
  5
54
102
{ACAD_REACTORS
330
47
102
}
330
47
100
AcDbScale
 70
     0
300
2:1
140
2.0
141
1.0
290
     0
  0
SCALE
  5
55
102
{ACAD_REACTORS
330
47
102
}
330
47
100
AcDbScale
 70
     0
300
4:1
140
4.0
141
1.0
290
     0
  0
SCALE
  5
56
102
{ACAD_REACTORS
330
47
102
}
330
47
100
AcDbScale
 70
     0
300
8:1
140
8.0
141
1.0
290
     0
  0
SCALE
  5
57
102
{ACAD_REACTORS
330
47
102
}
330
47
100
AcDbScale
 70
     0
300
10:1
140
10.0
141
1.0
290
     0
  0
SCALE
  5
58
102
{ACAD_REACTORS
330
47
102
}
330
47
100
AcDbScale
 70
     0
300
100:1
140
100.0
141
1.0
290
     0
  0
SCALE
  5
59
102
{ACAD_REACTORS
330
47
102
}
330
47
100
AcDbScale
 70
     0
300
1/128" = 1'-0"
140
0.0078125
141
12.0
290
     0
  0
SCALE
  5
5A
102
{ACAD_REACTORS
330
47
102
}
330
47
100
AcDbScale
 70
     0
300
1/64" = 1'-0"
140
0.015625
141
12.0
290
     0
  0
SCALE
  5
5B
102
{ACAD_REACTORS
330
47
102
}
330
47
100
AcDbScale
 70
     0
300
1/32" = 1'-0"
140
0.03125
141
12.0
290
     0
  0
SCALE
  5
5C
102
{ACAD_REACTORS
330
47
102
}
330
47
100
AcDbScale
 70
     0
300
1/16" = 1'-0"
140
0.0625
141
12.0
290
     0
  0
SCALE
  5
5D
102
{ACAD_REACTORS
330
47
102
}
330
47
100
AcDbScale
 70
     0
300
3/32" = 1'-0"
140
0.09375
141
12.0
290
     0
  0
SCALE
  5
5E
102
{ACAD_REACTORS
330
47
102
}
330
47
100
AcDbScale
 70
     0
300
1/8" = 1'-0"
140
0.125
141
12.0
290
     0
  0
SCALE
  5
5F
102
{ACAD_REACTORS
330
47
102
}
330
47
100
AcDbScale
 70
     0
300
3/16" = 1'-0"
140
0.1875
141
12.0
290
     0
  0
SCALE
  5
60
102
{ACAD_REACTORS
330
47
102
}
330
47
100
AcDbScale
 70
     0
300
1/4" = 1'-0"
140
0.25
141
12.0
290
     0
  0
SCALE
  5
61
102
{ACAD_REACTORS
330
47
102
}
330
47
100
AcDbScale
 70
     0
300
3/8" = 1'-0"
140
0.375
141
12.0
290
     0
  0
SCALE
  5
62
102
{ACAD_REACTORS
330
47
102
}
330
47
100
AcDbScale
 70
     0
300
1/2" = 1'-0"
140
0.5
141
12.0
290
     0
  0
SCALE
  5
63
102
{ACAD_REACTORS
330
47
102
}
330
47
100
AcDbScale
 70
     0
300
3/4" = 1'-0"
140
0.75
141
12.0
290
     0
  0
SCALE
  5
64
102
{ACAD_REACTORS
330
47
102
}
330
47
100
AcDbScale
 70
     0
300
1" = 1'-0"
140
1.0
141
12.0
290
     0
  0
SCALE
  5
65
102
{ACAD_REACTORS
330
47
102
}
330
47
100
AcDbScale
 70
     0
300
1-1/2" = 1'-0"
140
1.5
141
12.0
290
     0
  0
SCALE
  5
66
102
{ACAD_REACTORS
330
47
102
}
330
47
100
AcDbScale
 70
     0
300
3" = 1'-0"
140
3.0
141
12.0
290
     0
  0
SCALE
  5
67
102
{ACAD_REACTORS
330
47
102
}
330
47
100
AcDbScale
 70
     0
300
6" = 1'-0"
140
6.0
141
12.0
290
     0
  0
SCALE
  5
68
102
{ACAD_REACTORS
330
47
102
}
330
47
100
AcDbScale
 70
     0
300
1'-0" = 1'-0"
140
12.0
141
12.0
290
     0
  0
ENDSEC
  0
EOF
