999
dxfrw 0.6.3
  0
SECTION
  2
HEADER
  9
$ACADVER
  1
AC1021
  9
$DWGCODEPAGE
  3
ANSI_1252
  9
$INSBASE
 10
0
 20
0
 30
0
  9
$EXTMIN
 10
327.3226928710938
 20
43.86901855468749
 30
0
  9
$EXTMAX
 10
517.3226928710939
 20
320.8690185546875
 30
0
  9
$LIMMIN
 10
0
 20
0
  9
$LIMMAX
 10
420
 20
297
  9
$ORTHOMODE
 70
    0
  9
$REGENMODE
 70
    1
  9
$FILLMODE
 70
    1
  9
$QTEXTMODE
 70
    0
  9
$MIRRTEXT
 70
    0
  9
$LTSCALE
 40
1
  9
$ATTMODE
 70
    0
  9
$TEXTSIZE
 40
2.5
  9
$TRACEWID
 40
15.68
  9
$TEXTSTYLE
  7
STANDARD
  9
$CLAYER
  8
Axe
  9
$CELTYPE
  6
BYLAYER
  9
$CECOLOR
 62
  256
  9
$CELTSCALE
 40
1
  9
$DISPSILH
 70
    0
  9
$DIMSCALE
 40
2.5
  9
$DIMASZ
 40
2.5
  9
$DIMEXO
 40
0.625
  9
$DIMDLI
 40
3.75
  9
$DIMRND
 40
0
  9
$DIMDLE
 40
0
  9
$DIMEXE
 40
1.25
  9
$DIMTP
 40
0
  9
$DIMTM
 40
0
  9
$DIMTXT
 40
2.5
  9
$DIMCEN
 40
2.5
  9
$DIMTSZ
 40
0
  9
$DIMTOL
 70
    0
  9
$DIMLIM
 70
    0
  9
$DIMTIH
 70
    0
  9
$DIMTOH
 70
    0
  9
$DIMSE1
 70
    0
  9
$DIMSE2
 70
    0
  9
$DIMTAD
 70
    1
  9
$DIMZIN
 70
    8
  9
$DIMBLK
  1

  9
$DIMASO
 70
    1
  9
$DIMSHO
 70
    1
  9
$DIMPOST
  1

  9
$DIMAPOST
  1

  9
$DIMALT
 70
    0
  9
$DIMALTD
 70
    3
  9
$DIMALTF
 40
0.03937
  9
$DIMLFAC
 40
1
  9
$DIMTOFL
 70
    1
  9
$DIMTVP
 40
0
  9
$DIMTIX
 70
    0
  9
$DIMSOXD
 70
    0
  9
$DIMSAH
 70
    0
  9
$DIMBLK1
  1

  9
$DIMBLK2
  1

  9
$DIMSTYLE
  2
STANDARD
  9
$DIMCLRD
 70
    0
  9
$DIMCLRE
 70
    0
  9
$DIMCLRT
 70
    0
  9
$DIMTFAC
 40
1
  9
$DIMGAP
 40
0.625
  9
$DIMJUST
 70
    0
  9
$DIMSD1
 70
    0
  9
$DIMSD2
 70
    0
  9
$DIMTOLJ
 70
    0
  9
$DIMTZIN
 70
    8
  9
$DIMALTZ
 70
    0
  9
$DIMALTTZ
 70
    0
  9
$DIMUPT
 70
    0
  9
$DIMDEC
 70
    0
  9
$DIMTDEC
 70
    2
  9
$DIMALTU
 70
    2
  9
$DIMALTTD
 70
    3
  9
$DIMTXSTY
  7
standard
  9
$DIMAUNIT
 70
    0
  9
$DIMADEC
 70
    0
  9
$DIMALTRND
 40
0
  9
$DIMAZIN
 70
    0
  9
$DIMDSEP
 70
    0
  9
$DIMATFIT
 70
    3
  9
$DIMFRAC
 70
    0
  9
$DIMLDRBLK
  1
STANDARD
  9
$DIMLUNIT
 70
    2
  9
$DIMLWD
 70
   -2
  9
$DIMLWE
 70
   -2
  9
$DIMTMOVE
 70
    0
  9
$DIMFXL
 40
1
  9
$DIMFXLON
 70
    0
  9
$DIMJOGANG
 40
0.7854
  9
$DIMTFILL
 70
    0
  9
$DIMTFILLCLR
 70
    0
  9
$DIMARCSYM
 70
    0
  9
$DIMLTYPE
  6

  9
$DIMLTEX1
  6

  9
$DIMLTEX2
  6

  9
$LUNITS
 70
    2
  9
$LUPREC
 70
    4
  9
$SKETCHINC
 40
1
  9
$FILLETRAD
 40
0
  9
$AUNITS
 70
    0
  9
$AUPREC
 70
    2
  9
$MENU
  1
.
  9
$ELEVATION
 40
0
  9
$PELEVATION
 40
0
  9
$THICKNESS
 40
0
  9
$LIMCHECK
 70
    0
  9
$CHAMFERA
 40
0
  9
$CHAMFERB
 40
0
  9
$CHAMFERC
 40
0
  9
$CHAMFERD
 40
0
  9
$SKPOLY
 70
    0
  9
$USRTIMER
 70
    1
  9
$ANGBASE
 50
0
  9
$ANGDIR
 70
    0
  9
$PDMODE
 70
   34
  9
$PDSIZE
 40
0
  9
$PLINEWID
 40
0
  9
$SPLFRAME
 70
    0
  9
$SPLINETYPE
 70
    2
  9
$SPLINESEGS
 70
    8
  9
$HANDSEED
  5
20000
  9
$SURFTAB1
 70
    6
  9
$SURFTAB2
 70
    6
  9
$SURFTYPE
 70
    6
  9
$SURFU
 70
    6
  9
$SURFV
 70
    6
  9
$UCSBASE
  2

  9
$UCSNAME
  2

  9
$UCSORG
 10
0
 20
0
 30
0
  9
$UCSXDIR
 10
1
 20
0
 30
0
  9
$UCSYDIR
 10
0
 20
1
 30
0
  9
$UCSORTHOREF
  2

  9
$UCSORTHOVIEW
 70
    0
  9
$UCSORGTOP
 10
0
 20
0
 30
0
  9
$UCSORGBOTTOM
 10
0
 20
0
 30
0
  9
$UCSORGLEFT
 10
0
 20
0
 30
0
  9
$UCSORGRIGHT
 10
0
 20
0
 30
0
  9
$UCSORGFRONT
 10
0
 20
0
 30
0
  9
$UCSORGBACK
 10
0
 20
0
 30
0
  9
$PUCSBASE
  2

  9
$PUCSNAME
  2

  9
$PUCSORG
 10
0
 20
0
 30
0
  9
$PUCSXDIR
 10
1
 20
0
 30
0
  9
$PUCSYDIR
 10
0
 20
1
 30
0
  9
$PUCSORTHOREF
  2

  9
$PUCSORTHOVIEW
 70
    0
  9
$PUCSORGTOP
 10
0
 20
0
 30
0
  9
$PUCSORGBOTTOM
 10
0
 20
0
 30
0
  9
$PUCSORGLEFT
 10
0
 20
0
 30
0
  9
$PUCSORGRIGHT
 10
0
 20
0
 30
0
  9
$PUCSORGFRONT
 10
0
 20
0
 30
0
  9
$PUCSORGBACK
 10
0
 20
0
 30
0
  9
$USERI1
 70
    0
  9
$USERI2
 70
    0
  9
$USERI3
 70
    0
  9
$USERI4
 70
    0
  9
$USERI5
 70
    0
  9
$USERR1
 40
0
  9
$USERR2
 40
0
  9
$USERR3
 40
0
  9
$USERR4
 40
0
  9
$USERR5
 40
0
  9
$WORLDVIEW
 70
    1
  9
$SHADEDGE
 70
    3
  9
$SHADEDIF
 70
   70
  9
$TILEMODE
 70
    1
  9
$MAXACTVP
 70
   64
  9
$PINSBASE
 10
-318.1463498162257
 20
-32.4231849556831
 30
0
  9
$PLIMCHECK
 70
    0
  9
$PEXTMIN
 10
0
 20
0
 30
0
  9
$PEXTMAX
 10
0
 20
0
 30
0
  9
$GRIDMODE
 70
    0
  9
$GRIDUNIT
 10
0
 20
0
  9
$PLIMMIN
 10
0
 20
0
  9
$PLIMMAX
 10
297
 20
210
  9
$UNITMODE
 70
    0
  9
$VISRETAIN
 70
    1
  9
$PLINEGEN
 70
    0
  9
$PSLTSCALE
 70
    1
  9
$TREEDEPTH
 70
 3020
  9
$CMLSTYLE
  2
Standard
  9
$CMLJUST
 70
    0
  9
$CMLSCALE
 40
20
  9
$PROXYGRAPHICS
 70
    1
  9
$MEASUREMENT
 70
    1
  9
$CELWEIGHT
370
   -1
  9
$ENDCAPS
280
    0
  9
$JOINSTYLE
280
    0
  9
$LWDISPLAY
290
    0
  9
$INSUNITS
 70
    0
  9
$HYPERLINKBASE
  1

  9
$STYLESHEET
  1

  9
$XEDIT
290
    1
  9
$CEPSNTYPE
380
    0
  9
$PSTYLEMODE
290
    1
  9
$EXTNAMES
290
    1
  9
$PSVPSCALE
 40
1
  9
$OLESTARTUP
290
    0
  9
$SORTENTS
280
  127
  9
$INDEXCTL
280
    0
  9
$HIDETEXT
280
    1
  9
$XCLIPFRAME
290
    0
  9
$HALOGAP
280
    0
  9
$OBSCOLOR
 70
  257
  9
$OBSLTYPE
280
    0
  9
$INTERSECTIONDISPLAY
280
    0
  9
$INTERSECTIONCOLOR
 70
  257
  9
$DIMASSOC
280
    1
  9
$PROJECTNAME
  1

  9
$CAMERADISPLAY
290
    0
  9
$LENSLENGTH
 40
50
  9
$CAMERAHEIGHT
 40
0
  9
$STEPSPERSEC
 40
2
  9
$STEPSIZE
 40
50
  9
$3DDWFPREC
 40
2
  9
$PSOLWIDTH
 40
5
  9
$PSOLHEIGHT
 40
80
  9
$LOFTANG1
 40
1.570796326794897
  9
$LOFTANG2
 40
1.570796326794897
  9
$LOFTMAG1
 40
0
  9
$LOFTMAG2
 40
0
  9
$LOFTPARAM
 70
    7
  9
$LOFTNORMALS
280
    1
  9
$LATITUDE
 40
1
  9
$LONGITUDE
 40
1
  9
$NORTHDIRECTION
 40
0
  9
$TIMEZONE
 70
-8000
  9
$LIGHTGLYPHDISPLAY
280
    1
  9
$TILEMODELIGHTSYNCH
280
    1
  9
$SOLIDHIST
280
    1
  9
$SHOWHIST
280
    1
  9
$DWFFRAME
280
    2
  9
$DGNFRAME
280
    0
  9
$REALWORLDSCALE
290
    1
  9
$INTERFERECOLOR
 62
    1
  9
$CSHADOW
280
    0
  9
$SHADOWPLANELOCATION
 40
0
  0
ENDSEC
  0
SECTION
  2
CLASSES
  0
ENDSEC
  0
SECTION
  2
TABLES
  0
TABLE
  2
VPORT
  5
8
330
0
100
AcDbSymbolTable
 70
    1
  0
VPORT
  5
31
330
2
100
AcDbSymbolTableRecord
100
AcDbViewportTableRecord
  2
*ACTIVE
 70
    0
 10
0
 20
0
 11
1
 21
1
 12
410.4003906250036
 22
183.5937500000016
 13
0
 23
0
 14
10
 24
10
 15
10
 25
10
 16
0
 26
0
 36
1
 17
0
 27
0
 37
0
 40
373.0468750000033
 41
1.973821989528796
 42
50
 43
0
 44
0
 50
0
 51
0
 71
    0
 72
  100
 73
    1
 74
    3
 75
    0
 76
    0
 77
    0
 78
    0
281
    0
 65
    1
110
0
120
0
130
0
111
1
121
0
131
0
112
0
122
1
132
0
 79
    0
146
0
348
10020
 60
    7
 61
    5
292
1
282
    1
141
0
142
0
 63
  250
421
3358443
  0
ENDTAB
  0
TABLE
  2
LTYPE
  5
5
330
0
100
AcDbSymbolTable
 70
    4
  0
LTYPE
  5
14
330
5
100
AcDbSymbolTableRecord
100
AcDbLinetypeTableRecord
  2
ByBlock
 70
    0
  3

 72
   65
 73
    0
 40
0
  0
LTYPE
  5
15
330
5
100
AcDbSymbolTableRecord
100
AcDbLinetypeTableRecord
  2
ByLayer
 70
    0
  3

 72
   65
 73
    0
 40
0
  0
LTYPE
  5
16
330
5
100
AcDbSymbolTableRecord
100
AcDbLinetypeTableRecord
  2
Continuous
 70
    0
  3
Solid line
 72
   65
 73
    0
 40
0
  0
LTYPE
  5
32
330
5
100
AcDbSymbolTableRecord
100
AcDbLinetypeTableRecord
  2
DOT
 70
    0
  3
Dot . . . . . . . . . . . . . . . . . . . . . .
 72
   65
 73
    2
 40
6.35
 49
0
 74
    0
 49
-6.35
 74
    0
  0
LTYPE
  5
33
330
5
100
AcDbSymbolTableRecord
100
AcDbLinetypeTableRecord
  2
DOTTINY
 70
    0
  3
Dot (.15x) .....................................
 72
   65
 73
    2
 40
0.9525
 49
0
 74
    0
 49
-0.9525
 74
    0
  0
LTYPE
  5
34
330
5
100
AcDbSymbolTableRecord
100
AcDbLinetypeTableRecord
  2
DOT2
 70
    0
  3
Dot (.5x) .....................................
 72
   65
 73
    2
 40
3.175
 49
0
 74
    0
 49
-3.175
 74
    0
  0
LTYPE
  5
35
330
5
100
AcDbSymbolTableRecord
100
AcDbLinetypeTableRecord
  2
DOTX2
 70
    0
  3
Dot (2x) .  .  .  .  .  .  .  .  .  .  .  .  .
 72
   65
 73
    2
 40
12.7
 49
0
 74
    0
 49
-12.7
 74
    0
  0
LTYPE
  5
36
330
5
100
AcDbSymbolTableRecord
100
AcDbLinetypeTableRecord
  2
DASHED
 70
    0
  3
Dashed _ _ _ _ _ _ _ _ _ _ _ _ _ _ _ _ _
 72
   65
 73
    2
 40
19.05
 49
12.7
 74
    0
 49
-6.35
 74
    0
  0
LTYPE
  5
37
330
5
100
AcDbSymbolTableRecord
100
AcDbLinetypeTableRecord
  2
DASHEDTINY
 70
    0
  3
Dashed (.15x) _ _ _ _ _ _ _ _ _ _ _ _ _ _ _ _ _
 72
   65
 73
    2
 40
2.8575
 49
1.905
 74
    0
 49
-0.9525
 74
    0
  0
LTYPE
  5
38
330
5
100
AcDbSymbolTableRecord
100
AcDbLinetypeTableRecord
  2
DASHED2
 70
    0
  3
Dashed (.5x) _ _ _ _ _ _ _ _ _ _ _ _ _ _ _ _ _
 72
   65
 73
    2
 40
9.524999999999999
 49
6.35
 74
    0
 49
-3.175
 74
    0
  0
LTYPE
  5
39
330
5
100
AcDbSymbolTableRecord
100
AcDbLinetypeTableRecord
  2
DASHEDX2
 70
    0
  3
Dashed (2x) ____  ____  ____  ____  ____  ___
 72
   65
 73
    2
 40
38.09999999999999
 49
25.4
 74
    0
 49
-12.7
 74
    0
  0
LTYPE
  5
3A
330
5
100
AcDbSymbolTableRecord
100
AcDbLinetypeTableRecord
  2
DASHDOT
 70
    0
  3
Dash dot __ . __ . __ . __ . __ . __ . __ . __
 72
   65
 73
    4
 40
25.4
 49
12.7
 74
    0
 49
-6.35
 74
    0
 49
0
 74
    0
 49
-6.35
 74
    0
  0
LTYPE
  5
3B
330
5
100
AcDbSymbolTableRecord
100
AcDbLinetypeTableRecord
  2
DASHDOTTINY
 70
    0
  3
Dash dot (.15x) _._._._._._._._._._._._._._._.
 72
   65
 73
    4
 40
3.81
 49
1.905
 74
    0
 49
-0.9525
 74
    0
 49
0
 74
    0
 49
-0.9525
 74
    0
  0
LTYPE
  5
3C
330
5
100
AcDbSymbolTableRecord
100
AcDbLinetypeTableRecord
  2
DASHDOT2
 70
    0
  3
Dash dot (.5x) _._._._._._._._._._._._._._._.
 72
   65
 73
    4
 40
12.7
 49
6.35
 74
    0
 49
-3.175
 74
    0
 49
0
 74
    0
 49
-3.175
 74
    0
  0
LTYPE
  5
3D
330
5
100
AcDbSymbolTableRecord
100
AcDbLinetypeTableRecord
  2
DASHDOTX2
 70
    0
  3
Dash dot (2x) ____  .  ____  .  ____  .  ___
 72
   65
 73
    4
 40
50.8
 49
25.4
 74
    0
 49
-12.7
 74
    0
 49
0
 74
    0
 49
-12.7
 74
    0
  0
LTYPE
  5
3E
330
5
100
AcDbSymbolTableRecord
100
AcDbLinetypeTableRecord
  2
DIVIDE
 70
    0
  3
Divide ____ . . ____ . . ____ . . ____ . . ____
 72
   65
 73
    6
 40
31.75
 49
12.7
 74
    0
 49
-6.35
 74
    0
 49
0
 74
    0
 49
-6.35
 74
    0
 49
0
 74
    0
 49
-6.35
 74
    0
  0
LTYPE
  5
3F
330
5
100
AcDbSymbolTableRecord
100
AcDbLinetypeTableRecord
  2
DIVIDETINY
 70
    0
  3
Divide (.15x) __..__..__..__..__..__..__..__.._
 72
   65
 73
    6
 40
4.7625
 49
1.905
 74
    0
 49
-0.9525
 74
    0
 49
0
 74
    0
 49
-0.9525
 74
    0
 49
0
 74
    0
 49
-0.9525
 74
    0
  0
LTYPE
  5
40
330
5
100
AcDbSymbolTableRecord
100
AcDbLinetypeTableRecord
  2
DIVIDE2
 70
    0
  3
Divide (.5x) __..__..__..__..__..__..__..__.._
 72
   65
 73
    6
 40
15.875
 49
6.35
 74
    0
 49
-3.175
 74
    0
 49
0
 74
    0
 49
-3.175
 74
    0
 49
0
 74
    0
 49
-3.175
 74
    0
  0
LTYPE
  5
41
330
5
100
AcDbSymbolTableRecord
100
AcDbLinetypeTableRecord
  2
DIVIDEX2
 70
    0
  3
Divide (2x) ________  .  .  ________  .  .  _
 72
   65
 73
    6
 40
63.5
 49
25.4
 74
    0
 49
-12.7
 74
    0
 49
0
 74
    0
 49
-12.7
 74
    0
 49
0
 74
    0
 49
-12.7
 74
    0
  0
LTYPE
  5
42
330
5
100
AcDbSymbolTableRecord
100
AcDbLinetypeTableRecord
  2
BORDER
 70
    0
  3
Border __ __ . __ __ . __ __ . __ __ . __ __ .
 72
   65
 73
    6
 40
44.45
 49
12.7
 74
    0
 49
-6.35
 74
    0
 49
12.7
 74
    0
 49
-6.35
 74
    0
 49
0
 74
    0
 49
-6.35
 74
    0
  0
LTYPE
  5
43
330
5
100
AcDbSymbolTableRecord
100
AcDbLinetypeTableRecord
  2
BORDERTINY
 70
    0
  3
Border (.15x) __.__.__.__.__.__.__.__.__.__.__.
 72
   65
 73
    6
 40
6.6675
 49
1.905
 74
    0
 49
-0.9525
 74
    0
 49
1.905
 74
    0
 49
-0.9525
 74
    0
 49
0
 74
    0
 49
-0.9525
 74
    0
  0
LTYPE
  5
44
330
5
100
AcDbSymbolTableRecord
100
AcDbLinetypeTableRecord
  2
BORDER2
 70
    0
  3
Border (.5x) __.__.__.__.__.__.__.__.__.__.__.
 72
   65
 73
    6
 40
22.225
 49
6.35
 74
    0
 49
-3.175
 74
    0
 49
6.35
 74
    0
 49
-3.175
 74
    0
 49
0
 74
    0
 49
-3.175
 74
    0
  0
LTYPE
  5
45
330
5
100
AcDbSymbolTableRecord
100
AcDbLinetypeTableRecord
  2
BORDERX2
 70
    0
  3
Border (2x) ____  ____  .  ____  ____  .  ___
 72
   65
 73
    6
 40
88.89999999999999
 49
25.4
 74
    0
 49
-12.7
 74
    0
 49
25.4
 74
    0
 49
-12.7
 74
    0
 49
0
 74
    0
 49
-12.7
 74
    0
  0
LTYPE
  5
46
330
5
100
AcDbSymbolTableRecord
100
AcDbLinetypeTableRecord
  2
CENTER
 70
    0
  3
Center ____ _ ____ _ ____ _ ____ _ ____ _ ____
 72
   65
 73
    4
 40
50.8
 49
31.75
 74
    0
 49
-6.35
 74
    0
 49
6.35
 74
    0
 49
-6.35
 74
    0
  0
LTYPE
  5
47
330
5
100
AcDbSymbolTableRecord
100
AcDbLinetypeTableRecord
  2
CENTERTINY
 70
    0
  3
Center (.15x) ___ _ ___ _ ___ _ ___ _ ___ _ ___
 72
   65
 73
    4
 40
7.619999999999999
 49
4.7625
 74
    0
 49
-0.9525
 74
    0
 49
0.9525
 74
    0
 49
-0.9525
 74
    0
  0
LTYPE
  5
48
330
5
100
AcDbSymbolTableRecord
100
AcDbLinetypeTableRecord
  2
CENTER2
 70
    0
  3
Center (.5x) ___ _ ___ _ ___ _ ___ _ ___ _ ___
 72
   65
 73
    4
 40
28.575
 49
19.05
 74
    0
 49
-3.175
 74
    0
 49
3.175
 74
    0
 49
-3.175
 74
    0
  0
LTYPE
  5
49
330
5
100
AcDbSymbolTableRecord
100
AcDbLinetypeTableRecord
  2
CENTERX2
 70
    0
  3
Center (2x) ________  __  ________  __  _____
 72
   65
 73
    4
 40
101.6
 49
63.5
 74
    0
 49
-12.7
 74
    0
 49
12.7
 74
    0
 49
-12.7
 74
    0
  0
ENDTAB
  0
TABLE
  2
LAYER
  5
2
330
0
100
AcDbSymbolTable
 70
    1
  0
LAYER
  5
10
330
2
100
AcDbSymbolTableRecord
100
AcDbLayerTableRecord
  2
0
 70
    0
 62
    7
  6
CONTINUOUS
370
   35
390
F
  0
LAYER
  5
4A
330
2
100
AcDbSymbolTableRecord
100
AcDbLayerTableRecord
  2
Axe
 70
    0
 62
    1
  6
DASHDOTTINY
370
   13
390
F
  0
LAYER
  5
4B
330
2
100
AcDbSymbolTableRecord
100
AcDbLayerTableRecord
  2
Cartouche
 70
    0
 62
    7
  6
CONTINUOUS
370
    0
390
F
  0
LAYER
  5
4C
330
2
100
AcDbSymbolTableRecord
100
AcDbLayerTableRecord
  2
Cotation
 70
    0
 62
    6
  6
CONTINUOUS
370
   18
390
F
  0
LAYER
  5
4D
330
2
100
AcDbSymbolTableRecord
100
AcDbLayerTableRecord
  2
Hachure
 70
    0
 62
    5
  6
CONTINUOUS
370
   13
390
F
  0
ENDTAB
  0
TABLE
  2
STYLE
  5
3
330
0
100
AcDbSymbolTable
 70
    3
  0
STYLE
  5
4E
330
2
100
AcDbSymbolTableRecord
100
AcDbTextStyleTableRecord
  2
standard
 70
    0
 40
0
 41
1
 50
0
 71
    0
 42
1
  3
standard
  4

  0
ENDTAB
  0
TABLE
  2
VIEW
  5
6
330
0
100
AcDbSymbolTable
 70
    0
  0
ENDTAB
  0
TABLE
  2
UCS
  5
7
330
0
100
AcDbSymbolTable
 70
    0
  0
ENDTAB
  0
TABLE
  2
APPID
  5
9
330
0
100
AcDbSymbolTable
 70
    1
  0
APPID
  5
12
330
9
100
AcDbSymbolTableRecord
100
AcDbRegAppTableRecord
  2
ACAD
 70
    0
  0
APPID
  5
4F
330
9
100
AcDbSymbolTableRecord
100
AcDbRegAppTableRecord
  2
LibreCad
 70
    0
  0
ENDTAB
  0
TABLE
  2
DIMSTYLE
  5
A
330
0
100
AcDbSymbolTable
 70
    1
100
AcDbDimStyleTable
 71
    1
  0
DIMSTYLE
105
50
330
A
100
AcDbSymbolTableRecord
100
AcDbDimStyleTableRecord
  2
Standard
 70
    0
 40
1
 41
2.5
 42
0.625
 43
0.38
 44
1.25
 45
0
 46
0
 47
0
 48
0
 49
1
140
2.5
141
0.09
142
0
143
25.4
144
1
145
0
146
1
147
0.625
148
0
 71
    0
 72
    0
 73
    0
 74
    1
 75
    0
 76
    0
 77
    0
 78
    1
 79
    0
170
    0
171
    2
172
    0
173
    0
174
    0
175
    0
176
    0
177
    0
178
    0
179
    0
271
    0
272
    4
273
    2
274
    2
275
    0
276
    0
277
    2
278
    0
279
    0
280
    0
281
    0
282
    0
283
    1
284
    0
285
    0
286
    0
288
    0
289
    3
340
standard
341

371
   -2
372
   -2
  0
ENDTAB
  0
TABLE
  2
BLOCK_RECORD
  5
1
330
0
100
AcDbSymbolTable
 70
    2
  0
BLOCK_RECORD
  5
1F
330
1
100
AcDbSymbolTableRecord
100
AcDbBlockTableRecord
  2
*Model_Space
 70
    0
280
    1
281
    0
  0
BLOCK_RECORD
  5
1E
330
1
100
AcDbSymbolTableRecord
100
AcDbBlockTableRecord
  2
*Paper_Space
 70
    0
280
    1
281
    0
  0
BLOCK_RECORD
  5
51
330
1
100
AcDbSymbolTableRecord
100
AcDbBlockTableRecord
  2
*D1
 70
    0
280
    1
281
    0
  0
BLOCK_RECORD
  5
54
330
1
100
AcDbSymbolTableRecord
100
AcDbBlockTableRecord
  2
*D6
 70
    0
280
    1
281
    0
  0
BLOCK_RECORD
  5
57
330
1
100
AcDbSymbolTableRecord
100
AcDbBlockTableRecord
  2
*D2
 70
    0
280
    1
281
    0
  0
BLOCK_RECORD
  5
5A
330
1
100
AcDbSymbolTableRecord
100
AcDbBlockTableRecord
  2
*D3
 70
    0
280
    1
281
    0
  0
BLOCK_RECORD
  5
5D
330
1
100
AcDbSymbolTableRecord
100
AcDbBlockTableRecord
  2
*D7
 70
    0
280
    1
281
    0
  0
BLOCK_RECORD
  5
60
330
1
100
AcDbSymbolTableRecord
100
AcDbBlockTableRecord
  2
*D9
 70
    0
280
    1
281
    0
  0
BLOCK_RECORD
  5
63
330
1
100
AcDbSymbolTableRecord
100
AcDbBlockTableRecord
  2
*D4
 70
    0
280
    1
281
    0
  0
BLOCK_RECORD
  5
66
330
1
100
AcDbSymbolTableRecord
100
AcDbBlockTableRecord
  2
*D5
 70
    0
280
    1
281
    0
  0
BLOCK_RECORD
  5
69
330
1
100
AcDbSymbolTableRecord
100
AcDbBlockTableRecord
  2
*D8
 70
    0
280
    1
281
    0
  0
BLOCK_RECORD
  5
6C
330
1
100
AcDbSymbolTableRecord
100
AcDbBlockTableRecord
  2
Cartouche A3
 70
    0
280
    1
281
    0
  0
BLOCK_RECORD
  5
6F
330
1
100
AcDbSymbolTableRecord
100
AcDbBlockTableRecord
  2
Cartouche A4
 70
    0
280
    1
281
    0
  0
ENDTAB
  0
ENDSEC
  0
SECTION
  2
BLOCKS
  0
BLOCK
  5
20
330
1F
100
AcDbEntity
  8
0
100
AcDbBlockBegin
  2
*Model_Space
 70
    0
 10
0
 20
0
 30
0
  3
*Model_Space
  1

  0
ENDBLK
  5
21
330
1F
100
AcDbEntity
  8
0
100
AcDbBlockEnd
  0
BLOCK
  5
1C
330
1B
100
AcDbEntity
  8
0
100
AcDbBlockBegin
  2
*Paper_Space
 70
    0
 10
0
 20
0
 30
0
  3
*Paper_Space
  1

  0
ENDBLK
  5
1D
330
1F
100
AcDbEntity
  8
0
100
AcDbBlockEnd
  0
BLOCK
  5
52
330
51
100
AcDbEntity
  8
0
100
AcDbBlockBegin
  2
*D1
 70
    1
 10
0
 20
0
  3
*D1
  1

  0
LINE
  5
72
100
AcDbEntity
  8
Cotation
  6
ByBlock
 62
    0
370
   -2
100
AcDbLine
 10
371.6800000000001
 20
229.4400000000005
 11
386.6800000000001
 21
229.4400000000005
  0
SOLID
  5
73
100
AcDbEntity
  8
Cotation
  6
ByBlock
 62
    0
370
   -2
100
AcDbTrace
 10
376.6800000000001
 20
229.4400000000005
 30
0
 11
374.1800000000001
 21
229.0237153422277
 31
0
 12
374.1800000000001
 22
229.8562846577734
 32
0
 13
374.1800000000001
 23
229.8562846577734
 33
0
  0
SOLID
  5
74
100
AcDbEntity
  8
Cotation
  6
ByBlock
 62
    0
370
   -2
100
AcDbTrace
 10
381.6800000000001
 20
229.4400000000005
 30
0
 11
384.1800000000001
 21
229.8562846577734
 31
0
 12
384.1800000000001
 22
229.0237153422277
 32
0
 13
384.1800000000001
 23
229.0237153422277
 33
0
  0
MTEXT
  5
75
100
AcDbEntity
  8
Cotation
  6
CONTINUOUS
 62
    0
370
   -2
100
AcDbMText
 10
379.1800000000001
 20
231.3150000000005
 30
0
 40
2.5
 41
1.111111111111266
 71
    5
 72
    1
  1
5
  7
standard
210
0
220
0
230
1
 50
0
 73
    2
 44
1
  0
LINE
  5
76
100
AcDbEntity
  8
Cotation
  6
ByBlock
 62
    0
370
   -2
100
AcDbLine
 10
376.6800000000001
 20
235.3125
 11
376.6800000000001
 21
228.1900000000005
  0
LINE
  5
77
100
AcDbEntity
  8
Cotation
  6
ByBlock
 62
    0
370
   -2
100
AcDbLine
 10
381.6800000000001
 20
235.3125
 11
381.6800000000001
 21
228.1900000000005
  0
ENDBLK
  5
53
330
51
100
AcDbEntity
  8
0
100
AcDbBlockEnd
  0
BLOCK
  5
55
330
54
100
AcDbEntity
  8
0
100
AcDbBlockBegin
  2
*D6
 70
    1
 10
0
 20
0
  3
*D6
  1

  0
LINE
  5
78
100
AcDbEntity
  8
Cotation
  6
CONTINUOUS
 62
    7
370
    0
100
AcDbLine
 10
454.560000000001
 20
234.7200000000005
 11
461.120000000001
 21
243.2000000000006
  0
LINE
  5
79
100
AcDbEntity
  8
Cotation
  6
CONTINUOUS
 62
    7
370
    0
100
AcDbLine
 10
461.120000000001
 20
243.2000000000006
 11
465.4400000000011
 21
243.0400000000006
  0
SOLID
  5
7A
100
AcDbEntity
  8
Cotation
  6
CONTINUOUS
 62
    7
370
    0
100
AcDbTrace
 10
454.560000000001
 20
234.7200000000005
 30
0
 11
455.7604172432734
 21
236.9521046925164
 31
0
 12
456.4189435062956
 22
236.4426787154615
 32
0
 13
456.4189435062956
 23
236.4426787154615
 33
0
  0
ENDBLK
  5
56
330
54
100
AcDbEntity
  8
0
100
AcDbBlockEnd
  0
BLOCK
  5
58
330
57
100
AcDbEntity
  8
0
100
AcDbBlockBegin
  2
*D2
 70
    1
 10
0
 20
0
  3
*D2
  1

  0
LINE
  5
7B
100
AcDbEntity
  8
Cotation
  6
ByBlock
 62
    0
370
   -2
100
AcDbLine
 10
376.6800000000001
 20
263.3600000000006
 11
383.6800000000001
 21
263.3600000000006
  0
SOLID
  5
7C
100
AcDbEntity
  8
Cotation
  6
ByBlock
 62
    0
370
   -2
100
AcDbTrace
 10
376.6800000000001
 20
263.3600000000006
 30
0
 11
379.1800000000001
 21
263.7762846577734
 31
0
 12
379.1800000000001
 22
262.9437153422277
 32
0
 13
379.1800000000001
 23
262.9437153422277
 33
0
  0
SOLID
  5
7D
100
AcDbEntity
  8
Cotation
  6
ByBlock
 62
    0
370
   -2
100
AcDbTrace
 10
383.6800000000001
 20
263.3600000000006
 30
0
 11
381.1800000000001
 21
262.9437153422277
 31
0
 12
381.1800000000001
 22
263.7762846577734
 32
0
 13
381.1800000000001
 23
263.7762846577734
 33
0
  0
MTEXT
  5
7E
100
AcDbEntity
  8
Cotation
  6
CONTINUOUS
 62
    0
370
   -2
100
AcDbMText
 10
380.1800000000001
 20
265.2350000000006
 30
0
 40
2.5
 41
1.111111111111111
 71
    5
 72
    1
  1
7
  7
standard
210
0
220
0
230
1
 50
0
 73
    2
 44
1
  0
LINE
  5
7F
100
AcDbEntity
  8
Cotation
  6
ByBlock
 62
    0
370
   -2
100
AcDbLine
 10
376.6800000000001
 20
238.5625
 11
376.6800000000001
 21
264.6100000000006
  0
LINE
  5
80
100
AcDbEntity
  8
Cotation
  6
ByBlock
 62
    0
370
   -2
100
AcDbLine
 10
383.6800000000001
 20
243.5625
 11
383.6800000000001
 21
264.6100000000006
  0
ENDBLK
  5
59
330
57
100
AcDbEntity
  8
0
100
AcDbBlockEnd
  0
BLOCK
  5
5B
330
5A
100
AcDbEntity
  8
0
100
AcDbBlockBegin
  2
*D3
 70
    1
 10
0
 20
0
  3
*D3
  1

  0
LINE
  5
81
100
AcDbEntity
  8
Cotation
  6
ByBlock
 62
    0
370
   -2
100
AcDbLine
 10
374.6800000000001
 20
255.5200000000006
 11
388.6800000000001
 21
255.5200000000006
  0
SOLID
  5
82
100
AcDbEntity
  8
Cotation
  6
ByBlock
 62
    0
370
   -2
100
AcDbTrace
 10
379.6800000000001
 20
255.5200000000006
 30
0
 11
377.1800000000001
 21
255.1037153422277
 31
0
 12
377.1800000000001
 22
255.9362846577734
 32
0
 13
377.1800000000001
 23
255.9362846577734
 33
0
  0
SOLID
  5
83
100
AcDbEntity
  8
Cotation
  6
ByBlock
 62
    0
370
   -2
100
AcDbTrace
 10
383.6800000000001
 20
255.5200000000006
 30
0
 11
386.1800000000001
 21
255.9362846577734
 31
0
 12
386.1800000000001
 22
255.1037153422277
 32
0
 13
386.1800000000001
 23
255.1037153422277
 33
0
  0
MTEXT
  5
84
100
AcDbEntity
  8
Cotation
  6
CONTINUOUS
 62
    0
370
   -2
100
AcDbMText
 10
381.6800000000001
 20
257.3950000000006
 30
0
 40
2.5
 41
1.388888888888889
 71
    5
 72
    1
  1
4
  7
standard
210
0
220
0
230
1
 50
0
 73
    2
 44
1
  0
LINE
  5
85
100
AcDbEntity
  8
Cotation
  6
ByBlock
 62
    0
370
   -2
100
AcDbLine
 10
379.6800000000001
 20
243.5625
 11
379.6800000000001
 21
256.7700000000006
  0
LINE
  5
86
100
AcDbEntity
  8
Cotation
  6
ByBlock
 62
    0
370
   -2
100
AcDbLine
 10
383.6800000000001
 20
243.5625
 11
383.6800000000001
 21
256.7700000000006
  0
ENDBLK
  5
5C
330
5A
100
AcDbEntity
  8
0
100
AcDbBlockEnd
  0
BLOCK
  5
5E
330
5D
100
AcDbEntity
  8
0
100
AcDbBlockBegin
  2
*D7
 70
    1
 10
0
 20
0
  3
*D7
  1

  0
LINE
  5
87
100
AcDbEntity
  8
Cotation
  6
CONTINUOUS
 62
    7
370
    0
100
AcDbLine
 10
455.8400000000011
 20
228.6400000000005
 11
465.600000000001
 21
233.2800000000005
  0
LINE
  5
88
100
AcDbEntity
  8
Cotation
  6
CONTINUOUS
 62
    7
370
    0
100
AcDbLine
 10
465.600000000001
 20
233.2800000000005
 11
470.8800000000011
 21
232.9600000000005
  0
SOLID
  5
89
100
AcDbEntity
  8
Cotation
  6
CONTINUOUS
 62
    7
370
    0
100
AcDbTrace
 10
455.8400000000011
 20
228.6400000000005
 30
0
 11
457.9190995349114
 21
230.0893578026955
 31
0
 12
458.2765704880494
 22
229.3374361426465
 32
0
 13
458.2765704880494
 23
229.3374361426465
 33
0
  0
ENDBLK
  5
5F
330
5D
100
AcDbEntity
  8
0
100
AcDbBlockEnd
  0
BLOCK
  5
61
330
60
100
AcDbEntity
  8
0
100
AcDbBlockBegin
  2
*D9
 70
    1
 10
0
 20
0
  3
*D9
  1

  0
LINE
  5
8A
100
AcDbEntity
  8
Cotation
  6
CONTINUOUS
 62
    7
370
    0
100
AcDbLine
 10
381.6800000000001
 20
215.9375
 11
369.9200000000018
 21
221.2800000000011
  0
LINE
  5
8B
100
AcDbEntity
  8
Cotation
  6
CONTINUOUS
 62
    7
370
    0
100
AcDbLine
 10
369.9200000000018
 20
221.2800000000011
 11
365.7600000000018
 21
221.2800000000011
  0
SOLID
  5
8C
100
AcDbEntity
  8
Cotation
  6
CONTINUOUS
 62
    7
370
    0
100
AcDbTrace
 10
381.6800000000001
 20
215.9375
 30
0
 11
379.2316875358621
 21
216.5925259492904
 31
0
 12
379.5760493310225
 22
217.3505408694747
 32
0
 13
379.5760493310225
 23
217.3505408694747
 33
0
  0
ENDBLK
  5
62
330
60
100
AcDbEntity
  8
0
100
AcDbBlockEnd
  0
BLOCK
  5
64
330
63
100
AcDbEntity
  8
0
100
AcDbBlockBegin
  2
*D4
 70
    1
 10
0
 20
0
  3
*D4
  1

  0
LINE
  5
8D
100
AcDbEntity
  8
Cotation
  6
CONTINUOUS
 62
    7
370
    0
100
AcDbLine
 10
452.160000000001
 20
242.2400000000005
 11
455.360000000001
 21
249.6000000000006
  0
LINE
  5
8E
100
AcDbEntity
  8
Cotation
  6
CONTINUOUS
 62
    7
370
    0
100
AcDbLine
 10
455.360000000001
 20
249.6000000000006
 11
458.7200000000011
 21
249.7600000000006
  0
LINE
  5
8F
100
AcDbEntity
  8
Cotation
  6
CONTINUOUS
 62
    7
370
    0
100
AcDbLine
 10
458.7200000000011
 20
249.7600000000006
 11
458.7200000000011
 21
249.7600000000006
  0
LINE
  5
90
100
AcDbEntity
  8
Cotation
  6
CONTINUOUS
 62
    7
370
    0
100
AcDbLine
 10
458.7200000000011
 20
249.7600000000006
 11
459.040000000001
 21
249.7600000000006
  0
LINE
  5
91
100
AcDbEntity
  8
Cotation
  6
CONTINUOUS
 62
    7
370
    0
100
AcDbLine
 10
459.040000000001
 20
249.7600000000006
 11
459.040000000001
 21
249.7600000000006
  0
SOLID
  5
92
100
AcDbEntity
  8
Cotation
  6
CONTINUOUS
 62
    7
370
    0
100
AcDbTrace
 10
452.160000000001
 20
242.2400000000005
 30
0
 11
452.7750530840161
 21
244.6986587034689
 31
0
 12
453.5385774730582
 22
244.3666915777984
 32
0
 13
453.5385774730582
 23
244.3666915777984
 33
0
  0
ENDBLK
  5
65
330
63
100
AcDbEntity
  8
0
100
AcDbBlockEnd
  0
BLOCK
  5
67
330
66
100
AcDbEntity
  8
0
100
AcDbBlockBegin
  2
*D5
 70
    1
 10
0
 20
0
  3
*D5
  1

  0
ENDBLK
  5
68
330
66
100
AcDbEntity
  8
0
100
AcDbBlockEnd
  0
BLOCK
  5
6A
330
69
100
AcDbEntity
  8
0
100
AcDbBlockBegin
  2
*D8
 70
    1
 10
0
 20
0
  3
*D8
  1

  0
LINE
  5
93
100
AcDbEntity
  8
Cotation
  6
CONTINUOUS
 62
    7
370
    0
100
AcDbLine
 10
384.6800000000001
 20
212.0704000000009
 11
394.4448000000017
 21
199.4752000000009
  0
LINE
  5
94
100
AcDbEntity
  8
Cotation
  6
CONTINUOUS
 62
    7
370
    0
100
AcDbLine
 10
394.4448000000017
 20
199.4752000000009
 11
398.1312000000017
 21
199.4752000000009
  0
SOLID
  5
95
100
AcDbEntity
  8
Cotation
  6
CONTINUOUS
 62
    7
370
    0
100
AcDbTrace
 10
384.6800000000001
 20
212.0704000000009
 30
0
 11
386.5407672491121
 21
210.3496913782613
 31
0
 12
385.8827809763372
 22
209.8395681284206
 32
0
 13
385.8827809763372
 23
209.8395681284206
 33
0
  0
ENDBLK
  5
6B
330
69
100
AcDbEntity
  8
0
100
AcDbBlockEnd
  0
BLOCK
  5
6D
330
6C
100
AcDbEntity
  8
0
100
AcDbBlockBegin
  2
Cartouche A3
 70
    0
 10
0
 20
0
  3
Cartouche A3
  1

  0
LINE
  5
96
100
AcDbEntity
  8
Cartouche
  6
ByLayer
 62
  256
370
   -1
100
AcDbLine
 10
340
 20
45
 11
340
 21
0
  0
LINE
  5
97
100
AcDbEntity
  8
Cartouche
  6
ByLayer
 62
  256
370
   -1
100
AcDbLine
 10
340
 20
30
 11
400
 21
30
  0
LINE
  5
98
100
AcDbEntity
  8
Cartouche
  6
ByLayer
 62
  256
370
   -1
100
AcDbLine
 10
340
 20
30
 11
210
 21
30
  0
LINE
  5
99
100
AcDbEntity
  8
Cartouche
  6
ByLayer
 62
  256
370
   -1
100
AcDbLine
 10
340
 20
15
 11
400
 21
15
  0
LINE
  5
9A
100
AcDbEntity
  8
Cartouche
  6
ByLayer
 62
  256
370
   -1
100
AcDbLine
 10
340
 20
15
 11
210
 21
15
  0
MTEXT
  5
9B
100
AcDbEntity
  8
Cartouche
  6
ByLayer
 62
  256
370
   -1
100
AcDbMText
 10
352.4
 20
22.4
 30
0
 40
5
 41
11.11111111111135
 71
    5
 72
    1
  1
Ech.
  7
standard
210
0
220
0
230
1
 50
0
 73
    2
 44
1
  0
CIRCLE
  5
9C
100
AcDbEntity
  8
Cartouche
  6
ByLayer
 62
  256
370
   -1
100
AcDbCircle
 10
385.4172160000003
 20
7.405568000000009
 40
2.282497607895366
  0
CIRCLE
  5
9D
100
AcDbEntity
  8
Cartouche
  6
ByLayer
 62
  256
370
   -1
100
AcDbCircle
 10
385.4172160000003
 20
7.405568000000009
 40
4.675615845708478
  0
LINE
  5
9E
100
AcDbEntity
  8
Cartouche
  6
ByLayer
 62
  256
370
   -1
100
AcDbLine
 10
356.0570880000003
 20
9.688065607906452
 11
356.0570880000003
 21
7.405568000000017
  0
LINE
  5
9F
100
AcDbEntity
  8
Cartouche
  6
ByLayer
 62
  256
370
   -1
100
AcDbLine
 10
356.0570880000003
 20
9.688065607906452
 11
371.8512640000003
 21
12.08118384571338
  0
LINE
  5
A0
100
AcDbEntity
  8
Cartouche
  6
ByLayer
 62
  256
370
   -1
100
AcDbLine
 10
371.8512640000003
 20
12.08118384571338
 11
371.8512640000003
 21
7.405568000000009
  0
LINE
  5
A1
100
AcDbEntity
  8
Cartouche
  6
ByLayer
 62
  256
370
   -1
100
AcDbLine
 10
356.0570880000003
 20
9.688065607906452
 11
356.0570880000003
 21
7.405568000000017
  0
LINE
  5
A2
100
AcDbEntity
  8
Cartouche
  6
ByLayer
 62
  256
370
   -1
100
AcDbLine
 10
356.0570880000003
 20
9.688065607906452
 11
371.8512640000003
 21
12.08118384571338
  0
LINE
  5
A3
100
AcDbEntity
  8
Cartouche
  6
ByLayer
 62
  256
370
   -1
100
AcDbLine
 10
371.8512640000003
 20
12.08118384571338
 11
371.8512640000003
 21
7.405568000000009
  0
LINE
  5
A4
100
AcDbEntity
  8
Cartouche
  6
ByLayer
 62
  256
370
   -1
100
AcDbLine
 10
356.0570880000003
 20
9.688065607906452
 11
356.0570880000003
 21
7.405568000000017
  0
LINE
  5
A5
100
AcDbEntity
  8
Cartouche
  6
ByLayer
 62
  256
370
   -1
100
AcDbLine
 10
356.0570880000003
 20
9.688065607906452
 11
371.8512640000003
 21
12.08118384571338
  0
LINE
  5
A6
100
AcDbEntity
  8
Cartouche
  6
ByLayer
 62
  256
370
   -1
100
AcDbLine
 10
371.8512640000003
 20
12.08118384571338
 11
371.8512640000003
 21
7.405568000000009
  0
LINE
  5
A7
100
AcDbEntity
  8
Cartouche
  6
ByLayer
 62
  256
370
   -1
100
AcDbLine
 10
356.0570880000003
 20
9.688065607906452
 11
356.0570880000003
 21
7.405568000000017
  0
LINE
  5
A8
100
AcDbEntity
  8
Cartouche
  6
ByLayer
 62
  256
370
   -1
100
AcDbLine
 10
356.0570880000003
 20
9.688065607906452
 11
371.8512640000003
 21
12.08118384571338
  0
LINE
  5
A9
100
AcDbEntity
  8
Cartouche
  6
ByLayer
 62
  256
370
   -1
100
AcDbLine
 10
371.8512640000003
 20
12.08118384571338
 11
371.8512640000003
 21
7.405568000000009
  0
LINE
  5
AA
100
AcDbEntity
  8
Cartouche
  6
ByLayer
 62
  256
370
   -1
100
AcDbLine
 10
356.0570880000003
 20
5.123070392093581
 11
356.0570880000003
 21
7.405568000000017
  0
LINE
  5
AB
100
AcDbEntity
  8
Cartouche
  6
ByLayer
 62
  256
370
   -1
100
AcDbLine
 10
356.0570880000003
 20
5.123070392093581
 11
371.8512640000003
 21
2.729952154286629
  0
LINE
  5
AC
100
AcDbEntity
  8
Cartouche
  6
ByLayer
 62
  256
370
   -1
100
AcDbLine
 10
371.8512640000003
 20
2.729952154286629
 11
371.8512640000003
 21
7.405568000000009
  0
LINE
  5
AD
100
AcDbEntity
  8
Cartouche
  6
DASHDOT2
 62
  256
370
   -1
100
AcDbLine
 10
344.9815040000003
 20
7.405568000000009
 11
394.2645760000003
 21
7.405568000000009
  0
LINE
  5
AE
100
AcDbEntity
  8
Cartouche
  6
DASHDOT2
 62
  256
370
   -1
100
AcDbLine
 10
385.4172160000003
 20
13.43488000000001
 11
385.4172160000003
 21
1.900544000000004
  0
MTEXT
  5
AF
100
AcDbEntity
  8
Cartouche
  6
ByLayer
 62
  256
370
   -1
100
AcDbMText
 10
353.7500000000007
 20
37.18750000000007
 30
0
 40
5
 41
13.88888888888889
 71
    5
 72
    1
  1
Folio
  7
standard
210
0
220
0
230
1
 50
0
 73
    2
 44
1
  0
LINE
  5
B0
100
AcDbEntity
  8
Cartouche
  6
ByLayer
 62
  256
370
   -1
100
AcDbLine
 10
382.4218750000011
 20
45
 11
382.4218750000011
 21
30
  0
MTEXT
  5
B1
100
AcDbEntity
  8
Cartouche
  6
ByLayer
 62
  256
370
   -1
100
AcDbMText
 10
232.0312500000006
 20
7.031250000000021
 30
0
 40
4
 41
19.00000205714916
 71
    5
 72
    1
  1
Phase :
  7
standard
210
0
220
0
230
1
 50
0
 73
    2
 44
1
  0
MTEXT
  5
B2
100
AcDbEntity
  8
Cartouche
  6
ByLayer
 62
  256
370
   -1
100
AcDbMText
 10
388.6935483870968
 20
36.48655913978494
 30
0
 40
5
 41
7.777777777777778
 71
    4
 72
    1
  1
A4
  7
standard
210
0
220
0
230
1
 50
0
 73
    2
 44
1
  0
MTEXT
  5
B3
100
AcDbEntity
  8
Cartouche
  6
ByLayer
 62
  256
370
   -1
100
AcDbMText
 10
215.625
 20
49.37500000000001
 30
0
 40
4
 41
4.888888888888888
 71
    5
 72
    1
  1
N%%D
  7
standard
210
0
220
0
230
1
 50
0
 73
    2
 44
1
  0
MTEXT
  5
B4
100
AcDbEntity
  8
Cartouche
  6
ByLayer
 62
  256
370
   -1
100
AcDbMText
 10
284.2187500000002
 20
49.29687500000001
 30
0
 40
4
 41
43.77777983492694
 71
    5
 72
    1
  1
Version / modif.
  7
standard
210
0
220
0
230
1
 50
0
 73
    2
 44
1
  0
MTEXT
  5
B5
100
AcDbEntity
  8
Cartouche
  6
ByLayer
 62
  256
370
   -1
100
AcDbMText
 10
214.6626777777778
 20
56.11360000000003
 30
0
 40
4
 41
2.666666666666667
 71
    5
 72
    1
  1
A
  7
standard
210
0
220
0
230
1
 50
0
 73
    2
 44
1
  0
MTEXT
  5
B6
100
AcDbEntity
  8
Cartouche
  6
ByLayer
 62
  256
370
   -1
100
AcDbMText
 10
235.1713
 20
49.48270000000001
 30
0
 40
4
 41
11.11111111111154
 71
    5
 72
    1
  1
Date
  7
standard
210
0
220
0
230
1
 50
0
 73
    2
 44
1
  0
LINE
  5
B7
100
AcDbEntity
  8
Cartouche
  6
ByLayer
 62
  256
370
   -1
100
AcDbLine
 10
400
 20
277
 11
210
 21
277
  0
LINE
  5
B8
100
AcDbEntity
  8
Cartouche
  6
ByLayer
 62
  256
370
   -1
100
AcDbLine
 10
210
 20
277
 11
210
 21
0
  0
LINE
  5
B9
100
AcDbEntity
  8
Cartouche
  6
ByLayer
 62
  256
370
   -1
100
AcDbLine
 10
210
 20
0
 11
400
 21
0
  0
LINE
  5
BA
100
AcDbEntity
  8
Cartouche
  6
ByLayer
 62
  256
370
   -1
100
AcDbLine
 10
210
 20
76.94880000000012
 11
400.0000000000001
 21
76.94880000000012
  0
LINE
  5
BB
100
AcDbEntity
  8
Cartouche
  6
ByLayer
 62
  256
370
   -1
100
AcDbLine
 10
210
 20
68.96160000000009
 11
400.0000000000001
 21
68.96160000000009
  0
LINE
  5
BC
100
AcDbEntity
  8
Cartouche
  6
ByLayer
 62
  256
370
   -1
100
AcDbLine
 10
210
 20
60.97440000000006
 11
400.0000000000001
 21
60.97440000000006
  0
LINE
  5
BD
100
AcDbEntity
  8
Cartouche
  6
ByLayer
 62
  256
370
   -1
100
AcDbLine
 10
210
 20
52.98720000000003
 11
400.0000000000001
 21
52.98720000000002
  0
LINE
  5
BE
100
AcDbEntity
  8
Cartouche
  6
ByLayer
 62
  256
370
   -1
100
AcDbLine
 10
400.0000000000001
 20
45
 11
210
 21
45
  0
LINE
  5
BF
100
AcDbEntity
  8
Cartouche
  6
ByLayer
 62
  256
370
   -1
100
AcDbLine
 10
400.0000000000001
 20
0
 11
400
 21
277
  0
LINE
  5
C0
100
AcDbEntity
  8
Cartouche
  6
ByLayer
 62
  256
370
   -1
100
AcDbLine
 10
210
 20
84.93600000000015
 11
400
 21
84.93600000000015
  0
LINE
  5
C1
100
AcDbEntity
  8
Cartouche
  6
ByLayer
 62
  256
370
   -1
100
AcDbLine
 10
255
 20
84.93600000000015
 11
255
 21
45
  0
LINE
  5
C2
100
AcDbEntity
  8
Cartouche
  6
ByLayer
 62
  256
370
   -1
100
AcDbLine
 10
220
 20
84.93600000000015
 11
220
 21
45.00000000000001
  0
ENDBLK
  5
6E
330
6C
100
AcDbEntity
  8
0
100
AcDbBlockEnd
  0
BLOCK
  5
70
330
6F
100
AcDbEntity
  8
0
100
AcDbBlockBegin
  2
Cartouche A4
 70
    0
 10
0
 20
0
  3
Cartouche A4
  1

  0
INSERT
  5
C3
100
AcDbEntity
  8
0
  6
ByLayer
 62
  256
370
   -1
100
AcDbBlockReference
  2
Cartouche A3
 10
44.82269287109374
 20
43.86901855468749
 30
0
 41
1
 42
1
 43
0
 50
0
 70
    1
 71
    1
 44
0
 45
0
  0
ENDBLK
  5
71
330
6F
100
AcDbEntity
  8
0
100
AcDbBlockEnd
  0
ENDSEC
  0
SECTION
  2
ENTITIES
  0
HATCH
  5
C4
100
AcDbEntity
  8
Hachure
  6
ByLayer
 62
  256
370
   -1
100
AcDbHatch
 10
0
 20
0
 30
0
210
0
220
0
230
1
  2
gost_ceramics
 70
    0
 71
    0
 91
    1
 92
    0
 93
   14
 72
    1
 10
383.6800000000001
 20
225.9375
 11
383.6800000000001
 21
242.9375
 72
    1
 10
383.6800000000001
 20
242.9375
 11
379.6800000000001
 21
242.9375
 72
    1
 10
379.6800000000001
 20
242.9375
 11
379.6800000000001
 21
237.9375
 72
    1
 10
379.6800000000001
 20
237.9375
 11
376.6800000000001
 21
237.9375
 72
    1
 10
376.6800000000001
 20
237.9375
 11
376.6800000000001
 21
235.9375
 72
    1
 10
376.6800000000001
 20
235.9375
 11
381.6800000000001
 21
235.9375
 72
    1
 10
381.6800000000001
 20
235.9375
 11
381.6800000000001
 21
225.9375
 72
    1
 10
381.6800000000001
 20
225.9375
 11
381.6800000000001
 21
215.9375
 72
    1
 10
381.6800000000001
 20
215.9375
 11
376.6800000000001
 21
215.9375
 72
    1
 10
376.6800000000001
 20
215.9375
 11
376.6800000000001
 21
213.9375
 72
    1
 10
376.6800000000001
 20
213.9375
 11
379.6800000000001
 21
213.9375
 72
    1
 10
379.6800000000001
 20
213.9375
 11
379.6800000000001
 21
208.9375
 72
    1
 10
379.6800000000001
 20
208.9375
 11
383.6800000000001
 21
208.9375
 72
    1
 10
383.6800000000001
 20
208.9375
 11
383.6800000000001
 21
225.9375
 97
    0
 75
    0
 76
    1
 52
0
 41
1
 77
    0
 78
    0
 98
    0
  0
INSERT
  5
C5
100
AcDbEntity
  8
0
  6
ByLayer
 62
  256
370
   -1
100
AcDbBlockReference
  2
Cartouche A4
 10
72.5
 20
0
 30
0
 41
1
 42
1
 43
0
 50
0
 70
    1
 71
    1
 44
0
 45
0
  0
MTEXT
  5
C6
100
AcDbEntity
  8
0
  6
ByLayer
 62
  256
370
   -1
100
AcDbMText
 10
340.8
 20
100
 30
0
 40
4
 41
57.55555555555593
 71
    4
 72
    1
  1
28/04/2019  Création
  7
standard
210
0
220
0
230
1
 50
0
 73
    2
 44
1
  0
MTEXT
  5
C7
100
AcDbEntity
  8
0
  6
ByLayer
 62
  256
370
   -1
100
AcDbMText
 10
484.4800000000001
 20
81.28000000000002
 30
0
 40
5
 41
7.777777777777779
 71
    4
 72
    1
  1
1/1
  7
standard
210
0
220
0
230
1
 50
0
 73
    2
 44
1
  0
MTEXT
  5
C8
100
AcDbEntity
  8
0
  6
ByLayer
 62
  256
370
   -1
100
AcDbMText
 10
482.2400000000001
 20
66.24000000000001
 30
0
 40
5
 41
7.777777777777779
 71
    4
 72
    1
  1
1/1
  7
standard
210
0
220
0
230
1
 50
0
 73
    2
 44
1
  0
MTEXT
  5
C9
100
AcDbEntity
  8
0
  6
ByLayer
 62
  256
370
   -1
100
AcDbMText
 10
338.2400000000001
 20
80.16000000000001
 30
0
 40
7
 41
102.2777777777782
 71
    4
 72
    1
  1
BOUCHON  RAMBARDE
  7
standard
210
0
220
0
230
1
 50
0
 73
    2
 44
1
  0
MTEXT
  5
CA
100
AcDbEntity
  8
0
  6
ByLayer
 62
  256
370
   -1
100
AcDbMText
 10
338.4
 20
65.44000000000001
 30
0
 40
5
 41
66.25000000000087
 71
    4
 72
    1
  1
Matière : INOX 316L
  7
standard
210
0
220
0
230
1
 50
0
 73
    2
 44
1
  0
MTEXT
  5
CB
100
AcDbEntity
  8
0
  6
ByLayer
 62
  256
370
   -1
100
AcDbMText
 10
363.52
 20
50.72000000000001
 30
0
 40
5
 41
11.11111111111111
 71
    4
 72
    1
  1
EXE
  7
standard
210
0
220
0
230
1
 50
0
 73
    2
 44
1
  0
LINE
  5
CC
100
AcDbEntity
  8
Axe
  6
ByLayer
 62
  256
370
   -1
100
AcDbLine
 10
346.5625
 20
225.9375
 11
495.625
 21
225.9375
  0
CIRCLE
  5
CD
100
AcDbEntity
  8
0
  6
ByLayer
 62
  256
370
   -1
100
AcDbCircle
 10
446.25
 20
225.9375
 40
12
  0
CIRCLE
  5
CE
100
AcDbEntity
  8
0
  6
ByLayer
 62
  256
370
   -1
100
AcDbCircle
 10
446.25
 20
225.9375
 40
17
  0
CIRCLE
  5
CF
100
AcDbEntity
  8
0
  6
ByLayer
 62
  256
370
   -1
100
AcDbCircle
 10
446.25
 20
225.9375
 40
10
  0
LINE
  5
D0
100
AcDbEntity
  8
0
  6
ByLayer
 62
  256
370
   -1
100
AcDbLine
 10
383.6800000000001
 20
225.9375
 11
383.6800000000001
 21
242.9375
  0
LINE
  5
D1
100
AcDbEntity
  8
0
  6
ByLayer
 62
  256
370
   -1
100
AcDbLine
 10
383.6800000000001
 20
242.9375
 11
379.6800000000001
 21
242.9375
  0
LINE
  5
D2
100
AcDbEntity
  8
0
  6
ByLayer
 62
  256
370
   -1
100
AcDbLine
 10
379.6800000000001
 20
242.9375
 11
379.6800000000001
 21
237.9375
  0
LINE
  5
D3
100
AcDbEntity
  8
0
  6
ByLayer
 62
  256
370
   -1
100
AcDbLine
 10
379.6800000000001
 20
237.9375
 11
376.6800000000001
 21
237.9375
  0
LINE
  5
D4
100
AcDbEntity
  8
0
  6
ByLayer
 62
  256
370
   -1
100
AcDbLine
 10
376.6800000000001
 20
237.9375
 11
376.6800000000001
 21
235.9375
  0
LINE
  5
D5
100
AcDbEntity
  8
0
  6
ByLayer
 62
  256
370
   -1
100
AcDbLine
 10
376.6800000000001
 20
235.9375
 11
381.6800000000001
 21
235.9375
  0
LINE
  5
D6
100
AcDbEntity
  8
0
  6
ByLayer
 62
  256
370
   -1
100
AcDbLine
 10
381.6800000000001
 20
235.9375
 11
381.6800000000001
 21
225.9375
  0
LINE
  5
D7
100
AcDbEntity
  8
0
  6
ByLayer
 62
  256
370
   -1
100
AcDbLine
 10
383.6800000000001
 20
225.9375
 11
383.6800000000001
 21
208.9375
  0
LINE
  5
D8
100
AcDbEntity
  8
0
  6
ByLayer
 62
  256
370
   -1
100
AcDbLine
 10
383.6800000000001
 20
208.9375
 11
379.6800000000001
 21
208.9375
  0
LINE
  5
D9
100
AcDbEntity
  8
0
  6
ByLayer
 62
  256
370
   -1
100
AcDbLine
 10
379.6800000000001
 20
208.9375
 11
379.6800000000001
 21
213.9375
  0
LINE
  5
DA
100
AcDbEntity
  8
0
  6
ByLayer
 62
  256
370
   -1
100
AcDbLine
 10
379.6800000000001
 20
213.9375
 11
376.6800000000001
 21
213.9375
  0
LINE
  5
DB
100
AcDbEntity
  8
0
  6
ByLayer
 62
  256
370
   -1
100
AcDbLine
 10
376.6800000000001
 20
213.9375
 11
376.6800000000001
 21
215.9375
  0
LINE
  5
DC
100
AcDbEntity
  8
0
  6
ByLayer
 62
  256
370
   -1
100
AcDbLine
 10
376.6800000000001
 20
215.9375
 11
381.6800000000001
 21
215.9375
  0
LINE
  5
DD
100
AcDbEntity
  8
0
  6
ByLayer
 62
  256
370
   -1
100
AcDbLine
 10
381.6800000000001
 20
215.9375
 11
381.6800000000001
 21
225.9375
  0
LINE
  5
DE
100
AcDbEntity
  8
0
  6
ByLayer
 62
  256
370
   -1
100
AcDbLine
 10
376.6800000000001
 20
235.9375
 11
376.6800000000001
 21
215.9375
  0
DIMENSION
  5
DF
100
AcDbEntity
  8
Cotation
  6
ByLayer
 62
  256
370
   -1
100
AcDbDimension
  2
*D1
 10
381.6800000000001
 20
229.4400000000005
 30
0
 11
379.1800000000001
 21
231.3150000000005
 31
0
 70
   32
 71
    5
  3
Standard
 53
0
210
0
220
0
230
1
100
AcDbAlignedDimension
 13
376.6800000000001
 23
235.9375
 33
0
 14
381.6800000000001
 24
235.9375
 34
0
100
AcDbRotatedDimension
  0
DIMENSION
  5
E0
100
AcDbEntity
  8
Cotation
  6
ByLayer
 62
  256
370
   -1
100
AcDbDimension
  2
*D2
 10
384.8000000000009
 20
263.3600000000006
 30
0
 11
380.1800000000001
 21
265.2350000000006
 31
0
 70
   32
 71
    5
  3
Standard
 53
0
210
0
220
0
230
1
100
AcDbAlignedDimension
 13
376.6800000000001
 23
237.9375
 33
0
 14
383.6800000000001
 24
242.9375
 34
0
100
AcDbRotatedDimension
  0
DIMENSION
  5
E1
100
AcDbEntity
  8
Cotation
  6
ByLayer
 62
  256
370
   -1
100
AcDbDimension
  2
*D3
 10
383.3600000000009
 20
255.5200000000006
 30
0
 11
381.6800000000001
 21
257.3950000000006
 31
0
 70
   32
 71
    5
  3
Standard
 53
0
210
0
220
0
230
1
100
AcDbAlignedDimension
 13
379.6800000000001
 23
242.9375
 33
0
 14
383.6800000000001
 24
242.9375
 34
0
100
AcDbRotatedDimension
  0
LEADER
  5
E2
100
AcDbEntity
  8
Cotation
  6
ByLayer
 62
  256
370
   -1
100
AcDbLeader
  3
Standard
 71
    1
 72
    0
 73
    3
 74
    0
 75
    0
 40
1
 41
10
 76
6
 76
6
 10
452.160000000001
 20
242.2400000000005
 30
0
 10
455.360000000001
 20
249.6000000000006
 30
0
 10
458.7200000000011
 20
249.7600000000006
 30
0
 10
458.7200000000011
 20
249.7600000000006
 30
0
 10
459.040000000001
 20
249.7600000000006
 30
0
 10
459.040000000001
 20
249.7600000000006
 30
0
  0
LEADER
  5
E3
100
AcDbEntity
  8
Cotation
  6
ByLayer
 62
  256
370
   -1
100
AcDbLeader
  3
Standard
 71
    1
 72
    0
 73
    3
 74
    0
 75
    0
 40
1
 41
10
 76
0
 76
0
  0
LEADER
  5
E4
100
AcDbEntity
  8
Cotation
  6
ByLayer
 62
  256
370
   -1
100
AcDbLeader
  3
Standard
 71
    1
 72
    0
 73
    3
 74
    0
 75
    0
 40
1
 41
10
 76
3
 76
3
 10
454.560000000001
 20
234.7200000000005
 30
0
 10
461.120000000001
 20
243.2000000000006
 30
0
 10
465.4400000000011
 20
243.0400000000006
 30
0
  0
LEADER
  5
E5
100
AcDbEntity
  8
Cotation
  6
ByLayer
 62
  256
370
   -1
100
AcDbLeader
  3
Standard
 71
    1
 72
    0
 73
    3
 74
    0
 75
    0
 40
1
 41
10
 76
3
 76
3
 10
455.8400000000011
 20
228.6400000000005
 30
0
 10
465.600000000001
 20
233.2800000000005
 30
0
 10
470.8800000000011
 20
232.9600000000005
 30
0
  0
MTEXT
  5
E6
100
AcDbEntity
  8
Cotation
  6
ByLayer
 62
  256
370
   -1
100
AcDbMText
 10
472.4800000000011
 20
234.7200000000005
 30
0
 40
3
 41
6.666666666666666
 71
    4
 72
    1
  1
%%C20
  7
standard
210
0
220
0
230
1
 50
0
 73
    2
 44
1
  0
MTEXT
  5
E7
100
AcDbEntity
  8
Cotation
  6
ByLayer
 62
  256
370
   -1
100
AcDbMText
 10
467.6800000000011
 20
244.9600000000005
 30
0
 40
3
 41
6.999999999999999
 71
    4
 72
    1
  1
%%C24
  7
standard
210
0
220
0
230
1
 50
0
 73
    2
 44
1
  0
MTEXT
  5
E8
100
AcDbEntity
  8
Cotation
  6
ByLayer
 62
  256
370
   -1
100
AcDbMText
 10
460.9600000000011
 20
251.8400000000006
 30
0
 40
3
 41
7.000000000000187
 71
    4
 72
    1
  1
%%C34
  7
standard
210
0
220
0
230
1
 50
0
 73
    2
 44
1
  0
LINE
  5
E9
100
AcDbEntity
  8
Cotation
  6
DASHEDTINY
 62
   96
420
32768
370
   25
100
AcDbLine
 10
384.6800000000001
 20
207.9375
 11
379.6800000000001
 21
207.9375
  0
LINE
  5
EA
100
AcDbEntity
  8
Cotation
  6
DASHEDTINY
 62
   96
420
32768
370
   25
100
AcDbLine
 10
384.6800000000001
 20
225.9375
 11
384.6800000000001
 21
207.9375
  0
LINE
  5
EB
100
AcDbEntity
  8
Cotation
  6
DASHEDTINY
 62
   96
420
32768
370
   25
100
AcDbLine
 10
384.6800000000001
 20
243.9375
 11
379.6800000000001
 21
243.9375
  0
LINE
  5
EC
100
AcDbEntity
  8
Cotation
  6
DASHEDTINY
 62
   96
420
32768
370
   25
100
AcDbLine
 10
384.6800000000001
 20
225.9375
 11
384.6800000000001
 21
243.9375
  0
LEADER
  5
ED
100
AcDbEntity
  8
Cotation
  6
ByLayer
 62
  256
370
   -1
100
AcDbLeader
  3
Standard
 71
    1
 72
    0
 73
    3
 74
    0
 75
    0
 40
1
 41
10
 76
3
 76
3
 10
384.6800000000001
 20
212.0704000000009
 30
0
 10
394.4448000000017
 20
199.4752000000009
 30
0
 10
398.1312000000017
 20
199.4752000000009
 30
0
  0
MTEXT
  5
EE
100
AcDbEntity
  8
Cotation
  6
ByLayer
 62
  256
370
   -1
100
AcDbMText
 10
399.5200000000019
 20
199.4752000000009
 30
0
 40
3
 41
47.33333487619535
 71
    4
 72
    1
  1
Face d'aspet Ra 1.6\PPas de picot au centre\PCasser l'arete
  7
standard
210
0
220
0
230
1
 50
0
 73
    2
 44
1
  0
MTEXT
  5
EF
100
AcDbEntity
  8
Cotation
  6
ByLayer
 62
  256
370
   -1
100
AcDbMText
 10
351.6800000000017
 20
222.7200000000011
 30
0
 40
3
 41
13.25000000000028
 71
    4
 72
    1
  1
R 1max
  7
standard
210
0
220
0
230
1
 50
0
 73
    2
 44
1
  0
LEADER
  5
F0
100
AcDbEntity
  8
Cotation
  6
ByLayer
 62
  256
370
   -1
100
AcDbLeader
  3
Standard
 71
    1
 72
    0
 73
    3
 74
    0
 75
    0
 40
1
 41
10
 76
3
 76
3
 10
381.6800000000001
 20
215.9375
 30
0
 10
369.9200000000018
 20
221.2800000000011
 30
0
 10
365.7600000000018
 20
221.2800000000011
 30
0
  0
LINE
  5
F1
100
AcDbEntity
  8
Axe
  6
ByLayer
 62
  256
370
   -1
100
AcDbLine
 10
446.25
 20
249.7500000000013
 11
446.25
 21
203.7500000000011
  0
ENDSEC
  0
SECTION
  2
OBJECTS
  0
DICTIONARY
  5
C
330
0
100
AcDbDictionary
281
    1
  3
ACAD_GROUP
350
D
  0
DICTIONARY
  5
D
330
C
100
AcDbDictionary
281
    1
  0
ENDSEC
  0
EOF
