  0
SECTION
  2
HEADER
  9
$ACADVER
  1
AC1027
  9
$ACADMAINTVER
 70
     8
  9
$DWGCODEPAGE
  3
ANSI_1252
  9
$REQUIREDVERSIONS
160
                 0
  9
$INSBASE
 10
0.0
 20
0.0
 30
0.0
  9
$EXTMIN
 10
1.000000000000000E+20
 20
1.000000000000000E+20
 30
1.000000000000000E+20
  9
$EXTMAX
 10
-1.000000000000000E+20
 20
-1.000000000000000E+20
 30
-1.000000000000000E+20
  9
$LIMMIN
 10
0.0
 20
0.0
  9
$LIMMAX
 10
12.0
 20
9.0
  9
$ORTHOMODE
 70
     0
  9
$REGENMODE
 70
     1
  9
$FILLMODE
 70
     1
  9
$QTEXTMODE
 70
     0
  9
$MIRRTEXT
 70
     1
  9
$LTSCALE
 40
1.0
  9
$ATTMODE
 70
     1
  9
$TEXTSIZE
 40
0.2
  9
$TRACEWID
 40
0.05
  9
$TEXTSTYLE
  7
Standard
  9
$CLAYER
  8
0
  9
$CELTYPE
  6
ByLayer
  9
$CECOLOR
 62
    18
  9
$CELTSCALE
 40
1.0
  9
$DISPSILH
 70
     0
  9
$DIMSCALE
 40
1.0
  9
$DIMASZ
 40
2.5
  9
$DIMEXO
 40
0.625
  9
$DIMDLI
 40
0.38
  9
$DIMRND
 40
0.0
  9
$DIMDLE
 40
0.0
  9
$DIMEXE
 40
1.25
  9
$DIMTP
 40
0.0
  9
$DIMTM
 40
0.0
  9
$DIMTXT
 40
2.5
  9
$DIMCEN
 40
0.09
  9
$DIMTSZ
 40
0.0
  9
$DIMTOL
 70
     0
  9
$DIMLIM
 70
     0
  9
$DIMTIH
 70
     1
  9
$DIMTOH
 70
     1
  9
$DIMSE1
 70
     0
  9
$DIMSE2
 70
     0
  9
$DIMTAD
 70
     0
  9
$DIMZIN
 70
     8
  9
$DIMBLK
  1

  9
$DIMASO
 70
     1
  9
$DIMSHO
 70
     1
  9
$DIMPOST
  1

  9
$DIMAPOST
  1

  9
$DIMALT
 70
     0
  9
$DIMALTD
 70
     2
  9
$DIMALTF
 40
25.4
  9
$DIMLFAC
 40
1.0
  9
$DIMTOFL
 70
     0
  9
$DIMTVP
 40
0.0
  9
$DIMTIX
 70
     0
  9
$DIMSOXD
 70
     0
  9
$DIMSAH
 70
     0
  9
$DIMBLK1
  1

  9
$DIMBLK2
  1

  9
$DIMSTYLE
  2
Standard
  9
$DIMCLRD
 70
    18
  9
$DIMCLRE
 70
    18
  9
$DIMCLRT
 70
    18
  9
$DIMTFAC
 40
1.0
  9
$DIMGAP
 40
0.625
  9
$DIMJUST
 70
     0
  9
$DIMSD1
 70
     0
  9
$DIMSD2
 70
     0
  9
$DIMTOLJ
 70
     1
  9
$DIMTZIN
 70
     0
  9
$DIMALTZ
 70
     0
  9
$DIMALTTZ
 70
     0
  9
$DIMUPT
 70
     0
  9
$DIMDEC
 70
     4
  9
$DIMTDEC
 70
     4
  9
$DIMALTU
 70
     2
  9
$DIMALTTD
 70
     2
  9
$DIMTXSTY
  7
Standard
  9
$DIMAUNIT
 70
     0
  9
$DIMADEC
 70
     0
  9
$DIMALTRND
 40
0.0
  9
$DIMAZIN
 70
     2
  9
$DIMDSEP
 70
    46
  9
$DIMATFIT
 70
     3
  9
$DIMFRAC
 70
     0
  9
$DIMLDRBLK
  1

  9
$DIMLUNIT
 70
     2
  9
$DIMLWD
 70
    -2
  9
$DIMLWE
 70
    -2
  9
$DIMTMOVE
 70
     0
  9
$DIMFXL
 40
1.0
  9
$DIMFXLON
 70
     0
  9
$DIMJOGANG
 40
0.7853981633974483
  9
$DIMTFILL
 70
     0
  9
$DIMTFILLCLR
 70
     0
  9
$DIMARCSYM
 70
     0
  9
$DIMLTYPE
  6

  9
$DIMLTEX1
  6

  9
$DIMLTEX2
  6

  9
$DIMTXTDIRECTION
 70
     0
  9
$LUNITS
 70
     2
  9
$LUPREC
 70
     4
  9
$SKETCHINC
 40
0.1
  9
$FILLETRAD
 40
0.5
  9
$AUNITS
 70
     0
  9
$AUPREC
 70
     0
  9
$MENU
  1
.
  9
$ELEVATION
 40
0.0
  9
$PELEVATION
 40
0.0
  9
$THICKNESS
 40
0.0
  9
$LIMCHECK
 70
     0
  9
$CHAMFERA
 40
0.0
  9
$CHAMFERB
 40
0.0
  9
$CHAMFERC
 40
0.0
  9
$CHAMFERD
 40
0.0
  9
$SKPOLY
 70
     0
  9
$TDCREATE
 40
2458517.63471294
  9
$TDUCREATE
 40
2458517.593046273
  9
$TDUPDATE
 40
2458517.634713831
  9
$TDUUPDATE
 40
2458517.593047164
  9
$TDINDWG
 40
0.0000000116
  9
$TDUSRTIMER
 40
0.0000000116
  9
$USRTIMER
 70
     1
  9
$ANGBASE
 50
0.0
  9
$ANGDIR
 70
     0
  9
$PDMODE
 70
     0
  9
$PDSIZE
 40
0.0
  9
$PLINEWID
 40
0.0
  9
$SPLFRAME
 70
     0
  9
$SPLINETYPE
 70
     6
  9
$SPLINESEGS
 70
     8
  9
$HANDSEED
  5
3A6
  9
$SURFTAB1
 70
     6
  9
$SURFTAB2
 70
     6
  9
$SURFTYPE
 70
     6
  9
$SURFU
 70
     6
  9
$SURFV
 70
     6
  9
$UCSBASE
  2

  9
$UCSNAME
  2

  9
$UCSORG
 10
0.0
 20
0.0
 30
0.0
  9
$UCSXDIR
 10
1.0
 20
0.0
 30
0.0
  9
$UCSYDIR
 10
0.0
 20
1.0
 30
0.0
  9
$UCSORTHOREF
  2

  9
$UCSORTHOVIEW
 70
     0
  9
$UCSORGTOP
 10
0.0
 20
0.0
 30
0.0
  9
$UCSORGBOTTOM
 10
0.0
 20
0.0
 30
0.0
  9
$UCSORGLEFT
 10
0.0
 20
0.0
 30
0.0
  9
$UCSORGRIGHT
 10
0.0
 20
0.0
 30
0.0
  9
$UCSORGFRONT
 10
0.0
 20
0.0
 30
0.0
  9
$UCSORGBACK
 10
0.0
 20
0.0
 30
0.0
  9
$PUCSBASE
  2

  9
$PUCSNAME
  2

  9
$PUCSORG
 10
0.0
 20
0.0
 30
0.0
  9
$PUCSXDIR
 10
1.0
 20
0.0
 30
0.0
  9
$PUCSYDIR
 10
0.0
 20
1.0
 30
0.0
  9
$PUCSORTHOREF
  2

  9
$PUCSORTHOVIEW
 70
     0
  9
$PUCSORGTOP
 10
0.0
 20
0.0
 30
0.0
  9
$PUCSORGBOTTOM
 10
0.0
 20
0.0
 30
0.0
  9
$PUCSORGLEFT
 10
0.0
 20
0.0
 30
0.0
  9
$PUCSORGRIGHT
 10
0.0
 20
0.0
 30
0.0
  9
$PUCSORGFRONT
 10
0.0
 20
0.0
 30
0.0
  9
$PUCSORGBACK
 10
0.0
 20
0.0
 30
0.0
  9
$USERI1
 70
     0
  9
$USERI2
 70
     0
  9
$USERI3
 70
     0
  9
$USERI4
 70
     0
  9
$USERI5
 70
     0
  9
$USERR1
 40
0.0
  9
$USERR2
 40
0.0
  9
$USERR3
 40
0.0
  9
$USERR4
 40
0.0
  9
$USERR5
 40
0.0
  9
$WORLDVIEW
 70
     1
  9
$SHADEDGE
 70
     3
  9
$SHADEDIF
 70
    70
  9
$TILEMODE
 70
     1
  9
$MAXACTVP
 70
     2
  9
$PINSBASE
 10
0.0
 20
0.0
 30
0.0
  9
$PLIMCHECK
 70
     0
  9
$PEXTMIN
 10
1.000000000000000E+20
 20
1.000000000000000E+20
 30
1.000000000000000E+20
  9
$PEXTMAX
 10
-1.000000000000000E+20
 20
-1.000000000000000E+20
 30
-1.000000000000000E+20
  9
$PLIMMIN
 10
0.0
 20
0.0
  9
$PLIMMAX
 10
12.0
 20
9.0
  9
$UNITMODE
 70
     0
  9
$VISRETAIN
 70
     1
  9
$PLINEGEN
 70
     0
  9
$PSLTSCALE
 70
     1
  9
$TREEDEPTH
 70
  3020
  9
$CMLSTYLE
  2
Standard
  9
$CMLJUST
 70
     0
  9
$CMLSCALE
 40
1.0
  9
$PROXYGRAPHICS
 70
     1
  9
$MEASUREMENT
 70
     1
  9
$CELWEIGHT
370
    -1
  9
$ENDCAPS
280
     0
  9
$JOINSTYLE
280
     0
  9
$LWDISPLAY
290
     0
  9
$INSUNITS
 70
     4
  9
$HYPERLINKBASE
  1

  9
$STYLESHEET
  1

  9
$XEDIT
290
     1
  9
$CEPSNTYPE
380
     0
  9
$PSTYLEMODE
290
     1
  9
$FINGERPRINTGUID
  2
{F83391CE-AD3D-4A3C-ACE1-A92746D50EFB}
  9
$VERSIONGUID
  2
{FAEB1C32-E019-11D5-929B-00C0DF256EC4}
  9
$EXTNAMES
290
     1
  9
$PSVPSCALE
 40
0.0
  9
$OLESTARTUP
290
     0
  9
$SORTENTS
280
   127
  9
$INDEXCTL
280
     0
  9
$HIDETEXT
280
     1
  9
$XCLIPFRAME
280
     2
  9
$HALOGAP
280
     0
  9
$OBSCOLOR
 70
   257
  9
$OBSLTYPE
280
     0
  9
$INTERSECTIONDISPLAY
280
     0
  9
$INTERSECTIONCOLOR
 70
   257
  9
$DIMASSOC
280
     2
  9
$PROJECTNAME
  1

  9
$CAMERADISPLAY
290
     0
  9
$LENSLENGTH
 40
50.0
  9
$CAMERAHEIGHT
 40
0.0
  9
$STEPSPERSEC
 40
2.0
  9
$STEPSIZE
 40
6.0
  9
$3DDWFPREC
 40
2.0
  9
$PSOLWIDTH
 40
0.25
  9
$PSOLHEIGHT
 40
4.0
  9
$LOFTANG1
 40
1.570796326794897
  9
$LOFTANG2
 40
1.570796326794897
  9
$LOFTMAG1
 40
0.0
  9
$LOFTMAG2
 40
0.0
  9
$LOFTPARAM
 70
     7
  9
$LOFTNORMALS
280
     1
  9
$LATITUDE
 40
37.795
  9
$LONGITUDE
 40
-122.394
  9
$NORTHDIRECTION
 40
0.0
  9
$TIMEZONE
 70
 -8000
  9
$LIGHTGLYPHDISPLAY
280
     1
  9
$TILEMODELIGHTSYNCH
280
     1
  9
$CMATERIAL
347
200
  9
$SOLIDHIST
280
     0
  9
$SHOWHIST
280
     1
  9
$DWFFRAME
280
     2
  9
$DGNFRAME
280
     2
  9
$REALWORLDSCALE
290
     1
  9
$INTERFERECOLOR
 62
   256
  9
$CSHADOW
280
     0
  9
$SHADOWPLANELOCATION
 40
0.0
  0
ENDSEC
  0
SECTION
  2
CLASSES
  0
CLASS
  1
ACDBDICTIONARYWDFLT
  2
AcDbDictionaryWithDefault
  3
ObjectDBX Classes
 90
        0
 91
        4
280
     0
281
     0
  0
CLASS
  1
VISUALSTYLE
  2
AcDbVisualStyle
  3
ObjectDBX Classes
 90
     4095
 91
        4
280
     0
281
     0
  0
CLASS
  1
MATERIAL
  2
AcDbMaterial
  3
ObjectDBX Classes
 90
     1153
 91
        4
280
     0
281
     0
  0
CLASS
  1
SCALE
  2
AcDbScale
  3
ObjectDBX Classes
 90
     1153
 91
        4
280
     0
281
     0
  0
CLASS
  1
TABLESTYLE
  2
AcDbTableStyle
  3
ObjectDBX Classes
 90
     4095
 91
        4
280
     0
281
     0
  0
CLASS
  1
MLEADERSTYLE
  2
AcDbMLeaderStyle
  3
ACDB_MLEADERSTYLE_CLASS
 90
     4095
 91
        4
280
     0
281
     0
  0
CLASS
  1
SUN
  2
AcDbSun
  3
SCENEOE
 90
     1153
 91
        4
280
     0
281
     0
  0
CLASS
  1
DICTIONARYVAR
  2
AcDbDictionaryVar
  3
ObjectDBX Classes
 90
        0
 91
        4
280
     0
281
     0
  0
CLASS
  1
CELLSTYLEMAP
  2
AcDbCellStyleMap
  3
ObjectDBX Classes
 90
     1152
 91
        4
280
     0
281
     0
  0
ENDSEC
  0
SECTION
  2
TABLES
  0
TABLE
  2
VPORT
  5
1C5
330
0
100
AcDbSymbolTable
 70
     1
  0
VPORT
  5
1E5
330
1C5
100
AcDbSymbolTableRecord
100
AcDbViewportTableRecord
  2
*Active
 70
     0
 10
0.0
 20
0.0
 11
1.0
 21
1.0
 12
10.42990654205607
 22
4.5
 13
0.0
 23
0.0
 14
0.5
 24
0.5
 15
0.5
 25
0.5
 16
0.0
 26
0.0
 36
1.0
 17
0.0
 27
0.0
 37
0.0
 40
9.0
 41
1.972972972850329
 42
50.0
 43
0.0
 44
0.0
 50
0.0
 51
0.0
 71
     0
 72
   100
 73
     1
 74
     3
 75
     0
 76
     0
 77
     0
 78
     0
281
     0
 65
     1
110
0.0
120
0.0
130
0.0
111
1.0
121
0.0
131
0.0
112
0.0
122
1.0
132
0.0
 79
     0
146
0.0
 60
     3
 61
     5
292
     1
282
     1
141
0.0
142
0.0
 63
   250
361
229
  0
ENDTAB
  0
TABLE
  2
LTYPE
  5
1C2
330
0
100
AcDbSymbolTable
 70
    48
  0
LTYPE
  5
1D0
330
1C2
100
AcDbSymbolTableRecord
100
AcDbLinetypeTableRecord
  2
ByBlock
 70
     0
  3

 72
    65
 73
     0
 40
0.0
  0
LTYPE
  5
1D1
330
1C2
100
AcDbSymbolTableRecord
100
AcDbLinetypeTableRecord
  2
ByLayer
 70
     0
  3

 72
    65
 73
     0
 40
0.0
  0
LTYPE
  5
1D2
330
1C2
100
AcDbSymbolTableRecord
100
AcDbLinetypeTableRecord
  2
Continuous
 70
     0
  3
Solid line
 72
    65
 73
     0
 40
0.0
  0
LTYPE
  5
25D
330
1C2
100
AcDbSymbolTableRecord
100
AcDbLinetypeTableRecord
  2
ACAD_ISO02W100
 70
     0
  3
ISO dash __ __ __ __ __ __ __ __ __ __ __ __ __
 72
    65
 73
     2
 40
15.0
 49
12.0
 74
     0
 49
-3.0
 74
     0
  0
LTYPE
  5
25E
330
1C2
100
AcDbSymbolTableRecord
100
AcDbLinetypeTableRecord
  2
ACAD_ISO03W100
 70
     0
  3
ISO dash space __    __    __    __    __    __
 72
    65
 73
     2
 40
30.0
 49
12.0
 74
     0
 49
-18.0
 74
     0
  0
LTYPE
  5
25F
330
1C2
100
AcDbSymbolTableRecord
100
AcDbLinetypeTableRecord
  2
ACAD_ISO04W100
 70
     0
  3
ISO long-dash dot ____ . ____ . ____ . ____ . _
 72
    65
 73
     4
 40
30.0
 49
24.0
 74
     0
 49
-3.0
 74
     0
 49
0.0
 74
     0
 49
-3.0
 74
     0
  0
LTYPE
  5
260
330
1C2
100
AcDbSymbolTableRecord
100
AcDbLinetypeTableRecord
  2
ACAD_ISO05W100
 70
     0
  3
ISO long-dash double-dot ____ .. ____ .. ____ . 
 72
    65
 73
     6
 40
33.0
 49
24.0
 74
     0
 49
-3.0
 74
     0
 49
0.0
 74
     0
 49
-3.0
 74
     0
 49
0.0
 74
     0
 49
-3.0
 74
     0
  0
LTYPE
  5
261
330
1C2
100
AcDbSymbolTableRecord
100
AcDbLinetypeTableRecord
  2
ACAD_ISO06W100
 70
     0
  3
ISO long-dash triple-dot ____ ... ____ ... ____
 72
    65
 73
     8
 40
36.0
 49
24.0
 74
     0
 49
-3.0
 74
     0
 49
0.0
 74
     0
 49
-3.0
 74
     0
 49
0.0
 74
     0
 49
-3.0
 74
     0
 49
0.0
 74
     0
 49
-3.0
 74
     0
  0
LTYPE
  5
262
330
1C2
100
AcDbSymbolTableRecord
100
AcDbLinetypeTableRecord
  2
ACAD_ISO07W100
 70
     0
  3
ISO dot . . . . . . . . . . . . . . . . . . . . 
 72
    65
 73
     2
 40
3.0
 49
0.0
 74
     0
 49
-3.0
 74
     0
  0
LTYPE
  5
263
330
1C2
100
AcDbSymbolTableRecord
100
AcDbLinetypeTableRecord
  2
ACAD_ISO08W100
 70
     0
  3
ISO long-dash short-dash ____ __ ____ __ ____ _
 72
    65
 73
     4
 40
36.0
 49
24.0
 74
     0
 49
-3.0
 74
     0
 49
6.0
 74
     0
 49
-3.0
 74
     0
  0
LTYPE
  5
264
330
1C2
100
AcDbSymbolTableRecord
100
AcDbLinetypeTableRecord
  2
ACAD_ISO09W100
 70
     0
  3
ISO long-dash double-short-dash ____ __ __ ____
 72
    65
 73
     6
 40
45.0
 49
24.0
 74
     0
 49
-3.0
 74
     0
 49
6.0
 74
     0
 49
-3.0
 74
     0
 49
6.0
 74
     0
 49
-3.0
 74
     0
  0
LTYPE
  5
265
330
1C2
100
AcDbSymbolTableRecord
100
AcDbLinetypeTableRecord
  2
ACAD_ISO10W100
 70
     0
  3
ISO dash dot __ . __ . __ . __ . __ . __ . __ . 
 72
    65
 73
     4
 40
18.0
 49
12.0
 74
     0
 49
-3.0
 74
     0
 49
0.0
 74
     0
 49
-3.0
 74
     0
  0
LTYPE
  5
266
330
1C2
100
AcDbSymbolTableRecord
100
AcDbLinetypeTableRecord
  2
ACAD_ISO11W100
 70
     0
  3
ISO double-dash dot __ __ . __ __ . __ __ . __ _
 72
    65
 73
     6
 40
33.0
 49
12.0
 74
     0
 49
-3.0
 74
     0
 49
12.0
 74
     0
 49
-3.0
 74
     0
 49
0.0
 74
     0
 49
-3.0
 74
     0
  0
LTYPE
  5
267
330
1C2
100
AcDbSymbolTableRecord
100
AcDbLinetypeTableRecord
  2
ACAD_ISO12W100
 70
     0
  3
ISO dash double-dot __ . . __ . . __ . . __ . . 
 72
    65
 73
     6
 40
21.0
 49
12.0
 74
     0
 49
-3.0
 74
     0
 49
0.0
 74
     0
 49
-3.0
 74
     0
 49
0.0
 74
     0
 49
-3.0
 74
     0
  0
LTYPE
  5
268
330
1C2
100
AcDbSymbolTableRecord
100
AcDbLinetypeTableRecord
  2
ACAD_ISO13W100
 70
     0
  3
ISO double-dash double-dot __ __ . . __ __ . . _
 72
    65
 73
     8
 40
36.0
 49
12.0
 74
     0
 49
-3.0
 74
     0
 49
12.0
 74
     0
 49
-3.0
 74
     0
 49
0.0
 74
     0
 49
-3.0
 74
     0
 49
0.0
 74
     0
 49
-3.0
 74
     0
  0
LTYPE
  5
269
330
1C2
100
AcDbSymbolTableRecord
100
AcDbLinetypeTableRecord
  2
ACAD_ISO14W100
 70
     0
  3
ISO dash triple-dot __ . . . __ . . . __ . . . _
 72
    65
 73
     8
 40
24.0
 49
12.0
 74
     0
 49
-3.0
 74
     0
 49
0.0
 74
     0
 49
-3.0
 74
     0
 49
0.0
 74
     0
 49
-3.0
 74
     0
 49
0.0
 74
     0
 49
-3.0
 74
     0
  0
LTYPE
  5
26A
330
1C2
100
AcDbSymbolTableRecord
100
AcDbLinetypeTableRecord
  2
ACAD_ISO15W100
 70
     0
  3
ISO double-dash triple-dot __ __ . . . __ __ . .
 72
    65
 73
    10
 40
39.0
 49
12.0
 74
     0
 49
-3.0
 74
     0
 49
12.0
 74
     0
 49
-3.0
 74
     0
 49
0.0
 74
     0
 49
-3.0
 74
     0
 49
0.0
 74
     0
 49
-3.0
 74
     0
 49
0.0
 74
     0
 49
-3.0
 74
     0
  0
LTYPE
  5
26D
330
1C2
100
AcDbSymbolTableRecord
100
AcDbLinetypeTableRecord
  2
BATTING
 70
     0
  3
Batting SSSSSSSSSSSSSSSSSSSSSSSSSSSSSSSSSSSSSSSSSSSSSSS
 72
    65
 73
     4
 40
10.16254
 49
0.00254
 74
     0
 49
-2.54
 74
     2
 75
     0
340
26B
 46
2.54
 50
0.0
 44
-2.54
 45
0.0
  9
BAT
 49
-5.08
 74
     2
 75
     0
340
26C
 46
2.54
 50
180.0
 44
2.54
 45
0.0
  9
BAT
 49
-2.54
 74
     0
  0
LTYPE
  5
26E
330
1C2
100
AcDbSymbolTableRecord
100
AcDbLinetypeTableRecord
  2
BORDER
 70
     0
  3
Border __ __ . __ __ . __ __ . __ __ . __ __ .
 72
    65
 73
     6
 40
44.45
 49
12.7
 74
     0
 49
-6.35
 74
     0
 49
12.7
 74
     0
 49
-6.35
 74
     0
 49
0.0
 74
     0
 49
-6.35
 74
     0
  0
LTYPE
  5
26F
330
1C2
100
AcDbSymbolTableRecord
100
AcDbLinetypeTableRecord
  2
BORDER2
 70
     0
  3
Border (.5x) __.__.__.__.__.__.__.__.__.__.__.
 72
    65
 73
     6
 40
22.225
 49
6.35
 74
     0
 49
-3.175
 74
     0
 49
6.35
 74
     0
 49
-3.175
 74
     0
 49
0.0
 74
     0
 49
-3.175
 74
     0
  0
LTYPE
  5
270
330
1C2
100
AcDbSymbolTableRecord
100
AcDbLinetypeTableRecord
  2
BORDERX2
 70
     0
  3
Border (2x) ____  ____  .  ____  ____  .  ___
 72
    65
 73
     6
 40
88.89999999999999
 49
25.4
 74
     0
 49
-12.7
 74
     0
 49
25.4
 74
     0
 49
-12.7
 74
     0
 49
0.0
 74
     0
 49
-12.7
 74
     0
  0
LTYPE
  5
271
330
1C2
100
AcDbSymbolTableRecord
100
AcDbLinetypeTableRecord
  2
CENTER
 70
     0
  3
Center ____ _ ____ _ ____ _ ____ _ ____ _ ____
 72
    65
 73
     4
 40
50.8
 49
31.75
 74
     0
 49
-6.35
 74
     0
 49
6.35
 74
     0
 49
-6.35
 74
     0
  0
LTYPE
  5
272
330
1C2
100
AcDbSymbolTableRecord
100
AcDbLinetypeTableRecord
  2
CENTER2
 70
     0
  3
Center (.5x) ___ _ ___ _ ___ _ ___ _ ___ _ ___
 72
    65
 73
     4
 40
28.575
 49
19.05
 74
     0
 49
-3.175
 74
     0
 49
3.175
 74
     0
 49
-3.175
 74
     0
  0
LTYPE
  5
273
330
1C2
100
AcDbSymbolTableRecord
100
AcDbLinetypeTableRecord
  2
CENTERX2
 70
     0
  3
Center (2x) ________  __  ________  __  _____
 72
    65
 73
     4
 40
101.6
 49
63.5
 74
     0
 49
-12.7
 74
     0
 49
12.7
 74
     0
 49
-12.7
 74
     0
  0
LTYPE
  5
274
330
1C2
100
AcDbSymbolTableRecord
100
AcDbLinetypeTableRecord
  2
DASHDOT
 70
     0
  3
Dash dot __ . __ . __ . __ . __ . __ . __ . __
 72
    65
 73
     4
 40
25.4
 49
12.7
 74
     0
 49
-6.35
 74
     0
 49
0.0
 74
     0
 49
-6.35
 74
     0
  0
LTYPE
  5
275
330
1C2
100
AcDbSymbolTableRecord
100
AcDbLinetypeTableRecord
  2
DASHDOT2
 70
     0
  3
Dash dot (.5x) _._._._._._._._._._._._._._._.
 72
    65
 73
     4
 40
12.7
 49
6.35
 74
     0
 49
-3.175
 74
     0
 49
0.0
 74
     0
 49
-3.175
 74
     0
  0
LTYPE
  5
276
330
1C2
100
AcDbSymbolTableRecord
100
AcDbLinetypeTableRecord
  2
DASHDOTX2
 70
     0
  3
Dash dot (2x) ____  .  ____  .  ____  .  ___
 72
    65
 73
     4
 40
50.8
 49
25.4
 74
     0
 49
-12.7
 74
     0
 49
0.0
 74
     0
 49
-12.7
 74
     0
  0
LTYPE
  5
277
330
1C2
100
AcDbSymbolTableRecord
100
AcDbLinetypeTableRecord
  2
DASHED
 70
     0
  3
Dashed __ __ __ __ __ __ __ __ __ __ __ __ __ _
 72
    65
 73
     2
 40
19.05
 49
12.7
 74
     0
 49
-6.35
 74
     0
  0
LTYPE
  5
278
330
1C2
100
AcDbSymbolTableRecord
100
AcDbLinetypeTableRecord
  2
DASHED2
 70
     0
  3
Dashed (.5x) _ _ _ _ _ _ _ _ _ _ _ _ _ _ _ _ _ 
 72
    65
 73
     2
 40
9.524999999999999
 49
6.35
 74
     0
 49
-3.175
 74
     0
  0
LTYPE
  5
279
330
1C2
100
AcDbSymbolTableRecord
100
AcDbLinetypeTableRecord
  2
DASHEDX2
 70
     0
  3
Dashed (2x) ____  ____  ____  ____  ____  ___
 72
    65
 73
     2
 40
38.09999999999999
 49
25.4
 74
     0
 49
-12.7
 74
     0
  0
LTYPE
  5
27A
330
1C2
100
AcDbSymbolTableRecord
100
AcDbLinetypeTableRecord
  2
DIVIDE
 70
     0
  3
Divide ____ . . ____ . . ____ . . ____ . . ____
 72
    65
 73
     6
 40
31.75
 49
12.7
 74
     0
 49
-6.35
 74
     0
 49
0.0
 74
     0
 49
-6.35
 74
     0
 49
0.0
 74
     0
 49
-6.35
 74
     0
  0
LTYPE
  5
27B
330
1C2
100
AcDbSymbolTableRecord
100
AcDbLinetypeTableRecord
  2
DIVIDE2
 70
     0
  3
Divide (.5x) __..__..__..__..__..__..__..__.._
 72
    65
 73
     6
 40
15.875
 49
6.35
 74
     0
 49
-3.175
 74
     0
 49
0.0
 74
     0
 49
-3.175
 74
     0
 49
0.0
 74
     0
 49
-3.175
 74
     0
  0
LTYPE
  5
27C
330
1C2
100
AcDbSymbolTableRecord
100
AcDbLinetypeTableRecord
  2
DIVIDEX2
 70
     0
  3
Divide (2x) ________  .  .  ________  .  .  _
 72
    65
 73
     6
 40
63.5
 49
25.4
 74
     0
 49
-12.7
 74
     0
 49
0.0
 74
     0
 49
-12.7
 74
     0
 49
0.0
 74
     0
 49
-12.7
 74
     0
  0
LTYPE
  5
27D
330
1C2
100
AcDbSymbolTableRecord
100
AcDbLinetypeTableRecord
  2
DOT
 70
     0
  3
Dot . . . . . . . . . . . . . . . . . . . . . . . .
 72
    65
 73
     2
 40
6.35
 49
0.0
 74
     0
 49
-6.35
 74
     0
  0
LTYPE
  5
27E
330
1C2
100
AcDbSymbolTableRecord
100
AcDbLinetypeTableRecord
  2
DOT2
 70
     0
  3
Dot (.5x) ........................................
 72
    65
 73
     2
 40
3.175
 49
0.0
 74
     0
 49
-3.175
 74
     0
  0
LTYPE
  5
27F
330
1C2
100
AcDbSymbolTableRecord
100
AcDbLinetypeTableRecord
  2
DOTX2
 70
     0
  3
Dot (2x) .  .  .  .  .  .  .  .  .  .  .  .  .  .
 72
    65
 73
     2
 40
12.7
 49
0.0
 74
     0
 49
-12.7
 74
     0
  0
LTYPE
  5
281
330
1C2
100
AcDbSymbolTableRecord
100
AcDbLinetypeTableRecord
  2
DRAINAGE
 70
     0
  3
Drainage ---->---->---->----
 72
    65
 73
     2
 40
10.16
 49
5.08
 74
     2
 75
     0
340
280
 46
2.54
 50
180.0
 44
0.0
 45
0.0
  9
RIGHT_ARROW
 49
5.08
 74
     0
  0
LTYPE
  5
283
330
1C2
100
AcDbSymbolTableRecord
100
AcDbLinetypeTableRecord
  2
DRAINAGE2
 70
     0
  3
Drainage reversed----<----<----<----
 72
    65
 73
     2
 40
10.16
 49
5.08
 74
     2
 75
     0
340
282
 46
2.54
 50
0.0
 44
0.0
 45
0.0
  9
RIGHT_ARROW
 49
5.08
 74
     0
  0
LTYPE
  5
285
330
1C2
100
AcDbSymbolTableRecord
100
AcDbLinetypeTableRecord
  2
FENCELINE1
 70
     0
  3
Fenceline circle ----0-----0----0-----0----0-----0--
 72
    65
 73
     4
 40
36.83
 49
6.35
 74
     0
 49
-2.54
 74
     2
 75
     0
340
284
 46
2.54
 50
0.0
 44
-2.54
 45
0.0
  9
CIRC1
 49
-2.54
 74
     0
 49
25.4
 74
     0
  0
LTYPE
  5
287
330
1C2
100
AcDbSymbolTableRecord
100
AcDbLinetypeTableRecord
  2
FENCELINE2
 70
     0
  3
Fenceline square ----[]-----[]----[]-----[]----[]---
 72
    65
 73
     4
 40
36.83
 49
6.35
 74
     0
 49
-2.54
 74
     2
 75
     0
340
286
 46
2.54
 50
0.0
 44
-2.54
 45
0.0
  9
BOX
 49
-2.54
 74
     0
 49
25.4
 74
     0
  0
LTYPE
  5
289
330
1C2
100
AcDbSymbolTableRecord
100
AcDbLinetypeTableRecord
  2
GAS_LINE
 70
     0
  3
Gas line ----GAS----GAS----GAS----GAS----GAS----GAS--
 72
    65
 73
     3
 40
24.13
 49
12.7
 74
     0
 49
-5.08
 74
     2
 75
     0
340
288
 46
2.54
 50
0.0
 44
-2.54
 45
-1.27
  9
GAS
 49
-6.35
 74
     0
  0
LTYPE
  5
28A
330
1C2
100
AcDbSymbolTableRecord
100
AcDbLinetypeTableRecord
  2
HIDDEN
 70
     0
  3
Hidden __ __ __ __ __ __ __ __ __ __ __ __ __ __
 72
    65
 73
     2
 40
9.524999999999999
 49
6.35
 74
     0
 49
-3.175
 74
     0
  0
LTYPE
  5
28B
330
1C2
100
AcDbSymbolTableRecord
100
AcDbLinetypeTableRecord
  2
HIDDEN2
 70
     0
  3
Hidden (.5x) _ _ _ _ _ _ _ _ _ _ _ _ _ _ _ _ _ 
 72
    65
 73
     2
 40
4.762499999999999
 49
3.175
 74
     0
 49
-1.5875
 74
     0
  0
LTYPE
  5
28C
330
1C2
100
AcDbSymbolTableRecord
100
AcDbLinetypeTableRecord
  2
HIDDENX2
 70
     0
  3
Hidden (2x) ____ ____ ____ ____ ____ ____ ____ 
 72
    65
 73
     2
 40
19.05
 49
12.7
 74
     0
 49
-6.35
 74
     0
  0
LTYPE
  5
28E
330
1C2
100
AcDbSymbolTableRecord
100
AcDbLinetypeTableRecord
  2
HOT_WATER_SUPPLY
 70
     0
  3
Hot water supply ---- HW ---- HW ---- HW ----
 72
    65
 73
     3
 40
22.86
 49
12.7
 74
     0
 49
-5.08
 74
     2
 75
     0
340
28D
 46
2.54
 50
0.0
 44
-2.54
 45
-1.27
  9
HW
 49
-5.08
 74
     0
  0
LTYPE
  5
28F
330
1C2
100
AcDbSymbolTableRecord
100
AcDbLinetypeTableRecord
  2
PHANTOM
 70
     0
  3
Phantom ______  __  __  ______  __  __  ______ 
 72
    65
 73
     6
 40
63.50000000000001
 49
31.75
 74
     0
 49
-6.35
 74
     0
 49
6.35
 74
     0
 49
-6.35
 74
     0
 49
6.35
 74
     0
 49
-6.35
 74
     0
  0
LTYPE
  5
290
330
1C2
100
AcDbSymbolTableRecord
100
AcDbLinetypeTableRecord
  2
PHANTOM2
 70
     0
  3
Phantom (.5x) ___ _ _ ___ _ _ ___ _ _ ___ _ _
 72
    65
 73
     6
 40
31.75
 49
15.875
 74
     0
 49
-3.175
 74
     0
 49
3.175
 74
     0
 49
-3.175
 74
     0
 49
3.175
 74
     0
 49
-3.175
 74
     0
  0
LTYPE
  5
291
330
1C2
100
AcDbSymbolTableRecord
100
AcDbLinetypeTableRecord
  2
PHANTOMX2
 70
     0
  3
Phantom (2x) ____________    ____    ____   _
 72
    65
 73
     6
 40
127.0
 49
63.5
 74
     0
 49
-12.7
 74
     0
 49
12.7
 74
     0
 49
-12.7
 74
     0
 49
12.7
 74
     0
 49
-12.7
 74
     0
  0
LTYPE
  5
293
330
1C2
100
AcDbSymbolTableRecord
100
AcDbLinetypeTableRecord
  2
TRACKS
 70
     0
  3
Tracks -|-|-|-|-|-|-|-|-|-|-|-|-|-|-|-|-|-|-|-|-|-|-|-|-
 72
    65
 73
     2
 40
7.62
 49
3.81
 74
     2
 75
     0
340
292
 46
6.35
 50
0.0
 44
0.0
 45
0.0
  9
TRACK1
 49
3.81
 74
     0
  0
LTYPE
  5
296
330
1C2
100
AcDbSymbolTableRecord
100
AcDbLinetypeTableRecord
  2
ZIGZAG
 70
     0
  3
Zig zag /\/\/\/\/\/\/\/\/\/\/\/\/\/\/\/\/\/\/\/\/\/\/\/
 72
    65
 73
     4
 40
20.32254
 49
0.00254
 74
     0
 49
-5.08
 74
     2
 75
     0
340
294
 46
5.08
 50
0.0
 44
-5.08
 45
0.0
  9
ZIG
 49
-10.16
 74
     2
 75
     0
340
295
 46
5.08
 50
180.0
 44
5.08
 45
0.0
  9
ZIG
 49
-5.08
 74
     0
  0
ENDTAB
  0
TABLE
  2
LAYER
  5
1BF
330
0
100
AcDbSymbolTable
 70
    11
  0
LAYER
  5
1CD
330
1BF
100
AcDbSymbolTableRecord
100
AcDbLayerTableRecord
  2
0
 70
     0
 62
     7
420
 16777215
  6
Continuous
370
    25
390
1CC
347
202
348
0
  0
LAYER
  5
297
330
1BF
100
AcDbSymbolTableRecord
100
AcDbLayerTableRecord
  2
layer 1
 70
     0
 62
    18
420
        0
  6
ACAD_ISO07W100
370
    25
390
1CC
347
202
348
0
  0
LAYER
  5
298
330
1BF
100
AcDbSymbolTableRecord
100
AcDbLayerTableRecord
  2
layer 5
 70
     0
 62
    18
420
        0
  6
CENTER
370
    25
390
1CC
347
202
348
0
  0
LAYER
  5
299
330
1BF
100
AcDbSymbolTableRecord
100
AcDbLayerTableRecord
  2
layer 8
 70
     0
 62
    18
420
        0
  6
CENTER
370
    25
390
1CC
347
202
348
0
  0
LAYER
  5
29A
330
1BF
100
AcDbSymbolTableRecord
100
AcDbLayerTableRecord
  2
layer 2
 70
     0
 62
    18
420
        0
  6
Continuous
370
    25
390
1CC
347
202
348
0
  0
LAYER
  5
29B
330
1BF
100
AcDbSymbolTableRecord
100
AcDbLayerTableRecord
  2
layer 7
 70
     0
 62
    18
420
        0
  6
ACAD_ISO07W100
370
    25
390
1CC
347
202
348
0
  0
LAYER
  5
29C
330
1BF
100
AcDbSymbolTableRecord
100
AcDbLayerTableRecord
  2
layer 3
 70
     0
 62
    18
420
        0
  6
ACAD_ISO07W100
370
    25
390
1CC
347
202
348
0
  0
LAYER
  5
29D
330
1BF
100
AcDbSymbolTableRecord
100
AcDbLayerTableRecord
  2
layer 6
 70
     0
 62
    18
420
        0
  6
Continuous
370
    25
390
1CC
347
202
348
0
  0
LAYER
  5
29E
330
1BF
100
AcDbSymbolTableRecord
100
AcDbLayerTableRecord
  2
layer 4
 70
     0
 62
    18
420
        0
  6
Continuous
370
     5
390
1CC
347
202
348
0
  0
LAYER
  5
29F
330
1BF
100
AcDbSymbolTableRecord
100
AcDbLayerTableRecord
  2
layer 9
 70
     0
 62
     1
420
 16711680
  6
Continuous
370
    15
390
1CC
347
202
348
0
  0
LAYER
  5
2A0
330
1BF
100
AcDbSymbolTableRecord
100
AcDbLayerTableRecord
  2
Defpoints
 70
     0
 62
     7
  6
Continuous
290
     0
370
    -3
390
1CC
347
202
348
0
  0
ENDTAB
  0
TABLE
  2
STYLE
  5
1C0
330
0
100
AcDbSymbolTable
 70
    13
  0
STYLE
  5
1CE
330
1C0
100
AcDbSymbolTableRecord
100
AcDbTextStyleTableRecord
  2
Standard
 70
     0
 40
0.0
 41
1.0
 50
0.0
 71
     0
 42
0.2
  3
txt
  4

  0
STYLE
  5
25B
330
1C0
100
AcDbSymbolTableRecord
100
AcDbTextStyleTableRecord
  2
QCADDimTextStyle
 70
     0
 40
0.0
 41
1.0
 50
0.0
 71
     0
 42
0.2
  3

  4

  0
STYLE
  5
26B
330
1C0
100
AcDbSymbolTableRecord
100
AcDbTextStyleTableRecord
  2
textstyle0
 70
     0
 40
0.0
 41
1.0
 50
0.0
 71
     0
 42
0.2
  3
ltypeshp.shx
  4

  0
STYLE
  5
26C
330
1C0
100
AcDbSymbolTableRecord
100
AcDbTextStyleTableRecord
  2
textstyle1
 70
     0
 40
0.0
 41
1.0
 50
0.0
 71
     0
 42
0.2
  3
ltypeshp.shx
  4

  0
STYLE
  5
280
330
1C0
100
AcDbSymbolTableRecord
100
AcDbTextStyleTableRecord
  2
textstyle2
 70
     0
 40
0.0
 41
1.0
 50
0.0
 71
     0
 42
0.2
  3
qcadshp.shx
  4

  0
STYLE
  5
282
330
1C0
100
AcDbSymbolTableRecord
100
AcDbTextStyleTableRecord
  2
textstyle3
 70
     0
 40
0.0
 41
1.0
 50
0.0
 71
     0
 42
0.2
  3
qcadshp.shx
  4

  0
STYLE
  5
284
330
1C0
100
AcDbSymbolTableRecord
100
AcDbTextStyleTableRecord
  2
textstyle4
 70
     0
 40
0.0
 41
1.0
 50
0.0
 71
     0
 42
0.2
  3
ltypeshp.shx
  4

  0
STYLE
  5
286
330
1C0
100
AcDbSymbolTableRecord
100
AcDbTextStyleTableRecord
  2
textstyle5
 70
     0
 40
0.0
 41
1.0
 50
0.0
 71
     0
 42
0.2
  3
ltypeshp.shx
  4

  0
STYLE
  5
288
330
1C0
100
AcDbSymbolTableRecord
100
AcDbTextStyleTableRecord
  2
textstyle6
 70
     0
 40
0.0
 41
1.0
 50
0.0
 71
     0
 42
0.2
  3
STANDARD
  4

  0
STYLE
  5
28D
330
1C0
100
AcDbSymbolTableRecord
100
AcDbTextStyleTableRecord
  2
textstyle7
 70
     0
 40
0.0
 41
1.0
 50
0.0
 71
     0
 42
0.2
  3
STANDARD
  4

  0
STYLE
  5
292
330
1C0
100
AcDbSymbolTableRecord
100
AcDbTextStyleTableRecord
  2
textstyle8
 70
     0
 40
0.0
 41
1.0
 50
0.0
 71
     0
 42
0.2
  3
ltypeshp.shx
  4

  0
STYLE
  5
294
330
1C0
100
AcDbSymbolTableRecord
100
AcDbTextStyleTableRecord
  2
textstyle9
 70
     0
 40
0.0
 41
1.0
 50
0.0
 71
     0
 42
0.2
  3
ltypeshp.shx
  4

  0
STYLE
  5
295
330
1C0
100
AcDbSymbolTableRecord
100
AcDbTextStyleTableRecord
  2
textstyle10
 70
     0
 40
0.0
 41
1.0
 50
0.0
 71
     0
 42
0.2
  3
ltypeshp.shx
  4

  0
ENDTAB
  0
TABLE
  2
VIEW
  5
1C3
330
0
100
AcDbSymbolTable
 70
     0
  0
ENDTAB
  0
TABLE
  2
UCS
  5
1C4
330
0
100
AcDbSymbolTable
 70
     0
  0
ENDTAB
  0
TABLE
  2
APPID
  5
1C6
330
0
100
AcDbSymbolTable
 70
     2
  0
APPID
  5
1CF
330
1C6
100
AcDbSymbolTableRecord
100
AcDbRegAppTableRecord
  2
ACAD
 70
     0
  0
APPID
  5
22A
330
1C6
100
AcDbSymbolTableRecord
100
AcDbRegAppTableRecord
  2
QCAD
 70
     0
  0
ENDTAB
  0
TABLE
  2
DIMSTYLE
  5
1C7
330
0
100
AcDbSymbolTable
 70
     2
100
AcDbDimStyleTable
  0
DIMSTYLE
105
1E3
330
1C7
100
AcDbSymbolTableRecord
100
AcDbDimStyleTableRecord
  2
Standard
 70
     0
178
     0
340
1CE
  0
DIMSTYLE
105
25C
102
{ACAD_REACTORS
330
1A3
330
1A4
330
1A5
330
1A6
330
1A7
330
1A8
330
1A9
330
1AA
330
1AD
330
1AE
330
1AF
330
1B0
330
1B1
330
1B2
330
1B3
330
1B4
330
1B5
330
1B7
330
1B9
330
1BA
330
1BC
102
}
330
1C7
100
AcDbSymbolTableRecord
100
AcDbDimStyleTableRecord
  2
QCADDimStyle
 70
     0
 41
2.5
 42
0.625
 44
1.25
 73
     0
 77
     1
140
2.5
147
0.625
178
     0
340
25B
  0
ENDTAB
  0
TABLE
  2
BLOCK_RECORD
  5
1BE
330
0
100
AcDbSymbolTable
 70
    22
  0
BLOCK_RECORD
  5
1DB
330
1BE
100
AcDbSymbolTableRecord
100
AcDbBlockTableRecord
  2
*Model_Space
340
1DE
 70
     0
280
     1
281
     0
  0
BLOCK_RECORD
  5
1D7
330
1BE
100
AcDbSymbolTableRecord
100
AcDbBlockTableRecord
  2
*Paper_Space
340
1DA
 70
     0
280
     1
281
     0
  0
BLOCK_RECORD
  5
1DF
330
1BE
100
AcDbSymbolTableRecord
100
AcDbBlockTableRecord
  2
*Paper_Space0
340
1E2
 70
     0
280
     1
281
     0
  0
BLOCK_RECORD
  5
2A1
330
1BE
100
AcDbSymbolTableRecord
100
AcDbBlockTableRecord
  2
*D1
340
0
 70
     0
280
     1
281
     0
  0
BLOCK_RECORD
  5
2AD
330
1BE
100
AcDbSymbolTableRecord
100
AcDbBlockTableRecord
  2
*D2
340
0
 70
     0
280
     1
281
     0
  0
BLOCK_RECORD
  5
2B9
330
1BE
100
AcDbSymbolTableRecord
100
AcDbBlockTableRecord
  2
*D3
340
0
 70
     0
280
     1
281
     0
  0
BLOCK_RECORD
  5
2C5
330
1BE
100
AcDbSymbolTableRecord
100
AcDbBlockTableRecord
  2
*D4
340
0
 70
     0
280
     1
281
     0
  0
BLOCK_RECORD
  5
2D1
330
1BE
100
AcDbSymbolTableRecord
100
AcDbBlockTableRecord
  2
*D5
340
0
 70
     0
280
     1
281
     0
  0
BLOCK_RECORD
  5
2DE
330
1BE
100
AcDbSymbolTableRecord
100
AcDbBlockTableRecord
  2
*D6
340
0
 70
     0
280
     1
281
     0
  0
BLOCK_RECORD
  5
2EA
330
1BE
100
AcDbSymbolTableRecord
100
AcDbBlockTableRecord
  2
*D7
340
0
 70
     0
280
     1
281
     0
  0
BLOCK_RECORD
  5
2F6
330
1BE
100
AcDbSymbolTableRecord
100
AcDbBlockTableRecord
  2
*D8
340
0
 70
     0
280
     1
281
     0
  0
BLOCK_RECORD
  5
302
330
1BE
100
AcDbSymbolTableRecord
100
AcDbBlockTableRecord
  2
*D9
340
0
 70
     0
280
     1
281
     0
  0
BLOCK_RECORD
  5
30E
330
1BE
100
AcDbSymbolTableRecord
100
AcDbBlockTableRecord
  2
*D10
340
0
 70
     0
280
     1
281
     0
  0
BLOCK_RECORD
  5
31B
330
1BE
100
AcDbSymbolTableRecord
100
AcDbBlockTableRecord
  2
*D11
340
0
 70
     0
280
     1
281
     0
  0
BLOCK_RECORD
  5
327
330
1BE
100
AcDbSymbolTableRecord
100
AcDbBlockTableRecord
  2
*D12
340
0
 70
     0
280
     1
281
     0
  0
BLOCK_RECORD
  5
333
330
1BE
100
AcDbSymbolTableRecord
100
AcDbBlockTableRecord
  2
*D13
340
0
 70
     0
280
     1
281
     0
  0
BLOCK_RECORD
  5
33F
330
1BE
100
AcDbSymbolTableRecord
100
AcDbBlockTableRecord
  2
*D14
340
0
 70
     0
280
     1
281
     0
  0
BLOCK_RECORD
  5
34B
330
1BE
100
AcDbSymbolTableRecord
100
AcDbBlockTableRecord
  2
*D15
340
0
 70
     0
280
     1
281
     0
  0
BLOCK_RECORD
  5
357
330
1BE
100
AcDbSymbolTableRecord
100
AcDbBlockTableRecord
  2
*D16
340
0
 70
     0
280
     1
281
     0
  0
BLOCK_RECORD
  5
363
330
1BE
100
AcDbSymbolTableRecord
100
AcDbBlockTableRecord
  2
*D17
340
0
 70
     0
280
     1
281
     0
  0
BLOCK_RECORD
  5
36F
330
1BE
100
AcDbSymbolTableRecord
100
AcDbBlockTableRecord
  2
*D18
340
0
 70
     0
280
     1
281
     0
  0
BLOCK_RECORD
  5
37A
330
1BE
100
AcDbSymbolTableRecord
100
AcDbBlockTableRecord
  2
*D19
340
0
 70
     0
280
     1
281
     0
  0
BLOCK_RECORD
  5
386
330
1BE
100
AcDbSymbolTableRecord
100
AcDbBlockTableRecord
  2
*D20
340
0
 70
     0
280
     1
281
     0
  0
BLOCK_RECORD
  5
392
330
1BE
100
AcDbSymbolTableRecord
100
AcDbBlockTableRecord
  2
*D21
340
0
 70
     0
280
     1
281
     0
  0
ENDTAB
  0
ENDSEC
  0
SECTION
  2
BLOCKS
  0
BLOCK
  5
1DC
330
1DB
100
AcDbEntity
  8
0
100
AcDbBlockBegin
  2
*Model_Space
 70
     0
 10
0.0
 20
0.0
 30
0.0
  3
*Model_Space
  1
*Model_Space
  0
ENDBLK
  5
1DD
330
1DB
100
AcDbEntity
  8
0
100
AcDbBlockEnd
  0
BLOCK
  5
1D8
330
1D7
100
AcDbEntity
 67
     1
  8
0
100
AcDbBlockBegin
  2
*Paper_Space
 70
     0
 10
0.0
 20
0.0
 30
0.0
  3
*Paper_Space
  1
*Paper_Space
  0
ENDBLK
  5
1D9
330
1D7
100
AcDbEntity
 67
     1
  8
0
100
AcDbBlockEnd
  0
BLOCK
  5
1E0
330
1DF
100
AcDbEntity
  8
0
100
AcDbBlockBegin
  2
*Paper_Space0
 70
     0
 10
0.0
 20
0.0
 30
0.0
  3
*Paper_Space0
  1
*Paper_Space0
  0
ENDBLK
  5
1E1
330
1DF
100
AcDbEntity
  8
0
100
AcDbBlockEnd
  0
BLOCK
  5
2A2
330
2A1
100
AcDbEntity
  8
0
100
AcDbBlockBegin
  2
*D1
 70
     1
 10
0.0
 20
0.0
 30
0.0
  3
*D1
  1
*D1
  0
LINE
  5
2A4
330
2A1
100
AcDbEntity
  8
layer 9
 62
     0
370
    -2
100
AcDbLine
 10
51.50412206304792
 20
141.0366057765301
 30
0.0
 11
51.62181044896356
 21
211.6590536320629
 31
0.0
  0
LINE
  5
2A5
330
2A1
100
AcDbEntity
  8
layer 9
 62
     0
370
    -2
100
AcDbLine
 10
298.5010415263319
 20
140.6249991321777
 30
0.0
 11
298.6187299122475
 21
211.2474469877106
 31
0.0
  0
LINE
  5
2A6
330
2A1
100
AcDbEntity
  8
layer 9
 62
     0
370
    -2
100
AcDbLine
 10
54.11972392501063
 20
210.4048892623799
 30
0.0
 11
296.1166503308729
 21
210.0016148286827
 31
0.0
  0
SOLID
  5
2A7
330
2A1
100
AcDbEntity
  8
layer 9
 62
     0
100
AcDbTrace
 10
54.12041827589857
 20
210.8215553504984
 30
0.0
 11
54.1190295741227
 21
209.9882231742614
 31
0.0
 12
51.61972739629977
 22
210.4090553677075
 32
0.0
 13
51.61972739629977
 23
210.4090553677075
 33
0.0
  0
SOLID
  5
2A8
330
2A1
100
AcDbEntity
  8
layer 9
 62
     0
100
AcDbTrace
 10
296.1159559799849
 20
209.5849487405642
 30
0.0
 11
296.1173446817608
 21
210.4182809168012
 31
0.0
 12
298.6166468595837
 22
209.9974487233551
 32
0.0
 13
298.6166468595837
 23
209.9974487233551
 33
0.0
  0
MTEXT
  5
2A9
330
2A1
100
AcDbEntity
  8
layer 9
 62
     0
100
AcDbMText
 10
175.1213117069374
 20
212.0782494420644
 30
0.0
 40
2.5
 41
0.0
 46
0.0
 71
     5
 72
     1
  1
\A1;246.9973
  7
QCADDimTextStyle
 11
0.999998611484348
 21
-0.001666442131037384
 31
0.0
 73
     1
 44
1.0
  0
POINT
  5
2AA
330
2A1
100
AcDbEntity
  8
Defpoints
 62
     0
100
AcDbPoint
 10
51.50308053671603
 20
140.4116066443523
 30
0.0
  0
POINT
  5
2AB
330
2A1
100
AcDbEntity
  8
Defpoints
 62
     0
100
AcDbPoint
 10
298.5
 20
140.0
 30
0.0
  0
POINT
  5
2AC
330
2A1
100
AcDbEntity
  8
Defpoints
 62
     0
100
AcDbPoint
 10
298.6166468595837
 20
209.9974487233551
 30
0.0
  0
ENDBLK
  5
2A3
330
2A1
100
AcDbEntity
  8
0
100
AcDbBlockEnd
  0
BLOCK
  5
2AE
330
2AD
100
AcDbEntity
  8
0
100
AcDbBlockBegin
  2
*D2
 70
     1
 10
0.0
 20
0.0
 30
0.0
  3
*D2
  1
*D2
  0
LINE
  5
2B0
330
2AD
100
AcDbEntity
  8
layer 9
 62
     0
370
    -2
100
AcDbLine
 10
79.0
 20
140.625
 30
0.0
 11
79.0
 21
205.7775110155251
 31
0.0
  0
LINE
  5
2B1
330
2AD
100
AcDbEntity
  8
layer 9
 62
     0
370
    -2
100
AcDbLine
 10
271.0
 20
140.625
 30
0.0
 11
271.0
 21
205.7775110155251
 31
0.0
  0
LINE
  5
2B2
330
2AD
100
AcDbEntity
  8
layer 9
 62
     0
370
    -2
100
AcDbLine
 10
81.5
 20
204.5275110155251
 30
0.0
 11
268.5
 21
204.5275110155251
 31
0.0
  0
SOLID
  5
2B3
330
2AD
100
AcDbEntity
  8
layer 9
 62
     0
100
AcDbTrace
 10
81.5
 20
204.9441776821917
 30
0.0
 11
81.5
 21
204.1108443488584
 31
0.0
 12
79.0
 22
204.5275110155251
 32
0.0
 13
79.0
 23
204.5275110155251
 33
0.0
  0
SOLID
  5
2B4
330
2AD
100
AcDbEntity
  8
layer 9
 62
     0
100
AcDbTrace
 10
268.5
 20
204.1108443488584
 30
0.0
 11
268.5
 21
204.9441776821917
 31
0.0
 12
271.0
 22
204.5275110155251
 32
0.0
 13
271.0
 23
204.5275110155251
 33
0.0
  0
MTEXT
  5
2B5
330
2AD
100
AcDbEntity
  8
layer 9
 62
     0
100
AcDbMText
 10
175.0
 20
206.4025110155251
 30
0.0
 40
2.5
 41
0.0
 46
0.0
 71
     5
 72
     1
  1
\A1;192
  7
QCADDimTextStyle
 73
     1
 44
1.0
  0
POINT
  5
2B6
330
2AD
100
AcDbEntity
  8
Defpoints
 62
     0
100
AcDbPoint
 10
79.0
 20
140.0
 30
0.0
  0
POINT
  5
2B7
330
2AD
100
AcDbEntity
  8
Defpoints
 62
     0
100
AcDbPoint
 10
271.0
 20
140.0
 30
0.0
  0
POINT
  5
2B8
330
2AD
100
AcDbEntity
  8
Defpoints
 62
     0
100
AcDbPoint
 10
271.0
 20
204.5275110155251
 30
0.0
  0
ENDBLK
  5
2AF
330
2AD
100
AcDbEntity
  8
0
100
AcDbBlockEnd
  0
BLOCK
  5
2BA
330
2B9
100
AcDbEntity
  8
0
100
AcDbBlockBegin
  2
*D3
 70
     1
 10
0.0
 20
0.0
 30
0.0
  3
*D3
  1
*D3
  0
LINE
  5
2BC
330
2B9
100
AcDbEntity
  8
layer 9
 62
     0
370
    -2
100
AcDbLine
 10
236.9242972000019
 20
100.375
 30
0.0
 11
236.9242972000019
 21
78.83159691415531
 31
0.0
  0
LINE
  5
2BD
330
2B9
100
AcDbEntity
  8
layer 9
 62
     0
370
    -2
100
AcDbLine
 10
270.0
 20
100.375
 30
0.0
 11
270.0
 21
78.83159691415531
 31
0.0
  0
LINE
  5
2BE
330
2B9
100
AcDbEntity
  8
layer 9
 62
     0
370
    -2
100
AcDbLine
 10
239.4242972000019
 20
80.08159691415531
 30
0.0
 11
267.5
 21
80.08159691415531
 31
0.0
  0
SOLID
  5
2BF
330
2B9
100
AcDbEntity
  8
layer 9
 62
     0
100
AcDbTrace
 10
239.4242972000019
 20
80.49826358082198
 30
0.0
 11
239.4242972000019
 21
79.66493024748864
 31
0.0
 12
236.9242972000019
 22
80.08159691415531
 32
0.0
 13
236.9242972000019
 23
80.08159691415531
 33
0.0
  0
SOLID
  5
2C0
330
2B9
100
AcDbEntity
  8
layer 9
 62
     0
100
AcDbTrace
 10
267.5
 20
79.66493024748864
 30
0.0
 11
267.5
 21
80.49826358082198
 31
0.0
 12
270.0
 22
80.08159691415531
 32
0.0
 13
270.0
 23
80.08159691415531
 33
0.0
  0
MTEXT
  5
2C1
330
2B9
100
AcDbEntity
  8
layer 9
 62
     0
100
AcDbMText
 10
253.4621486000009
 20
81.95659691415531
 30
0.0
 40
2.5
 41
0.0
 46
0.0
 71
     5
 72
     1
  1
\A1;33.0757
  7
QCADDimTextStyle
 73
     1
 44
1.0
  0
POINT
  5
2C2
330
2B9
100
AcDbEntity
  8
Defpoints
 62
     0
100
AcDbPoint
 10
236.9242972000019
 20
101.0
 30
0.0
  0
POINT
  5
2C3
330
2B9
100
AcDbEntity
  8
Defpoints
 62
     0
100
AcDbPoint
 10
270.0
 20
101.0
 30
0.0
  0
POINT
  5
2C4
330
2B9
100
AcDbEntity
  8
Defpoints
 62
     0
100
AcDbPoint
 10
270.0
 20
80.08159691415531
 30
0.0
  0
ENDBLK
  5
2BB
330
2B9
100
AcDbEntity
  8
0
100
AcDbBlockEnd
  0
BLOCK
  5
2C6
330
2C5
100
AcDbEntity
  8
0
100
AcDbBlockBegin
  2
*D4
 70
     1
 10
0.0
 20
0.0
 30
0.0
  3
*D4
  1
*D4
  0
LINE
  5
2C8
330
2C5
100
AcDbEntity
  8
layer 9
 62
     0
370
    -2
100
AcDbLine
 10
272.0
 20
100.375
 30
0.0
 11
272.0
 21
79.04110182004987
 31
0.0
  0
LINE
  5
2C9
330
2C5
100
AcDbEntity
  8
layer 9
 62
     0
370
    -2
100
AcDbLine
 10
285.0
 20
100.375
 30
0.0
 11
285.0
 21
79.04110182004987
 31
0.0
  0
LINE
  5
2CA
330
2C5
100
AcDbEntity
  8
layer 9
 62
     0
370
    -2
100
AcDbLine
 10
274.5
 20
80.29110182004987
 30
0.0
 11
282.5
 21
80.29110182004987
 31
0.0
  0
SOLID
  5
2CB
330
2C5
100
AcDbEntity
  8
layer 9
 62
     0
100
AcDbTrace
 10
274.5
 20
80.70776848671655
 30
0.0
 11
274.5
 21
79.8744351533832
 31
0.0
 12
272.0
 22
80.29110182004987
 32
0.0
 13
272.0
 23
80.29110182004987
 33
0.0
  0
SOLID
  5
2CC
330
2C5
100
AcDbEntity
  8
layer 9
 62
     0
100
AcDbTrace
 10
282.5
 20
79.8744351533832
 30
0.0
 11
282.5
 21
80.70776848671655
 31
0.0
 12
285.0
 22
80.29110182004987
 32
0.0
 13
285.0
 23
80.29110182004987
 33
0.0
  0
MTEXT
  5
2CD
330
2C5
100
AcDbEntity
  8
layer 9
 62
     0
100
AcDbMText
 10
278.5
 20
82.16610182004987
 30
0.0
 40
2.5
 41
0.0
 46
0.0
 71
     5
 72
     1
  1
\A1;13
  7
QCADDimTextStyle
 73
     1
 44
1.0
  0
POINT
  5
2CE
330
2C5
100
AcDbEntity
  8
Defpoints
 62
     0
100
AcDbPoint
 10
272.0
 20
101.0
 30
0.0
  0
POINT
  5
2CF
330
2C5
100
AcDbEntity
  8
Defpoints
 62
     0
100
AcDbPoint
 10
285.0
 20
101.0
 30
0.0
  0
POINT
  5
2D0
330
2C5
100
AcDbEntity
  8
Defpoints
 62
     0
100
AcDbPoint
 10
285.0
 20
80.29110182004987
 30
0.0
  0
ENDBLK
  5
2C7
330
2C5
100
AcDbEntity
  8
0
100
AcDbBlockEnd
  0
BLOCK
  5
2D2
330
2D1
100
AcDbEntity
  8
0
100
AcDbBlockBegin
  2
*D5
 70
     1
 10
0.0
 20
0.0
 30
0.0
  3
*D5
  1
*D5
  0
LINE
  5
2D4
330
2D1
100
AcDbEntity
  8
layer 9
 62
     0
370
    -2
100
AcDbLine
 10
77.99999999999999
 20
100.375
 30
0.0
 11
77.99999999999999
 21
79.25060672594444
 31
0.0
  0
LINE
  5
2D5
330
2D1
100
AcDbEntity
  8
layer 9
 62
     0
370
    -2
100
AcDbLine
 10
80.0
 20
100.375
 30
0.0
 11
80.0
 21
79.25060672594444
 31
0.0
  0
LINE
  5
2D6
330
2D1
100
AcDbEntity
  8
layer 9
 62
     0
370
    -2
100
AcDbLine
 10
75.49999999999999
 20
80.50060672594444
 30
0.0
 11
72.99999999999999
 21
80.50060672594444
 31
0.0
  0
LINE
  5
2D7
330
2D1
100
AcDbEntity
  8
layer 9
 62
     0
370
    -2
100
AcDbLine
 10
82.5
 20
80.50060672594444
 30
0.0
 11
85.0
 21
80.50060672594444
 31
0.0
  0
SOLID
  5
2D8
330
2D1
100
AcDbEntity
  8
layer 9
 62
     0
100
AcDbTrace
 10
75.49999999999999
 20
80.08394005927777
 30
0.0
 11
75.49999999999999
 21
80.91727339261111
 31
0.0
 12
77.99999999999999
 22
80.50060672594444
 32
0.0
 13
77.99999999999999
 23
80.50060672594444
 33
0.0
  0
SOLID
  5
2D9
330
2D1
100
AcDbEntity
  8
layer 9
 62
     0
100
AcDbTrace
 10
82.5
 20
80.91727339261111
 30
0.0
 11
82.5
 21
80.08394005927777
 31
0.0
 12
80.0
 22
80.50060672594444
 32
0.0
 13
80.0
 23
80.50060672594444
 33
0.0
  0
MTEXT
  5
2DA
330
2D1
100
AcDbEntity
  8
layer 9
 62
     0
100
AcDbMText
 10
79.0
 20
74.56310672594444
 30
0.0
 40
2.5
 41
0.0
 46
0.0
 71
     5
 72
     1
  1
\A1;2
  7
QCADDimTextStyle
 73
     1
 44
1.0
  0
POINT
  5
2DB
330
2D1
100
AcDbEntity
  8
Defpoints
 62
     0
100
AcDbPoint
 10
77.99999999999999
 20
101.0
 30
0.0
  0
POINT
  5
2DC
330
2D1
100
AcDbEntity
  8
Defpoints
 62
     0
100
AcDbPoint
 10
80.0
 20
101.0
 30
0.0
  0
POINT
  5
2DD
330
2D1
100
AcDbEntity
  8
Defpoints
 62
     0
100
AcDbPoint
 10
80.0
 20
80.50060672594444
 30
0.0
  0
ENDBLK
  5
2D3
330
2D1
100
AcDbEntity
  8
0
100
AcDbBlockEnd
  0
BLOCK
  5
2DF
330
2DE
100
AcDbEntity
  8
0
100
AcDbBlockBegin
  2
*D6
 70
     1
 10
0.0
 20
0.0
 30
0.0
  3
*D6
  1
*D6
  0
LINE
  5
2E1
330
2DE
100
AcDbEntity
  8
layer 9
 62
     0
370
    -2
100
AcDbLine
 10
64.375
 20
105.000729520274
 30
0.0
 11
54.61787782464185
 21
105.000729520274
 31
0.0
  0
LINE
  5
2E2
330
2DE
100
AcDbEntity
  8
layer 9
 62
     0
370
    -2
100
AcDbLine
 10
64.37500000000003
 20
113.0
 30
0.0
 11
54.61787782464188
 21
113.0
 31
0.0
  0
LINE
  5
2E3
330
2DE
100
AcDbEntity
  8
layer 9
 62
     0
370
    -2
100
AcDbLine
 10
55.86787782464186
 20
107.500729520274
 30
0.0
 11
55.86787782464187
 21
110.5
 31
0.0
  0
SOLID
  5
2E4
330
2DE
100
AcDbEntity
  8
layer 9
 62
     0
100
AcDbTrace
 10
55.45121115797519
 20
107.500729520274
 30
0.0
 11
56.28454449130852
 21
107.500729520274
 31
0.0
 12
55.86787782464185
 22
105.000729520274
 32
0.0
 13
55.86787782464185
 23
105.000729520274
 33
0.0
  0
SOLID
  5
2E5
330
2DE
100
AcDbEntity
  8
layer 9
 62
     0
100
AcDbTrace
 10
56.28454449130854
 20
110.5
 30
0.0
 11
55.45121115797521
 21
110.5
 31
0.0
 12
55.86787782464188
 22
113.0
 32
0.0
 13
55.86787782464188
 23
113.0
 33
0.0
  0
MTEXT
  5
2E6
330
2DE
100
AcDbEntity
  8
layer 9
 62
     0
100
AcDbMText
 10
53.99287782464187
 20
109.000364760137
 30
0.0
 40
2.5
 41
0.0
 46
0.0
 71
     5
 72
     1
  1
\A1;8
  7
QCADDimTextStyle
 11
3.553037680428267E-15
 21
1.0
 31
0.0
 73
     1
 44
1.0
  0
POINT
  5
2E7
330
2DE
100
AcDbEntity
  8
Defpoints
 62
     0
100
AcDbPoint
 10
65.0
 20
105.000729520274
 30
0.0
  0
POINT
  5
2E8
330
2DE
100
AcDbEntity
  8
Defpoints
 62
     0
100
AcDbPoint
 10
65.00000000000003
 20
113.0
 30
0.0
  0
POINT
  5
2E9
330
2DE
100
AcDbEntity
  8
Defpoints
 62
     0
100
AcDbPoint
 10
55.86787782464188
 20
113.0
 30
0.0
  0
ENDBLK
  5
2E0
330
2DE
100
AcDbEntity
  8
0
100
AcDbBlockEnd
  0
BLOCK
  5
2EB
330
2EA
100
AcDbEntity
  8
0
100
AcDbBlockBegin
  2
*D7
 70
     1
 10
0.0
 20
0.0
 30
0.0
  3
*D7
  1
*D7
  0
LINE
  5
2ED
330
2EA
100
AcDbEntity
  8
layer 9
 62
     0
370
    -2
100
AcDbLine
 10
80.0000608278727
 20
112.3720802650566
 30
0.0
 11
80.00208165432755
 21
91.60830089466913
 31
0.0
  0
LINE
  5
2EE
330
2EA
100
AcDbEntity
  8
layer 9
 62
     0
370
    -2
100
AcDbLine
 10
110.0000608278727
 20
112.37500000296
 30
0.0
 11
110.0020816543276
 21
91.61122063257253
 31
0.0
  0
LINE
  5
2EF
330
2EA
100
AcDbEntity
  8
layer 9
 62
     0
370
    -2
100
AcDbLine
 10
82.50195998674205
 20
92.85854420023988
 30
0.0
 11
107.5019600104223
 21
92.86097731516169
 31
0.0
  0
SOLID
  5
2F0
330
2EA
100
AcDbEntity
  8
layer 9
 62
     0
100
AcDbTrace
 10
82.50191943482692
 20
93.2752108649332
 30
0.0
 11
82.50200053865719
 21
92.44187753554655
 31
0.0
 12
80.00195999858215
 22
92.85830088874908
 32
0.0
 13
80.00195999858215
 23
92.85830088874908
 33
0.0
  0
SOLID
  5
2F1
330
2EA
100
AcDbEntity
  8
layer 9
 62
     0
100
AcDbTrace
 10
107.5020005623374
 20
92.44431065046837
 30
0.0
 11
107.5019194585071
 21
93.27764397985501
 31
0.0
 12
110.0019599985822
 22
92.86122062665248
 32
0.0
 13
110.0019599985822
 23
92.86122062665248
 33
0.0
  0
MTEXT
  5
2F2
330
2EA
100
AcDbEntity
  8
layer 9
 62
     0
100
AcDbMText
 10
95.00177751496405
 20
94.73476074882072
 30
0.0
 40
2.5
 41
0.0
 46
0.0
 71
     5
 72
     1
  1
\A1;30
  7
QCADDimTextStyle
 11
0.9999999952639617
 21
9.732459631897999E-5
 31
0.0
 73
     1
 44
1.0
  0
POINT
  5
2F3
330
2EA
100
AcDbEntity
  8
Defpoints
 62
     0
100
AcDbPoint
 10
80.0
 20
112.9970802620966
 30
0.0
  0
POINT
  5
2F4
330
2EA
100
AcDbEntity
  8
Defpoints
 62
     0
100
AcDbPoint
 10
110.0
 20
113.0
 30
0.0
  0
POINT
  5
2F5
330
2EA
100
AcDbEntity
  8
Defpoints
 62
     0
100
AcDbPoint
 10
110.0019599985822
 20
92.86122062665248
 30
0.0
  0
ENDBLK
  5
2EC
330
2EA
100
AcDbEntity
  8
0
100
AcDbBlockEnd
  0
BLOCK
  5
2F7
330
2F6
100
AcDbEntity
  8
0
100
AcDbBlockBegin
  2
*D8
 70
     1
 10
0.0
 20
0.0
 30
0.0
  3
*D8
  1
*D8
  0
LINE
  5
2F9
330
2F6
100
AcDbEntity
  8
layer 9
 62
     0
370
    -2
100
AcDbLine
 10
239.375
 20
113.0
 30
0.0
 11
231.021008587863
 21
113.0
 31
0.0
  0
LINE
  5
2FA
330
2F6
100
AcDbEntity
  8
layer 9
 62
     0
370
    -2
100
AcDbLine
 10
239.375
 20
105.0
 30
0.0
 11
231.021008587863
 21
105.0
 31
0.0
  0
LINE
  5
2FB
330
2F6
100
AcDbEntity
  8
layer 9
 62
     0
370
    -2
100
AcDbLine
 10
232.271008587863
 20
110.5
 30
0.0
 11
232.271008587863
 21
107.5
 31
0.0
  0
SOLID
  5
2FC
330
2F6
100
AcDbEntity
  8
layer 9
 62
     0
100
AcDbTrace
 10
232.6876752545296
 20
110.5
 30
0.0
 11
231.8543419211963
 21
110.5
 31
0.0
 12
232.271008587863
 22
113.0
 32
0.0
 13
232.271008587863
 23
113.0
 33
0.0
  0
SOLID
  5
2FD
330
2F6
100
AcDbEntity
  8
layer 9
 62
     0
100
AcDbTrace
 10
231.8543419211963
 20
107.5
 30
0.0
 11
232.6876752545296
 21
107.5
 31
0.0
 12
232.271008587863
 22
105.0
 32
0.0
 13
232.271008587863
 23
105.0
 33
0.0
  0
MTEXT
  5
2FE
330
2F6
100
AcDbEntity
  8
layer 9
 62
     0
100
AcDbMText
 10
230.396008587863
 20
109.0
 30
0.0
 40
2.5
 41
0.0
 46
0.0
 71
     5
 72
     1
  1
\A1;M8
  7
QCADDimTextStyle
 11
0.0
 21
1.0
 31
0.0
 73
     1
 44
1.0
  0
POINT
  5
2FF
330
2F6
100
AcDbEntity
  8
Defpoints
 62
     0
100
AcDbPoint
 10
240.0
 20
113.0
 30
0.0
  0
POINT
  5
300
330
2F6
100
AcDbEntity
  8
Defpoints
 62
     0
100
AcDbPoint
 10
240.0
 20
105.0
 30
0.0
  0
POINT
  5
301
330
2F6
100
AcDbEntity
  8
Defpoints
 62
     0
100
AcDbPoint
 10
232.271008587863
 20
105.0
 30
0.0
  0
ENDBLK
  5
2F8
330
2F6
100
AcDbEntity
  8
0
100
AcDbBlockEnd
  0
BLOCK
  5
303
330
302
100
AcDbEntity
  8
0
100
AcDbBlockBegin
  2
*D9
 70
     1
 10
0.0
 20
0.0
 30
0.0
  3
*D9
  1
*D9
  0
LINE
  5
305
330
302
100
AcDbEntity
  8
layer 9
 62
     0
370
    -2
100
AcDbLine
 10
155.0
 20
60.625
 30
0.0
 11
155.0
 21
67.08526331332509
 31
0.0
  0
LINE
  5
306
330
302
100
AcDbEntity
  8
layer 9
 62
     0
370
    -2
100
AcDbLine
 10
195.0
 20
60.625
 30
0.0
 11
195.0
 21
67.08526331332509
 31
0.0
  0
LINE
  5
307
330
302
100
AcDbEntity
  8
layer 9
 62
     0
370
    -2
100
AcDbLine
 10
157.5
 20
65.83526331332509
 30
0.0
 11
192.5
 21
65.83526331332509
 31
0.0
  0
SOLID
  5
308
330
302
100
AcDbEntity
  8
layer 9
 62
     0
100
AcDbTrace
 10
157.5
 20
66.25192997999176
 30
0.0
 11
157.5
 21
65.41859664665841
 31
0.0
 12
155.0
 22
65.83526331332509
 32
0.0
 13
155.0
 23
65.83526331332509
 33
0.0
  0
SOLID
  5
309
330
302
100
AcDbEntity
  8
layer 9
 62
     0
100
AcDbTrace
 10
192.5
 20
65.41859664665841
 30
0.0
 11
192.5
 21
66.25192997999176
 31
0.0
 12
195.0
 22
65.83526331332509
 32
0.0
 13
195.0
 23
65.83526331332509
 33
0.0
  0
MTEXT
  5
30A
330
302
100
AcDbEntity
  8
layer 9
 62
     0
100
AcDbMText
 10
175.0
 20
67.71026331332509
 30
0.0
 40
2.5
 41
0.0
 46
0.0
 71
     5
 72
     1
  1
\A1;ø40
  7
QCADDimTextStyle
 73
     1
 44
1.0
  0
POINT
  5
30B
330
302
100
AcDbEntity
  8
Defpoints
 62
     0
100
AcDbPoint
 10
155.0
 20
60.0
 30
0.0
  0
POINT
  5
30C
330
302
100
AcDbEntity
  8
Defpoints
 62
     0
100
AcDbPoint
 10
195.0
 20
60.0
 30
0.0
  0
POINT
  5
30D
330
302
100
AcDbEntity
  8
Defpoints
 62
     0
100
AcDbPoint
 10
195.0
 20
65.83526331332509
 30
0.0
  0
ENDBLK
  5
304
330
302
100
AcDbEntity
  8
0
100
AcDbBlockEnd
  0
BLOCK
  5
30F
330
30E
100
AcDbEntity
  8
0
100
AcDbBlockBegin
  2
*D10
 70
     1
 10
0.0
 20
0.0
 30
0.0
  3
*D10
  1
*D10
  0
LINE
  5
311
330
30E
100
AcDbEntity
  8
layer 9
 62
     0
370
    -2
100
AcDbLine
 10
195.625
 20
60.0
 30
0.0
 11
203.3523021390461
 21
60.0
 31
0.0
  0
LINE
  5
312
330
30E
100
AcDbEntity
  8
layer 9
 62
     0
370
    -2
100
AcDbLine
 10
195.625
 20
55.0
 30
0.0
 11
203.3523021390461
 21
55.0
 31
0.0
  0
LINE
  5
313
330
30E
100
AcDbEntity
  8
layer 9
 62
     0
370
    -2
100
AcDbLine
 10
202.1023021390461
 20
62.5
 30
0.0
 11
202.1023021390461
 21
65.0
 31
0.0
  0
LINE
  5
314
330
30E
100
AcDbEntity
  8
layer 9
 62
     0
370
    -2
100
AcDbLine
 10
202.1023021390461
 20
52.5
 30
0.0
 11
202.1023021390461
 21
50.0
 31
0.0
  0
SOLID
  5
315
330
30E
100
AcDbEntity
  8
layer 9
 62
     0
100
AcDbTrace
 10
201.6856354723794
 20
62.5
 30
0.0
 11
202.5189688057127
 21
62.5
 31
0.0
 12
202.1023021390461
 22
60.0
 32
0.0
 13
202.1023021390461
 23
60.0
 33
0.0
  0
SOLID
  5
316
330
30E
100
AcDbEntity
  8
layer 9
 62
     0
100
AcDbTrace
 10
202.5189688057127
 20
52.5
 30
0.0
 11
201.6856354723794
 21
52.5
 31
0.0
 12
202.1023021390461
 22
55.0
 32
0.0
 13
202.1023021390461
 23
55.0
 33
0.0
  0
MTEXT
  5
317
330
30E
100
AcDbEntity
  8
layer 9
 62
     0
100
AcDbMText
 10
200.2273021390461
 20
57.5
 30
0.0
 40
2.5
 41
0.0
 46
0.0
 71
     5
 72
     1
  1
\A1;5
  7
QCADDimTextStyle
 11
0.0
 21
1.0
 31
0.0
 73
     1
 44
1.0
  0
POINT
  5
318
330
30E
100
AcDbEntity
  8
Defpoints
 62
     0
100
AcDbPoint
 10
195.0
 20
60.0
 30
0.0
  0
POINT
  5
319
330
30E
100
AcDbEntity
  8
Defpoints
 62
     0
100
AcDbPoint
 10
195.0
 20
55.0
 30
0.0
  0
POINT
  5
31A
330
30E
100
AcDbEntity
  8
Defpoints
 62
     0
100
AcDbPoint
 10
202.1023021390461
 20
55.0
 30
0.0
  0
ENDBLK
  5
310
330
30E
100
AcDbEntity
  8
0
100
AcDbBlockEnd
  0
BLOCK
  5
31C
330
31B
100
AcDbEntity
  8
0
100
AcDbBlockBegin
  2
*D11
 70
     1
 10
0.0
 20
0.0
 30
0.0
  3
*D11
  1
*D11
  0
LINE
  5
31E
330
31B
100
AcDbEntity
  8
layer 9
 62
     0
370
    -2
100
AcDbLine
 10
174.7122005645665
 20
104.804794092402
 30
0.0
 11
167.8479703082101
 21
118.0370451889926
 31
0.0
  0
LINE
  5
31F
330
31B
100
AcDbEntity
  8
layer 9
 62
     0
370
    -2
100
AcDbLine
 10
214.7122005645665
 20
125.554794092402
 30
0.0
 11
207.8479703082101
 21
138.7870451889926
 31
0.0
  0
LINE
  5
320
330
31B
100
AcDbEntity
  8
layer 9
 62
     0
370
    -2
100
AcDbLine
 10
170.6427455486851
 20
118.0786547459227
 30
0.0
 11
206.2043928094692
 21
136.5262592624545
 31
0.0
  0
SOLID
  5
321
330
31B
100
AcDbEntity
  8
layer 9
 62
     0
100
AcDbTrace
 10
170.4508792583961
 20
118.4485174741907
 30
0.0
 11
170.8346118389741
 21
117.7087920176547
 31
0.0
 12
168.4235691790772
 22
116.9274570041886
 32
0.0
 13
168.4235691790772
 23
116.9274570041886
 33
0.0
  0
SOLID
  5
322
330
31B
100
AcDbEntity
  8
layer 9
 62
     0
100
AcDbTrace
 10
206.3962590997583
 20
136.1563965341865
 30
0.0
 11
206.0125265191802
 21
136.8961219907225
 31
0.0
 12
208.4235691790772
 22
137.6774570041886
 32
0.0
 13
208.4235691790772
 23
137.6774570041886
 33
0.0
  0
MTEXT
  5
323
330
31B
100
AcDbEntity
  8
layer 9
 62
     0
100
AcDbMText
 10
187.5601708727766
 20
128.9668392813946
 30
0.0
 40
2.5
 41
0.0
 46
0.0
 71
     5
 72
     1
  1
\A1;45.0618
  7
QCADDimTextStyle
 11
0.8876705478431752
 21
0.4604790966936472
 31
0.0
 73
     1
 44
1.0
  0
POINT
  5
324
330
31B
100
AcDbEntity
  8
Defpoints
 62
     0
100
AcDbPoint
 10
175.0
 20
104.25
 30
0.0
  0
POINT
  5
325
330
31B
100
AcDbEntity
  8
Defpoints
 62
     0
100
AcDbPoint
 10
215.0
 20
125.0
 30
0.0
  0
POINT
  5
326
330
31B
100
AcDbEntity
  8
Defpoints
 62
     0
100
AcDbPoint
 10
208.4235691790772
 20
137.6774570041886
 30
0.0
  0
ENDBLK
  5
31D
330
31B
100
AcDbEntity
  8
0
100
AcDbBlockEnd
  0
BLOCK
  5
328
330
327
100
AcDbEntity
  8
0
100
AcDbBlockBegin
  2
*D12
 70
     1
 10
0.0
 20
0.0
 30
0.0
  3
*D12
  1
*D12
  0
LINE
  5
32A
330
327
100
AcDbEntity
  8
layer 9
 62
     0
370
    -2
100
AcDbLine
 10
162.8642810673831
 20
39.375
 30
0.0
 11
162.8642810673831
 21
28.75
 31
0.0
  0
LINE
  5
32B
330
327
100
AcDbEntity
  8
layer 9
 62
     0
370
    -2
100
AcDbLine
 10
187.6746748652156
 20
39.375
 30
0.0
 11
187.6746748652156
 21
28.75
 31
0.0
  0
LINE
  5
32C
330
327
100
AcDbEntity
  8
layer 9
 62
     0
370
    -2
100
AcDbLine
 10
165.3642810673831
 20
30.0
 30
0.0
 11
185.1746748652156
 21
30.0
 31
0.0
  0
SOLID
  5
32D
330
327
100
AcDbEntity
  8
layer 9
 62
     0
100
AcDbTrace
 10
165.3642810673831
 20
30.41666666666667
 30
0.0
 11
165.3642810673831
 21
29.58333333333333
 31
0.0
 12
162.8642810673831
 22
30.0
 32
0.0
 13
162.8642810673831
 23
30.0
 33
0.0
  0
SOLID
  5
32E
330
327
100
AcDbEntity
  8
layer 9
 62
     0
100
AcDbTrace
 10
185.1746748652156
 20
29.58333333333333
 30
0.0
 11
185.1746748652156
 21
30.41666666666667
 31
0.0
 12
187.6746748652156
 22
30.0
 32
0.0
 13
187.6746748652156
 23
30.0
 33
0.0
  0
MTEXT
  5
32F
330
327
100
AcDbEntity
  8
layer 9
 62
     0
100
AcDbMText
 10
175.2694779662993
 20
31.875
 30
0.0
 40
2.5
 41
0.0
 46
0.0
 71
     5
 72
     1
  1
\A1;24.5
  7
QCADDimTextStyle
 73
     1
 44
1.0
  0
POINT
  5
330
330
327
100
AcDbEntity
  8
Defpoints
 62
     0
100
AcDbPoint
 10
162.8642810673831
 20
40.0
 30
0.0
  0
POINT
  5
331
330
327
100
AcDbEntity
  8
Defpoints
 62
     0
100
AcDbPoint
 10
187.6746748652156
 20
40.0
 30
0.0
  0
POINT
  5
332
330
327
100
AcDbEntity
  8
Defpoints
 62
     0
100
AcDbPoint
 10
187.6746748652156
 20
30.0
 30
0.0
  0
ENDBLK
  5
329
330
327
100
AcDbEntity
  8
0
100
AcDbBlockEnd
  0
BLOCK
  5
334
330
333
100
AcDbEntity
  8
0
100
AcDbBlockBegin
  2
*D13
 70
     1
 10
0.0
 20
0.0
 30
0.0
  3
*D13
  1
*D13
  0
LINE
  5
336
330
333
100
AcDbEntity
  8
layer 9
 62
     0
370
    -2
100
AcDbLine
 10
125.0
 20
39.375
 30
0.0
 11
125.0
 21
28.75
 31
0.0
  0
LINE
  5
337
330
333
100
AcDbEntity
  8
layer 9
 62
     0
370
    -2
100
AcDbLine
 10
145.0
 20
39.375
 30
0.0
 11
145.0
 21
28.75
 31
0.0
  0
LINE
  5
338
330
333
100
AcDbEntity
  8
layer 9
 62
     0
370
    -2
100
AcDbLine
 10
127.5
 20
30.0
 30
0.0
 11
142.5
 21
30.0
 31
0.0
  0
SOLID
  5
339
330
333
100
AcDbEntity
  8
layer 9
 62
     0
100
AcDbTrace
 10
127.5
 20
30.41666666666667
 30
0.0
 11
127.5
 21
29.58333333333333
 31
0.0
 12
125.0
 22
30.0
 32
0.0
 13
125.0
 23
30.0
 33
0.0
  0
SOLID
  5
33A
330
333
100
AcDbEntity
  8
layer 9
 62
     0
100
AcDbTrace
 10
142.5
 20
29.58333333333333
 30
0.0
 11
142.5
 21
30.41666666666667
 31
0.0
 12
145.0
 22
30.0
 32
0.0
 13
145.0
 23
30.0
 33
0.0
  0
MTEXT
  5
33B
330
333
100
AcDbEntity
  8
layer 9
 62
     0
100
AcDbMText
 10
135.0
 20
31.875
 30
0.0
 40
2.5
 41
0.0
 46
0.0
 71
     5
 72
     1
  1
\A1;20
  7
QCADDimTextStyle
 73
     1
 44
1.0
  0
POINT
  5
33C
330
333
100
AcDbEntity
  8
Defpoints
 62
     0
100
AcDbPoint
 10
125.0
 20
40.0
 30
0.0
  0
POINT
  5
33D
330
333
100
AcDbEntity
  8
Defpoints
 62
     0
100
AcDbPoint
 10
145.0
 20
40.0
 30
0.0
  0
POINT
  5
33E
330
333
100
AcDbEntity
  8
Defpoints
 62
     0
100
AcDbPoint
 10
145.0
 20
30.0
 30
0.0
  0
ENDBLK
  5
335
330
333
100
AcDbEntity
  8
0
100
AcDbBlockEnd
  0
BLOCK
  5
340
330
33F
100
AcDbEntity
  8
0
100
AcDbBlockBegin
  2
*D14
 70
     1
 10
0.0
 20
0.0
 30
0.0
  3
*D14
  1
*D14
  0
LINE
  5
342
330
33F
100
AcDbEntity
  8
layer 9
 62
     0
370
    -2
100
AcDbLine
 10
58.52205882352935
 20
39.375
 30
0.0
 11
58.52205882352935
 21
28.75
 31
0.0
  0
LINE
  5
343
330
33F
100
AcDbEntity
  8
layer 9
 62
     0
370
    -2
100
AcDbLine
 10
99.56391402714928
 20
39.375
 30
0.0
 11
99.56391402714928
 21
28.75
 31
0.0
  0
LINE
  5
344
330
33F
100
AcDbEntity
  8
layer 9
 62
     0
370
    -2
100
AcDbLine
 10
61.02205882352935
 20
30.0
 30
0.0
 11
97.06391402714928
 21
30.0
 31
0.0
  0
SOLID
  5
345
330
33F
100
AcDbEntity
  8
layer 9
 62
     0
100
AcDbTrace
 10
61.02205882352935
 20
30.41666666666667
 30
0.0
 11
61.02205882352935
 21
29.58333333333333
 31
0.0
 12
58.52205882352935
 22
30.0
 32
0.0
 13
58.52205882352935
 23
30.0
 33
0.0
  0
SOLID
  5
346
330
33F
100
AcDbEntity
  8
layer 9
 62
     0
100
AcDbTrace
 10
97.06391402714928
 20
29.58333333333333
 30
0.0
 11
97.06391402714928
 21
30.41666666666667
 31
0.0
 12
99.56391402714928
 22
30.0
 32
0.0
 13
99.56391402714928
 23
30.0
 33
0.0
  0
MTEXT
  5
347
330
33F
100
AcDbEntity
  8
layer 9
 62
     0
100
AcDbMText
 10
79.04298642533931
 20
31.875
 30
0.0
 40
2.5
 41
0.0
 46
0.0
 71
     5
 72
     1
  1
\A1;41
  7
QCADDimTextStyle
 73
     1
 44
1.0
  0
POINT
  5
348
330
33F
100
AcDbEntity
  8
Defpoints
 62
     0
100
AcDbPoint
 10
58.52205882352935
 20
40.0
 30
0.0
  0
POINT
  5
349
330
33F
100
AcDbEntity
  8
Defpoints
 62
     0
100
AcDbPoint
 10
99.56391402714928
 20
40.0
 30
0.0
  0
POINT
  5
34A
330
33F
100
AcDbEntity
  8
Defpoints
 62
     0
100
AcDbPoint
 10
99.56391402714928
 20
30.0
 30
0.0
  0
ENDBLK
  5
341
330
33F
100
AcDbEntity
  8
0
100
AcDbBlockEnd
  0
BLOCK
  5
34C
330
34B
100
AcDbEntity
  8
0
100
AcDbBlockBegin
  2
*D15
 70
     1
 10
0.0
 20
0.0
 30
0.0
  3
*D15
  1
*D15
  0
LINE
  5
34E
330
34B
100
AcDbEntity
  8
layer 9
 62
     0
370
    -2
100
AcDbLine
 10
174.4931338054674
 20
104.2194439791725
 30
0.0
 11
171.0041535438411
 21
94.89682926757595
 31
0.0
  0
LINE
  5
34F
330
34B
100
AcDbEntity
  8
layer 9
 62
     0
370
    -2
100
AcDbLine
 10
78.78093324090095
 20
140.0396498867705
 30
0.0
 11
75.29195297927467
 21
130.717035175174
 31
0.0
  0
LINE
  5
350
330
34B
100
AcDbEntity
  8
layer 9
 62
     0
370
    -2
100
AcDbLine
 10
169.1008866091211
 20
96.94379653043124
 30
0.0
 11
78.07148695039093
 21
131.0114683652369
 31
0.0
  0
SOLID
  5
351
330
34B
100
AcDbEntity
  8
layer 9
 62
     0
100
AcDbTrace
 10
168.954842103055
 20
96.55356312161155
 30
0.0
 11
169.2469311151871
 21
97.33402993925094
 31
0.0
 12
171.4422870620392
 22
96.06752949403504
 32
0.0
 13
171.4422870620392
 23
96.06752949403504
 33
0.0
  0
SOLID
  5
352
330
34B
100
AcDbEntity
  8
layer 9
 62
     0
100
AcDbTrace
 10
78.21753145645697
 20
131.4017017740565
 30
0.0
 11
77.9254424443249
 21
130.6212349564172
 31
0.0
 12
75.73008649747277
 22
131.8877354016331
 32
0.0
 13
75.73008649747277
 23
131.8877354016331
 33
0.0
  0
MTEXT
  5
353
330
34B
100
AcDbEntity
  8
layer 9
 62
     0
100
AcDbMText
 10
124.2433870570532
 20
115.7336827875227
 30
0.0
 40
2.5
 41
0.0
 46
0.0
 71
     5
 72
     1
  1
\A1;102.1955
  7
QCADDimTextStyle
 11
0.9365601811672676
 21
-0.3505068145584829
 31
0.0
 73
     1
 44
1.0
  0
POINT
  5
354
330
34B
100
AcDbEntity
  8
Defpoints
 62
     0
100
AcDbPoint
 10
174.7122005645665
 20
104.804794092402
 30
0.0
  0
POINT
  5
355
330
34B
100
AcDbEntity
  8
Defpoints
 62
     0
100
AcDbPoint
 10
79.0
 20
140.625
 30
0.0
  0
POINT
  5
356
330
34B
100
AcDbEntity
  8
Defpoints
 62
     0
100
AcDbPoint
 10
75.73008649747277
 20
131.8877354016331
 30
0.0
  0
ENDBLK
  5
34D
330
34B
100
AcDbEntity
  8
0
100
AcDbBlockEnd
  0
BLOCK
  5
358
330
357
100
AcDbEntity
  8
0
100
AcDbBlockBegin
  2
*D16
 70
     1
 10
0.0
 20
0.0
 30
0.0
  3
*D16
  1
*D16
  0
LINE
  5
35A
330
357
100
AcDbEntity
  8
layer 9
 62
     0
370
    -2
100
AcDbLine
 10
174.3076808975937
 20
140.0270859936693
 30
0.0
 11
158.2755848849509
 21
139.9971293987546
 31
0.0
  0
LINE
  5
35B
330
357
100
AcDbEntity
  8
layer 9
 62
     0
370
    -2
100
AcDbLine
 10
174.3376303784765
 20
123.9987972509469
 30
0.0
 11
158.3055343658338
 21
123.9688406560322
 31
0.0
  0
LINE
  5
35C
330
357
100
AcDbEntity
  8
layer 9
 62
     0
370
    -2
100
AcDbLine
 10
159.5302540418825
 20
137.4994694325773
 30
0.0
 11
159.5508608446166
 21
126.4711719612838
 31
0.0
  0
SOLID
  5
35D
330
357
100
AcDbEntity
  8
layer 9
 62
     0
100
AcDbTrace
 10
159.9469199811682
 20
137.5002479890897
 30
0.0
 11
159.1135881025968
 21
137.498690876065
 31
0.0
 12
159.5255827028082
 22
139.9994650682918
 32
0.0
 13
159.5255827028082
 23
139.9994650682918
 33
0.0
  0
SOLID
  5
35E
330
357
100
AcDbEntity
  8
layer 9
 62
     0
100
AcDbTrace
 10
159.1341949053309
 20
126.4703934047714
 30
0.0
 11
159.9675267839024
 21
126.4719505177962
 31
0.0
 12
159.555532183691
 22
123.9711763255694
 32
0.0
 13
159.555532183691
 23
123.9711763255694
 33
0.0
  0
MTEXT
  5
35F
330
357
100
AcDbEntity
  8
layer 9
 62
     0
100
AcDbMText
 10
161.4155541700354
 20
131.9888242012364
 30
0.0
 40
2.5
 41
0.0
 46
0.0
 71
     5
 72
     1
  1
\A1;16.0283
  7
QCADDimTextStyle
 11
0.001868535629743875
 21
-0.9999982542857764
 31
0.0
 73
     1
 44
1.0
  0
POINT
  5
360
330
357
100
AcDbEntity
  8
Defpoints
 62
     0
100
AcDbPoint
 10
174.9326798065223
 20
140.0282538284379
 30
0.0
  0
POINT
  5
361
330
357
100
AcDbEntity
  8
Defpoints
 62
     0
100
AcDbPoint
 10
174.9626292874051
 20
123.9999650857155
 30
0.0
  0
POINT
  5
362
330
357
100
AcDbEntity
  8
Defpoints
 62
     0
100
AcDbPoint
 10
159.555532183691
 20
123.9711763255694
 30
0.0
  0
ENDBLK
  5
359
330
357
100
AcDbEntity
  8
0
100
AcDbBlockEnd
  0
BLOCK
  5
364
330
363
100
AcDbEntity
  8
0
100
AcDbBlockBegin
  2
*D17
 70
     1
 10
0.0
 20
0.0
 30
0.0
  3
*D17
  1
*D17
  0
LINE
  5
366
330
363
100
AcDbEntity
  8
layer 9
 62
     0
370
    -2
100
AcDbLine
 10
291.4
 20
39.375
 30
0.0
 11
291.4
 21
28.75
 31
0.0
  0
LINE
  5
367
330
363
100
AcDbEntity
  8
layer 9
 62
     0
370
    -2
100
AcDbLine
 10
300.0
 20
39.375
 30
0.0
 11
300.0
 21
28.75
 31
0.0
  0
LINE
  5
368
330
363
100
AcDbEntity
  8
layer 9
 62
     0
370
    -2
100
AcDbLine
 10
293.9
 20
30.0
 30
0.0
 11
297.5
 21
30.0
 31
0.0
  0
SOLID
  5
369
330
363
100
AcDbEntity
  8
layer 9
 62
     0
100
AcDbTrace
 10
293.9
 20
30.41666666666667
 30
0.0
 11
293.9
 21
29.58333333333333
 31
0.0
 12
291.4
 22
30.0
 32
0.0
 13
291.4
 23
30.0
 33
0.0
  0
SOLID
  5
36A
330
363
100
AcDbEntity
  8
layer 9
 62
     0
100
AcDbTrace
 10
297.5
 20
29.58333333333333
 30
0.0
 11
297.5
 21
30.41666666666667
 31
0.0
 12
300.0
 22
30.0
 32
0.0
 13
300.0
 23
30.0
 33
0.0
  0
MTEXT
  5
36B
330
363
100
AcDbEntity
  8
layer 9
 62
     0
100
AcDbMText
 10
295.7
 20
31.875
 30
0.0
 40
2.5
 41
0.0
 46
0.0
 71
     5
 72
     1
  1
\A1;7
  7
QCADDimTextStyle
 73
     1
 44
1.0
  0
POINT
  5
36C
330
363
100
AcDbEntity
  8
Defpoints
 62
     0
100
AcDbPoint
 10
291.4
 20
40.0
 30
0.0
  0
POINT
  5
36D
330
363
100
AcDbEntity
  8
Defpoints
 62
     0
100
AcDbPoint
 10
300.0
 20
40.0
 30
0.0
  0
POINT
  5
36E
330
363
100
AcDbEntity
  8
Defpoints
 62
     0
100
AcDbPoint
 10
300.0
 20
30.0
 30
0.0
  0
ENDBLK
  5
365
330
363
100
AcDbEntity
  8
0
100
AcDbBlockEnd
  0
BLOCK
  5
370
330
36F
100
AcDbEntity
  8
0
100
AcDbBlockBegin
  2
*D18
 70
     1
 10
0.0
 20
0.0
 30
0.0
  3
*D18
  1
*D18
  0
LINE
  5
372
330
36F
100
AcDbEntity
  8
layer 9
 62
     0
370
    -2
100
AcDbLine
 10
247.2210889956248
 20
140.3259336373725
 30
0.0
 11
224.5722794718153
 21
140.3259336373725
 31
0.0
  0
LINE
  5
373
330
36F
100
AcDbEntity
  8
layer 9
 62
     0
370
    -2
100
AcDbLine
 10
223.0372655722015
 20
145.0844767261752
 30
0.0
 11
224.5722794718153
 21
140.3259336373725
 31
0.0
  0
MTEXT
  5
374
330
36F
100
AcDbEntity
  8
layer 9
 62
     0
100
AcDbMText
 10
236.2091842337201
 20
142.2009336373725
 30
0.0
 40
2.5
 41
0.0
 46
0.0
 71
     5
 72
     1
  1
\A1;RR153.9718
  7
QCADDimTextStyle
 73
     1
 44
1.0
  0
SOLID
  5
375
330
36F
100
AcDbEntity
  8
layer 9
 62
     0
100
AcDbTrace
 10
223.4338108296017
 20
145.2123945511431
 30
0.0
 11
222.6407203148013
 21
144.9565589012074
 31
0.0
 12
222.2697586223946
 22
147.4637482705766
 32
0.0
 13
222.2697586223946
 23
147.4637482705766
 33
0.0
  0
LINE
  5
376
330
36F
100
AcDbEntity
  8
layer 9
 62
     0
100
AcDbLine
 10
174.91
 20
294.0
 30
0.0
 11
175.09
 21
294.0
 31
0.0
  0
LINE
  5
377
330
36F
100
AcDbEntity
  8
layer 9
 62
     0
100
AcDbLine
 10
175.0
 20
293.91
 30
0.0
 11
175.0
 21
294.09
 31
0.0
  0
POINT
  5
378
330
36F
100
AcDbEntity
  8
Defpoints
 62
     0
100
AcDbPoint
 10
222.2697586223946
 20
147.4637482705766
 30
0.0
  0
POINT
  5
379
330
36F
100
AcDbEntity
  8
Defpoints
 62
     0
100
AcDbPoint
 10
175.0
 20
294.0
 30
0.0
  0
ENDBLK
  5
371
330
36F
100
AcDbEntity
  8
0
100
AcDbBlockEnd
  0
BLOCK
  5
37B
330
37A
100
AcDbEntity
  8
0
100
AcDbBlockBegin
  2
*D19
 70
     1
 10
0.0
 20
0.0
 30
0.0
  3
*D19
  1
*D19
  0
LINE
  5
37D
330
37A
100
AcDbEntity
  8
layer 9
 62
     0
370
    -2
100
AcDbLine
 10
285.625
 20
116.3303992429107
 30
0.0
 11
302.0509500542103
 21
116.3303992429107
 31
0.0
  0
LINE
  5
37E
330
37A
100
AcDbEntity
  8
layer 9
 62
     0
370
    -2
100
AcDbLine
 10
285.625
 20
101.0
 30
0.0
 11
302.0509500542103
 21
101.0
 31
0.0
  0
LINE
  5
37F
330
37A
100
AcDbEntity
  8
layer 9
 62
     0
370
    -2
100
AcDbLine
 10
300.8009500542103
 20
113.8303992429107
 30
0.0
 11
300.8009500542103
 21
103.5
 31
0.0
  0
SOLID
  5
380
330
37A
100
AcDbEntity
  8
layer 9
 62
     0
100
AcDbTrace
 10
301.2176167208769
 20
113.8303992429107
 30
0.0
 11
300.3842833875436
 21
113.8303992429107
 31
0.0
 12
300.8009500542103
 22
116.3303992429107
 32
0.0
 13
300.8009500542103
 23
116.3303992429107
 33
0.0
  0
SOLID
  5
381
330
37A
100
AcDbEntity
  8
layer 9
 62
     0
100
AcDbTrace
 10
300.3842833875436
 20
103.5
 30
0.0
 11
301.2176167208769
 21
103.5
 31
0.0
 12
300.8009500542103
 22
101.0
 32
0.0
 13
300.8009500542103
 23
101.0
 33
0.0
  0
MTEXT
  5
382
330
37A
100
AcDbEntity
  8
layer 9
 62
     0
100
AcDbMText
 10
304.2384500542103
 20
108.6651996214554
 30
0.0
 40
2.5
 41
0.0
 46
0.0
 71
     5
 72
     1
  1
\A1;15.3304
  7
QCADDimTextStyle
 73
     1
 44
1.0
  0
POINT
  5
383
330
37A
100
AcDbEntity
  8
Defpoints
 62
     0
100
AcDbPoint
 10
285.0
 20
116.3303992429107
 30
0.0
  0
POINT
  5
384
330
37A
100
AcDbEntity
  8
Defpoints
 62
     0
100
AcDbPoint
 10
285.0
 20
101.0
 30
0.0
  0
POINT
  5
385
330
37A
100
AcDbEntity
  8
Defpoints
 62
     0
100
AcDbPoint
 10
300.8009500542103
 20
101.0
 30
0.0
  0
ENDBLK
  5
37C
330
37A
100
AcDbEntity
  8
0
100
AcDbBlockEnd
  0
BLOCK
  5
387
330
386
100
AcDbEntity
  8
0
100
AcDbBlockBegin
  2
*D20
 70
     1
 10
0.0
 20
0.0
 30
0.0
  3
*D20
  1
*D20
  0
LINE
  5
389
330
386
100
AcDbEntity
  8
layer 9
 62
     0
370
    -2
100
AcDbLine
 10
214.1178268041648
 20
125.3615459800024
 30
0.0
 11
198.8754034577453
 21
120.4057929903348
 31
0.0
  0
LINE
  5
38A
330
386
100
AcDbEntity
  8
layer 9
 62
     0
370
    -2
100
AcDbLine
 10
223.4615967972772
 20
96.62288644964879
 30
0.0
 11
208.2191734508577
 21
91.66713345998114
 31
0.0
  0
LINE
  5
38B
330
386
100
AcDbEntity
  8
layer 9
 62
     0
370
    -2
100
AcDbLine
 10
200.8371434281469
 20
118.4147941735273
 30
0.0
 11
208.6349285220628
 21
94.4311247263869
 31
0.0
  0
SOLID
  5
38C
330
386
100
AcDbEntity
  8
layer 9
 62
     0
100
AcDbTrace
 10
201.233392601748
 20
118.5436262484603
 30
0.0
 11
200.4408942545458
 21
118.2859620985942
 31
0.0
 12
200.0641509785486
 22
120.7922892151339
 32
0.0
 13
200.0641509785486
 23
120.7922892151339
 33
0.0
  0
SOLID
  5
38D
330
386
100
AcDbEntity
  8
layer 9
 62
     0
100
AcDbTrace
 10
208.2386793484617
 20
94.30229265145385
 30
0.0
 11
209.0311776956639
 21
94.55995680131994
 31
0.0
 12
209.407920971661
 22
92.05362968478026
 32
0.0
 13
209.407920971661
 23
92.05362968478026
 33
0.0
  0
MTEXT
  5
38E
330
386
100
AcDbEntity
  8
layer 9
 62
     0
100
AcDbMText
 10
206.5191572563098
 20
107.0027037871558
 30
0.0
 40
2.5
 41
0.0
 46
0.0
 71
     5
 72
     1
  1
\A1;30.2195
  7
QCADDimTextStyle
 11
0.3091969798392922
 21
-0.9509980166426534
 31
0.0
 73
     1
 44
1.0
  0
POINT
  5
38F
330
386
100
AcDbEntity
  8
Defpoints
 62
     0
100
AcDbPoint
 10
214.7122005645665
 20
125.554794092402
 30
0.0
  0
POINT
  5
390
330
386
100
AcDbEntity
  8
Defpoints
 62
     0
100
AcDbPoint
 10
224.0559705576789
 20
96.81613456204835
 30
0.0
  0
POINT
  5
391
330
386
100
AcDbEntity
  8
Defpoints
 62
     0
100
AcDbPoint
 10
209.407920971661
 20
92.05362968478026
 30
0.0
  0
ENDBLK
  5
388
330
386
100
AcDbEntity
  8
0
100
AcDbBlockEnd
  0
BLOCK
  5
393
330
392
100
AcDbEntity
  8
0
100
AcDbBlockBegin
  2
*D21
 70
     1
 10
0.0
 20
0.0
 30
0.0
  3
*D21
  1
*D21
  0
LINE
  5
395
330
392
100
AcDbEntity
  8
layer 9
 62
     0
370
    -2
100
AcDbLine
 10
38.20730246947807
 20
122.2542955702812
 30
0.0
 11
48.83230246947807
 21
122.2542955702812
 31
0.0
  0
LINE
  5
396
330
392
100
AcDbEntity
  8
layer 9
 62
     0
370
    -2
100
AcDbLine
 10
53.14197354526691
 20
124.7893962030982
 30
0.0
 11
48.83230246947807
 21
122.2542955702812
 31
0.0
  0
MTEXT
  5
397
330
392
100
AcDbEntity
  8
layer 9
 62
     0
100
AcDbMText
 10
43.20730246947807
 20
124.1292955702812
 30
0.0
 40
2.5
 41
0.0
 46
0.0
 71
     5
 72
     1
  1
\A1;R27.5
  7
QCADDimTextStyle
 73
     1
 44
1.0
  0
SOLID
  5
398
330
392
100
AcDbEntity
  8
layer 9
 62
     0
100
AcDbTrace
 10
53.353231931335
 20
124.4302569467824
 30
0.0
 11
52.93071515919883
 21
125.1485354594139
 31
0.0
 12
55.29680908316134
 22
126.0569465195067
 32
0.0
 13
55.29680908316134
 23
126.0569465195067
 33
0.0
  0
LINE
  5
399
330
392
100
AcDbEntity
  8
layer 9
 62
     0
100
AcDbLine
 10
78.91
 20
140.0
 30
0.0
 11
79.09
 21
140.0
 31
0.0
  0
LINE
  5
39A
330
392
100
AcDbEntity
  8
layer 9
 62
     0
100
AcDbLine
 10
79.0
 20
139.91
 30
0.0
 11
79.0
 21
140.09
 31
0.0
  0
POINT
  5
39B
330
392
100
AcDbEntity
  8
Defpoints
 62
     0
100
AcDbPoint
 10
55.29680908316134
 20
126.0569465195067
 30
0.0
  0
POINT
  5
39C
330
392
100
AcDbEntity
  8
Defpoints
 62
     0
100
AcDbPoint
 10
79.0
 20
140.0
 30
0.0
  0
ENDBLK
  5
394
330
392
100
AcDbEntity
  8
0
100
AcDbBlockEnd
  0
ENDSEC
  0
SECTION
  2
ENTITIES
  0
CIRCLE
  5
38
330
1DB
100
AcDbEntity
  8
0
100
AcDbCircle
 10
175.0
 20
104.25
 30
0.0
 40
12.25
  0
CIRCLE
  5
43
330
1DB
100
AcDbEntity
  8
0
100
AcDbCircle
 10
175.0
 20
104.0
 30
0.0
 40
20.0
  0
LINE
  5
47
330
1DB
100
AcDbEntity
  8
0
100
AcDbLine
 10
236.9242972000019
 20
101.0
 30
0.0
 11
181.8915447433202
 21
83.10725936956052
 31
0.0
  0
LINE
  5
48
330
1DB
100
AcDbEntity
  8
0
100
AcDbLine
 10
113.0
 20
101.0
 30
0.0
 11
168.1084552566798
 21
83.10725936956052
 31
0.0
  0
ARC
  5
49
330
1DB
100
AcDbEntity
  8
0
100
AcDbCircle
 10
175.0
 20
104.0
 30
0.0
 40
22.0
100
AcDbArc
 50
251.7446771251776
 51
288.2553228748225
  0
ARC
  5
53
330
1DB
100
AcDbEntity
  8
0
100
AcDbCircle
 10
175.0
 20
294.0
 30
0.0
 40
153.9717608885746
100
AcDbArc
 50
238.0114488689622
 51
301.9384489166719
  0
ARC
  5
54
330
1DB
100
AcDbEntity
  8
0
100
AcDbCircle
 10
271.0
 20
140.0
 30
0.0
 40
27.5
100
AcDbArc
 50
300.603294608207
 51
121.9384489166719
  0
CIRCLE
  5
5D
330
1DB
100
AcDbEntity
  8
0
100
AcDbCircle
 10
135.0
 20
125.0
 30
0.0
 40
10.0
  0
CIRCLE
  5
5E
330
1DB
100
AcDbEntity
  8
0
100
AcDbCircle
 10
215.0
 20
125.0
 30
0.0
 40
10.0
  0
LINE
  5
72
330
1DB
100
AcDbEntity
  8
0
100
AcDbLine
 10
272.0
 20
119.5977942368968
 30
0.0
 11
272.0
 21
101.0
 31
0.0
  0
LINE
  5
73
330
1DB
100
AcDbEntity
  8
0
100
AcDbLine
 10
65.0
 20
101.0
 30
0.0
 11
65.0
 21
116.3303992429107
 31
0.0
  0
LINE
  5
74
330
1DB
100
AcDbEntity
  8
0
100
AcDbLine
 10
272.0
 20
101.0
 30
0.0
 11
285.0
 21
101.0
 31
0.0
  0
LINE
  5
75
330
1DB
100
AcDbEntity
  8
0
100
AcDbLine
 10
270.0
 20
101.0
 30
0.0
 11
236.9242972000019
 21
101.0
 31
0.0
  0
LINE
  5
76
330
1DB
100
AcDbEntity
  8
0
100
AcDbLine
 10
270.0
 20
101.0
 30
0.0
 11
270.0
 21
119.5244047705567
 31
0.0
  0
LINE
  5
7A
330
1DB
100
AcDbEntity
  8
layer 1
100
AcDbLine
 10
240.0
 20
113.0
 30
0.0
 11
270.0
 21
113.0
 31
0.0
  0
LINE
  5
7B
330
1DB
100
AcDbEntity
  8
layer 1
100
AcDbLine
 10
240.0
 20
113.0
 30
0.0
 11
240.0
 21
105.0
 31
0.0
  0
LINE
  5
7C
330
1DB
100
AcDbEntity
  8
layer 1
100
AcDbLine
 10
240.0
 20
105.0
 30
0.0
 11
270.0
 21
105.0
 31
0.0
  0
LINE
  5
7D
330
1DB
100
AcDbEntity
  8
layer 1
100
AcDbLine
 10
285.0
 20
105.0
 30
0.0
 11
272.0
 21
105.0
 31
0.0
  0
LINE
  5
7E
330
1DB
100
AcDbEntity
  8
layer 1
100
AcDbLine
 10
272.0
 20
113.0
 30
0.0
 11
285.0
 21
113.0
 31
0.0
  0
LINE
  5
81
330
1DB
100
AcDbEntity
  8
layer 2
100
AcDbLine
 10
80.0
 20
119.5244047705567
 30
0.0
 11
80.0
 21
101.0
 31
0.0
  0
LINE
  5
83
330
1DB
100
AcDbEntity
  8
layer 2
100
AcDbLine
 10
80.0
 20
101.0
 30
0.0
 11
113.0
 21
101.0
 31
0.0
  0
LINE
  5
88
330
1DB
100
AcDbEntity
  8
layer 2
100
AcDbLine
 10
78.0
 20
101.0
 30
0.0
 11
78.00452384911631
 21
119.5973512765804
 31
0.0
  0
LINE
  5
89
330
1DB
100
AcDbEntity
  8
layer 2
100
AcDbLine
 10
65.0
 20
101.0
 30
0.0
 11
78.0
 21
101.0
 31
0.0
  0
LINE
  5
8C
330
1DB
100
AcDbEntity
  8
layer 2
100
AcDbLine
 10
285.0
 20
116.3303992429107
 30
0.0
 11
285.0
 21
101.0
 31
0.0
  0
ARC
  5
91
330
1DB
100
AcDbEntity
  8
layer 2
100
AcDbCircle
 10
79.0
 20
140.0
 30
0.0
 40
27.5
100
AcDbArc
 50
58.34206915732453
 51
239.396705391793
  0
LINE
  5
93
330
1DB
100
AcDbEntity
  8
layer 3
100
AcDbLine
 10
110.0
 20
113.0
 30
0.0
 11
110.0
 21
105.0
 31
0.0
  0
LINE
  5
94
330
1DB
100
AcDbEntity
  8
layer 3
100
AcDbLine
 10
110.0
 20
105.0
 30
0.0
 11
80.0
 21
105.0
 31
0.0
  0
LINE
  5
95
330
1DB
100
AcDbEntity
  8
layer 3
100
AcDbLine
 10
78.0009731276244
 20
105.0004862679537
 30
0.0
 11
65.0
 21
105.000729520274
 31
0.0
  0
LINE
  5
96
330
1DB
100
AcDbEntity
  8
layer 3
100
AcDbLine
 10
65.0
 20
113.0
 30
0.0
 11
78.00291825861103
 21
112.9968370097764
 31
0.0
  0
LINE
  5
97
330
1DB
100
AcDbEntity
  8
layer 3
100
AcDbLine
 10
80.0
 20
112.9970802620966
 30
0.0
 11
110.0
 21
113.0
 31
0.0
  0
LINE
  5
99
330
1DB
100
AcDbEntity
  8
layer 4
100
AcDbLine
 10
240.0
 20
112.0
 30
0.0
 11
270.0
 21
112.0
 31
0.0
  0
LINE
  5
9A
330
1DB
100
AcDbEntity
  8
layer 4
100
AcDbLine
 10
240.0
 20
106.0
 30
0.0
 11
270.0
 21
106.0
 31
0.0
  0
LINE
  5
9B
330
1DB
100
AcDbEntity
  8
layer 4
100
AcDbLine
 10
110.0
 20
106.0
 30
0.0
 11
80.0
 21
106.0
 31
0.0
  0
LINE
  5
9C
330
1DB
100
AcDbEntity
  8
layer 4
100
AcDbLine
 10
110.0
 20
112.0
 30
0.0
 11
80.0
 21
112.0
 31
0.0
  0
LINE
  5
9E
330
1DB
100
AcDbEntity
  8
layer 5
100
AcDbLine
 10
80.0
 20
109.0
 30
0.0
 11
110.0
 21
109.0
 31
0.0
  0
LINE
  5
A1
330
1DB
100
AcDbEntity
  8
layer 5
100
AcDbLine
 10
78.00194595939034
 20
108.9997562743062
 30
0.0
 11
65.0
 21
109.0
 31
0.0
  0
LINE
  5
A2
330
1DB
100
AcDbEntity
  8
layer 5
100
AcDbLine
 10
240.0
 20
109.0
 30
0.0
 11
270.0
 21
109.0
 31
0.0
  0
LINE
  5
A3
330
1DB
100
AcDbEntity
  8
layer 5
100
AcDbLine
 10
272.0
 20
109.0
 30
0.0
 11
285.0
 21
109.0
 31
0.0
  0
ARC
  5
A7
330
1DB
100
AcDbEntity
  8
layer 6
100
AcDbCircle
 10
79.0
 20
140.0
 30
0.0
 40
20.5
100
AcDbArc
 50
272.796025696292
 51
267.2066672956845
  0
ARC
  5
A8
330
1DB
100
AcDbEntity
  8
layer 6
100
AcDbCircle
 10
271.0
 20
140.0
 30
0.0
 40
20.4266982158155
100
AcDbArc
 50
272.8060673289634
 51
267.203974303708
  0
LINE
  5
187
330
1DB
100
AcDbEntity
  8
0
100
AcDbLine
 10
175.0
 20
60.0
 30
0.0
 11
299.0
 21
60.0
 31
0.0
  0
LINE
  5
188
330
1DB
100
AcDbEntity
  8
0
100
AcDbLine
 10
300.0
 20
60.0
 30
0.0
 11
50.0
 21
60.0
 31
0.0
  0
LINE
  5
189
330
1DB
100
AcDbEntity
  8
0
100
AcDbLine
 10
50.0
 20
60.0
 30
0.0
 11
50.0
 21
40.0
 31
0.0
  0
LINE
  5
18A
330
1DB
100
AcDbEntity
  8
0
100
AcDbLine
 10
50.0
 20
40.0
 30
0.0
 11
300.0
 21
40.0
 31
0.0
  0
LINE
  5
18B
330
1DB
100
AcDbEntity
  8
0
100
AcDbLine
 10
300.0
 20
40.0
 30
0.0
 11
300.0
 21
60.0
 31
0.0
  0
LINE
  5
18D
330
1DB
100
AcDbEntity
  8
layer 7
100
AcDbLine
 10
291.4
 20
60.0
 30
0.0
 11
291.4
 21
40.0
 31
0.0
  0
LINE
  5
18E
330
1DB
100
AcDbEntity
  8
layer 7
100
AcDbLine
 10
250.258196299074
 20
59.68738861499008
 30
0.0
 11
250.258196299074
 21
40.0
 31
0.0
  0
LINE
  5
18F
330
1DB
100
AcDbEntity
  8
layer 7
100
AcDbLine
 10
225.0
 20
60.0
 30
0.0
 11
225.0
 21
40.0
 31
0.0
  0
LINE
  5
190
330
1DB
100
AcDbEntity
  8
layer 7
100
AcDbLine
 10
205.0
 20
40.0
 30
0.0
 11
205.0
 21
60.0
 31
0.0
  0
LINE
  5
191
330
1DB
100
AcDbEntity
  8
layer 7
100
AcDbLine
 10
187.6746748652156
 20
55.0
 30
0.0
 11
187.6746748652156
 21
40.0
 31
0.0
  0
LINE
  5
192
330
1DB
100
AcDbEntity
  8
layer 7
100
AcDbLine
 10
162.864281067383
 20
55.0
 30
0.0
 11
162.864281067383
 21
40.0
 31
0.0
  0
LINE
  5
193
330
1DB
100
AcDbEntity
  8
layer 7
100
AcDbLine
 10
195.0
 20
60.0
 30
0.0
 11
195.0
 21
60.0
 31
0.0
  0
LINE
  5
194
330
1DB
100
AcDbEntity
  8
layer 7
100
AcDbLine
 10
195.0
 20
60.0
 30
0.0
 11
195.0
 21
55.0
 31
0.0
  0
LINE
  5
195
330
1DB
100
AcDbEntity
  8
layer 7
100
AcDbLine
 10
195.0
 20
55.0
 30
0.0
 11
187.6746748652156
 21
55.0
 31
0.0
  0
LINE
  5
196
330
1DB
100
AcDbEntity
  8
layer 7
100
AcDbLine
 10
155.0
 20
60.0
 30
0.0
 11
155.0
 21
55.0
 31
0.0
  0
LINE
  5
197
330
1DB
100
AcDbEntity
  8
layer 7
100
AcDbLine
 10
155.0
 20
55.0
 30
0.0
 11
187.6746748652156
 21
55.0
 31
0.0
  0
LINE
  5
198
330
1DB
100
AcDbEntity
  8
layer 7
100
AcDbLine
 10
145.0
 20
60.0
 30
0.0
 11
145.0
 21
40.0
 31
0.0
  0
LINE
  5
199
330
1DB
100
AcDbEntity
  8
layer 7
100
AcDbLine
 10
125.0
 20
60.0
 30
0.0
 11
125.0
 21
40.0
 31
0.0
  0
LINE
  5
19A
330
1DB
100
AcDbEntity
  8
layer 7
100
AcDbLine
 10
99.56391402714928
 20
60.1069004524887
 30
0.0
 11
99.56391402714928
 21
40.0
 31
0.0
  0
LINE
  5
19B
330
1DB
100
AcDbEntity
  8
layer 7
100
AcDbLine
 10
58.52205882352936
 20
59.81787330316743
 30
0.0
 11
58.52205882352936
 21
40.0
 31
0.0
  0
LINE
  5
19D
330
1DB
100
AcDbEntity
  8
layer 8
100
AcDbLine
 10
175.0
 20
60.0
 30
0.0
 11
175.0
 21
40.0
 31
0.0
  0
LINE
  5
19E
330
1DB
100
AcDbEntity
  8
layer 8
100
AcDbLine
 10
215.0
 20
60.0
 30
0.0
 11
215.0
 21
40.0
 31
0.0
  0
LINE
  5
19F
330
1DB
100
AcDbEntity
  8
layer 8
100
AcDbLine
 10
271.0
 20
60.0
 30
0.0
 11
271.0
 21
40.0
 31
0.0
  0
LINE
  5
1A0
330
1DB
100
AcDbEntity
  8
layer 8
100
AcDbLine
 10
79.0
 20
60.0
 30
0.0
 11
79.0
 21
40.0
 31
0.0
  0
LINE
  5
1A1
330
1DB
100
AcDbEntity
  8
layer 8
100
AcDbLine
 10
135.0
 20
40.0
 30
0.0
 11
135.0
 21
60.0
 31
0.0
  0
DIMENSION
  5
1A3
330
1DB
100
AcDbEntity
  8
layer 9
100
AcDbDimension
280
     0
  2
*D1
 10
298.6166468595837
 20
209.9974487233551
 30
0.0
 11
175.1213117069374
 21
212.0782494420644
 31
0.0
 70
    33
 71
     5
 42
246.9972624228488
 73
     0
 74
     0
 75
     0
  3
QCADDimStyle
100
AcDbAlignedDimension
 13
51.50308053671603
 23
140.4116066443523
 33
0.0
 14
298.5
 24
140.0
 34
0.0
1001
ACAD
1000
DSTYLE
1002
{
1070
   279
1070
     2
1070
    41
1040
2.5
1070
    79
1070
     2
1070
   176
1070
     0
1070
   177
1070
     0
1070
   178
1070
     0
1070
    44
1040
1.25
1070
    42
1040
0.625
1070
   147
1040
0.625
1070
   140
1040
2.5
1070
    78
1070
     8
1002
}
  0
DIMENSION
  5
1A4
330
1DB
100
AcDbEntity
  8
layer 9
100
AcDbDimension
280
     0
  2
*D2
 10
271.0
 20
204.5275110155251
 30
0.0
 11
175.0
 21
206.4025110155251
 31
0.0
 70
    33
 71
     5
 42
192.0
 73
     0
 74
     0
 75
     0
  3
QCADDimStyle
100
AcDbAlignedDimension
 13
79.0
 23
140.0
 33
0.0
 14
271.0
 24
140.0
 34
0.0
1001
ACAD
1000
DSTYLE
1002
{
1070
   279
1070
     2
1070
    41
1040
2.5
1070
    79
1070
     2
1070
   176
1070
     0
1070
   177
1070
     0
1070
   178
1070
     0
1070
    44
1040
1.25
1070
    42
1040
0.625
1070
   147
1040
0.625
1070
   140
1040
2.5
1070
    78
1070
     8
1002
}
  0
DIMENSION
  5
1A5
330
1DB
100
AcDbEntity
  8
layer 9
100
AcDbDimension
280
     0
  2
*D3
 10
270.0
 20
80.08159691415531
 30
0.0
 11
253.4621486000009
 21
81.95659691415531
 31
0.0
 70
    33
 71
     5
 42
33.07570279999811
 73
     0
 74
     0
 75
     0
  3
QCADDimStyle
100
AcDbAlignedDimension
 13
236.9242972000019
 23
101.0
 33
0.0
 14
270.0
 24
101.0
 34
0.0
1001
ACAD
1000
DSTYLE
1002
{
1070
   279
1070
     2
1070
    41
1040
2.5
1070
    79
1070
     2
1070
   176
1070
     0
1070
   177
1070
     0
1070
   178
1070
     0
1070
    44
1040
1.25
1070
    42
1040
0.625
1070
   147
1040
0.625
1070
   140
1040
2.5
1070
    78
1070
     8
1002
}
  0
DIMENSION
  5
1A6
330
1DB
100
AcDbEntity
  8
layer 9
100
AcDbDimension
280
     0
  2
*D4
 10
285.0
 20
80.29110182004987
 30
0.0
 11
278.5
 21
82.16610182004987
 31
0.0
 70
    33
 71
     5
 42
13.0
 73
     0
 74
     0
 75
     0
  3
QCADDimStyle
100
AcDbAlignedDimension
 13
272.0
 23
101.0
 33
0.0
 14
285.0
 24
101.0
 34
0.0
1001
ACAD
1000
DSTYLE
1002
{
1070
   279
1070
     2
1070
    41
1040
2.5
1070
    79
1070
     2
1070
   176
1070
     0
1070
   177
1070
     0
1070
   178
1070
     0
1070
    44
1040
1.25
1070
    42
1040
0.625
1070
   147
1040
0.625
1070
   140
1040
2.5
1070
    78
1070
     8
1002
}
  0
DIMENSION
  5
1A7
330
1DB
100
AcDbEntity
  8
layer 9
100
AcDbDimension
280
     0
  2
*D5
 10
80.0
 20
80.50060672594444
 30
0.0
 11
79.0
 21
74.56310672594444
 31
0.0
 70
    33
 71
     5
 42
2.000000000000014
 73
     0
 74
     0
 75
     0
  3
QCADDimStyle
100
AcDbAlignedDimension
 13
77.99999999999999
 23
101.0
 33
0.0
 14
80.0
 24
101.0
 34
0.0
1001
ACAD
1000
DSTYLE
1002
{
1070
   279
1070
     2
1070
    41
1040
2.5
1070
    79
1070
     2
1070
   176
1070
     0
1070
   177
1070
     0
1070
   178
1070
     0
1070
    44
1040
1.25
1070
    42
1040
0.625
1070
   147
1040
0.625
1070
   140
1040
2.5
1070
    78
1070
     8
1002
}
  0
DIMENSION
  5
1A8
330
1DB
100
AcDbEntity
  8
layer 9
100
AcDbDimension
280
     0
  2
*D6
 10
55.86787782464188
 20
113.0
 30
0.0
 11
53.99287782464187
 21
109.000364760137
 31
0.0
 70
    33
  1
8
 71
     5
 42
7.999270479726007
 73
     0
 74
     0
 75
     0
  3
QCADDimStyle
100
AcDbAlignedDimension
 13
65.0
 23
105.000729520274
 33
0.0
 14
65.00000000000003
 24
113.0
 34
0.0
1001
ACAD
1000
DSTYLE
1002
{
1070
   279
1070
     2
1070
    41
1040
2.5
1070
    79
1070
     2
1070
   176
1070
     0
1070
   177
1070
     0
1070
   178
1070
     0
1070
    44
1040
1.25
1070
    42
1040
0.625
1070
   147
1040
0.625
1070
   140
1040
2.5
1070
    78
1070
     8
1002
}
  0
DIMENSION
  5
1A9
330
1DB
100
AcDbEntity
  8
layer 9
100
AcDbDimension
280
     0
  2
*D7
 10
110.0019599985822
 20
92.86122062665248
 30
0.0
 11
95.00177751496405
 21
94.73476074882072
 31
0.0
 70
    33
 71
     5
 42
30.00000014208116
 73
     0
 74
     0
 75
     0
  3
QCADDimStyle
100
AcDbAlignedDimension
 13
80.0
 23
112.9970802620966
 33
0.0
 14
110.0
 24
113.0
 34
0.0
1001
ACAD
1000
DSTYLE
1002
{
1070
   279
1070
     2
1070
    41
1040
2.5
1070
    79
1070
     2
1070
   176
1070
     0
1070
   177
1070
     0
1070
   178
1070
     0
1070
    44
1040
1.25
1070
    42
1040
0.625
1070
   147
1040
0.625
1070
   140
1040
2.5
1070
    78
1070
     8
1002
}
  0
DIMENSION
  5
1AA
330
1DB
100
AcDbEntity
  8
layer 9
100
AcDbDimension
280
     0
  2
*D8
 10
232.271008587863
 20
105.0
 30
0.0
 11
230.396008587863
 21
109.0
 31
0.0
 70
    33
  1
M8
 71
     5
 42
8.0
 73
     0
 74
     0
 75
     0
  3
QCADDimStyle
100
AcDbAlignedDimension
 13
240.0
 23
113.0
 33
0.0
 14
240.0
 24
105.0
 34
0.0
1001
ACAD
1000
DSTYLE
1002
{
1070
   279
1070
     2
1070
    41
1040
2.5
1070
    79
1070
     2
1070
   176
1070
     0
1070
   177
1070
     0
1070
   178
1070
     0
1070
    44
1040
1.25
1070
    42
1040
0.625
1070
   147
1040
0.625
1070
   140
1040
2.5
1070
    78
1070
     8
1002
}
  0
DIMENSION
  5
1AD
330
1DB
100
AcDbEntity
  8
layer 9
100
AcDbDimension
280
     0
  2
*D9
 10
195.0
 20
65.83526331332509
 30
0.0
 11
175.0
 21
67.71026331332509
 31
0.0
 70
    33
  1
ø<>
 71
     5
 42
40.0
 73
     0
 74
     0
 75
     0
  3
QCADDimStyle
100
AcDbAlignedDimension
 13
155.0
 23
60.0
 33
0.0
 14
195.0
 24
60.0
 34
0.0
1001
ACAD
1000
DSTYLE
1002
{
1070
   279
1070
     2
1070
    41
1040
2.5
1070
    79
1070
     2
1070
   176
1070
     0
1070
   177
1070
     0
1070
   178
1070
     0
1070
    44
1040
1.25
1070
    42
1040
0.625
1070
   147
1040
0.625
1070
   140
1040
2.5
1070
    78
1070
     8
1002
}
  0
DIMENSION
  5
1AE
330
1DB
100
AcDbEntity
  8
layer 9
100
AcDbDimension
280
     0
  2
*D10
 10
202.1023021390461
 20
55.0
 30
0.0
 11
200.2273021390461
 21
57.5
 31
0.0
 70
    33
 71
     5
 42
5.0
 73
     0
 74
     0
 75
     0
  3
QCADDimStyle
100
AcDbAlignedDimension
 13
195.0
 23
60.0
 33
0.0
 14
195.0
 24
55.0
 34
0.0
1001
ACAD
1000
DSTYLE
1002
{
1070
   279
1070
     2
1070
    41
1040
2.5
1070
    79
1070
     2
1070
   176
1070
     0
1070
   177
1070
     0
1070
   178
1070
     0
1070
    44
1040
1.25
1070
    42
1040
0.625
1070
   147
1040
0.625
1070
   140
1040
2.5
1070
    78
1070
     8
1002
}
  0
DIMENSION
  5
1AF
330
1DB
100
AcDbEntity
  8
layer 9
100
AcDbDimension
280
     0
  2
*D11
 10
208.4235691790772
 20
137.6774570041886
 30
0.0
 11
187.5601708727766
 21
128.9668392813946
 31
0.0
 70
    33
 71
     5
 42
45.06176317012019
 73
     0
 74
     0
 75
     0
  3
QCADDimStyle
100
AcDbAlignedDimension
 13
175.0
 23
104.25
 33
0.0
 14
215.0
 24
125.0
 34
0.0
1001
ACAD
1000
DSTYLE
1002
{
1070
   279
1070
     2
1070
    41
1040
2.5
1070
    79
1070
     2
1070
   176
1070
     0
1070
   177
1070
     0
1070
   178
1070
     0
1070
    44
1040
1.25
1070
    42
1040
0.625
1070
   147
1040
0.625
1070
   140
1040
2.5
1070
    78
1070
     8
1002
}
  0
DIMENSION
  5
1B0
330
1DB
100
AcDbEntity
  8
layer 9
100
AcDbDimension
280
     0
  2
*D12
 10
187.6746748652156
 20
30.0
 30
0.0
 11
175.2694779662993
 21
31.875
 31
0.0
 70
    33
  1
24.5
 71
     5
 42
24.81039379783249
 73
     0
 74
     0
 75
     0
  3
QCADDimStyle
100
AcDbAlignedDimension
 13
162.8642810673831
 23
40.0
 33
0.0
 14
187.6746748652156
 24
40.0
 34
0.0
1001
ACAD
1000
DSTYLE
1002
{
1070
   279
1070
     2
1070
    41
1040
2.5
1070
    79
1070
     2
1070
   176
1070
     0
1070
   177
1070
     0
1070
   178
1070
     0
1070
    44
1040
1.25
1070
    42
1040
0.625
1070
   147
1040
0.625
1070
   140
1040
2.5
1070
    78
1070
     8
1002
}
  0
DIMENSION
  5
1B1
330
1DB
100
AcDbEntity
  8
layer 9
100
AcDbDimension
280
     0
  2
*D13
 10
145.0
 20
30.0
 30
0.0
 11
135.0
 21
31.875
 31
0.0
 70
    33
 71
     5
 42
20.0
 73
     0
 74
     0
 75
     0
  3
QCADDimStyle
100
AcDbAlignedDimension
 13
125.0
 23
40.0
 33
0.0
 14
145.0
 24
40.0
 34
0.0
1001
ACAD
1000
DSTYLE
1002
{
1070
   279
1070
     2
1070
    41
1040
2.5
1070
    79
1070
     2
1070
   176
1070
     0
1070
   177
1070
     0
1070
   178
1070
     0
1070
    44
1040
1.25
1070
    42
1040
0.625
1070
   147
1040
0.625
1070
   140
1040
2.5
1070
    78
1070
     8
1002
}
  0
DIMENSION
  5
1B2
330
1DB
100
AcDbEntity
  8
layer 9
100
AcDbDimension
280
     0
  2
*D14
 10
99.56391402714928
 20
30.0
 30
0.0
 11
79.04298642533931
 21
31.875
 31
0.0
 70
    33
  1
41
 71
     5
 42
41.04185520361993
 73
     0
 74
     0
 75
     0
  3
QCADDimStyle
100
AcDbAlignedDimension
 13
58.52205882352935
 23
40.0
 33
0.0
 14
99.56391402714928
 24
40.0
 34
0.0
1001
ACAD
1000
DSTYLE
1002
{
1070
   279
1070
     2
1070
    41
1040
2.5
1070
    79
1070
     2
1070
   176
1070
     0
1070
   177
1070
     0
1070
   178
1070
     0
1070
    44
1040
1.25
1070
    42
1040
0.625
1070
   147
1040
0.625
1070
   140
1040
2.5
1070
    78
1070
     8
1002
}
  0
DIMENSION
  5
1B3
330
1DB
100
AcDbEntity
  8
layer 9
100
AcDbDimension
280
     0
  2
*D15
 10
75.73008649747277
 20
131.8877354016331
 30
0.0
 11
124.2433870570532
 21
115.7336827875227
 31
0.0
 70
    33
 71
     5
 42
102.1954621701694
 73
     0
 74
     0
 75
     0
  3
QCADDimStyle
100
AcDbAlignedDimension
 13
174.7122005645665
 23
104.804794092402
 33
0.0
 14
79.0
 24
140.625
 34
0.0
1001
ACAD
1000
DSTYLE
1002
{
1070
   279
1070
     2
1070
    41
1040
2.5
1070
    79
1070
     2
1070
   176
1070
     0
1070
   177
1070
     0
1070
   178
1070
     0
1070
    44
1040
1.25
1070
    42
1040
0.625
1070
   147
1040
0.625
1070
   140
1040
2.5
1070
    78
1070
     8
1002
}
  0
DIMENSION
  5
1B4
330
1DB
100
AcDbEntity
  8
layer 9
100
AcDbDimension
280
     0
  2
*D16
 10
159.555532183691
 20
123.9711763255694
 30
0.0
 11
161.4155541700354
 21
131.9888242012364
 31
0.0
 70
    33
 71
     5
 42
16.02831672358288
 73
     0
 74
     0
 75
     0
  3
QCADDimStyle
100
AcDbAlignedDimension
 13
174.9326798065223
 23
140.0282538284379
 33
0.0
 14
174.9626292874051
 24
123.9999650857155
 34
0.0
1001
ACAD
1000
DSTYLE
1002
{
1070
   279
1070
     2
1070
    41
1040
2.5
1070
    79
1070
     2
1070
   176
1070
     0
1070
   177
1070
     0
1070
   178
1070
     0
1070
    44
1040
1.25
1070
    42
1040
0.625
1070
   147
1040
0.625
1070
   140
1040
2.5
1070
    78
1070
     8
1002
}
  0
DIMENSION
  5
1B5
330
1DB
100
AcDbEntity
  8
layer 9
100
AcDbDimension
280
     0
  2
*D17
 10
300.0
 20
30.0
 30
0.0
 11
295.7
 21
31.875
 31
0.0
 70
    33
  1
7
 71
     5
 42
8.600000000000023
 73
     0
 74
     0
 75
     0
  3
QCADDimStyle
100
AcDbAlignedDimension
 13
291.4
 23
40.0
 33
0.0
 14
300.0
 24
40.0
 34
0.0
1001
ACAD
1000
DSTYLE
1002
{
1070
   279
1070
     2
1070
    41
1040
2.5
1070
    79
1070
     2
1070
   176
1070
     0
1070
   177
1070
     0
1070
   178
1070
     0
1070
    44
1040
1.25
1070
    42
1040
0.625
1070
   147
1040
0.625
1070
   140
1040
2.5
1070
    78
1070
     8
1002
}
  0
DIMENSION
  5
1B7
330
1DB
100
AcDbEntity
  8
layer 9
100
AcDbDimension
280
     0
  2
*D18
 10
175.0
 20
294.0
 30
0.0
 11
236.2091842337201
 21
142.2009336373725
 31
0.0
 70
    36
  1
R<>
 71
     5
 42
153.9717608885746
 73
     0
 74
     0
 75
     0
  3
QCADDimStyle
100
AcDbRadialDimension
 15
222.2697586223946
 25
147.4637482705766
 35
0.0
 40
0.0
1001
ACAD
1000
DSTYLE
1002
{
1070
   279
1070
     2
1070
    41
1040
2.5
1070
    79
1070
     2
1070
   176
1070
     0
1070
   177
1070
     0
1070
   178
1070
     0
1070
    44
1040
1.25
1070
    42
1040
0.625
1070
   147
1040
0.625
1070
   140
1040
2.5
1070
    78
1070
     8
1002
}
  0
DIMENSION
  5
1B9
330
1DB
100
AcDbEntity
  8
layer 9
100
AcDbDimension
280
     0
  2
*D19
 10
300.8009500542103
 20
101.0
 30
0.0
 11
304.2384500542103
 21
108.6651996214554
 31
0.0
 70
    33
 71
     5
 42
15.33039924291074
 73
     0
 74
     0
 75
     0
  3
QCADDimStyle
100
AcDbAlignedDimension
 13
285.0
 23
116.3303992429107
 33
0.0
 14
285.0
 24
101.0
 34
0.0
1001
ACAD
1000
DSTYLE
1002
{
1070
   279
1070
     2
1070
    41
1040
2.5
1070
    79
1070
     2
1070
   176
1070
     0
1070
   177
1070
     0
1070
   178
1070
     0
1070
    44
1040
1.25
1070
    42
1040
0.625
1070
   147
1040
0.625
1070
   140
1040
2.5
1070
    78
1070
     8
1002
}
  0
DIMENSION
  5
1BA
330
1DB
100
AcDbEntity
  8
layer 9
100
AcDbDimension
280
     0
  2
*D20
 10
209.407920971661
 20
92.05362968478026
 30
0.0
 11
206.5191572563098
 21
107.0027037871558
 31
0.0
 70
    33
 71
     5
 42
30.21947367651815
 73
     0
 74
     0
 75
     0
  3
QCADDimStyle
100
AcDbAlignedDimension
 13
214.7122005645665
 23
125.554794092402
 33
0.0
 14
224.0559705576789
 24
96.81613456204835
 34
0.0
1001
ACAD
1000
DSTYLE
1002
{
1070
   279
1070
     2
1070
    41
1040
2.5
1070
    79
1070
     2
1070
   176
1070
     0
1070
   177
1070
     0
1070
   178
1070
     0
1070
    44
1040
1.25
1070
    42
1040
0.625
1070
   147
1040
0.625
1070
   140
1040
2.5
1070
    78
1070
     8
1002
}
  0
DIMENSION
  5
1BC
330
1DB
100
AcDbEntity
  8
layer 9
100
AcDbDimension
280
     0
  2
*D21
 10
79.0
 20
140.0
 30
0.0
 11
43.20730246947807
 21
124.1292955702812
 31
0.0
 70
    36
 71
     5
 42
27.50000000000001
 73
     0
 74
     0
 75
     0
  3
QCADDimStyle
100
AcDbRadialDimension
 15
55.29680908316134
 25
126.0569465195067
 35
0.0
 40
0.0
1001
ACAD
1000
DSTYLE
1002
{
1070
   279
1070
     2
1070
    41
1040
2.5
1070
    79
1070
     2
1070
   176
1070
     0
1070
   177
1070
     0
1070
   178
1070
     0
1070
    44
1040
1.25
1070
    42
1040
0.625
1070
   147
1040
0.625
1070
   140
1040
2.5
1070
    78
1070
     8
1002
}
  0
ENDSEC
  0
SECTION
  2
OBJECTS
  0
DICTIONARY
  5
1C9
330
0
100
AcDbDictionary
281
     1
  3
ACAD_DETAILVIEWSTYLE
350
3A4
  3
ACAD_GROUP
350
1CA
  3
ACAD_LAYOUT
350
1D6
  3
ACAD_MATERIAL
350
1FF
  3
ACAD_MLEADERSTYLE
350
227
  3
ACAD_MLINESTYLE
350
1D3
  3
ACAD_PLOTSETTINGS
350
1D5
  3
ACAD_PLOTSTYLENAME
350
1CB
  3
ACAD_SCALELIST
350
203
  3
ACAD_SECTIONVIEWSTYLE
350
3A5
  3
ACAD_TABLESTYLE
350
225
  3
ACAD_VISUALSTYLE
350
1E6
  3
ACDB_RECOMPOSE_DATA
350
3A1
  3
AcDbVariableDictionary
350
39D
  3
QCAD_OBJECTS
350
22B
  0
SUN
  5
229
330
1E5
100
AcDbSun
 90
        1
290
     0
 63
     7
421
 16777215
 40
1.0
291
     1
 91
  2455826
 92
 54000000
292
     0
 70
     2
 71
   256
280
     1
  0
DICTIONARY
  5
3A4
102
{ACAD_REACTORS
330
1C9
102
}
330
1C9
100
AcDbDictionary
281
     1
  0
DICTIONARY
  5
1CA
102
{ACAD_REACTORS
330
1C9
102
}
330
1C9
100
AcDbDictionary
281
     1
  0
DICTIONARY
  5
1D6
102
{ACAD_REACTORS
330
1C9
102
}
330
1C9
100
AcDbDictionary
281
     1
  3
Layout1
350
1DA
  3
Layout2
350
1E2
  3
Model
350
1DE
  0
DICTIONARY
  5
1FF
102
{ACAD_REACTORS
330
1C9
102
}
330
1C9
100
AcDbDictionary
281
     1
  3
ByBlock
350
201
  3
ByLayer
350
200
  3
Global
350
202
  0
DICTIONARY
  5
227
102
{ACAD_REACTORS
330
1C9
102
}
330
1C9
100
AcDbDictionary
281
     1
  3
Standard
350
228
  0
DICTIONARY
  5
1D3
102
{ACAD_REACTORS
330
1C9
102
}
330
1C9
100
AcDbDictionary
281
     1
  3
Standard
350
1D4
  0
DICTIONARY
  5
1D5
102
{ACAD_REACTORS
330
1C9
102
}
330
1C9
100
AcDbDictionary
281
     1
  0
ACDBDICTIONARYWDFLT
  5
1CB
102
{ACAD_REACTORS
330
1C9
102
}
330
1C9
100
AcDbDictionary
281
     1
  3
Normal
350
1CC
100
AcDbDictionaryWithDefault
340
1CC
  0
DICTIONARY
  5
203
102
{ACAD_REACTORS
330
1C9
102
}
330
1C9
100
AcDbDictionary
281
     1
  3
A0
350
204
  3
A1
350
205
  3
A2
350
206
  3
A3
350
207
  3
A4
350
208
  3
A5
350
209
  3
A6
350
20A
  3
A7
350
20B
  3
A8
350
20C
  3
A9
350
20D
  3
B0
350
20E
  3
B1
350
20F
  3
B2
350
210
  3
B3
350
211
  3
B4
350
212
  3
B5
350
213
  3
B6
350
214
  3
B7
350
215
  3
B8
350
216
  3
B9
350
217
  3
C0
350
218
  3
C1
350
219
  3
C2
350
21A
  3
C3
350
21B
  3
C4
350
21C
  3
C5
350
21D
  3
C6
350
21E
  3
C7
350
21F
  3
C8
350
220
  3
C9
350
221
  3
D0
350
222
  3
D1
350
223
  3
D2
350
224
  0
DICTIONARY
  5
3A5
102
{ACAD_REACTORS
330
1C9
102
}
330
1C9
100
AcDbDictionary
281
     1
  0
DICTIONARY
  5
225
102
{ACAD_REACTORS
330
1C9
102
}
330
1C9
100
AcDbDictionary
281
     1
  3
Standard
350
226
  0
DICTIONARY
  5
1E6
102
{ACAD_REACTORS
330
1C9
102
}
330
1C9
100
AcDbDictionary
281
     1
  3
2dWireframe
350
1EB
  3
Basic
350
1EE
  3
Brighten
350
1F2
  3
ColorChange
350
1F6
  3
Conceptual
350
1F0
  3
Dim
350
1F1
  3
EdgeColorOff
350
1F9
  3
Facepattern
350
1F5
  3
Flat
350
1E7
  3
FlatWithEdges
350
1E8
  3
Gouraud
350
1E9
  3
GouraudWithEdges
350
1EA
  3
Hidden
350
1ED
  3
JitterOff
350
1F7
  3
Linepattern
350
1F4
  3
OverhangOff
350
1F8
  3
Realistic
350
1EF
  3
Shaded
350
1FE
  3
Shaded with edges
350
1FD
  3
Shades of Gray
350
1FA
  3
Sketchy
350
1FB
  3
Thicken
350
1F3
  3
Wireframe
350
1EC
  3
X-Ray
350
1FC
  0
XRECORD
  5
3A1
102
{ACAD_REACTORS
330
1C9
102
}
330
1C9
100
AcDbXrecord
280
     1
 90
        1
330
226
  0
DICTIONARY
  5
39D
102
{ACAD_REACTORS
330
1C9
102
}
330
1C9
100
AcDbDictionary
281
     1
  3
CANNOSCALE
350
39E
  3
CMLEADERSTYLE
350
3A3
  3
CTABLESTYLE
350
3A2
  0
DICTIONARY
  5
22B
102
{ACAD_REACTORS
330
1C9
102
}
330
1C9
100
AcDbDictionary
281
     1
  3
ColorSettings/BackgroundColor
350
22D
  3
ColorSettings/ColorMode
350
22E
  3
Grid/DisplayGrid00
350
22F
  3
Grid/DisplayGrid01
350
230
  3
Grid/DisplayGrid02
350
231
  3
Grid/DisplayGrid03
350
232
  3
Grid/GridSpacingX00
350
233
  3
Grid/GridSpacingX01
350
234
  3
Grid/GridSpacingX02
350
235
  3
Grid/GridSpacingX03
350
236
  3
Grid/GridSpacingY00
350
237
  3
Grid/GridSpacingY01
350
238
  3
Grid/GridSpacingY02
350
239
  3
Grid/GridSpacingY03
350
23A
  3
Grid/IsometricGrid00
350
23B
  3
Grid/IsometricGrid01
350
23C
  3
Grid/IsometricGrid02
350
23D
  3
Grid/IsometricGrid03
350
23E
  3
Grid/IsometricProjection00
350
23F
  3
Grid/IsometricProjection01
350
240
  3
Grid/IsometricProjection02
350
241
  3
Grid/IsometricProjection03
350
242
  3
Grid/MetaGridSpacingX00
350
243
  3
Grid/MetaGridSpacingX01
350
244
  3
Grid/MetaGridSpacingX02
350
245
  3
Grid/MetaGridSpacingX03
350
246
  3
Grid/MetaGridSpacingY00
350
247
  3
Grid/MetaGridSpacingY01
350
248
  3
Grid/MetaGridSpacingY02
350
249
  3
Grid/MetaGridSpacingY03
350
24A
  3
MultiPageSettings/Columns
350
24B
  3
MultiPageSettings/GlueMarginsBottom
350
24C
  3
MultiPageSettings/GlueMarginsLeft
350
24D
  3
MultiPageSettings/GlueMarginsRight
350
24E
  3
MultiPageSettings/GlueMarginsTop
350
24F
  3
MultiPageSettings/PrintCropMarks
350
250
  3
MultiPageSettings/Rows
350
251
  3
PageSettings/OffsetX
350
252
  3
PageSettings/OffsetY
350
253
  3
PageSettings/PageOrientation
350
254
  3
PageSettings/PaperHeight
350
255
  3
PageSettings/PaperWidth
350
256
  3
PageSettings/Scale
350
257
  3
PageSettings/ShowPaperBorders
350
258
  3
QCADVersion
350
259
  3
UnitSettings/PaperUnit
350
25A
  0
LAYOUT
  5
1DA
102
{ACAD_REACTORS
330
1D6
102
}
330
1D6
100
AcDbPlotSettings
  1

  2
none_device
  4

  6

 40
0.0
 41
0.0
 42
0.0
 43
0.0
 44
0.0
 45
0.0
 46
0.0
 47
0.0
 48
0.0
 49
0.0
140
0.0
141
0.0
142
1.0
143
1.0
 70
   688
 72
     0
 73
     0
 74
     5
  7

 75
    16
 76
     0
 77
     2
 78
   300
147
1.0
148
0.0
149
0.0
100
AcDbLayout
  1
Layout1
 70
     1
 71
     1
 10
0.0
 20
0.0
 11
12.0
 21
9.0
 12
0.0
 22
0.0
 32
0.0
 14
1.000000000000000E+20
 24
1.000000000000000E+20
 34
1.000000000000000E+20
 15
-1.000000000000000E+20
 25
-1.000000000000000E+20
 35
-1.000000000000000E+20
146
0.0
 13
0.0
 23
0.0
 33
0.0
 16
1.0
 26
0.0
 36
0.0
 17
0.0
 27
1.0
 37
0.0
 76
     0
330
1D7
  0
LAYOUT
  5
1E2
102
{ACAD_REACTORS
330
1D6
102
}
330
1D6
100
AcDbPlotSettings
  1

  2
none_device
  4

  6

 40
0.0
 41
0.0
 42
0.0
 43
0.0
 44
0.0
 45
0.0
 46
0.0
 47
0.0
 48
0.0
 49
0.0
140
0.0
141
0.0
142
1.0
143
1.0
 70
   688
 72
     0
 73
     0
 74
     5
  7

 75
    16
 76
     0
 77
     2
 78
   300
147
1.0
148
0.0
149
0.0
100
AcDbLayout
  1
Layout2
 70
     1
 71
     2
 10
0.0
 20
0.0
 11
0.0
 21
0.0
 12
0.0
 22
0.0
 32
0.0
 14
0.0
 24
0.0
 34
0.0
 15
0.0
 25
0.0
 35
0.0
146
0.0
 13
0.0
 23
0.0
 33
0.0
 16
1.0
 26
0.0
 36
0.0
 17
0.0
 27
1.0
 37
0.0
 76
     0
330
1DF
  0
LAYOUT
  5
1DE
102
{ACAD_REACTORS
330
1D6
102
}
330
1D6
100
AcDbPlotSettings
  1

  2
none_device
  4
Letter_(8.50_x_11.00_Inches)
  6

 40
6.35
 41
6.35
 42
6.35000508
 43
6.35000508
 44
215.9
 45
279.4
 46
0.0
 47
0.0
 48
0.0
 49
0.0
140
0.0
141
0.0
142
1.0
143
1.0
 70
  1712
 72
     0
 73
     0
 74
     0
  7

 75
     0
 76
     0
 77
     2
 78
   300
147
1.0
148
0.0
149
0.0
100
AcDbLayout
  1
Model
 70
     1
 71
     0
 10
0.0
 20
0.0
 11
12.0
 21
9.0
 12
0.0
 22
0.0
 32
0.0
 14
1.000000000000000E+20
 24
1.000000000000000E+20
 34
1.000000000000000E+20
 15
-1.000000000000000E+20
 25
-1.000000000000000E+20
 35
-1.000000000000000E+20
146
0.0
 13
0.0
 23
0.0
 33
0.0
 16
1.0
 26
0.0
 36
0.0
 17
0.0
 27
1.0
 37
0.0
 76
     0
330
1DB
331
1E5
  0
MATERIAL
  5
201
102
{ACAD_REACTORS
330
1FF
102
}
330
1FF
100
AcDbMaterial
  1
ByBlock
 72
     1
 94
      127
  0
MATERIAL
  5
200
102
{ACAD_REACTORS
330
1FF
102
}
330
1FF
100
AcDbMaterial
  1
ByLayer
 72
     1
 94
      127
  0
MATERIAL
  5
202
102
{ACAD_REACTORS
330
1FF
102
}
330
1FF
100
AcDbMaterial
  1
Global
 72
     1
 94
      127
  0
MLEADERSTYLE
  5
228
102
{ACAD_REACTORS
330
227
102
}
330
227
100
AcDbMLeaderStyle
179
     2
170
     2
171
     1
172
     0
 90
        2
 40
0.0
 41
0.0
173
     1
 91
-1056964608
340
1D0
 92
       -2
290
     1
 42
0.09
291
     1
 43
0.36
  3
Standard
341
0
 44
0.18
300

342
1CE
174
     1
178
     6
175
     1
176
     0
 93
-1056964608
 45
0.18
292
     0
297
     0
 46
0.18
343
0
 94
-1056964608
 47
1.0
 49
1.0
140
1.0
293
     1
141
0.0
294
     1
177
     0
142
1.0
295
     0
296
     0
143
0.125
271
     0
272
     9
273
     9
298
     0
  0
MLINESTYLE
  5
1D4
102
{ACAD_REACTORS
330
1D3
102
}
330
1D3
100
AcDbMlineStyle
  2
Standard
 70
     0
  3

 62
   256
 51
90.0
 52
90.0
 71
     2
 49
0.5
 62
   256
  6
BYLAYER
 49
-0.5
 62
   256
  6
BYLAYER
  0
ACDBPLACEHOLDER
  5
1CC
102
{ACAD_REACTORS
330
1CB
102
}
330
1CB
  0
SCALE
  5
204
102
{ACAD_REACTORS
330
203
102
}
330
203
100
AcDbScale
 70
     0
300
1:1
140
1.0
141
1.0
290
     1
  0
SCALE
  5
205
102
{ACAD_REACTORS
330
203
102
}
330
203
100
AcDbScale
 70
     0
300
1:2
140
1.0
141
2.0
290
     0
  0
SCALE
  5
206
102
{ACAD_REACTORS
330
203
102
}
330
203
100
AcDbScale
 70
     0
300
1:4
140
1.0
141
4.0
290
     0
  0
SCALE
  5
207
102
{ACAD_REACTORS
330
203
102
}
330
203
100
AcDbScale
 70
     0
300
1:5
140
1.0
141
5.0
290
     0
  0
SCALE
  5
208
102
{ACAD_REACTORS
330
203
102
}
330
203
100
AcDbScale
 70
     0
300
1:8
140
1.0
141
8.0
290
     0
  0
SCALE
  5
209
102
{ACAD_REACTORS
330
203
102
}
330
203
100
AcDbScale
 70
     0
300
1:10
140
1.0
141
10.0
290
     0
  0
SCALE
  5
20A
102
{ACAD_REACTORS
330
203
102
}
330
203
100
AcDbScale
 70
     0
300
1:16
140
1.0
141
16.0
290
     0
  0
SCALE
  5
20B
102
{ACAD_REACTORS
330
203
102
}
330
203
100
AcDbScale
 70
     0
300
1:20
140
1.0
141
20.0
290
     0
  0
SCALE
  5
20C
102
{ACAD_REACTORS
330
203
102
}
330
203
100
AcDbScale
 70
     0
300
1:30
140
1.0
141
30.0
290
     0
  0
SCALE
  5
20D
102
{ACAD_REACTORS
330
203
102
}
330
203
100
AcDbScale
 70
     0
300
1:40
140
1.0
141
40.0
290
     0
  0
SCALE
  5
20E
102
{ACAD_REACTORS
330
203
102
}
330
203
100
AcDbScale
 70
     0
300
1:50
140
1.0
141
50.0
290
     0
  0
SCALE
  5
20F
102
{ACAD_REACTORS
330
203
102
}
330
203
100
AcDbScale
 70
     0
300
1:100
140
1.0
141
100.0
290
     0
  0
SCALE
  5
210
102
{ACAD_REACTORS
330
203
102
}
330
203
100
AcDbScale
 70
     0
300
2:1
140
2.0
141
1.0
290
     0
  0
SCALE
  5
211
102
{ACAD_REACTORS
330
203
102
}
330
203
100
AcDbScale
 70
     0
300
4:1
140
4.0
141
1.0
290
     0
  0
SCALE
  5
212
102
{ACAD_REACTORS
330
203
102
}
330
203
100
AcDbScale
 70
     0
300
8:1
140
8.0
141
1.0
290
     0
  0
SCALE
  5
213
102
{ACAD_REACTORS
330
203
102
}
330
203
100
AcDbScale
 70
     0
300
10:1
140
10.0
141
1.0
290
     0
  0
SCALE
  5
214
102
{ACAD_REACTORS
330
203
102
}
330
203
100
AcDbScale
 70
     0
300
100:1
140
100.0
141
1.0
290
     0
  0
SCALE
  5
215
102
{ACAD_REACTORS
330
203
102
}
330
203
100
AcDbScale
 70
     0
300
1/128" = 1'-0"
140
0.0078125
141
12.0
290
     0
  0
SCALE
  5
216
102
{ACAD_REACTORS
330
203
102
}
330
203
100
AcDbScale
 70
     0
300
1/64" = 1'-0"
140
0.015625
141
12.0
290
     0
  0
SCALE
  5
217
102
{ACAD_REACTORS
330
203
102
}
330
203
100
AcDbScale
 70
     0
300
1/32" = 1'-0"
140
0.03125
141
12.0
290
     0
  0
SCALE
  5
218
102
{ACAD_REACTORS
330
203
102
}
330
203
100
AcDbScale
 70
     0
300
1/16" = 1'-0"
140
0.0625
141
12.0
290
     0
  0
SCALE
  5
219
102
{ACAD_REACTORS
330
203
102
}
330
203
100
AcDbScale
 70
     0
300
3/32" = 1'-0"
140
0.09375
141
12.0
290
     0
  0
SCALE
  5
21A
102
{ACAD_REACTORS
330
203
102
}
330
203
100
AcDbScale
 70
     0
300
1/8" = 1'-0"
140
0.125
141
12.0
290
     0
  0
SCALE
  5
21B
102
{ACAD_REACTORS
330
203
102
}
330
203
100
AcDbScale
 70
     0
300
3/16" = 1'-0"
140
0.1875
141
12.0
290
     0
  0
SCALE
  5
21C
102
{ACAD_REACTORS
330
203
102
}
330
203
100
AcDbScale
 70
     0
300
1/4" = 1'-0"
140
0.25
141
12.0
290
     0
  0
SCALE
  5
21D
102
{ACAD_REACTORS
330
203
102
}
330
203
100
AcDbScale
 70
     0
300
3/8" = 1'-0"
140
0.375
141
12.0
290
     0
  0
SCALE
  5
21E
102
{ACAD_REACTORS
330
203
102
}
330
203
100
AcDbScale
 70
     0
300
1/2" = 1'-0"
140
0.5
141
12.0
290
     0
  0
SCALE
  5
21F
102
{ACAD_REACTORS
330
203
102
}
330
203
100
AcDbScale
 70
     0
300
3/4" = 1'-0"
140
0.75
141
12.0
290
     0
  0
SCALE
  5
220
102
{ACAD_REACTORS
330
203
102
}
330
203
100
AcDbScale
 70
     0
300
1" = 1'-0"
140
1.0
141
12.0
290
     0
  0
SCALE
  5
221
102
{ACAD_REACTORS
330
203
102
}
330
203
100
AcDbScale
 70
     0
300
1-1/2" = 1'-0"
140
1.5
141
12.0
290
     0
  0
SCALE
  5
222
102
{ACAD_REACTORS
330
203
102
}
330
203
100
AcDbScale
 70
     0
300
3" = 1'-0"
140
3.0
141
12.0
290
     0
  0
SCALE
  5
223
102
{ACAD_REACTORS
330
203
102
}
330
203
100
AcDbScale
 70
     0
300
6" = 1'-0"
140
6.0
141
12.0
290
     0
  0
SCALE
  5
224
102
{ACAD_REACTORS
330
203
102
}
330
203
100
AcDbScale
 70
     0
300
1'-0" = 1'-0"
140
12.0
141
12.0
290
     0
  0
TABLESTYLE
  5
226
102
{ACAD_REACTORS
330
225
102
}
102
{ACAD_XDICTIONARY
360
39F
102
}
330
225
100
AcDbTableStyle
  3
Standard
 70
     0
 71
     0
 40
0.06
 41
0.06
280
     0
281
     0
  7
Standard
140
0.18
170
     2
 62
     0
 63
   257
283
     0
 90
        4
 91
        0
  1

274
    -2
284
     1
 64
     0
275
    -2
285
     1
 65
     0
276
    -2
286
     1
 66
     0
277
    -2
287
     1
 67
     0
278
    -2
288
     1
 68
     0
279
    -2
289
     1
 69
     0
  7
Standard
140
0.25
170
     5
 62
     0
 63
   257
283
     0
 90
        4
 91
        0
  1

274
    -2
284
     1
 64
     0
275
    -2
285
     1
 65
     0
276
    -2
286
     1
 66
     0
277
    -2
287
     1
 67
     0
278
    -2
288
     1
 68
     0
279
    -2
289
     1
 69
     0
  7
Standard
140
0.18
170
     5
 62
     0
 63
   257
283
     0
 90
        4
 91
        0
  1

274
    -2
284
     1
 64
     0
275
    -2
285
     1
 65
     0
276
    -2
286
     1
 66
     0
277
    -2
287
     1
 67
     0
278
    -2
288
     1
 68
     0
279
    -2
289
     1
 69
     0
  0
VISUALSTYLE
  5
1EB
102
{ACAD_REACTORS
330
1E6
102
}
330
1E6
100
AcDbVisualStyle
  2
2dWireframe
 70
     4
177
     3
291
     0
 70
    58
 90
        0
176
     1
 90
        2
176
     1
 90
        0
176
     1
 90
        0
176
     1
 40
0.6
176
     1
 40
30.0
176
     1
 62
     7
420
 16777215
176
     1
 90
        1
176
     1
 90
        4
176
     1
 62
     7
176
     1
 62
   257
176
     1
 90
        1
176
     1
 90
        1
176
     1
 40
1.0
176
     1
 90
        0
176
     1
 62
   257
176
     1
 40
1.0
176
     1
 90
        1
176
     1
 90
        6
176
     1
 90
        2
176
     1
 62
     7
176
     1
 90
        5
176
     1
 90
        0
176
     1
 90
        0
176
     1
290
     0
176
     1
 90
        1
176
     1
 40
0.0
176
     1
 90
        0
176
     1
290
     1
176
     1
290
     1
176
     1
290
     0
176
     1
290
     0
176
     1
290
     0
176
     1
290
     0
176
     1
290
     0
176
     1
290
     0
176
     1
290
     0
176
     1
 90
       50
176
     1
 40
0.0
176
     1
 40
1.0
176
     1
 90
        0
176
     1
 62
    18
420
        0
176
     1
 90
       50
176
     1
 90
        3
176
     1
 62
     5
420
      255
176
     1
290
     0
176
     1
 90
       50
176
     1
 90
       50
176
     1
 90
       50
176
     1
290
     0
176
     1
 90
       50
176
     1
 62
   256
176
     0
 40
1.0
176
     0
 90
        2
176
     1
  1
strokes_ogs.tif
176
     1
290
     0
176
     1
 40
1.0
176
     1
 40
1.0
176
     1
  0
VISUALSTYLE
  5
1EE
102
{ACAD_REACTORS
330
1E6
102
}
330
1E6
100
AcDbVisualStyle
  2
Basic
 70
     7
177
     3
291
     1
 70
    58
 90
        1
176
     1
 90
        0
176
     1
 90
        1
176
     1
 90
        0
176
     1
 40
0.6
176
     1
 40
30.0
176
     1
 62
     7
420
 16777215
176
     1
 90
        0
176
     1
 90
        4
176
     1
 62
     7
176
     1
 62
   257
176
     1
 90
        1
176
     1
 90
        1
176
     1
 40
1.0
176
     1
 90
        8
176
     1
 62
     7
176
     1
 40
1.0
176
     1
 90
        1
176
     1
 90
        6
176
     1
 90
        2
176
     1
 62
     7
176
     1
 90
        5
176
     1
 90
        0
176
     1
 90
        0
176
     1
290
     0
176
     1
 90
        1
176
     1
 40
0.0
176
     1
 90
        0
176
     1
290
     0
176
     1
290
     1
176
     1
290
     1
176
     1
290
     0
176
     1
290
     0
176
     1
290
     0
176
     1
290
     0
176
     1
290
     0
176
     1
290
     0
176
     1
 90
       50
176
     1
 40
0.0
176
     1
 40
1.0
176
     1
 90
        0
176
     1
 62
    18
420
        0
176
     1
 90
       50
176
     1
 90
        3
176
     1
 62
     5
420
      255
176
     1
290
     0
176
     1
 90
       50
176
     1
 90
       50
176
     1
 90
       50
176
     1
290
     0
176
     1
 90
       50
176
     1
 62
   256
176
     0
 40
1.0
176
     0
 90
        2
176
     1
  1
strokes_ogs.tif
176
     1
290
     0
176
     1
 40
1.0
176
     1
 40
1.0
176
     1
  0
VISUALSTYLE
  5
1F2
102
{ACAD_REACTORS
330
1E6
102
}
330
1E6
100
AcDbVisualStyle
  2
Brighten
 70
    12
177
     3
291
     1
 70
    58
 90
        2
176
     1
 90
        2
176
     1
 90
        0
176
     1
 90
        0
176
     1
 40
0.6
176
     1
 40
30.0
176
     1
 62
     7
420
 16777215
176
     1
 90
        1
176
     1
 90
        4
176
     1
 62
     7
176
     1
 62
   257
176
     1
 90
        1
176
     1
 90
        1
176
     1
 40
1.0
176
     1
 90
        8
176
     1
 62
     7
176
     1
 40
1.0
176
     1
 90
        1
176
     1
 90
        6
176
     1
 90
        2
176
     1
 62
     7
176
     1
 90
        5
176
     1
 90
        0
176
     1
 90
        0
176
     1
290
     0
176
     1
 90
        1
176
     1
 40
50.0
176
     1
 90
        0
176
     1
290
     0
176
     1
290
     1
176
     1
290
     1
176
     1
290
     0
176
     1
290
     0
176
     1
290
     0
176
     1
290
     0
176
     1
290
     0
176
     1
290
     0
176
     1
 90
       50
176
     1
 40
0.0
176
     1
 40
1.0
176
     1
 90
        0
176
     1
 62
    18
420
        0
176
     1
 90
       50
176
     1
 90
        3
176
     1
 62
     5
420
      255
176
     1
290
     0
176
     1
 90
       50
176
     1
 90
       50
176
     1
 90
       50
176
     1
290
     0
176
     1
 90
       50
176
     1
 62
   256
176
     0
 40
1.0
176
     0
 90
        2
176
     1
  1
strokes_ogs.tif
176
     1
290
     0
176
     1
 40
1.0
176
     1
 40
1.0
176
     1
  0
VISUALSTYLE
  5
1F6
102
{ACAD_REACTORS
330
1E6
102
}
330
1E6
100
AcDbVisualStyle
  2
ColorChange
 70
    16
177
     3
291
     1
 70
    58
 90
        2
176
     1
 90
        2
176
     1
 90
        3
176
     1
 90
        0
176
     1
 40
0.6
176
     1
 40
30.0
176
     1
 62
     8
420
  8421504
176
     1
 90
        1
176
     1
 90
        4
176
     1
 62
     7
176
     1
 62
   257
176
     1
 90
        1
176
     1
 90
        1
176
     1
 40
1.0
176
     1
 90
        8
176
     1
 62
     8
420
  8421504
176
     1
 40
1.0
176
     1
 90
        1
176
     1
 90
        6
176
     1
 90
        2
176
     1
 62
     7
176
     1
 90
        5
176
     1
 90
        0
176
     1
 90
        0
176
     1
290
     0
176
     1
 90
        1
176
     1
 40
0.0
176
     1
 90
        0
176
     1
290
     0
176
     1
290
     1
176
     1
290
     1
176
     1
290
     0
176
     1
290
     0
176
     1
290
     0
176
     1
290
     0
176
     1
290
     0
176
     1
290
     0
176
     1
 90
       50
176
     1
 40
0.0
176
     1
 40
1.0
176
     1
 90
        0
176
     1
 62
    18
420
        0
176
     1
 90
       50
176
     1
 90
        3
176
     1
 62
     5
420
      255
176
     1
290
     0
176
     1
 90
       50
176
     1
 90
       50
176
     1
 90
       50
176
     1
290
     0
176
     1
 90
       50
176
     1
 62
   256
176
     0
 40
1.0
176
     0
 90
        2
176
     1
  1
strokes_ogs.tif
176
     1
290
     0
176
     1
 40
1.0
176
     1
 40
1.0
176
     1
  0
VISUALSTYLE
  5
1F0
102
{ACAD_REACTORS
330
1E6
102
}
330
1E6
100
AcDbVisualStyle
  2
Conceptual
 70
     9
177
     3
291
     0
 70
    58
 90
        3
176
     1
 90
        2
176
     1
 90
        0
176
     1
 90
        0
176
     1
 40
0.6
176
     1
 40
30.0
176
     1
 62
     7
420
 16777215
176
     1
 90
        2
176
     1
 90
        2
176
     1
 62
     7
176
     1
 62
   257
176
     1
 90
        1
176
     1
 90
        1
176
     1
 40
179.0
176
     1
 90
        8
176
     1
 62
     7
176
     1
 40
1.0
176
     1
 90
        1
176
     1
 90
        6
176
     1
 90
        2
176
     1
 62
     7
176
     1
 90
        3
176
     1
 90
        0
176
     1
 90
        0
176
     1
290
     0
176
     1
 90
        1
176
     1
 40
0.0
176
     1
 90
        0
176
     1
290
     0
176
     1
290
     1
176
     1
290
     1
176
     1
290
     0
176
     1
290
     0
176
     1
290
     0
176
     1
290
     0
176
     1
290
     0
176
     1
290
     0
176
     1
 90
       50
176
     1
 40
0.0
176
     1
 40
1.0
176
     1
 90
        0
176
     1
 62
    18
420
        0
176
     1
 90
       50
176
     1
 90
        3
176
     1
 62
     5
420
      255
176
     1
290
     0
176
     1
 90
       50
176
     1
 90
       50
176
     1
 90
       50
176
     1
290
     0
176
     1
 90
       50
176
     1
 62
   256
176
     0
 40
1.0
176
     0
 90
        2
176
     1
  1
strokes_ogs.tif
176
     1
290
     0
176
     1
 40
1.0
176
     1
 40
1.0
176
     1
  0
VISUALSTYLE
  5
1F1
102
{ACAD_REACTORS
330
1E6
102
}
330
1E6
100
AcDbVisualStyle
  2
Dim
 70
    11
177
     3
291
     1
 70
    58
 90
        2
176
     1
 90
        2
176
     1
 90
        0
176
     1
 90
        0
176
     1
 40
0.6
176
     1
 40
30.0
176
     1
 62
     7
420
 16777215
176
     1
 90
        1
176
     1
 90
        4
176
     1
 62
     7
176
     1
 62
   257
176
     1
 90
        1
176
     1
 90
        1
176
     1
 40
1.0
176
     1
 90
        8
176
     1
 62
     7
176
     1
 40
1.0
176
     1
 90
        1
176
     1
 90
        6
176
     1
 90
        2
176
     1
 62
     7
176
     1
 90
        5
176
     1
 90
        0
176
     1
 90
        0
176
     1
290
     0
176
     1
 90
        1
176
     1
 40
-50.0
176
     1
 90
        0
176
     1
290
     0
176
     1
290
     1
176
     1
290
     1
176
     1
290
     0
176
     1
290
     0
176
     1
290
     0
176
     1
290
     0
176
     1
290
     0
176
     1
290
     0
176
     1
 90
       50
176
     1
 40
0.0
176
     1
 40
1.0
176
     1
 90
        0
176
     1
 62
    18
420
        0
176
     1
 90
       50
176
     1
 90
        3
176
     1
 62
     5
420
      255
176
     1
290
     0
176
     1
 90
       50
176
     1
 90
       50
176
     1
 90
       50
176
     1
290
     0
176
     1
 90
       50
176
     1
 62
   256
176
     0
 40
1.0
176
     0
 90
        2
176
     1
  1
strokes_ogs.tif
176
     1
290
     0
176
     1
 40
1.0
176
     1
 40
1.0
176
     1
  0
VISUALSTYLE
  5
1F9
102
{ACAD_REACTORS
330
1E6
102
}
330
1E6
100
AcDbVisualStyle
  2
EdgeColorOff
 70
    22
177
     3
291
     1
 70
    58
 90
        2
176
     0
 90
        2
176
     0
 90
        0
176
     0
 90
        0
176
     0
 40
0.6
176
     0
 40
30.0
176
     0
 62
     7
420
 16777215
176
     0
 90
        1
176
     0
 90
        4
176
     0
 62
     7
176
     0
 62
   257
176
     0
 90
        1
176
     0
 90
        1
176
     0
 40
1.0
176
     0
 90
        8
176
     2
 62
     7
176
     0
 40
1.0
176
     0
 90
        1
176
     0
 90
        6
176
     0
 90
        2
176
     0
 62
     7
176
     0
 90
        5
176
     0
 90
        0
176
     0
 90
        0
176
     0
290
     0
176
     0
 90
        1
176
     0
 40
0.0
176
     0
 90
        0
176
     0
290
     0
176
     0
290
     1
176
     0
290
     1
176
     0
290
     0
176
     0
290
     0
176
     0
290
     0
176
     0
290
     0
176
     0
290
     0
176
     0
290
     0
176
     0
 90
       50
176
     0
 40
0.0
176
     0
 40
1.0
176
     0
 90
        0
176
     0
 62
    18
420
        0
176
     0
 90
       50
176
     0
 90
        3
176
     0
 62
     5
420
      255
176
     0
290
     0
176
     0
 90
       50
176
     0
 90
       50
176
     0
 90
       50
176
     0
290
     0
176
     0
 90
       50
176
     0
 62
   256
176
     0
 40
1.0
176
     0
 90
        2
176
     0
  1
strokes_ogs.tif
176
     0
290
     0
176
     0
 40
1.0
176
     0
 40
1.0
176
     0
  0
VISUALSTYLE
  5
1F5
102
{ACAD_REACTORS
330
1E6
102
}
330
1E6
100
AcDbVisualStyle
  2
Facepattern
 70
    15
177
     3
291
     1
 70
    58
 90
        2
176
     1
 90
        2
176
     1
 90
        0
176
     1
 90
        0
176
     1
 40
0.6
176
     1
 40
30.0
176
     1
 62
     7
420
 16777215
176
     1
 90
        1
176
     1
 90
        4
176
     1
 62
     7
176
     1
 62
   257
176
     1
 90
        1
176
     1
 90
        1
176
     1
 40
1.0
176
     1
 90
        8
176
     1
 62
     7
176
     1
 40
1.0
176
     1
 90
        1
176
     1
 90
        6
176
     1
 90
        2
176
     1
 62
     7
176
     1
 90
        5
176
     1
 90
        0
176
     1
 90
        0
176
     1
290
     0
176
     1
 90
        1
176
     1
 40
0.0
176
     1
 90
        0
176
     1
290
     0
176
     1
290
     1
176
     1
290
     1
176
     1
290
     0
176
     1
290
     0
176
     1
290
     0
176
     1
290
     0
176
     1
290
     0
176
     1
290
     0
176
     1
 90
       50
176
     1
 40
0.0
176
     1
 40
1.0
176
     1
 90
        0
176
     1
 62
    18
420
        0
176
     1
 90
       50
176
     1
 90
        3
176
     1
 62
     5
420
      255
176
     1
290
     0
176
     1
 90
       50
176
     1
 90
       50
176
     1
 90
       50
176
     1
290
     0
176
     1
 90
       50
176
     1
 62
   256
176
     0
 40
1.0
176
     0
 90
        2
176
     1
  1
strokes_ogs.tif
176
     1
290
     0
176
     1
 40
1.0
176
     1
 40
1.0
176
     1
  0
VISUALSTYLE
  5
1E7
102
{ACAD_REACTORS
330
1E6
102
}
330
1E6
100
AcDbVisualStyle
  2
Flat
 70
     0
177
     3
291
     1
 70
    58
 90
        2
176
     1
 90
        1
176
     1
 90
        1
176
     1
 90
        2
176
     1
 40
0.6
176
     1
 40
30.0
176
     1
 62
     7
420
 16777215
176
     1
 90
        0
176
     1
 90
        0
176
     1
 62
     7
176
     1
 62
   257
176
     1
 90
        1
176
     1
 90
        1
176
     1
 40
1.0
176
     1
 90
        8
176
     1
 62
     7
176
     1
 40
1.0
176
     1
 90
        1
176
     1
 90
        6
176
     1
 90
        2
176
     1
 62
     7
176
     1
 90
        5
176
     1
 90
        0
176
     1
 90
        0
176
     1
290
     0
176
     1
 90
       13
176
     1
 40
0.0
176
     1
 90
        0
176
     1
290
     0
176
     1
290
     1
176
     1
290
     1
176
     1
290
     0
176
     1
290
     0
176
     1
290
     0
176
     1
290
     0
176
     1
290
     0
176
     1
290
     0
176
     1
 90
       50
176
     1
 40
0.0
176
     1
 40
1.0
176
     1
 90
        0
176
     1
 62
    18
420
        0
176
     1
 90
       50
176
     1
 90
        3
176
     1
 62
     5
420
      255
176
     1
290
     0
176
     1
 90
       50
176
     1
 90
       50
176
     1
 90
       50
176
     1
290
     0
176
     1
 90
       50
176
     1
 62
   256
176
     0
 40
1.0
176
     0
 90
        2
176
     1
  1
strokes_ogs.tif
176
     1
290
     0
176
     1
 40
1.0
176
     1
 40
1.0
176
     1
  0
VISUALSTYLE
  5
1E8
102
{ACAD_REACTORS
330
1E6
102
}
330
1E6
100
AcDbVisualStyle
  2
FlatWithEdges
 70
     1
177
     3
291
     1
 70
    58
 90
        2
176
     1
 90
        1
176
     1
 90
        1
176
     1
 90
        2
176
     1
 40
0.6
176
     1
 40
30.0
176
     1
 62
     7
420
 16777215
176
     1
 90
        1
176
     1
 90
        0
176
     1
 62
     7
176
     1
 62
   257
176
     1
 90
        1
176
     1
 90
        1
176
     1
 40
1.0
176
     1
 90
        0
176
     1
 62
   257
176
     1
 40
1.0
176
     1
 90
        1
176
     1
 90
        6
176
     1
 90
        2
176
     1
 62
     7
176
     1
 90
        5
176
     1
 90
        0
176
     1
 90
        0
176
     1
290
     0
176
     1
 90
       13
176
     1
 40
0.0
176
     1
 90
        0
176
     1
290
     0
176
     1
290
     1
176
     1
290
     1
176
     1
290
     0
176
     1
290
     0
176
     1
290
     0
176
     1
290
     0
176
     1
290
     0
176
     1
290
     0
176
     1
 90
       50
176
     1
 40
0.0
176
     1
 40
1.0
176
     1
 90
        0
176
     1
 62
    18
420
        0
176
     1
 90
       50
176
     1
 90
        3
176
     1
 62
     5
420
      255
176
     1
290
     0
176
     1
 90
       50
176
     1
 90
       50
176
     1
 90
       50
176
     1
290
     0
176
     1
 90
       50
176
     1
 62
   256
176
     0
 40
1.0
176
     0
 90
        2
176
     1
  1
strokes_ogs.tif
176
     1
290
     0
176
     1
 40
1.0
176
     1
 40
1.0
176
     1
  0
VISUALSTYLE
  5
1E9
102
{ACAD_REACTORS
330
1E6
102
}
330
1E6
100
AcDbVisualStyle
  2
Gouraud
 70
     2
177
     3
291
     1
 70
    58
 90
        2
176
     1
 90
        2
176
     1
 90
        1
176
     1
 90
        2
176
     1
 40
0.6
176
     1
 40
30.0
176
     1
 62
     7
420
 16777215
176
     1
 90
        0
176
     1
 90
        0
176
     1
 62
     7
176
     1
 62
   257
176
     1
 90
        1
176
     1
 90
        1
176
     1
 40
1.0
176
     1
 90
        0
176
     1
 62
     7
176
     1
 40
1.0
176
     1
 90
        1
176
     1
 90
        6
176
     1
 90
        2
176
     1
 62
     7
176
     1
 90
        5
176
     1
 90
        0
176
     1
 90
        0
176
     1
290
     0
176
     1
 90
       13
176
     1
 40
0.0
176
     1
 90
        0
176
     1
290
     0
176
     1
290
     1
176
     1
290
     1
176
     1
290
     0
176
     1
290
     0
176
     1
290
     0
176
     1
290
     0
176
     1
290
     0
176
     1
290
     0
176
     1
 90
       50
176
     1
 40
0.0
176
     1
 40
1.0
176
     1
 90
        0
176
     1
 62
    18
420
        0
176
     1
 90
       50
176
     1
 90
        3
176
     1
 62
     5
420
      255
176
     1
290
     0
176
     1
 90
       50
176
     1
 90
       50
176
     1
 90
       50
176
     1
290
     0
176
     1
 90
       50
176
     1
 62
   256
176
     0
 40
1.0
176
     0
 90
        2
176
     1
  1
strokes_ogs.tif
176
     1
290
     0
176
     1
 40
1.0
176
     1
 40
1.0
176
     1
  0
VISUALSTYLE
  5
1EA
102
{ACAD_REACTORS
330
1E6
102
}
330
1E6
100
AcDbVisualStyle
  2
GouraudWithEdges
 70
     3
177
     3
291
     1
 70
    58
 90
        2
176
     1
 90
        2
176
     1
 90
        1
176
     1
 90
        2
176
     1
 40
0.6
176
     1
 40
30.0
176
     1
 62
     7
420
 16777215
176
     1
 90
        1
176
     1
 90
        0
176
     1
 62
     7
176
     1
 62
   257
176
     1
 90
        1
176
     1
 90
        1
176
     1
 40
1.0
176
     1
 90
        0
176
     1
 62
   257
176
     1
 40
1.0
176
     1
 90
        1
176
     1
 90
        6
176
     1
 90
        2
176
     1
 62
     7
176
     1
 90
        5
176
     1
 90
        0
176
     1
 90
        0
176
     1
290
     0
176
     1
 90
       13
176
     1
 40
0.0
176
     1
 90
        0
176
     1
290
     0
176
     1
290
     1
176
     1
290
     1
176
     1
290
     0
176
     1
290
     0
176
     1
290
     0
176
     1
290
     0
176
     1
290
     0
176
     1
290
     0
176
     1
 90
       50
176
     1
 40
0.0
176
     1
 40
1.0
176
     1
 90
        0
176
     1
 62
    18
420
        0
176
     1
 90
       50
176
     1
 90
        3
176
     1
 62
     5
420
      255
176
     1
290
     0
176
     1
 90
       50
176
     1
 90
       50
176
     1
 90
       50
176
     1
290
     0
176
     1
 90
       50
176
     1
 62
   256
176
     0
 40
1.0
176
     0
 90
        2
176
     1
  1
strokes_ogs.tif
176
     1
290
     0
176
     1
 40
1.0
176
     1
 40
1.0
176
     1
  0
VISUALSTYLE
  5
1ED
102
{ACAD_REACTORS
330
1E6
102
}
330
1E6
100
AcDbVisualStyle
  2
Hidden
 70
     6
177
     3
291
     0
 70
    58
 90
        1
176
     1
 90
        2
176
     1
 90
        2
176
     1
 90
        0
176
     1
 40
0.6
176
     1
 40
30.0
176
     1
 62
     7
420
 16777215
176
     1
 90
        2
176
     1
 90
        2
176
     1
 62
     7
176
     1
 62
   257
176
     1
 90
        2
176
     1
 90
        1
176
     1
 40
40.0
176
     1
 90
        0
176
     1
 62
   257
176
     1
 40
1.0
176
     1
 90
        1
176
     1
 90
        6
176
     1
 90
        2
176
     1
 62
     7
176
     1
 90
        3
176
     1
 90
        0
176
     1
 90
        0
176
     1
290
     0
176
     1
 90
        1
176
     1
 40
0.0
176
     1
 90
        0
176
     1
290
     0
176
     1
290
     1
176
     1
290
     1
176
     1
290
     0
176
     1
290
     0
176
     1
290
     0
176
     1
290
     0
176
     1
290
     0
176
     1
290
     0
176
     1
 90
       50
176
     1
 40
0.0
176
     1
 40
1.0
176
     1
 90
        0
176
     1
 62
    18
420
        0
176
     1
 90
       50
176
     1
 90
        3
176
     1
 62
     5
420
      255
176
     1
290
     0
176
     1
 90
       50
176
     1
 90
       50
176
     1
 90
       50
176
     1
290
     0
176
     1
 90
       50
176
     1
 62
   256
176
     0
 40
1.0
176
     0
 90
        2
176
     1
  1
strokes_ogs.tif
176
     1
290
     0
176
     1
 40
1.0
176
     1
 40
1.0
176
     1
  0
VISUALSTYLE
  5
1F7
102
{ACAD_REACTORS
330
1E6
102
}
330
1E6
100
AcDbVisualStyle
  2
JitterOff
 70
    20
177
     3
291
     1
 70
    58
 90
        2
176
     0
 90
        2
176
     0
 90
        0
176
     0
 90
        0
176
     0
 40
0.6
176
     0
 40
30.0
176
     0
 62
     7
420
 16777215
176
     0
 90
        1
176
     0
 90
        4
176
     0
 62
     7
176
     0
 62
   257
176
     0
 90
        1
176
     0
 90
        1
176
     0
 40
1.0
176
     0
 90
       10
176
     2
 62
     7
176
     0
 40
1.0
176
     0
 90
        1
176
     0
 90
        6
176
     0
 90
        2
176
     0
 62
     7
176
     0
 90
        5
176
     0
 90
        0
176
     0
 90
        0
176
     0
290
     0
176
     0
 90
        1
176
     0
 40
0.0
176
     0
 90
        0
176
     0
290
     0
176
     0
290
     1
176
     0
290
     1
176
     0
290
     0
176
     0
290
     0
176
     0
290
     0
176
     0
290
     0
176
     0
290
     0
176
     0
290
     0
176
     0
 90
       50
176
     0
 40
0.0
176
     0
 40
1.0
176
     0
 90
        0
176
     0
 62
    18
420
        0
176
     0
 90
       50
176
     0
 90
        3
176
     0
 62
     5
420
      255
176
     0
290
     0
176
     0
 90
       50
176
     0
 90
       50
176
     0
 90
       50
176
     0
290
     0
176
     0
 90
       50
176
     0
 62
   256
176
     0
 40
1.0
176
     0
 90
        2
176
     0
  1
strokes_ogs.tif
176
     0
290
     0
176
     0
 40
1.0
176
     0
 40
1.0
176
     0
  0
VISUALSTYLE
  5
1F4
102
{ACAD_REACTORS
330
1E6
102
}
330
1E6
100
AcDbVisualStyle
  2
Linepattern
 70
    14
177
     3
291
     1
 70
    58
 90
        2
176
     1
 90
        2
176
     1
 90
        0
176
     1
 90
        0
176
     1
 40
0.6
176
     1
 40
30.0
176
     1
 62
     7
420
 16777215
176
     1
 90
        1
176
     1
 90
        4
176
     1
 62
     7
176
     1
 62
   257
176
     1
 90
        7
176
     1
 90
        7
176
     1
 40
1.0
176
     1
 90
        8
176
     1
 62
     7
176
     1
 40
1.0
176
     1
 90
        1
176
     1
 90
        6
176
     1
 90
        2
176
     1
 62
     7
176
     1
 90
        5
176
     1
 90
        0
176
     1
 90
        0
176
     1
290
     0
176
     1
 90
        1
176
     1
 40
0.0
176
     1
 90
        0
176
     1
290
     0
176
     1
290
     1
176
     1
290
     1
176
     1
290
     0
176
     1
290
     0
176
     1
290
     0
176
     1
290
     0
176
     1
290
     0
176
     1
290
     0
176
     1
 90
       50
176
     1
 40
0.0
176
     1
 40
1.0
176
     1
 90
        0
176
     1
 62
    18
420
        0
176
     1
 90
       50
176
     1
 90
        3
176
     1
 62
     5
420
      255
176
     1
290
     0
176
     1
 90
       50
176
     1
 90
       50
176
     1
 90
       50
176
     1
290
     0
176
     1
 90
       50
176
     1
 62
   256
176
     0
 40
1.0
176
     0
 90
        2
176
     1
  1
strokes_ogs.tif
176
     1
290
     0
176
     1
 40
1.0
176
     1
 40
1.0
176
     1
  0
VISUALSTYLE
  5
1F8
102
{ACAD_REACTORS
330
1E6
102
}
330
1E6
100
AcDbVisualStyle
  2
OverhangOff
 70
    21
177
     3
291
     1
 70
    58
 90
        2
176
     0
 90
        2
176
     0
 90
        0
176
     0
 90
        0
176
     0
 40
0.6
176
     0
 40
30.0
176
     0
 62
     7
420
 16777215
176
     0
 90
        1
176
     0
 90
        4
176
     0
 62
     7
176
     0
 62
   257
176
     0
 90
        1
176
     0
 90
        1
176
     0
 40
1.0
176
     0
 90
        9
176
     2
 62
     7
176
     0
 40
1.0
176
     0
 90
        1
176
     0
 90
        6
176
     0
 90
        2
176
     0
 62
     7
176
     0
 90
        5
176
     0
 90
        0
176
     0
 90
        0
176
     0
290
     0
176
     0
 90
        1
176
     0
 40
0.0
176
     0
 90
        0
176
     0
290
     0
176
     0
290
     1
176
     0
290
     1
176
     0
290
     0
176
     0
290
     0
176
     0
290
     0
176
     0
290
     0
176
     0
290
     0
176
     0
290
     0
176
     0
 90
       50
176
     0
 40
0.0
176
     0
 40
1.0
176
     0
 90
        0
176
     0
 62
    18
420
        0
176
     0
 90
       50
176
     0
 90
        3
176
     0
 62
     5
420
      255
176
     0
290
     0
176
     0
 90
       50
176
     0
 90
       50
176
     0
 90
       50
176
     0
290
     0
176
     0
 90
       50
176
     0
 62
   256
176
     0
 40
1.0
176
     0
 90
        2
176
     0
  1
strokes_ogs.tif
176
     0
290
     0
176
     0
 40
1.0
176
     0
 40
1.0
176
     0
  0
VISUALSTYLE
  5
1EF
102
{ACAD_REACTORS
330
1E6
102
}
330
1E6
100
AcDbVisualStyle
  2
Realistic
 70
     8
177
     3
291
     0
 70
    58
 90
        2
176
     1
 90
        3
176
     1
 90
        0
176
     1
 90
        2
176
     1
 40
0.6
176
     1
 40
30.0
176
     1
 62
     7
420
 16777215
176
     1
 90
        0
176
     1
 90
        0
176
     1
 62
     7
176
     1
 62
   257
176
     1
 90
        1
176
     1
 90
        1
176
     1
 40
1.0
176
     1
 90
        8
176
     1
 62
   257
176
     1
 40
1.0
176
     1
 90
        1
176
     1
 90
        6
176
     1
 90
        2
176
     1
 62
     7
176
     1
 90
        3
176
     1
 90
        0
176
     1
 90
        0
176
     1
290
     0
176
     1
 90
       13
176
     1
 40
0.0
176
     1
 90
        0
176
     1
290
     0
176
     1
290
     1
176
     1
290
     1
176
     1
290
     0
176
     1
290
     0
176
     1
290
     0
176
     1
290
     0
176
     1
290
     0
176
     1
290
     0
176
     1
 90
       50
176
     1
 40
0.0
176
     1
 40
1.0
176
     1
 90
        0
176
     1
 62
    18
420
        0
176
     1
 90
       50
176
     1
 90
        3
176
     1
 62
     5
420
      255
176
     1
290
     0
176
     1
 90
       50
176
     1
 90
       50
176
     1
 90
       50
176
     1
290
     0
176
     1
 90
       50
176
     1
 62
   256
176
     0
 40
1.0
176
     0
 90
        2
176
     1
  1
strokes_ogs.tif
176
     1
290
     0
176
     1
 40
1.0
176
     1
 40
1.0
176
     1
  0
VISUALSTYLE
  5
1FE
102
{ACAD_REACTORS
330
1E6
102
}
330
1E6
100
AcDbVisualStyle
  2
Shaded
 70
    27
177
     3
291
     0
 70
    58
 90
        2
176
     1
 90
        2
176
     1
 90
        1
176
     1
 90
        2
176
     1
 40
0.6
176
     1
 40
30.0
176
     1
 62
     7
420
 16777215
176
     1
 90
        0
176
     1
 90
        4
176
     1
 62
     7
176
     1
 62
   257
176
     1
 90
        1
176
     1
 90
        1
176
     1
 40
1.0
176
     1
 90
        8
176
     1
 62
   257
176
     1
 40
1.0
176
     1
 90
        1
176
     1
 90
        6
176
     1
 90
        2
176
     1
 62
     8
420
  7895160
176
     1
 90
        3
176
     1
 90
        0
176
     1
 90
        0
176
     1
290
     0
176
     1
 90
        5
176
     1
 40
0.0
176
     1
 90
        0
176
     1
290
     0
176
     1
290
     1
176
     1
290
     1
176
     1
290
     0
176
     1
290
     0
176
     1
290
     0
176
     1
290
     0
176
     1
290
     0
176
     1
290
     0
176
     1
 90
       50
176
     1
 40
0.0
176
     1
 40
1.0
176
     1
 90
        0
176
     1
 62
    18
420
        0
176
     1
 90
       50
176
     1
 90
        3
176
     1
 62
     5
420
      255
176
     1
290
     0
176
     1
 90
       50
176
     1
 90
       50
176
     1
 90
       50
176
     1
290
     0
176
     1
 90
       50
176
     1
 62
   256
176
     0
 40
1.0
176
     0
 90
        2
176
     1
  1
strokes_ogs.tif
176
     1
290
     0
176
     1
 40
1.0
176
     1
 40
1.0
176
     1
  0
VISUALSTYLE
  5
1FD
102
{ACAD_REACTORS
330
1E6
102
}
330
1E6
100
AcDbVisualStyle
  2
Shaded with edges
 70
    26
177
     3
291
     0
 70
    58
 90
        2
176
     1
 90
        2
176
     1
 90
        1
176
     1
 90
        2
176
     1
 40
0.6
176
     1
 40
30.0
176
     1
 62
     7
420
 16777215
176
     1
 90
        1
176
     1
 90
       10
176
     1
 62
     7
176
     1
 62
   257
176
     1
 90
        2
176
     1
 90
        1
176
     1
 40
1.0
176
     1
 90
        8
176
     1
 62
   257
176
     1
 40
1.0
176
     1
 90
        1
176
     1
 90
        6
176
     1
 90
        2
176
     1
 62
     7
176
     1
 90
        3
176
     1
 90
        0
176
     1
 90
        0
176
     1
290
     0
176
     1
 90
        5
176
     1
 40
0.0
176
     1
 90
        0
176
     1
290
     0
176
     1
290
     1
176
     1
290
     1
176
     1
290
     0
176
     1
290
     0
176
     1
290
     0
176
     1
290
     0
176
     1
290
     0
176
     1
290
     0
176
     1
 90
       50
176
     1
 40
0.0
176
     1
 40
1.0
176
     1
 90
        0
176
     1
 62
    18
420
        0
176
     1
 90
       50
176
     1
 90
        3
176
     1
 62
     5
420
      255
176
     1
290
     0
176
     1
 90
       50
176
     1
 90
       50
176
     1
 90
       50
176
     1
290
     0
176
     1
 90
       50
176
     1
 62
   256
176
     0
 40
1.0
176
     0
 90
        2
176
     1
  1
strokes_ogs.tif
176
     1
290
     0
176
     1
 40
1.0
176
     1
 40
1.0
176
     1
  0
VISUALSTYLE
  5
1FA
102
{ACAD_REACTORS
330
1E6
102
}
330
1E6
100
AcDbVisualStyle
  2
Shades of Gray
 70
    23
177
     3
291
     0
 70
    58
 90
        2
176
     1
 90
        2
176
     1
 90
        3
176
     1
 90
        0
176
     1
 40
0.6
176
     1
 40
30.0
176
     1
 62
     7
420
 16777215
176
     1
 90
        2
176
     1
 90
        2
176
     1
 62
     7
176
     1
 62
     7
176
     1
 90
        1
176
     1
 90
        1
176
     1
 40
40.0
176
     1
 90
        8
176
     1
 62
     7
176
     1
 40
1.0
176
     1
 90
        1
176
     1
 90
        6
176
     1
 90
        2
176
     1
 62
     7
176
     1
 90
        3
176
     1
 90
        0
176
     1
 90
        0
176
     1
290
     0
176
     1
 90
        1
176
     1
 40
0.0
176
     1
 90
        0
176
     1
290
     0
176
     1
290
     1
176
     1
290
     1
176
     1
290
     0
176
     1
290
     0
176
     1
290
     0
176
     1
290
     0
176
     1
290
     0
176
     1
290
     0
176
     1
 90
       50
176
     1
 40
0.0
176
     1
 40
1.0
176
     1
 90
        0
176
     1
 62
    18
420
        0
176
     1
 90
       50
176
     1
 90
        3
176
     1
 62
     5
420
      255
176
     1
290
     0
176
     1
 90
       50
176
     1
 90
       50
176
     1
 90
       50
176
     1
290
     0
176
     1
 90
       50
176
     1
 62
   256
176
     0
 40
1.0
176
     0
 90
        2
176
     1
  1
strokes_ogs.tif
176
     1
290
     0
176
     1
 40
1.0
176
     1
 40
1.0
176
     1
  0
VISUALSTYLE
  5
1FB
102
{ACAD_REACTORS
330
1E6
102
}
330
1E6
100
AcDbVisualStyle
  2
Sketchy
 70
    24
177
     3
291
     0
 70
    58
 90
        1
176
     1
 90
        2
176
     1
 90
        2
176
     1
 90
        0
176
     1
 40
0.6
176
     1
 40
30.0
176
     1
 62
     7
420
 16777215
176
     1
 90
        2
176
     1
 90
        2
176
     1
 62
     7
176
     1
 62
     7
176
     1
 90
        1
176
     1
 90
        1
176
     1
 40
40.0
176
     1
 90
       11
176
     1
 62
     7
176
     1
 40
1.0
176
     1
 90
        1
176
     1
 90
        6
176
     1
 90
        2
176
     1
 62
     7
176
     1
 90
        6
176
     1
 90
        0
176
     1
 90
        0
176
     1
290
     0
176
     1
 90
        1
176
     1
 40
0.0
176
     1
 90
        0
176
     1
290
     0
176
     1
290
     1
176
     1
290
     1
176
     1
290
     0
176
     1
290
     0
176
     1
290
     0
176
     1
290
     0
176
     1
290
     0
176
     1
290
     0
176
     1
 90
       50
176
     1
 40
0.0
176
     1
 40
1.0
176
     1
 90
        0
176
     1
 62
    18
420
        0
176
     1
 90
       50
176
     1
 90
        3
176
     1
 62
     5
420
      255
176
     1
290
     0
176
     1
 90
       50
176
     1
 90
       50
176
     1
 90
       50
176
     1
290
     0
176
     1
 90
       50
176
     1
 62
   256
176
     0
 40
1.0
176
     0
 90
        2
176
     1
  1
strokes_ogs.tif
176
     1
290
     0
176
     1
 40
1.0
176
     1
 40
1.0
176
     1
  0
VISUALSTYLE
  5
1F3
102
{ACAD_REACTORS
330
1E6
102
}
330
1E6
100
AcDbVisualStyle
  2
Thicken
 70
    13
177
     3
291
     1
 70
    58
 90
        2
176
     1
 90
        2
176
     1
 90
        0
176
     1
 90
        0
176
     1
 40
0.6
176
     1
 40
30.0
176
     1
 62
     7
420
 16777215
176
     1
 90
        1
176
     1
 90
        4
176
     1
 62
     7
176
     1
 62
   257
176
     1
 90
        1
176
     1
 90
        1
176
     1
 40
1.0
176
     1
 90
       12
176
     1
 62
     7
176
     1
 40
1.0
176
     1
 90
        1
176
     1
 90
        6
176
     1
 90
        2
176
     1
 62
     7
176
     1
 90
        5
176
     1
 90
        0
176
     1
 90
        0
176
     1
290
     0
176
     1
 90
        1
176
     1
 40
0.0
176
     1
 90
        0
176
     1
290
     0
176
     1
290
     1
176
     1
290
     1
176
     1
290
     0
176
     1
290
     0
176
     1
290
     0
176
     1
290
     0
176
     1
290
     0
176
     1
290
     0
176
     1
 90
       50
176
     1
 40
0.0
176
     1
 40
1.0
176
     1
 90
        0
176
     1
 62
    18
420
        0
176
     1
 90
       50
176
     1
 90
        3
176
     1
 62
     5
420
      255
176
     1
290
     0
176
     1
 90
       50
176
     1
 90
       50
176
     1
 90
       50
176
     1
290
     0
176
     1
 90
       50
176
     1
 62
   256
176
     0
 40
1.0
176
     0
 90
        2
176
     1
  1
strokes_ogs.tif
176
     1
290
     0
176
     1
 40
1.0
176
     1
 40
1.0
176
     1
  0
VISUALSTYLE
  5
1EC
102
{ACAD_REACTORS
330
1E6
102
}
330
1E6
100
AcDbVisualStyle
  2
Wireframe
 70
     5
177
     3
291
     0
 70
    58
 90
        0
176
     1
 90
        2
176
     1
 90
        0
176
     1
 90
        0
176
     1
 40
0.6
176
     1
 40
30.0
176
     1
 62
     7
420
 16777215
176
     1
 90
        1
176
     1
 90
        4
176
     1
 62
     7
176
     1
 62
   257
176
     1
 90
        1
176
     1
 90
        1
176
     1
 40
1.0
176
     1
 90
        0
176
     1
 62
   257
176
     1
 40
1.0
176
     1
 90
        1
176
     1
 90
        6
176
     1
 90
        2
176
     1
 62
     7
176
     1
 90
        3
176
     1
 90
        0
176
     1
 90
        0
176
     1
290
     0
176
     1
 90
        1
176
     1
 40
0.0
176
     1
 90
        0
176
     1
290
     0
176
     1
290
     1
176
     1
290
     1
176
     1
290
     0
176
     1
290
     0
176
     1
290
     0
176
     1
290
     0
176
     1
290
     0
176
     1
290
     0
176
     1
 90
       50
176
     1
 40
0.0
176
     1
 40
1.0
176
     1
 90
        0
176
     1
 62
    18
420
        0
176
     1
 90
       50
176
     1
 90
        3
176
     1
 62
     5
420
      255
176
     1
290
     0
176
     1
 90
       50
176
     1
 90
       50
176
     1
 90
       50
176
     1
290
     0
176
     1
 90
       50
176
     1
 62
   256
176
     0
 40
1.0
176
     0
 90
        2
176
     1
  1
strokes_ogs.tif
176
     1
290
     0
176
     1
 40
1.0
176
     1
 40
1.0
176
     1
  0
VISUALSTYLE
  5
1FC
102
{ACAD_REACTORS
330
1E6
102
}
330
1E6
100
AcDbVisualStyle
  2
X-Ray
 70
    25
177
     3
291
     0
 70
    58
 90
        2
176
     1
 90
        2
176
     1
 90
        1
176
     1
 90
        1
176
     1
 40
0.5
176
     1
 40
30.0
176
     1
 62
     7
420
 16777215
176
     1
 90
        1
176
     1
 90
        0
176
     1
 62
     7
176
     1
 62
   257
176
     1
 90
        1
176
     1
 90
        1
176
     1
 40
1.0
176
     1
 90
        8
176
     1
 62
     7
176
     1
 40
1.0
176
     1
 90
        1
176
     1
 90
        6
176
     1
 90
        2
176
     1
 62
     7
176
     1
 90
        3
176
     1
 90
        0
176
     1
 90
        0
176
     1
290
     0
176
     1
 90
       13
176
     1
 40
0.0
176
     1
 90
        0
176
     1
290
     0
176
     1
290
     1
176
     1
290
     1
176
     1
290
     0
176
     1
290
     0
176
     1
290
     0
176
     1
290
     0
176
     1
290
     0
176
     1
290
     0
176
     1
 90
       50
176
     1
 40
0.0
176
     1
 40
1.0
176
     1
 90
        0
176
     1
 62
    18
420
        0
176
     1
 90
       50
176
     1
 90
        3
176
     1
 62
     5
420
      255
176
     1
290
     0
176
     1
 90
       50
176
     1
 90
       50
176
     1
 90
       50
176
     1
290
     0
176
     1
 90
       50
176
     1
 62
   256
176
     0
 40
1.0
176
     0
 90
        2
176
     1
  1
strokes_ogs.tif
176
     1
290
     0
176
     1
 40
1.0
176
     1
 40
1.0
176
     1
  0
DICTIONARYVAR
  5
39E
102
{ACAD_REACTORS
330
39D
102
}
330
39D
100
DictionaryVariables
280
     0
  1
1:1
  0
DICTIONARYVAR
  5
3A3
102
{ACAD_REACTORS
330
39D
102
}
330
39D
100
DictionaryVariables
280
     0
  1
Standard
  0
DICTIONARYVAR
  5
3A2
102
{ACAD_REACTORS
330
39D
102
}
330
39D
100
DictionaryVariables
280
     0
  1
Standard
  0
XRECORD
  5
22D
102
{ACAD_REACTORS
330
22B
102
}
330
22B
100
AcDbXrecord
280
     1
1000
#ffffff
  0
XRECORD
  5
22E
102
{ACAD_REACTORS
330
22B
102
}
330
22B
100
AcDbXrecord
280
     1
1000
FullColor
  0
XRECORD
  5
22F
102
{ACAD_REACTORS
330
22B
102
}
330
22B
100
AcDbXrecord
280
     1
290
     1
  0
XRECORD
  5
230
102
{ACAD_REACTORS
330
22B
102
}
330
22B
100
AcDbXrecord
280
     1
290
     1
  0
XRECORD
  5
231
102
{ACAD_REACTORS
330
22B
102
}
330
22B
100
AcDbXrecord
280
     1
290
     1
  0
XRECORD
  5
232
102
{ACAD_REACTORS
330
22B
102
}
330
22B
100
AcDbXrecord
280
     1
290
     1
  0
XRECORD
  5
233
102
{ACAD_REACTORS
330
22B
102
}
330
22B
100
AcDbXrecord
280
     1
1000
auto
  0
XRECORD
  5
234
102
{ACAD_REACTORS
330
22B
102
}
330
22B
100
AcDbXrecord
280
     1
1000
auto
  0
XRECORD
  5
235
102
{ACAD_REACTORS
330
22B
102
}
330
22B
100
AcDbXrecord
280
     1
1000
auto
  0
XRECORD
  5
236
102
{ACAD_REACTORS
330
22B
102
}
330
22B
100
AcDbXrecord
280
     1
1000
auto
  0
XRECORD
  5
237
102
{ACAD_REACTORS
330
22B
102
}
330
22B
100
AcDbXrecord
280
     1
1000
auto
  0
XRECORD
  5
238
102
{ACAD_REACTORS
330
22B
102
}
330
22B
100
AcDbXrecord
280
     1
1000
auto
  0
XRECORD
  5
239
102
{ACAD_REACTORS
330
22B
102
}
330
22B
100
AcDbXrecord
280
     1
1000
auto
  0
XRECORD
  5
23A
102
{ACAD_REACTORS
330
22B
102
}
330
22B
100
AcDbXrecord
280
     1
1000
auto
  0
XRECORD
  5
23B
102
{ACAD_REACTORS
330
22B
102
}
330
22B
100
AcDbXrecord
280
     1
290
     0
  0
XRECORD
  5
23C
102
{ACAD_REACTORS
330
22B
102
}
330
22B
100
AcDbXrecord
280
     1
290
     0
  0
XRECORD
  5
23D
102
{ACAD_REACTORS
330
22B
102
}
330
22B
100
AcDbXrecord
280
     1
290
     0
  0
XRECORD
  5
23E
102
{ACAD_REACTORS
330
22B
102
}
330
22B
100
AcDbXrecord
280
     1
290
     0
  0
XRECORD
  5
23F
102
{ACAD_REACTORS
330
22B
102
}
330
22B
100
AcDbXrecord
280
     1
 90
        0
  0
XRECORD
  5
240
102
{ACAD_REACTORS
330
22B
102
}
330
22B
100
AcDbXrecord
280
     1
 90
        0
  0
XRECORD
  5
241
102
{ACAD_REACTORS
330
22B
102
}
330
22B
100
AcDbXrecord
280
     1
 90
        0
  0
XRECORD
  5
242
102
{ACAD_REACTORS
330
22B
102
}
330
22B
100
AcDbXrecord
280
     1
 90
        0
  0
XRECORD
  5
243
102
{ACAD_REACTORS
330
22B
102
}
330
22B
100
AcDbXrecord
280
     1
1000
auto
  0
XRECORD
  5
244
102
{ACAD_REACTORS
330
22B
102
}
330
22B
100
AcDbXrecord
280
     1
1000
auto
  0
XRECORD
  5
245
102
{ACAD_REACTORS
330
22B
102
}
330
22B
100
AcDbXrecord
280
     1
1000
auto
  0
XRECORD
  5
246
102
{ACAD_REACTORS
330
22B
102
}
330
22B
100
AcDbXrecord
280
     1
1000
auto
  0
XRECORD
  5
247
102
{ACAD_REACTORS
330
22B
102
}
330
22B
100
AcDbXrecord
280
     1
1000
auto
  0
XRECORD
  5
248
102
{ACAD_REACTORS
330
22B
102
}
330
22B
100
AcDbXrecord
280
     1
1000
auto
  0
XRECORD
  5
249
102
{ACAD_REACTORS
330
22B
102
}
330
22B
100
AcDbXrecord
280
     1
1000
auto
  0
XRECORD
  5
24A
102
{ACAD_REACTORS
330
22B
102
}
330
22B
100
AcDbXrecord
280
     1
1000
auto
  0
XRECORD
  5
24B
102
{ACAD_REACTORS
330
22B
102
}
330
22B
100
AcDbXrecord
280
     1
 90
        1
  0
XRECORD
  5
24C
102
{ACAD_REACTORS
330
22B
102
}
330
22B
100
AcDbXrecord
280
     1
 40
10.0
  0
XRECORD
  5
24D
102
{ACAD_REACTORS
330
22B
102
}
330
22B
100
AcDbXrecord
280
     1
 40
10.0
  0
XRECORD
  5
24E
102
{ACAD_REACTORS
330
22B
102
}
330
22B
100
AcDbXrecord
280
     1
 40
10.0
  0
XRECORD
  5
24F
102
{ACAD_REACTORS
330
22B
102
}
330
22B
100
AcDbXrecord
280
     1
 40
10.0
  0
XRECORD
  5
250
102
{ACAD_REACTORS
330
22B
102
}
330
22B
100
AcDbXrecord
280
     1
290
     0
  0
XRECORD
  5
251
102
{ACAD_REACTORS
330
22B
102
}
330
22B
100
AcDbXrecord
280
     1
 90
        1
  0
XRECORD
  5
252
102
{ACAD_REACTORS
330
22B
102
}
330
22B
100
AcDbXrecord
280
     1
 40
0.0
  0
XRECORD
  5
253
102
{ACAD_REACTORS
330
22B
102
}
330
22B
100
AcDbXrecord
280
     1
 40
0.0
  0
XRECORD
  5
254
102
{ACAD_REACTORS
330
22B
102
}
330
22B
100
AcDbXrecord
280
     1
1000
Landscape
  0
XRECORD
  5
255
102
{ACAD_REACTORS
330
22B
102
}
330
22B
100
AcDbXrecord
280
     1
 40
297.0
  0
XRECORD
  5
256
102
{ACAD_REACTORS
330
22B
102
}
330
22B
100
AcDbXrecord
280
     1
 40
210.0
  0
XRECORD
  5
257
102
{ACAD_REACTORS
330
22B
102
}
330
22B
100
AcDbXrecord
280
     1
1000
1:1.2
  0
XRECORD
  5
258
102
{ACAD_REACTORS
330
22B
102
}
330
22B
100
AcDbXrecord
280
     1
290
     1
  0
XRECORD
  5
259
102
{ACAD_REACTORS
330
22B
102
}
330
22B
100
AcDbXrecord
280
     1
1000
3.12.6
  0
XRECORD
  5
25A
102
{ACAD_REACTORS
330
22B
102
}
330
22B
100
AcDbXrecord
280
     1
 90
        4
  0
DICTIONARY
  5
39F
330
226
100
AcDbDictionary
280
     1
281
     1
  3
ACAD_ROUNDTRIP_2008_TABLESTYLE_CELLSTYLEMAP
360
3A0
  0
CELLSTYLEMAP
  5
3A0
102
{ACAD_REACTORS
330
39F
102
}
330
39F
100
AcDbCellStyleMap
 90
        3
300
CELLSTYLE
  1
TABLEFORMAT_BEGIN
 90
        5
170
     1
 91
        0
 92
    32768
 62
   257
 93
        1
300
CONTENTFORMAT
  1
CONTENTFORMAT_BEGIN
 90
        0
 91
        0
 92
        4
 93
        0
300

 40
0.0
140
1.0
 94
        5
 62
     0
340
1CE
144
0.25
309
CONTENTFORMAT_END
171
     1
301
MARGIN
  1
CELLMARGIN_BEGIN
 40
0.06
 40
0.06
 40
0.06
 40
0.06
 40
0.06
 40
0.06
309
CELLMARGIN_END
 94
        6
 95
        1
302
GRIDFORMAT
  1
GRIDFORMAT_BEGIN
 90
        0
 91
        1
 62
     0
 92
       -2
340
1D0
 93
        0
 40
0.045
309
GRIDFORMAT_END
 95
        2
302
GRIDFORMAT
  1
GRIDFORMAT_BEGIN
 90
        0
 91
        1
 62
     0
 92
       -2
340
1D0
 93
        0
 40
0.045
309
GRIDFORMAT_END
 95
        4
302
GRIDFORMAT
  1
GRIDFORMAT_BEGIN
 90
        0
 91
        1
 62
     0
 92
       -2
340
1D0
 93
        0
 40
0.045
309
GRIDFORMAT_END
 95
        8
302
GRIDFORMAT
  1
GRIDFORMAT_BEGIN
 90
        0
 91
        1
 62
     0
 92
       -2
340
1D0
 93
        0
 40
0.045
309
GRIDFORMAT_END
 95
       16
302
GRIDFORMAT
  1
GRIDFORMAT_BEGIN
 90
        0
 91
        1
 62
     0
 92
       -2
340
1D0
 93
        0
 40
0.045
309
GRIDFORMAT_END
 95
       32
302
GRIDFORMAT
  1
GRIDFORMAT_BEGIN
 90
        0
 91
        1
 62
     0
 92
       -2
340
1D0
 93
        0
 40
0.045
309
GRIDFORMAT_END
309
TABLEFORMAT_END
  1
CELLSTYLE_BEGIN
 90
        1
 91
        1
300
_TITLE
309
CELLSTYLE_END
300
CELLSTYLE
  1
TABLEFORMAT_BEGIN
 90
        5
170
     1
 91
        0
 92
        0
 62
   257
 93
        1
300
CONTENTFORMAT
  1
CONTENTFORMAT_BEGIN
 90
        0
 91
        0
 92
        4
 93
        0
300

 40
0.0
140
1.0
 94
        5
 62
     0
340
1CE
144
0.18
309
CONTENTFORMAT_END
171
     1
301
MARGIN
  1
CELLMARGIN_BEGIN
 40
0.06
 40
0.06
 40
0.06
 40
0.06
 40
0.06
 40
0.06
309
CELLMARGIN_END
 94
        6
 95
        1
302
GRIDFORMAT
  1
GRIDFORMAT_BEGIN
 90
        0
 91
        1
 62
     0
 92
       -2
340
1D0
 93
        0
 40
0.045
309
GRIDFORMAT_END
 95
        2
302
GRIDFORMAT
  1
GRIDFORMAT_BEGIN
 90
        0
 91
        1
 62
     0
 92
       -2
340
1D0
 93
        0
 40
0.045
309
GRIDFORMAT_END
 95
        4
302
GRIDFORMAT
  1
GRIDFORMAT_BEGIN
 90
        0
 91
        1
 62
     0
 92
       -2
340
1D0
 93
        0
 40
0.045
309
GRIDFORMAT_END
 95
        8
302
GRIDFORMAT
  1
GRIDFORMAT_BEGIN
 90
        0
 91
        1
 62
     0
 92
       -2
340
1D0
 93
        0
 40
0.045
309
GRIDFORMAT_END
 95
       16
302
GRIDFORMAT
  1
GRIDFORMAT_BEGIN
 90
        0
 91
        1
 62
     0
 92
       -2
340
1D0
 93
        0
 40
0.045
309
GRIDFORMAT_END
 95
       32
302
GRIDFORMAT
  1
GRIDFORMAT_BEGIN
 90
        0
 91
        1
 62
     0
 92
       -2
340
1D0
 93
        0
 40
0.045
309
GRIDFORMAT_END
309
TABLEFORMAT_END
  1
CELLSTYLE_BEGIN
 90
        2
 91
        1
300
_HEADER
309
CELLSTYLE_END
300
CELLSTYLE
  1
TABLEFORMAT_BEGIN
 90
        5
170
     1
 91
        0
 92
        0
 62
   257
 93
        1
300
CONTENTFORMAT
  1
CONTENTFORMAT_BEGIN
 90
        0
 91
        0
 92
        4
 93
        0
300

 40
0.0
140
1.0
 94
        2
 62
     0
340
1CE
144
0.18
309
CONTENTFORMAT_END
171
     1
301
MARGIN
  1
CELLMARGIN_BEGIN
 40
0.06
 40
0.06
 40
0.06
 40
0.06
 40
0.06
 40
0.06
309
CELLMARGIN_END
 94
        6
 95
        1
302
GRIDFORMAT
  1
GRIDFORMAT_BEGIN
 90
        0
 91
        1
 62
     0
 92
       -2
340
1D0
 93
        0
 40
0.045
309
GRIDFORMAT_END
 95
        2
302
GRIDFORMAT
  1
GRIDFORMAT_BEGIN
 90
        0
 91
        1
 62
     0
 92
       -2
340
1D0
 93
        0
 40
0.045
309
GRIDFORMAT_END
 95
        4
302
GRIDFORMAT
  1
GRIDFORMAT_BEGIN
 90
        0
 91
        1
 62
     0
 92
       -2
340
1D0
 93
        0
 40
0.045
309
GRIDFORMAT_END
 95
        8
302
GRIDFORMAT
  1
GRIDFORMAT_BEGIN
 90
        0
 91
        1
 62
     0
 92
       -2
340
1D0
 93
        0
 40
0.045
309
GRIDFORMAT_END
 95
       16
302
GRIDFORMAT
  1
GRIDFORMAT_BEGIN
 90
        0
 91
        1
 62
     0
 92
       -2
340
1D0
 93
        0
 40
0.045
309
GRIDFORMAT_END
 95
       32
302
GRIDFORMAT
  1
GRIDFORMAT_BEGIN
 90
        0
 91
        1
 62
     0
 92
       -2
340
1D0
 93
        0
 40
0.045
309
GRIDFORMAT_END
309
TABLEFORMAT_END
  1
CELLSTYLE_BEGIN
 90
        3
 91
        2
300
_DATA
309
CELLSTYLE_END
  0
ENDSEC
  0
EOF
