  0
SECTION
  2
HEADER
  9
$ACADVER
  1
AC1027
  9
$ACADMAINTVER
 70
     8
  9
$DWGCODEPAGE
  3
ANSI_1252
  9
$REQUIREDVERSIONS
160
                 0
  9
$INSBASE
 10
0.0
 20
0.0
 30
0.0
  9
$EXTMIN
 10
1.000000000000000E+20
 20
1.000000000000000E+20
 30
1.000000000000000E+20
  9
$EXTMAX
 10
-1.000000000000000E+20
 20
-1.000000000000000E+20
 30
-1.000000000000000E+20
  9
$LIMMIN
 10
0.0
 20
0.0
  9
$LIMMAX
 10
12.0
 20
9.0
  9
$ORTHOMODE
 70
     0
  9
$REGENMODE
 70
     1
  9
$FILLMODE
 70
     1
  9
$QTEXTMODE
 70
     0
  9
$MIRRTEXT
 70
     1
  9
$LTSCALE
 40
1.0
  9
$ATTMODE
 70
     1
  9
$TEXTSIZE
 40
0.2
  9
$TRACEWID
 40
0.05
  9
$TEXTSTYLE
  7
Standard
  9
$CLAYER
  8
0
  9
$CELTYPE
  6
ByLayer
  9
$CECOLOR
 62
   256
  9
$CELTSCALE
 40
1.0
  9
$DISPSILH
 70
     0
  9
$DIMSCALE
 40
1.0
  9
$DIMASZ
 40
2.5
  9
$DIMEXO
 40
0.625
  9
$DIMDLI
 40
0.38
  9
$DIMRND
 40
0.0
  9
$DIMDLE
 40
0.0
  9
$DIMEXE
 40
1.25
  9
$DIMTP
 40
0.0
  9
$DIMTM
 40
0.0
  9
$DIMTXT
 40
2.5
  9
$DIMCEN
 40
0.09
  9
$DIMTSZ
 40
0.0
  9
$DIMTOL
 70
     0
  9
$DIMLIM
 70
     0
  9
$DIMTIH
 70
     1
  9
$DIMTOH
 70
     1
  9
$DIMSE1
 70
     0
  9
$DIMSE2
 70
     0
  9
$DIMTAD
 70
     0
  9
$DIMZIN
 70
     8
  9
$DIMBLK
  1

  9
$DIMASO
 70
     1
  9
$DIMSHO
 70
     1
  9
$DIMPOST
  1

  9
$DIMAPOST
  1

  9
$DIMALT
 70
     0
  9
$DIMALTD
 70
     2
  9
$DIMALTF
 40
25.4
  9
$DIMLFAC
 40
1.0
  9
$DIMTOFL
 70
     0
  9
$DIMTVP
 40
0.0
  9
$DIMTIX
 70
     0
  9
$DIMSOXD
 70
     0
  9
$DIMSAH
 70
     0
  9
$DIMBLK1
  1

  9
$DIMBLK2
  1

  9
$DIMSTYLE
  2
Standard
  9
$DIMCLRD
 70
     0
  9
$DIMCLRE
 70
     0
  9
$DIMCLRT
 70
     0
  9
$DIMTFAC
 40
1.0
  9
$DIMGAP
 40
0.625
  9
$DIMJUST
 70
     0
  9
$DIMSD1
 70
     0
  9
$DIMSD2
 70
     0
  9
$DIMTOLJ
 70
     1
  9
$DIMTZIN
 70
     0
  9
$DIMALTZ
 70
     0
  9
$DIMALTTZ
 70
     0
  9
$DIMUPT
 70
     0
  9
$DIMDEC
 70
     1
  9
$DIMTDEC
 70
     4
  9
$DIMALTU
 70
     2
  9
$DIMALTTD
 70
     2
  9
$DIMTXSTY
  7
Standard
  9
$DIMAUNIT
 70
     0
  9
$DIMADEC
 70
     0
  9
$DIMALTRND
 40
0.0
  9
$DIMAZIN
 70
     2
  9
$DIMDSEP
 70
    46
  9
$DIMATFIT
 70
     3
  9
$DIMFRAC
 70
     0
  9
$DIMLDRBLK
  1

  9
$DIMLUNIT
 70
     2
  9
$DIMLWD
 70
    -2
  9
$DIMLWE
 70
    -2
  9
$DIMTMOVE
 70
     0
  9
$DIMFXL
 40
1.0
  9
$DIMFXLON
 70
     0
  9
$DIMJOGANG
 40
0.7853981633974483
  9
$DIMTFILL
 70
     0
  9
$DIMTFILLCLR
 70
     0
  9
$DIMARCSYM
 70
     0
  9
$DIMLTYPE
  6

  9
$DIMLTEX1
  6

  9
$DIMLTEX2
  6

  9
$DIMTXTDIRECTION
 70
     0
  9
$LUNITS
 70
     2
  9
$LUPREC
 70
     4
  9
$SKETCHINC
 40
0.1
  9
$FILLETRAD
 40
0.5
  9
$AUNITS
 70
     0
  9
$AUPREC
 70
     0
  9
$MENU
  1
.
  9
$ELEVATION
 40
0.0
  9
$PELEVATION
 40
0.0
  9
$THICKNESS
 40
0.0
  9
$LIMCHECK
 70
     0
  9
$CHAMFERA
 40
0.0
  9
$CHAMFERB
 40
0.0
  9
$CHAMFERC
 40
0.0
  9
$CHAMFERD
 40
0.0
  9
$SKPOLY
 70
     0
  9
$TDCREATE
 40
2457459.699490741
  9
$TDUCREATE
 40
2457459.657824074
  9
$TDUPDATE
 40
2457459.699490741
  9
$TDUUPDATE
 40
2457459.657824074
  9
$TDINDWG
 40
0.0000000116
  9
$TDUSRTIMER
 40
0.0000000116
  9
$USRTIMER
 70
     1
  9
$ANGBASE
 50
0.0
  9
$ANGDIR
 70
     0
  9
$PDMODE
 70
     0
  9
$PDSIZE
 40
0.0
  9
$PLINEWID
 40
0.0
  9
$SPLFRAME
 70
     0
  9
$SPLINETYPE
 70
     6
  9
$SPLINESEGS
 70
     8
  9
$HANDSEED
  5
286
  9
$SURFTAB1
 70
     6
  9
$SURFTAB2
 70
     6
  9
$SURFTYPE
 70
     6
  9
$SURFU
 70
     6
  9
$SURFV
 70
     6
  9
$UCSBASE
  2

  9
$UCSNAME
  2

  9
$UCSORG
 10
0.0
 20
0.0
 30
0.0
  9
$UCSXDIR
 10
1.0
 20
0.0
 30
0.0
  9
$UCSYDIR
 10
0.0
 20
1.0
 30
0.0
  9
$UCSORTHOREF
  2

  9
$UCSORTHOVIEW
 70
     0
  9
$UCSORGTOP
 10
0.0
 20
0.0
 30
0.0
  9
$UCSORGBOTTOM
 10
0.0
 20
0.0
 30
0.0
  9
$UCSORGLEFT
 10
0.0
 20
0.0
 30
0.0
  9
$UCSORGRIGHT
 10
0.0
 20
0.0
 30
0.0
  9
$UCSORGFRONT
 10
0.0
 20
0.0
 30
0.0
  9
$UCSORGBACK
 10
0.0
 20
0.0
 30
0.0
  9
$PUCSBASE
  2

  9
$PUCSNAME
  2

  9
$PUCSORG
 10
0.0
 20
0.0
 30
0.0
  9
$PUCSXDIR
 10
1.0
 20
0.0
 30
0.0
  9
$PUCSYDIR
 10
0.0
 20
1.0
 30
0.0
  9
$PUCSORTHOREF
  2

  9
$PUCSORTHOVIEW
 70
     0
  9
$PUCSORGTOP
 10
0.0
 20
0.0
 30
0.0
  9
$PUCSORGBOTTOM
 10
0.0
 20
0.0
 30
0.0
  9
$PUCSORGLEFT
 10
0.0
 20
0.0
 30
0.0
  9
$PUCSORGRIGHT
 10
0.0
 20
0.0
 30
0.0
  9
$PUCSORGFRONT
 10
0.0
 20
0.0
 30
0.0
  9
$PUCSORGBACK
 10
0.0
 20
0.0
 30
0.0
  9
$USERI1
 70
     0
  9
$USERI2
 70
     0
  9
$USERI3
 70
     0
  9
$USERI4
 70
     0
  9
$USERI5
 70
     0
  9
$USERR1
 40
0.0
  9
$USERR2
 40
0.0
  9
$USERR3
 40
0.0
  9
$USERR4
 40
0.0
  9
$USERR5
 40
0.0
  9
$WORLDVIEW
 70
     1
  9
$SHADEDGE
 70
     3
  9
$SHADEDIF
 70
    70
  9
$TILEMODE
 70
     1
  9
$MAXACTVP
 70
    64
  9
$PINSBASE
 10
0.0
 20
0.0
 30
0.0
  9
$PLIMCHECK
 70
     0
  9
$PEXTMIN
 10
1.000000000000000E+20
 20
1.000000000000000E+20
 30
1.000000000000000E+20
  9
$PEXTMAX
 10
-1.000000000000000E+20
 20
-1.000000000000000E+20
 30
-1.000000000000000E+20
  9
$PLIMMIN
 10
0.0
 20
0.0
  9
$PLIMMAX
 10
12.0
 20
9.0
  9
$UNITMODE
 70
     0
  9
$VISRETAIN
 70
     1
  9
$PLINEGEN
 70
     0
  9
$PSLTSCALE
 70
     1
  9
$TREEDEPTH
 70
  3020
  9
$CMLSTYLE
  2
Standard
  9
$CMLJUST
 70
     0
  9
$CMLSCALE
 40
1.0
  9
$PROXYGRAPHICS
 70
     1
  9
$MEASUREMENT
 70
     1
  9
$CELWEIGHT
370
    -1
  9
$ENDCAPS
280
     0
  9
$JOINSTYLE
280
     0
  9
$LWDISPLAY
290
     0
  9
$INSUNITS
 70
     4
  9
$HYPERLINKBASE
  1

  9
$STYLESHEET
  1

  9
$XEDIT
290
     1
  9
$CEPSNTYPE
380
     0
  9
$PSTYLEMODE
290
     1
  9
$FINGERPRINTGUID
  2
{CD8D2B93-AFD9-108D-AEA1-092650022E14}
  9
$VERSIONGUID
  2
{FAEB1C32-E019-11D5-929B-00C0DF256EC4}
  9
$EXTNAMES
290
     1
  9
$PSVPSCALE
 40
0.0
  9
$OLESTARTUP
290
     0
  9
$SORTENTS
280
   127
  9
$INDEXCTL
280
     0
  9
$HIDETEXT
280
     1
  9
$XCLIPFRAME
280
     2
  9
$HALOGAP
280
     0
  9
$OBSCOLOR
 70
   257
  9
$OBSLTYPE
280
     0
  9
$INTERSECTIONDISPLAY
280
     0
  9
$INTERSECTIONCOLOR
 70
   257
  9
$DIMASSOC
280
     2
  9
$PROJECTNAME
  1

  9
$CAMERADISPLAY
290
     0
  9
$LENSLENGTH
 40
50.0
  9
$CAMERAHEIGHT
 40
0.0
  9
$STEPSPERSEC
 40
2.0
  9
$STEPSIZE
 40
6.0
  9
$3DDWFPREC
 40
2.0
  9
$PSOLWIDTH
 40
0.25
  9
$PSOLHEIGHT
 40
4.0
  9
$LOFTANG1
 40
1.570796326794897
  9
$LOFTANG2
 40
1.570796326794897
  9
$LOFTMAG1
 40
0.0
  9
$LOFTMAG2
 40
0.0
  9
$LOFTPARAM
 70
     7
  9
$LOFTNORMALS
280
     1
  9
$LATITUDE
 40
37.795
  9
$LONGITUDE
 40
-122.394
  9
$NORTHDIRECTION
 40
0.0
  9
$TIMEZONE
 70
 -8000
  9
$LIGHTGLYPHDISPLAY
280
     1
  9
$TILEMODELIGHTSYNCH
280
     1
  9
$CMATERIAL
347
155
  9
$SOLIDHIST
280
     0
  9
$SHOWHIST
280
     1
  9
$DWFFRAME
280
     2
  9
$DGNFRAME
280
     2
  9
$REALWORLDSCALE
290
     1
  9
$INTERFERECOLOR
 62
   256
  9
$CSHADOW
280
     0
  9
$SHADOWPLANELOCATION
 40
0.0
  0
ENDSEC
  0
SECTION
  2
CLASSES
  0
CLASS
  1
ACDBDICTIONARYWDFLT
  2
AcDbDictionaryWithDefault
  3
ObjectDBX Classes
 90
        0
 91
        4
280
     0
281
     0
  0
CLASS
  1
VISUALSTYLE
  2
AcDbVisualStyle
  3
ObjectDBX Classes
 90
     4095
 91
        4
280
     0
281
     0
  0
CLASS
  1
MATERIAL
  2
AcDbMaterial
  3
ObjectDBX Classes
 90
     1153
 91
        4
280
     0
281
     0
  0
CLASS
  1
SCALE
  2
AcDbScale
  3
ObjectDBX Classes
 90
     1153
 91
        4
280
     0
281
     0
  0
CLASS
  1
TABLESTYLE
  2
AcDbTableStyle
  3
ObjectDBX Classes
 90
     4095
 91
        4
280
     0
281
     0
  0
CLASS
  1
MLEADERSTYLE
  2
AcDbMLeaderStyle
  3
ACDB_MLEADERSTYLE_CLASS
 90
     4095
 91
        4
280
     0
281
     0
  0
CLASS
  1
SUN
  2
AcDbSun
  3
SCENEOE
 90
     1153
 91
        4
280
     0
281
     0
  0
CLASS
  1
DICTIONARYVAR
  2
AcDbDictionaryVar
  3
ObjectDBX Classes
 90
        0
 91
        4
280
     0
281
     0
  0
CLASS
  1
CELLSTYLEMAP
  2
AcDbCellStyleMap
  3
ObjectDBX Classes
 90
     1152
 91
        4
280
     0
281
     0
  0
ENDSEC
  0
SECTION
  2
TABLES
  0
TABLE
  2
VPORT
  5
11A
330
0
100
AcDbSymbolTable
 70
     1
  0
VPORT
  5
13A
330
11A
100
AcDbSymbolTableRecord
100
AcDbViewportTableRecord
  2
*Active
 70
     0
 10
0.0
 20
0.0
 11
1.0
 21
1.0
 12
10.42990654205607
 22
4.5
 13
0.0
 23
0.0
 14
0.5
 24
0.5
 15
0.5
 25
0.5
 16
0.0
 26
0.0
 36
1.0
 17
0.0
 27
0.0
 37
0.0
 40
9.0
 41
1.972972972850329
 42
50.0
 43
0.0
 44
0.0
 50
0.0
 51
0.0
 71
     0
 72
   100
 73
     1
 74
     3
 75
     0
 76
     0
 77
     0
 78
     0
281
     0
 65
     1
110
0.0
120
0.0
130
0.0
111
1.0
121
0.0
131
0.0
112
0.0
122
1.0
132
0.0
 79
     0
146
0.0
 60
     3
 61
     5
292
     1
282
     1
141
0.0
142
0.0
 63
   250
361
17E
  0
ENDTAB
  0
TABLE
  2
LTYPE
  5
117
330
0
100
AcDbSymbolTable
 70
    48
  0
LTYPE
  5
125
330
117
100
AcDbSymbolTableRecord
100
AcDbLinetypeTableRecord
  2
ByBlock
 70
     0
  3

 72
    65
 73
     0
 40
0.0
  0
LTYPE
  5
126
330
117
100
AcDbSymbolTableRecord
100
AcDbLinetypeTableRecord
  2
ByLayer
 70
     0
  3

 72
    65
 73
     0
 40
0.0
  0
LTYPE
  5
127
330
117
100
AcDbSymbolTableRecord
100
AcDbLinetypeTableRecord
  2
Continuous
 70
     0
  3
Solid line
 72
    65
 73
     0
 40
0.0
  0
LTYPE
  5
1B6
330
117
100
AcDbSymbolTableRecord
100
AcDbLinetypeTableRecord
  2
ACAD_ISO02W100
 70
     0
  3
ISO dash __ __ __ __ __ __ __ __ __ __ __ __ __
 72
    65
 73
     2
 40
15.0
 49
12.0
 74
     0
 49
-3.0
 74
     0
  0
LTYPE
  5
1B7
330
117
100
AcDbSymbolTableRecord
100
AcDbLinetypeTableRecord
  2
ACAD_ISO03W100
 70
     0
  3
ISO dash space __    __    __    __    __    __
 72
    65
 73
     2
 40
30.0
 49
12.0
 74
     0
 49
-18.0
 74
     0
  0
LTYPE
  5
1B8
330
117
100
AcDbSymbolTableRecord
100
AcDbLinetypeTableRecord
  2
ACAD_ISO04W100
 70
     0
  3
ISO long-dash dot ____ . ____ . ____ . ____ . _
 72
    65
 73
     4
 40
30.0
 49
24.0
 74
     0
 49
-3.0
 74
     0
 49
0.0
 74
     0
 49
-3.0
 74
     0
  0
LTYPE
  5
1B9
330
117
100
AcDbSymbolTableRecord
100
AcDbLinetypeTableRecord
  2
ACAD_ISO05W100
 70
     0
  3
ISO long-dash double-dot ____ .. ____ .. ____ . 
 72
    65
 73
     6
 40
33.0
 49
24.0
 74
     0
 49
-3.0
 74
     0
 49
0.0
 74
     0
 49
-3.0
 74
     0
 49
0.0
 74
     0
 49
-3.0
 74
     0
  0
LTYPE
  5
1BA
330
117
100
AcDbSymbolTableRecord
100
AcDbLinetypeTableRecord
  2
ACAD_ISO06W100
 70
     0
  3
ISO long-dash triple-dot ____ ... ____ ... ____
 72
    65
 73
     8
 40
36.0
 49
24.0
 74
     0
 49
-3.0
 74
     0
 49
0.0
 74
     0
 49
-3.0
 74
     0
 49
0.0
 74
     0
 49
-3.0
 74
     0
 49
0.0
 74
     0
 49
-3.0
 74
     0
  0
LTYPE
  5
1BB
330
117
100
AcDbSymbolTableRecord
100
AcDbLinetypeTableRecord
  2
ACAD_ISO07W100
 70
     0
  3
ISO dot . . . . . . . . . . . . . . . . . . . . 
 72
    65
 73
     2
 40
3.0
 49
0.0
 74
     0
 49
-3.0
 74
     0
  0
LTYPE
  5
1BC
330
117
100
AcDbSymbolTableRecord
100
AcDbLinetypeTableRecord
  2
ACAD_ISO08W100
 70
     0
  3
ISO long-dash short-dash ____ __ ____ __ ____ _
 72
    65
 73
     4
 40
36.0
 49
24.0
 74
     0
 49
-3.0
 74
     0
 49
6.0
 74
     0
 49
-3.0
 74
     0
  0
LTYPE
  5
1BD
330
117
100
AcDbSymbolTableRecord
100
AcDbLinetypeTableRecord
  2
ACAD_ISO09W100
 70
     0
  3
ISO long-dash double-short-dash ____ __ __ ____
 72
    65
 73
     6
 40
45.0
 49
24.0
 74
     0
 49
-3.0
 74
     0
 49
6.0
 74
     0
 49
-3.0
 74
     0
 49
6.0
 74
     0
 49
-3.0
 74
     0
  0
LTYPE
  5
1BE
330
117
100
AcDbSymbolTableRecord
100
AcDbLinetypeTableRecord
  2
ACAD_ISO10W100
 70
     0
  3
ISO dash dot __ . __ . __ . __ . __ . __ . __ . 
 72
    65
 73
     4
 40
18.0
 49
12.0
 74
     0
 49
-3.0
 74
     0
 49
0.0
 74
     0
 49
-3.0
 74
     0
  0
LTYPE
  5
1BF
330
117
100
AcDbSymbolTableRecord
100
AcDbLinetypeTableRecord
  2
ACAD_ISO11W100
 70
     0
  3
ISO double-dash dot __ __ . __ __ . __ __ . __ _
 72
    65
 73
     6
 40
33.0
 49
12.0
 74
     0
 49
-3.0
 74
     0
 49
12.0
 74
     0
 49
-3.0
 74
     0
 49
0.0
 74
     0
 49
-3.0
 74
     0
  0
LTYPE
  5
1C0
330
117
100
AcDbSymbolTableRecord
100
AcDbLinetypeTableRecord
  2
ACAD_ISO12W100
 70
     0
  3
ISO dash double-dot __ . . __ . . __ . . __ . . 
 72
    65
 73
     6
 40
21.0
 49
12.0
 74
     0
 49
-3.0
 74
     0
 49
0.0
 74
     0
 49
-3.0
 74
     0
 49
0.0
 74
     0
 49
-3.0
 74
     0
  0
LTYPE
  5
1C1
330
117
100
AcDbSymbolTableRecord
100
AcDbLinetypeTableRecord
  2
ACAD_ISO13W100
 70
     0
  3
ISO double-dash double-dot __ __ . . __ __ . . _
 72
    65
 73
     8
 40
36.0
 49
12.0
 74
     0
 49
-3.0
 74
     0
 49
12.0
 74
     0
 49
-3.0
 74
     0
 49
0.0
 74
     0
 49
-3.0
 74
     0
 49
0.0
 74
     0
 49
-3.0
 74
     0
  0
LTYPE
  5
1C2
330
117
100
AcDbSymbolTableRecord
100
AcDbLinetypeTableRecord
  2
ACAD_ISO14W100
 70
     0
  3
ISO dash triple-dot __ . . . __ . . . __ . . . _
 72
    65
 73
     8
 40
24.0
 49
12.0
 74
     0
 49
-3.0
 74
     0
 49
0.0
 74
     0
 49
-3.0
 74
     0
 49
0.0
 74
     0
 49
-3.0
 74
     0
 49
0.0
 74
     0
 49
-3.0
 74
     0
  0
LTYPE
  5
1C3
330
117
100
AcDbSymbolTableRecord
100
AcDbLinetypeTableRecord
  2
ACAD_ISO15W100
 70
     0
  3
ISO double-dash triple-dot __ __ . . . __ __ . .
 72
    65
 73
    10
 40
39.0
 49
12.0
 74
     0
 49
-3.0
 74
     0
 49
12.0
 74
     0
 49
-3.0
 74
     0
 49
0.0
 74
     0
 49
-3.0
 74
     0
 49
0.0
 74
     0
 49
-3.0
 74
     0
 49
0.0
 74
     0
 49
-3.0
 74
     0
  0
LTYPE
  5
1C6
330
117
100
AcDbSymbolTableRecord
100
AcDbLinetypeTableRecord
  2
BATTING
 70
     0
  3
Batting SSSSSSSSSSSSSSSSSSSSSSSSSSSSSSSSSSSSSSSSSSSSSSS
 72
    65
 73
     4
 40
10.16254
 49
0.00254
 74
     0
 49
-2.54
 74
     2
 75
     0
340
1C4
 46
2.54
 50
0.0
 44
-2.54
 45
0.0
  9
BAT
 49
-5.08
 74
     2
 75
     0
340
1C5
 46
2.54
 50
180.0
 44
2.54
 45
0.0
  9
BAT
 49
-2.54
 74
     0
  0
LTYPE
  5
1C7
330
117
100
AcDbSymbolTableRecord
100
AcDbLinetypeTableRecord
  2
BORDER
 70
     0
  3
Border __ __ . __ __ . __ __ . __ __ . __ __ .
 72
    65
 73
     6
 40
44.45
 49
12.7
 74
     0
 49
-6.35
 74
     0
 49
12.7
 74
     0
 49
-6.35
 74
     0
 49
0.0
 74
     0
 49
-6.35
 74
     0
  0
LTYPE
  5
1C8
330
117
100
AcDbSymbolTableRecord
100
AcDbLinetypeTableRecord
  2
BORDER2
 70
     0
  3
Border (.5x) __.__.__.__.__.__.__.__.__.__.__.
 72
    65
 73
     6
 40
22.225
 49
6.35
 74
     0
 49
-3.175
 74
     0
 49
6.35
 74
     0
 49
-3.175
 74
     0
 49
0.0
 74
     0
 49
-3.175
 74
     0
  0
LTYPE
  5
1C9
330
117
100
AcDbSymbolTableRecord
100
AcDbLinetypeTableRecord
  2
BORDERX2
 70
     0
  3
Border (2x) ____  ____  .  ____  ____  .  ___
 72
    65
 73
     6
 40
88.89999999999999
 49
25.4
 74
     0
 49
-12.7
 74
     0
 49
25.4
 74
     0
 49
-12.7
 74
     0
 49
0.0
 74
     0
 49
-12.7
 74
     0
  0
LTYPE
  5
1CA
330
117
100
AcDbSymbolTableRecord
100
AcDbLinetypeTableRecord
  2
CENTER
 70
     0
  3
Center ____ _ ____ _ ____ _ ____ _ ____ _ ____
 72
    65
 73
     4
 40
50.8
 49
31.75
 74
     0
 49
-6.35
 74
     0
 49
6.35
 74
     0
 49
-6.35
 74
     0
  0
LTYPE
  5
1CB
330
117
100
AcDbSymbolTableRecord
100
AcDbLinetypeTableRecord
  2
CENTER2
 70
     0
  3
Center (.5x) ___ _ ___ _ ___ _ ___ _ ___ _ ___
 72
    65
 73
     4
 40
28.575
 49
19.05
 74
     0
 49
-3.175
 74
     0
 49
3.175
 74
     0
 49
-3.175
 74
     0
  0
LTYPE
  5
1CC
330
117
100
AcDbSymbolTableRecord
100
AcDbLinetypeTableRecord
  2
CENTERX2
 70
     0
  3
Center (2x) ________  __  ________  __  _____
 72
    65
 73
     4
 40
101.6
 49
63.5
 74
     0
 49
-12.7
 74
     0
 49
12.7
 74
     0
 49
-12.7
 74
     0
  0
LTYPE
  5
1CD
330
117
100
AcDbSymbolTableRecord
100
AcDbLinetypeTableRecord
  2
DASHDOT
 70
     0
  3
Dash dot __ . __ . __ . __ . __ . __ . __ . __
 72
    65
 73
     4
 40
25.4
 49
12.7
 74
     0
 49
-6.35
 74
     0
 49
0.0
 74
     0
 49
-6.35
 74
     0
  0
LTYPE
  5
1CE
330
117
100
AcDbSymbolTableRecord
100
AcDbLinetypeTableRecord
  2
DASHDOT2
 70
     0
  3
Dash dot (.5x) _._._._._._._._._._._._._._._.
 72
    65
 73
     4
 40
12.7
 49
6.35
 74
     0
 49
-3.175
 74
     0
 49
0.0
 74
     0
 49
-3.175
 74
     0
  0
LTYPE
  5
1CF
330
117
100
AcDbSymbolTableRecord
100
AcDbLinetypeTableRecord
  2
DASHDOTX2
 70
     0
  3
Dash dot (2x) ____  .  ____  .  ____  .  ___
 72
    65
 73
     4
 40
50.8
 49
25.4
 74
     0
 49
-12.7
 74
     0
 49
0.0
 74
     0
 49
-12.7
 74
     0
  0
LTYPE
  5
1D0
330
117
100
AcDbSymbolTableRecord
100
AcDbLinetypeTableRecord
  2
DASHED
 70
     0
  3
Dashed __ __ __ __ __ __ __ __ __ __ __ __ __ _
 72
    65
 73
     2
 40
19.05
 49
12.7
 74
     0
 49
-6.35
 74
     0
  0
LTYPE
  5
1D1
330
117
100
AcDbSymbolTableRecord
100
AcDbLinetypeTableRecord
  2
DASHED2
 70
     0
  3
Dashed (.5x) _ _ _ _ _ _ _ _ _ _ _ _ _ _ _ _ _ 
 72
    65
 73
     2
 40
9.524999999999999
 49
6.35
 74
     0
 49
-3.175
 74
     0
  0
LTYPE
  5
1D2
330
117
100
AcDbSymbolTableRecord
100
AcDbLinetypeTableRecord
  2
DASHEDX2
 70
     0
  3
Dashed (2x) ____  ____  ____  ____  ____  ___
 72
    65
 73
     2
 40
38.09999999999999
 49
25.4
 74
     0
 49
-12.7
 74
     0
  0
LTYPE
  5
1D3
330
117
100
AcDbSymbolTableRecord
100
AcDbLinetypeTableRecord
  2
DIVIDE
 70
     0
  3
Divide ____ . . ____ . . ____ . . ____ . . ____
 72
    65
 73
     6
 40
31.75
 49
12.7
 74
     0
 49
-6.35
 74
     0
 49
0.0
 74
     0
 49
-6.35
 74
     0
 49
0.0
 74
     0
 49
-6.35
 74
     0
  0
LTYPE
  5
1D4
330
117
100
AcDbSymbolTableRecord
100
AcDbLinetypeTableRecord
  2
DIVIDE2
 70
     0
  3
Divide (.5x) __..__..__..__..__..__..__..__.._
 72
    65
 73
     6
 40
15.875
 49
6.35
 74
     0
 49
-3.175
 74
     0
 49
0.0
 74
     0
 49
-3.175
 74
     0
 49
0.0
 74
     0
 49
-3.175
 74
     0
  0
LTYPE
  5
1D5
330
117
100
AcDbSymbolTableRecord
100
AcDbLinetypeTableRecord
  2
DIVIDEX2
 70
     0
  3
Divide (2x) ________  .  .  ________  .  .  _
 72
    65
 73
     6
 40
63.5
 49
25.4
 74
     0
 49
-12.7
 74
     0
 49
0.0
 74
     0
 49
-12.7
 74
     0
 49
0.0
 74
     0
 49
-12.7
 74
     0
  0
LTYPE
  5
1D6
330
117
100
AcDbSymbolTableRecord
100
AcDbLinetypeTableRecord
  2
DOT
 70
     0
  3
Dot . . . . . . . . . . . . . . . . . . . . . . . .
 72
    65
 73
     2
 40
6.35
 49
0.0
 74
     0
 49
-6.35
 74
     0
  0
LTYPE
  5
1D7
330
117
100
AcDbSymbolTableRecord
100
AcDbLinetypeTableRecord
  2
DOT2
 70
     0
  3
Dot (.5x) ........................................
 72
    65
 73
     2
 40
3.175
 49
0.0
 74
     0
 49
-3.175
 74
     0
  0
LTYPE
  5
1D8
330
117
100
AcDbSymbolTableRecord
100
AcDbLinetypeTableRecord
  2
DOTX2
 70
     0
  3
Dot (2x) .  .  .  .  .  .  .  .  .  .  .  .  .  .
 72
    65
 73
     2
 40
12.7
 49
0.0
 74
     0
 49
-12.7
 74
     0
  0
LTYPE
  5
1DA
330
117
100
AcDbSymbolTableRecord
100
AcDbLinetypeTableRecord
  2
DRAINAGE
 70
     0
  3
Drainage ---->---->---->----
 72
    65
 73
     2
 40
10.16
 49
5.08
 74
     2
 75
     0
340
1D9
 46
2.54
 50
180.0
 44
0.0
 45
0.0
  9
RIGHT_ARROW
 49
5.08
 74
     0
  0
LTYPE
  5
1DC
330
117
100
AcDbSymbolTableRecord
100
AcDbLinetypeTableRecord
  2
DRAINAGE2
 70
     0
  3
Drainage reversed----<----<----<----
 72
    65
 73
     2
 40
10.16
 49
5.08
 74
     2
 75
     0
340
1DB
 46
2.54
 50
0.0
 44
0.0
 45
0.0
  9
RIGHT_ARROW
 49
5.08
 74
     0
  0
LTYPE
  5
1DE
330
117
100
AcDbSymbolTableRecord
100
AcDbLinetypeTableRecord
  2
FENCELINE1
 70
     0
  3
Fenceline circle ----0-----0----0-----0----0-----0--
 72
    65
 73
     4
 40
36.83
 49
6.35
 74
     0
 49
-2.54
 74
     2
 75
     0
340
1DD
 46
2.54
 50
0.0
 44
-2.54
 45
0.0
  9
CIRC1
 49
-2.54
 74
     0
 49
25.4
 74
     0
  0
LTYPE
  5
1E0
330
117
100
AcDbSymbolTableRecord
100
AcDbLinetypeTableRecord
  2
FENCELINE2
 70
     0
  3
Fenceline square ----[]-----[]----[]-----[]----[]---
 72
    65
 73
     4
 40
36.83
 49
6.35
 74
     0
 49
-2.54
 74
     2
 75
     0
340
1DF
 46
2.54
 50
0.0
 44
-2.54
 45
0.0
  9
BOX
 49
-2.54
 74
     0
 49
25.4
 74
     0
  0
LTYPE
  5
1E2
330
117
100
AcDbSymbolTableRecord
100
AcDbLinetypeTableRecord
  2
GAS_LINE
 70
     0
  3
Gas line ----GAS----GAS----GAS----GAS----GAS----GAS--
 72
    65
 73
     3
 40
24.13
 49
12.7
 74
     0
 49
-5.08
 74
     2
 75
     0
340
1E1
 46
2.54
 50
0.0
 44
-2.54
 45
-1.27
  9
GAS
 49
-6.35
 74
     0
  0
LTYPE
  5
1E3
330
117
100
AcDbSymbolTableRecord
100
AcDbLinetypeTableRecord
  2
HIDDEN
 70
     0
  3
Hidden __ __ __ __ __ __ __ __ __ __ __ __ __ __
 72
    65
 73
     2
 40
9.524999999999999
 49
6.35
 74
     0
 49
-3.175
 74
     0
  0
LTYPE
  5
1E4
330
117
100
AcDbSymbolTableRecord
100
AcDbLinetypeTableRecord
  2
HIDDEN2
 70
     0
  3
Hidden (.5x) _ _ _ _ _ _ _ _ _ _ _ _ _ _ _ _ _ 
 72
    65
 73
     2
 40
4.762499999999999
 49
3.175
 74
     0
 49
-1.5875
 74
     0
  0
LTYPE
  5
1E5
330
117
100
AcDbSymbolTableRecord
100
AcDbLinetypeTableRecord
  2
HIDDENX2
 70
     0
  3
Hidden (2x) ____ ____ ____ ____ ____ ____ ____ 
 72
    65
 73
     2
 40
19.05
 49
12.7
 74
     0
 49
-6.35
 74
     0
  0
LTYPE
  5
1E7
330
117
100
AcDbSymbolTableRecord
100
AcDbLinetypeTableRecord
  2
HOT_WATER_SUPPLY
 70
     0
  3
Hot water supply ---- HW ---- HW ---- HW ----
 72
    65
 73
     3
 40
22.86
 49
12.7
 74
     0
 49
-5.08
 74
     2
 75
     0
340
1E6
 46
2.54
 50
0.0
 44
-2.54
 45
-1.27
  9
HW
 49
-5.08
 74
     0
  0
LTYPE
  5
1E8
330
117
100
AcDbSymbolTableRecord
100
AcDbLinetypeTableRecord
  2
PHANTOM
 70
     0
  3
Phantom ______  __  __  ______  __  __  ______ 
 72
    65
 73
     6
 40
63.50000000000001
 49
31.75
 74
     0
 49
-6.35
 74
     0
 49
6.35
 74
     0
 49
-6.35
 74
     0
 49
6.35
 74
     0
 49
-6.35
 74
     0
  0
LTYPE
  5
1E9
330
117
100
AcDbSymbolTableRecord
100
AcDbLinetypeTableRecord
  2
PHANTOM2
 70
     0
  3
Phantom (.5x) ___ _ _ ___ _ _ ___ _ _ ___ _ _
 72
    65
 73
     6
 40
31.75
 49
15.875
 74
     0
 49
-3.175
 74
     0
 49
3.175
 74
     0
 49
-3.175
 74
     0
 49
3.175
 74
     0
 49
-3.175
 74
     0
  0
LTYPE
  5
1EA
330
117
100
AcDbSymbolTableRecord
100
AcDbLinetypeTableRecord
  2
PHANTOMX2
 70
     0
  3
Phantom (2x) ____________    ____    ____   _
 72
    65
 73
     6
 40
127.0
 49
63.5
 74
     0
 49
-12.7
 74
     0
 49
12.7
 74
     0
 49
-12.7
 74
     0
 49
12.7
 74
     0
 49
-12.7
 74
     0
  0
LTYPE
  5
1EC
330
117
100
AcDbSymbolTableRecord
100
AcDbLinetypeTableRecord
  2
TRACKS
 70
     0
  3
Tracks -|-|-|-|-|-|-|-|-|-|-|-|-|-|-|-|-|-|-|-|-|-|-|-|-
 72
    65
 73
     2
 40
7.62
 49
3.81
 74
     2
 75
     0
340
1EB
 46
6.35
 50
0.0
 44
0.0
 45
0.0
  9
TRACK1
 49
3.81
 74
     0
  0
LTYPE
  5
1EF
330
117
100
AcDbSymbolTableRecord
100
AcDbLinetypeTableRecord
  2
ZIGZAG
 70
     0
  3
Zig zag /\/\/\/\/\/\/\/\/\/\/\/\/\/\/\/\/\/\/\/\/\/\/\/
 72
    65
 73
     4
 40
20.32254
 49
0.00254
 74
     0
 49
-5.08
 74
     2
 75
     0
340
1ED
 46
5.08
 50
0.0
 44
-5.08
 45
0.0
  9
ZIG
 49
-10.16
 74
     2
 75
     0
340
1EE
 46
5.08
 50
180.0
 44
5.08
 45
0.0
  9
ZIG
 49
-5.08
 74
     0
  0
ENDTAB
  0
TABLE
  2
LAYER
  5
114
330
0
100
AcDbSymbolTable
 70
     4
  0
LAYER
  5
122
330
114
100
AcDbSymbolTableRecord
100
AcDbLayerTableRecord
  2
0
 70
     0
 62
     7
420
 16777215
  6
Continuous
370
    25
390
121
347
157
348
0
  0
LAYER
  5
1F0
330
114
100
AcDbSymbolTableRecord
100
AcDbLayerTableRecord
  2
CCD
 70
     1
 62
   178
420
        0
  6
Continuous
370
    25
390
121
347
157
348
0
  0
LAYER
  5
1F1
330
114
100
AcDbSymbolTableRecord
100
AcDbLayerTableRecord
  2
support
 70
     0
 62
   178
420
        0
  6
Continuous
370
    25
390
121
347
157
348
0
  0
LAYER
  5
1F2
330
114
100
AcDbSymbolTableRecord
100
AcDbLayerTableRecord
  2
Defpoints
 70
     0
 62
     7
  6
Continuous
290
     0
370
    -3
390
121
347
157
348
0
  0
ENDTAB
  0
TABLE
  2
STYLE
  5
115
330
0
100
AcDbSymbolTable
 70
    14
  0
STYLE
  5
123
330
115
100
AcDbSymbolTableRecord
100
AcDbTextStyleTableRecord
  2
Standard
 70
     0
 40
0.0
 41
1.0
 50
0.0
 71
     0
 42
0.2
  3
txt
  4

  0
STYLE
  5
1C4
330
115
100
AcDbSymbolTableRecord
100
AcDbTextStyleTableRecord
  2
textstyle0
 70
     0
 40
0.0
 41
1.0
 50
0.0
 71
     0
 42
0.2
  3
ltypeshp.shx
  4

  0
STYLE
  5
1C5
330
115
100
AcDbSymbolTableRecord
100
AcDbTextStyleTableRecord
  2
textstyle1
 70
     0
 40
0.0
 41
1.0
 50
0.0
 71
     0
 42
0.2
  3
ltypeshp.shx
  4

  0
STYLE
  5
1D9
330
115
100
AcDbSymbolTableRecord
100
AcDbTextStyleTableRecord
  2
textstyle2
 70
     0
 40
0.0
 41
1.0
 50
0.0
 71
     0
 42
0.2
  3
qcadshp.shx
  4

  0
STYLE
  5
1DB
330
115
100
AcDbSymbolTableRecord
100
AcDbTextStyleTableRecord
  2
textstyle3
 70
     0
 40
0.0
 41
1.0
 50
0.0
 71
     0
 42
0.2
  3
qcadshp.shx
  4

  0
STYLE
  5
1DD
330
115
100
AcDbSymbolTableRecord
100
AcDbTextStyleTableRecord
  2
textstyle4
 70
     0
 40
0.0
 41
1.0
 50
0.0
 71
     0
 42
0.2
  3
ltypeshp.shx
  4

  0
STYLE
  5
1DF
330
115
100
AcDbSymbolTableRecord
100
AcDbTextStyleTableRecord
  2
textstyle5
 70
     0
 40
0.0
 41
1.0
 50
0.0
 71
     0
 42
0.2
  3
ltypeshp.shx
  4

  0
STYLE
  5
1E1
330
115
100
AcDbSymbolTableRecord
100
AcDbTextStyleTableRecord
  2
textstyle6
 70
     0
 40
0.0
 41
1.0
 50
0.0
 71
     0
 42
0.2
  3
STANDARD
  4

  0
STYLE
  5
1E6
330
115
100
AcDbSymbolTableRecord
100
AcDbTextStyleTableRecord
  2
textstyle7
 70
     0
 40
0.0
 41
1.0
 50
0.0
 71
     0
 42
0.2
  3
STANDARD
  4

  0
STYLE
  5
1EB
330
115
100
AcDbSymbolTableRecord
100
AcDbTextStyleTableRecord
  2
textstyle8
 70
     0
 40
0.0
 41
1.0
 50
0.0
 71
     0
 42
0.2
  3
ltypeshp.shx
  4

  0
STYLE
  5
1ED
330
115
100
AcDbSymbolTableRecord
100
AcDbTextStyleTableRecord
  2
textstyle9
 70
     0
 40
0.0
 41
1.0
 50
0.0
 71
     0
 42
0.2
  3
ltypeshp.shx
  4

  0
STYLE
  5
1EE
330
115
100
AcDbSymbolTableRecord
100
AcDbTextStyleTableRecord
  2
textstyle10
 70
     0
 40
0.0
 41
1.0
 50
0.0
 71
     0
 42
0.2
  3
ltypeshp.shx
  4

  0
STYLE
  5
27B
330
115
100
AcDbSymbolTableRecord
100
AcDbTextStyleTableRecord
  2
textstyle11
 70
     0
 40
0.0
 41
1.0
 50
0.0
 71
     0
 42
0.2
  3

  4

1001
ACAD
1000
Helvetica
1071
        0
  0
STYLE
  5
27C
330
115
100
AcDbSymbolTableRecord
100
AcDbTextStyleTableRecord
  2
textstyle12
 70
     0
 40
0.0
 41
1.0
 50
0.0
 71
     0
 42
0.2
  3

  4

1001
ACAD
1000
Helvetica
1071
        0
  0
ENDTAB
  0
TABLE
  2
VIEW
  5
118
330
0
100
AcDbSymbolTable
 70
     0
  0
ENDTAB
  0
TABLE
  2
UCS
  5
119
330
0
100
AcDbSymbolTable
 70
     0
  0
ENDTAB
  0
TABLE
  2
APPID
  5
11B
330
0
100
AcDbSymbolTable
 70
     2
  0
APPID
  5
124
330
11B
100
AcDbSymbolTableRecord
100
AcDbRegAppTableRecord
  2
ACAD
 70
     0
  0
APPID
  5
17F
330
11B
100
AcDbSymbolTableRecord
100
AcDbRegAppTableRecord
  2
QCAD
 70
     0
  0
ENDTAB
  0
TABLE
  2
DIMSTYLE
  5
11C
330
0
100
AcDbSymbolTable
 70
     2
100
AcDbDimStyleTable
  0
DIMSTYLE
105
138
330
11C
100
AcDbSymbolTableRecord
100
AcDbDimStyleTableRecord
  2
Standard
 70
     0
178
     0
340
123
  0
DIMSTYLE
105
1B5
102
{ACAD_REACTORS
330
102
330
103
330
104
330
105
330
106
330
107
330
108
330
109
330
10A
330
10B
330
10C
102
}
330
11C
100
AcDbSymbolTableRecord
100
AcDbDimStyleTableRecord
  2
QCADDimStyle
 70
     0
 41
2.5
 42
0.625
 44
1.25
 73
     0
 77
     1
140
2.5
147
0.625
178
     0
340
123
  0
ENDTAB
  0
TABLE
  2
BLOCK_RECORD
  5
113
330
0
100
AcDbSymbolTable
 70
    12
  0
BLOCK_RECORD
  5
130
330
113
100
AcDbSymbolTableRecord
100
AcDbBlockTableRecord
  2
*Model_Space
340
133
 70
     0
280
     1
281
     0
  0
BLOCK_RECORD
  5
12C
330
113
100
AcDbSymbolTableRecord
100
AcDbBlockTableRecord
  2
*Paper_Space
340
12F
 70
     0
280
     1
281
     0
  0
BLOCK_RECORD
  5
134
330
113
100
AcDbSymbolTableRecord
100
AcDbBlockTableRecord
  2
*Paper_Space0
340
137
 70
     0
280
     1
281
     0
  0
BLOCK_RECORD
  5
1F3
330
113
100
AcDbSymbolTableRecord
100
AcDbBlockTableRecord
  2
*D1
340
0
 70
     0
280
     1
281
     0
  0
BLOCK_RECORD
  5
1FF
330
113
100
AcDbSymbolTableRecord
100
AcDbBlockTableRecord
  2
*D2
340
0
 70
     0
280
     1
281
     0
  0
BLOCK_RECORD
  5
20C
330
113
100
AcDbSymbolTableRecord
100
AcDbBlockTableRecord
  2
*D3
340
0
 70
     0
280
     1
281
     0
  0
BLOCK_RECORD
  5
219
330
113
100
AcDbSymbolTableRecord
100
AcDbBlockTableRecord
  2
*D4
340
0
 70
     0
280
     1
281
     0
  0
BLOCK_RECORD
  5
225
330
113
100
AcDbSymbolTableRecord
100
AcDbBlockTableRecord
  2
*D5
340
0
 70
     0
280
     1
281
     0
  0
BLOCK_RECORD
  5
231
330
113
100
AcDbSymbolTableRecord
100
AcDbBlockTableRecord
  2
*D6
340
0
 70
     0
280
     1
281
     0
  0
BLOCK_RECORD
  5
23D
330
113
100
AcDbSymbolTableRecord
100
AcDbBlockTableRecord
  2
*D7
340
0
 70
     0
280
     1
281
     0
  0
BLOCK_RECORD
  5
249
330
113
100
AcDbSymbolTableRecord
100
AcDbBlockTableRecord
  2
*D8
340
0
 70
     0
280
     1
281
     0
  0
BLOCK_RECORD
  5
255
330
113
100
AcDbSymbolTableRecord
100
AcDbBlockTableRecord
  2
*D9
340
0
 70
     0
280
     1
281
     0
  0
BLOCK_RECORD
  5
261
330
113
100
AcDbSymbolTableRecord
100
AcDbBlockTableRecord
  2
*D10
340
0
 70
     0
280
     1
281
     0
  0
BLOCK_RECORD
  5
26E
330
113
100
AcDbSymbolTableRecord
100
AcDbBlockTableRecord
  2
*D11
340
0
 70
     0
280
     1
281
     0
  0
ENDTAB
  0
ENDSEC
  0
SECTION
  2
BLOCKS
  0
BLOCK
  5
131
330
130
100
AcDbEntity
  8
0
100
AcDbBlockBegin
  2
*Model_Space
 70
     0
 10
0.0
 20
0.0
 30
0.0
  3
*Model_Space
  1
*Model_Space
  0
ENDBLK
  5
132
330
130
100
AcDbEntity
  8
0
100
AcDbBlockEnd
  0
BLOCK
  5
12D
330
12C
100
AcDbEntity
 67
     1
  8
0
100
AcDbBlockBegin
  2
*Paper_Space
 70
     0
 10
0.0
 20
0.0
 30
0.0
  3
*Paper_Space
  1
*Paper_Space
  0
ENDBLK
  5
12E
330
12C
100
AcDbEntity
 67
     1
  8
0
100
AcDbBlockEnd
  0
BLOCK
  5
135
330
134
100
AcDbEntity
  8
0
100
AcDbBlockBegin
  2
*Paper_Space0
 70
     0
 10
0.0
 20
0.0
 30
0.0
  3
*Paper_Space0
  1
*Paper_Space0
  0
ENDBLK
  5
136
330
134
100
AcDbEntity
  8
0
100
AcDbBlockEnd
  0
BLOCK
  5
1F4
330
1F3
100
AcDbEntity
  8
0
100
AcDbBlockBegin
  2
*D1
 70
     1
 10
0.0
 20
0.0
 30
0.0
  3
*D1
  1
*D1
  0
LINE
  5
1F6
330
1F3
100
AcDbEntity
  8
support
 62
     0
370
    -2
100
AcDbLine
 10
-2.300000000000001
 20
63.825
 30
0.0
 11
-2.300000000000001
 21
80.60626195236767
 31
0.0
  0
LINE
  5
1F7
330
1F3
100
AcDbEntity
  8
support
 62
     0
370
    -2
100
AcDbLine
 10
13.7
 20
63.825
 30
0.0
 11
13.7
 21
80.60626195236767
 31
0.0
  0
LINE
  5
1F8
330
1F3
100
AcDbEntity
  8
support
 62
     0
370
    -2
100
AcDbLine
 10
0.1999999999999993
 20
79.35626195236767
 30
0.0
 11
11.2
 21
79.35626195236767
 31
0.0
  0
SOLID
  5
1F9
330
1F3
100
AcDbEntity
  8
support
 62
     0
100
AcDbTrace
 10
0.1999999999999993
 20
79.77292861903435
 30
0.0
 11
0.1999999999999993
 21
78.939595285701
 31
0.0
 12
-2.300000000000001
 22
79.35626195236767
 32
0.0
 13
-2.300000000000001
 23
79.35626195236767
 33
0.0
  0
SOLID
  5
1FA
330
1F3
100
AcDbEntity
  8
support
 62
     0
100
AcDbTrace
 10
11.2
 20
78.939595285701
 30
0.0
 11
11.2
 21
79.77292861903435
 31
0.0
 12
13.7
 22
79.35626195236767
 32
0.0
 13
13.7
 23
79.35626195236767
 33
0.0
  0
MTEXT
  5
1FB
330
1F3
100
AcDbEntity
  8
support
 62
     0
100
AcDbMText
 10
5.699999999999999
 20
81.23126195236767
 30
0.0
 40
2.5
 41
0.0
 46
0.0
 71
     5
 72
     1
  1
\A1;16
 73
     1
 44
1.0
  0
POINT
  5
1FC
330
1F3
100
AcDbEntity
  8
Defpoints
 62
     0
100
AcDbPoint
 10
-2.300000000000001
 20
63.2
 30
0.0
  0
POINT
  5
1FD
330
1F3
100
AcDbEntity
  8
Defpoints
 62
     0
100
AcDbPoint
 10
13.7
 20
63.2
 30
0.0
  0
POINT
  5
1FE
330
1F3
100
AcDbEntity
  8
Defpoints
 62
     0
100
AcDbPoint
 10
13.7
 20
79.35626195236767
 30
0.0
  0
ENDBLK
  5
1F5
330
1F3
100
AcDbEntity
  8
0
100
AcDbBlockEnd
  0
BLOCK
  5
200
330
1FF
100
AcDbEntity
  8
0
100
AcDbBlockBegin
  2
*D2
 70
     1
 10
0.0
 20
0.0
 30
0.0
  3
*D2
  1
*D2
  0
LINE
  5
202
330
1FF
100
AcDbEntity
  8
support
 62
     0
370
    -2
100
AcDbLine
 10
81.64565056766885
 20
62.575
 30
0.0
 11
81.64565056766885
 21
44.92091604501391
 31
0.0
  0
LINE
  5
203
330
1FF
100
AcDbEntity
  8
support
 62
     0
370
    -2
100
AcDbLine
 10
83.64565056766884
 20
52.575
 30
0.0
 11
83.64565056766884
 21
44.92091604501391
 31
0.0
  0
LINE
  5
204
330
1FF
100
AcDbEntity
  8
support
 62
     0
370
    -2
100
AcDbLine
 10
79.14565056766885
 20
46.17091604501391
 30
0.0
 11
76.64565056766885
 21
46.17091604501391
 31
0.0
  0
LINE
  5
205
330
1FF
100
AcDbEntity
  8
support
 62
     0
370
    -2
100
AcDbLine
 10
86.14565056766884
 20
46.17091604501391
 30
0.0
 11
88.64565056766884
 21
46.17091604501391
 31
0.0
  0
SOLID
  5
206
330
1FF
100
AcDbEntity
  8
support
 62
     0
100
AcDbTrace
 10
79.14565056766885
 20
45.75424937834725
 30
0.0
 11
79.14565056766885
 21
46.58758271168058
 31
0.0
 12
81.64565056766885
 22
46.17091604501391
 32
0.0
 13
81.64565056766885
 23
46.17091604501391
 33
0.0
  0
SOLID
  5
207
330
1FF
100
AcDbEntity
  8
support
 62
     0
100
AcDbTrace
 10
86.14565056766884
 20
46.58758271168058
 30
0.0
 11
86.14565056766884
 21
45.75424937834725
 31
0.0
 12
83.64565056766884
 22
46.17091604501391
 32
0.0
 13
83.64565056766884
 23
46.17091604501391
 33
0.0
  0
MTEXT
  5
208
330
1FF
100
AcDbEntity
  8
support
 62
     0
100
AcDbMText
 10
74.3801968194723
 20
48.33517773462393
 30
0.0
 40
2.5
 41
0.0
 46
0.0
 71
     5
 72
     1
  1
\A1;2
 73
     1
 44
1.0
  0
POINT
  5
209
330
1FF
100
AcDbEntity
  8
Defpoints
 62
     0
100
AcDbPoint
 10
81.64565056766885
 20
63.2
 30
0.0
  0
POINT
  5
20A
330
1FF
100
AcDbEntity
  8
Defpoints
 62
     0
100
AcDbPoint
 10
83.64565056766884
 20
53.2
 30
0.0
  0
POINT
  5
20B
330
1FF
100
AcDbEntity
  8
Defpoints
 62
     0
100
AcDbPoint
 10
83.64565056766884
 20
46.17091604501391
 30
0.0
  0
ENDBLK
  5
201
330
1FF
100
AcDbEntity
  8
0
100
AcDbBlockEnd
  0
BLOCK
  5
20D
330
20C
100
AcDbEntity
  8
0
100
AcDbBlockBegin
  2
*D3
 70
     1
 10
0.0
 20
0.0
 30
0.0
  3
*D3
  1
*D3
  0
LINE
  5
20F
330
20C
100
AcDbEntity
  8
support
 62
     0
370
    -2
100
AcDbLine
 10
81.64565056766885
 20
63.825
 30
0.0
 11
81.64565056766885
 21
80.36578843129988
 31
0.0
  0
LINE
  5
210
330
20C
100
AcDbEntity
  8
support
 62
     0
370
    -2
100
AcDbLine
 10
87.05815056766883
 20
63.825
 30
0.0
 11
87.05815056766883
 21
80.36578843129988
 31
0.0
  0
LINE
  5
211
330
20C
100
AcDbEntity
  8
support
 62
     0
370
    -2
100
AcDbLine
 10
79.14565056766885
 20
79.11578843129988
 30
0.0
 11
76.64565056766885
 21
79.11578843129988
 31
0.0
  0
LINE
  5
212
330
20C
100
AcDbEntity
  8
support
 62
     0
370
    -2
100
AcDbLine
 10
89.55815056766883
 20
79.11578843129988
 30
0.0
 11
92.05815056766883
 21
79.11578843129988
 31
0.0
  0
SOLID
  5
213
330
20C
100
AcDbEntity
  8
support
 62
     0
100
AcDbTrace
 10
79.14565056766885
 20
78.6991217646332
 30
0.0
 11
79.14565056766885
 21
79.53245509796655
 31
0.0
 12
81.64565056766885
 22
79.11578843129988
 32
0.0
 13
81.64565056766885
 23
79.11578843129988
 33
0.0
  0
SOLID
  5
214
330
20C
100
AcDbEntity
  8
support
 62
     0
100
AcDbTrace
 10
89.55815056766883
 20
79.53245509796655
 30
0.0
 11
89.55815056766883
 21
78.6991217646332
 31
0.0
 12
87.05815056766883
 22
79.11578843129988
 32
0.0
 13
87.05815056766883
 23
79.11578843129988
 33
0.0
  0
MTEXT
  5
215
330
20C
100
AcDbEntity
  8
support
 62
     0
100
AcDbMText
 10
84.35190056766885
 20
82.55328843129988
 30
0.0
 40
2.5
 41
0.0
 46
0.0
 71
     5
 72
     1
  1
\A1;5.4
 73
     1
 44
1.0
  0
POINT
  5
216
330
20C
100
AcDbEntity
  8
Defpoints
 62
     0
100
AcDbPoint
 10
81.64565056766885
 20
63.2
 30
0.0
  0
POINT
  5
217
330
20C
100
AcDbEntity
  8
Defpoints
 62
     0
100
AcDbPoint
 10
87.05815056766883
 20
63.2
 30
0.0
  0
POINT
  5
218
330
20C
100
AcDbEntity
  8
Defpoints
 62
     0
100
AcDbPoint
 10
87.05815056766883
 20
79.11578843129988
 30
0.0
  0
ENDBLK
  5
20E
330
20C
100
AcDbEntity
  8
0
100
AcDbBlockEnd
  0
BLOCK
  5
21A
330
219
100
AcDbEntity
  8
0
100
AcDbBlockBegin
  2
*D4
 70
     1
 10
0.0
 20
0.0
 30
0.0
  3
*D4
  1
*D4
  0
LINE
  5
21C
330
219
100
AcDbEntity
  8
support
 62
     0
370
    -2
100
AcDbLine
 10
73.05815056766883
 20
-12.625
 30
0.0
 11
73.05815056766883
 21
-39.96623689191271
 31
0.0
  0
LINE
  5
21D
330
219
100
AcDbEntity
  8
support
 62
     0
370
    -2
100
AcDbLine
 10
87.05815056766883
 20
-12.625
 30
0.0
 11
87.05815056766883
 21
-39.96623689191271
 31
0.0
  0
LINE
  5
21E
330
219
100
AcDbEntity
  8
support
 62
     0
370
    -2
100
AcDbLine
 10
75.55815056766883
 20
-38.71623689191271
 30
0.0
 11
84.55815056766883
 21
-38.71623689191271
 31
0.0
  0
SOLID
  5
21F
330
219
100
AcDbEntity
  8
support
 62
     0
100
AcDbTrace
 10
75.55815056766883
 20
-38.29957022524605
 30
0.0
 11
75.55815056766883
 21
-39.13290355857938
 31
0.0
 12
73.05815056766883
 22
-38.71623689191271
 32
0.0
 13
73.05815056766883
 23
-38.71623689191271
 33
0.0
  0
SOLID
  5
220
330
219
100
AcDbEntity
  8
support
 62
     0
100
AcDbTrace
 10
84.55815056766883
 20
-39.13290355857938
 30
0.0
 11
84.55815056766883
 21
-38.29957022524605
 31
0.0
 12
87.05815056766883
 22
-38.71623689191271
 32
0.0
 13
87.05815056766883
 23
-38.71623689191271
 33
0.0
  0
MTEXT
  5
221
330
219
100
AcDbEntity
  8
support
 62
     0
100
AcDbMText
 10
80.05815056766883
 20
-36.84123689191271
 30
0.0
 40
2.5
 41
0.0
 46
0.0
 71
     5
 72
     1
  1
\A1;14
 73
     1
 44
1.0
  0
POINT
  5
222
330
219
100
AcDbEntity
  8
Defpoints
 62
     0
100
AcDbPoint
 10
73.05815056766883
 20
-12.0
 30
0.0
  0
POINT
  5
223
330
219
100
AcDbEntity
  8
Defpoints
 62
     0
100
AcDbPoint
 10
87.05815056766883
 20
-12.0
 30
0.0
  0
POINT
  5
224
330
219
100
AcDbEntity
  8
Defpoints
 62
     0
100
AcDbPoint
 10
87.05815056766883
 20
-38.71623689191271
 30
0.0
  0
ENDBLK
  5
21B
330
219
100
AcDbEntity
  8
0
100
AcDbBlockEnd
  0
BLOCK
  5
226
330
225
100
AcDbEntity
  8
0
100
AcDbBlockBegin
  2
*D5
 70
     1
 10
0.0
 20
0.0
 30
0.0
  3
*D5
  1
*D5
  0
LINE
  5
228
330
225
100
AcDbEntity
  8
support
 62
     0
370
    -2
100
AcDbLine
 10
-2.925000000000001
 20
63.2
 30
0.0
 11
-24.98299977618228
 21
63.2
 31
0.0
  0
LINE
  5
229
330
225
100
AcDbEntity
  8
support
 62
     0
370
    -2
100
AcDbLine
 10
-2.925000000000001
 20
-12.0
 30
0.0
 11
-24.98299977618229
 21
-11.99999999999999
 31
0.0
  0
LINE
  5
22A
330
225
100
AcDbEntity
  8
support
 62
     0
370
    -2
100
AcDbLine
 10
-23.73299977618228
 20
60.7
 30
0.0
 11
-23.73299977618229
 21
-9.499999999999995
 31
0.0
  0
SOLID
  5
22B
330
225
100
AcDbEntity
  8
support
 62
     0
100
AcDbTrace
 10
-23.31633310951561
 20
60.7
 30
0.0
 11
-24.14966644284895
 21
60.7
 31
0.0
 12
-23.73299977618228
 22
63.2
 32
0.0
 13
-23.73299977618228
 23
63.2
 33
0.0
  0
SOLID
  5
22C
330
225
100
AcDbEntity
  8
support
 62
     0
100
AcDbTrace
 10
-24.14966644284895
 20
-9.499999999999995
 30
0.0
 11
-23.31633310951562
 21
-9.499999999999995
 31
0.0
 12
-23.73299977618229
 22
-11.99999999999999
 32
0.0
 13
-23.73299977618229
 23
-11.99999999999999
 33
0.0
  0
MTEXT
  5
22D
330
225
100
AcDbEntity
  8
support
 62
     0
100
AcDbMText
 10
-25.60799977618228
 20
25.6
 30
0.0
 40
2.5
 41
0.0
 46
0.0
 71
     5
 72
     1
  1
\A1;75.2
 11
4.724353296277262E-17
 21
1.0
 31
0.0
 73
     1
 44
1.0
  0
POINT
  5
22E
330
225
100
AcDbEntity
  8
Defpoints
 62
     0
100
AcDbPoint
 10
-2.300000000000001
 20
63.2
 30
0.0
  0
POINT
  5
22F
330
225
100
AcDbEntity
  8
Defpoints
 62
     0
100
AcDbPoint
 10
-2.300000000000001
 20
-12.0
 30
0.0
  0
POINT
  5
230
330
225
100
AcDbEntity
  8
Defpoints
 62
     0
100
AcDbPoint
 10
-23.73299977618229
 20
-11.99999999999999
 30
0.0
  0
ENDBLK
  5
227
330
225
100
AcDbEntity
  8
0
100
AcDbBlockEnd
  0
BLOCK
  5
232
330
231
100
AcDbEntity
  8
0
100
AcDbBlockBegin
  2
*D6
 70
     1
 10
0.0
 20
0.0
 30
0.0
  3
*D6
  1
*D6
  0
LINE
  5
234
330
231
100
AcDbEntity
  8
support
 62
     0
370
    -2
100
AcDbLine
 10
-2.925000000000001
 20
-12.0
 30
0.0
 11
-16.32595301774217
 21
-11.99999999999999
 31
0.0
  0
LINE
  5
235
330
231
100
AcDbEntity
  8
support
 62
     0
370
    -2
100
AcDbLine
 10
-2.925000000000001
 20
-1.999999999999996
 30
0.0
 11
-16.32595301774217
 21
-1.999999999999996
 31
0.0
  0
LINE
  5
236
330
231
100
AcDbEntity
  8
support
 62
     0
370
    -2
100
AcDbLine
 10
-15.07595301774217
 20
-9.499999999999995
 30
0.0
 11
-15.07595301774217
 21
-4.499999999999996
 31
0.0
  0
SOLID
  5
237
330
231
100
AcDbEntity
  8
support
 62
     0
100
AcDbTrace
 10
-15.49261968440883
 20
-9.499999999999995
 30
0.0
 11
-14.6592863510755
 21
-9.499999999999995
 31
0.0
 12
-15.07595301774217
 22
-11.99999999999999
 32
0.0
 13
-15.07595301774217
 23
-11.99999999999999
 33
0.0
  0
SOLID
  5
238
330
231
100
AcDbEntity
  8
support
 62
     0
100
AcDbTrace
 10
-14.6592863510755
 20
-4.499999999999996
 30
0.0
 11
-15.49261968440883
 21
-4.499999999999996
 31
0.0
 12
-15.07595301774217
 22
-1.999999999999996
 32
0.0
 13
-15.07595301774217
 23
-1.999999999999996
 33
0.0
  0
MTEXT
  5
239
330
231
100
AcDbEntity
  8
support
 62
     0
100
AcDbMText
 10
-16.95095301774217
 20
-6.999999999999995
 30
0.0
 40
2.5
 41
0.0
 46
0.0
 71
     5
 72
     1
  1
\A1;10
 11
0.0
 21
1.0
 31
0.0
 73
     1
 44
1.0
  0
POINT
  5
23A
330
231
100
AcDbEntity
  8
Defpoints
 62
     0
100
AcDbPoint
 10
-2.300000000000001
 20
-12.0
 30
0.0
  0
POINT
  5
23B
330
231
100
AcDbEntity
  8
Defpoints
 62
     0
100
AcDbPoint
 10
-2.300000000000001
 20
-1.999999999999996
 30
0.0
  0
POINT
  5
23C
330
231
100
AcDbEntity
  8
Defpoints
 62
     0
100
AcDbPoint
 10
-15.07595301774217
 20
-1.999999999999996
 30
0.0
  0
ENDBLK
  5
233
330
231
100
AcDbEntity
  8
0
100
AcDbBlockEnd
  0
BLOCK
  5
23E
330
23D
100
AcDbEntity
  8
0
100
AcDbBlockBegin
  2
*D7
 70
     1
 10
0.0
 20
0.0
 30
0.0
  3
*D7
  1
*D7
  0
LINE
  5
240
330
23D
100
AcDbEntity
  8
support
 62
     0
370
    -2
100
AcDbLine
 10
-2.925000000000001
 20
-12.0
 30
0.0
 11
-8.149853301437616
 21
-12.0
 31
0.0
  0
LINE
  5
241
330
23D
100
AcDbEntity
  8
support
 62
     0
370
    -2
100
AcDbLine
 10
-2.925000000000001
 20
8.0
 30
0.0
 11
-8.149853301437616
 21
8.0
 31
0.0
  0
LINE
  5
242
330
23D
100
AcDbEntity
  8
support
 62
     0
370
    -2
100
AcDbLine
 10
-6.899853301437616
 20
-9.499999999999996
 30
0.0
 11
-6.899853301437616
 21
5.5
 31
0.0
  0
SOLID
  5
243
330
23D
100
AcDbEntity
  8
support
 62
     0
100
AcDbTrace
 10
-7.316519968104283
 20
-9.499999999999996
 30
0.0
 11
-6.483186634770949
 21
-9.499999999999996
 31
0.0
 12
-6.899853301437616
 22
-12.0
 32
0.0
 13
-6.899853301437616
 23
-12.0
 33
0.0
  0
SOLID
  5
244
330
23D
100
AcDbEntity
  8
support
 62
     0
100
AcDbTrace
 10
-6.483186634770949
 20
5.5
 30
0.0
 11
-7.316519968104283
 21
5.5
 31
0.0
 12
-6.899853301437616
 22
8.0
 32
0.0
 13
-6.899853301437616
 23
8.0
 33
0.0
  0
MTEXT
  5
245
330
23D
100
AcDbEntity
  8
support
 62
     0
100
AcDbMText
 10
-8.774853301437616
 20
-1.999999999999998
 30
0.0
 40
2.5
 41
0.0
 46
0.0
 71
     5
 72
     1
  1
\A1;20
 11
4.440892098500627E-17
 21
1.0
 31
0.0
 73
     1
 44
1.0
  0
POINT
  5
246
330
23D
100
AcDbEntity
  8
Defpoints
 62
     0
100
AcDbPoint
 10
-2.300000000000001
 20
-12.0
 30
0.0
  0
POINT
  5
247
330
23D
100
AcDbEntity
  8
Defpoints
 62
     0
100
AcDbPoint
 10
-2.300000000000001
 20
8.0
 30
0.0
  0
POINT
  5
248
330
23D
100
AcDbEntity
  8
Defpoints
 62
     0
100
AcDbPoint
 10
-6.899853301437616
 20
8.0
 30
0.0
  0
ENDBLK
  5
23F
330
23D
100
AcDbEntity
  8
0
100
AcDbBlockEnd
  0
BLOCK
  5
24A
330
249
100
AcDbEntity
  8
0
100
AcDbBlockBegin
  2
*D8
 70
     1
 10
0.0
 20
0.0
 30
0.0
  3
*D8
  1
*D8
  0
LINE
  5
24C
330
249
100
AcDbEntity
  8
support
 62
     0
370
    -2
100
AcDbLine
 10
-2.925000000000001
 20
63.2
 30
0.0
 11
-16.32595301774217
 21
63.2
 31
0.0
  0
LINE
  5
24D
330
249
100
AcDbEntity
  8
support
 62
     0
370
    -2
100
AcDbLine
 10
-2.925000000000001
 20
53.2
 30
0.0
 11
-16.32595301774217
 21
53.2
 31
0.0
  0
LINE
  5
24E
330
249
100
AcDbEntity
  8
support
 62
     0
370
    -2
100
AcDbLine
 10
-15.07595301774217
 20
60.7
 30
0.0
 11
-15.07595301774217
 21
55.7
 31
0.0
  0
SOLID
  5
24F
330
249
100
AcDbEntity
  8
support
 62
     0
100
AcDbTrace
 10
-14.6592863510755
 20
60.7
 30
0.0
 11
-15.49261968440883
 21
60.7
 31
0.0
 12
-15.07595301774217
 22
63.2
 32
0.0
 13
-15.07595301774217
 23
63.2
 33
0.0
  0
SOLID
  5
250
330
249
100
AcDbEntity
  8
support
 62
     0
100
AcDbTrace
 10
-15.49261968440883
 20
55.7
 30
0.0
 11
-14.6592863510755
 21
55.7
 31
0.0
 12
-15.07595301774217
 22
53.2
 32
0.0
 13
-15.07595301774217
 23
53.2
 33
0.0
  0
MTEXT
  5
251
330
249
100
AcDbEntity
  8
support
 62
     0
100
AcDbMText
 10
-16.95095301774217
 20
58.2
 30
0.0
 40
2.5
 41
0.0
 46
0.0
 71
     5
 72
     1
  1
\A1;10
 11
0.0
 21
1.0
 31
0.0
 73
     1
 44
1.0
  0
POINT
  5
252
330
249
100
AcDbEntity
  8
Defpoints
 62
     0
100
AcDbPoint
 10
-2.300000000000001
 20
63.2
 30
0.0
  0
POINT
  5
253
330
249
100
AcDbEntity
  8
Defpoints
 62
     0
100
AcDbPoint
 10
-2.300000000000001
 20
53.2
 30
0.0
  0
POINT
  5
254
330
249
100
AcDbEntity
  8
Defpoints
 62
     0
100
AcDbPoint
 10
-15.07595301774217
 20
53.2
 30
0.0
  0
ENDBLK
  5
24B
330
249
100
AcDbEntity
  8
0
100
AcDbBlockEnd
  0
BLOCK
  5
256
330
255
100
AcDbEntity
  8
0
100
AcDbBlockBegin
  2
*D9
 70
     1
 10
0.0
 20
0.0
 30
0.0
  3
*D9
  1
*D9
  0
LINE
  5
258
330
255
100
AcDbEntity
  8
support
 62
     0
370
    -2
100
AcDbLine
 10
13.7
 20
-12.625
 30
0.0
 11
13.7
 21
-24.33545802250697
 31
0.0
  0
LINE
  5
259
330
255
100
AcDbEntity
  8
support
 62
     0
370
    -2
100
AcDbLine
 10
7.164999999999999
 20
-12.625
 30
0.0
 11
7.164999999999999
 21
-24.33545802250697
 31
0.0
  0
LINE
  5
25A
330
255
100
AcDbEntity
  8
support
 62
     0
370
    -2
100
AcDbLine
 10
11.2
 20
-23.08545802250697
 30
0.0
 11
9.665
 21
-23.08545802250697
 31
0.0
  0
SOLID
  5
25B
330
255
100
AcDbEntity
  8
support
 62
     0
100
AcDbTrace
 10
11.2
 20
-23.50212468917364
 30
0.0
 11
11.2
 21
-22.6687913558403
 31
0.0
 12
13.7
 22
-23.08545802250697
 32
0.0
 13
13.7
 23
-23.08545802250697
 33
0.0
  0
SOLID
  5
25C
330
255
100
AcDbEntity
  8
support
 62
     0
100
AcDbTrace
 10
9.665
 20
-22.6687913558403
 30
0.0
 11
9.665
 21
-23.50212468917364
 31
0.0
 12
7.164999999999999
 22
-23.08545802250697
 32
0.0
 13
7.164999999999999
 23
-23.08545802250697
 33
0.0
  0
MTEXT
  5
25D
330
255
100
AcDbEntity
  8
support
 62
     0
100
AcDbMText
 10
10.4325
 20
-21.21045802250697
 30
0.0
 40
2.5
 41
0.0
 46
0.0
 71
     5
 72
     1
  1
\A1;6.5
 73
     1
 44
1.0
  0
POINT
  5
25E
330
255
100
AcDbEntity
  8
Defpoints
 62
     0
100
AcDbPoint
 10
13.7
 20
-12.0
 30
0.0
  0
POINT
  5
25F
330
255
100
AcDbEntity
  8
Defpoints
 62
     0
100
AcDbPoint
 10
7.164999999999999
 20
-12.0
 30
0.0
  0
POINT
  5
260
330
255
100
AcDbEntity
  8
Defpoints
 62
     0
100
AcDbPoint
 10
7.164999999999999
 20
-23.08545802250697
 30
0.0
  0
ENDBLK
  5
257
330
255
100
AcDbEntity
  8
0
100
AcDbBlockEnd
  0
BLOCK
  5
262
330
261
100
AcDbEntity
  8
0
100
AcDbBlockBegin
  2
*D10
 70
     1
 10
0.0
 20
0.0
 30
0.0
  3
*D10
  1
*D10
  0
LINE
  5
264
330
261
100
AcDbEntity
  8
support
 62
     0
370
    -2
100
AcDbLine
 10
7.789999999999999
 20
63.2
 30
0.0
 11
19.67906772073657
 21
63.2
 31
0.0
  0
LINE
  5
265
330
261
100
AcDbEntity
  8
support
 62
     0
370
    -2
100
AcDbLine
 10
7.789999999999999
 20
59.20000000000001
 30
0.0
 11
19.67906772073657
 21
59.20000000000001
 31
0.0
  0
LINE
  5
266
330
261
100
AcDbEntity
  8
support
 62
     0
370
    -2
100
AcDbLine
 10
18.42906772073657
 20
65.7
 30
0.0
 11
18.42906772073657
 21
68.2
 31
0.0
  0
LINE
  5
267
330
261
100
AcDbEntity
  8
support
 62
     0
370
    -2
100
AcDbLine
 10
18.42906772073657
 20
56.70000000000001
 30
0.0
 11
18.42906772073657
 21
54.20000000000001
 31
0.0
  0
SOLID
  5
268
330
261
100
AcDbEntity
  8
support
 62
     0
100
AcDbTrace
 10
18.0124010540699
 20
65.7
 30
0.0
 11
18.84573438740324
 21
65.7
 31
0.0
 12
18.42906772073657
 22
63.2
 32
0.0
 13
18.42906772073657
 23
63.2
 33
0.0
  0
SOLID
  5
269
330
261
100
AcDbEntity
  8
support
 62
     0
100
AcDbTrace
 10
18.84573438740324
 20
56.70000000000001
 30
0.0
 11
18.0124010540699
 21
56.70000000000001
 31
0.0
 12
18.42906772073657
 22
59.20000000000001
 32
0.0
 13
18.42906772073657
 23
59.20000000000001
 33
0.0
  0
MTEXT
  5
26A
330
261
100
AcDbEntity
  8
support
 62
     0
100
AcDbMText
 10
16.55406772073657
 20
61.2
 30
0.0
 40
2.5
 41
0.0
 46
0.0
 71
     5
 72
     1
  1
\A1;4
 11
0.0
 21
1.0
 31
0.0
 73
     1
 44
1.0
  0
POINT
  5
26B
330
261
100
AcDbEntity
  8
Defpoints
 62
     0
100
AcDbPoint
 10
7.164999999999999
 20
63.2
 30
0.0
  0
POINT
  5
26C
330
261
100
AcDbEntity
  8
Defpoints
 62
     0
100
AcDbPoint
 10
7.164999999999999
 20
59.20000000000001
 30
0.0
  0
POINT
  5
26D
330
261
100
AcDbEntity
  8
Defpoints
 62
     0
100
AcDbPoint
 10
18.42906772073657
 20
59.20000000000001
 30
0.0
  0
ENDBLK
  5
263
330
261
100
AcDbEntity
  8
0
100
AcDbBlockEnd
  0
BLOCK
  5
26F
330
26E
100
AcDbEntity
  8
0
100
AcDbBlockBegin
  2
*D11
 70
     1
 10
0.0
 20
0.0
 30
0.0
  3
*D11
  1
*D11
  0
LINE
  5
271
330
26E
100
AcDbEntity
  8
support
 62
     0
370
    -2
100
AcDbLine
 10
7.789999999999999
 20
-1.999999999999998
 30
0.0
 11
19.66622274458652
 21
-1.999999999999999
 31
0.0
  0
LINE
  5
272
330
26E
100
AcDbEntity
  8
support
 62
     0
370
    -2
100
AcDbLine
 10
7.789999999999999
 20
2.0
 30
0.0
 11
19.66622274458652
 21
1.999999999999999
 31
0.0
  0
LINE
  5
273
330
26E
100
AcDbEntity
  8
support
 62
     0
370
    -2
100
AcDbLine
 10
18.41622274458652
 20
-4.499999999999999
 30
0.0
 11
18.41622274458652
 21
-6.999999999999999
 31
0.0
  0
LINE
  5
274
330
26E
100
AcDbEntity
  8
support
 62
     0
370
    -2
100
AcDbLine
 10
18.41622274458652
 20
4.499999999999999
 30
0.0
 11
18.41622274458652
 21
6.999999999999999
 31
0.0
  0
SOLID
  5
275
330
26E
100
AcDbEntity
  8
support
 62
     0
100
AcDbTrace
 10
18.83288941125319
 20
-4.499999999999999
 30
0.0
 11
17.99955607791985
 21
-4.499999999999999
 31
0.0
 12
18.41622274458652
 22
-1.999999999999999
 32
0.0
 13
18.41622274458652
 23
-1.999999999999999
 33
0.0
  0
SOLID
  5
276
330
26E
100
AcDbEntity
  8
support
 62
     0
100
AcDbTrace
 10
17.99955607791985
 20
4.499999999999999
 30
0.0
 11
18.83288941125319
 21
4.499999999999999
 31
0.0
 12
18.41622274458652
 22
1.999999999999999
 32
0.0
 13
18.41622274458652
 23
1.999999999999999
 33
0.0
  0
MTEXT
  5
277
330
26E
100
AcDbEntity
  8
support
 62
     0
100
AcDbMText
 10
16.54122274458652
 20
0.0
 30
0.0
 40
2.5
 41
0.0
 46
0.0
 71
     5
 72
     1
  1
\A1;4
 11
0.0
 21
1.0
 31
0.0
 73
     1
 44
1.0
  0
POINT
  5
278
330
26E
100
AcDbEntity
  8
Defpoints
 62
     0
100
AcDbPoint
 10
7.164999999999999
 20
-1.999999999999998
 30
0.0
  0
POINT
  5
279
330
26E
100
AcDbEntity
  8
Defpoints
 62
     0
100
AcDbPoint
 10
7.164999999999999
 20
2.0
 30
0.0
  0
POINT
  5
27A
330
26E
100
AcDbEntity
  8
Defpoints
 62
     0
100
AcDbPoint
 10
18.41622274458652
 20
1.999999999999999
 30
0.0
  0
ENDBLK
  5
270
330
26E
100
AcDbEntity
  8
0
100
AcDbBlockEnd
  0
ENDSEC
  0
SECTION
  2
ENTITIES
  0
LINE
  5
36
330
130
100
AcDbEntity
  8
CCD
100
AcDbLine
 10
NaN
 20
NaN
 30
0.0
 11
NaN
 21
NaN
 31
0.0
  0
LINE
  5
37
330
130
100
AcDbEntity
  8
CCD
100
AcDbLine
 10
NaN
 20
NaN
 30
0.0
 11
NaN
 21
NaN
 31
0.0
  0
LINE
  5
38
330
130
100
AcDbEntity
  8
CCD
100
AcDbLine
 10
NaN
 20
NaN
 30
0.0
 11
NaN
 21
NaN
 31
0.0
  0
LINE
  5
39
330
130
100
AcDbEntity
  8
CCD
100
AcDbLine
 10
NaN
 20
NaN
 30
0.0
 11
NaN
 21
NaN
 31
0.0
  0
LINE
  5
3A
330
130
100
AcDbEntity
  8
CCD
100
AcDbLine
 10
NaN
 20
NaN
 30
0.0
 11
NaN
 21
NaN
 31
0.0
  0
LINE
  5
3B
330
130
100
AcDbEntity
  8
CCD
100
AcDbLine
 10
NaN
 20
NaN
 30
0.0
 11
NaN
 21
NaN
 31
0.0
  0
LINE
  5
3C
330
130
100
AcDbEntity
  8
CCD
100
AcDbLine
 10
NaN
 20
NaN
 30
0.0
 11
NaN
 21
NaN
 31
0.0
  0
LINE
  5
3D
330
130
100
AcDbEntity
  8
CCD
100
AcDbLine
 10
NaN
 20
NaN
 30
0.0
 11
NaN
 21
NaN
 31
0.0
  0
LINE
  5
3E
330
130
100
AcDbEntity
  8
CCD
100
AcDbLine
 10
NaN
 20
NaN
 30
0.0
 11
NaN
 21
NaN
 31
0.0
  0
LINE
  5
3F
330
130
100
AcDbEntity
  8
CCD
100
AcDbLine
 10
NaN
 20
NaN
 30
0.0
 11
NaN
 21
NaN
 31
0.0
  0
LINE
  5
40
330
130
100
AcDbEntity
  8
CCD
100
AcDbLine
 10
NaN
 20
NaN
 30
0.0
 11
NaN
 21
NaN
 31
0.0
  0
LINE
  5
41
330
130
100
AcDbEntity
  8
CCD
100
AcDbLine
 10
NaN
 20
NaN
 30
0.0
 11
NaN
 21
NaN
 31
0.0
  0
LINE
  5
42
330
130
100
AcDbEntity
  8
CCD
100
AcDbLine
 10
NaN
 20
NaN
 30
0.0
 11
NaN
 21
NaN
 31
0.0
  0
LINE
  5
43
330
130
100
AcDbEntity
  8
CCD
100
AcDbLine
 10
NaN
 20
NaN
 30
0.0
 11
NaN
 21
NaN
 31
0.0
  0
LINE
  5
44
330
130
100
AcDbEntity
  8
CCD
100
AcDbLine
 10
NaN
 20
NaN
 30
0.0
 11
NaN
 21
NaN
 31
0.0
  0
LINE
  5
45
330
130
100
AcDbEntity
  8
CCD
100
AcDbLine
 10
NaN
 20
NaN
 30
0.0
 11
NaN
 21
NaN
 31
0.0
  0
LINE
  5
46
330
130
100
AcDbEntity
  8
CCD
100
AcDbLine
 10
NaN
 20
NaN
 30
0.0
 11
NaN
 21
NaN
 31
0.0
  0
LINE
  5
47
330
130
100
AcDbEntity
  8
CCD
100
AcDbLine
 10
NaN
 20
NaN
 30
0.0
 11
NaN
 21
NaN
 31
0.0
  0
LINE
  5
48
330
130
100
AcDbEntity
  8
CCD
100
AcDbLine
 10
NaN
 20
NaN
 30
0.0
 11
NaN
 21
NaN
 31
0.0
  0
LINE
  5
49
330
130
100
AcDbEntity
  8
CCD
100
AcDbLine
 10
NaN
 20
NaN
 30
0.0
 11
NaN
 21
NaN
 31
0.0
  0
LINE
  5
4A
330
130
100
AcDbEntity
  8
CCD
100
AcDbLine
 10
NaN
 20
NaN
 30
0.0
 11
NaN
 21
NaN
 31
0.0
  0
LINE
  5
4B
330
130
100
AcDbEntity
  8
CCD
100
AcDbLine
 10
NaN
 20
NaN
 30
0.0
 11
NaN
 21
NaN
 31
0.0
  0
LINE
  5
4C
330
130
100
AcDbEntity
  8
CCD
100
AcDbLine
 10
NaN
 20
NaN
 30
0.0
 11
NaN
 21
NaN
 31
0.0
  0
LINE
  5
4D
330
130
100
AcDbEntity
  8
CCD
100
AcDbLine
 10
NaN
 20
NaN
 30
0.0
 11
NaN
 21
NaN
 31
0.0
  0
LINE
  5
4E
330
130
100
AcDbEntity
  8
CCD
100
AcDbLine
 10
NaN
 20
NaN
 30
0.0
 11
NaN
 21
NaN
 31
0.0
  0
LINE
  5
4F
330
130
100
AcDbEntity
  8
CCD
100
AcDbLine
 10
NaN
 20
NaN
 30
0.0
 11
NaN
 21
NaN
 31
0.0
  0
LINE
  5
50
330
130
100
AcDbEntity
  8
CCD
100
AcDbLine
 10
NaN
 20
NaN
 30
0.0
 11
NaN
 21
NaN
 31
0.0
  0
LINE
  5
51
330
130
100
AcDbEntity
  8
CCD
100
AcDbLine
 10
NaN
 20
NaN
 30
0.0
 11
NaN
 21
NaN
 31
0.0
  0
LINE
  5
52
330
130
100
AcDbEntity
  8
CCD
100
AcDbLine
 10
0.0
 20
0.0
 30
0.0
 11
12.7
 21
0.0
 31
0.0
  0
LINE
  5
53
330
130
100
AcDbEntity
  8
CCD
100
AcDbLine
 10
12.7
 20
0.0
 30
0.0
 11
12.7
 21
61.2
 31
0.0
  0
LINE
  5
54
330
130
100
AcDbEntity
  8
CCD
100
AcDbLine
 10
12.7
 20
61.2
 30
0.0
 11
0.0
 21
61.2
 31
0.0
  0
LINE
  5
55
330
130
100
AcDbEntity
  8
CCD
100
AcDbLine
 10
0.0
 20
61.2
 30
0.0
 11
0.0
 21
0.0
 31
0.0
  0
LINE
  5
100
330
130
100
AcDbEntity
  8
support
  6
ACAD_ISO04W100
100
AcDbLine
 10
7.164999999999999
 20
76.95152674168986
 30
0.0
 11
7.164999999999999
 21
-41.12097210259051
 31
0.0
  0
CIRCLE
  5
59
330
130
100
AcDbEntity
  8
CCD
100
AcDbCircle
 10
7.164999999999999
 20
59.20000000000001
 30
0.0
 40
1.129999999999999
  0
CIRCLE
  5
5A
330
130
100
AcDbEntity
  8
CCD
100
AcDbCircle
 10
7.164999999999999
 20
2.0
 30
0.0
 40
1.129999999999999
  0
LINE
  5
64
330
130
100
AcDbEntity
  8
CCD
100
AcDbLine
 10
12.7
 20
156.825
 30
0.0
 11
12.7
 21
160.0
 31
0.0
  0
LINE
  5
63
330
130
100
AcDbEntity
  8
CCD
100
AcDbLine
 10
0.0000000000000059
 20
156.825
 30
0.0
 11
0.000000000000006
 21
160.0
 31
0.0
  0
LINE
  5
61
330
130
100
AcDbEntity
  8
CCD
100
AcDbLine
 10
0.0
 20
160.0
 30
0.0
 11
12.7
 21
160.0
 31
0.0
  0
LINE
  5
62
330
130
100
AcDbEntity
  8
CCD
100
AcDbLine
 10
0.0000000000000002
 20
156.825
 30
0.0
 11
12.7
 21
156.825
 31
0.0
  0
LINE
  5
F9
330
130
100
AcDbEntity
  8
CCD
100
AcDbLine
 10
74.05815056766883
 20
-15.99999999999999
 30
0.0
 11
74.05815056766883
 21
-77.19999999999999
 31
0.0
  0
LINE
  5
F6
330
130
100
AcDbEntity
  8
CCD
100
AcDbLine
 10
1.164999999999999
 20
-15.99999999999999
 30
0.0
 11
1.164999999999999
 21
-77.19999999999999
 31
0.0
  0
LINE
  5
FA
330
130
100
AcDbEntity
  8
CCD
100
AcDbLine
 10
76.05815056766883
 20
-11.99999999999999
 30
0.0
 11
84.05815056766883
 21
-12.00000000000001
 31
0.0
  0
LINE
  5
67
330
130
100
AcDbEntity
  8
CCD
100
AcDbLine
 10
3.164999999999999
 20
-11.99999999999999
 30
0.0
 11
11.165
 21
-12.00000000000001
 31
0.0
  0
LINE
  5
FB
330
130
100
AcDbEntity
  8
CCD
100
AcDbLine
 10
76.05815056766883
 20
-11.99999999999999
 30
0.0
 11
74.05815056766883
 21
-15.99999999999999
 31
0.0
  0
LINE
  5
6A
330
130
100
AcDbEntity
  8
CCD
100
AcDbLine
 10
3.164999999999999
 20
-11.99999999999999
 30
0.0
 11
1.164999999999998
 21
-15.99999999999999
 31
0.0
  0
LINE
  5
FC
330
130
100
AcDbEntity
  8
CCD
100
AcDbLine
 10
84.05815056766883
 20
-12.00000000000001
 30
0.0
 11
86.05815056766883
 21
-16.00000000000001
 31
0.0
  0
LINE
  5
6B
330
130
100
AcDbEntity
  8
CCD
100
AcDbLine
 10
11.165
 20
-12.00000000000001
 30
0.0
 11
13.165
 21
-16.00000000000001
 31
0.0
  0
LINE
  5
72
330
130
100
AcDbEntity
  8
CCD
100
AcDbLine
 10
78.47065056766883
 20
61.2
 30
0.0
 11
81.64565056766882
 21
61.2
 31
0.0
  0
LINE
  5
70
330
130
100
AcDbEntity
  8
CCD
100
AcDbLine
 10
13.165
 20
61.2
 30
0.0
 11
13.165
 21
61.2
 31
0.0
  0
LINE
  5
74
330
130
100
AcDbEntity
  8
CCD
100
AcDbLine
 10
78.47065056766884
 20
0.0
 30
0.0
 11
81.64565056766882
 21
0.0
 31
0.0
  0
LINE
  5
6E
330
130
100
AcDbEntity
  8
CCD
100
AcDbLine
 10
78.47065056766883
 20
61.2
 30
0.0
 11
78.47065056766883
 21
0.0
 31
0.0
  0
LINE
  5
6F
330
130
100
AcDbEntity
  8
CCD
100
AcDbLine
 10
81.64565056766882
 20
61.2
 30
0.0
 11
81.64565056766882
 21
-0.0000000000000008
 31
0.0
  0
LINE
  5
9A
330
130
100
AcDbEntity
  8
support
100
AcDbLine
 10
81.64565056766882
 20
53.2
 30
0.0
 11
83.64565056766882
 21
53.2
 31
0.0
  0
LINE
  5
7A
330
130
100
AcDbEntity
  8
support
100
AcDbLine
 10
78.47065056766883
 20
53.2
 30
0.0
 11
78.47065056766883
 21
53.2
 31
0.0
  0
LINE
  5
9B
330
130
100
AcDbEntity
  8
support
100
AcDbLine
 10
81.64565056766882
 20
8.0
 30
0.0
 11
83.64565056766882
 21
8.0
 31
0.0
  0
LINE
  5
7C
330
130
100
AcDbEntity
  8
support
100
AcDbLine
 10
78.47065056766884
 20
8.0
 30
0.0
 11
78.47065056766884
 21
8.0
 31
0.0
  0
LINE
  5
9E
330
130
100
AcDbEntity
  8
support
100
AcDbLine
 10
81.64565056766884
 20
63.2
 30
0.0
 11
87.05815056766883
 21
63.2
 31
0.0
  0
LINE
  5
84
330
130
100
AcDbEntity
  8
support
100
AcDbLine
 10
78.47065056766883
 20
63.2
 30
0.0
 11
78.47065056766883
 21
63.2
 31
0.0
  0
LINE
  5
88
330
130
100
AcDbEntity
  8
support
100
AcDbLine
 10
78.47065056766884
 20
-2.0
 30
0.0
 11
78.47065056766884
 21
-2.0
 31
0.0
  0
LINE
  5
A2
330
130
100
AcDbEntity
  8
support
100
AcDbLine
 10
81.64565056766882
 20
53.2
 30
0.0
 11
81.64565056766882
 21
58.0
 31
0.0
  0
LINE
  5
A1
330
130
100
AcDbEntity
  8
support
100
AcDbLine
 10
81.64565056766882
 20
-2.0
 30
0.0
 11
81.64565056766882
 21
8.0
 31
0.0
  0
LINE
  5
A3
330
130
100
AcDbEntity
  8
support
100
AcDbLine
 10
81.64565056766882
 20
-2.0
 30
0.0
 11
81.64565056766882
 21
8.0
 31
0.0
  0
LINE
  5
8D
330
130
100
AcDbEntity
  8
support
100
AcDbLine
 10
81.64565056766882
 20
53.2
 30
0.0
 11
81.64565056766882
 21
63.2
 31
0.0
  0
LINE
  5
8C
330
130
100
AcDbEntity
  8
support
100
AcDbLine
 10
81.64565056766882
 20
3.200000000000003
 30
0.0
 11
81.64565056766882
 21
8.0
 31
0.0
  0
LINE
  5
A0
330
130
100
AcDbEntity
  8
support
100
AcDbLine
 10
81.64565056766884
 20
53.2
 30
0.0
 11
81.64565056766884
 21
63.20000000000001
 31
0.0
  0
LINE
  5
8F
330
130
100
AcDbEntity
  8
support
100
AcDbLine
 10
83.64565056766884
 20
8.0
 30
0.0
 11
83.64565056766884
 21
53.2
 31
0.0
  0
LINE
  5
DB
330
130
100
AcDbEntity
  8
support
  6
ACAD_ISO04W100
100
AcDbLine
 10
80.05815056766883
 20
-32.77583582942429
 30
0.0
 11
80.05815056766883
 21
15.06217016190283
 31
0.0
  0
LINE
  5
9C
330
130
100
AcDbEntity
  8
support
100
AcDbLine
 10
87.05815056766883
 20
63.2
 30
0.0
 11
87.05815056766883
 21
-11.99999999999999
 31
0.0
  0
LINE
  5
AB
330
130
100
AcDbEntity
  8
support
100
AcDbLine
 10
-2.3
 20
63.2
 30
0.0
 11
13.7
 21
63.2
 31
0.0
  0
LINE
  5
B4
330
130
100
AcDbEntity
  8
support
100
AcDbLine
 10
13.7
 20
-2.0
 30
0.0
 11
-2.300000000000001
 21
-1.999999999999996
 31
0.0
  0
LINE
  5
A7
330
130
100
AcDbEntity
  8
support
100
AcDbLine
 10
13.7
 20
-12.0
 30
0.0
 11
13.7
 21
63.2
 31
0.0
  0
LINE
  5
C5
330
130
100
AcDbEntity
  8
support
100
AcDbLine
 10
81.64565056766881
 20
53.2
 30
0.0
 11
83.64565056766884
 21
53.2
 31
0.0
  0
LINE
  5
BD
330
130
100
AcDbEntity
  8
support
100
AcDbLine
 10
-2.300000000000001
 20
53.2
 30
0.0
 11
13.7
 21
53.2
 31
0.0
  0
LINE
  5
C6
330
130
100
AcDbEntity
  8
support
100
AcDbLine
 10
81.64565056766881
 20
8.0
 30
0.0
 11
83.64565056766884
 21
8.0
 31
0.0
  0
LINE
  5
BF
330
130
100
AcDbEntity
  8
support
100
AcDbLine
 10
-2.3
 20
8.0
 30
0.0
 11
13.7
 21
8.0
 31
0.0
  0
CIRCLE
  5
C7
330
130
100
AcDbEntity
  8
support
100
AcDbCircle
 10
7.164999999999999
 20
59.20000000000001
 30
0.0
 40
1.0
  0
CIRCLE
  5
C8
330
130
100
AcDbEntity
  8
support
100
AcDbCircle
 10
7.164999999999999
 20
2.0
 30
0.0
 40
1.0
  0
LINE
  5
C9
330
130
100
AcDbEntity
  8
support
100
AcDbLine
 10
-2.300000000000001
 20
-12.0
 30
0.0
 11
-2.300000000000001
 21
63.2
 31
0.0
  0
LINE
  5
CF
330
130
100
AcDbEntity
  8
support
100
AcDbLine
 10
73.05815056766883
 20
-2.0
 30
0.0
 11
81.64565056766884
 21
-2.0
 31
0.0
  0
LINE
  5
D0
330
130
100
AcDbEntity
  8
support
100
AcDbLine
 10
73.05815056766883
 20
-2.0
 30
0.0
 11
73.05815056766883
 21
-12.0
 31
0.0
  0
LINE
  5
D7
330
130
100
AcDbEntity
  8
support
  6
ACAD_ISO04W100
100
AcDbLine
 10
73.82537096780868
 20
59.20000000000001
 30
0.0
 11
96.18940842711233
 21
59.20000000000001
 31
0.0
  0
LINE
  5
D9
330
130
100
AcDbEntity
  8
support
  6
ACAD_ISO04W100
100
AcDbLine
 10
73.58489744674091
 20
2.0
 30
0.0
 11
97.15130251138343
 21
2.0
 31
0.0
  0
LINE
  5
DD
330
130
100
AcDbEntity
  8
support
  6
ACAD_ISO02W100
100
AcDbLine
 10
81.64565056766884
 20
58.20000000000002
 30
0.0
 11
87.05815056766882
 21
58.20000000000002
 31
0.0
  0
LINE
  5
DE
330
130
100
AcDbEntity
  8
support
  6
ACAD_ISO02W100
100
AcDbLine
 10
81.64565056766884
 20
60.20000000000002
 30
0.0
 11
87.05815056766882
 21
60.20000000000002
 31
0.0
  0
LINE
  5
E1
330
130
100
AcDbEntity
  8
support
  6
ACAD_ISO02W100
100
AcDbLine
 10
81.64565056766884
 20
3.0
 30
0.0
 11
87.05815056766883
 21
3.0
 31
0.0
  0
LINE
  5
E2
330
130
100
AcDbEntity
  8
support
  6
ACAD_ISO02W100
100
AcDbLine
 10
81.64565056766884
 20
1.0
 30
0.0
 11
87.05815056766883
 21
1.0
 31
0.0
  0
LINE
  5
EF
330
130
100
AcDbEntity
  8
support
  6
ACAD_ISO02W100
100
AcDbLine
 10
9.164999999999992
 20
-12.0
 30
0.0
 11
9.164999999999992
 21
-5.999999999999998
 31
0.0
  0
LINE
  5
E9
330
130
100
AcDbEntity
  8
support
  6
ACAD_ISO02W100
100
AcDbLine
 10
82.05815056766883
 20
-12.0
 30
0.0
 11
82.05815056766883
 21
-6.0
 31
0.0
  0
LINE
  5
F0
330
130
100
AcDbEntity
  8
support
  6
ACAD_ISO02W100
100
AcDbLine
 10
5.164999999999992
 20
-12.0
 30
0.0
 11
5.164999999999992
 21
-5.999999999999998
 31
0.0
  0
LINE
  5
E8
330
130
100
AcDbEntity
  8
support
  6
ACAD_ISO02W100
100
AcDbLine
 10
78.05815056766883
 20
-12.0
 30
0.0
 11
78.05815056766883
 21
-6.0
 31
0.0
  0
LINE
  5
E5
330
130
100
AcDbEntity
  8
support
100
AcDbLine
 10
80.05815056766883
 20
-4.0
 30
0.0
 11
80.05815056766883
 21
-4.0
 31
0.0
  0
LINE
  5
E6
330
130
100
AcDbEntity
  8
support
100
AcDbLine
 10
73.05815056766883
 20
-12.0
 30
0.0
 11
87.05815056766883
 21
-12.0
 31
0.0
  0
LINE
  5
E7
330
130
100
AcDbEntity
  8
support
100
AcDbLine
 10
13.7
 20
-12.0
 30
0.0
 11
-2.300000000000002
 21
-12.0
 31
0.0
  0
LINE
  5
F1
330
130
100
AcDbEntity
  8
support
  6
ACAD_ISO02W100
100
AcDbLine
 10
7.164999999999992
 20
-3.999999999999998
 30
0.0
 11
5.164999999999992
 21
-5.999999999999998
 31
0.0
  0
LINE
  5
EA
330
130
100
AcDbEntity
  8
support
  6
ACAD_ISO02W100
100
AcDbLine
 10
80.05815056766883
 20
-4.0
 30
0.0
 11
78.05815056766883
 21
-6.0
 31
0.0
  0
LINE
  5
F2
330
130
100
AcDbEntity
  8
support
  6
ACAD_ISO02W100
100
AcDbLine
 10
7.164999999999992
 20
-3.999999999999998
 30
0.0
 11
9.164999999999992
 21
-5.999999999999998
 31
0.0
  0
LINE
  5
EB
330
130
100
AcDbEntity
  8
support
  6
ACAD_ISO02W100
100
AcDbLine
 10
80.05815056766883
 20
-4.0
 30
0.0
 11
82.05815056766883
 21
-6.0
 31
0.0
  0
LINE
  5
F3
330
130
100
AcDbEntity
  8
support
  6
ACAD_ISO02W100
100
AcDbLine
 10
5.664999999999992
 20
-12.0
 30
0.0
 11
5.664999999999992
 21
-5.999999999999998
 31
0.0
  0
LINE
  5
EC
330
130
100
AcDbEntity
  8
support
  6
ACAD_ISO02W100
100
AcDbLine
 10
78.55815056766883
 20
-12.0
 30
0.0
 11
78.55815056766883
 21
-6.0
 31
0.0
  0
LINE
  5
F4
330
130
100
AcDbEntity
  8
support
  6
ACAD_ISO02W100
100
AcDbLine
 10
8.664999999999992
 20
-12.0
 30
0.0
 11
8.664999999999992
 21
-5.999999999999998
 31
0.0
  0
LINE
  5
ED
330
130
100
AcDbEntity
  8
support
  6
ACAD_ISO02W100
100
AcDbLine
 10
81.55815056766883
 20
-12.0
 30
0.0
 11
81.55815056766883
 21
-6.0
 31
0.0
  0
LINE
  5
F5
330
130
100
AcDbEntity
  8
support
  6
ACAD_ISO02W100
100
AcDbLine
 10
5.164999999999992
 20
-5.999999999999998
 30
0.0
 11
9.164999999999992
 21
-5.999999999999998
 31
0.0
  0
LINE
  5
EE
330
130
100
AcDbEntity
  8
support
  6
ACAD_ISO02W100
100
AcDbLine
 10
78.05815056766883
 20
-6.0
 30
0.0
 11
82.05815056766883
 21
-6.0
 31
0.0
  0
LINE
  5
FD
330
130
100
AcDbEntity
  8
CCD
100
AcDbLine
 10
86.05815056766883
 20
-15.99999999999999
 30
0.0
 11
86.05815056766883
 21
-77.19999999999999
 31
0.0
  0
LINE
  5
F8
330
130
100
AcDbEntity
  8
CCD
100
AcDbLine
 10
13.165
 20
-15.99999999999999
 30
0.0
 11
13.165
 21
-77.19999999999999
 31
0.0
  0
DIMENSION
  5
102
330
130
100
AcDbEntity
  8
support
100
AcDbDimension
280
     0
  2
*D1
 10
13.7
 20
79.35626195236767
 30
0.0
 11
5.699999999999999
 21
81.23126195236767
 31
0.0
 70
    32
 71
     5
 42
16.0
 73
     0
 74
     0
 75
     0
  3
QCADDimStyle
100
AcDbAlignedDimension
 13
-2.300000000000001
 23
63.2
 33
0.0
 14
13.7
 24
63.2
 34
0.0
100
AcDbRotatedDimension
1001
ACAD
1000
DSTYLE
1002
{
1070
   178
1070
     0
1070
   177
1070
     0
1070
   176
1070
     0
1070
   279
1070
     2
1070
    41
1040
2.5
1070
    79
1070
     2
1070
   271
1070
     1
1070
    44
1040
1.25
1070
    42
1040
0.625
1070
   147
1040
0.625
1070
   140
1040
2.5
1070
    78
1070
     8
1002
}
  0
DIMENSION
  5
103
330
130
100
AcDbEntity
  8
support
100
AcDbDimension
280
     0
  2
*D2
 10
83.64565056766884
 20
46.17091604501391
 30
0.0
 11
74.3801968194723
 21
48.33517773462393
 31
0.0
 70
   160
 71
     5
 42
1.999999999999986
 73
     0
 74
     0
 75
     0
  3
QCADDimStyle
100
AcDbAlignedDimension
 13
81.64565056766885
 23
63.2
 33
0.0
 14
83.64565056766884
 24
53.2
 34
0.0
100
AcDbRotatedDimension
1001
ACAD
1000
DSTYLE
1002
{
1070
   178
1070
     0
1070
   177
1070
     0
1070
   176
1070
     0
1070
   279
1070
     2
1070
    41
1040
2.5
1070
    79
1070
     2
1070
   271
1070
     1
1070
    44
1040
1.25
1070
    42
1040
0.625
1070
   147
1040
0.625
1070
   140
1040
2.5
1070
    78
1070
     8
1002
}
  0
DIMENSION
  5
104
330
130
100
AcDbEntity
  8
support
100
AcDbDimension
280
     0
  2
*D3
 10
87.05815056766883
 20
79.11578843129988
 30
0.0
 11
84.35190056766885
 21
82.55328843129988
 31
0.0
 70
    32
 71
     5
 42
5.41249999999998
 73
     0
 74
     0
 75
     0
  3
QCADDimStyle
100
AcDbAlignedDimension
 13
81.64565056766885
 23
63.2
 33
0.0
 14
87.05815056766883
 24
63.2
 34
0.0
100
AcDbRotatedDimension
1001
ACAD
1000
DSTYLE
1002
{
1070
   178
1070
     0
1070
   177
1070
     0
1070
   176
1070
     0
1070
   279
1070
     2
1070
    41
1040
2.5
1070
    79
1070
     2
1070
   271
1070
     1
1070
    44
1040
1.25
1070
    42
1040
0.625
1070
   147
1040
0.625
1070
   140
1040
2.5
1070
    78
1070
     8
1002
}
  0
DIMENSION
  5
105
330
130
100
AcDbEntity
  8
support
100
AcDbDimension
280
     0
  2
*D4
 10
87.05815056766883
 20
-38.71623689191271
 30
0.0
 11
80.05815056766883
 21
-36.84123689191271
 31
0.0
 70
    32
 71
     5
 42
14.0
 73
     0
 74
     0
 75
     0
  3
QCADDimStyle
100
AcDbAlignedDimension
 13
73.05815056766883
 23
-12.0
 33
0.0
 14
87.05815056766883
 24
-12.0
 34
0.0
100
AcDbRotatedDimension
1001
ACAD
1000
DSTYLE
1002
{
1070
   178
1070
     0
1070
   177
1070
     0
1070
   176
1070
     0
1070
   279
1070
     2
1070
    41
1040
2.5
1070
    79
1070
     2
1070
   271
1070
     1
1070
    44
1040
1.25
1070
    42
1040
0.625
1070
   147
1040
0.625
1070
   140
1040
2.5
1070
    78
1070
     8
1002
}
  0
DIMENSION
  5
106
330
130
100
AcDbEntity
  8
support
100
AcDbDimension
280
     0
  2
*D5
 10
-23.73299977618229
 20
-11.99999999999999
 30
0.0
 11
-25.60799977618228
 21
25.6
 31
0.0
 70
    32
 71
     5
 42
75.2
 73
     0
 74
     0
 75
     0
  3
QCADDimStyle
100
AcDbAlignedDimension
 13
-2.300000000000001
 23
63.2
 33
0.0
 14
-2.300000000000001
 24
-12.0
 34
0.0
 50
90.0
100
AcDbRotatedDimension
1001
ACAD
1000
DSTYLE
1002
{
1070
   178
1070
     0
1070
   177
1070
     0
1070
   176
1070
     0
1070
   279
1070
     2
1070
    41
1040
2.5
1070
    79
1070
     2
1070
   271
1070
     1
1070
    44
1040
1.25
1070
    42
1040
0.625
1070
   147
1040
0.625
1070
   140
1040
2.5
1070
    78
1070
     8
1002
}
  0
DIMENSION
  5
107
330
130
100
AcDbEntity
  8
support
100
AcDbDimension
280
     0
  2
*D6
 10
-15.07595301774217
 20
-1.999999999999996
 30
0.0
 11
-16.95095301774217
 21
-6.999999999999995
 31
0.0
 70
    32
 71
     5
 42
10.0
 73
     0
 74
     0
 75
     0
  3
QCADDimStyle
100
AcDbAlignedDimension
 13
-2.300000000000001
 23
-12.0
 33
0.0
 14
-2.300000000000001
 24
-1.999999999999996
 34
0.0
 50
90.0
100
AcDbRotatedDimension
1001
ACAD
1000
DSTYLE
1002
{
1070
   178
1070
     0
1070
   177
1070
     0
1070
   176
1070
     0
1070
   279
1070
     2
1070
    41
1040
2.5
1070
    79
1070
     2
1070
   271
1070
     1
1070
    44
1040
1.25
1070
    42
1040
0.625
1070
   147
1040
0.625
1070
   140
1040
2.5
1070
    78
1070
     8
1002
}
  0
DIMENSION
  5
108
330
130
100
AcDbEntity
  8
support
100
AcDbDimension
280
     0
  2
*D7
 10
-6.899853301437616
 20
8.0
 30
0.0
 11
-8.774853301437616
 21
-1.999999999999998
 31
0.0
 70
    32
 71
     5
 42
20.0
 73
     0
 74
     0
 75
     0
  3
QCADDimStyle
100
AcDbAlignedDimension
 13
-2.300000000000001
 23
-12.0
 33
0.0
 14
-2.300000000000001
 24
8.0
 34
0.0
 50
90.0
100
AcDbRotatedDimension
1001
ACAD
1000
DSTYLE
1002
{
1070
   178
1070
     0
1070
   177
1070
     0
1070
   176
1070
     0
1070
   279
1070
     2
1070
    41
1040
2.5
1070
    79
1070
     2
1070
   271
1070
     1
1070
    44
1040
1.25
1070
    42
1040
0.625
1070
   147
1040
0.625
1070
   140
1040
2.5
1070
    78
1070
     8
1002
}
  0
DIMENSION
  5
109
330
130
100
AcDbEntity
  8
support
100
AcDbDimension
280
     0
  2
*D8
 10
-15.07595301774217
 20
53.2
 30
0.0
 11
-16.95095301774217
 21
58.2
 31
0.0
 70
    32
 71
     5
 42
10.0
 73
     0
 74
     0
 75
     0
  3
QCADDimStyle
100
AcDbAlignedDimension
 13
-2.300000000000001
 23
63.2
 33
0.0
 14
-2.300000000000001
 24
53.2
 34
0.0
 50
90.0
100
AcDbRotatedDimension
1001
ACAD
1000
DSTYLE
1002
{
1070
   178
1070
     0
1070
   177
1070
     0
1070
   176
1070
     0
1070
   279
1070
     2
1070
    41
1040
2.5
1070
    79
1070
     2
1070
   271
1070
     1
1070
    44
1040
1.25
1070
    42
1040
0.625
1070
   147
1040
0.625
1070
   140
1040
2.5
1070
    78
1070
     8
1002
}
  0
DIMENSION
  5
10A
330
130
100
AcDbEntity
  8
support
100
AcDbDimension
280
     0
  2
*D9
 10
7.164999999999999
 20
-23.08545802250697
 30
0.0
 11
10.4325
 21
-21.21045802250697
 31
0.0
 70
    32
 71
     5
 42
6.535
 73
     0
 74
     0
 75
     0
  3
QCADDimStyle
100
AcDbAlignedDimension
 13
13.7
 23
-12.0
 33
0.0
 14
7.164999999999999
 24
-12.0
 34
0.0
100
AcDbRotatedDimension
1001
ACAD
1000
DSTYLE
1002
{
1070
   178
1070
     0
1070
   177
1070
     0
1070
   176
1070
     0
1070
   279
1070
     2
1070
    41
1040
2.5
1070
    79
1070
     2
1070
   271
1070
     1
1070
    44
1040
1.25
1070
    42
1040
0.625
1070
   147
1040
0.625
1070
   140
1040
2.5
1070
    78
1070
     8
1002
}
  0
DIMENSION
  5
10B
330
130
100
AcDbEntity
  8
support
100
AcDbDimension
280
     0
  2
*D10
 10
18.42906772073657
 20
59.20000000000001
 30
0.0
 11
16.55406772073657
 21
61.2
 31
0.0
 70
    32
 71
     5
 42
3.999999999999993
 73
     0
 74
     0
 75
     0
  3
QCADDimStyle
100
AcDbAlignedDimension
 13
7.164999999999999
 23
63.2
 33
0.0
 14
7.164999999999999
 24
59.20000000000001
 34
0.0
 50
90.0
100
AcDbRotatedDimension
1001
ACAD
1000
DSTYLE
1002
{
1070
   178
1070
     0
1070
   177
1070
     0
1070
   176
1070
     0
1070
   279
1070
     2
1070
    41
1040
2.5
1070
    79
1070
     2
1070
   271
1070
     1
1070
    44
1040
1.25
1070
    42
1040
0.625
1070
   147
1040
0.625
1070
   140
1040
2.5
1070
    78
1070
     8
1002
}
  0
DIMENSION
  5
10C
330
130
100
AcDbEntity
  8
support
100
AcDbDimension
280
     0
  2
*D11
 10
18.41622274458652
 20
1.999999999999999
 30
0.0
 11
16.54122274458652
 21
0.0
 31
0.0
 70
    32
 71
     5
 42
3.999999999999998
 73
     0
 74
     0
 75
     0
  3
QCADDimStyle
100
AcDbAlignedDimension
 13
7.164999999999999
 23
-1.999999999999998
 33
0.0
 14
7.164999999999999
 24
2.0
 34
0.0
 50
90.0
100
AcDbRotatedDimension
1001
ACAD
1000
DSTYLE
1002
{
1070
   178
1070
     0
1070
   177
1070
     0
1070
   176
1070
     0
1070
   279
1070
     2
1070
    41
1040
2.5
1070
    79
1070
     2
1070
   271
1070
     1
1070
    44
1040
1.25
1070
    42
1040
0.625
1070
   147
1040
0.625
1070
   140
1040
2.5
1070
    78
1070
     8
1002
}
  0
LEADER
  5
10E
330
130
100
AcDbEntity
  8
support
100
AcDbLeader
  3
QCADDimStyle
 76
     3
 10
7.789999999999999
 20
59.20000000000001
 30
0.0
 10
20.0
 20
80.0
 30
0.0
 10
60.0
 20
80.0
 30
0.0
  0
MTEXT
  5
10F
330
130
100
AcDbEntity
  8
support
100
AcDbMText
 10
24.09476522385683
 20
86.22418571406348
 30
0.0
 40
3.0
 41
0.0
 46
0.0
 71
     4
 72
     1
  1
2 trous M2 débouchant
  7
textstyle11
 73
     1
 44
1.0
  0
LEADER
  5
110
330
130
100
AcDbEntity
  8
support
100
AcDbLeader
  3
QCADDimStyle
 76
     3
 10
7.164999999999999
 20
-12.0
 30
0.0
 10
-10.0
 20
-30.0
 30
0.0
 10
-53.30308037293486
 20
-30.05919013347261
 30
0.0
  0
MTEXT
  5
111
330
130
100
AcDbEntity
  8
support
100
AcDbMText
 10
-52.91062758655231
 20
-24.93074494606063
 30
0.0
 40
3.0
 41
0.0
 46
0.0
 71
     4
 72
     1
  1
1 trou M4 profondeur 8
  7
textstyle12
 73
     1
 44
1.0
  0
ENDSEC
  0
SECTION
  2
OBJECTS
  0
DICTIONARY
  5
11E
330
0
100
AcDbDictionary
281
     1
  3
ACAD_DETAILVIEWSTYLE
350
284
  3
ACAD_GROUP
350
11F
  3
ACAD_LAYOUT
350
12B
  3
ACAD_MATERIAL
350
154
  3
ACAD_MLEADERSTYLE
350
17C
  3
ACAD_MLINESTYLE
350
128
  3
ACAD_PLOTSETTINGS
350
12A
  3
ACAD_PLOTSTYLENAME
350
120
  3
ACAD_SCALELIST
350
158
  3
ACAD_SECTIONVIEWSTYLE
350
285
  3
ACAD_TABLESTYLE
350
17A
  3
ACAD_VISUALSTYLE
350
13B
  3
AcDbVariableDictionary
350
27D
  3
ACDB_RECOMPOSE_DATA
350
281
  3
QCAD_OBJECTS
350
180
  0
SUN
  5
17E
330
13A
100
AcDbSun
 90
        1
290
     0
 63
     7
421
 16777215
 40
1.0
291
     1
 91
  2455826
 92
 54000000
292
     0
 70
     2
 71
   256
280
     1
  0
DICTIONARY
  5
284
102
{ACAD_REACTORS
330
11E
102
}
330
11E
100
AcDbDictionary
281
     1
  0
DICTIONARY
  5
11F
102
{ACAD_REACTORS
330
11E
102
}
330
11E
100
AcDbDictionary
281
     1
  0
DICTIONARY
  5
12B
102
{ACAD_REACTORS
330
11E
102
}
330
11E
100
AcDbDictionary
281
     1
  3
Layout1
350
12F
  3
Layout2
350
137
  3
Model
350
133
  0
DICTIONARY
  5
154
102
{ACAD_REACTORS
330
11E
102
}
330
11E
100
AcDbDictionary
281
     1
  3
ByBlock
350
156
  3
ByLayer
350
155
  3
Global
350
157
  0
DICTIONARY
  5
17C
102
{ACAD_REACTORS
330
11E
102
}
330
11E
100
AcDbDictionary
281
     1
  3
Standard
350
17D
  0
DICTIONARY
  5
128
102
{ACAD_REACTORS
330
11E
102
}
330
11E
100
AcDbDictionary
281
     1
  3
Standard
350
129
  0
DICTIONARY
  5
12A
102
{ACAD_REACTORS
330
11E
102
}
330
11E
100
AcDbDictionary
281
     1
  0
ACDBDICTIONARYWDFLT
  5
120
102
{ACAD_REACTORS
330
11E
102
}
330
11E
100
AcDbDictionary
281
     1
  3
Normal
350
121
100
AcDbDictionaryWithDefault
340
121
  0
DICTIONARY
  5
158
102
{ACAD_REACTORS
330
11E
102
}
330
11E
100
AcDbDictionary
281
     1
  3
A0
350
159
  3
A1
350
15A
  3
A2
350
15B
  3
A3
350
15C
  3
A4
350
15D
  3
A5
350
15E
  3
A6
350
15F
  3
A7
350
160
  3
A8
350
161
  3
A9
350
162
  3
B0
350
163
  3
B1
350
164
  3
B2
350
165
  3
B3
350
166
  3
B4
350
167
  3
B5
350
168
  3
B6
350
169
  3
B7
350
16A
  3
B8
350
16B
  3
B9
350
16C
  3
C0
350
16D
  3
C1
350
16E
  3
C2
350
16F
  3
C3
350
170
  3
C4
350
171
  3
C5
350
172
  3
C6
350
173
  3
C7
350
174
  3
C8
350
175
  3
C9
350
176
  3
D0
350
177
  3
D1
350
178
  3
D2
350
179
  0
DICTIONARY
  5
285
102
{ACAD_REACTORS
330
11E
102
}
330
11E
100
AcDbDictionary
281
     1
  0
DICTIONARY
  5
17A
102
{ACAD_REACTORS
330
11E
102
}
330
11E
100
AcDbDictionary
281
     1
  3
Standard
350
17B
  0
DICTIONARY
  5
13B
102
{ACAD_REACTORS
330
11E
102
}
330
11E
100
AcDbDictionary
281
     1
  3
2dWireframe
350
140
  3
Basic
350
143
  3
Brighten
350
147
  3
ColorChange
350
14B
  3
Conceptual
350
145
  3
Dim
350
146
  3
EdgeColorOff
350
14E
  3
Facepattern
350
14A
  3
Flat
350
13C
  3
FlatWithEdges
350
13D
  3
Gouraud
350
13E
  3
GouraudWithEdges
350
13F
  3
Hidden
350
142
  3
JitterOff
350
14C
  3
Linepattern
350
149
  3
OverhangOff
350
14D
  3
Realistic
350
144
  3
Shaded
350
153
  3
Shaded with edges
350
152
  3
Shades of Gray
350
14F
  3
Sketchy
350
150
  3
Thicken
350
148
  3
Wireframe
350
141
  3
X-Ray
350
151
  0
DICTIONARY
  5
27D
102
{ACAD_REACTORS
330
11E
102
}
330
11E
100
AcDbDictionary
281
     1
  3
CANNOSCALE
350
27E
  3
CMLEADERSTYLE
350
283
  3
CTABLESTYLE
350
282
  0
XRECORD
  5
281
102
{ACAD_REACTORS
330
11E
102
}
330
11E
100
AcDbXrecord
280
     1
 90
        1
330
17B
  0
DICTIONARY
  5
180
102
{ACAD_REACTORS
330
11E
102
}
330
11E
100
AcDbDictionary
281
     1
  3
ColorSettings/BackgroundColor
350
182
  3
ColorSettings/ColorMode
350
183
  3
DimensionSettings/AngularFormat
350
184
  3
DimensionSettings/AngularPrecision
350
185
  3
DimensionSettings/DimensionFont
350
186
  3
DimensionSettings/KeepProportions
350
187
  3
DimensionSettings/LinearFormat
350
188
  3
DimensionSettings/LinearPrecision
350
189
  3
Grid/DisplayGrid00
350
18A
  3
Grid/DisplayGrid01
350
18B
  3
Grid/DisplayGrid02
350
18C
  3
Grid/DisplayGrid03
350
18D
  3
Grid/GridSpacingX00
350
18E
  3
Grid/GridSpacingX01
350
18F
  3
Grid/GridSpacingX02
350
190
  3
Grid/GridSpacingX03
350
191
  3
Grid/GridSpacingY00
350
192
  3
Grid/GridSpacingY01
350
193
  3
Grid/GridSpacingY02
350
194
  3
Grid/GridSpacingY03
350
195
  3
Grid/IsometricGrid00
350
196
  3
Grid/IsometricGrid01
350
197
  3
Grid/IsometricGrid02
350
198
  3
Grid/IsometricGrid03
350
199
  3
Grid/IsometricProjection00
350
19A
  3
Grid/IsometricProjection01
350
19B
  3
Grid/IsometricProjection02
350
19C
  3
Grid/IsometricProjection03
350
19D
  3
Grid/MetaGridSpacingX00
350
19E
  3
Grid/MetaGridSpacingX01
350
19F
  3
Grid/MetaGridSpacingX02
350
1A0
  3
Grid/MetaGridSpacingX03
350
1A1
  3
Grid/MetaGridSpacingY00
350
1A2
  3
Grid/MetaGridSpacingY01
350
1A3
  3
Grid/MetaGridSpacingY02
350
1A4
  3
Grid/MetaGridSpacingY03
350
1A5
  3
MultiPageSettings/Columns
350
1A6
  3
MultiPageSettings/GlueMarginsBottom
350
1A7
  3
MultiPageSettings/GlueMarginsLeft
350
1A8
  3
MultiPageSettings/GlueMarginsRight
350
1A9
  3
MultiPageSettings/GlueMarginsTop
350
1AA
  3
MultiPageSettings/PrintCropMarks
350
1AB
  3
MultiPageSettings/Rows
350
1AC
  3
PageSettings/OffsetX
350
1AD
  3
PageSettings/OffsetY
350
1AE
  3
PageSettings/PageOrientation
350
1AF
  3
PageSettings/PaperHeight
350
1B0
  3
PageSettings/PaperWidth
350
1B1
  3
PageSettings/Scale
350
1B2
  3
PageSettings/ShowPaperBorders
350
1B3
  3
QCADVersion
350
181
  3
UnitSettings/PaperUnit
350
1B4
  0
LAYOUT
  5
12F
102
{ACAD_REACTORS
330
12B
102
}
330
12B
100
AcDbPlotSettings
  1

  2
none_device
  4

  6

 40
0.0
 41
0.0
 42
0.0
 43
0.0
 44
0.0
 45
0.0
 46
0.0
 47
0.0
 48
0.0
 49
0.0
140
0.0
141
0.0
142
1.0
143
1.0
 70
   688
 72
     0
 73
     0
 74
     5
  7

 75
    16
 76
     0
 77
     2
 78
   300
147
1.0
148
0.0
149
0.0
100
AcDbLayout
  1
Layout1
 70
     1
 71
     1
 10
0.0
 20
0.0
 11
12.0
 21
9.0
 12
0.0
 22
0.0
 32
0.0
 14
1.000000000000000E+20
 24
1.000000000000000E+20
 34
1.000000000000000E+20
 15
-1.000000000000000E+20
 25
-1.000000000000000E+20
 35
-1.000000000000000E+20
146
0.0
 13
0.0
 23
0.0
 33
0.0
 16
1.0
 26
0.0
 36
0.0
 17
0.0
 27
1.0
 37
0.0
 76
     0
330
12C
  0
LAYOUT
  5
137
102
{ACAD_REACTORS
330
12B
102
}
330
12B
100
AcDbPlotSettings
  1

  2
none_device
  4

  6

 40
0.0
 41
0.0
 42
0.0
 43
0.0
 44
0.0
 45
0.0
 46
0.0
 47
0.0
 48
0.0
 49
0.0
140
0.0
141
0.0
142
1.0
143
1.0
 70
   688
 72
     0
 73
     0
 74
     5
  7

 75
    16
 76
     0
 77
     2
 78
   300
147
1.0
148
0.0
149
0.0
100
AcDbLayout
  1
Layout2
 70
     1
 71
     2
 10
0.0
 20
0.0
 11
0.0
 21
0.0
 12
0.0
 22
0.0
 32
0.0
 14
0.0
 24
0.0
 34
0.0
 15
0.0
 25
0.0
 35
0.0
146
0.0
 13
0.0
 23
0.0
 33
0.0
 16
1.0
 26
0.0
 36
0.0
 17
0.0
 27
1.0
 37
0.0
 76
     0
330
134
  0
LAYOUT
  5
133
102
{ACAD_REACTORS
330
12B
102
}
330
12B
100
AcDbPlotSettings
  1

  2
none_device
  4
Letter_(8.50_x_11.00_Inches)
  6

 40
6.35
 41
6.35
 42
6.35000508
 43
6.35000508
 44
215.9
 45
279.4
 46
0.0
 47
0.0
 48
0.0
 49
0.0
140
0.0
141
0.0
142
1.0
143
1.0
 70
  1712
 72
     0
 73
     0
 74
     0
  7

 75
     0
 76
     0
 77
     2
 78
   300
147
1.0
148
0.0
149
0.0
100
AcDbLayout
  1
Model
 70
     1
 71
     0
 10
0.0
 20
0.0
 11
12.0
 21
9.0
 12
0.0
 22
0.0
 32
0.0
 14
1.000000000000000E+20
 24
1.000000000000000E+20
 34
1.000000000000000E+20
 15
-1.000000000000000E+20
 25
-1.000000000000000E+20
 35
-1.000000000000000E+20
146
0.0
 13
0.0
 23
0.0
 33
0.0
 16
1.0
 26
0.0
 36
0.0
 17
0.0
 27
1.0
 37
0.0
 76
     0
330
130
331
13A
  0
MATERIAL
  5
156
102
{ACAD_REACTORS
330
154
102
}
330
154
100
AcDbMaterial
  1
ByBlock
 72
     1
 94
      127
  0
MATERIAL
  5
155
102
{ACAD_REACTORS
330
154
102
}
330
154
100
AcDbMaterial
  1
ByLayer
 72
     1
 94
      127
  0
MATERIAL
  5
157
102
{ACAD_REACTORS
330
154
102
}
330
154
100
AcDbMaterial
  1
Global
 72
     1
 94
      127
  0
MLEADERSTYLE
  5
17D
102
{ACAD_REACTORS
330
17C
102
}
330
17C
100
AcDbMLeaderStyle
179
     2
170
     2
171
     1
172
     0
 90
        2
 40
0.0
 41
0.0
173
     1
 91
-1056964608
340
125
 92
       -2
290
     1
 42
0.09
291
     1
 43
0.36
  3
Standard
341
0
 44
0.18
300

342
123
174
     1
178
     6
175
     1
176
     0
 93
-1056964608
 45
0.18
292
     0
297
     0
 46
0.18
343
0
 94
-1056964608
 47
1.0
 49
1.0
140
1.0
293
     1
141
0.0
294
     1
177
     0
142
1.0
295
     0
296
     0
143
0.125
271
     0
272
     9
273
     9
298
     0
  0
MLINESTYLE
  5
129
102
{ACAD_REACTORS
330
128
102
}
330
128
100
AcDbMlineStyle
  2
Standard
 70
     0
  3

 62
   256
 51
90.0
 52
90.0
 71
     2
 49
0.5
 62
   256
  6
BYLAYER
 49
-0.5
 62
   256
  6
BYLAYER
  0
ACDBPLACEHOLDER
  5
121
102
{ACAD_REACTORS
330
120
102
}
330
120
  0
SCALE
  5
159
102
{ACAD_REACTORS
330
158
102
}
330
158
100
AcDbScale
 70
     0
300
1:1
140
1.0
141
1.0
290
     1
  0
SCALE
  5
15A
102
{ACAD_REACTORS
330
158
102
}
330
158
100
AcDbScale
 70
     0
300
1:2
140
1.0
141
2.0
290
     0
  0
SCALE
  5
15B
102
{ACAD_REACTORS
330
158
102
}
330
158
100
AcDbScale
 70
     0
300
1:4
140
1.0
141
4.0
290
     0
  0
SCALE
  5
15C
102
{ACAD_REACTORS
330
158
102
}
330
158
100
AcDbScale
 70
     0
300
1:5
140
1.0
141
5.0
290
     0
  0
SCALE
  5
15D
102
{ACAD_REACTORS
330
158
102
}
330
158
100
AcDbScale
 70
     0
300
1:8
140
1.0
141
8.0
290
     0
  0
SCALE
  5
15E
102
{ACAD_REACTORS
330
158
102
}
330
158
100
AcDbScale
 70
     0
300
1:10
140
1.0
141
10.0
290
     0
  0
SCALE
  5
15F
102
{ACAD_REACTORS
330
158
102
}
330
158
100
AcDbScale
 70
     0
300
1:16
140
1.0
141
16.0
290
     0
  0
SCALE
  5
160
102
{ACAD_REACTORS
330
158
102
}
330
158
100
AcDbScale
 70
     0
300
1:20
140
1.0
141
20.0
290
     0
  0
SCALE
  5
161
102
{ACAD_REACTORS
330
158
102
}
330
158
100
AcDbScale
 70
     0
300
1:30
140
1.0
141
30.0
290
     0
  0
SCALE
  5
162
102
{ACAD_REACTORS
330
158
102
}
330
158
100
AcDbScale
 70
     0
300
1:40
140
1.0
141
40.0
290
     0
  0
SCALE
  5
163
102
{ACAD_REACTORS
330
158
102
}
330
158
100
AcDbScale
 70
     0
300
1:50
140
1.0
141
50.0
290
     0
  0
SCALE
  5
164
102
{ACAD_REACTORS
330
158
102
}
330
158
100
AcDbScale
 70
     0
300
1:100
140
1.0
141
100.0
290
     0
  0
SCALE
  5
165
102
{ACAD_REACTORS
330
158
102
}
330
158
100
AcDbScale
 70
     0
300
2:1
140
2.0
141
1.0
290
     0
  0
SCALE
  5
166
102
{ACAD_REACTORS
330
158
102
}
330
158
100
AcDbScale
 70
     0
300
4:1
140
4.0
141
1.0
290
     0
  0
SCALE
  5
167
102
{ACAD_REACTORS
330
158
102
}
330
158
100
AcDbScale
 70
     0
300
8:1
140
8.0
141
1.0
290
     0
  0
SCALE
  5
168
102
{ACAD_REACTORS
330
158
102
}
330
158
100
AcDbScale
 70
     0
300
10:1
140
10.0
141
1.0
290
     0
  0
SCALE
  5
169
102
{ACAD_REACTORS
330
158
102
}
330
158
100
AcDbScale
 70
     0
300
100:1
140
100.0
141
1.0
290
     0
  0
SCALE
  5
16A
102
{ACAD_REACTORS
330
158
102
}
330
158
100
AcDbScale
 70
     0
300
1/128" = 1'-0"
140
0.0078125
141
12.0
290
     0
  0
SCALE
  5
16B
102
{ACAD_REACTORS
330
158
102
}
330
158
100
AcDbScale
 70
     0
300
1/64" = 1'-0"
140
0.015625
141
12.0
290
     0
  0
SCALE
  5
16C
102
{ACAD_REACTORS
330
158
102
}
330
158
100
AcDbScale
 70
     0
300
1/32" = 1'-0"
140
0.03125
141
12.0
290
     0
  0
SCALE
  5
16D
102
{ACAD_REACTORS
330
158
102
}
330
158
100
AcDbScale
 70
     0
300
1/16" = 1'-0"
140
0.0625
141
12.0
290
     0
  0
SCALE
  5
16E
102
{ACAD_REACTORS
330
158
102
}
330
158
100
AcDbScale
 70
     0
300
3/32" = 1'-0"
140
0.09375
141
12.0
290
     0
  0
SCALE
  5
16F
102
{ACAD_REACTORS
330
158
102
}
330
158
100
AcDbScale
 70
     0
300
1/8" = 1'-0"
140
0.125
141
12.0
290
     0
  0
SCALE
  5
170
102
{ACAD_REACTORS
330
158
102
}
330
158
100
AcDbScale
 70
     0
300
3/16" = 1'-0"
140
0.1875
141
12.0
290
     0
  0
SCALE
  5
171
102
{ACAD_REACTORS
330
158
102
}
330
158
100
AcDbScale
 70
     0
300
1/4" = 1'-0"
140
0.25
141
12.0
290
     0
  0
SCALE
  5
172
102
{ACAD_REACTORS
330
158
102
}
330
158
100
AcDbScale
 70
     0
300
3/8" = 1'-0"
140
0.375
141
12.0
290
     0
  0
SCALE
  5
173
102
{ACAD_REACTORS
330
158
102
}
330
158
100
AcDbScale
 70
     0
300
1/2" = 1'-0"
140
0.5
141
12.0
290
     0
  0
SCALE
  5
174
102
{ACAD_REACTORS
330
158
102
}
330
158
100
AcDbScale
 70
     0
300
3/4" = 1'-0"
140
0.75
141
12.0
290
     0
  0
SCALE
  5
175
102
{ACAD_REACTORS
330
158
102
}
330
158
100
AcDbScale
 70
     0
300
1" = 1'-0"
140
1.0
141
12.0
290
     0
  0
SCALE
  5
176
102
{ACAD_REACTORS
330
158
102
}
330
158
100
AcDbScale
 70
     0
300
1-1/2" = 1'-0"
140
1.5
141
12.0
290
     0
  0
SCALE
  5
177
102
{ACAD_REACTORS
330
158
102
}
330
158
100
AcDbScale
 70
     0
300
3" = 1'-0"
140
3.0
141
12.0
290
     0
  0
SCALE
  5
178
102
{ACAD_REACTORS
330
158
102
}
330
158
100
AcDbScale
 70
     0
300
6" = 1'-0"
140
6.0
141
12.0
290
     0
  0
SCALE
  5
179
102
{ACAD_REACTORS
330
158
102
}
330
158
100
AcDbScale
 70
     0
300
1'-0" = 1'-0"
140
12.0
141
12.0
290
     0
  0
TABLESTYLE
  5
17B
102
{ACAD_REACTORS
330
17A
102
}
102
{ACAD_XDICTIONARY
360
27F
102
}
330
17A
100
AcDbTableStyle
  3
Standard
 70
     0
 71
     0
 40
0.06
 41
0.06
280
     0
281
     0
  7
Standard
140
0.18
170
     2
 62
     0
 63
   257
283
     0
 90
        4
 91
        0
  1

274
    -2
284
     1
 64
     0
275
    -2
285
     1
 65
     0
276
    -2
286
     1
 66
     0
277
    -2
287
     1
 67
     0
278
    -2
288
     1
 68
     0
279
    -2
289
     1
 69
     0
  7
Standard
140
0.25
170
     5
 62
     0
 63
   257
283
     0
 90
        4
 91
        0
  1

274
    -2
284
     1
 64
     0
275
    -2
285
     1
 65
     0
276
    -2
286
     1
 66
     0
277
    -2
287
     1
 67
     0
278
    -2
288
     1
 68
     0
279
    -2
289
     1
 69
     0
  7
Standard
140
0.18
170
     5
 62
     0
 63
   257
283
     0
 90
        4
 91
        0
  1

274
    -2
284
     1
 64
     0
275
    -2
285
     1
 65
     0
276
    -2
286
     1
 66
     0
277
    -2
287
     1
 67
     0
278
    -2
288
     1
 68
     0
279
    -2
289
     1
 69
     0
  0
VISUALSTYLE
  5
140
102
{ACAD_REACTORS
330
13B
102
}
330
13B
100
AcDbVisualStyle
  2
2dWireframe
 70
     4
177
     3
291
     0
 70
    58
 90
        0
176
     1
 90
        2
176
     1
 90
        0
176
     1
 90
        0
176
     1
 40
0.6
176
     1
 40
30.0
176
     1
 62
     7
420
 16777215
176
     1
 90
        1
176
     1
 90
        4
176
     1
 62
     7
176
     1
 62
   257
176
     1
 90
        1
176
     1
 90
        1
176
     1
 40
1.0
176
     1
 90
        0
176
     1
 62
   257
176
     1
 40
1.0
176
     1
 90
        1
176
     1
 90
        6
176
     1
 90
        2
176
     1
 62
     7
176
     1
 90
        5
176
     1
 90
        0
176
     1
 90
        0
176
     1
290
     0
176
     1
 90
        1
176
     1
 40
0.0
176
     1
 90
        0
176
     1
290
     1
176
     1
290
     1
176
     1
290
     0
176
     1
290
     0
176
     1
290
     0
176
     1
290
     0
176
     1
290
     0
176
     1
290
     0
176
     1
290
     0
176
     1
 90
       50
176
     1
 40
0.0
176
     1
 40
1.0
176
     1
 90
        0
176
     1
 62
   178
420
        0
176
     1
 90
       50
176
     1
 90
        3
176
     1
 62
     5
420
      255
176
     1
290
     0
176
     1
 90
       50
176
     1
 90
       50
176
     1
 90
       50
176
     1
290
     0
176
     1
 90
       50
176
     1
 62
   256
176
     0
 40
1.0
176
     0
 90
        2
176
     1
  1
strokes_ogs.tif
176
     1
290
     0
176
     1
 40
1.0
176
     1
 40
1.0
176
     1
  0
VISUALSTYLE
  5
143
102
{ACAD_REACTORS
330
13B
102
}
330
13B
100
AcDbVisualStyle
  2
Basic
 70
     7
177
     3
291
     1
 70
    58
 90
        1
176
     1
 90
        0
176
     1
 90
        1
176
     1
 90
        0
176
     1
 40
0.6
176
     1
 40
30.0
176
     1
 62
     7
420
 16777215
176
     1
 90
        0
176
     1
 90
        4
176
     1
 62
     7
176
     1
 62
   257
176
     1
 90
        1
176
     1
 90
        1
176
     1
 40
1.0
176
     1
 90
        8
176
     1
 62
     7
176
     1
 40
1.0
176
     1
 90
        1
176
     1
 90
        6
176
     1
 90
        2
176
     1
 62
     7
176
     1
 90
        5
176
     1
 90
        0
176
     1
 90
        0
176
     1
290
     0
176
     1
 90
        1
176
     1
 40
0.0
176
     1
 90
        0
176
     1
290
     0
176
     1
290
     1
176
     1
290
     1
176
     1
290
     0
176
     1
290
     0
176
     1
290
     0
176
     1
290
     0
176
     1
290
     0
176
     1
290
     0
176
     1
 90
       50
176
     1
 40
0.0
176
     1
 40
1.0
176
     1
 90
        0
176
     1
 62
   178
420
        0
176
     1
 90
       50
176
     1
 90
        3
176
     1
 62
     5
420
      255
176
     1
290
     0
176
     1
 90
       50
176
     1
 90
       50
176
     1
 90
       50
176
     1
290
     0
176
     1
 90
       50
176
     1
 62
   256
176
     0
 40
1.0
176
     0
 90
        2
176
     1
  1
strokes_ogs.tif
176
     1
290
     0
176
     1
 40
1.0
176
     1
 40
1.0
176
     1
  0
VISUALSTYLE
  5
147
102
{ACAD_REACTORS
330
13B
102
}
330
13B
100
AcDbVisualStyle
  2
Brighten
 70
    12
177
     3
291
     1
 70
    58
 90
        2
176
     1
 90
        2
176
     1
 90
        0
176
     1
 90
        0
176
     1
 40
0.6
176
     1
 40
30.0
176
     1
 62
     7
420
 16777215
176
     1
 90
        1
176
     1
 90
        4
176
     1
 62
     7
176
     1
 62
   257
176
     1
 90
        1
176
     1
 90
        1
176
     1
 40
1.0
176
     1
 90
        8
176
     1
 62
     7
176
     1
 40
1.0
176
     1
 90
        1
176
     1
 90
        6
176
     1
 90
        2
176
     1
 62
     7
176
     1
 90
        5
176
     1
 90
        0
176
     1
 90
        0
176
     1
290
     0
176
     1
 90
        1
176
     1
 40
50.0
176
     1
 90
        0
176
     1
290
     0
176
     1
290
     1
176
     1
290
     1
176
     1
290
     0
176
     1
290
     0
176
     1
290
     0
176
     1
290
     0
176
     1
290
     0
176
     1
290
     0
176
     1
 90
       50
176
     1
 40
0.0
176
     1
 40
1.0
176
     1
 90
        0
176
     1
 62
   178
420
        0
176
     1
 90
       50
176
     1
 90
        3
176
     1
 62
     5
420
      255
176
     1
290
     0
176
     1
 90
       50
176
     1
 90
       50
176
     1
 90
       50
176
     1
290
     0
176
     1
 90
       50
176
     1
 62
   256
176
     0
 40
1.0
176
     0
 90
        2
176
     1
  1
strokes_ogs.tif
176
     1
290
     0
176
     1
 40
1.0
176
     1
 40
1.0
176
     1
  0
VISUALSTYLE
  5
14B
102
{ACAD_REACTORS
330
13B
102
}
330
13B
100
AcDbVisualStyle
  2
ColorChange
 70
    16
177
     3
291
     1
 70
    58
 90
        2
176
     1
 90
        2
176
     1
 90
        3
176
     1
 90
        0
176
     1
 40
0.6
176
     1
 40
30.0
176
     1
 62
     8
420
  8421504
176
     1
 90
        1
176
     1
 90
        4
176
     1
 62
     7
176
     1
 62
   257
176
     1
 90
        1
176
     1
 90
        1
176
     1
 40
1.0
176
     1
 90
        8
176
     1
 62
     8
420
  8421504
176
     1
 40
1.0
176
     1
 90
        1
176
     1
 90
        6
176
     1
 90
        2
176
     1
 62
     7
176
     1
 90
        5
176
     1
 90
        0
176
     1
 90
        0
176
     1
290
     0
176
     1
 90
        1
176
     1
 40
0.0
176
     1
 90
        0
176
     1
290
     0
176
     1
290
     1
176
     1
290
     1
176
     1
290
     0
176
     1
290
     0
176
     1
290
     0
176
     1
290
     0
176
     1
290
     0
176
     1
290
     0
176
     1
 90
       50
176
     1
 40
0.0
176
     1
 40
1.0
176
     1
 90
        0
176
     1
 62
   178
420
        0
176
     1
 90
       50
176
     1
 90
        3
176
     1
 62
     5
420
      255
176
     1
290
     0
176
     1
 90
       50
176
     1
 90
       50
176
     1
 90
       50
176
     1
290
     0
176
     1
 90
       50
176
     1
 62
   256
176
     0
 40
1.0
176
     0
 90
        2
176
     1
  1
strokes_ogs.tif
176
     1
290
     0
176
     1
 40
1.0
176
     1
 40
1.0
176
     1
  0
VISUALSTYLE
  5
145
102
{ACAD_REACTORS
330
13B
102
}
330
13B
100
AcDbVisualStyle
  2
Conceptual
 70
     9
177
     3
291
     0
 70
    58
 90
        3
176
     1
 90
        2
176
     1
 90
        0
176
     1
 90
        0
176
     1
 40
0.6
176
     1
 40
30.0
176
     1
 62
     7
420
 16777215
176
     1
 90
        2
176
     1
 90
        2
176
     1
 62
     7
176
     1
 62
   257
176
     1
 90
        1
176
     1
 90
        1
176
     1
 40
179.0
176
     1
 90
        8
176
     1
 62
     7
176
     1
 40
1.0
176
     1
 90
        1
176
     1
 90
        6
176
     1
 90
        2
176
     1
 62
     7
176
     1
 90
        3
176
     1
 90
        0
176
     1
 90
        0
176
     1
290
     0
176
     1
 90
        1
176
     1
 40
0.0
176
     1
 90
        0
176
     1
290
     0
176
     1
290
     1
176
     1
290
     1
176
     1
290
     0
176
     1
290
     0
176
     1
290
     0
176
     1
290
     0
176
     1
290
     0
176
     1
290
     0
176
     1
 90
       50
176
     1
 40
0.0
176
     1
 40
1.0
176
     1
 90
        0
176
     1
 62
   178
420
        0
176
     1
 90
       50
176
     1
 90
        3
176
     1
 62
     5
420
      255
176
     1
290
     0
176
     1
 90
       50
176
     1
 90
       50
176
     1
 90
       50
176
     1
290
     0
176
     1
 90
       50
176
     1
 62
   256
176
     0
 40
1.0
176
     0
 90
        2
176
     1
  1
strokes_ogs.tif
176
     1
290
     0
176
     1
 40
1.0
176
     1
 40
1.0
176
     1
  0
VISUALSTYLE
  5
146
102
{ACAD_REACTORS
330
13B
102
}
330
13B
100
AcDbVisualStyle
  2
Dim
 70
    11
177
     3
291
     1
 70
    58
 90
        2
176
     1
 90
        2
176
     1
 90
        0
176
     1
 90
        0
176
     1
 40
0.6
176
     1
 40
30.0
176
     1
 62
     7
420
 16777215
176
     1
 90
        1
176
     1
 90
        4
176
     1
 62
     7
176
     1
 62
   257
176
     1
 90
        1
176
     1
 90
        1
176
     1
 40
1.0
176
     1
 90
        8
176
     1
 62
     7
176
     1
 40
1.0
176
     1
 90
        1
176
     1
 90
        6
176
     1
 90
        2
176
     1
 62
     7
176
     1
 90
        5
176
     1
 90
        0
176
     1
 90
        0
176
     1
290
     0
176
     1
 90
        1
176
     1
 40
-50.0
176
     1
 90
        0
176
     1
290
     0
176
     1
290
     1
176
     1
290
     1
176
     1
290
     0
176
     1
290
     0
176
     1
290
     0
176
     1
290
     0
176
     1
290
     0
176
     1
290
     0
176
     1
 90
       50
176
     1
 40
0.0
176
     1
 40
1.0
176
     1
 90
        0
176
     1
 62
   178
420
        0
176
     1
 90
       50
176
     1
 90
        3
176
     1
 62
     5
420
      255
176
     1
290
     0
176
     1
 90
       50
176
     1
 90
       50
176
     1
 90
       50
176
     1
290
     0
176
     1
 90
       50
176
     1
 62
   256
176
     0
 40
1.0
176
     0
 90
        2
176
     1
  1
strokes_ogs.tif
176
     1
290
     0
176
     1
 40
1.0
176
     1
 40
1.0
176
     1
  0
VISUALSTYLE
  5
14E
102
{ACAD_REACTORS
330
13B
102
}
330
13B
100
AcDbVisualStyle
  2
EdgeColorOff
 70
    22
177
     3
291
     1
 70
    58
 90
        2
176
     0
 90
        2
176
     0
 90
        0
176
     0
 90
        0
176
     0
 40
0.6
176
     0
 40
30.0
176
     0
 62
     7
420
 16777215
176
     0
 90
        1
176
     0
 90
        4
176
     0
 62
     7
176
     0
 62
   257
176
     0
 90
        1
176
     0
 90
        1
176
     0
 40
1.0
176
     0
 90
        8
176
     2
 62
     7
176
     0
 40
1.0
176
     0
 90
        1
176
     0
 90
        6
176
     0
 90
        2
176
     0
 62
     7
176
     0
 90
        5
176
     0
 90
        0
176
     0
 90
        0
176
     0
290
     0
176
     0
 90
        1
176
     0
 40
0.0
176
     0
 90
        0
176
     0
290
     0
176
     0
290
     1
176
     0
290
     1
176
     0
290
     0
176
     0
290
     0
176
     0
290
     0
176
     0
290
     0
176
     0
290
     0
176
     0
290
     0
176
     0
 90
       50
176
     0
 40
0.0
176
     0
 40
1.0
176
     0
 90
        0
176
     0
 62
   178
420
        0
176
     0
 90
       50
176
     0
 90
        3
176
     0
 62
     5
420
      255
176
     0
290
     0
176
     0
 90
       50
176
     0
 90
       50
176
     0
 90
       50
176
     0
290
     0
176
     0
 90
       50
176
     0
 62
   256
176
     0
 40
1.0
176
     0
 90
        2
176
     0
  1
strokes_ogs.tif
176
     0
290
     0
176
     0
 40
1.0
176
     0
 40
1.0
176
     0
  0
VISUALSTYLE
  5
14A
102
{ACAD_REACTORS
330
13B
102
}
330
13B
100
AcDbVisualStyle
  2
Facepattern
 70
    15
177
     3
291
     1
 70
    58
 90
        2
176
     1
 90
        2
176
     1
 90
        0
176
     1
 90
        0
176
     1
 40
0.6
176
     1
 40
30.0
176
     1
 62
     7
420
 16777215
176
     1
 90
        1
176
     1
 90
        4
176
     1
 62
     7
176
     1
 62
   257
176
     1
 90
        1
176
     1
 90
        1
176
     1
 40
1.0
176
     1
 90
        8
176
     1
 62
     7
176
     1
 40
1.0
176
     1
 90
        1
176
     1
 90
        6
176
     1
 90
        2
176
     1
 62
     7
176
     1
 90
        5
176
     1
 90
        0
176
     1
 90
        0
176
     1
290
     0
176
     1
 90
        1
176
     1
 40
0.0
176
     1
 90
        0
176
     1
290
     0
176
     1
290
     1
176
     1
290
     1
176
     1
290
     0
176
     1
290
     0
176
     1
290
     0
176
     1
290
     0
176
     1
290
     0
176
     1
290
     0
176
     1
 90
       50
176
     1
 40
0.0
176
     1
 40
1.0
176
     1
 90
        0
176
     1
 62
   178
420
        0
176
     1
 90
       50
176
     1
 90
        3
176
     1
 62
     5
420
      255
176
     1
290
     0
176
     1
 90
       50
176
     1
 90
       50
176
     1
 90
       50
176
     1
290
     0
176
     1
 90
       50
176
     1
 62
   256
176
     0
 40
1.0
176
     0
 90
        2
176
     1
  1
strokes_ogs.tif
176
     1
290
     0
176
     1
 40
1.0
176
     1
 40
1.0
176
     1
  0
VISUALSTYLE
  5
13C
102
{ACAD_REACTORS
330
13B
102
}
330
13B
100
AcDbVisualStyle
  2
Flat
 70
     0
177
     3
291
     1
 70
    58
 90
        2
176
     1
 90
        1
176
     1
 90
        1
176
     1
 90
        2
176
     1
 40
0.6
176
     1
 40
30.0
176
     1
 62
     7
420
 16777215
176
     1
 90
        0
176
     1
 90
        0
176
     1
 62
     7
176
     1
 62
   257
176
     1
 90
        1
176
     1
 90
        1
176
     1
 40
1.0
176
     1
 90
        8
176
     1
 62
     7
176
     1
 40
1.0
176
     1
 90
        1
176
     1
 90
        6
176
     1
 90
        2
176
     1
 62
     7
176
     1
 90
        5
176
     1
 90
        0
176
     1
 90
        0
176
     1
290
     0
176
     1
 90
       13
176
     1
 40
0.0
176
     1
 90
        0
176
     1
290
     0
176
     1
290
     1
176
     1
290
     1
176
     1
290
     0
176
     1
290
     0
176
     1
290
     0
176
     1
290
     0
176
     1
290
     0
176
     1
290
     0
176
     1
 90
       50
176
     1
 40
0.0
176
     1
 40
1.0
176
     1
 90
        0
176
     1
 62
   178
420
        0
176
     1
 90
       50
176
     1
 90
        3
176
     1
 62
     5
420
      255
176
     1
290
     0
176
     1
 90
       50
176
     1
 90
       50
176
     1
 90
       50
176
     1
290
     0
176
     1
 90
       50
176
     1
 62
   256
176
     0
 40
1.0
176
     0
 90
        2
176
     1
  1
strokes_ogs.tif
176
     1
290
     0
176
     1
 40
1.0
176
     1
 40
1.0
176
     1
  0
VISUALSTYLE
  5
13D
102
{ACAD_REACTORS
330
13B
102
}
330
13B
100
AcDbVisualStyle
  2
FlatWithEdges
 70
     1
177
     3
291
     1
 70
    58
 90
        2
176
     1
 90
        1
176
     1
 90
        1
176
     1
 90
        2
176
     1
 40
0.6
176
     1
 40
30.0
176
     1
 62
     7
420
 16777215
176
     1
 90
        1
176
     1
 90
        0
176
     1
 62
     7
176
     1
 62
   257
176
     1
 90
        1
176
     1
 90
        1
176
     1
 40
1.0
176
     1
 90
        0
176
     1
 62
   257
176
     1
 40
1.0
176
     1
 90
        1
176
     1
 90
        6
176
     1
 90
        2
176
     1
 62
     7
176
     1
 90
        5
176
     1
 90
        0
176
     1
 90
        0
176
     1
290
     0
176
     1
 90
       13
176
     1
 40
0.0
176
     1
 90
        0
176
     1
290
     0
176
     1
290
     1
176
     1
290
     1
176
     1
290
     0
176
     1
290
     0
176
     1
290
     0
176
     1
290
     0
176
     1
290
     0
176
     1
290
     0
176
     1
 90
       50
176
     1
 40
0.0
176
     1
 40
1.0
176
     1
 90
        0
176
     1
 62
   178
420
        0
176
     1
 90
       50
176
     1
 90
        3
176
     1
 62
     5
420
      255
176
     1
290
     0
176
     1
 90
       50
176
     1
 90
       50
176
     1
 90
       50
176
     1
290
     0
176
     1
 90
       50
176
     1
 62
   256
176
     0
 40
1.0
176
     0
 90
        2
176
     1
  1
strokes_ogs.tif
176
     1
290
     0
176
     1
 40
1.0
176
     1
 40
1.0
176
     1
  0
VISUALSTYLE
  5
13E
102
{ACAD_REACTORS
330
13B
102
}
330
13B
100
AcDbVisualStyle
  2
Gouraud
 70
     2
177
     3
291
     1
 70
    58
 90
        2
176
     1
 90
        2
176
     1
 90
        1
176
     1
 90
        2
176
     1
 40
0.6
176
     1
 40
30.0
176
     1
 62
     7
420
 16777215
176
     1
 90
        0
176
     1
 90
        0
176
     1
 62
     7
176
     1
 62
   257
176
     1
 90
        1
176
     1
 90
        1
176
     1
 40
1.0
176
     1
 90
        0
176
     1
 62
     7
176
     1
 40
1.0
176
     1
 90
        1
176
     1
 90
        6
176
     1
 90
        2
176
     1
 62
     7
176
     1
 90
        5
176
     1
 90
        0
176
     1
 90
        0
176
     1
290
     0
176
     1
 90
       13
176
     1
 40
0.0
176
     1
 90
        0
176
     1
290
     0
176
     1
290
     1
176
     1
290
     1
176
     1
290
     0
176
     1
290
     0
176
     1
290
     0
176
     1
290
     0
176
     1
290
     0
176
     1
290
     0
176
     1
 90
       50
176
     1
 40
0.0
176
     1
 40
1.0
176
     1
 90
        0
176
     1
 62
   178
420
        0
176
     1
 90
       50
176
     1
 90
        3
176
     1
 62
     5
420
      255
176
     1
290
     0
176
     1
 90
       50
176
     1
 90
       50
176
     1
 90
       50
176
     1
290
     0
176
     1
 90
       50
176
     1
 62
   256
176
     0
 40
1.0
176
     0
 90
        2
176
     1
  1
strokes_ogs.tif
176
     1
290
     0
176
     1
 40
1.0
176
     1
 40
1.0
176
     1
  0
VISUALSTYLE
  5
13F
102
{ACAD_REACTORS
330
13B
102
}
330
13B
100
AcDbVisualStyle
  2
GouraudWithEdges
 70
     3
177
     3
291
     1
 70
    58
 90
        2
176
     1
 90
        2
176
     1
 90
        1
176
     1
 90
        2
176
     1
 40
0.6
176
     1
 40
30.0
176
     1
 62
     7
420
 16777215
176
     1
 90
        1
176
     1
 90
        0
176
     1
 62
     7
176
     1
 62
   257
176
     1
 90
        1
176
     1
 90
        1
176
     1
 40
1.0
176
     1
 90
        0
176
     1
 62
   257
176
     1
 40
1.0
176
     1
 90
        1
176
     1
 90
        6
176
     1
 90
        2
176
     1
 62
     7
176
     1
 90
        5
176
     1
 90
        0
176
     1
 90
        0
176
     1
290
     0
176
     1
 90
       13
176
     1
 40
0.0
176
     1
 90
        0
176
     1
290
     0
176
     1
290
     1
176
     1
290
     1
176
     1
290
     0
176
     1
290
     0
176
     1
290
     0
176
     1
290
     0
176
     1
290
     0
176
     1
290
     0
176
     1
 90
       50
176
     1
 40
0.0
176
     1
 40
1.0
176
     1
 90
        0
176
     1
 62
   178
420
        0
176
     1
 90
       50
176
     1
 90
        3
176
     1
 62
     5
420
      255
176
     1
290
     0
176
     1
 90
       50
176
     1
 90
       50
176
     1
 90
       50
176
     1
290
     0
176
     1
 90
       50
176
     1
 62
   256
176
     0
 40
1.0
176
     0
 90
        2
176
     1
  1
strokes_ogs.tif
176
     1
290
     0
176
     1
 40
1.0
176
     1
 40
1.0
176
     1
  0
VISUALSTYLE
  5
142
102
{ACAD_REACTORS
330
13B
102
}
330
13B
100
AcDbVisualStyle
  2
Hidden
 70
     6
177
     3
291
     0
 70
    58
 90
        1
176
     1
 90
        2
176
     1
 90
        2
176
     1
 90
        0
176
     1
 40
0.6
176
     1
 40
30.0
176
     1
 62
     7
420
 16777215
176
     1
 90
        2
176
     1
 90
        2
176
     1
 62
     7
176
     1
 62
   257
176
     1
 90
        2
176
     1
 90
        1
176
     1
 40
40.0
176
     1
 90
        0
176
     1
 62
   257
176
     1
 40
1.0
176
     1
 90
        1
176
     1
 90
        6
176
     1
 90
        2
176
     1
 62
     7
176
     1
 90
        3
176
     1
 90
        0
176
     1
 90
        0
176
     1
290
     0
176
     1
 90
        1
176
     1
 40
0.0
176
     1
 90
        0
176
     1
290
     0
176
     1
290
     1
176
     1
290
     1
176
     1
290
     0
176
     1
290
     0
176
     1
290
     0
176
     1
290
     0
176
     1
290
     0
176
     1
290
     0
176
     1
 90
       50
176
     1
 40
0.0
176
     1
 40
1.0
176
     1
 90
        0
176
     1
 62
   178
420
        0
176
     1
 90
       50
176
     1
 90
        3
176
     1
 62
     5
420
      255
176
     1
290
     0
176
     1
 90
       50
176
     1
 90
       50
176
     1
 90
       50
176
     1
290
     0
176
     1
 90
       50
176
     1
 62
   256
176
     0
 40
1.0
176
     0
 90
        2
176
     1
  1
strokes_ogs.tif
176
     1
290
     0
176
     1
 40
1.0
176
     1
 40
1.0
176
     1
  0
VISUALSTYLE
  5
14C
102
{ACAD_REACTORS
330
13B
102
}
330
13B
100
AcDbVisualStyle
  2
JitterOff
 70
    20
177
     3
291
     1
 70
    58
 90
        2
176
     0
 90
        2
176
     0
 90
        0
176
     0
 90
        0
176
     0
 40
0.6
176
     0
 40
30.0
176
     0
 62
     7
420
 16777215
176
     0
 90
        1
176
     0
 90
        4
176
     0
 62
     7
176
     0
 62
   257
176
     0
 90
        1
176
     0
 90
        1
176
     0
 40
1.0
176
     0
 90
       10
176
     2
 62
     7
176
     0
 40
1.0
176
     0
 90
        1
176
     0
 90
        6
176
     0
 90
        2
176
     0
 62
     7
176
     0
 90
        5
176
     0
 90
        0
176
     0
 90
        0
176
     0
290
     0
176
     0
 90
        1
176
     0
 40
0.0
176
     0
 90
        0
176
     0
290
     0
176
     0
290
     1
176
     0
290
     1
176
     0
290
     0
176
     0
290
     0
176
     0
290
     0
176
     0
290
     0
176
     0
290
     0
176
     0
290
     0
176
     0
 90
       50
176
     0
 40
0.0
176
     0
 40
1.0
176
     0
 90
        0
176
     0
 62
   178
420
        0
176
     0
 90
       50
176
     0
 90
        3
176
     0
 62
     5
420
      255
176
     0
290
     0
176
     0
 90
       50
176
     0
 90
       50
176
     0
 90
       50
176
     0
290
     0
176
     0
 90
       50
176
     0
 62
   256
176
     0
 40
1.0
176
     0
 90
        2
176
     0
  1
strokes_ogs.tif
176
     0
290
     0
176
     0
 40
1.0
176
     0
 40
1.0
176
     0
  0
VISUALSTYLE
  5
149
102
{ACAD_REACTORS
330
13B
102
}
330
13B
100
AcDbVisualStyle
  2
Linepattern
 70
    14
177
     3
291
     1
 70
    58
 90
        2
176
     1
 90
        2
176
     1
 90
        0
176
     1
 90
        0
176
     1
 40
0.6
176
     1
 40
30.0
176
     1
 62
     7
420
 16777215
176
     1
 90
        1
176
     1
 90
        4
176
     1
 62
     7
176
     1
 62
   257
176
     1
 90
        7
176
     1
 90
        7
176
     1
 40
1.0
176
     1
 90
        8
176
     1
 62
     7
176
     1
 40
1.0
176
     1
 90
        1
176
     1
 90
        6
176
     1
 90
        2
176
     1
 62
     7
176
     1
 90
        5
176
     1
 90
        0
176
     1
 90
        0
176
     1
290
     0
176
     1
 90
        1
176
     1
 40
0.0
176
     1
 90
        0
176
     1
290
     0
176
     1
290
     1
176
     1
290
     1
176
     1
290
     0
176
     1
290
     0
176
     1
290
     0
176
     1
290
     0
176
     1
290
     0
176
     1
290
     0
176
     1
 90
       50
176
     1
 40
0.0
176
     1
 40
1.0
176
     1
 90
        0
176
     1
 62
   178
420
        0
176
     1
 90
       50
176
     1
 90
        3
176
     1
 62
     5
420
      255
176
     1
290
     0
176
     1
 90
       50
176
     1
 90
       50
176
     1
 90
       50
176
     1
290
     0
176
     1
 90
       50
176
     1
 62
   256
176
     0
 40
1.0
176
     0
 90
        2
176
     1
  1
strokes_ogs.tif
176
     1
290
     0
176
     1
 40
1.0
176
     1
 40
1.0
176
     1
  0
VISUALSTYLE
  5
14D
102
{ACAD_REACTORS
330
13B
102
}
330
13B
100
AcDbVisualStyle
  2
OverhangOff
 70
    21
177
     3
291
     1
 70
    58
 90
        2
176
     0
 90
        2
176
     0
 90
        0
176
     0
 90
        0
176
     0
 40
0.6
176
     0
 40
30.0
176
     0
 62
     7
420
 16777215
176
     0
 90
        1
176
     0
 90
        4
176
     0
 62
     7
176
     0
 62
   257
176
     0
 90
        1
176
     0
 90
        1
176
     0
 40
1.0
176
     0
 90
        9
176
     2
 62
     7
176
     0
 40
1.0
176
     0
 90
        1
176
     0
 90
        6
176
     0
 90
        2
176
     0
 62
     7
176
     0
 90
        5
176
     0
 90
        0
176
     0
 90
        0
176
     0
290
     0
176
     0
 90
        1
176
     0
 40
0.0
176
     0
 90
        0
176
     0
290
     0
176
     0
290
     1
176
     0
290
     1
176
     0
290
     0
176
     0
290
     0
176
     0
290
     0
176
     0
290
     0
176
     0
290
     0
176
     0
290
     0
176
     0
 90
       50
176
     0
 40
0.0
176
     0
 40
1.0
176
     0
 90
        0
176
     0
 62
   178
420
        0
176
     0
 90
       50
176
     0
 90
        3
176
     0
 62
     5
420
      255
176
     0
290
     0
176
     0
 90
       50
176
     0
 90
       50
176
     0
 90
       50
176
     0
290
     0
176
     0
 90
       50
176
     0
 62
   256
176
     0
 40
1.0
176
     0
 90
        2
176
     0
  1
strokes_ogs.tif
176
     0
290
     0
176
     0
 40
1.0
176
     0
 40
1.0
176
     0
  0
VISUALSTYLE
  5
144
102
{ACAD_REACTORS
330
13B
102
}
330
13B
100
AcDbVisualStyle
  2
Realistic
 70
     8
177
     3
291
     0
 70
    58
 90
        2
176
     1
 90
        3
176
     1
 90
        0
176
     1
 90
        2
176
     1
 40
0.6
176
     1
 40
30.0
176
     1
 62
     7
420
 16777215
176
     1
 90
        0
176
     1
 90
        0
176
     1
 62
     7
176
     1
 62
   257
176
     1
 90
        1
176
     1
 90
        1
176
     1
 40
1.0
176
     1
 90
        8
176
     1
 62
   257
176
     1
 40
1.0
176
     1
 90
        1
176
     1
 90
        6
176
     1
 90
        2
176
     1
 62
     7
176
     1
 90
        3
176
     1
 90
        0
176
     1
 90
        0
176
     1
290
     0
176
     1
 90
       13
176
     1
 40
0.0
176
     1
 90
        0
176
     1
290
     0
176
     1
290
     1
176
     1
290
     1
176
     1
290
     0
176
     1
290
     0
176
     1
290
     0
176
     1
290
     0
176
     1
290
     0
176
     1
290
     0
176
     1
 90
       50
176
     1
 40
0.0
176
     1
 40
1.0
176
     1
 90
        0
176
     1
 62
   178
420
        0
176
     1
 90
       50
176
     1
 90
        3
176
     1
 62
     5
420
      255
176
     1
290
     0
176
     1
 90
       50
176
     1
 90
       50
176
     1
 90
       50
176
     1
290
     0
176
     1
 90
       50
176
     1
 62
   256
176
     0
 40
1.0
176
     0
 90
        2
176
     1
  1
strokes_ogs.tif
176
     1
290
     0
176
     1
 40
1.0
176
     1
 40
1.0
176
     1
  0
VISUALSTYLE
  5
153
102
{ACAD_REACTORS
330
13B
102
}
330
13B
100
AcDbVisualStyle
  2
Shaded
 70
    27
177
     3
291
     0
 70
    58
 90
        2
176
     1
 90
        2
176
     1
 90
        1
176
     1
 90
        2
176
     1
 40
0.6
176
     1
 40
30.0
176
     1
 62
     7
420
 16777215
176
     1
 90
        0
176
     1
 90
        4
176
     1
 62
     7
176
     1
 62
   257
176
     1
 90
        1
176
     1
 90
        1
176
     1
 40
1.0
176
     1
 90
        8
176
     1
 62
   257
176
     1
 40
1.0
176
     1
 90
        1
176
     1
 90
        6
176
     1
 90
        2
176
     1
 62
     8
420
  7895160
176
     1
 90
        3
176
     1
 90
        0
176
     1
 90
        0
176
     1
290
     0
176
     1
 90
        5
176
     1
 40
0.0
176
     1
 90
        0
176
     1
290
     0
176
     1
290
     1
176
     1
290
     1
176
     1
290
     0
176
     1
290
     0
176
     1
290
     0
176
     1
290
     0
176
     1
290
     0
176
     1
290
     0
176
     1
 90
       50
176
     1
 40
0.0
176
     1
 40
1.0
176
     1
 90
        0
176
     1
 62
   178
420
        0
176
     1
 90
       50
176
     1
 90
        3
176
     1
 62
     5
420
      255
176
     1
290
     0
176
     1
 90
       50
176
     1
 90
       50
176
     1
 90
       50
176
     1
290
     0
176
     1
 90
       50
176
     1
 62
   256
176
     0
 40
1.0
176
     0
 90
        2
176
     1
  1
strokes_ogs.tif
176
     1
290
     0
176
     1
 40
1.0
176
     1
 40
1.0
176
     1
  0
VISUALSTYLE
  5
152
102
{ACAD_REACTORS
330
13B
102
}
330
13B
100
AcDbVisualStyle
  2
Shaded with edges
 70
    26
177
     3
291
     0
 70
    58
 90
        2
176
     1
 90
        2
176
     1
 90
        1
176
     1
 90
        2
176
     1
 40
0.6
176
     1
 40
30.0
176
     1
 62
     7
420
 16777215
176
     1
 90
        1
176
     1
 90
       10
176
     1
 62
     7
176
     1
 62
   257
176
     1
 90
        2
176
     1
 90
        1
176
     1
 40
1.0
176
     1
 90
        8
176
     1
 62
   257
176
     1
 40
1.0
176
     1
 90
        1
176
     1
 90
        6
176
     1
 90
        2
176
     1
 62
     7
176
     1
 90
        3
176
     1
 90
        0
176
     1
 90
        0
176
     1
290
     0
176
     1
 90
        5
176
     1
 40
0.0
176
     1
 90
        0
176
     1
290
     0
176
     1
290
     1
176
     1
290
     1
176
     1
290
     0
176
     1
290
     0
176
     1
290
     0
176
     1
290
     0
176
     1
290
     0
176
     1
290
     0
176
     1
 90
       50
176
     1
 40
0.0
176
     1
 40
1.0
176
     1
 90
        0
176
     1
 62
   178
420
        0
176
     1
 90
       50
176
     1
 90
        3
176
     1
 62
     5
420
      255
176
     1
290
     0
176
     1
 90
       50
176
     1
 90
       50
176
     1
 90
       50
176
     1
290
     0
176
     1
 90
       50
176
     1
 62
   256
176
     0
 40
1.0
176
     0
 90
        2
176
     1
  1
strokes_ogs.tif
176
     1
290
     0
176
     1
 40
1.0
176
     1
 40
1.0
176
     1
  0
VISUALSTYLE
  5
14F
102
{ACAD_REACTORS
330
13B
102
}
330
13B
100
AcDbVisualStyle
  2
Shades of Gray
 70
    23
177
     3
291
     0
 70
    58
 90
        2
176
     1
 90
        2
176
     1
 90
        3
176
     1
 90
        0
176
     1
 40
0.6
176
     1
 40
30.0
176
     1
 62
     7
420
 16777215
176
     1
 90
        2
176
     1
 90
        2
176
     1
 62
     7
176
     1
 62
     7
176
     1
 90
        1
176
     1
 90
        1
176
     1
 40
40.0
176
     1
 90
        8
176
     1
 62
     7
176
     1
 40
1.0
176
     1
 90
        1
176
     1
 90
        6
176
     1
 90
        2
176
     1
 62
     7
176
     1
 90
        3
176
     1
 90
        0
176
     1
 90
        0
176
     1
290
     0
176
     1
 90
        1
176
     1
 40
0.0
176
     1
 90
        0
176
     1
290
     0
176
     1
290
     1
176
     1
290
     1
176
     1
290
     0
176
     1
290
     0
176
     1
290
     0
176
     1
290
     0
176
     1
290
     0
176
     1
290
     0
176
     1
 90
       50
176
     1
 40
0.0
176
     1
 40
1.0
176
     1
 90
        0
176
     1
 62
   178
420
        0
176
     1
 90
       50
176
     1
 90
        3
176
     1
 62
     5
420
      255
176
     1
290
     0
176
     1
 90
       50
176
     1
 90
       50
176
     1
 90
       50
176
     1
290
     0
176
     1
 90
       50
176
     1
 62
   256
176
     0
 40
1.0
176
     0
 90
        2
176
     1
  1
strokes_ogs.tif
176
     1
290
     0
176
     1
 40
1.0
176
     1
 40
1.0
176
     1
  0
VISUALSTYLE
  5
150
102
{ACAD_REACTORS
330
13B
102
}
330
13B
100
AcDbVisualStyle
  2
Sketchy
 70
    24
177
     3
291
     0
 70
    58
 90
        1
176
     1
 90
        2
176
     1
 90
        2
176
     1
 90
        0
176
     1
 40
0.6
176
     1
 40
30.0
176
     1
 62
     7
420
 16777215
176
     1
 90
        2
176
     1
 90
        2
176
     1
 62
     7
176
     1
 62
     7
176
     1
 90
        1
176
     1
 90
        1
176
     1
 40
40.0
176
     1
 90
       11
176
     1
 62
     7
176
     1
 40
1.0
176
     1
 90
        1
176
     1
 90
        6
176
     1
 90
        2
176
     1
 62
     7
176
     1
 90
        6
176
     1
 90
        0
176
     1
 90
        0
176
     1
290
     0
176
     1
 90
        1
176
     1
 40
0.0
176
     1
 90
        0
176
     1
290
     0
176
     1
290
     1
176
     1
290
     1
176
     1
290
     0
176
     1
290
     0
176
     1
290
     0
176
     1
290
     0
176
     1
290
     0
176
     1
290
     0
176
     1
 90
       50
176
     1
 40
0.0
176
     1
 40
1.0
176
     1
 90
        0
176
     1
 62
   178
420
        0
176
     1
 90
       50
176
     1
 90
        3
176
     1
 62
     5
420
      255
176
     1
290
     0
176
     1
 90
       50
176
     1
 90
       50
176
     1
 90
       50
176
     1
290
     0
176
     1
 90
       50
176
     1
 62
   256
176
     0
 40
1.0
176
     0
 90
        2
176
     1
  1
strokes_ogs.tif
176
     1
290
     0
176
     1
 40
1.0
176
     1
 40
1.0
176
     1
  0
VISUALSTYLE
  5
148
102
{ACAD_REACTORS
330
13B
102
}
330
13B
100
AcDbVisualStyle
  2
Thicken
 70
    13
177
     3
291
     1
 70
    58
 90
        2
176
     1
 90
        2
176
     1
 90
        0
176
     1
 90
        0
176
     1
 40
0.6
176
     1
 40
30.0
176
     1
 62
     7
420
 16777215
176
     1
 90
        1
176
     1
 90
        4
176
     1
 62
     7
176
     1
 62
   257
176
     1
 90
        1
176
     1
 90
        1
176
     1
 40
1.0
176
     1
 90
       12
176
     1
 62
     7
176
     1
 40
1.0
176
     1
 90
        1
176
     1
 90
        6
176
     1
 90
        2
176
     1
 62
     7
176
     1
 90
        5
176
     1
 90
        0
176
     1
 90
        0
176
     1
290
     0
176
     1
 90
        1
176
     1
 40
0.0
176
     1
 90
        0
176
     1
290
     0
176
     1
290
     1
176
     1
290
     1
176
     1
290
     0
176
     1
290
     0
176
     1
290
     0
176
     1
290
     0
176
     1
290
     0
176
     1
290
     0
176
     1
 90
       50
176
     1
 40
0.0
176
     1
 40
1.0
176
     1
 90
        0
176
     1
 62
   178
420
        0
176
     1
 90
       50
176
     1
 90
        3
176
     1
 62
     5
420
      255
176
     1
290
     0
176
     1
 90
       50
176
     1
 90
       50
176
     1
 90
       50
176
     1
290
     0
176
     1
 90
       50
176
     1
 62
   256
176
     0
 40
1.0
176
     0
 90
        2
176
     1
  1
strokes_ogs.tif
176
     1
290
     0
176
     1
 40
1.0
176
     1
 40
1.0
176
     1
  0
VISUALSTYLE
  5
141
102
{ACAD_REACTORS
330
13B
102
}
330
13B
100
AcDbVisualStyle
  2
Wireframe
 70
     5
177
     3
291
     0
 70
    58
 90
        0
176
     1
 90
        2
176
     1
 90
        0
176
     1
 90
        0
176
     1
 40
0.6
176
     1
 40
30.0
176
     1
 62
     7
420
 16777215
176
     1
 90
        1
176
     1
 90
        4
176
     1
 62
     7
176
     1
 62
   257
176
     1
 90
        1
176
     1
 90
        1
176
     1
 40
1.0
176
     1
 90
        0
176
     1
 62
   257
176
     1
 40
1.0
176
     1
 90
        1
176
     1
 90
        6
176
     1
 90
        2
176
     1
 62
     7
176
     1
 90
        3
176
     1
 90
        0
176
     1
 90
        0
176
     1
290
     0
176
     1
 90
        1
176
     1
 40
0.0
176
     1
 90
        0
176
     1
290
     0
176
     1
290
     1
176
     1
290
     1
176
     1
290
     0
176
     1
290
     0
176
     1
290
     0
176
     1
290
     0
176
     1
290
     0
176
     1
290
     0
176
     1
 90
       50
176
     1
 40
0.0
176
     1
 40
1.0
176
     1
 90
        0
176
     1
 62
   178
420
        0
176
     1
 90
       50
176
     1
 90
        3
176
     1
 62
     5
420
      255
176
     1
290
     0
176
     1
 90
       50
176
     1
 90
       50
176
     1
 90
       50
176
     1
290
     0
176
     1
 90
       50
176
     1
 62
   256
176
     0
 40
1.0
176
     0
 90
        2
176
     1
  1
strokes_ogs.tif
176
     1
290
     0
176
     1
 40
1.0
176
     1
 40
1.0
176
     1
  0
VISUALSTYLE
  5
151
102
{ACAD_REACTORS
330
13B
102
}
330
13B
100
AcDbVisualStyle
  2
X-Ray
 70
    25
177
     3
291
     0
 70
    58
 90
        2
176
     1
 90
        2
176
     1
 90
        1
176
     1
 90
        1
176
     1
 40
0.5
176
     1
 40
30.0
176
     1
 62
     7
420
 16777215
176
     1
 90
        1
176
     1
 90
        0
176
     1
 62
     7
176
     1
 62
   257
176
     1
 90
        1
176
     1
 90
        1
176
     1
 40
1.0
176
     1
 90
        8
176
     1
 62
     7
176
     1
 40
1.0
176
     1
 90
        1
176
     1
 90
        6
176
     1
 90
        2
176
     1
 62
     7
176
     1
 90
        3
176
     1
 90
        0
176
     1
 90
        0
176
     1
290
     0
176
     1
 90
       13
176
     1
 40
0.0
176
     1
 90
        0
176
     1
290
     0
176
     1
290
     1
176
     1
290
     1
176
     1
290
     0
176
     1
290
     0
176
     1
290
     0
176
     1
290
     0
176
     1
290
     0
176
     1
290
     0
176
     1
 90
       50
176
     1
 40
0.0
176
     1
 40
1.0
176
     1
 90
        0
176
     1
 62
   178
420
        0
176
     1
 90
       50
176
     1
 90
        3
176
     1
 62
     5
420
      255
176
     1
290
     0
176
     1
 90
       50
176
     1
 90
       50
176
     1
 90
       50
176
     1
290
     0
176
     1
 90
       50
176
     1
 62
   256
176
     0
 40
1.0
176
     0
 90
        2
176
     1
  1
strokes_ogs.tif
176
     1
290
     0
176
     1
 40
1.0
176
     1
 40
1.0
176
     1
  0
DICTIONARYVAR
  5
27E
102
{ACAD_REACTORS
330
27D
102
}
330
27D
100
DictionaryVariables
280
     0
  1
1:1
  0
DICTIONARYVAR
  5
283
102
{ACAD_REACTORS
330
27D
102
}
330
27D
100
DictionaryVariables
280
     0
  1
Standard
  0
DICTIONARYVAR
  5
282
102
{ACAD_REACTORS
330
27D
102
}
330
27D
100
DictionaryVariables
280
     0
  1
Standard
  0
XRECORD
  5
182
102
{ACAD_REACTORS
330
180
102
}
330
180
100
AcDbXrecord
280
     1
1000
#ffffff
  0
XRECORD
  5
183
102
{ACAD_REACTORS
330
180
102
}
330
180
100
AcDbXrecord
280
     1
1000
FullColor
  0
XRECORD
  5
184
102
{ACAD_REACTORS
330
180
102
}
330
180
100
AcDbXrecord
280
     1
 90
        0
  0
XRECORD
  5
185
102
{ACAD_REACTORS
330
180
102
}
330
180
100
AcDbXrecord
280
     1
 90
        0
  0
XRECORD
  5
186
102
{ACAD_REACTORS
330
180
102
}
330
180
100
AcDbXrecord
280
     1
1000
Standard
  0
XRECORD
  5
187
102
{ACAD_REACTORS
330
180
102
}
330
180
100
AcDbXrecord
280
     1
290
     1
  0
XRECORD
  5
188
102
{ACAD_REACTORS
330
180
102
}
330
180
100
AcDbXrecord
280
     1
 90
        2
  0
XRECORD
  5
189
102
{ACAD_REACTORS
330
180
102
}
330
180
100
AcDbXrecord
280
     1
 90
        1
  0
XRECORD
  5
18A
102
{ACAD_REACTORS
330
180
102
}
330
180
100
AcDbXrecord
280
     1
290
     1
  0
XRECORD
  5
18B
102
{ACAD_REACTORS
330
180
102
}
330
180
100
AcDbXrecord
280
     1
290
     1
  0
XRECORD
  5
18C
102
{ACAD_REACTORS
330
180
102
}
330
180
100
AcDbXrecord
280
     1
290
     1
  0
XRECORD
  5
18D
102
{ACAD_REACTORS
330
180
102
}
330
180
100
AcDbXrecord
280
     1
290
     1
  0
XRECORD
  5
18E
102
{ACAD_REACTORS
330
180
102
}
330
180
100
AcDbXrecord
280
     1
1000
auto
  0
XRECORD
  5
18F
102
{ACAD_REACTORS
330
180
102
}
330
180
100
AcDbXrecord
280
     1
1000
auto
  0
XRECORD
  5
190
102
{ACAD_REACTORS
330
180
102
}
330
180
100
AcDbXrecord
280
     1
1000
auto
  0
XRECORD
  5
191
102
{ACAD_REACTORS
330
180
102
}
330
180
100
AcDbXrecord
280
     1
1000
auto
  0
XRECORD
  5
192
102
{ACAD_REACTORS
330
180
102
}
330
180
100
AcDbXrecord
280
     1
1000
auto
  0
XRECORD
  5
193
102
{ACAD_REACTORS
330
180
102
}
330
180
100
AcDbXrecord
280
     1
1000
auto
  0
XRECORD
  5
194
102
{ACAD_REACTORS
330
180
102
}
330
180
100
AcDbXrecord
280
     1
1000
auto
  0
XRECORD
  5
195
102
{ACAD_REACTORS
330
180
102
}
330
180
100
AcDbXrecord
280
     1
1000
auto
  0
XRECORD
  5
196
102
{ACAD_REACTORS
330
180
102
}
330
180
100
AcDbXrecord
280
     1
290
     0
  0
XRECORD
  5
197
102
{ACAD_REACTORS
330
180
102
}
330
180
100
AcDbXrecord
280
     1
290
     0
  0
XRECORD
  5
198
102
{ACAD_REACTORS
330
180
102
}
330
180
100
AcDbXrecord
280
     1
290
     0
  0
XRECORD
  5
199
102
{ACAD_REACTORS
330
180
102
}
330
180
100
AcDbXrecord
280
     1
290
     0
  0
XRECORD
  5
19A
102
{ACAD_REACTORS
330
180
102
}
330
180
100
AcDbXrecord
280
     1
 90
        0
  0
XRECORD
  5
19B
102
{ACAD_REACTORS
330
180
102
}
330
180
100
AcDbXrecord
280
     1
 90
        0
  0
XRECORD
  5
19C
102
{ACAD_REACTORS
330
180
102
}
330
180
100
AcDbXrecord
280
     1
 90
        0
  0
XRECORD
  5
19D
102
{ACAD_REACTORS
330
180
102
}
330
180
100
AcDbXrecord
280
     1
 90
        0
  0
XRECORD
  5
19E
102
{ACAD_REACTORS
330
180
102
}
330
180
100
AcDbXrecord
280
     1
1000
auto
  0
XRECORD
  5
19F
102
{ACAD_REACTORS
330
180
102
}
330
180
100
AcDbXrecord
280
     1
1000
auto
  0
XRECORD
  5
1A0
102
{ACAD_REACTORS
330
180
102
}
330
180
100
AcDbXrecord
280
     1
1000
auto
  0
XRECORD
  5
1A1
102
{ACAD_REACTORS
330
180
102
}
330
180
100
AcDbXrecord
280
     1
1000
auto
  0
XRECORD
  5
1A2
102
{ACAD_REACTORS
330
180
102
}
330
180
100
AcDbXrecord
280
     1
1000
auto
  0
XRECORD
  5
1A3
102
{ACAD_REACTORS
330
180
102
}
330
180
100
AcDbXrecord
280
     1
1000
auto
  0
XRECORD
  5
1A4
102
{ACAD_REACTORS
330
180
102
}
330
180
100
AcDbXrecord
280
     1
1000
auto
  0
XRECORD
  5
1A5
102
{ACAD_REACTORS
330
180
102
}
330
180
100
AcDbXrecord
280
     1
1000
auto
  0
XRECORD
  5
1A6
102
{ACAD_REACTORS
330
180
102
}
330
180
100
AcDbXrecord
280
     1
 90
        1
  0
XRECORD
  5
1A7
102
{ACAD_REACTORS
330
180
102
}
330
180
100
AcDbXrecord
280
     1
 40
10.0
  0
XRECORD
  5
1A8
102
{ACAD_REACTORS
330
180
102
}
330
180
100
AcDbXrecord
280
     1
 40
10.0
  0
XRECORD
  5
1A9
102
{ACAD_REACTORS
330
180
102
}
330
180
100
AcDbXrecord
280
     1
 40
10.0
  0
XRECORD
  5
1AA
102
{ACAD_REACTORS
330
180
102
}
330
180
100
AcDbXrecord
280
     1
 40
10.0
  0
XRECORD
  5
1AB
102
{ACAD_REACTORS
330
180
102
}
330
180
100
AcDbXrecord
280
     1
290
     0
  0
XRECORD
  5
1AC
102
{ACAD_REACTORS
330
180
102
}
330
180
100
AcDbXrecord
280
     1
 90
        1
  0
XRECORD
  5
1AD
102
{ACAD_REACTORS
330
180
102
}
330
180
100
AcDbXrecord
280
     1
 40
-107.2423709524602
  0
XRECORD
  5
1AE
102
{ACAD_REACTORS
330
180
102
}
330
180
100
AcDbXrecord
280
     1
 40
-79.92827743558006
  0
XRECORD
  5
1AF
102
{ACAD_REACTORS
330
180
102
}
330
180
100
AcDbXrecord
280
     1
1000
Landscape
  0
XRECORD
  5
1B0
102
{ACAD_REACTORS
330
180
102
}
330
180
100
AcDbXrecord
280
     1
 40
297.0
  0
XRECORD
  5
1B1
102
{ACAD_REACTORS
330
180
102
}
330
180
100
AcDbXrecord
280
     1
 40
210.0
  0
XRECORD
  5
1B2
102
{ACAD_REACTORS
330
180
102
}
330
180
100
AcDbXrecord
280
     1
1000
1:1
  0
XRECORD
  5
1B3
102
{ACAD_REACTORS
330
180
102
}
330
180
100
AcDbXrecord
280
     1
290
     1
  0
XRECORD
  5
181
102
{ACAD_REACTORS
330
180
102
}
330
180
100
AcDbXrecord
280
     1
1000
3.12.4
  0
XRECORD
  5
1B4
102
{ACAD_REACTORS
330
180
102
}
330
180
100
AcDbXrecord
280
     1
 90
        4
  0
DICTIONARY
  5
27F
330
17B
100
AcDbDictionary
280
     1
281
     1
  3
ACAD_ROUNDTRIP_2008_TABLESTYLE_CELLSTYLEMAP
360
280
  0
CELLSTYLEMAP
  5
280
102
{ACAD_REACTORS
330
27F
102
}
330
27F
100
AcDbCellStyleMap
 90
        3
300
CELLSTYLE
  1
TABLEFORMAT_BEGIN
 90
        5
170
     1
 91
        0
 92
    32768
 62
   257
 93
        1
300
CONTENTFORMAT
  1
CONTENTFORMAT_BEGIN
 90
        0
 91
        0
 92
        4
 93
        0
300

 40
0.0
140
1.0
 94
        5
 62
     0
340
123
144
0.25
309
CONTENTFORMAT_END
171
     1
301
MARGIN
  1
CELLMARGIN_BEGIN
 40
0.06
 40
0.06
 40
0.06
 40
0.06
 40
0.06
 40
0.06
309
CELLMARGIN_END
 94
        6
 95
        1
302
GRIDFORMAT
  1
GRIDFORMAT_BEGIN
 90
        0
 91
        1
 62
     0
 92
       -2
340
125
 93
        0
 40
0.045
309
GRIDFORMAT_END
 95
        2
302
GRIDFORMAT
  1
GRIDFORMAT_BEGIN
 90
        0
 91
        1
 62
     0
 92
       -2
340
125
 93
        0
 40
0.045
309
GRIDFORMAT_END
 95
        4
302
GRIDFORMAT
  1
GRIDFORMAT_BEGIN
 90
        0
 91
        1
 62
     0
 92
       -2
340
125
 93
        0
 40
0.045
309
GRIDFORMAT_END
 95
        8
302
GRIDFORMAT
  1
GRIDFORMAT_BEGIN
 90
        0
 91
        1
 62
     0
 92
       -2
340
125
 93
        0
 40
0.045
309
GRIDFORMAT_END
 95
       16
302
GRIDFORMAT
  1
GRIDFORMAT_BEGIN
 90
        0
 91
        1
 62
     0
 92
       -2
340
125
 93
        0
 40
0.045
309
GRIDFORMAT_END
 95
       32
302
GRIDFORMAT
  1
GRIDFORMAT_BEGIN
 90
        0
 91
        1
 62
     0
 92
       -2
340
125
 93
        0
 40
0.045
309
GRIDFORMAT_END
309
TABLEFORMAT_END
  1
CELLSTYLE_BEGIN
 90
        1
 91
        1
300
_TITLE
309
CELLSTYLE_END
300
CELLSTYLE
  1
TABLEFORMAT_BEGIN
 90
        5
170
     1
 91
        0
 92
        0
 62
   257
 93
        1
300
CONTENTFORMAT
  1
CONTENTFORMAT_BEGIN
 90
        0
 91
        0
 92
        4
 93
        0
300

 40
0.0
140
1.0
 94
        5
 62
     0
340
123
144
0.18
309
CONTENTFORMAT_END
171
     1
301
MARGIN
  1
CELLMARGIN_BEGIN
 40
0.06
 40
0.06
 40
0.06
 40
0.06
 40
0.06
 40
0.06
309
CELLMARGIN_END
 94
        6
 95
        1
302
GRIDFORMAT
  1
GRIDFORMAT_BEGIN
 90
        0
 91
        1
 62
     0
 92
       -2
340
125
 93
        0
 40
0.045
309
GRIDFORMAT_END
 95
        2
302
GRIDFORMAT
  1
GRIDFORMAT_BEGIN
 90
        0
 91
        1
 62
     0
 92
       -2
340
125
 93
        0
 40
0.045
309
GRIDFORMAT_END
 95
        4
302
GRIDFORMAT
  1
GRIDFORMAT_BEGIN
 90
        0
 91
        1
 62
     0
 92
       -2
340
125
 93
        0
 40
0.045
309
GRIDFORMAT_END
 95
        8
302
GRIDFORMAT
  1
GRIDFORMAT_BEGIN
 90
        0
 91
        1
 62
     0
 92
       -2
340
125
 93
        0
 40
0.045
309
GRIDFORMAT_END
 95
       16
302
GRIDFORMAT
  1
GRIDFORMAT_BEGIN
 90
        0
 91
        1
 62
     0
 92
       -2
340
125
 93
        0
 40
0.045
309
GRIDFORMAT_END
 95
       32
302
GRIDFORMAT
  1
GRIDFORMAT_BEGIN
 90
        0
 91
        1
 62
     0
 92
       -2
340
125
 93
        0
 40
0.045
309
GRIDFORMAT_END
309
TABLEFORMAT_END
  1
CELLSTYLE_BEGIN
 90
        2
 91
        1
300
_HEADER
309
CELLSTYLE_END
300
CELLSTYLE
  1
TABLEFORMAT_BEGIN
 90
        5
170
     1
 91
        0
 92
        0
 62
   257
 93
        1
300
CONTENTFORMAT
  1
CONTENTFORMAT_BEGIN
 90
        0
 91
        0
 92
        4
 93
        0
300

 40
0.0
140
1.0
 94
        2
 62
     0
340
123
144
0.18
309
CONTENTFORMAT_END
171
     1
301
MARGIN
  1
CELLMARGIN_BEGIN
 40
0.06
 40
0.06
 40
0.06
 40
0.06
 40
0.06
 40
0.06
309
CELLMARGIN_END
 94
        6
 95
        1
302
GRIDFORMAT
  1
GRIDFORMAT_BEGIN
 90
        0
 91
        1
 62
     0
 92
       -2
340
125
 93
        0
 40
0.045
309
GRIDFORMAT_END
 95
        2
302
GRIDFORMAT
  1
GRIDFORMAT_BEGIN
 90
        0
 91
        1
 62
     0
 92
       -2
340
125
 93
        0
 40
0.045
309
GRIDFORMAT_END
 95
        4
302
GRIDFORMAT
  1
GRIDFORMAT_BEGIN
 90
        0
 91
        1
 62
     0
 92
       -2
340
125
 93
        0
 40
0.045
309
GRIDFORMAT_END
 95
        8
302
GRIDFORMAT
  1
GRIDFORMAT_BEGIN
 90
        0
 91
        1
 62
     0
 92
       -2
340
125
 93
        0
 40
0.045
309
GRIDFORMAT_END
 95
       16
302
GRIDFORMAT
  1
GRIDFORMAT_BEGIN
 90
        0
 91
        1
 62
     0
 92
       -2
340
125
 93
        0
 40
0.045
309
GRIDFORMAT_END
 95
       32
302
GRIDFORMAT
  1
GRIDFORMAT_BEGIN
 90
        0
 91
        1
 62
     0
 92
       -2
340
125
 93
        0
 40
0.045
309
GRIDFORMAT_END
309
TABLEFORMAT_END
  1
CELLSTYLE_BEGIN
 90
        3
 91
        2
300
_DATA
309
CELLSTYLE_END
  0
ENDSEC
  0
EOF
