  0
SECTION
  2
HEADER
  9
$ACADVER
  1
AC1015
  9
$ACADMAINTVER
 70
     6
  9
$DWGCODEPAGE
  3
ANSI_1252
  9
$INSBASE
 10
0.0
 20
0.0
 30
0.0
  9
$EXTMIN
 10
0.0
 20
0.0
 30
0.0
  9
$EXTMAX
 10
420.0
 20
297.0
 30
0.0
  9
$LIMMIN
 10
0.0
 20
0.0
  9
$LIMMAX
 10
420.0
 20
297.0
  9
$ORTHOMODE
 70
     0
  9
$REGENMODE
 70
     1
  9
$FILLMODE
 70
     1
  9
$QTEXTMODE
 70
     0
  9
$MIRRTEXT
 70
     1
  9
$LTSCALE
 40
1.0
  9
$ATTMODE
 70
     1
  9
$TEXTSIZE
 40
3.5
  9
$TRACEWID
 40
1.0
  9
$TEXTSTYLE
  7
Standard
  9
$CLAYER
  8
0
  9
$CELTYPE
  6
ByLayer
  9
$CECOLOR
 62
   256
  9
$CELTSCALE
 40
1.0
  9
$DISPSILH
 70
     0
  9
$DIMSCALE
 40
1.0
  9
$DIMASZ
 40
3.302
  9
$DIMEXO
 40
1.0
  9
$DIMDLI
 40
3.75
  9
$DIMRND
 40
0.0
  9
$DIMDLE
 40
0.0
  9
$DIMEXE
 40
1.0
  9
$DIMTP
 40
0.0
  9
$DIMTM
 40
0.0
  9
$DIMTXT
 40
3.5
  9
$DIMCEN
 40
2.5
  9
$DIMTSZ
 40
0.0
  9
$DIMTOL
 70
     0
  9
$DIMLIM
 70
     0
  9
$DIMTIH
 70
     1
  9
$DIMTOH
 70
     1
  9
$DIMSE1
 70
     0
  9
$DIMSE2
 70
     0
  9
$DIMTAD
 70
     1
  9
$DIMZIN
 70
     0
  9
$DIMBLK
  1

  9
$DIMASO
 70
     1
  9
$DIMSHO
 70
     1
  9
$DIMPOST
  1

  9
$DIMAPOST
  1

  9
$DIMALT
 70
     0
  9
$DIMALTD
 70
     3
  9
$DIMALTF
 40
0.0393700787
  9
$DIMLFAC
 40
1.0
  9
$DIMTOFL
 70
     1
  9
$DIMTVP
 40
0.0
  9
$DIMTIX
 70
     0
  9
$DIMSOXD
 70
     0
  9
$DIMSAH
 70
     0
  9
$DIMBLK1
  1

  9
$DIMBLK2
  1

  9
$DIMSTYLE
  2
ISO-25
  9
$DIMCLRD
 70
     0
  9
$DIMCLRE
 70
     0
  9
$DIMCLRT
 70
     0
  9
$DIMTFAC
 40
1.0
  9
$DIMGAP
 40
1.524
  9
$DIMJUST
 70
     0
  9
$DIMSD1
 70
     0
  9
$DIMSD2
 70
     0
  9
$DIMTOLJ
 70
     0
  9
$DIMTZIN
 70
     0
  9
$DIMALTZ
 70
     0
  9
$DIMALTTZ
 70
     0
  9
$DIMUPT
 70
     0
  9
$DIMDEC
 70
     2
  9
$DIMTDEC
 70
     2
  9
$DIMALTU
 70
     2
  9
$DIMALTTD
 70
     3
  9
$DIMTXSTY
  7
Standard
  9
$DIMAUNIT
 70
     0
  9
$DIMADEC
 70
     2
  9
$DIMALTRND
 40
0.0
  9
$DIMAZIN
 70
     0
  9
$DIMDSEP
 70
    44
  9
$DIMATFIT
 70
     3
  9
$DIMFRAC
 70
     0
  9
$DIMLDRBLK
  1

  9
$DIMLUNIT
 70
     2
  9
$DIMLWD
 70
    -2
  9
$DIMLWE
 70
    -2
  9
$DIMTMOVE
 70
     0
  9
$LUNITS
 70
     2
  9
$LUPREC
 70
     2
  9
$SKETCHINC
 40
1.0
  9
$FILLETRAD
 40
10.0
  9
$AUNITS
 70
     0
  9
$AUPREC
 70
     2
  9
$MENU
  1
.
  9
$ELEVATION
 40
0.0
  9
$PELEVATION
 40
0.0
  9
$THICKNESS
 40
0.0
  9
$LIMCHECK
 70
     0
  9
$CHAMFERA
 40
0.0
  9
$CHAMFERB
 40
0.0
  9
$CHAMFERC
 40
0.0
  9
$CHAMFERD
 40
0.0
  9
$SKPOLY
 70
     0
  9
$TDCREATE
 40
2458419.643129491
  9
$TDUCREATE
 40
2458419.559796157
  9
$TDUPDATE
 40
2458419.643132037
  9
$TDUUPDATE
 40
2458419.559798704
  9
$TDINDWG
 40
0.0000000116
  9
$TDUSRTIMER
 40
0.0000000116
  9
$USRTIMER
 70
     1
  9
$ANGBASE
 50
0.0
  9
$ANGDIR
 70
     0
  9
$PDMODE
 70
     0
  9
$PDSIZE
 40
-1.0
  9
$PLINEWID
 40
0.0
  9
$SPLFRAME
 70
     0
  9
$SPLINETYPE
 70
     6
  9
$SPLINESEGS
 70
     8
  9
$HANDSEED
  5
2ED
  9
$SURFTAB1
 70
     6
  9
$SURFTAB2
 70
     6
  9
$SURFTYPE
 70
     6
  9
$SURFU
 70
     6
  9
$SURFV
 70
     6
  9
$UCSBASE
  2

  9
$UCSNAME
  2

  9
$UCSORG
 10
0.0
 20
0.0
 30
0.0
  9
$UCSXDIR
 10
1.0
 20
0.0
 30
0.0
  9
$UCSYDIR
 10
0.0
 20
1.0
 30
0.0
  9
$UCSORTHOREF
  2

  9
$UCSORTHOVIEW
 70
     0
  9
$UCSORGTOP
 10
0.0
 20
0.0
 30
0.0
  9
$UCSORGBOTTOM
 10
0.0
 20
0.0
 30
0.0
  9
$UCSORGLEFT
 10
0.0
 20
0.0
 30
0.0
  9
$UCSORGRIGHT
 10
0.0
 20
0.0
 30
0.0
  9
$UCSORGFRONT
 10
0.0
 20
0.0
 30
0.0
  9
$UCSORGBACK
 10
0.0
 20
0.0
 30
0.0
  9
$PUCSBASE
  2

  9
$PUCSNAME
  2

  9
$PUCSORG
 10
0.0
 20
0.0
 30
0.0
  9
$PUCSXDIR
 10
1.0
 20
0.0
 30
0.0
  9
$PUCSYDIR
 10
0.0
 20
1.0
 30
0.0
  9
$PUCSORTHOREF
  2

  9
$PUCSORTHOVIEW
 70
     0
  9
$PUCSORGTOP
 10
0.0
 20
0.0
 30
0.0
  9
$PUCSORGBOTTOM
 10
0.0
 20
0.0
 30
0.0
  9
$PUCSORGLEFT
 10
0.0
 20
0.0
 30
0.0
  9
$PUCSORGRIGHT
 10
0.0
 20
0.0
 30
0.0
  9
$PUCSORGFRONT
 10
0.0
 20
0.0
 30
0.0
  9
$PUCSORGBACK
 10
0.0
 20
0.0
 30
0.0
  9
$USERI1
 70
     0
  9
$USERI2
 70
     0
  9
$USERI3
 70
     0
  9
$USERI4
 70
     0
  9
$USERI5
 70
     0
  9
$USERR1
 40
0.0
  9
$USERR2
 40
0.0
  9
$USERR3
 40
0.0
  9
$USERR4
 40
0.0
  9
$USERR5
 40
0.0
  9
$WORLDVIEW
 70
     1
  9
$SHADEDGE
 70
     3
  9
$SHADEDIF
 70
    70
  9
$TILEMODE
 70
     1
  9
$MAXACTVP
 70
    64
  9
$PINSBASE
 10
0.0
 20
0.0
 30
0.0
  9
$PLIMCHECK
 70
     0
  9
$PEXTMIN
 10
1.0000000000E+20
 20
1.0000000000E+20
 30
1.0000000000E+20
  9
$PEXTMAX
 10
-1.0000000000E+20
 20
-1.0000000000E+20
 30
-1.0000000000E+20
  9
$PLIMMIN
 10
0.0
 20
0.0
  9
$PLIMMAX
 10
420.0
 20
297.0
  9
$UNITMODE
 70
     0
  9
$VISRETAIN
 70
     1
  9
$PLINEGEN
 70
     0
  9
$PSLTSCALE
 70
     1
  9
$TREEDEPTH
 70
  3020
  9
$CMLSTYLE
  2
Standard
  9
$CMLJUST
 70
     0
  9
$CMLSCALE
 40
20.0
  9
$PROXYGRAPHICS
 70
     1
  9
$MEASUREMENT
 70
     1
  9
$CELWEIGHT
370
    -1
  9
$ENDCAPS
280
     0
  9
$JOINSTYLE
280
     0
  9
$LWDISPLAY
290
     1
  9
$INSUNITS
 70
     4
  9
$HYPERLINKBASE
  1

  9
$STYLESHEET
  1

  9
$XEDIT
290
     1
  9
$CEPSNTYPE
380
     0
  9
$PSTYLEMODE
290
     1
  9
$FINGERPRINTGUID
  2
{5E5B15F4-AF99-41EC-BDBA-98FDDBCE2F54}
  9
$VERSIONGUID
  2
{FAEB1C32-E019-11D5-929B-00C0DF256EC4}
  9
$EXTNAMES
290
     1
  9
$PSVPSCALE
 40
0.0
  9
$OLESTARTUP
290
     0
  0
ENDSEC
  0
SECTION
  2
CLASSES
  0
CLASS
  1
ACDBDICTIONARYWDFLT
  2
AcDbDictionaryWithDefault
  3
ObjectDBX Classes
 90
        0
280
     0
281
     0
  0
CLASS
  1
VISUALSTYLE
  2
AcDbVisualStyle
  3
ObjectDBX Classes
 90
     4095
280
     0
281
     0
  0
CLASS
  1
MATERIAL
  2
AcDbMaterial
  3
ObjectDBX Classes
 90
     1153
280
     0
281
     0
  0
CLASS
  1
SCALE
  2
AcDbScale
  3
ObjectDBX Classes
 90
     1153
280
     0
281
     0
  0
CLASS
  1
SUN
  2
AcDbSun
  3
SCENEOE
 90
     1153
280
     0
281
     0
  0
CLASS
  1
ACDBPLACEHOLDER
  2
AcDbPlaceHolder
  3
ObjectDBX Classes
 90
        0
280
     0
281
     0
  0
CLASS
  1
LAYOUT
  2
AcDbLayout
  3
ObjectDBX Classes
 90
        0
280
     0
281
     0
  0
ENDSEC
  0
SECTION
  2
TABLES
  0
TABLE
  2
VPORT
  5
8
330
0
100
AcDbSymbolTable
 70
     1
  0
VPORT
  5
29
330
8
100
AcDbSymbolTableRecord
100
AcDbViewportTableRecord
  2
*Active
 70
     0
 10
0.0
 20
0.0
 11
1.0
 21
1.0
 12
210.0
 22
148.5
 13
0.0
 23
0.0
 14
10.0
 24
10.0
 15
10.0
 25
10.0
 16
0.0
 26
0.0
 36
1.0
 17
0.0
 27
0.0
 37
0.0
 40
297.0
 41
1.4141414141
 42
50.0
 43
0.0
 44
0.0
 50
0.0
 51
0.0
 71
     0
 72
  2000
 73
     1
 74
     3
 75
     0
 76
     0
 77
     0
 78
     0
281
     0
 65
     1
110
0.0
120
0.0
130
0.0
111
1.0
121
0.0
131
0.0
112
0.0
122
1.0
132
0.0
 79
     0
146
0.0
  0
ENDTAB
  0
TABLE
  2
LTYPE
  5
5
330
0
100
AcDbSymbolTable
 70
     6
  0
LTYPE
  5
14
330
5
100
AcDbSymbolTableRecord
100
AcDbLinetypeTableRecord
  2
ByBlock
 70
     0
  3

 72
    65
 73
     0
 40
0.0
  0
LTYPE
  5
15
330
5
100
AcDbSymbolTableRecord
100
AcDbLinetypeTableRecord
  2
ByLayer
 70
     0
  3

 72
    65
 73
     0
 40
0.0
  0
LTYPE
  5
16
330
5
100
AcDbSymbolTableRecord
100
AcDbLinetypeTableRecord
  2
Continuous
 70
     0
  3
Solid line
 72
    65
 73
     0
 40
0.0
  0
LTYPE
  5
6A
330
5
100
AcDbSymbolTableRecord
100
AcDbLinetypeTableRecord
  2
HIDDEN
 70
     0
  3
Hidden __ __ __ __ __ __ __ __ __ __ __ __ __ __
 72
    65
 73
     2
 40
1.905
 49
1.27
 74
     0
 49
-0.635
 74
     0
  0
LTYPE
  5
6B
330
5
100
AcDbSymbolTableRecord
100
AcDbLinetypeTableRecord
  2
PHANTOM
 70
     0
  3
Phantom ______  __  __  ______  __  __  ______
 72
    65
 73
     6
 40
12.7
 49
6.35
 74
     0
 49
-1.27
 74
     0
 49
1.27
 74
     0
 49
-1.27
 74
     0
 49
1.27
 74
     0
 49
-1.27
 74
     0
  0
LTYPE
  5
6C
330
5
100
AcDbSymbolTableRecord
100
AcDbLinetypeTableRecord
  2
CENTER
 70
     0
  3
Center ____ _ ____ _ ____ _ ____ _ ____ _ ____
 72
    65
 73
     4
 40
10.16
 49
6.35
 74
     0
 49
-1.27
 74
     0
 49
1.27
 74
     0
 49
-1.27
 74
     0
  0
LTYPE
  5
6D
330
5
100
AcDbSymbolTableRecord
100
AcDbLinetypeTableRecord
  2
CENTERX2
 70
     0
  3
Center (2x) ________  __  ________  __  _____
 72
    65
 73
     4
 40
20.32
 49
12.7
 74
     0
 49
-2.54
 74
     0
 49
2.54
 74
     0
 49
-2.54
 74
     0
  0
LTYPE
  5
6E
330
5
100
AcDbSymbolTableRecord
100
AcDbLinetypeTableRecord
  2
DOT2
 70
     0
  3
Dot (.5x) ........................................
 72
    65
 73
     2
 40
0.635
 49
0.0
 74
     0
 49
-0.635
 74
     0
  0
ENDTAB
  0
TABLE
  2
LAYER
  5
2
330
0
100
AcDbSymbolTable
 70
    10
  0
LAYER
  5
10
330
2
100
AcDbSymbolTableRecord
100
AcDbLayerTableRecord
  2
0
 70
     0
 62
     7
  6
Continuous
370
    -3
390
F
  0
LAYER
  5
6F
330
2
100
AcDbSymbolTableRecord
100
AcDbLayerTableRecord
  2
FORMAT
 70
     0
 62
     7
  6
Continuous
370
    -3
390
F
  0
LAYER
  5
70
330
2
100
AcDbSymbolTableRecord
100
AcDbLayerTableRecord
  2
ASSEMBLY
 70
     0
 62
    -7
  6
Continuous
370
    -3
390
F
  0
LAYER
  5
71
330
2
100
AcDbSymbolTableRecord
100
AcDbLayerTableRecord
  2
PLASTIQUE
 70
     0
 62
    -7
  6
Continuous
370
    -3
390
F
  0
LAYER
  5
72
330
2
100
AcDbSymbolTableRecord
100
AcDbLayerTableRecord
  2
RUBBER
 70
     0
 62
    -7
  6
Continuous
370
    -3
390
F
  0
LAYER
  5
73
330
2
100
AcDbSymbolTableRecord
100
AcDbLayerTableRecord
  2
DIE-CASTING
 70
     0
 62
    -7
  6
Continuous
370
    -3
390
F
  0
LAYER
  5
74
330
2
100
AcDbSymbolTableRecord
100
AcDbLayerTableRecord
  2
TÔLERIE-USINAGE
 70
     0
 62
    -7
  6
Continuous
370
    -3
390
F
  0
LAYER
  5
75
330
2
100
AcDbSymbolTableRecord
100
AcDbLayerTableRecord
  2
SHIELD
 70
     0
 62
    -7
  6
Continuous
370
    -3
390
F
  0
LAYER
  5
76
330
2
100
AcDbSymbolTableRecord
100
AcDbLayerTableRecord
  2
DESSIN
 70
     0
 62
     7
  6
Continuous
370
    -3
390
F
  0
LAYER
  5
77
330
2
100
AcDbSymbolTableRecord
100
AcDbLayerTableRecord
  2
CALQUE_1
 70
     0
 62
     7
  6
Continuous
370
    -3
390
F
  0
ENDTAB
  0
TABLE
  2
STYLE
  5
3
330
0
100
AcDbSymbolTable
 70
     7
  0
STYLE
  5
11
330
3
100
AcDbSymbolTableRecord
100
AcDbTextStyleTableRecord
  2
Standard
 70
     0
 40
0.0
 41
1.0
 50
0.0
 71
     0
 42
3.5
  3
txt
  4

  0
STYLE
  5
D1
330
3
100
AcDbSymbolTableRecord
100
AcDbTextStyleTableRecord
  2
SLDTEXTSTYLE0
 70
     0
 40
0.0
 41
0.75
 50
0.0
 71
     0
 42
3.5
  3
TXT
  4

  0
STYLE
  5
F1
330
3
100
AcDbSymbolTableRecord
100
AcDbTextStyleTableRecord
  2
SLDTEXTSTYLE1
 70
     0
 40
0.0
 41
0.7
 50
0.0
 71
     0
 42
3.5
  3
TXT
  4

  0
STYLE
  5
10A
330
3
100
AcDbSymbolTableRecord
100
AcDbTextStyleTableRecord
  2
SLDTEXTSTYLE2
 70
     0
 40
0.0
 41
0.65
 50
0.0
 71
     0
 42
3.5
  3
TXT
  4

  0
STYLE
  5
11E
330
3
100
AcDbSymbolTableRecord
100
AcDbTextStyleTableRecord
  2
SLDTEXTSTYLE3
 70
     0
 40
0.0
 41
0.6333333333
 50
0.0
 71
     0
 42
3.5
  3
TXT
  4

  0
STYLE
  5
133
330
3
100
AcDbSymbolTableRecord
100
AcDbTextStyleTableRecord
  2
SLDTEXTSTYLE4
 70
     0
 40
0.0
 41
0.6538461538
 50
0.0
 71
     0
 42
3.5
  3
TXT
  4

  0
STYLE
  5
22D
330
3
100
AcDbSymbolTableRecord
100
AcDbTextStyleTableRecord
  2
SLDTEXTSTYLE5
 70
     0
 40
0.0
 41
0.6142857143
 50
0.0
 71
     0
 42
3.5
  3
TXT
  4

  0
ENDTAB
  0
TABLE
  2
VIEW
  5
6
330
0
100
AcDbSymbolTable
 70
     0
  0
ENDTAB
  0
TABLE
  2
UCS
  5
7
330
0
100
AcDbSymbolTable
 70
     0
  0
ENDTAB
  0
TABLE
  2
APPID
  5
9
330
0
100
AcDbSymbolTable
 70
     1
  0
APPID
  5
12
330
9
100
AcDbSymbolTableRecord
100
AcDbRegAppTableRecord
  2
ACAD
 70
     0
  0
ENDTAB
  0
TABLE
  2
DIMSTYLE
  5
A
330
0
100
AcDbSymbolTable
 70
     4
100
AcDbDimStyleTable
  0
DIMSTYLE
105
27
330
A
100
AcDbSymbolTableRecord
100
AcDbDimStyleTableRecord
  2
ISO-25
 70
     0
 41
2.5
 42
0.625
 43
3.75
 44
1.25
 73
     0
 74
     0
 77
     1
 78
     8
140
2.5
141
2.5
143
0.0393700787
147
0.625
171
     3
172
     1
178
     0
271
     2
272
     2
274
     3
278
    44
283
     0
284
     8
340
11
  0
DIMSTYLE
105
26F
102
{ACAD_REACTORS
330
26E
330
279
102
}
330
A
100
AcDbSymbolTableRecord
100
AcDbDimStyleTableRecord
  2
SLDDIMSTYLE0
 70
     0
 41
3.302
 44
0.0
 45
0.000000001
 73
     0
 74
     0
 77
     1
 78
    12
 79
     3
140
3.5
147
0.875
173
     1
178
     0
271
     2
272
     2
276
     2
284
    12
340
D1
  0
DIMSTYLE
105
284
102
{ACAD_REACTORS
330
283
102
}
330
A
100
AcDbSymbolTableRecord
100
AcDbDimStyleTableRecord
  2
SLDDIMSTYLE1
 70
     0
 41
3.302
 44
0.0
 45
0.000000001
 78
    12
 79
     3
140
3.5
141
0.0
147
0.875
172
     1
173
     1
178
     0
271
     2
272
     2
276
     2
284
    12
340
D1
341
285
343
285
  0
DIMSTYLE
105
2E1
102
{ACAD_REACTORS
330
2E0
102
}
330
A
100
AcDbSymbolTableRecord
100
AcDbDimStyleTableRecord
  2
SLDDIMSTYLE2
 70
     0
 41
3.302
 44
0.0
 45
0.000000001
 73
     0
 74
     0
 77
     1
 78
    12
 79
     3
140
3.5
147
0.875
172
     1
173
     1
178
     0
271
     2
272
     2
276
     2
284
    12
289
     0
340
D1
  0
ENDTAB
  0
TABLE
  2
BLOCK_RECORD
  5
1
330
0
100
AcDbSymbolTable
 70
    42
  0
BLOCK_RECORD
  5
1F
330
1
100
AcDbSymbolTableRecord
100
AcDbBlockTableRecord
  2
*Model_Space
340
22
  0
BLOCK_RECORD
  5
1B
330
1
100
AcDbSymbolTableRecord
100
AcDbBlockTableRecord
  2
*Paper_Space
340
1E
  0
BLOCK_RECORD
  5
23
330
1
100
AcDbSymbolTableRecord
100
AcDbBlockTableRecord
  2
*Paper_Space0
340
26
  0
BLOCK_RECORD
  5
EE
330
1
100
AcDbSymbolTableRecord
100
AcDbBlockTableRecord
  2
SW_NOTE_0
340
0
102
{BLKREFS
331
F5
102
}
  0
BLOCK_RECORD
  5
FB
330
1
100
AcDbSymbolTableRecord
100
AcDbBlockTableRecord
  2
SW_NOTE_1
340
0
102
{BLKREFS
331
110
102
}
  0
BLOCK_RECORD
  5
114
330
1
100
AcDbSymbolTableRecord
100
AcDbBlockTableRecord
  2
SW_NOTE_2
340
0
102
{BLKREFS
331
119
102
}
  0
BLOCK_RECORD
  5
11A
330
1
100
AcDbSymbolTableRecord
100
AcDbBlockTableRecord
  2
SW_NOTE_3
340
0
102
{BLKREFS
331
120
102
}
  0
BLOCK_RECORD
  5
121
330
1
100
AcDbSymbolTableRecord
100
AcDbBlockTableRecord
  2
SW_NOTE_4
340
0
102
{BLKREFS
331
126
102
}
  0
BLOCK_RECORD
  5
12D
330
1
100
AcDbSymbolTableRecord
100
AcDbBlockTableRecord
  2
SW_NOTE_5
340
0
102
{BLKREFS
331
132
102
}
  0
BLOCK_RECORD
  5
135
330
1
100
AcDbSymbolTableRecord
100
AcDbBlockTableRecord
  2
SW_NOTE_6
340
0
102
{BLKREFS
331
13A
102
}
  0
BLOCK_RECORD
  5
13B
330
1
100
AcDbSymbolTableRecord
100
AcDbBlockTableRecord
  2
SW_NOTE_7
340
0
102
{BLKREFS
331
140
102
}
  0
BLOCK_RECORD
  5
141
330
1
100
AcDbSymbolTableRecord
100
AcDbBlockTableRecord
  2
SW_NOTE_8
340
0
102
{BLKREFS
331
146
102
}
  0
BLOCK_RECORD
  5
147
330
1
100
AcDbSymbolTableRecord
100
AcDbBlockTableRecord
  2
SW_NOTE_9
340
0
102
{BLKREFS
331
15B
102
}
  0
BLOCK_RECORD
  5
15C
330
1
100
AcDbSymbolTableRecord
100
AcDbBlockTableRecord
  2
SW_NOTE_10
340
0
102
{BLKREFS
331
164
102
}
  0
BLOCK_RECORD
  5
165
330
1
100
AcDbSymbolTableRecord
100
AcDbBlockTableRecord
  2
SW_NOTE_11
340
0
102
{BLKREFS
331
16A
102
}
  0
BLOCK_RECORD
  5
16B
330
1
100
AcDbSymbolTableRecord
100
AcDbBlockTableRecord
  2
SW_NOTE_12
340
0
102
{BLKREFS
331
170
102
}
  0
BLOCK_RECORD
  5
171
330
1
100
AcDbSymbolTableRecord
100
AcDbBlockTableRecord
  2
SW_NOTE_13
340
0
102
{BLKREFS
331
18A
102
}
  0
BLOCK_RECORD
  5
18B
330
1
100
AcDbSymbolTableRecord
100
AcDbBlockTableRecord
  2
SW_NOTE_14
340
0
102
{BLKREFS
331
190
102
}
  0
BLOCK_RECORD
  5
191
330
1
100
AcDbSymbolTableRecord
100
AcDbBlockTableRecord
  2
SW_NOTE_15
340
0
102
{BLKREFS
331
199
102
}
  0
BLOCK_RECORD
  5
19B
330
1
100
AcDbSymbolTableRecord
100
AcDbBlockTableRecord
  2
SW_NOTE_16
340
0
102
{BLKREFS
331
1B3
102
}
  0
BLOCK_RECORD
  5
1B4
330
1
100
AcDbSymbolTableRecord
100
AcDbBlockTableRecord
  2
SW_NOTE_17
340
0
102
{BLKREFS
331
1B9
102
}
  0
BLOCK_RECORD
  5
1BA
330
1
100
AcDbSymbolTableRecord
100
AcDbBlockTableRecord
  2
SW_NOTE_18
340
0
102
{BLKREFS
331
1C2
102
}
  0
BLOCK_RECORD
  5
1C3
330
1
100
AcDbSymbolTableRecord
100
AcDbBlockTableRecord
  2
SW_NOTE_19
340
0
102
{BLKREFS
331
1C9
102
}
  0
BLOCK_RECORD
  5
1CA
330
1
100
AcDbSymbolTableRecord
100
AcDbBlockTableRecord
  2
SW_NOTE_20
340
0
102
{BLKREFS
331
1E0
102
}
  0
BLOCK_RECORD
  5
1E1
330
1
100
AcDbSymbolTableRecord
100
AcDbBlockTableRecord
  2
SW_NOTE_21
340
0
102
{BLKREFS
331
1E6
102
}
  0
BLOCK_RECORD
  5
1E7
330
1
100
AcDbSymbolTableRecord
100
AcDbBlockTableRecord
  2
SW_NOTE_22
340
0
102
{BLKREFS
331
1EF
102
}
  0
BLOCK_RECORD
  5
1F1
330
1
100
AcDbSymbolTableRecord
100
AcDbBlockTableRecord
  2
SW_NOTE_23
340
0
102
{BLKREFS
331
213
102
}
  0
BLOCK_RECORD
  5
214
330
1
100
AcDbSymbolTableRecord
100
AcDbBlockTableRecord
  2
SW_NOTE_24
340
0
102
{BLKREFS
331
219
102
}
  0
BLOCK_RECORD
  5
21A
330
1
100
AcDbSymbolTableRecord
100
AcDbBlockTableRecord
  2
SW_NOTE_25
340
0
102
{BLKREFS
331
222
102
}
  0
BLOCK_RECORD
  5
223
330
1
100
AcDbSymbolTableRecord
100
AcDbBlockTableRecord
  2
SW_NOTE_26
340
0
102
{BLKREFS
331
22F
102
}
  0
BLOCK_RECORD
  5
226
330
1
100
AcDbSymbolTableRecord
100
AcDbBlockTableRecord
  2
SW_SYMBOL_GTOL_POSI
340
0
102
{BLKREFS
331
22C
102
}
  0
BLOCK_RECORD
  5
230
330
1
100
AcDbSymbolTableRecord
100
AcDbBlockTableRecord
  2
SW_NOTE_27
340
0
102
{BLKREFS
331
239
102
}
  0
BLOCK_RECORD
  5
233
330
1
100
AcDbSymbolTableRecord
100
AcDbBlockTableRecord
  2
SW_SYMBOL_GTOL_LPROF
340
0
102
{BLKREFS
331
237
102
}
  0
BLOCK_RECORD
  5
23A
330
1
100
AcDbSymbolTableRecord
100
AcDbBlockTableRecord
  2
SW_NOTE_28
340
0
102
{BLKREFS
331
244
102
}
  0
BLOCK_RECORD
  5
23D
330
1
100
AcDbSymbolTableRecord
100
AcDbBlockTableRecord
  2
SW_SYMBOL_GTOL_SPROF
340
0
102
{BLKREFS
331
242
102
}
  0
BLOCK_RECORD
  5
270
330
1
100
AcDbSymbolTableRecord
100
AcDbBlockTableRecord
  2
_D
340
0
  0
BLOCK_RECORD
  5
27A
330
1
100
AcDbSymbolTableRecord
100
AcDbBlockTableRecord
  2
_D_1
340
0
  0
BLOCK_RECORD
  5
285
330
1
100
AcDbSymbolTableRecord
100
AcDbBlockTableRecord
  2
_NONE
340
0
  0
BLOCK_RECORD
  5
288
330
1
100
AcDbSymbolTableRecord
100
AcDbBlockTableRecord
  2
_D_2
340
0
  0
BLOCK_RECORD
  5
291
330
1
100
AcDbSymbolTableRecord
100
AcDbBlockTableRecord
  2
SW_CENTERMARKSYMBOL_0
340
0
102
{BLKREFS
331
29C
102
}
  0
BLOCK_RECORD
  5
29D
330
1
100
AcDbSymbolTableRecord
100
AcDbBlockTableRecord
  2
SW_CENTERMARKSYMBOL_1
340
0
102
{BLKREFS
331
2A8
102
}
  0
BLOCK_RECORD
  5
2A9
330
1
100
AcDbSymbolTableRecord
100
AcDbBlockTableRecord
  2
SW_CENTERMARKSYMBOL_2
340
0
102
{BLKREFS
331
2B4
102
}
  0
BLOCK_RECORD
  5
2B5
330
1
100
AcDbSymbolTableRecord
100
AcDbBlockTableRecord
  2
SW_CENTERMARKSYMBOL_3
340
0
102
{BLKREFS
331
2C0
102
}
  0
BLOCK_RECORD
  5
2E2
330
1
100
AcDbSymbolTableRecord
100
AcDbBlockTableRecord
  2
_D_3
340
0
  0
ENDTAB
  0
ENDSEC
  0
SECTION
  2
BLOCKS
  0
BLOCK
  5
20
330
1F
100
AcDbEntity
  8
0
100
AcDbBlockBegin
  2
*Model_Space
 70
     0
 10
0.0
 20
0.0
 30
0.0
  3
*Model_Space
  1
*Model_Space
  0
ENDBLK
  5
21
330
1F
100
AcDbEntity
  8
0
100
AcDbBlockEnd
  0
BLOCK
  5
1C
330
1B
100
AcDbEntity
 67
     1
  8
0
100
AcDbBlockBegin
  2
*Paper_Space
 70
     0
 10
0.0
 20
0.0
 30
0.0
  3
*Paper_Space
  1
*Paper_Space
  0
ENDBLK
  5
1D
330
1B
100
AcDbEntity
 67
     1
  8
0
100
AcDbBlockEnd
  0
BLOCK
  5
24
330
23
100
AcDbEntity
  8
0
100
AcDbBlockBegin
  2
*Paper_Space0
 70
     0
 10
0.0
 20
0.0
 30
0.0
  3
*Paper_Space0
  1
*Paper_Space0
  0
ENDBLK
  5
25
330
23
100
AcDbEntity
  8
0
100
AcDbBlockEnd
  0
BLOCK
  5
EF
330
EE
100
AcDbEntity
  8
0
100
AcDbBlockBegin
  2
SW_NOTE_0
 70
     0
 10
0.0
 20
0.0
 30
0.0
  3
SW_NOTE_0
  1
SW_NOTE_0
  0
MTEXT
  5
F2
330
EE
100
AcDbEntity
  8
FORMAT
 62
     0
100
AcDbMText
 10
36.5625
 20
2.3203219316
 30
0.0
 40
1.8
 41
0.0
 71
     2
 72
     1
  1
All geometry is to be derived from the CAD database.
  7
SLDTEXTSTYLE1
 73
     1
 44
1.0
  0
MTEXT
  5
F3
330
EE
100
AcDbEntity
  8
FORMAT
 62
     0
100
AcDbMText
 10
36.58375144
 20
-0.4796779686
 30
0.0
 40
1.8
 41
0.0
 71
     2
 72
     1
  1
Critical to function dimensions called out on this
  7
SLDTEXTSTYLE1
 73
     1
 44
1.0
  0
MTEXT
  5
F4
330
EE
100
AcDbEntity
  8
FORMAT
 62
     0
100
AcDbMText
 10
36.7325115204
 20
-3.2796778687
 30
0.0
 40
1.8
 41
0.0
 71
     2
 72
     1
  1
drawing are for inspection purposes.
  7
SLDTEXTSTYLE1
 73
     1
 44
1.0
  0
ENDBLK
  5
F0
330
EE
100
AcDbEntity
  8
0
100
AcDbBlockEnd
  0
BLOCK
  5
FC
330
FB
100
AcDbEntity
  8
0
100
AcDbBlockBegin
  2
SW_NOTE_1
 70
     0
 10
0.0
 20
0.0
 30
0.0
  3
SW_NOTE_1
  1
SW_NOTE_1
  0
MTEXT
  5
FE
330
FB
100
AcDbEntity
  8
FORMAT
 62
     0
100
AcDbMText
 10
0.0
 20
1.6757880617
 30
0.0
 40
1.3
 41
0.0
 71
     1
 72
     1
  1
ALL GEOMETRICAL TOLERANCES ACCORDING TO ISO 14638 : 2015
  7
SLDTEXTSTYLE1
 73
     1
 44
1.0
  0
MTEXT
  5
FF
330
FB
100
AcDbEntity
  8
FORMAT
 62
     0
100
AcDbMText
 10
0.0
 20
-0.6242119893
 30
0.0
 40
1.3
 41
0.0
 71
     1
 72
     1
  1
AND THE FOLLOWING STANDARDS :
  7
SLDTEXTSTYLE1
 73
     1
 44
1.0
  0
MTEXT
  5
100
330
FB
100
AcDbEntity
  8
FORMAT
 62
     0
100
AcDbMText
 10
0.0
 20
-2.9242120404
 30
0.0
 40
1.3
 41
0.0
 71
     1
 72
     1
  1
ISO 17450 : 2016
  7
SLDTEXTSTYLE1
 73
     1
 44
1.0
  0
MTEXT
  5
101
330
FB
100
AcDbEntity
  8
FORMAT
 62
     0
100
AcDbMText
 10
19.5884723216
 20
-2.9067002454
 30
0.0
 40
1.3229166667
 41
0.0
 71
     1
 72
     1
  1
|
  7
SLDTEXTSTYLE1
 73
     1
 44
1.0
  0
MTEXT
  5
102
330
FB
100
AcDbEntity
  8
FORMAT
 62
     0
100
AcDbMText
 10
21.6648811847
 20
-2.9242120404
 30
0.0
 40
1.3
 41
0.0
 71
     1
 72
     1
  1
ISO 1101: 2012
  7
SLDTEXTSTYLE1
 73
     1
 44
1.0
  0
MTEXT
  5
103
330
FB
100
AcDbEntity
  8
FORMAT
 62
     0
100
AcDbMText
 10
38.1757840514
 20
-2.9067002454
 30
0.0
 40
1.3229166667
 41
0.0
 71
     1
 72
     1
  1
|
  7
SLDTEXTSTYLE1
 73
     1
 44
1.0
  0
MTEXT
  5
104
330
FB
100
AcDbEntity
  8
FORMAT
 62
     0
100
AcDbMText
 10
40.2521929145
 20
-2.9242120404
 30
0.0
 40
1.3
 41
0.0
 71
     1
 72
     1
  1
ISO 5459 : 2011
  7
SLDTEXTSTYLE1
 73
     1
 44
1.0
  0
MTEXT
  5
105
330
FB
100
AcDbEntity
  8
FORMAT
 62
     0
100
AcDbMText
 10
0.0
 20
-5.2362412866
 30
0.0
 40
1.3
 41
0.0
 71
     1
 72
     1
  1
ISO 14405-1 : 2016
  7
SLDTEXTSTYLE1
 73
     1
 44
1.0
  0
MTEXT
  5
106
330
FB
100
AcDbEntity
  8
FORMAT
 62
     0
100
AcDbMText
 10
19.5884723216
 20
-5.2187294916
 30
0.0
 40
1.3229166667
 41
0.0
 71
     1
 72
     1
  1
|
  7
SLDTEXTSTYLE1
 73
     1
 44
1.0
  0
MTEXT
  5
107
330
FB
100
AcDbEntity
  8
FORMAT
 62
     0
100
AcDbMText
 10
21.6648811847
 20
-5.2362412866
 30
0.0
 40
1.3
 41
0.0
 71
     1
 72
     1
  1
ISO 2692 : 2014
  7
SLDTEXTSTYLE1
 73
     1
 44
1.0
  0
MTEXT
  5
108
330
FB
100
AcDbEntity
  8
FORMAT
 62
     0
100
AcDbMText
 10
38.1757840514
 20
-5.2187294916
 30
0.0
 40
1.3229166667
 41
0.0
 71
     1
 72
     1
  1
|
  7
SLDTEXTSTYLE1
 73
     1
 44
1.0
  0
MTEXT
  5
109
330
FB
100
AcDbEntity
  8
FORMAT
 62
     0
100
AcDbMText
 10
40.2521929145
 20
-5.2362412866
 30
0.0
 40
1.3
 41
0.0
 71
     1
 72
     1
  1
ISO 22432 : 2011
  7
SLDTEXTSTYLE1
 73
     1
 44
1.0
  0
MTEXT
  5
10B
330
FB
100
AcDbEntity
  8
FORMAT
 62
     0
100
AcDbMText
 10
0.0
 20
-7.5482705329
 30
0.0
 40
1.3
 41
0.0
 71
     1
 72
     1
  1
ISO 8015  : 2011
  7
SLDTEXTSTYLE2
 73
     1
 44
1.0
  0
MTEXT
  5
10C
330
FB
100
AcDbEntity
  8
FORMAT
 62
     0
100
AcDbMText
 10
19.5884723216
 20
-7.5307587379
 30
0.0
 40
1.3229166667
 41
0.0
 71
     1
 72
     1
  1
|
  7
SLDTEXTSTYLE1
 73
     1
 44
1.0
  0
MTEXT
  5
10D
330
FB
100
AcDbEntity
  8
FORMAT
 62
     0
100
AcDbMText
 10
21.6648811847
 20
-7.5482705329
 30
0.0
 40
1.3
 41
0.0
 71
     1
 72
     1
  1
ISO 5458 : 1998
  7
SLDTEXTSTYLE1
 73
     1
 44
1.0
  0
MTEXT
  5
10E
330
FB
100
AcDbEntity
  8
FORMAT
 62
     0
100
AcDbMText
 10
38.1757840514
 20
-7.5307587379
 30
0.0
 40
1.3229166667
 41
0.0
 71
     1
 72
     1
  1
|
  7
SLDTEXTSTYLE1
 73
     1
 44
1.0
  0
MTEXT
  5
10F
330
FB
100
AcDbEntity
  8
FORMAT
 62
     0
100
AcDbMText
 10
40.2521929145
 20
-7.5482705329
 30
0.0
 40
1.3
 41
0.0
 71
     1
 72
     1
  1
ISO 14405-2 : 2011
  7
SLDTEXTSTYLE1
 73
     1
 44
1.0
  0
ENDBLK
  5
FD
330
FB
100
AcDbEntity
  8
0
100
AcDbBlockEnd
  0
BLOCK
  5
115
330
114
100
AcDbEntity
  8
0
100
AcDbBlockBegin
  2
SW_NOTE_2
 70
     0
 10
0.0
 20
0.0
 30
0.0
  3
SW_NOTE_2
  1
SW_NOTE_2
  0
MTEXT
  5
117
330
114
100
AcDbEntity
  8
FORMAT
 62
     0
100
AcDbMText
 10
0.0
 20
1.9336016097
 30
0.0
 40
1.5
 41
0.0
 71
     1
 72
     1
  1
SCALE
  7
SLDTEXTSTYLE1
 73
     1
 44
1.0
  0
MTEXT
  5
118
330
114
100
AcDbEntity
  8
FORMAT
 62
     0
100
AcDbMText
 10
6.9979170337
 20
1.9336016097
 30
0.0
 40
1.5
 41
0.0
 71
     1
 72
     1
  1
1:1
  7
SLDTEXTSTYLE1
 73
     1
 44
1.0
  0
ENDBLK
  5
116
330
114
100
AcDbEntity
  8
0
100
AcDbBlockEnd
  0
BLOCK
  5
11B
330
11A
100
AcDbEntity
  8
0
100
AcDbBlockBegin
  2
SW_NOTE_3
 70
     0
 10
0.0
 20
0.0
 30
0.0
  3
SW_NOTE_3
  1
SW_NOTE_3
  0
MTEXT
  5
11D
330
11A
100
AcDbEntity
  8
FORMAT
 62
     0
100
AcDbMText
 10
0.0
 20
1.9336016097
 30
0.0
 40
1.5
 41
0.0
 71
     1
 72
     1
  1
SHEET
  7
SLDTEXTSTYLE1
 73
     1
 44
1.0
  0
MTEXT
  5
11F
330
11A
100
AcDbEntity
  8
FORMAT
 62
     0
100
AcDbMText
 10
6.9635419175
 20
1.9336016097
 30
0.0
 40
1.5
 41
0.0
 71
     1
 72
     1
  1
1 OF 1
  7
SLDTEXTSTYLE3
 73
     1
 44
1.0
  0
ENDBLK
  5
11C
330
11A
100
AcDbEntity
  8
0
100
AcDbBlockEnd
  0
BLOCK
  5
122
330
121
100
AcDbEntity
  8
0
100
AcDbBlockBegin
  2
SW_NOTE_4
 70
     0
 10
0.0
 20
0.0
 30
0.0
  3
SW_NOTE_4
  1
SW_NOTE_4
  0
MTEXT
  5
124
330
121
100
AcDbEntity
  8
FORMAT
 62
     0
100
AcDbMText
 10
0.0
 20
2.0463950369
 30
0.0
 40
1.5875
 41
0.0
 71
     1
 72
     1
  1
SIZE
  7
SLDTEXTSTYLE1
 73
     1
 44
1.0
  0
MTEXT
  5
125
330
121
100
AcDbEntity
  8
FORMAT
 62
     0
100
AcDbMText
 10
6.1897798628
 20
2.0463950369
 30
0.0
 40
1.5875
 41
0.0
 71
     1
 72
     1
  1
A3
  7
SLDTEXTSTYLE1
 73
     1
 44
1.0
  0
ENDBLK
  5
123
330
121
100
AcDbEntity
  8
0
100
AcDbBlockEnd
  0
BLOCK
  5
12E
330
12D
100
AcDbEntity
  8
0
100
AcDbBlockBegin
  2
SW_NOTE_5
 70
     0
 10
0.0
 20
0.0
 30
0.0
  3
SW_NOTE_5
  1
SW_NOTE_5
  0
MTEXT
  5
130
330
12D
100
AcDbEntity
  8
FORMAT
 62
     0
100
AcDbMText
 10
0.0
 20
2.0463950369
 30
0.0
 40
1.5875
 41
0.0
 71
     1
 72
     1
  1
TOLERANCES
  7
SLDTEXTSTYLE1
 73
     1
 44
1.0
  0
MTEXT
  5
131
330
12D
100
AcDbEntity
  8
FORMAT
 62
     0
100
AcDbMText
 10
0.0
 20
-0.0468477361
 30
0.0
 40
1.0583333333
 41
0.0
 71
     1
 72
     1
  1
(UNLESS OTHERWISE SPECIFIED)
  7
SLDTEXTSTYLE1
 73
     1
 44
1.0
  0
ENDBLK
  5
12F
330
12D
100
AcDbEntity
  8
0
100
AcDbBlockEnd
  0
BLOCK
  5
136
330
135
100
AcDbEntity
  8
0
100
AcDbBlockBegin
  2
SW_NOTE_6
 70
     0
 10
0.0
 20
0.0
 30
0.0
  3
SW_NOTE_6
  1
SW_NOTE_6
  0
MTEXT
  5
138
330
135
100
AcDbEntity
  8
FORMAT
 62
     0
100
AcDbMText
 10
0.0
 20
1.3642633579
 30
0.0
 40
1.0583333333
 41
0.0
 71
     1
 72
     1
  1
-0.2
  7
SLDTEXTSTYLE1
 73
     1
 44
1.0
  0
MTEXT
  5
139
330
135
100
AcDbEntity
  8
FORMAT
 62
     0
100
AcDbMText
 10
0.0
 20
-0.0468477361
 30
0.0
 40
1.0583333333
 41
0.0
 71
     1
 72
     1
  1
-0.3
  7
SLDTEXTSTYLE1
 73
     1
 44
1.0
  0
ENDBLK
  5
137
330
135
100
AcDbEntity
  8
0
100
AcDbBlockEnd
  0
BLOCK
  5
13C
330
13B
100
AcDbEntity
  8
0
100
AcDbBlockBegin
  2
SW_NOTE_7
 70
     0
 10
0.0
 20
0.0
 30
0.0
  3
SW_NOTE_7
  1
SW_NOTE_7
  0
MTEXT
  5
13E
330
13B
100
AcDbEntity
  8
FORMAT
 62
     0
100
AcDbMText
 10
0.0
 20
1.3642633579
 30
0.0
 40
1.0583333333
 41
0.0
 71
     1
 72
     1
  1
+0.3
  7
SLDTEXTSTYLE1
 73
     1
 44
1.0
  0
MTEXT
  5
13F
330
13B
100
AcDbEntity
  8
FORMAT
 62
     0
100
AcDbMText
 10
0.0
 20
-0.0468477361
 30
0.0
 40
1.0583333333
 41
0.0
 71
     1
 72
     1
  1
+0.2
  7
SLDTEXTSTYLE1
 73
     1
 44
1.0
  0
ENDBLK
  5
13D
330
13B
100
AcDbEntity
  8
0
100
AcDbBlockEnd
  0
BLOCK
  5
142
330
141
100
AcDbEntity
  8
0
100
AcDbBlockBegin
  2
SW_NOTE_8
 70
     0
 10
0.0
 20
0.0
 30
0.0
  3
SW_NOTE_8
  1
SW_NOTE_8
  0
MTEXT
  5
144
330
141
100
AcDbEntity
  8
PLASTIQUE
 62
     0
100
AcDbMText
 10
26.4583333333
 20
2.7285267159
 30
0.0
 40
2.1166666667
 41
0.0
 71
     3
 72
     1
  1
NFT 58000 : 1987
  7
SLDTEXTSTYLE1
 73
     1
 44
1.0
  0
MTEXT
  5
145
330
141
100
AcDbEntity
  8
PLASTIQUE
 62
     0
100
AcDbMText
 10
26.5891561409
 20
-0.0936954723
 30
0.0
 40
2.1166666667
 41
0.0
 71
     3
 72
     1
  1
Cat 4 Reduced
  7
SLDTEXTSTYLE1
 73
     1
 44
1.0
  0
ENDBLK
  5
143
330
141
100
AcDbEntity
  8
0
100
AcDbBlockEnd
  0
BLOCK
  5
148
330
147
100
AcDbEntity
  8
0
100
AcDbBlockBegin
  2
SW_NOTE_9
 70
     0
 10
0.0
 20
0.0
 30
0.0
  3
SW_NOTE_9
  1
SW_NOTE_9
  0
MTEXT
  5
14A
330
147
100
AcDbEntity
  8
PLASTIQUE
 62
     0
100
AcDbMText
 10
0.0
 20
3.4106583948
 30
0.0
 40
2.6458333333
 41
0.0
 71
     1
 72
     1
  1
Notes:
  7
SLDTEXTSTYLE1
 73
     1
 44
1.0
  0
MTEXT
  5
14B
330
147
100
AcDbEntity
  8
PLASTIQUE
 62
     0
100
AcDbMText
 10
0.0
 20
-3.6448970755
 30
0.0
 40
2.6458333333
 41
0.0
 71
     1
 72
     1
  1
1. Material : Bayer Bayblend T65XF BBS910 Raven 901626
  7
SLDTEXTSTYLE1
 73
     1
 44
1.0
  0
MTEXT
  5
14C
330
147
100
AcDbEntity
  8
PLASTIQUE
 62
     0
100
AcDbMText
 10
0.0
 20
-7.1726748106
 30
0.0
 40
2.6458333333
 41
0.0
 71
     1
 72
     1
  1
2. Color : Raven 71428000
  7
SLDTEXTSTYLE1
 73
     1
 44
1.0
  0
MTEXT
  5
14D
330
147
100
AcDbEntity
  8
PLASTIQUE
 62
     0
100
AcDbMText
 10
0.0
 20
-10.7004525458
 30
0.0
 40
2.6458333333
 41
0.0
 71
     1
 72
     1
  1
3. Finish :   Graining  3820473 on external sides
  7
SLDTEXTSTYLE1
 73
     1
 44
1.0
  0
MTEXT
  5
14E
330
147
100
AcDbEntity
  8
PLASTIQUE
 62
     0
100
AcDbMText
 10
0.0
 20
-14.2282302809
 30
0.0
 40
2.6458333333
 41
0.0
 71
     1
 72
     1
  1
4. No change in production material shall be allowed
  7
SLDTEXTSTYLE1
 73
     1
 44
1.0
  0
MTEXT
  5
14F
330
147
100
AcDbEntity
  8
PLASTIQUE
 62
     0
100
AcDbMText
 10
6.201171875
 20
-17.7560080161
 30
0.0
 40
2.6458333333
 41
0.0
 71
     1
 72
     1
  1
without explicit prior written approval from Parrot
  7
SLDTEXTSTYLE1
 73
     1
 44
1.0
  0
MTEXT
  5
150
330
147
100
AcDbEntity
  8
PLASTIQUE
 62
     0
100
AcDbMText
 10
0.0
 20
-21.2837857512
 30
0.0
 40
2.6458333333
 41
0.0
 71
     1
 72
     1
  1
5. Reference dimensions, shown in parantheses (DIM),
  7
SLDTEXTSTYLE1
 73
     1
 44
1.0
  0
MTEXT
  5
151
330
147
100
AcDbEntity
  8
PLASTIQUE
 62
     0
100
AcDbMText
 10
6.201171875
 20
-24.8115634863
 30
0.0
 40
2.6458333333
 41
0.0
 71
     1
 72
     1
  1
are without tolerance and are for information
  7
SLDTEXTSTYLE1
 73
     1
 44
1.0
  0
MTEXT
  5
152
330
147
100
AcDbEntity
  8
PLASTIQUE
 62
     0
100
AcDbMText
 10
6.201171875
 20
-28.3393412215
 30
0.0
 40
2.6458333333
 41
0.0
 71
     1
 72
     1
  1
purpose only
  7
SLDTEXTSTYLE1
 73
     1
 44
1.0
  0
MTEXT
  5
153
330
147
100
AcDbEntity
  8
PLASTIQUE
 62
     0
100
AcDbMText
 10
0.0
 20
-31.8671189566
 30
0.0
 40
2.6458333333
 41
0.0
 71
     1
 72
     1
  1
6. All geometry is to be derived from the CAD database.
  7
SLDTEXTSTYLE1
 73
     1
 44
1.0
  0
MTEXT
  5
154
330
147
100
AcDbEntity
  8
PLASTIQUE
 62
     0
100
AcDbMText
 10
6.201171875
 20
-35.3948966918
 30
0.0
 40
2.6458333333
 41
0.0
 71
     1
 72
     1
  1
Critical to function dimensions called out on this
  7
SLDTEXTSTYLE1
 73
     1
 44
1.0
  0
MTEXT
  5
155
330
147
100
AcDbEntity
  8
PLASTIQUE
 62
     0
100
AcDbMText
 10
6.201171875
 20
-38.9226744269
 30
0.0
 40
2.6458333333
 41
0.0
 71
     1
 72
     1
  1
drawing are only for inspection purposes
  7
SLDTEXTSTYLE1
 73
     1
 44
1.0
  0
MTEXT
  5
156
330
147
100
AcDbEntity
  8
PLASTIQUE
 62
     0
100
AcDbMText
 10
0.0
 20
-45.9782298972
 30
0.0
 40
2.6458333333
 41
0.0
 71
     1
 72
     1
  1
9.     = Special Characteristic Dimension
  7
SLDTEXTSTYLE1
 73
     1
 44
1.0
  0
MTEXT
  5
157
330
147
100
AcDbEntity
  8
PLASTIQUE
 62
     0
100
AcDbMText
 10
0.0
 20
-53.0337853675
 30
0.0
 40
2.6458333333
 41
0.0
 71
     1
 72
     1
  1
10.    = Dimension identification number for FAI
  7
SLDTEXTSTYLE1
 73
     1
 44
1.0
  0
MTEXT
  5
158
330
147
100
AcDbEntity
  8
PLASTIQUE
 62
     0
100
AcDbMText
 10
0.0
 20
-60.0893408378
 30
0.0
 40
2.6458333333
 41
0.0
 71
     1
 72
     1
  1
11. Parts should be marked with:
  7
SLDTEXTSTYLE1
 73
     1
 44
1.0
  0
MTEXT
  5
159
330
147
100
AcDbEntity
  8
PLASTIQUE
 62
     0
100
AcDbMText
 10
8.2682291667
 20
-63.6171185729
 30
0.0
 40
2.6458333333
 41
0.0
 71
     1
 72
     1
  1
SAP material number(see title bock)
  7
SLDTEXTSTYLE1
 73
     1
 44
1.0
  0
MTEXT
  5
15A
330
147
100
AcDbEntity
  8
PLASTIQUE
 62
     0
100
AcDbMText
 10
0.0
 20
-67.1448963081
 30
0.0
 40
2.6458333333
 41
0.0
 71
     1
 72
     1
  1
12. Marking location : see Drawing
  7
SLDTEXTSTYLE1
 73
     1
 44
1.0
  0
ENDBLK
  5
149
330
147
100
AcDbEntity
  8
0
100
AcDbBlockEnd
  0
BLOCK
  5
15D
330
15C
100
AcDbEntity
  8
0
100
AcDbBlockBegin
  2
SW_NOTE_10
 70
     0
 10
0.0
 20
0.0
 30
0.0
  3
SW_NOTE_10
  1
SW_NOTE_10
  0
LINE
  5
15F
330
15C
100
AcDbEntity
  8
PLASTIQUE
 62
     0
100
AcDbLine
 10
-1.5510321933
 20
1.6695896533
 30
0.0
 11
2.29011364
 21
5.5107354867
 31
0.0
  0
LINE
  5
160
330
15C
100
AcDbEntity
  8
PLASTIQUE
 62
     0
100
AcDbLine
 10
2.29011364
 20
5.5107354867
 30
0.0
 11
6.1312594734
 21
1.6695896533
 31
0.0
  0
LINE
  5
161
330
15C
100
AcDbEntity
  8
PLASTIQUE
 62
     0
100
AcDbLine
 10
6.1312594734
 20
1.6695896533
 30
0.0
 11
2.29011364
 21
-2.17155618
 31
0.0
  0
LINE
  5
162
330
15C
100
AcDbEntity
  8
PLASTIQUE
 62
     0
100
AcDbLine
 10
2.29011364
 20
-2.17155618
 30
0.0
 11
-1.5510321933
 21
1.6695896533
 31
0.0
  0
MTEXT
  5
163
330
15C
100
AcDbEntity
  8
PLASTIQUE
 62
     0
100
AcDbMText
 10
0.0
 20
2.5781354795
 30
0.0
 40
2.0
 41
0.0
 71
     1
 72
     1
  1
SCx
  7
SLDTEXTSTYLE1
 73
     1
 44
1.0
  0
ENDBLK
  5
15E
330
15C
100
AcDbEntity
  8
0
100
AcDbBlockEnd
  0
BLOCK
  5
166
330
165
100
AcDbEntity
  8
0
100
AcDbBlockBegin
  2
SW_NOTE_11
 70
     0
 10
0.0
 20
0.0
 30
0.0
  3
SW_NOTE_11
  1
SW_NOTE_11
  0
CIRCLE
  5
168
330
165
100
AcDbEntity
  8
PLASTIQUE
 62
     0
100
AcDbCircle
 10
1.0607831646
 20
2.0084419141
 30
0.0
 40
3.000000000000003
  0
MTEXT
  5
169
330
165
100
AcDbEntity
  8
PLASTIQUE
 62
     0
100
AcDbMText
 10
0.0
 20
3.4106583948
 30
0.0
 40
2.6458333333
 41
0.0
 71
     1
 72
     1
  1
X
  7
SLDTEXTSTYLE1
 73
     1
 44
1.0
  0
ENDBLK
  5
167
330
165
100
AcDbEntity
  8
0
100
AcDbBlockEnd
  0
BLOCK
  5
16C
330
16B
100
AcDbEntity
  8
0
100
AcDbBlockBegin
  2
SW_NOTE_12
 70
     0
 10
0.0
 20
0.0
 30
0.0
  3
SW_NOTE_12
  1
SW_NOTE_12
  0
MTEXT
  5
16E
330
16B
100
AcDbEntity
  8
RUBBER
 62
     0
100
AcDbMText
 10
23.1510416667
 20
2.7285267159
 30
0.0
 40
2.1166666667
 41
0.0
 71
     3
 72
     1
  1
DIN ISO 3302-1
  7
SLDTEXTSTYLE1
 73
     1
 44
1.0
  0
MTEXT
  5
16F
330
16B
100
AcDbEntity
  8
RUBBER
 62
     0
100
AcDbMText
 10
23.4126872818
 20
-0.0936954723
 30
0.0
 40
2.1166666667
 41
0.0
 71
     3
 72
     1
  1
Class M1
  7
SLDTEXTSTYLE1
 73
     1
 44
1.0
  0
ENDBLK
  5
16D
330
16B
100
AcDbEntity
  8
0
100
AcDbBlockEnd
  0
BLOCK
  5
172
330
171
100
AcDbEntity
  8
0
100
AcDbBlockBegin
  2
SW_NOTE_13
 70
     0
 10
0.0
 20
0.0
 30
0.0
  3
SW_NOTE_13
  1
SW_NOTE_13
  0
MTEXT
  5
174
330
171
100
AcDbEntity
  8
RUBBER
 62
     0
100
AcDbMText
 10
0.0
 20
3.4106583948
 30
0.0
 40
2.6458333333
 41
0.0
 71
     1
 72
     1
  1
Notes:
  7
SLDTEXTSTYLE1
 73
     1
 44
1.0
  0
MTEXT
  5
175
330
171
100
AcDbEntity
  8
RUBBER
 62
     0
100
AcDbMText
 10
0.0
 20
-3.6448970755
 30
0.0
 40
2.6458333333
 41
0.0
 71
     1
 72
     1
  1
1. Material : Silicone Wynca XHG 151-70
  7
SLDTEXTSTYLE1
 73
     1
 44
1.0
  0
MTEXT
  5
176
330
171
100
AcDbEntity
  8
RUBBER
 62
     0
100
AcDbMText
 10
28.9388020833
 20
-7.1726748106
 30
0.0
 40
2.6458333333
 41
0.0
 71
     1
 72
     1
  1
+ TSE322 glue (Momentive)
  7
SLDTEXTSTYLE1
 73
     1
 44
1.0
  0
MTEXT
  5
177
330
171
100
AcDbEntity
  8
RUBBER
 62
     0
100
AcDbMText
 10
0.0
 20
-10.7004525458
 30
0.0
 40
2.6458333333
 41
0.0
 71
     1
 72
     1
  1
2. Color : According to Volvo Master sample
  7
SLDTEXTSTYLE1
 73
     1
 44
1.0
  0
MTEXT
  5
178
330
171
100
AcDbEntity
  8
RUBBER
 62
     0
100
AcDbMText
 10
6.201171875
 20
-14.2282302809
 30
0.0
 40
2.6458333333
 41
0.0
 71
     1
 72
     1
  1
BOLD BLACK 22197151(TR84238804)
  7
SLDTEXTSTYLE1
 73
     1
 44
1.0
  0
MTEXT
  5
179
330
171
100
AcDbEntity
  8
RUBBER
 62
     0
100
AcDbMText
 10
6.201171875
 20
-17.7560080161
 30
0.0
 40
2.6458333333
 41
0.0
 71
     1
 72
     1
  1
For symbols : according to Volvo Master Sample Traffic
  7
SLDTEXTSTYLE1
 73
     1
 44
1.0
  0
MTEXT
  5
17A
330
171
100
AcDbEntity
  8
RUBBER
 62
     0
100
AcDbMText
 10
6.201171875
 20
-21.2837857512
 30
0.0
 40
2.6458333333
 41
0.0
 71
     1
 72
     1
  1
White 22197191
  7
SLDTEXTSTYLE1
 73
     1
 44
1.0
  0
MTEXT
  5
17B
330
171
100
AcDbEntity
  8
RUBBER
 62
     0
100
AcDbMText
 10
0.0
 20
-24.8115634863
 30
0.0
 40
2.6458333333
 41
0.0
 71
     1
 72
     1
  1
3. Finish (only for A surfaces) :  according to Volvo graining
  7
SLDTEXTSTYLE1
 73
     1
 44
1.0
  0
MTEXT
  5
17C
330
171
100
AcDbEntity
  8
RUBBER
 62
     0
100
AcDbMText
 10
6.201171875
 20
-28.3393412215
 30
0.0
 40
2.6458333333
 41
0.0
 71
     1
 72
     1
  1
master sample Renault Stipple Fine Grain 21555783
  7
SLDTEXTSTYLE1
 73
     1
 44
1.0
  0
MTEXT
  5
17D
330
171
100
AcDbEntity
  8
RUBBER
 62
     0
100
AcDbMText
 10
6.201171875
 20
-31.8671189566
 30
0.0
 40
2.6458333333
 41
0.0
 71
     1
 72
     1
  1
Tolerance of gloss : 3  +1 / -0,5 GU
  7
SLDTEXTSTYLE2
 73
     1
 44
1.0
  0
MTEXT
  5
17E
330
171
100
AcDbEntity
  8
RUBBER
 62
     0
100
AcDbMText
 10
0.0
 20
-35.3948966918
 30
0.0
 40
2.6458333333
 41
0.0
 71
     1
 72
     1
  1
4. Force : 3.5N +/15%N per key (8 keys)
  7
SLDTEXTSTYLE1
 73
     1
 44
1.0
  0
MTEXT
  5
17F
330
171
100
AcDbEntity
  8
RUBBER
 62
     0
100
AcDbMText
 10
0.0
 20
-38.9226744269
 30
0.0
 40
2.6458333333
 41
0.0
 71
     1
 72
     1
  1
5. stroke : 1.5mm +/-0.1 (without preload)
  7
SLDTEXTSTYLE1
 73
     1
 44
1.0
  0
MTEXT
  5
180
330
171
100
AcDbEntity
  8
RUBBER
 62
     0
100
AcDbMText
 10
0.0
 20
-42.4504521621
 30
0.0
 40
2.6458333333
 41
0.0
 71
     1
 72
     1
  1
6. Contact : SC-L pills (Blue pills) resistivity : <1.5 Ohm
  7
SLDTEXTSTYLE1
 73
     1
 44
1.0
  0
MTEXT
  5
181
330
171
100
AcDbEntity
  8
RUBBER
 62
     0
100
AcDbMText
 10
0.0
 20
-45.9782298972
 30
0.0
 40
2.6458333333
 41
0.0
 71
     1
 72
     1
  1
7. No change in production material shall be allowed
  7
SLDTEXTSTYLE1
 73
     1
 44
1.0
  0
MTEXT
  5
182
330
171
100
AcDbEntity
  8
RUBBER
 62
     0
100
AcDbMText
 10
6.201171875
 20
-49.5060076323
 30
0.0
 40
2.6458333333
 41
0.0
 71
     1
 72
     1
  1
without explicit prior written approval from Parrot
  7
SLDTEXTSTYLE1
 73
     1
 44
1.0
  0
MTEXT
  5
183
330
171
100
AcDbEntity
  8
RUBBER
 62
     0
100
AcDbMText
 10
0.0
 20
-53.0337853675
 30
0.0
 40
2.6458333333
 41
0.0
 71
     1
 72
     1
  1
8. Reference dimensions, shown in parantheses (DIM),
  7
SLDTEXTSTYLE1
 73
     1
 44
1.0
  0
MTEXT
  5
184
330
171
100
AcDbEntity
  8
RUBBER
 62
     0
100
AcDbMText
 10
6.201171875
 20
-56.5615631026
 30
0.0
 40
2.6458333333
 41
0.0
 71
     1
 72
     1
  1
are without tolerance and are for information purpose only
  7
SLDTEXTSTYLE1
 73
     1
 44
1.0
  0
MTEXT
  5
185
330
171
100
AcDbEntity
  8
RUBBER
 62
     0
100
AcDbMText
 10
0.0
 20
-60.0893408378
 30
0.0
 40
2.6458333333
 41
0.0
 71
     1
 72
     1
  1
9. All geometry is to be derived from the CAD database.
  7
SLDTEXTSTYLE1
 73
     1
 44
1.0
  0
MTEXT
  5
186
330
171
100
AcDbEntity
  8
RUBBER
 62
     0
100
AcDbMText
 10
6.201171875
 20
-63.6171185729
 30
0.0
 40
2.6458333333
 41
0.0
 71
     1
 72
     1
  1
Critical to function dimensions called out on this
  7
SLDTEXTSTYLE1
 73
     1
 44
1.0
  0
MTEXT
  5
187
330
171
100
AcDbEntity
  8
RUBBER
 62
     0
100
AcDbMText
 10
6.201171875
 20
-67.1448963081
 30
0.0
 40
2.6458333333
 41
0.0
 71
     1
 72
     1
  1
drawing are only for inspection purposes
  7
SLDTEXTSTYLE1
 73
     1
 44
1.0
  0
MTEXT
  5
188
330
171
100
AcDbEntity
  8
RUBBER
 62
     0
100
AcDbMText
 10
0.0
 20
-74.2004517784
 30
0.0
 40
2.6458333333
 41
0.0
 71
     1
 72
     1
  1
10.      = Special Characteristic Dimension
  7
SLDTEXTSTYLE1
 73
     1
 44
1.0
  0
MTEXT
  5
189
330
171
100
AcDbEntity
  8
RUBBER
 62
     0
100
AcDbMText
 10
0.0
 20
-81.2560072486
 30
0.0
 40
2.6458333333
 41
0.0
 71
     1
 72
     1
  1
11.      = Dimension identification number for FAI
  7
SLDTEXTSTYLE1
 73
     1
 44
1.0
  0
ENDBLK
  5
173
330
171
100
AcDbEntity
  8
0
100
AcDbBlockEnd
  0
BLOCK
  5
18C
330
18B
100
AcDbEntity
  8
0
100
AcDbBlockBegin
  2
SW_NOTE_14
 70
     0
 10
0.0
 20
0.0
 30
0.0
  3
SW_NOTE_14
  1
SW_NOTE_14
  0
CIRCLE
  5
18E
330
18B
100
AcDbEntity
  8
RUBBER
 62
     0
100
AcDbCircle
 10
1.0607831646
 20
2.0084419141
 30
0.0
 40
3.000000000000003
  0
MTEXT
  5
18F
330
18B
100
AcDbEntity
  8
RUBBER
 62
     0
100
AcDbMText
 10
0.0
 20
3.4106583948
 30
0.0
 40
2.6458333333
 41
0.0
 71
     1
 72
     1
  1
X
  7
SLDTEXTSTYLE1
 73
     1
 44
1.0
  0
ENDBLK
  5
18D
330
18B
100
AcDbEntity
  8
0
100
AcDbBlockEnd
  0
BLOCK
  5
192
330
191
100
AcDbEntity
  8
0
100
AcDbBlockBegin
  2
SW_NOTE_15
 70
     0
 10
0.0
 20
0.0
 30
0.0
  3
SW_NOTE_15
  1
SW_NOTE_15
  0
LINE
  5
194
330
191
100
AcDbEntity
  8
RUBBER
 62
     0
100
AcDbLine
 10
-1.5407230231
 20
1.5784520553
 30
0.0
 11
2.3004228102
 21
5.4195978887
 31
0.0
  0
LINE
  5
195
330
191
100
AcDbEntity
  8
RUBBER
 62
     0
100
AcDbLine
 10
2.3004228102
 20
5.4195978887
 30
0.0
 11
6.1415686436
 21
1.5784520553
 31
0.0
  0
LINE
  5
196
330
191
100
AcDbEntity
  8
RUBBER
 62
     0
100
AcDbLine
 10
6.1415686436
 20
1.5784520553
 30
0.0
 11
2.3004228102
 21
-2.262693778
 31
0.0
  0
LINE
  5
197
330
191
100
AcDbEntity
  8
RUBBER
 62
     0
100
AcDbLine
 10
2.3004228102
 20
-2.262693778
 30
0.0
 11
-1.5407230231
 21
1.5784520553
 31
0.0
  0
MTEXT
  5
198
330
191
100
AcDbEntity
  8
RUBBER
 62
     0
100
AcDbMText
 10
0.0
 20
2.5781354795
 30
0.0
 40
2.0
 41
0.0
 71
     1
 72
     1
  1
SCx
  7
SLDTEXTSTYLE1
 73
     1
 44
1.0
  0
ENDBLK
  5
193
330
191
100
AcDbEntity
  8
0
100
AcDbBlockEnd
  0
BLOCK
  5
19C
330
19B
100
AcDbEntity
  8
0
100
AcDbBlockBegin
  2
SW_NOTE_16
 70
     0
 10
0.0
 20
0.0
 30
0.0
  3
SW_NOTE_16
  1
SW_NOTE_16
  0
MTEXT
  5
19E
330
19B
100
AcDbEntity
  8
DIE-CASTING
 62
     0
100
AcDbMText
 10
0.0
 20
3.4106583948
 30
0.0
 40
2.6458333333
 41
0.0
 71
     1
 72
     1
  1
\LNotes:
  7
SLDTEXTSTYLE1
 73
     1
 44
1.0
  0
MTEXT
  5
19F
330
19B
100
AcDbEntity
  8
DIE-CASTING
 62
     0
100
AcDbMText
 10
0.0
 20
-3.6448970755
 30
0.0
 40
2.6458333333
 41
0.0
 71
     1
 72
     1
  1
1. Finishing free of oil
  7
SLDTEXTSTYLE1
 73
     1
 44
1.0
  0
MTEXT
  5
1A0
330
19B
100
AcDbEntity
  8
DIE-CASTING
 62
     0
100
AcDbMText
 10
0.0
 20
-7.1726748106
 30
0.0
 40
2.6458333333
 41
0.0
 71
     1
 72
     1
  1
2. No sharp edge
  7
SLDTEXTSTYLE1
 73
     1
 44
1.0
  0
MTEXT
  5
1A1
330
19B
100
AcDbEntity
  8
DIE-CASTING
 62
     0
100
AcDbMText
 10
0.0
 20
-10.7004525458
 30
0.0
 40
2.6458333333
 41
0.0
 71
     1
 72
     1
  1
3. ROHS Compliant
  7
SLDTEXTSTYLE1
 73
     1
 44
1.0
  0
MTEXT
  5
1A2
330
19B
100
AcDbEntity
  8
DIE-CASTING
 62
     0
100
AcDbMText
 10
0.0
 20
-14.2282302809
 30
0.0
 40
2.6458333333
 41
0.0
 71
     1
 72
     1
  1
4. Reference dimensions, shown in parantheses
  7
SLDTEXTSTYLE1
 73
     1
 44
1.0
  0
MTEXT
  5
1A3
330
19B
100
AcDbEntity
  8
DIE-CASTING
 62
     0
100
AcDbMText
 10
6.201171875
 20
-17.7560080161
 30
0.0
 40
2.6458333333
 41
0.0
 71
     1
 72
     1
  1
(DIM), are without tolerance and are for
  7
SLDTEXTSTYLE1
 73
     1
 44
1.0
  0
MTEXT
  5
1A4
330
19B
100
AcDbEntity
  8
DIE-CASTING
 62
     0
100
AcDbMText
 10
6.201171875
 20
-21.2837857512
 30
0.0
 40
2.6458333333
 41
0.0
 71
     1
 72
     1
  1
information prupose only.
  7
SLDTEXTSTYLE1
 73
     1
 44
1.0
  0
MTEXT
  5
1A5
330
19B
100
AcDbEntity
  8
DIE-CASTING
 62
     0
100
AcDbMText
 10
0.0
 20
-24.8115634863
 30
0.0
 40
2.6458333333
 41
0.0
 71
     1
 72
     1
  1
5. All geometry is to be derived from the CAD
  7
SLDTEXTSTYLE1
 73
     1
 44
1.0
  0
MTEXT
  5
1A6
330
19B
100
AcDbEntity
  8
DIE-CASTING
 62
     0
100
AcDbMText
 10
6.201171875
 20
-28.3393412215
 30
0.0
 40
2.6458333333
 41
0.0
 71
     1
 72
     1
  1
database.
  7
SLDTEXTSTYLE1
 73
     1
 44
1.0
  0
MTEXT
  5
1A7
330
19B
100
AcDbEntity
  8
DIE-CASTING
 62
     0
100
AcDbMText
 10
6.201171875
 20
-31.8671189566
 30
0.0
 40
2.6458333333
 41
0.0
 71
     1
 72
     1
  1
Critical to function dimensions called out on
  7
SLDTEXTSTYLE1
 73
     1
 44
1.0
  0
MTEXT
  5
1A8
330
19B
100
AcDbEntity
  8
DIE-CASTING
 62
     0
100
AcDbMText
 10
6.201171875
 20
-35.3948966918
 30
0.0
 40
2.6458333333
 41
0.0
 71
     1
 72
     1
  1
this drawing are only for inspection purposes
  7
SLDTEXTSTYLE1
 73
     1
 44
1.0
  0
MTEXT
  5
1A9
330
19B
100
AcDbEntity
  8
DIE-CASTING
 62
     0
100
AcDbMText
 10
0.0
 20
-38.9226744269
 30
0.0
 40
2.6458333333
 41
0.0
 71
     1
 72
     1
  1
6. No sharp edges
  7
SLDTEXTSTYLE1
 73
     1
 44
1.0
  0
MTEXT
  5
1AA
330
19B
100
AcDbEntity
  8
DIE-CASTING
 62
     0
100
AcDbMText
 10
0.0
 20
-42.4504521621
 30
0.0
 40
2.6458333333
 41
0.0
 71
     1
 72
     1
  1
7. Non specified draft angle= 3°
  7
SLDTEXTSTYLE1
 73
     1
 44
1.0
  0
MTEXT
  5
1AB
330
19B
100
AcDbEntity
  8
DIE-CASTING
 62
     0
100
AcDbMText
 10
0.0
 20
-45.9782298972
 30
0.0
 40
2.6458333333
 41
0.0
 71
     1
 72
     1
  1
8. Finition : Barreling or Vibrating polish
  7
SLDTEXTSTYLE1
 73
     1
 44
1.0
  0
MTEXT
  5
1AC
330
19B
100
AcDbEntity
  8
DIE-CASTING
 62
     0
100
AcDbMText
 10
6.201171875
 20
-49.5060076323
 30
0.0
 40
2.6458333333
 41
0.0
 71
     1
 72
     1
  1
process
  7
SLDTEXTSTYLE1
 73
     1
 44
1.0
  0
MTEXT
  5
1AD
330
19B
100
AcDbEntity
  8
DIE-CASTING
 62
     0
100
AcDbMText
 10
6.3646989875
 20
-53.0444325841
 30
0.0
 40
2.6458333333
 41
0.0
 71
     1
 72
     1
  1
Optional : sand blasted
  7
SLDTEXTSTYLE1
 73
     1
 44
1.0
  0
MTEXT
  5
1AE
330
19B
100
AcDbEntity
  8
DIE-CASTING
 62
     0
100
AcDbMText
 10
0.0
 20
-60.0893408378
 30
0.0
 40
2.6458333333
 41
0.0
 71
     1
 72
     1
  1
9.     = Special Characteristic Dimension
  7
SLDTEXTSTYLE1
 73
     1
 44
1.0
  0
MTEXT
  5
1AF
330
19B
100
AcDbEntity
  8
DIE-CASTING
 62
     0
100
AcDbMText
 10
0.0
 20
-67.1448963081
 30
0.0
 40
2.6458333333
 41
0.0
 71
     1
 72
     1
  1
10.    = Dimension identification number for FAI
  7
SLDTEXTSTYLE1
 73
     1
 44
1.0
  0
MTEXT
  5
1B0
330
19B
100
AcDbEntity
  8
DIE-CASTING
 62
     0
100
AcDbMText
 10
0.0
 20
-74.2004517784
 30
0.0
 40
2.6458333333
 41
0.0
 71
     1
 72
     1
  1
11. Parts should be marked with:
  7
SLDTEXTSTYLE1
 73
     1
 44
1.0
  0
MTEXT
  5
1B1
330
19B
100
AcDbEntity
  8
DIE-CASTING
 62
     0
100
AcDbMText
 10
8.2682291667
 20
-77.7282295135
 30
0.0
 40
2.6458333333
 41
0.0
 71
     1
 72
     1
  1
SAP material number(see title bock)
  7
SLDTEXTSTYLE1
 73
     1
 44
1.0
  0
MTEXT
  5
1B2
330
19B
100
AcDbEntity
  8
DIE-CASTING
 62
     0
100
AcDbMText
 10
0.0
 20
-81.2560072486
 30
0.0
 40
2.6458333333
 41
0.0
 71
     1
 72
     1
  1
12. Marking location : see Drawing
  7
SLDTEXTSTYLE1
 73
     1
 44
1.0
  0
ENDBLK
  5
19D
330
19B
100
AcDbEntity
  8
0
100
AcDbBlockEnd
  0
BLOCK
  5
1B5
330
1B4
100
AcDbEntity
  8
0
100
AcDbBlockBegin
  2
SW_NOTE_17
 70
     0
 10
0.0
 20
0.0
 30
0.0
  3
SW_NOTE_17
  1
SW_NOTE_17
  0
CIRCLE
  5
1B7
330
1B4
100
AcDbEntity
  8
DIE-CASTING
 62
     0
100
AcDbCircle
 10
1.0607831646
 20
2.0084419141
 30
0.0
 40
2.999999999999892
  0
MTEXT
  5
1B8
330
1B4
100
AcDbEntity
  8
DIE-CASTING
 62
     0
100
AcDbMText
 10
0.0
 20
3.4106583948
 30
0.0
 40
2.6458333333
 41
0.0
 71
     1
 72
     1
  1
X
  7
SLDTEXTSTYLE1
 73
     1
 44
1.0
  0
ENDBLK
  5
1B6
330
1B4
100
AcDbEntity
  8
0
100
AcDbBlockEnd
  0
BLOCK
  5
1BB
330
1BA
100
AcDbEntity
  8
0
100
AcDbBlockBegin
  2
SW_NOTE_18
 70
     0
 10
0.0
 20
0.0
 30
0.0
  3
SW_NOTE_18
  1
SW_NOTE_18
  0
LINE
  5
1BD
330
1BA
100
AcDbEntity
  8
DIE-CASTING
 62
     0
100
AcDbLine
 10
-1.5534943185
 20
1.6695896533
 30
0.0
 11
2.2876515148
 21
5.5107354867
 31
0.0
  0
LINE
  5
1BE
330
1BA
100
AcDbEntity
  8
DIE-CASTING
 62
     0
100
AcDbLine
 10
2.2876515148
 20
5.5107354867
 30
0.0
 11
6.1287973482
 21
1.6695896533
 31
0.0
  0
LINE
  5
1BF
330
1BA
100
AcDbEntity
  8
DIE-CASTING
 62
     0
100
AcDbLine
 10
6.1287973482
 20
1.6695896533
 30
0.0
 11
2.2876515148
 21
-2.17155618
 31
0.0
  0
LINE
  5
1C0
330
1BA
100
AcDbEntity
  8
DIE-CASTING
 62
     0
100
AcDbLine
 10
2.2876515148
 20
-2.17155618
 30
0.0
 11
-1.5534943185
 21
1.6695896533
 31
0.0
  0
MTEXT
  5
1C1
330
1BA
100
AcDbEntity
  8
DIE-CASTING
 62
     0
100
AcDbMText
 10
0.0
 20
2.5781354795
 30
0.0
 40
2.0
 41
0.0
 71
     1
 72
     1
  1
SCx
  7
SLDTEXTSTYLE1
 73
     1
 44
1.0
  0
ENDBLK
  5
1BC
330
1BA
100
AcDbEntity
  8
0
100
AcDbBlockEnd
  0
BLOCK
  5
1C4
330
1C3
100
AcDbEntity
  8
0
100
AcDbBlockBegin
  2
SW_NOTE_19
 70
     0
 10
0.0
 20
0.0
 30
0.0
  3
SW_NOTE_19
  1
SW_NOTE_19
  0
MTEXT
  5
1C6
330
1C3
100
AcDbEntity
  8
TÔLERIE-USINAGE
 62
     0
100
AcDbMText
 10
22.32421875
 20
2.0463950369
 30
0.0
 40
1.5875
 41
0.0
 71
     3
 72
     1
  1
ISO 2768 : 1989 mK
  7
SLDTEXTSTYLE1
 73
     1
 44
1.0
  0
MTEXT
  5
1C7
330
1C3
100
AcDbEntity
  8
TÔLERIE-USINAGE
 62
     0
100
AcDbMText
 10
22.6185654104
 20
-0.0702716042
 30
0.0
 40
1.5875
 41
0.0
 71
     3
 72
     1
  1
threads :
  7
SLDTEXTSTYLE1
 73
     1
 44
1.0
  0
MTEXT
  5
1C8
330
1C3
100
AcDbEntity
  8
TÔLERIE-USINAGE
 62
     0
100
AcDbMText
 10
22.1606948972
 20
-2.1869382453
 30
0.0
 40
1.5875
 41
0.0
 71
     3
 72
     1
  1
6g/6H (ISO 965-1:1998)
  7
SLDTEXTSTYLE1
 73
     1
 44
1.0
  0
ENDBLK
  5
1C5
330
1C3
100
AcDbEntity
  8
0
100
AcDbBlockEnd
  0
BLOCK
  5
1CB
330
1CA
100
AcDbEntity
  8
0
100
AcDbBlockBegin
  2
SW_NOTE_20
 70
     0
 10
0.0
 20
0.0
 30
0.0
  3
SW_NOTE_20
  1
SW_NOTE_20
  0
MTEXT
  5
1CD
330
1CA
100
AcDbEntity
  8
TÔLERIE-USINAGE
 62
     0
100
AcDbMText
 10
0.0
 20
3.4106583948
 30
0.0
 40
2.6458333333
 41
0.0
 71
     1
 72
     1
  1
\LNotes:
  7
SLDTEXTSTYLE1
 73
     1
 44
1.0
  0
MTEXT
  5
1CE
330
1CA
100
AcDbEntity
  8
TÔLERIE-USINAGE
 62
     0
100
AcDbMText
 10
0.0
 20
-3.6448970755
 30
0.0
 40
2.6458333333
 41
0.0
 71
     1
 72
     1
  1
1. No change in production material shall be allowed
  7
SLDTEXTSTYLE1
 73
     1
 44
1.0
  0
MTEXT
  5
1CF
330
1CA
100
AcDbEntity
  8
TÔLERIE-USINAGE
 62
     0
100
AcDbMText
 10
6.201171875
 20
-7.1726748106
 30
0.0
 40
2.6458333333
 41
0.0
 71
     1
 72
     1
  1
without explicit prior written approval from Parrot
  7
SLDTEXTSTYLE1
 73
     1
 44
1.0
  0
MTEXT
  5
1D0
330
1CA
100
AcDbEntity
  8
TÔLERIE-USINAGE
 62
     0
100
AcDbMText
 10
0.0
 20
-10.7004525458
 30
0.0
 40
2.6458333333
 41
0.0
 71
     1
 72
     1
  1
2. Parts shall be free of sharp edges. Burrs shall
  7
SLDTEXTSTYLE1
 73
     1
 44
1.0
  0
MTEXT
  5
1D1
330
1CA
100
AcDbEntity
  8
TÔLERIE-USINAGE
 62
     0
100
AcDbMText
 10
6.201171875
 20
-14.2282302809
 30
0.0
 40
2.6458333333
 41
0.0
 71
     1
 72
     1
  1
not exceed 10% of material thickness.
  7
SLDTEXTSTYLE1
 73
     1
 44
1.0
  0
MTEXT
  5
1D2
330
1CA
100
AcDbEntity
  8
TÔLERIE-USINAGE
 62
     0
100
AcDbMText
 10
0.0
 20
-17.7560080161
 30
0.0
 40
2.6458333333
 41
0.0
 71
     1
 72
     1
  1
3. Burr side shall be on the inside of the part.
  7
SLDTEXTSTYLE1
 73
     1
 44
1.0
  0
MTEXT
  5
1D3
330
1CA
100
AcDbEntity
  8
TÔLERIE-USINAGE
 62
     0
100
AcDbMText
 10
0.0
 20
-21.2837857512
 30
0.0
 40
2.6458333333
 41
0.0
 71
     1
 72
     1
  1
4. Reference dimensions, shown in parantheses (DIM,
  7
SLDTEXTSTYLE1
 73
     1
 44
1.0
  0
MTEXT
  5
1D4
330
1CA
100
AcDbEntity
  8
TÔLERIE-USINAGE
 62
     0
100
AcDbMText
 10
6.201171875
 20
-24.8115634863
 30
0.0
 40
2.6458333333
 41
0.0
 71
     1
 72
     1
  1
are without tolerance and are for information
  7
SLDTEXTSTYLE1
 73
     1
 44
1.0
  0
MTEXT
  5
1D5
330
1CA
100
AcDbEntity
  8
TÔLERIE-USINAGE
 62
     0
100
AcDbMText
 10
6.201171875
 20
-28.3393412215
 30
0.0
 40
2.6458333333
 41
0.0
 71
     1
 72
     1
  1
purpose only.
  7
SLDTEXTSTYLE1
 73
     1
 44
1.0
  0
MTEXT
  5
1D6
330
1CA
100
AcDbEntity
  8
TÔLERIE-USINAGE
 62
     0
100
AcDbMText
 10
0.0
 20
-31.8671189566
 30
0.0
 40
2.6458333333
 41
0.0
 71
     1
 72
     1
  1
5. All geometry is to be derived from the CAD database.
  7
SLDTEXTSTYLE1
 73
     1
 44
1.0
  0
MTEXT
  5
1D7
330
1CA
100
AcDbEntity
  8
TÔLERIE-USINAGE
 62
     0
100
AcDbMText
 10
6.201171875
 20
-35.3948966918
 30
0.0
 40
2.6458333333
 41
0.0
 71
     1
 72
     1
  1
Critical to function dimensions called out on this
  7
SLDTEXTSTYLE1
 73
     1
 44
1.0
  0
MTEXT
  5
1D8
330
1CA
100
AcDbEntity
  8
TÔLERIE-USINAGE
 62
     0
100
AcDbMText
 10
6.201171875
 20
-38.9226744269
 30
0.0
 40
2.6458333333
 41
0.0
 71
     1
 72
     1
  1
drawing are only for inspection purposes.
  7
SLDTEXTSTYLE1
 73
     1
 44
1.0
  0
MTEXT
  5
1D9
330
1CA
100
AcDbEntity
  8
TÔLERIE-USINAGE
 62
     0
100
AcDbMText
 10
0.0
 20
-42.4504521621
 30
0.0
 40
2.6458333333
 41
0.0
 71
     1
 72
     1
  1
6. All inner bending radius indicated on the 2D/3D are
  7
SLDTEXTSTYLE1
 73
     1
 44
1.0
  0
MTEXT
  5
1DA
330
1CA
100
AcDbEntity
  8
TÔLERIE-USINAGE
 62
     0
100
AcDbMText
 10
6.201171875
 20
-45.9782298972
 30
0.0
 40
2.6458333333
 41
0.0
 71
     1
 72
     1
  1
maximum values (radius can be 0mm)
  7
SLDTEXTSTYLE1
 73
     1
 44
1.0
  0
MTEXT
  5
1DB
330
1CA
100
AcDbEntity
  8
TÔLERIE-USINAGE
 62
     0
100
AcDbMText
 10
0.0
 20
-53.0337853675
 30
0.0
 40
2.6458333333
 41
0.0
 71
     1
 72
     1
  1
7.    = Special Characteristic Dimension
  7
SLDTEXTSTYLE1
 73
     1
 44
1.0
  0
MTEXT
  5
1DC
330
1CA
100
AcDbEntity
  8
TÔLERIE-USINAGE
 62
     0
100
AcDbMText
 10
0.0
 20
-60.0893408378
 30
0.0
 40
2.6458333333
 41
0.0
 71
     1
 72
     1
  1
8.    = Dimension identification number for FAI
  7
SLDTEXTSTYLE1
 73
     1
 44
1.0
  0
MTEXT
  5
1DD
330
1CA
100
AcDbEntity
  8
TÔLERIE-USINAGE
 62
     0
100
AcDbMText
 10
0.0
 20
-67.1448963081
 30
0.0
 40
2.6458333333
 41
0.0
 71
     1
 72
     1
  1
9. Parts should be marked with:
  7
SLDTEXTSTYLE1
 73
     1
 44
1.0
  0
MTEXT
  5
1DE
330
1CA
100
AcDbEntity
  8
TÔLERIE-USINAGE
 62
     0
100
AcDbMText
 10
6.201171875
 20
-70.6726740432
 30
0.0
 40
2.6458333333
 41
0.0
 71
     1
 72
     1
  1
SAP material number(see title bock)
  7
SLDTEXTSTYLE1
 73
     1
 44
1.0
  0
MTEXT
  5
1DF
330
1CA
100
AcDbEntity
  8
TÔLERIE-USINAGE
 62
     0
100
AcDbMText
 10
0.0
 20
-74.2004517784
 30
0.0
 40
2.6458333333
 41
0.0
 71
     1
 72
     1
  1
10. Marking location : see Drawing
  7
SLDTEXTSTYLE1
 73
     1
 44
1.0
  0
ENDBLK
  5
1CC
330
1CA
100
AcDbEntity
  8
0
100
AcDbBlockEnd
  0
BLOCK
  5
1E2
330
1E1
100
AcDbEntity
  8
0
100
AcDbBlockBegin
  2
SW_NOTE_21
 70
     0
 10
0.0
 20
0.0
 30
0.0
  3
SW_NOTE_21
  1
SW_NOTE_21
  0
CIRCLE
  5
1E4
330
1E1
100
AcDbEntity
  8
TÔLERIE-USINAGE
 62
     0
100
AcDbCircle
 10
1.0607831646
 20
2.0084419141
 30
0.0
 40
3.000000000000003
  0
MTEXT
  5
1E5
330
1E1
100
AcDbEntity
  8
TÔLERIE-USINAGE
 62
     0
100
AcDbMText
 10
0.0
 20
3.4106583948
 30
0.0
 40
2.6458333333
 41
0.0
 71
     1
 72
     1
  1
X
  7
SLDTEXTSTYLE1
 73
     1
 44
1.0
  0
ENDBLK
  5
1E3
330
1E1
100
AcDbEntity
  8
0
100
AcDbBlockEnd
  0
BLOCK
  5
1E8
330
1E7
100
AcDbEntity
  8
0
100
AcDbBlockBegin
  2
SW_NOTE_22
 70
     0
 10
0.0
 20
0.0
 30
0.0
  3
SW_NOTE_22
  1
SW_NOTE_22
  0
LINE
  5
1EA
330
1E7
100
AcDbEntity
  8
TÔLERIE-USINAGE
 62
     0
100
AcDbLine
 10
-1.5117466217
 20
1.6695896533
 30
0.0
 11
2.3293992116
 21
5.5107354867
 31
0.0
  0
LINE
  5
1EB
330
1E7
100
AcDbEntity
  8
TÔLERIE-USINAGE
 62
     0
100
AcDbLine
 10
2.3293992116
 20
5.5107354867
 30
0.0
 11
6.1705450449
 21
1.6695896533
 31
0.0
  0
LINE
  5
1EC
330
1E7
100
AcDbEntity
  8
TÔLERIE-USINAGE
 62
     0
100
AcDbLine
 10
6.1705450449
 20
1.6695896533
 30
0.0
 11
2.3293992116
 21
-2.17155618
 31
0.0
  0
LINE
  5
1ED
330
1E7
100
AcDbEntity
  8
TÔLERIE-USINAGE
 62
     0
100
AcDbLine
 10
2.3293992116
 20
-2.17155618
 30
0.0
 11
-1.5117466217
 21
1.6695896533
 31
0.0
  0
MTEXT
  5
1EE
330
1E7
100
AcDbEntity
  8
TÔLERIE-USINAGE
 62
     0
100
AcDbMText
 10
0.0
 20
2.5781354795
 30
0.0
 40
2.0
 41
0.0
 71
     1
 72
     1
  1
SCx
  7
SLDTEXTSTYLE1
 73
     1
 44
1.0
  0
ENDBLK
  5
1E9
330
1E7
100
AcDbEntity
  8
0
100
AcDbBlockEnd
  0
BLOCK
  5
1F2
330
1F1
100
AcDbEntity
  8
0
100
AcDbBlockBegin
  2
SW_NOTE_23
 70
     0
 10
0.0
 20
0.0
 30
0.0
  3
SW_NOTE_23
  1
SW_NOTE_23
  0
MTEXT
  5
1F4
330
1F1
100
AcDbEntity
  8
SHIELD
 62
     0
100
AcDbMText
 10
0.0
 20
3.4106583948
 30
0.0
 40
2.6458333333
 41
0.0
 71
     1
 72
     1
  1
Notes:
  7
SLDTEXTSTYLE1
 73
     1
 44
1.0
  0
MTEXT
  5
1F5
330
1F1
100
AcDbEntity
  8
SHIELD
 62
     0
100
AcDbMText
 10
0.0
 20
-3.6448970755
 30
0.0
 40
2.6458333333
 41
0.0
 71
     1
 72
     1
  1
Material and finnish
  7
SLDTEXTSTYLE1
 73
     1
 44
1.0
  0
MTEXT
  5
1F6
330
1F1
100
AcDbEntity
  8
SHIELD
 62
     0
100
AcDbMText
 10
0.0
 20
-7.1726748106
 30
0.0
 40
2.6458333333
 41
0.0
 71
     1
 72
     1
  1
1. Material : CRS 1010, Tin coating #100 11.2/11.2
  7
SLDTEXTSTYLE1
 73
     1
 44
1.0
  0
MTEXT
  5
1F7
330
1F1
100
AcDbEntity
  8
SHIELD
 62
     0
100
AcDbMText
 10
0.0
 20
-10.7004525458
 30
0.0
 40
2.6458333333
 41
0.0
 71
     1
 72
     1
  1
2. No change in production material shall be allowed
  7
SLDTEXTSTYLE1
 73
     1
 44
1.0
  0
MTEXT
  5
1F8
330
1F1
100
AcDbEntity
  8
SHIELD
 62
     0
100
AcDbMText
 10
6.201171875
 20
-14.2282302809
 30
0.0
 40
2.6458333333
 41
0.0
 71
     1
 72
     1
  1
without explicit prior written approval from Parrot
  7
SLDTEXTSTYLE1
 73
     1
 44
1.0
  0
MTEXT
  5
1F9
330
1F1
100
AcDbEntity
  8
SHIELD
 62
     0
100
AcDbMText
 10
0.0
 20
-17.7560080161
 30
0.0
 40
2.6458333333
 41
0.0
 71
     1
 72
     1
  1
3. Parts shall be free of sharp edges. Burrs shall
  7
SLDTEXTSTYLE1
 73
     1
 44
1.0
  0
MTEXT
  5
1FA
330
1F1
100
AcDbEntity
  8
SHIELD
 62
     0
100
AcDbMText
 10
0.0
 20
-21.2837857512
 30
0.0
 40
2.6458333333
 41
0.0
 71
     1
 72
     1
  1
not exceed 7% of material thickness.
  7
SLDTEXTSTYLE1
 73
     1
 44
1.0
  0
MTEXT
  5
1FB
330
1F1
100
AcDbEntity
  8
SHIELD
 62
     0
100
AcDbMText
 10
0.0
 20
-24.8115634863
 30
0.0
 40
2.6458333333
 41
0.0
 71
     1
 72
     1
  1
4. Burr side shall be on the outside of the frame/inside
  7
SLDTEXTSTYLE1
 73
     1
 44
1.0
  0
MTEXT
  5
1FC
330
1F1
100
AcDbEntity
  8
SHIELD
 62
     0
100
AcDbMText
 10
6.201171875
 20
-28.3393412215
 30
0.0
 40
2.6458333333
 41
0.0
 71
     1
 72
     1
  1
of the lid.
  7
SLDTEXTSTYLE1
 73
     1
 44
1.0
  0
MTEXT
  5
1FD
330
1F1
100
AcDbEntity
  8
SHIELD
 62
     0
100
AcDbMText
 10
0.0
 20
-31.8671189566
 30
0.0
 40
2.6458333333
 41
0.0
 71
     1
 72
     1
  1
5. Reference dimensions, shown in parantheses (DIM),
  7
SLDTEXTSTYLE1
 73
     1
 44
1.0
  0
MTEXT
  5
1FE
330
1F1
100
AcDbEntity
  8
SHIELD
 62
     0
100
AcDbMText
 10
6.201171875
 20
-35.3948966918
 30
0.0
 40
2.6458333333
 41
0.0
 71
     1
 72
     1
  1
are without tolerance and are for information
  7
SLDTEXTSTYLE1
 73
     1
 44
1.0
  0
MTEXT
  5
1FF
330
1F1
100
AcDbEntity
  8
SHIELD
 62
     0
100
AcDbMText
 10
6.201171875
 20
-38.9226744269
 30
0.0
 40
2.6458333333
 41
0.0
 71
     1
 72
     1
  1
purpose only.
  7
SLDTEXTSTYLE1
 73
     1
 44
1.0
  0
MTEXT
  5
200
330
1F1
100
AcDbEntity
  8
SHIELD
 62
     0
100
AcDbMText
 10
0.0
 20
-42.4504521621
 30
0.0
 40
2.6458333333
 41
0.0
 71
     1
 72
     1
  1
6. All geometry is to be derived from the CAD database.
  7
SLDTEXTSTYLE1
 73
     1
 44
1.0
  0
MTEXT
  5
201
330
1F1
100
AcDbEntity
  8
SHIELD
 62
     0
100
AcDbMText
 10
6.201171875
 20
-45.9782298972
 30
0.0
 40
2.6458333333
 41
0.0
 71
     1
 72
     1
  1
Critical to function dimensions called out on this
  7
SLDTEXTSTYLE1
 73
     1
 44
1.0
  0
MTEXT
  5
202
330
1F1
100
AcDbEntity
  8
SHIELD
 62
     0
100
AcDbMText
 10
6.201171875
 20
-49.5060076323
 30
0.0
 40
2.6458333333
 41
0.0
 71
     1
 72
     1
  1
drawing are only for inspection purposes.
  7
SLDTEXTSTYLE1
 73
     1
 44
1.0
  0
MTEXT
  5
203
330
1F1
100
AcDbEntity
  8
SHIELD
 62
     0
100
AcDbMText
 10
0.0
 20
-56.5615631026
 30
0.0
 40
2.6458333333
 41
0.0
 71
     1
 72
     1
  1
Lid and Frame assembly and disassembly forces
  7
SLDTEXTSTYLE1
 73
     1
 44
1.0
  0
MTEXT
  5
204
330
1F1
100
AcDbEntity
  8
SHIELD
 62
     0
100
AcDbMText
 10
0.0
 20
-60.0893408378
 30
0.0
 40
2.6458333333
 41
0.0
 71
     1
 72
     1
  1
7. Assembly force should be less than 30N even on worse
  7
SLDTEXTSTYLE1
 73
     1
 44
1.0
  0
MTEXT
  5
205
330
1F1
100
AcDbEntity
  8
SHIELD
 62
     0
100
AcDbMText
 10
6.201171875
 20
-63.6171185729
 30
0.0
 40
2.6458333333
 41
0.0
 71
     1
 72
     1
  1
dimensional case.
  7
SLDTEXTSTYLE1
 73
     1
 44
1.0
  0
MTEXT
  5
206
330
1F1
100
AcDbEntity
  8
SHIELD
 62
     0
100
AcDbMText
 10
0.0
 20
-67.1448963081
 30
0.0
 40
2.6458333333
 41
0.0
 71
     1
 72
     1
  1
8. Disassembly force should be 30N minimum even on worse
  7
SLDTEXTSTYLE1
 73
     1
 44
1.0
  0
MTEXT
  5
207
330
1F1
100
AcDbEntity
  8
SHIELD
 62
     0
100
AcDbMText
 10
6.201171875
 20
-70.6726740432
 30
0.0
 40
2.6458333333
 41
0.0
 71
     1
 72
     1
  1
dimensional case.
  7
SLDTEXTSTYLE1
 73
     1
 44
1.0
  0
MTEXT
  5
208
330
1F1
100
AcDbEntity
  8
SHIELD
 62
     0
100
AcDbMText
 10
0.0
 20
-77.7282295135
 30
0.0
 40
2.6458333333
 41
0.0
 71
     1
 72
     1
  1
Packaging
  7
SLDTEXTSTYLE1
 73
     1
 44
1.0
  0
MTEXT
  5
209
330
1F1
100
AcDbEntity
  8
SHIELD
 62
     0
100
AcDbMText
 10
0.0
 20
-81.2560072486
 30
0.0
 40
2.6458333333
 41
0.0
 71
     1
 72
     1
  1
9. All parts must be cleaned, degreased and dried before
  7
SLDTEXTSTYLE1
 73
     1
 44
1.0
  0
MTEXT
  5
20A
330
1F1
100
AcDbEntity
  8
SHIELD
 62
     0
100
AcDbMText
 10
6.201171875
 20
-84.7837849838
 30
0.0
 40
2.6458333333
 41
0.0
 71
     1
 72
     1
  1
packing.
  7
SLDTEXTSTYLE1
 73
     1
 44
1.0
  0
MTEXT
  5
20B
330
1F1
100
AcDbEntity
  8
SHIELD
 62
     0
100
AcDbMText
 10
0.0
 20
-88.3115627189
 30
0.0
 40
2.6458333333
 41
0.0
 71
     1
 72
     1
  1
10. Packaging material: TBD
  7
SLDTEXTSTYLE1
 73
     1
 44
1.0
  0
MTEXT
  5
20C
330
1F1
100
AcDbEntity
  8
SHIELD
 62
     0
100
AcDbMText
 10
0.0
 20
-95.3671181892
 30
0.0
 40
2.6458333333
 41
0.0
 71
     1
 72
     1
  1
Marking
  7
SLDTEXTSTYLE1
 73
     1
 44
1.0
  0
MTEXT
  5
20D
330
1F1
100
AcDbEntity
  8
SHIELD
 62
     0
100
AcDbMText
 10
0.0
 20
-98.8948959244
 30
0.0
 40
2.6458333333
 41
0.0
 71
     1
 72
     1
  1
11. Lowered or printed text. Text size = 1mm
  7
SLDTEXTSTYLE1
 73
     1
 44
1.0
  0
MTEXT
  5
20E
330
1F1
100
AcDbEntity
  8
SHIELD
 62
     0
100
AcDbMText
 10
0.0
 20
-102.4226736595
 30
0.0
 40
2.6458333333
 41
0.0
 71
     1
 72
     1
  1
12. Parts should be marked with:
  7
SLDTEXTSTYLE1
 73
     1
 44
1.0
  0
MTEXT
  5
20F
330
1F1
100
AcDbEntity
  8
SHIELD
 62
     0
100
AcDbMText
 10
8.2682291667
 20
-105.9504513946
 30
0.0
 40
2.6458333333
 41
0.0
 71
     1
 72
     1
  1
SAP Material Number (See title block)
  7
SLDTEXTSTYLE1
 73
     1
 44
1.0
  0
MTEXT
  5
210
330
1F1
100
AcDbEntity
  8
SHIELD
 62
     0
100
AcDbMText
 10
0.0
 20
-109.4782291298
 30
0.0
 40
2.6458333333
 41
0.0
 71
     1
 72
     1
  1
13. Marking location : see Drawing
  7
SLDTEXTSTYLE1
 73
     1
 44
1.0
  0
MTEXT
  5
211
330
1F1
100
AcDbEntity
  8
SHIELD
 62
     0
100
AcDbMText
 10
0.0
 20
-116.5337846001
 30
0.0
 40
2.6458333333
 41
0.0
 71
     1
 72
     1
  1
14.     = Special Characteristic Dimension
  7
SLDTEXTSTYLE1
 73
     1
 44
1.0
  0
MTEXT
  5
212
330
1F1
100
AcDbEntity
  8
SHIELD
 62
     0
100
AcDbMText
 10
0.0
 20
-123.5893400704
 30
0.0
 40
2.6458333333
 41
0.0
 71
     1
 72
     1
  1
15.     = Dimension identification number for FAI
  7
SLDTEXTSTYLE1
 73
     1
 44
1.0
  0
ENDBLK
  5
1F3
330
1F1
100
AcDbEntity
  8
0
100
AcDbBlockEnd
  0
BLOCK
  5
215
330
214
100
AcDbEntity
  8
0
100
AcDbBlockBegin
  2
SW_NOTE_24
 70
     0
 10
0.0
 20
0.0
 30
0.0
  3
SW_NOTE_24
  1
SW_NOTE_24
  0
CIRCLE
  5
217
330
214
100
AcDbEntity
  8
SHIELD
 62
     0
100
AcDbCircle
 10
1.0607831646
 20
2.0084419141
 30
0.0
 40
3.000000000000003
  0
MTEXT
  5
218
330
214
100
AcDbEntity
  8
SHIELD
 62
     0
100
AcDbMText
 10
0.0
 20
3.4106583948
 30
0.0
 40
2.6458333333
 41
0.0
 71
     1
 72
     1
  1
X
  7
SLDTEXTSTYLE1
 73
     1
 44
1.0
  0
ENDBLK
  5
216
330
214
100
AcDbEntity
  8
0
100
AcDbBlockEnd
  0
BLOCK
  5
21B
330
21A
100
AcDbEntity
  8
0
100
AcDbBlockBegin
  2
SW_NOTE_25
 70
     0
 10
0.0
 20
0.0
 30
0.0
  3
SW_NOTE_25
  1
SW_NOTE_25
  0
LINE
  5
21D
330
21A
100
AcDbEntity
  8
SHIELD
 62
     0
100
AcDbLine
 10
-1.574006697
 20
1.5722492162
 30
0.0
 11
2.332243303
 21
5.4784992162
 31
0.0
  0
LINE
  5
21E
330
21A
100
AcDbEntity
  8
SHIELD
 62
     0
100
AcDbLine
 10
2.332243303
 20
5.4784992162
 30
0.0
 11
6.238493303
 21
1.5722492162
 31
0.0
  0
LINE
  5
21F
330
21A
100
AcDbEntity
  8
SHIELD
 62
     0
100
AcDbLine
 10
6.238493303
 20
1.5722492162
 30
0.0
 11
2.332243303
 21
-2.3340007838
 31
0.0
  0
LINE
  5
220
330
21A
100
AcDbEntity
  8
SHIELD
 62
     0
100
AcDbLine
 10
2.332243303
 20
-2.3340007838
 30
0.0
 11
-1.574006697
 21
1.5722492162
 31
0.0
  0
MTEXT
  5
221
330
21A
100
AcDbEntity
  8
SHIELD
 62
     0
100
AcDbMText
 10
0.0
 20
2.5781354795
 30
0.0
 40
2.0
 41
0.0
 71
     1
 72
     1
  1
SCx
  7
SLDTEXTSTYLE1
 73
     1
 44
1.0
  0
ENDBLK
  5
21C
330
21A
100
AcDbEntity
  8
0
100
AcDbBlockEnd
  0
BLOCK
  5
224
330
223
100
AcDbEntity
  8
0
100
AcDbBlockBegin
  2
SW_NOTE_26
 70
     0
 10
0.0
 20
0.0
 30
0.0
  3
SW_NOTE_26
  1
SW_NOTE_26
  0
INSERT
  5
22C
330
223
100
AcDbEntity
  8
ASSEMBLY
 62
     0
100
AcDbBlockReference
  2
SW_SYMBOL_GTOL_POSI
 10
0.0
 20
0.1673200514
 30
0.0
 41
0.0013929734
 42
0.0013929734
 43
0.0013929734
  0
MTEXT
  5
22E
330
223
100
AcDbEntity
  8
ASSEMBLY
 62
     0
100
AcDbMText
 10
2.7061975561
 20
1.3642633579
 30
0.0
 40
1.0583333333
 41
0.0
 71
     1
 72
     1
  1
3 X Y Z
  7
SLDTEXTSTYLE5
 73
     1
 44
1.0
  0
ENDBLK
  5
225
330
223
100
AcDbEntity
  8
0
100
AcDbBlockEnd
  0
BLOCK
  5
227
330
226
100
AcDbEntity
  8
0
100
AcDbBlockBegin
  2
SW_SYMBOL_GTOL_POSI
 70
     0
 10
0.0
 20
0.0
 30
0.0
  3
SW_SYMBOL_GTOL_POSI
  1
SW_SYMBOL_GTOL_POSI
  0
CIRCLE
  5
229
330
226
100
AcDbEntity
  8
ASSEMBLY
 62
     0
100
AcDbCircle
 10
750.0
 20
500.0
 30
0.0
 40
500.0
  0
LINE
  5
22A
330
226
100
AcDbEntity
  8
ASSEMBLY
 62
     0
100
AcDbLine
 10
0.0
 20
500.0
 30
0.0
 11
1500.0
 21
500.0
 31
0.0
  0
LINE
  5
22B
330
226
100
AcDbEntity
  8
ASSEMBLY
 62
     0
100
AcDbLine
 10
750.0
 20
-250.0
 30
0.0
 11
750.0
 21
1250.0
 31
0.0
  0
ENDBLK
  5
228
330
226
100
AcDbEntity
  8
0
100
AcDbBlockEnd
  0
BLOCK
  5
231
330
230
100
AcDbEntity
  8
0
100
AcDbBlockBegin
  2
SW_NOTE_27
 70
     0
 10
0.0
 20
0.0
 30
0.0
  3
SW_NOTE_27
  1
SW_NOTE_27
  0
INSERT
  5
237
330
230
100
AcDbEntity
  8
ASSEMBLY
 62
     0
100
AcDbBlockReference
  2
SW_SYMBOL_GTOL_LPROF
 10
0.0
 20
0.1254900386
 30
0.0
 41
0.0010447301
 42
0.0010447301
 43
0.0010447301
  0
MTEXT
  5
238
330
230
100
AcDbEntity
  8
ASSEMBLY
 62
     0
100
AcDbMText
 10
2.6639131829
 20
1.2809686026
 30
0.0
 40
1.0583333333
 41
0.0
 71
     1
 72
     1
  1
3 X Y Z
  7
SLDTEXTSTYLE5
 73
     1
 44
1.0
  0
ENDBLK
  5
232
330
230
100
AcDbEntity
  8
0
100
AcDbBlockEnd
  0
BLOCK
  5
234
330
233
100
AcDbEntity
  8
0
100
AcDbBlockBegin
  2
SW_SYMBOL_GTOL_LPROF
 70
     0
 10
0.0
 20
0.0
 30
0.0
  3
SW_SYMBOL_GTOL_LPROF
  1
SW_SYMBOL_GTOL_LPROF
  0
ARC
  5
236
330
233
100
AcDbEntity
  8
ASSEMBLY
 62
     0
100
AcDbCircle
 10
1000.0
 20
0.0
 30
0.0
 40
1000.0
100
AcDbArc
 50
0.0
 51
180.0
  0
ENDBLK
  5
235
330
233
100
AcDbEntity
  8
0
100
AcDbBlockEnd
  0
BLOCK
  5
23B
330
23A
100
AcDbEntity
  8
0
100
AcDbBlockBegin
  2
SW_NOTE_28
 70
     0
 10
0.0
 20
0.0
 30
0.0
  3
SW_NOTE_28
  1
SW_NOTE_28
  0
INSERT
  5
242
330
23A
100
AcDbEntity
  8
ASSEMBLY
 62
     0
100
AcDbBlockReference
  2
SW_SYMBOL_GTOL_SPROF
 10
0.0
 20
0.1254900386
 30
0.0
 41
0.0010447301
 42
0.0010447301
 43
0.0010447301
  0
MTEXT
  5
243
330
23A
100
AcDbEntity
  8
ASSEMBLY
 62
     0
100
AcDbMText
 10
2.6639131829
 20
1.2809686026
 30
0.0
 40
1.0583333333
 41
0.0
 71
     1
 72
     1
  1
3 X Y Z
  7
SLDTEXTSTYLE5
 73
     1
 44
1.0
  0
ENDBLK
  5
23C
330
23A
100
AcDbEntity
  8
0
100
AcDbBlockEnd
  0
BLOCK
  5
23E
330
23D
100
AcDbEntity
  8
0
100
AcDbBlockBegin
  2
SW_SYMBOL_GTOL_SPROF
 70
     0
 10
0.0
 20
0.0
 30
0.0
  3
SW_SYMBOL_GTOL_SPROF
  1
SW_SYMBOL_GTOL_SPROF
  0
ARC
  5
240
330
23D
100
AcDbEntity
  8
ASSEMBLY
 62
     0
100
AcDbCircle
 10
1000.0
 20
0.0
 30
0.0
 40
1000.0
100
AcDbArc
 50
0.0
 51
180.0
  0
LINE
  5
241
330
23D
100
AcDbEntity
  8
ASSEMBLY
 62
     0
100
AcDbLine
 10
0.0
 20
0.0
 30
0.0
 11
2000.0
 21
0.0
 31
0.0
  0
ENDBLK
  5
23F
330
23D
100
AcDbEntity
  8
0
100
AcDbBlockEnd
  0
BLOCK
  5
271
330
270
100
AcDbEntity
  8
0
100
AcDbBlockBegin
  2
_D
 70
     0
 10
0.0
 20
0.0
 30
0.0
  3
_D
  1
_D
  0
SOLID
  5
273
330
270
100
AcDbEntity
  8
DESSIN
 62
     7
100
AcDbTrace
 10
42.5153572354
 20
233.5648992888
 30
0.0
 11
42.0073572354
 21
230.2628992888
 31
0.0
 12
43.0233572354
 22
230.2628992888
 32
0.0
 13
43.0233572354
 23
230.2628992888
 33
0.0
  0
SOLID
  5
274
330
270
100
AcDbEntity
  8
DESSIN
 62
     7
100
AcDbTrace
 10
42.5153572354
 20
83.6704046536
 30
0.0
 11
43.0233572354
 21
86.9724046536
 31
0.0
 12
42.0073572354
 22
86.9724046536
 32
0.0
 13
42.0073572354
 23
86.9724046536
 33
0.0
  0
LINE
  5
275
330
270
100
AcDbEntity
  8
DESSIN
 62
     7
100
AcDbLine
 10
190.0379967072
 20
233.5648992888
 30
0.0
 11
41.5208353401
 21
233.5648992888
 31
0.0
  0
LINE
  5
276
330
270
100
AcDbEntity
  8
DESSIN
 62
     7
100
AcDbLine
 10
190.0379967072
 20
83.6704046536
 30
0.0
 11
41.5208353401
 21
83.6704046536
 31
0.0
  0
LINE
  5
277
330
270
100
AcDbEntity
  8
DESSIN
 62
     7
100
AcDbLine
 10
42.5153572354
 20
233.5648992888
 30
0.0
 11
42.5153572354
 21
83.6704046536
 31
0.0
  0
MTEXT
  5
278
330
270
100
AcDbEntity
  8
DESSIN
 62
     7
100
AcDbMText
 10
38.0036203209
 20
159.6498748092
 30
0.0
 40
3.5
 41
0.0
 71
     1
 72
     1
  1
149,89
  7
SLDTEXTSTYLE0
 11
-8.269460797427576E-16
 21
1.0
 31
0.0
 73
     1
 44
1.0
  0
ENDBLK
  5
272
330
270
100
AcDbEntity
  8
0
100
AcDbBlockEnd
  0
BLOCK
  5
27B
330
27A
100
AcDbEntity
  8
0
100
AcDbBlockBegin
  2
_D_1
 70
     0
 10
0.0
 20
0.0
 30
0.0
  3
_D_1
  1
_D_1
  0
SOLID
  5
27D
330
27A
100
AcDbEntity
  8
DESSIN
 62
     7
100
AcDbTrace
 10
58.2385442985
 20
268.4877774325
 30
0.0
 11
61.5369332762
 21
267.9568366149
 31
0.0
 12
61.5439957657
 22
268.972812068
 32
0.0
 13
61.5439957657
 23
268.972812068
 33
0.0
  0
SOLID
  5
27E
330
27A
100
AcDbEntity
  8
DESSIN
 62
     7
100
AcDbTrace
 10
324.2081267287
 20
266.6389065821
 30
0.0
 11
320.909737751
 21
267.1698473998
 31
0.0
 12
320.9026752614
 22
266.1538719467
 32
0.0
 13
320.9026752614
 23
266.1538719467
 33
0.0
  0
LINE
  5
27F
330
27A
100
AcDbEntity
  8
DESSIN
 62
     7
100
AcDbLine
 10
57.8878795209
 20
218.0428453634
 30
0.0
 11
58.2454955677
 21
269.4877532722
 31
0.0
  0
LINE
  5
280
330
27A
100
AcDbEntity
  8
DESSIN
 62
     7
100
AcDbLine
 10
323.8574619511
 20
216.193974513
 30
0.0
 11
324.2150779979
 21
267.6388824218
 31
0.0
  0
LINE
  5
281
330
27A
100
AcDbEntity
  8
DESSIN
 62
     7
100
AcDbLine
 10
58.2385442985
 20
268.4877774325
 30
0.0
 11
324.2081267287
 21
266.6389065821
 31
0.0
  0
MTEXT
  5
282
330
27A
100
AcDbEntity
  8
DESSIN
 62
     7
100
AcDbMText
 10
183.9190407354
 20
272.1259632762
 30
0.0
 40
3.5
 41
0.0
 71
     1
 72
     1
  1
265,98
  7
SLDTEXTSTYLE0
 11
0.9999758396360138
 21
-0.00695126925455506
 31
0.0
 73
     1
 44
1.0
  0
ENDBLK
  5
27C
330
27A
100
AcDbEntity
  8
0
100
AcDbBlockEnd
  0
BLOCK
  5
286
330
285
100
AcDbEntity
  8
0
100
AcDbBlockBegin
  2
_NONE
 70
     0
 10
0.0
 20
0.0
 30
0.0
  3
_NONE
  1
_NONE
  0
ENDBLK
  5
287
330
285
100
AcDbEntity
  8
0
100
AcDbBlockEnd
  0
BLOCK
  5
289
330
288
100
AcDbEntity
  8
0
100
AcDbBlockBegin
  2
_D_2
 70
     0
 10
0.0
 20
0.0
 30
0.0
  3
_D_2
  1
_D_2
  0
SOLID
  5
28B
330
288
100
AcDbEntity
  8
DESSIN
 62
     7
100
AcDbTrace
 10
128.5771118597
 20
222.5890660046
 30
0.0
 11
130.7499536139
 21
225.1267867755
 31
0.0
 12
129.8866922606
 22
225.6625440301
 32
0.0
 13
129.8866922606
 23
225.6625440301
 33
0.0
  0
LINE
  5
28C
330
288
100
AcDbEntity
  8
DESSIN
 62
     7
100
AcDbLine
 10
128.5771118597
 20
222.5890660046
 30
0.0
 11
145.8051798702
 21
250.3485133605
 31
0.0
  0
LINE
  5
28D
330
288
100
AcDbEntity
  8
DESSIN
 62
     7
100
AcDbLine
 10
125.9405111971
 20
218.340732573
 30
0.0
 11
128.5771118597
 21
222.5890660046
 31
0.0
  0
LINE
  5
28E
330
288
100
AcDbEntity
  8
DESSIN
 62
     7
100
AcDbLine
 10
145.8051798702
 20
250.3485133605
 30
0.0
 11
155.257228695
 21
250.3485133605
 31
0.0
  0
MTEXT
  5
28F
330
288
100
AcDbEntity
  8
DESSIN
 62
     7
100
AcDbMText
 10
147.3926798702
 20
254.8602504497
 30
0.0
 40
3.5
 41
0.0
 71
     1
 72
     1
  1
%%c
  7
SLDTEXTSTYLE0
 73
     1
 44
1.0
  0
MTEXT
  5
290
330
288
100
AcDbEntity
  8
DESSIN
 62
     7
100
AcDbMText
 10
152.6711172686
 20
254.9137226264
 30
0.0
 40
3.5
 41
0.0
 71
     1
 72
     1
  1
5
  7
SLDTEXTSTYLE0
 73
     1
 44
1.0
  0
ENDBLK
  5
28A
330
288
100
AcDbEntity
  8
0
100
AcDbBlockEnd
  0
BLOCK
  5
292
330
291
100
AcDbEntity
  8
0
100
AcDbBlockBegin
  2
SW_CENTERMARKSYMBOL_0
 70
     0
 10
0.0
 20
0.0
 30
0.0
  3
SW_CENTERMARKSYMBOL_0
  1
SW_CENTERMARKSYMBOL_0
  0
LINE
  5
294
330
291
100
AcDbEntity
  8
DESSIN
 62
     0
100
AcDbLine
 10
0.0
 20
0.0
 30
0.0
 11
0.0
 21
2.5
 31
0.0
  0
LINE
  5
295
330
291
100
AcDbEntity
  8
DESSIN
 62
     0
100
AcDbLine
 10
0.0
 20
0.0
 30
0.0
 11
-2.5
 21
0.0
 31
0.0
  0
LINE
  5
296
330
291
100
AcDbEntity
  8
DESSIN
 62
     0
100
AcDbLine
 10
0.0
 20
0.0
 30
0.0
 11
0.0
 21
-2.5
 31
0.0
  0
LINE
  5
297
330
291
100
AcDbEntity
  8
DESSIN
 62
     0
100
AcDbLine
 10
0.0
 20
0.0
 30
0.0
 11
2.5
 21
0.0
 31
0.0
  0
LINE
  5
298
330
291
100
AcDbEntity
  8
DESSIN
 62
     0
100
AcDbLine
 10
0.0
 20
2.5
 30
0.0
 11
0.0
 21
5.0
 31
0.0
  0
LINE
  5
299
330
291
100
AcDbEntity
  8
DESSIN
 62
     0
100
AcDbLine
 10
-2.5
 20
0.0
 30
0.0
 11
-5.0
 21
0.0
 31
0.0
  0
LINE
  5
29A
330
291
100
AcDbEntity
  8
DESSIN
 62
     0
100
AcDbLine
 10
0.0
 20
-2.5
 30
0.0
 11
0.0
 21
-5.0
 31
0.0
  0
LINE
  5
29B
330
291
100
AcDbEntity
  8
DESSIN
 62
     0
100
AcDbLine
 10
2.5
 20
0.0
 30
0.0
 11
5.0
 21
0.0
 31
0.0
  0
ENDBLK
  5
293
330
291
100
AcDbEntity
  8
0
100
AcDbBlockEnd
  0
BLOCK
  5
29E
330
29D
100
AcDbEntity
  8
0
100
AcDbBlockBegin
  2
SW_CENTERMARKSYMBOL_1
 70
     0
 10
0.0
 20
0.0
 30
0.0
  3
SW_CENTERMARKSYMBOL_1
  1
SW_CENTERMARKSYMBOL_1
  0
LINE
  5
2A0
330
29D
100
AcDbEntity
  8
DESSIN
 62
     0
100
AcDbLine
 10
0.0
 20
0.0
 30
0.0
 11
0.0
 21
2.5
 31
0.0
  0
LINE
  5
2A1
330
29D
100
AcDbEntity
  8
DESSIN
 62
     0
100
AcDbLine
 10
0.0
 20
0.0
 30
0.0
 11
-2.5
 21
0.0
 31
0.0
  0
LINE
  5
2A2
330
29D
100
AcDbEntity
  8
DESSIN
 62
     0
100
AcDbLine
 10
0.0
 20
0.0
 30
0.0
 11
0.0
 21
-2.5
 31
0.0
  0
LINE
  5
2A3
330
29D
100
AcDbEntity
  8
DESSIN
 62
     0
100
AcDbLine
 10
0.0
 20
0.0
 30
0.0
 11
2.5
 21
0.0
 31
0.0
  0
LINE
  5
2A4
330
29D
100
AcDbEntity
  8
DESSIN
 62
     0
100
AcDbLine
 10
0.0
 20
2.5
 30
0.0
 11
0.0
 21
5.0
 31
0.0
  0
LINE
  5
2A5
330
29D
100
AcDbEntity
  8
DESSIN
 62
     0
100
AcDbLine
 10
-2.5
 20
0.0
 30
0.0
 11
-5.0
 21
0.0
 31
0.0
  0
LINE
  5
2A6
330
29D
100
AcDbEntity
  8
DESSIN
 62
     0
100
AcDbLine
 10
0.0
 20
-2.5
 30
0.0
 11
0.0
 21
-5.0
 31
0.0
  0
LINE
  5
2A7
330
29D
100
AcDbEntity
  8
DESSIN
 62
     0
100
AcDbLine
 10
2.5
 20
0.0
 30
0.0
 11
5.0
 21
0.0
 31
0.0
  0
ENDBLK
  5
29F
330
29D
100
AcDbEntity
  8
0
100
AcDbBlockEnd
  0
BLOCK
  5
2AA
330
2A9
100
AcDbEntity
  8
0
100
AcDbBlockBegin
  2
SW_CENTERMARKSYMBOL_2
 70
     0
 10
0.0
 20
0.0
 30
0.0
  3
SW_CENTERMARKSYMBOL_2
  1
SW_CENTERMARKSYMBOL_2
  0
LINE
  5
2AC
330
2A9
100
AcDbEntity
  8
DESSIN
 62
     0
100
AcDbLine
 10
0.0
 20
0.0
 30
0.0
 11
0.0
 21
2.5
 31
0.0
  0
LINE
  5
2AD
330
2A9
100
AcDbEntity
  8
DESSIN
 62
     0
100
AcDbLine
 10
0.0
 20
0.0
 30
0.0
 11
-2.5
 21
0.0
 31
0.0
  0
LINE
  5
2AE
330
2A9
100
AcDbEntity
  8
DESSIN
 62
     0
100
AcDbLine
 10
0.0
 20
0.0
 30
0.0
 11
0.0
 21
-2.5
 31
0.0
  0
LINE
  5
2AF
330
2A9
100
AcDbEntity
  8
DESSIN
 62
     0
100
AcDbLine
 10
0.0
 20
0.0
 30
0.0
 11
2.5
 21
0.0
 31
0.0
  0
LINE
  5
2B0
330
2A9
100
AcDbEntity
  8
DESSIN
 62
     0
100
AcDbLine
 10
0.0
 20
2.5
 30
0.0
 11
0.0
 21
5.0
 31
0.0
  0
LINE
  5
2B1
330
2A9
100
AcDbEntity
  8
DESSIN
 62
     0
100
AcDbLine
 10
-2.5
 20
0.0
 30
0.0
 11
-5.0
 21
0.0
 31
0.0
  0
LINE
  5
2B2
330
2A9
100
AcDbEntity
  8
DESSIN
 62
     0
100
AcDbLine
 10
0.0
 20
-2.5
 30
0.0
 11
0.0
 21
-5.0
 31
0.0
  0
LINE
  5
2B3
330
2A9
100
AcDbEntity
  8
DESSIN
 62
     0
100
AcDbLine
 10
2.5
 20
0.0
 30
0.0
 11
5.0
 21
0.0
 31
0.0
  0
ENDBLK
  5
2AB
330
2A9
100
AcDbEntity
  8
0
100
AcDbBlockEnd
  0
BLOCK
  5
2B6
330
2B5
100
AcDbEntity
  8
0
100
AcDbBlockBegin
  2
SW_CENTERMARKSYMBOL_3
 70
     0
 10
0.0
 20
0.0
 30
0.0
  3
SW_CENTERMARKSYMBOL_3
  1
SW_CENTERMARKSYMBOL_3
  0
LINE
  5
2B8
330
2B5
100
AcDbEntity
  8
DESSIN
 62
     0
100
AcDbLine
 10
0.0
 20
0.0
 30
0.0
 11
0.0
 21
2.5
 31
0.0
  0
LINE
  5
2B9
330
2B5
100
AcDbEntity
  8
DESSIN
 62
     0
100
AcDbLine
 10
0.0
 20
0.0
 30
0.0
 11
-2.5
 21
0.0
 31
0.0
  0
LINE
  5
2BA
330
2B5
100
AcDbEntity
  8
DESSIN
 62
     0
100
AcDbLine
 10
0.0
 20
0.0
 30
0.0
 11
0.0
 21
-2.5
 31
0.0
  0
LINE
  5
2BB
330
2B5
100
AcDbEntity
  8
DESSIN
 62
     0
100
AcDbLine
 10
0.0
 20
0.0
 30
0.0
 11
2.5
 21
0.0
 31
0.0
  0
LINE
  5
2BC
330
2B5
100
AcDbEntity
  8
DESSIN
 62
     0
100
AcDbLine
 10
0.0
 20
2.5
 30
0.0
 11
0.0
 21
5.0
 31
0.0
  0
LINE
  5
2BD
330
2B5
100
AcDbEntity
  8
DESSIN
 62
     0
100
AcDbLine
 10
-2.5
 20
0.0
 30
0.0
 11
-5.0
 21
0.0
 31
0.0
  0
LINE
  5
2BE
330
2B5
100
AcDbEntity
  8
DESSIN
 62
     0
100
AcDbLine
 10
0.0
 20
-2.5
 30
0.0
 11
0.0
 21
-5.0
 31
0.0
  0
LINE
  5
2BF
330
2B5
100
AcDbEntity
  8
DESSIN
 62
     0
100
AcDbLine
 10
2.5
 20
0.0
 30
0.0
 11
5.0
 21
0.0
 31
0.0
  0
ENDBLK
  5
2B7
330
2B5
100
AcDbEntity
  8
0
100
AcDbBlockEnd
  0
BLOCK
  5
2E3
330
2E2
100
AcDbEntity
  8
0
100
AcDbBlockBegin
  2
_D_3
 70
     0
 10
0.0
 20
0.0
 30
0.0
  3
_D_3
  1
_D_3
  0
SOLID
  5
2E5
330
2E2
100
AcDbEntity
  8
DESSIN
 62
     7
100
AcDbTrace
 10
364.9170966822
 20
249.6228282854
 30
0.0
 11
361.6150966822
 21
250.1308282854
 31
0.0
 12
361.6150966822
 22
249.1148282854
 32
0.0
 13
361.6150966822
 23
249.1148282854
 33
0.0
  0
SOLID
  5
2E6
330
2E2
100
AcDbEntity
  8
DESSIN
 62
     7
100
AcDbTrace
 10
366.9170966822
 20
249.6228282854
 30
0.0
 11
370.2190966822
 21
249.1148282854
 31
0.0
 12
370.2190966822
 22
250.1308282854
 32
0.0
 13
370.2190966822
 23
250.1308282854
 33
0.0
  0
LINE
  5
2E7
330
2E2
100
AcDbEntity
  8
DESSIN
 62
     7
100
AcDbLine
 10
364.9170966822
 20
229.4434795163
 30
0.0
 11
364.9170966822
 21
250.4379498312
 31
0.0
  0
LINE
  5
2E8
330
2E2
100
AcDbEntity
  8
DESSIN
 62
     7
100
AcDbLine
 10
366.9170966822
 20
229.4434795163
 30
0.0
 11
366.9170966822
 21
250.4379498312
 31
0.0
  0
LINE
  5
2E9
330
2E2
100
AcDbEntity
  8
DESSIN
 62
     7
100
AcDbLine
 10
364.9170966822
 20
249.6228282854
 30
0.0
 11
358.5670966822
 21
249.6228282854
 31
0.0
  0
LINE
  5
2EA
330
2E2
100
AcDbEntity
  8
DESSIN
 62
     7
100
AcDbLine
 10
364.9170966822
 20
249.6228282854
 30
0.0
 11
366.9170966822
 21
249.6228282854
 31
0.0
  0
LINE
  5
2EB
330
2E2
100
AcDbEntity
  8
DESSIN
 62
     7
100
AcDbLine
 10
366.9170966822
 20
249.6228282854
 30
0.0
 11
383.5012154684
 21
249.6228282854
 31
0.0
  0
MTEXT
  5
2EC
330
2E2
100
AcDbEntity
  8
DESSIN
 62
     7
100
AcDbMText
 10
380.9151042749
 20
254.1345652
 30
0.0
 40
3.5
 41
0.0
 71
     1
 72
     1
  1
2
  7
SLDTEXTSTYLE0
 73
     1
 44
1.0
  0
ENDBLK
  5
2E4
330
2E2
100
AcDbEntity
  8
0
100
AcDbBlockEnd
  0
ENDSEC
  0
SECTION
  2
ENTITIES
  0
HATCH
  5
78
330
1F
100
AcDbEntity
  8
FORMAT
 62
     7
100
AcDbHatch
 10
0.0
 20
0.0
 30
0.0
210
0.0
220
0.0
230
1.0
  2
SOLID
 70
     1
 71
     0
 91
        1
 92
        0
 93
        3
 72
     1
 10
249.8219804851232
 20
46.93531861965948
 11
249.4866428643128
 21
47.24902155525632
 72
     1
 10
249.4866428643128
 20
47.24902155525632
 11
248.6664806125129
 21
45.9554355133106
 72
     1
 10
248.6664806125129
 20
45.9554355133106
 11
249.8219804851232
 21
46.93531861965948
 97
        0
 75
     0
 76
     1
 98
        1
 10
0.0
 20
0.0
  0
HATCH
  5
79
330
1F
100
AcDbEntity
  8
FORMAT
 62
     7
100
AcDbHatch
 10
0.0
 20
0.0
 30
0.0
210
0.0
220
0.0
230
1.0
  2
SOLID
 70
     1
 71
     0
 91
        1
 92
        0
 93
        3
 72
     1
 10
239.6274110865315
 20
43.53510564123089
 11
239.2920734657211
 21
43.84880857682774
 72
     1
 10
239.2920734657211
 20
43.84880857682774
 11
238.4719112139212
 21
42.55522253488202
 72
     1
 10
238.4719112139212
 20
42.55522253488202
 11
239.6274110865315
 21
43.53510564123089
 97
        0
 75
     0
 76
     1
 98
        1
 10
0.0
 20
0.0
  0
LINE
  5
7A
330
1F
100
AcDbEntity
  8
FORMAT
 62
     7
370
     0
100
AcDbLine
 10
410.1925968167
 20
287.0
 30
0.0
 11
410.1925968167
 21
10.0
 31
0.0
  0
LINE
  5
7B
330
1F
100
AcDbEntity
  8
FORMAT
 62
     7
370
     0
100
AcDbLine
 10
415.0
 20
292.0
 30
0.0
 11
415.0
 21
5.0
 31
0.0
  0
LINE
  5
7C
330
1F
100
AcDbEntity
  8
FORMAT
 62
     7
370
     0
100
AcDbLine
 10
415.0
 20
5.0
 30
0.0
 11
5.0
 21
5.0
 31
0.0
  0
LINE
  5
7D
330
1F
100
AcDbEntity
  8
FORMAT
 62
     7
370
     0
100
AcDbLine
 10
5.0
 20
5.0
 30
0.0
 11
5.0
 21
292.0
 31
0.0
  0
LINE
  5
7E
330
1F
100
AcDbEntity
  8
FORMAT
 62
     7
370
     0
100
AcDbLine
 10
10.0
 20
10.0
 30
0.0
 11
10.0
 21
287.0
 31
0.0
  0
LINE
  5
7F
330
1F
100
AcDbEntity
  8
FORMAT
 62
     7
370
     0
100
AcDbLine
 10
10.0
 20
287.0
 30
0.0
 11
410.1925968167
 21
287.0
 31
0.0
  0
LINE
  5
80
330
1F
100
AcDbEntity
  8
FORMAT
 62
     7
370
     0
100
AcDbLine
 10
415.0
 20
292.0
 30
0.0
 11
5.0
 21
292.0
 31
0.0
  0
LINE
  5
81
330
1F
100
AcDbEntity
  8
FORMAT
 62
     7
370
     0
100
AcDbLine
 10
10.0
 20
10.0
 30
0.0
 11
410.1925968167
 21
10.0
 31
0.0
  0
LINE
  5
82
330
1F
100
AcDbEntity
  8
FORMAT
 62
     7
370
     0
100
AcDbLine
 10
310.0
 20
5.0
 30
0.0
 11
310.0
 21
10.0
 31
0.0
  0
LINE
  5
83
330
1F
100
AcDbEntity
  8
FORMAT
 62
     7
370
     0
100
AcDbLine
 10
360.0
 20
5.0
 30
0.0
 11
360.0
 21
10.0
 31
0.0
  0
LINE
  5
84
330
1F
100
AcDbEntity
  8
FORMAT
 62
     7
370
     0
100
AcDbLine
 10
410.1925968167
 20
48.5
 30
0.0
 11
415.0
 21
48.5
 31
0.0
  0
LINE
  5
85
330
1F
100
AcDbEntity
  8
FORMAT
  6
Continuous
370
     0
100
AcDbLine
 10
215.1925968167
 20
10.0
 30
0.0
 11
410.1925968167
 21
10.0
 31
0.0
  0
LINE
  5
86
330
1F
100
AcDbEntity
  8
FORMAT
 62
     7
100
AcDbLine
 10
215.1925968167
 20
51.8687928505
 30
0.0
 11
351.1649933754
 21
51.8687928505
 31
0.0
  0
LINE
  5
87
330
1F
100
AcDbEntity
  8
FORMAT
 62
     7
370
     0
100
AcDbLine
 10
283.4006928142
 20
21.3099567735
 30
0.0
 11
283.4006928142
 21
14.25
 31
0.0
  0
LINE
  5
88
330
1F
100
AcDbEntity
  8
FORMAT
100
AcDbLine
 10
405.9426256584
 20
14.25
 30
0.0
 11
405.9426256584
 21
65.0
 31
0.0
  0
LINE
  5
89
330
1F
100
AcDbEntity
  8
FORMAT
100
AcDbLine
 10
215.1925968167
 20
65.0
 30
0.0
 11
410.1925968167
 21
65.0
 31
0.0
  0
LINE
  5
8A
330
1F
100
AcDbEntity
  8
FORMAT
100
AcDbLine
 10
357.9662944645
 20
27.9980860131
 30
0.0
 11
405.9426256584
 21
27.9980860131
 31
0.0
  0
LINE
  5
8B
330
1F
100
AcDbEntity
  8
FORMAT
100
AcDbLine
 10
405.9426256584
 20
21.3099567735
 30
0.0
 11
215.1925968167
 21
21.3099567735
 31
0.0
  0
LINE
  5
8C
330
1F
100
AcDbEntity
  8
FORMAT
100
AcDbLine
 10
329.1321380759
 20
35.0294727499
 30
0.0
 11
329.1321380759
 21
14.25
 31
0.0
  0
LINE
  5
8D
330
1F
100
AcDbEntity
  8
FORMAT
100
AcDbLine
 10
357.9662944645
 20
27.9980860131
 30
0.0
 11
329.1321669176
 21
27.9980860131
 31
0.0
  0
LINE
  5
8E
330
1F
100
AcDbEntity
  8
FORMAT
100
AcDbLine
 10
368.6361364225
 20
21.3099567735
 30
0.0
 11
368.6361364225
 21
14.25
 31
0.0
  0
LINE
  5
8F
330
1F
100
AcDbEntity
  8
FORMAT
100
AcDbLine
 10
351.1649933754
 20
14.25
 30
0.0
 11
405.9426256584
 21
14.25
 31
0.0
  0
LINE
  5
90
330
1F
100
AcDbEntity
  8
FORMAT
100
AcDbLine
 10
215.1925968167
 20
65.0
 30
0.0
 11
215.1925968167
 21
10.0
 31
0.0
  0
LINE
  5
91
330
1F
100
AcDbEntity
  8
FORMAT
100
AcDbLine
 10
351.1649933754
 20
14.25
 30
0.0
 11
215.1925968167
 21
14.25
 31
0.0
  0
LINE
  5
92
330
1F
100
AcDbEntity
  8
FORMAT
100
AcDbLine
 10
386.5098680994
 20
21.3099567735
 30
0.0
 11
386.5098680994
 21
14.25
 31
0.0
  0
LINE
  5
93
330
1F
100
AcDbEntity
  8
FORMAT
100
AcDbLine
 10
215.1925968167
 20
41.9559636665
 30
0.0
 11
405.9426256584
 21
41.9559636665
 31
0.0
  0
LINE
  5
94
330
1F
100
AcDbEntity
  8
FORMAT
100
AcDbLine
 10
357.9662656227
 20
35.0294727499
 30
0.0
 11
215.1925968167
 21
35.0294727499
 31
0.0
  0
LINE
  5
95
330
1F
100
AcDbEntity
  8
FORMAT
100
AcDbLine
 10
351.1649933754
 20
65.0
 30
0.0
 11
351.1649933754
 21
14.25
 31
0.0
  0
LINE
  5
96
330
1F
100
AcDbEntity
  8
FORMAT
100
AcDbLine
 10
357.9662656227
 20
35.0294727499
 30
0.0
 11
405.9426256584
 21
35.0294727499
 31
0.0
  0
LINE
  5
97
330
1F
100
AcDbEntity
  8
FORMAT
 62
     7
370
     0
100
AcDbLine
 10
249.8219804851
 20
46.9353186197
 30
0.0
 11
248.6664806125
 21
45.9554355133
 31
0.0
  0
LINE
  5
98
330
1F
100
AcDbEntity
  8
FORMAT
 62
     7
370
    15
100
AcDbLine
 10
248.6664806125
 20
45.9554355133
 30
0.0
 11
245.2601466984
 21
45.9554355133
 31
0.0
  0
LINE
  5
99
330
1F
100
AcDbEntity
  8
FORMAT
 62
     7
370
     0
100
AcDbLine
 10
255.8182473167
 20
41.9559636665
 30
0.0
 11
255.8182473167
 21
14.25
 31
0.0
  0
LINE
  5
9A
330
1F
100
AcDbEntity
  8
FORMAT
 62
     7
370
     0
100
AcDbLine
 10
236.1599894355
 20
51.8687928505
 30
0.0
 11
236.1599894355
 21
41.9559636665
 31
0.0
  0
LINE
  5
9B
330
1F
100
AcDbEntity
  8
FORMAT
 62
     7
370
     0
100
AcDbLine
 10
255.8182473167
 20
41.9559636665
 30
0.0
 11
255.8182473167
 21
51.8687928505
 31
0.0
  0
LINE
  5
9C
330
1F
100
AcDbEntity
  8
FORMAT
 62
     7
370
    15
100
AcDbLine
 10
248.6664806125
 20
42.5491015992
 30
0.0
 11
248.6664806125
 21
45.9554355133
 31
0.0
  0
LINE
  5
9D
330
1F
100
AcDbEntity
  8
FORMAT
 62
     7
370
     0
100
AcDbLine
 10
249.4866428643
 20
47.2490215553
 30
0.0
 11
248.6664806125
 21
45.9554355133
 31
0.0
  0
LINE
  5
9E
330
1F
100
AcDbEntity
  8
FORMAT
 62
     7
370
    15
100
AcDbLine
 10
238.4719112139
 20
42.5552225349
 30
0.0
 11
241.8721241923
 21
42.5552225349
 31
0.0
  0
LINE
  5
9F
330
1F
100
AcDbEntity
  8
FORMAT
 62
     7
370
    15
100
AcDbLine
 10
238.4719112139
 20
45.9554355133
 30
0.0
 11
238.4719112139
 21
42.5552225349
 31
0.0
  0
LINE
  5
A0
330
1F
100
AcDbEntity
  8
FORMAT
 62
     7
370
     0
100
AcDbLine
 10
249.8219804851
 20
46.9353186197
 30
0.0
 11
249.4866428643
 21
47.2490215553
 31
0.0
  0
LINE
  5
A1
330
1F
100
AcDbEntity
  8
FORMAT
 62
     7
370
     0
100
AcDbLine
 10
249.6543116747
 20
47.0921700875
 30
0.0
 11
250.0638503907
 21
47.5299528528
 31
0.0
  0
LINE
  5
A2
330
1F
100
AcDbEntity
  8
FORMAT
 62
     7
370
     0
100
AcDbLine
 10
250.0638503907
 20
47.5299528528
 30
0.0
 11
253.5198166544
 21
47.5299528528
 31
0.0
  0
LINE
  5
A3
330
1F
100
AcDbEntity
  8
FORMAT
 62
     7
370
     0
100
AcDbLine
 10
10.0
 20
248.5
 30
0.0
 11
5.0
 21
248.5
 31
0.0
  0
LINE
  5
A4
330
1F
100
AcDbEntity
  8
FORMAT
 62
     7
370
     0
100
AcDbLine
 10
10.0
 20
198.5
 30
0.0
 11
5.0
 21
198.5
 31
0.0
  0
LINE
  5
A5
330
1F
100
AcDbEntity
  8
FORMAT
 62
     7
370
     0
100
AcDbLine
 10
15.0
 20
148.5
 30
0.0
 11
5.0
 21
148.5
 31
0.0
  0
LINE
  5
A6
330
1F
100
AcDbEntity
  8
FORMAT
 62
     7
370
     0
100
AcDbLine
 10
10.0
 20
98.5
 30
0.0
 11
5.0
 21
98.5
 31
0.0
  0
LINE
  5
A7
330
1F
100
AcDbEntity
  8
FORMAT
 62
     7
370
     0
100
AcDbLine
 10
250.0638503907
 20
47.5299528528
 30
0.0
 11
250.0638503907
 21
50.6453343674
 31
0.0
  0
LINE
  5
A8
330
1F
100
AcDbEntity
  8
FORMAT
 62
     7
370
     0
100
AcDbLine
 10
239.6274110865
 20
43.5351056412
 30
0.0
 11
238.4719112139
 21
42.5552225349
 31
0.0
  0
LINE
  5
A9
330
1F
100
AcDbEntity
  8
FORMAT
 62
     7
370
     0
100
AcDbLine
 10
60.0
 20
10.0
 30
0.0
 11
60.0
 21
5.0
 31
0.0
  0
LINE
  5
AA
330
1F
100
AcDbEntity
  8
FORMAT
 62
     7
370
     0
100
AcDbLine
 10
110.0
 20
10.0
 30
0.0
 11
110.0
 21
5.0
 31
0.0
  0
LINE
  5
AB
330
1F
100
AcDbEntity
  8
FORMAT
 62
     7
370
     0
100
AcDbLine
 10
160.0
 20
10.0
 30
0.0
 11
160.0
 21
5.0
 31
0.0
  0
LINE
  5
AC
330
1F
100
AcDbEntity
  8
FORMAT
 62
     7
370
     0
100
AcDbLine
 10
10.0
 20
48.5
 30
0.0
 11
5.0
 21
48.5
 31
0.0
  0
LINE
  5
AD
330
1F
100
AcDbEntity
  8
FORMAT
 62
     7
370
     0
100
AcDbLine
 10
360.0
 20
292.0
 30
0.0
 11
360.0
 21
287.0
 31
0.0
  0
LINE
  5
AE
330
1F
100
AcDbEntity
  8
FORMAT
 62
     7
370
     0
100
AcDbLine
 10
310.0
 20
292.0
 30
0.0
 11
310.0
 21
287.0
 31
0.0
  0
LINE
  5
AF
330
1F
100
AcDbEntity
  8
FORMAT
 62
     7
370
     0
100
AcDbLine
 10
260.0
 20
292.0
 30
0.0
 11
260.0
 21
287.0
 31
0.0
  0
LINE
  5
B0
330
1F
100
AcDbEntity
  8
FORMAT
 62
     7
370
     0
100
AcDbLine
 10
210.0
 20
282.0
 30
0.0
 11
210.0
 21
292.0
 31
0.0
  0
LINE
  5
B1
330
1F
100
AcDbEntity
  8
FORMAT
 62
     7
370
     0
100
AcDbLine
 10
410.0
 20
248.5
 30
0.0
 11
415.0
 21
248.5
 31
0.0
  0
LINE
  5
B2
330
1F
100
AcDbEntity
  8
FORMAT
 62
     7
370
     0
100
AcDbLine
 10
210.0
 20
15.0
 30
0.0
 11
210.0
 21
5.0
 31
0.0
  0
LINE
  5
B3
330
1F
100
AcDbEntity
  8
FORMAT
 62
     7
370
     0
100
AcDbLine
 10
410.0
 20
198.5
 30
0.0
 11
415.0
 21
198.5
 31
0.0
  0
LINE
  5
B4
330
1F
100
AcDbEntity
  8
FORMAT
 62
     7
370
     0
100
AcDbLine
 10
405.0
 20
148.5
 30
0.0
 11
415.0
 21
148.5
 31
0.0
  0
LINE
  5
B5
330
1F
100
AcDbEntity
  8
FORMAT
 62
     7
370
     0
100
AcDbLine
 10
410.1925968167
 20
98.5
 30
0.0
 11
415.0
 21
98.5
 31
0.0
  0
LINE
  5
B6
330
1F
100
AcDbEntity
  8
FORMAT
 62
     7
370
     0
100
AcDbLine
 10
160.0
 20
287.0
 30
0.0
 11
160.0
 21
292.0
 31
0.0
  0
LINE
  5
B7
330
1F
100
AcDbEntity
  8
FORMAT
 62
     7
370
     0
100
AcDbLine
 10
110.0
 20
287.0
 30
0.0
 11
110.0
 21
292.0
 31
0.0
  0
LINE
  5
B8
330
1F
100
AcDbEntity
  8
FORMAT
 62
     7
370
     0
100
AcDbLine
 10
60.0
 20
287.0
 30
0.0
 11
60.0
 21
292.0
 31
0.0
  0
LINE
  5
B9
330
1F
100
AcDbEntity
  8
FORMAT
 62
     7
370
     0
100
AcDbLine
 10
260.0
 20
10.0
 30
0.0
 11
260.0
 21
5.0
 31
0.0
  0
LINE
  5
BA
330
1F
100
AcDbEntity
  8
FORMAT
 62
     7
370
     0
100
AcDbLine
 10
239.2920734657
 20
43.8488085768
 30
0.0
 11
238.4719112139
 21
42.5552225349
 31
0.0
  0
LINE
  5
BB
330
1F
100
AcDbEntity
  8
FORMAT
 62
     7
370
     0
100
AcDbLine
 10
239.6274110865
 20
43.5351056412
 30
0.0
 11
239.2920734657
 21
43.8488085768
 31
0.0
  0
LINE
  5
BC
330
1F
100
AcDbEntity
  8
FORMAT
 62
     7
370
     0
100
AcDbLine
 10
239.4597422761
 20
43.691957109
 30
0.0
 11
239.8692809921
 21
44.1297398744
 31
0.0
  0
LINE
  5
BD
330
1F
100
AcDbEntity
  8
FORMAT
 62
     7
370
     0
100
AcDbLine
 10
239.8692809921
 20
44.1297398744
 30
0.0
 11
243.3252472558
 21
44.1297398744
 31
0.0
  0
LINE
  5
BE
330
1F
100
AcDbEntity
  8
FORMAT
 62
     7
370
     0
100
AcDbLine
 10
239.8692809921
 20
44.1297398744
 30
0.0
 11
239.8692809921
 21
47.245121389
 31
0.0
  0
LINE
  5
BF
330
1F
100
AcDbEntity
  8
FORMAT
 62
     7
370
     0
100
AcDbLine
 10
219.6324535566
 20
44.135020276
 30
0.0
 11
219.6324535566
 21
46.8915067906
 31
0.0
  0
LINE
  5
C0
330
1F
100
AcDbEntity
  8
FORMAT
 62
     7
370
     0
100
AcDbLine
 10
219.6324535566
 20
46.8915067906
 30
0.0
 11
223.9951485019
 21
47.5284124973
 31
0.0
  0
LINE
  5
C1
330
1F
100
AcDbEntity
  8
FORMAT
 62
     7
370
     0
100
AcDbLine
 10
229.2277013884
 20
48.1311022434
 30
0.0
 11
229.2277013884
 21
42.9099613589
 31
0.0
  0
LINE
  5
C2
330
1F
100
AcDbEntity
  8
FORMAT
 62
     7
370
     0
100
AcDbLine
 10
223.9951485019
 20
47.5284124973
 30
0.0
 11
223.9951485019
 21
43.4981145693
 31
0.0
  0
LINE
  5
C3
330
1F
100
AcDbEntity
  8
FORMAT
 62
     7
370
     0
100
AcDbLine
 10
218.3772593254
 20
45.5132635333
 30
0.0
 11
232.4135456072
 21
45.5132635333
 31
0.0
  0
LINE
  5
C4
330
1F
100
AcDbEntity
  8
FORMAT
 62
     7
370
     0
100
AcDbLine
 10
219.6324535566
 20
44.135020276
 30
0.0
 11
223.9951485019
 21
43.4981145693
 31
0.0
  0
LINE
  5
C5
330
1F
100
AcDbEntity
  8
ASSEMBLY
 62
     7
370
     0
100
AcDbLine
 10
230.0328838379
 20
26.9440185725
 30
0.0
 11
239.3257032093
 21
26.9440185725
 31
0.0
  0
LINE
  5
C6
330
1F
100
AcDbEntity
  8
ASSEMBLY
 62
     7
370
     0
100
AcDbLine
 10
230.0328838379
 20
29.1153560086
 30
0.0
 11
239.3257032093
 21
29.1153560086
 31
0.0
  0
LINE
  5
C7
330
1F
100
AcDbEntity
  8
ASSEMBLY
 62
     7
370
     0
100
AcDbLine
 10
230.0328838379
 20
29.1153560086
 30
0.0
 11
230.0328838379
 21
22.5870046458
 31
0.0
  0
LINE
  5
C8
330
1F
100
AcDbEntity
  8
ASSEMBLY
 62
     7
370
     0
100
AcDbLine
 10
230.0328838379
 20
22.5870046458
 30
0.0
 11
239.3257032093
 21
22.5870046458
 31
0.0
  0
LINE
  5
C9
330
1F
100
AcDbEntity
  8
ASSEMBLY
 62
     7
370
     0
100
AcDbLine
 10
239.3257032093
 20
29.1153560086
 30
0.0
 11
239.3257032093
 21
22.5870046458
 31
0.0
  0
LINE
  5
CA
330
1F
100
AcDbEntity
  8
ASSEMBLY
 62
     7
370
     0
100
AcDbLine
 10
230.0328838379
 20
24.6931626694
 30
0.0
 11
239.3257032093
 21
24.6931626694
 31
0.0
  0
LINE
  5
CB
330
1F
100
AcDbEntity
  8
ASSEMBLY
 62
     7
370
     0
100
AcDbLine
 10
237.6746051272
 20
29.1153560086
 30
0.0
 11
237.6746051272
 21
22.5870046458
 31
0.0
  0
LINE
  5
CC
330
1F
100
AcDbEntity
  8
ASSEMBLY
 62
     7
370
     0
100
AcDbLine
 10
235.8993499073
 20
29.1153560086
 30
0.0
 11
235.8993499073
 21
22.5870046458
 31
0.0
  0
LINE
  5
CD
330
1F
100
AcDbEntity
  8
ASSEMBLY
 62
     7
370
     0
100
AcDbLine
 10
234.1393986118
 20
29.1153560086
 30
0.0
 11
234.1393986118
 21
22.5870046458
 31
0.0
  0
LINE
  5
CE
330
1F
100
AcDbEntity
  8
ASSEMBLY
 62
     7
370
     0
100
AcDbLine
 10
232.6549179538
 20
29.1153560086
 30
0.0
 11
232.6549179538
 21
22.5870046458
 31
0.0
  0
CIRCLE
  5
CF
330
1F
100
AcDbEntity
  8
FORMAT
 62
     7
370
     0
100
AcDbCircle
 10
229.2277013884
 20
45.5132635333
 30
0.0
 40
1.381181693819008
  0
CIRCLE
  5
D0
330
1F
100
AcDbEntity
  8
FORMAT
 62
     7
370
     0
100
AcDbCircle
 10
229.2277013884
 20
45.5132635333
 30
0.0
 40
2.008274061454955
  0
MTEXT
  5
D2
330
1F
100
AcDbEntity
  8
FORMAT
100
AcDbMText
 10
6.6666666667
 20
124.6680204036
 30
0.0
 40
1.8520833333
 41
0.0
 71
     1
 72
     1
  1
D
  7
SLDTEXTSTYLE0
 73
     1
 44
1.0
  0
MTEXT
  5
D3
330
1F
100
AcDbEntity
  8
FORMAT
100
AcDbMText
 10
6.6666666667
 20
74.6680204036
 30
0.0
 40
1.8520833333
 41
0.0
 71
     1
 72
     1
  1
E
  7
SLDTEXTSTYLE0
 73
     1
 44
1.0
  0
MTEXT
  5
D4
330
1F
100
AcDbEntity
  8
FORMAT
100
AcDbMText
 10
6.6666666667
 20
24.6680204036
 30
0.0
 40
1.8520833333
 41
0.0
 71
     1
 72
     1
  1
F
  7
SLDTEXTSTYLE0
 73
     1
 44
1.0
  0
MTEXT
  5
D5
330
1F
100
AcDbEntity
  8
FORMAT
100
AcDbMText
 10
6.6666666667
 20
174.6680204036
 30
0.0
 40
1.8520833333
 41
0.0
 71
     1
 72
     1
  1
C
  7
SLDTEXTSTYLE0
 73
     1
 44
1.0
  0
MTEXT
  5
D6
330
1F
100
AcDbEntity
  8
FORMAT
100
AcDbMText
 10
34.5833333333
 20
8.6680244036
 30
0.0
 40
1.8520833333
 41
0.0
 71
     1
 72
     1
  1
1
  7
SLDTEXTSTYLE0
 73
     1
 44
1.0
  0
MTEXT
  5
D7
330
1F
100
AcDbEntity
  8
FORMAT
100
AcDbMText
 10
84.1666666667
 20
8.6680244036
 30
0.0
 40
1.8520833333
 41
0.0
 71
     1
 72
     1
  1
2
  7
SLDTEXTSTYLE0
 73
     1
 44
1.0
  0
MTEXT
  5
D8
330
1F
100
AcDbEntity
  8
FORMAT
100
AcDbMText
 10
134.1666666667
 20
8.6680244036
 30
0.0
 40
1.8520833333
 41
0.0
 71
     1
 72
     1
  1
3
  7
SLDTEXTSTYLE0
 73
     1
 44
1.0
  0
MTEXT
  5
D9
330
1F
100
AcDbEntity
  8
FORMAT
100
AcDbMText
 10
184.1666666667
 20
8.6680244036
 30
0.0
 40
1.8520833333
 41
0.0
 71
     1
 72
     1
  1
4
  7
SLDTEXTSTYLE0
 73
     1
 44
1.0
  0
MTEXT
  5
DA
330
1F
100
AcDbEntity
  8
FORMAT
100
AcDbMText
 10
6.6666666667
 20
224.6680204036
 30
0.0
 40
1.8520833333
 41
0.0
 71
     1
 72
     1
  1
B
  7
SLDTEXTSTYLE0
 73
     1
 44
1.0
  0
MTEXT
  5
DB
330
1F
100
AcDbEntity
  8
FORMAT
100
AcDbMText
 10
6.6666666667
 20
274.6680204036
 30
0.0
 40
1.8520833333
 41
0.0
 71
     1
 72
     1
  1
A
  7
SLDTEXTSTYLE0
 73
     1
 44
1.0
  0
MTEXT
  5
DC
330
1F
100
AcDbEntity
  8
FORMAT
100
AcDbMText
 10
134.1666666667
 20
290.6680244036
 30
0.0
 40
1.8520833333
 41
0.0
 71
     1
 72
     1
  1
3
  7
SLDTEXTSTYLE0
 73
     1
 44
1.0
  0
MTEXT
  5
DD
330
1F
100
AcDbEntity
  8
FORMAT
100
AcDbMText
 10
84.1666666667
 20
290.6680244036
 30
0.0
 40
1.8520833333
 41
0.0
 71
     1
 72
     1
  1
2
  7
SLDTEXTSTYLE0
 73
     1
 44
1.0
  0
MTEXT
  5
DE
330
1F
100
AcDbEntity
  8
FORMAT
100
AcDbMText
 10
34.5833333333
 20
290.6680244036
 30
0.0
 40
1.8520833333
 41
0.0
 71
     1
 72
     1
  1
1
  7
SLDTEXTSTYLE0
 73
     1
 44
1.0
  0
MTEXT
  5
DF
330
1F
100
AcDbEntity
  8
FORMAT
100
AcDbMText
 10
234.1666666667
 20
290.6680244036
 30
0.0
 40
1.8520833333
 41
0.0
 71
     1
 72
     1
  1
5
  7
SLDTEXTSTYLE0
 73
     1
 44
1.0
  0
MTEXT
  5
E0
330
1F
100
AcDbEntity
  8
FORMAT
100
AcDbMText
 10
411.6666666667
 20
174.6680204036
 30
0.0
 40
1.8520833333
 41
0.0
 71
     1
 72
     1
  1
C
  7
SLDTEXTSTYLE0
 73
     1
 44
1.0
  0
MTEXT
  5
E1
330
1F
100
AcDbEntity
  8
FORMAT
100
AcDbMText
 10
411.6666666667
 20
124.6680204036
 30
0.0
 40
1.8520833333
 41
0.0
 71
     1
 72
     1
  1
D
  7
SLDTEXTSTYLE0
 73
     1
 44
1.0
  0
MTEXT
  5
E2
330
1F
100
AcDbEntity
  8
FORMAT
100
AcDbMText
 10
184.1666666667
 20
290.6680244036
 30
0.0
 40
1.8520833333
 41
0.0
 71
     1
 72
     1
  1
4
  7
SLDTEXTSTYLE0
 73
     1
 44
1.0
  0
MTEXT
  5
E3
330
1F
100
AcDbEntity
  8
FORMAT
100
AcDbMText
 10
284.1666666667
 20
290.6680244036
 30
0.0
 40
1.8520833333
 41
0.0
 71
     1
 72
     1
  1
6
  7
SLDTEXTSTYLE0
 73
     1
 44
1.0
  0
MTEXT
  5
E4
330
1F
100
AcDbEntity
  8
FORMAT
100
AcDbMText
 10
334.1666666667
 20
290.6680244036
 30
0.0
 40
1.8520833333
 41
0.0
 71
     1
 72
     1
  1
7
  7
SLDTEXTSTYLE0
 73
     1
 44
1.0
  0
MTEXT
  5
E5
330
1F
100
AcDbEntity
  8
FORMAT
100
AcDbMText
 10
384.1666666667
 20
290.6680244036
 30
0.0
 40
1.8520833333
 41
0.0
 71
     1
 72
     1
  1
8
  7
SLDTEXTSTYLE0
 73
     1
 44
1.0
  0
MTEXT
  5
E6
330
1F
100
AcDbEntity
  8
FORMAT
100
AcDbMText
 10
411.6666666667
 20
274.6680204036
 30
0.0
 40
1.8520833333
 41
0.0
 71
     1
 72
     1
  1
A
  7
SLDTEXTSTYLE0
 73
     1
 44
1.0
  0
MTEXT
  5
E7
330
1F
100
AcDbEntity
  8
FORMAT
100
AcDbMText
 10
411.6666666667
 20
224.6680204036
 30
0.0
 40
1.8520833333
 41
0.0
 71
     1
 72
     1
  1
B
  7
SLDTEXTSTYLE0
 73
     1
 44
1.0
  0
MTEXT
  5
E8
330
1F
100
AcDbEntity
  8
FORMAT
100
AcDbMText
 10
234.8908998318
 20
8.6680244036
 30
0.0
 40
1.8520833333
 41
0.0
 71
     1
 72
     1
  1
5
  7
SLDTEXTSTYLE0
 73
     1
 44
1.0
  0
MTEXT
  5
E9
330
1F
100
AcDbEntity
  8
FORMAT
100
AcDbMText
 10
284.1948008978
 20
8.6680244036
 30
0.0
 40
1.8520833333
 41
0.0
 71
     1
 72
     1
  1
6
  7
SLDTEXTSTYLE0
 73
     1
 44
1.0
  0
MTEXT
  5
EA
330
1F
100
AcDbEntity
  8
FORMAT
100
AcDbMText
 10
411.9500386894
 20
75.3176655667
 30
0.0
 40
1.8520833333
 41
0.0
 71
     1
 72
     1
  1
E
  7
SLDTEXTSTYLE0
 73
     1
 44
1.0
  0
MTEXT
  5
EB
330
1F
100
AcDbEntity
  8
FORMAT
100
AcDbMText
 10
386.8168512055
 20
8.3006598171
 30
0.0
 40
1.8520833333
 41
0.0
 71
     1
 72
     1
  1
8
  7
SLDTEXTSTYLE0
 73
     1
 44
1.0
  0
MTEXT
  5
EC
330
1F
100
AcDbEntity
  8
FORMAT
100
AcDbMText
 10
334.7447149284
 20
8.6680244036
 30
0.0
 40
1.8520833333
 41
0.0
 71
     1
 72
     1
  1
7
  7
SLDTEXTSTYLE0
 73
     1
 44
1.0
  0
MTEXT
  5
ED
330
1F
100
AcDbEntity
  8
FORMAT
100
AcDbMText
 10
411.9326546561
 20
28.7158516162
 30
0.0
 40
1.8520833333
 41
0.0
 71
     1
 72
     1
  1
F
  7
SLDTEXTSTYLE0
 73
     1
 44
1.0
  0
INSERT
  5
F5
330
1F
100
AcDbEntity
  8
FORMAT
100
AcDbBlockReference
  2
SW_NOTE_0
 10
266.6957946296
 20
48.4898730695
 30
0.0
  0
MTEXT
  5
F6
330
1F
100
AcDbEntity
  8
FORMAT
100
AcDbMText
 10
236.8168072202
 20
50.6356538528
 30
0.0
 40
1.5875
 41
0.0
 71
     1
 72
     1
  1
EDGES
  7
SLDTEXTSTYLE1
 73
     1
 44
1.0
  0
MTEXT
  5
F7
330
1F
100
AcDbEntity
  8
FORMAT
100
AcDbMText
 10
216.7497631791
 20
38.2393864475
 30
0.0
 40
1.4
 41
0.0
 71
     1
 72
     1
  1
All dimensions in millimeters (mm)
  7
SLDTEXTSTYLE1
 73
     1
 44
1.0
  0
MTEXT
  5
F8
330
1F
100
AcDbEntity
  8
FORMAT
100
AcDbMText
 10
216.7497631791
 20
41.2623807393
 30
0.0
 40
1.5875
 41
0.0
 71
     1
 72
     1
  1
UNITS
  7
SLDTEXTSTYLE1
 73
     1
 44
1.0
  0
MTEXT
  5
F9
330
1F
100
AcDbEntity
  8
FORMAT
100
AcDbMText
 10
285.2362639143
 20
20.4908848056
 30
0.0
 40
1.5875
 41
0.0
 71
     1
 72
     1
  1
FINISH
  7
SLDTEXTSTYLE1
 73
     1
 44
1.0
  0
MTEXT
  5
FA
330
1F
100
AcDbEntity
  8
FORMAT
100
AcDbMText
 10
257.5223484471
 20
20.4908848056
 30
0.0
 40
1.5875
 41
0.0
 71
     1
 72
     1
  1
COLOR
  7
SLDTEXTSTYLE1
 73
     1
 44
1.0
  0
INSERT
  5
110
330
1F
100
AcDbEntity
  8
FORMAT
100
AcDbBlockReference
  2
SW_NOTE_1
 10
257.5223484471
 20
31.7195197254
 30
0.0
  0
MTEXT
  5
111
330
1F
100
AcDbEntity
  8
FORMAT
100
AcDbMText
 10
217.308077338
 20
50.6356538528
 30
0.0
 40
1.5875
 41
0.0
 71
     1
 72
     1
  1
PROJECTION
  7
SLDTEXTSTYLE1
 73
     1
 44
1.0
  0
MTEXT
  5
112
330
1F
100
AcDbEntity
  8
FORMAT
100
AcDbMText
 10
256.8360938148
 20
41.2623807393
 30
0.0
 40
1.5875
 41
0.0
 71
     1
 72
     1
  1
PART NAME
  7
SLDTEXTSTYLE1
 73
     1
 44
1.0
  0
MTEXT
  5
113
330
1F
100
AcDbEntity
  8
FORMAT
100
AcDbMText
 10
352.1093817006
 20
34.5727322508
 30
0.0
 40
1.5875
 41
0.0
 71
     1
 72
     1
  1
SAP 2D DRAWING NO
  7
SLDTEXTSTYLE1
 73
     1
 44
1.0
  0
INSERT
  5
119
330
1F
100
AcDbEntity
  8
FORMAT
100
AcDbBlockReference
  2
SW_NOTE_2
 10
354.4652822227
 20
16.8219825277
 30
0.0
  0
INSERT
  5
120
330
1F
100
AcDbEntity
  8
FORMAT
100
AcDbBlockReference
  2
SW_NOTE_3
 10
389.1988224649
 20
16.8219825277
 30
0.0
  0
INSERT
  5
126
330
1F
100
AcDbEntity
  8
FORMAT
100
AcDbBlockReference
  2
SW_NOTE_4
 10
372.5254469588
 20
16.7972140038
 30
0.0
  0
MTEXT
  5
127
330
1F
100
AcDbEntity
  8
FORMAT
100
AcDbMText
 10
330.8641756463
 20
27.5917098154
 30
0.0
 40
1.5875
 41
0.0
 71
     1
 72
     1
  1
DATE
  7
SLDTEXTSTYLE1
 73
     1
 44
1.0
  0
MTEXT
  5
128
330
1F
100
AcDbEntity
  8
FORMAT
100
AcDbMText
 10
216.6925820437
 20
20.4908848056
 30
0.0
 40
1.5875
 41
0.0
 71
     1
 72
     1
  1
MATERIAL
  7
SLDTEXTSTYLE1
 73
     1
 44
1.0
  0
MTEXT
  5
129
330
1F
100
AcDbEntity
  8
FORMAT
100
AcDbMText
 10
330.6422198236
 20
20.4908848056
 30
0.0
 40
1.5875
 41
0.0
 71
     1
 72
     1
  1
MASS
  7
SLDTEXTSTYLE1
 73
     1
 44
1.0
  0
MTEXT
  5
12A
330
1F
100
AcDbEntity
  8
FORMAT
100
AcDbMText
 10
348.5855339395
 20
24.9832548127
 30
0.0
 40
2.1166666667
 41
0.0
 71
     3
 72
     1
  1
27/10/2018
  7
SLDTEXTSTYLE1
 73
     1
 44
1.0
  0
MTEXT
  5
12B
330
1F
100
AcDbEntity
  8
FORMAT
100
AcDbMText
 10
352.1093817006
 20
41.2799928586
 30
0.0
 40
1.5875
 41
0.0
 71
     1
 72
     1
  1
SAP MATERIAL NO
  7
SLDTEXTSTYLE1
 73
     1
 44
1.0
  0
MTEXT
  5
12C
330
1F
100
AcDbEntity
  8
FORMAT
100
AcDbMText
 10
330.8641756463
 20
34.5727322508
 30
0.0
 40
1.5875
 41
0.0
 71
     1
 72
     1
  1
DRAWN BY
  7
SLDTEXTSTYLE1
 73
     1
 44
1.0
  0
INSERT
  5
132
330
1F
100
AcDbEntity
  8
FORMAT
100
AcDbBlockReference
  2
SW_NOTE_5
 10
217.0075115102
 20
31.1217830896
 30
0.0
  0
MTEXT
  5
134
330
1F
100
AcDbEntity
  8
FORMAT
100
AcDbMText
 10
352.1093817006
 20
27.5917098154
 30
0.0
 40
1.5875
 41
0.0
 71
     1
 72
     1
  1
SAP 3D CAD NO
  7
SLDTEXTSTYLE4
 73
     1
 44
1.0
  0
INSERT
  5
13A
330
1F
100
AcDbEntity
  8
FORMAT
100
AcDbBlockReference
  2
SW_NOTE_6
 10
250.1099855545
 20
49.159779203
 30
0.0
  0
INSERT
  5
140
330
1F
100
AcDbEntity
  8
FORMAT
100
AcDbBlockReference
  2
SW_NOTE_7
 10
240.1663090301
 20
45.7920676411
 30
0.0
  0
INSERT
  5
146
330
1F
100
AcDbEntity
  8
PLASTIQUE
100
AcDbBlockReference
  2
SW_NOTE_8
 10
226.4211303913
 20
25.0557697123
 30
0.0
  0
INSERT
  5
15B
330
1F
100
AcDbEntity
  8
PLASTIQUE
100
AcDbBlockReference
  2
SW_NOTE_9
 10
291.4093046216
 20
137.9895501326
 30
0.0
  0
INSERT
  5
164
330
1F
100
AcDbEntity
  8
PLASTIQUE
 62
     7
100
AcDbBlockReference
  2
SW_NOTE_10
 10
298.7515530266
 20
89.0682098258
 30
0.0
  0
INSERT
  5
16A
330
1F
100
AcDbEntity
  8
PLASTIQUE
 62
     7
100
AcDbBlockReference
  2
SW_NOTE_11
 10
300.1110918354
 20
81.2378471484
 30
0.0
  0
INSERT
  5
170
330
1F
100
AcDbEntity
  8
RUBBER
100
AcDbBlockReference
  2
SW_NOTE_12
 10
229.815637263
 20
25.0557697123
 30
0.0
  0
INSERT
  5
18A
330
1F
100
AcDbEntity
  8
RUBBER
100
AcDbBlockReference
  2
SW_NOTE_13
 10
276.3421240259
 20
152.1006573479
 30
0.0
  0
INSERT
  5
190
330
1F
100
AcDbEntity
  8
RUBBER
 62
     7
100
AcDbBlockReference
  2
SW_NOTE_14
 10
286.6996335021
 20
67.4357638151
 30
0.0
  0
INSERT
  5
199
330
1F
100
AcDbEntity
  8
RUBBER
 62
     7
100
AcDbBlockReference
  2
SW_NOTE_15
 10
285.5902021898
 20
75.4874724238
 30
0.0
  0
MTEXT
  5
19A
330
1F
100
AcDbEntity
  8
DIE-CASTING
100
AcDbMText
 10
253.0538941347
 20
26.6045980993
 30
0.0
 40
2.1166666667
 41
0.0
 71
     3
 72
     1
  1
NADCA : 2006
  7
SLDTEXTSTYLE1
 73
     1
 44
1.0
  0
INSERT
  5
1B3
330
1F
100
AcDbEntity
  8
DIE-CASTING
100
AcDbBlockReference
  2
SW_NOTE_16
 10
304.2462635028
 20
152.1006573479
 30
0.0
  0
INSERT
  5
1B9
330
1F
100
AcDbEntity
  8
DIE-CASTING
 62
     7
100
AcDbBlockReference
  2
SW_NOTE_17
 10
313.1319251688
 20
81.2378471484
 30
0.0
  0
INSERT
  5
1C2
330
1F
100
AcDbEntity
  8
DIE-CASTING
 62
     7
100
AcDbBlockReference
  2
SW_NOTE_18
 10
311.5144318185
 20
89.0682098258
 30
0.0
  0
INSERT
  5
1C9
330
1F
100
AcDbEntity
  8
TÔLERIE-USINAGE
100
AcDbBlockReference
  2
SW_NOTE_19
 10
230.9546170303
 20
26.6334702006
 30
0.0
  0
INSERT
  5
1E0
330
1F
100
AcDbEntity
  8
TÔLERIE-USINAGE
100
AcDbBlockReference
  2
SW_NOTE_20
 10
291.4093046216
 20
145.0451065342
 30
0.0
  0
INSERT
  5
1E6
330
1F
100
AcDbEntity
  8
TÔLERIE-USINAGE
 62
     7
100
AcDbBlockReference
  2
SW_NOTE_21
 10
298.2881751688
 20
81.2378471484
 30
0.0
  0
INSERT
  5
1EF
330
1F
100
AcDbEntity
  8
TÔLERIE-USINAGE
 62
     7
100
AcDbBlockReference
  2
SW_NOTE_22
 10
297.0195591217
 20
89.0682098258
 30
0.0
  0
MTEXT
  5
1F0
330
1F
100
AcDbEntity
  8
SHIELD
100
AcDbMText
 10
252.9884864562
 20
26.089055931
 30
0.0
 40
1.5875
 41
0.0
 71
     3
 72
     1
  1
ISO 2768 : 1989 mK
  7
SLDTEXTSTYLE1
 73
     1
 44
1.0
  0
INSERT
  5
213
330
1F
100
AcDbEntity
  8
SHIELD
100
AcDbBlockReference
  2
SW_NOTE_23
 10
285.1801945526
 20
197.5942799154
 30
0.0
  0
INSERT
  5
219
330
1F
100
AcDbEntity
  8
SHIELD
 62
     7
100
AcDbBlockReference
  2
SW_NOTE_24
 10
295.0329668354
 20
69.9097221484
 30
0.0
  0
INSERT
  5
222
330
1F
100
AcDbEntity
  8
SHIELD
 62
     7
100
AcDbBlockReference
  2
SW_NOTE_25
 10
293.8266108636
 20
78.2280502629
 30
0.0
  0
INSERT
  5
22F
330
1F
100
AcDbEntity
  8
ASSEMBLY
100
AcDbBlockReference
  2
SW_NOTE_26
 10
230.2571467668
 20
22.7986360138
 30
0.0
  0
INSERT
  5
239
330
1F
100
AcDbEntity
  8
ASSEMBLY
100
AcDbBlockReference
  2
SW_NOTE_27
 10
230.2994316056
 20
25.09576806
 30
0.0
  0
INSERT
  5
244
330
1F
100
AcDbEntity
  8
ASSEMBLY
100
AcDbBlockReference
  2
SW_NOTE_28
 10
230.2994316056
 20
27.3348369253
 30
0.0
  0
MTEXT
  5
245
330
1F
100
AcDbEntity
  8
DESSIN
 62
     7
100
AcDbMText
 10
379.2868754843
 20
49.0590217751
 30
0.0
 40
2.6458333333
 41
0.0
 71
     2
 72
     1
  1
MOOCK CYCLES
  7
SLDTEXTSTYLE1
 73
     1
 44
1.0
  0
MTEXT
  5
246
330
1F
100
AcDbEntity
  8
DESSIN
 62
     7
100
AcDbMText
 10
379.5707488466
 20
59.3127753686
 30
0.0
 40
9.525
 41
0.0
 71
     2
 72
     1
  1
-MCK-
  7
SLDTEXTSTYLE1
 73
     1
 44
1.0
  0
MTEXT
  5
247
330
1F
100
AcDbEntity
  8
DESSIN
 62
     7
100
AcDbMText
 10
233.2997182498
 20
26.0590837472
 30
0.0
 40
2.6458333333
 41
0.0
 71
     1
 72
     1
  1
ISO 2768mK
  7
SLDTEXTSTYLE0
 73
     1
 44
1.0
  0
MTEXT
  5
248
330
1F
100
AcDbEntity
  8
DESSIN
 62
     7
100
AcDbMText
 10
237.4615003151
 20
17.8063018604
 30
0.0
 40
2.1166666667
 41
0.0
 71
     1
 72
     1
  1
VOIR NOTES
  7
SLDTEXTSTYLE0
 73
     1
 44
1.0
  0
MTEXT
  5
249
330
1F
100
AcDbEntity
  8
DESSIN
 62
     7
100
AcDbMText
 10
265.9287074268
 20
17.8063018604
 30
0.0
 40
2.1166666667
 41
0.0
 71
     1
 72
     1
  1
VOIR NOTES
  7
SLDTEXTSTYLE0
 73
     1
 44
1.0
  0
MTEXT
  5
24A
330
1F
100
AcDbEntity
  8
DESSIN
 62
     7
100
AcDbMText
 10
311.2362363253
 20
17.8063018604
 30
0.0
 40
2.1166666667
 41
0.0
 71
     1
 72
     1
  1
VOIR NOTES
  7
SLDTEXTSTYLE0
 73
     1
 44
1.0
  0
MTEXT
  5
24B
330
1F
100
AcDbEntity
  8
DESSIN
 62
     7
100
AcDbMText
 10
337.1182552105
 20
31.4130263764
 30
0.0
 40
2.1166666667
 41
0.0
 71
     1
 72
     1
  1
C.ABEILLE
  7
SLDTEXTSTYLE0
 73
     1
 44
1.0
  0
MTEXT
  5
24C
330
1F
100
AcDbEntity
  8
DESSIN
 62
     7
100
AcDbMText
 10
306.1850061436
 20
40.0268959955
 30
0.0
 40
3.175
 41
0.0
 71
     1
 72
     1
  1
TW - REAR FENDER
  7
SLDTEXTSTYLE0
 73
     1
 44
1.0
  0
LINE
  5
24D
330
1F
100
AcDbEntity
  8
0
  6
CENTERX2
 62
     7
100
AcDbLine
 10
286.9514381715
 20
232.4141358718
 30
0.0
 11
269.7040904191
 21
130.4350015642
 31
0.0
  0
LINE
  5
24E
330
1F
100
AcDbEntity
  8
0
  6
CENTERX2
 62
     7
100
AcDbLine
 10
112.3400410934
 20
130.4350015642
 30
0.0
 11
94.9177093536
 21
233.4487712145
 31
0.0
  0
LINE
  5
24F
330
1F
100
AcDbEntity
  8
0
  6
CENTERX2
 62
     7
100
AcDbLine
 10
191.0220657562
 20
233.5648992888
 30
0.0
 11
191.0220657562
 21
83.6704046536
 31
0.0
  0
CIRCLE
  5
250
330
1F
100
AcDbEntity
  8
0
  6
Continuous
 62
     7
370
    15
100
AcDbCircle
 10
135.9302331816
 20
169.1930118014
 30
0.0
 40
2.5
  0
CIRCLE
  5
251
330
1F
100
AcDbEntity
  8
0
  6
Continuous
 62
     7
370
    15
100
AcDbCircle
 10
127.2588115284
 20
220.4648992888
 30
0.0
 40
2.499999999999986
  0
LINE
  5
252
330
1F
100
AcDbEntity
  8
0
  6
Continuous
 62
     7
370
    15
100
AcDbLine
 10
190.8964020501
 20
83.6704046536
 30
0.0
 11
191.1477294624
 21
83.6704046536
 31
0.0
  0
LINE
  5
253
330
1F
100
AcDbEntity
  8
0
  6
Continuous
 62
     7
370
    15
100
AcDbLine
 10
126.8760362587
 20
110.4473625863
 30
0.0
 11
190.8964020501
 21
83.6704046536
 31
0.0
  0
LINE
  5
254
330
1F
100
AcDbEntity
  8
0
  6
Continuous
 62
     7
370
    15
100
AcDbLine
 10
126.8760362587
 20
110.4473625863
 30
0.0
 11
113.3370830785
 21
128.7157756109
 31
0.0
  0
LINE
  5
255
330
1F
100
AcDbEntity
  8
0
  6
Continuous
 62
     7
370
    15
100
AcDbLine
 10
111.3429991083
 20
132.1542275175
 30
0.0
 11
113.3370830785
 21
128.7157756109
 31
0.0
  0
LINE
  5
256
330
1F
100
AcDbEntity
  8
0
  6
Continuous
 62
     7
370
    15
100
AcDbLine
 10
111.3429991083
 20
132.1542275175
 30
0.0
 11
100.3699751134
 21
136.5729351801
 31
0.0
  0
LINE
  5
257
330
1F
100
AcDbEntity
  8
0
  6
Continuous
 62
     7
370
    15
100
AcDbLine
 10
100.4292087709
 20
136.5788905661
 30
0.0
 11
100.3699751134
 21
136.5729351801
 31
0.0
  0
LINE
  5
258
330
1F
100
AcDbEntity
  8
0
  6
Continuous
 62
     7
370
    15
100
AcDbLine
 10
89.0607446701
 20
176.9086980465
 30
0.0
 11
100.4292087709
 21
136.5788905661
 31
0.0
  0
LINE
  5
259
330
1F
100
AcDbEntity
  8
0
  6
Continuous
 62
     7
370
    15
100
AcDbLine
 10
62.3570080563
 20
190.5769600912
 30
0.0
 11
89.0607446701
 21
176.9086980465
 31
0.0
  0
LINE
  5
25A
330
1F
100
AcDbEntity
  8
0
  6
Continuous
 62
     7
370
    15
100
AcDbLine
 10
57.8809282517
 20
217.0428695238
 30
0.0
 11
62.3570080563
 21
190.5769600912
 31
0.0
  0
LINE
  5
25B
330
1F
100
AcDbEntity
  8
0
  6
Continuous
 62
     7
370
    15
100
AcDbLine
 10
66.0733255274
 20
228.5704289739
 30
0.0
 11
57.8809282517
 21
217.0428695238
 31
0.0
  0
LINE
  5
25C
330
1F
100
AcDbEntity
  8
0
  6
Continuous
 62
     7
370
    15
100
AcDbLine
 10
95.6043448092
 20
233.5648992888
 30
0.0
 11
66.0733255274
 21
228.5704289739
 31
0.0
  0
LINE
  5
25D
330
1F
100
AcDbEntity
  8
0
  6
Continuous
 62
     7
370
    15
100
AcDbLine
 10
191.0220657563
 20
233.5648992888
 30
0.0
 11
95.6043448092
 21
233.5648992888
 31
0.0
  0
LINE
  5
25E
330
1F
100
AcDbEntity
  8
0
  6
Continuous
 62
     7
370
    15
100
AcDbLine
 10
191.0220657563
 20
233.3909763602
 30
0.0
 11
191.0220657563
 21
233.5648992888
 31
0.0
  0
LINE
  5
25F
330
1F
100
AcDbEntity
  8
0
  6
Continuous
 62
     7
370
    15
100
AcDbLine
 10
191.1477294624
 20
233.3908805058
 30
0.0
 11
191.0220657563
 21
233.3909763602
 31
0.0
  0
LINE
  5
260
330
1F
100
AcDbEntity
  8
0
  6
Continuous
 62
     7
370
    15
100
AcDbLine
 10
286.2632433553
 20
232.5210438474
 30
0.0
 11
191.1477294624
 21
233.3908805058
 31
0.0
  0
LINE
  5
261
330
1F
100
AcDbEntity
  8
0
  6
Continuous
 62
     7
370
    15
100
AcDbLine
 10
287.6396329877
 20
232.3072278962
 30
0.0
 11
286.2632433553
 21
232.5210438474
 31
0.0
  0
LINE
  5
262
330
1F
100
AcDbEntity
  8
0
  6
Continuous
 62
     7
370
    15
100
AcDbLine
 10
315.7173516504
 20
227.0630457189
 30
0.0
 11
287.6396329877
 21
232.3072278962
 31
0.0
  0
LINE
  5
263
330
1F
100
AcDbEntity
  8
0
  6
Continuous
 62
     7
370
    15
100
AcDbLine
 10
323.8505106819
 20
215.1939986734
 30
0.0
 11
315.7173516504
 21
227.0630457189
 31
0.0
  0
LINE
  5
264
330
1F
100
AcDbEntity
  8
0
  6
Continuous
 62
     7
370
    15
100
AcDbLine
 10
319.6871234562
 20
190.5769600912
 30
0.0
 11
323.8505106819
 21
215.1939986734
 31
0.0
  0
LINE
  5
265
330
1F
100
AcDbEntity
  8
0
  6
Continuous
 62
     7
370
    15
100
AcDbLine
 10
292.9833868424
 20
176.9086980465
 30
0.0
 11
319.6871234562
 21
190.5769600912
 31
0.0
  0
LINE
  5
266
330
1F
100
AcDbEntity
  8
0
  6
Continuous
 62
     7
370
    15
100
AcDbLine
 10
281.6149227416
 20
136.5788905661
 30
0.0
 11
292.9833868424
 21
176.9086980465
 31
0.0
  0
LINE
  5
267
330
1F
100
AcDbEntity
  8
0
  6
Continuous
 62
     7
370
    15
100
AcDbLine
 10
281.6741563991
 20
136.5729351801
 30
0.0
 11
281.6149227416
 21
136.5788905661
 31
0.0
  0
LINE
  5
268
330
1F
100
AcDbEntity
  8
0
  6
Continuous
 62
     7
370
    15
100
AcDbLine
 10
270.7011324042
 20
132.1542275175
 30
0.0
 11
281.6741563991
 21
136.5729351801
 31
0.0
  0
LINE
  5
269
330
1F
100
AcDbEntity
  8
0
  6
Continuous
 62
     7
370
    15
100
AcDbLine
 10
268.707048434
 20
128.7157756109
 30
0.0
 11
270.7011324042
 21
132.1542275175
 31
0.0
  0
LINE
  5
26A
330
1F
100
AcDbEntity
  8
0
  6
Continuous
 62
     7
370
    15
100
AcDbLine
 10
255.1680952538
 20
110.4473625863
 30
0.0
 11
268.707048434
 21
128.7157756109
 31
0.0
  0
LINE
  5
26B
330
1F
100
AcDbEntity
  8
0
  6
Continuous
 62
     7
370
    15
100
AcDbLine
 10
255.1680952538
 20
110.4473625863
 30
0.0
 11
191.1477294624
 21
83.6704046536
 31
0.0
  0
CIRCLE
  5
26C
330
1F
100
AcDbEntity
  8
0
  6
Continuous
 62
     7
370
    15
100
AcDbCircle
 10
254.7853199841
 20
220.4648992888
 30
0.0
 40
2.499999999999972
  0
CIRCLE
  5
26D
330
1F
100
AcDbEntity
  8
0
  6
Continuous
 62
     7
370
    15
100
AcDbCircle
 10
246.1138983309
 20
169.1930118014
 30
0.0
 40
2.5
  0
DIMENSION
  5
26E
330
1F
100
AcDbEntity
  8
DESSIN
 62
     7
100
AcDbDimension
  2
_D
 10
42.5153572354
 20
83.6704046536
 30
0.0
 11
42.5153572354
 21
166.7616807661
 31
0.0
 70
   160
  1
<>
 71
     2
 42
-1.0
  3
SLDDIMSTYLE0
100
AcDbAlignedDimension
 13
191.0325186026
 23
233.5648992888
 33
0.0
 14
191.0325186026
 24
83.6704046536
 34
0.0
 50
90.0
100
AcDbRotatedDimension
  0
DIMENSION
  5
279
330
1F
100
AcDbEntity
  8
DESSIN
 62
     7
100
AcDbDimension
  2
_D_1
 10
324.2081267287
 20
266.6389065821
 30
0.0
 11
190.9993125703
 21
267.5648992888
 31
0.0
 70
   160
  1
<>
 71
     2
 42
-1.0
  3
SLDDIMSTYLE0
100
AcDbAlignedDimension
 13
57.8809282517
 23
217.0428695238
 33
0.0
 14
323.8505106819
 24
215.1939986734
 34
0.0
 50
-0.3982815981
100
AcDbRotatedDimension
  0
DIMENSION
  5
283
330
1F
100
AcDbEntity
  8
DESSIN
 62
     7
100
AcDbDimension
  2
_D_2
 10
125.9405111971
 20
218.340732573
 30
0.0
 11
151.3249542826
 21
253.1533745317
 31
0.0
 70
   163
  1
<>
 71
     1
 42
-1.0
  3
SLDDIMSTYLE1
100
AcDbDiametricDimension
 15
128.5771118597
 25
222.5890660046
 35
0.0
 40
0.0
  0
INSERT
  5
29C
330
1F
100
AcDbEntity
  8
DESSIN
 62
     7
100
AcDbBlockReference
  2
SW_CENTERMARKSYMBOL_0
 10
254.7853199841
 20
220.4648992888
 30
0.0
  0
INSERT
  5
2A8
330
1F
100
AcDbEntity
  8
DESSIN
 62
     7
100
AcDbBlockReference
  2
SW_CENTERMARKSYMBOL_1
 10
246.1138983309
 20
169.1930118014
 30
0.0
  0
INSERT
  5
2B4
330
1F
100
AcDbEntity
  8
DESSIN
 62
     7
100
AcDbBlockReference
  2
SW_CENTERMARKSYMBOL_2
 10
135.9302331816
 20
169.1930118014
 30
0.0
  0
INSERT
  5
2C0
330
1F
100
AcDbEntity
  8
DESSIN
 62
     7
100
AcDbBlockReference
  2
SW_CENTERMARKSYMBOL_3
 10
127.2588115284
 20
220.4648992888
 30
0.0
  0
LINE
  5
2C1
330
1F
100
AcDbEntity
  8
0
  6
Continuous
 62
     7
370
    15
100
AcDbLine
 10
366.9170966822
 20
217.0428695238
 30
0.0
 11
364.9170966822
 21
217.0428695238
 31
0.0
  0
LINE
  5
2C2
330
1F
100
AcDbEntity
  8
0
  6
Continuous
 62
     7
370
    15
100
AcDbLine
 10
364.9170966822
 20
217.0428695238
 30
0.0
 11
364.9170966822
 21
228.5704289739
 31
0.0
  0
LINE
  5
2C3
330
1F
100
AcDbEntity
  8
0
  6
Continuous
 62
     7
370
    15
100
AcDbLine
 10
364.9170966822
 20
228.5704289739
 30
0.0
 11
366.9170966822
 21
228.5704289739
 31
0.0
  0
LINE
  5
2C4
330
1F
100
AcDbEntity
  8
0
  6
Continuous
 62
     7
370
    15
100
AcDbLine
 10
366.9170966822
 20
228.5704289739
 30
0.0
 11
366.9170966822
 21
217.0428695238
 31
0.0
  0
LINE
  5
2C5
330
1F
100
AcDbEntity
  8
0
  6
Continuous
 62
     7
370
    15
100
AcDbLine
 10
364.9170966822
 20
190.5769600912
 30
0.0
 11
366.9170966822
 21
190.5769600912
 31
0.0
  0
LINE
  5
2C6
330
1F
100
AcDbEntity
  8
0
  6
Continuous
 62
     7
370
    15
100
AcDbLine
 10
364.9170966822
 20
217.0428695238
 30
0.0
 11
364.9170966822
 21
190.5769600912
 31
0.0
  0
LINE
  5
2C7
330
1F
100
AcDbEntity
  8
0
  6
Continuous
 62
     7
370
    15
100
AcDbLine
 10
366.9170966822
 20
217.0428695238
 30
0.0
 11
366.9170966822
 21
190.5769600912
 31
0.0
  0
LINE
  5
2C8
330
1F
100
AcDbEntity
  8
0
  6
Continuous
 62
     7
370
    15
100
AcDbLine
 10
364.9170966822
 20
176.9086980465
 30
0.0
 11
366.9170966822
 21
176.9086980465
 31
0.0
  0
LINE
  5
2C9
330
1F
100
AcDbEntity
  8
0
  6
Continuous
 62
     7
370
    15
100
AcDbLine
 10
366.9170966822
 20
190.5769600912
 30
0.0
 11
366.9170966822
 21
176.9086980465
 31
0.0
  0
LINE
  5
2CA
330
1F
100
AcDbEntity
  8
0
  6
Continuous
 62
     7
370
    15
100
AcDbLine
 10
364.9170966822
 20
190.5769600912
 30
0.0
 11
364.9170966822
 21
176.9086980465
 31
0.0
  0
LINE
  5
2CB
330
1F
100
AcDbEntity
  8
0
  6
Continuous
 62
     7
370
    15
100
AcDbLine
 10
366.9170966822
 20
233.5648992888
 30
0.0
 11
364.9170966822
 21
233.5648992888
 31
0.0
  0
LINE
  5
2CC
330
1F
100
AcDbEntity
  8
0
  6
Continuous
 62
     7
370
    15
100
AcDbLine
 10
366.9170966822
 20
233.5648992888
 30
0.0
 11
366.9170966822
 21
228.5704289739
 31
0.0
  0
LINE
  5
2CD
330
1F
100
AcDbEntity
  8
0
  6
Continuous
 62
     7
370
    15
100
AcDbLine
 10
364.9170966822
 20
233.5648992888
 30
0.0
 11
364.9170966822
 21
228.5704289739
 31
0.0
  0
LINE
  5
2CE
330
1F
100
AcDbEntity
  8
0
  6
Continuous
 62
     7
370
    15
100
AcDbLine
 10
364.9170966822
 20
136.5788905661
 30
0.0
 11
366.9170966822
 21
136.5788905661
 31
0.0
  0
LINE
  5
2CF
330
1F
100
AcDbEntity
  8
0
  6
Continuous
 62
     7
370
    15
100
AcDbLine
 10
366.9170966822
 20
176.9086980465
 30
0.0
 11
366.9170966822
 21
136.5788905661
 31
0.0
  0
LINE
  5
2D0
330
1F
100
AcDbEntity
  8
0
  6
Continuous
 62
     7
370
    15
100
AcDbLine
 10
364.9170966822
 20
176.9086980465
 30
0.0
 11
364.9170966822
 21
136.5788905661
 31
0.0
  0
LINE
  5
2D1
330
1F
100
AcDbEntity
  8
0
  6
Continuous
 62
     7
370
    15
100
AcDbLine
 10
364.9170966822
 20
136.5729351801
 30
0.0
 11
366.9170966822
 21
136.5729351801
 31
0.0
  0
LINE
  5
2D2
330
1F
100
AcDbEntity
  8
0
  6
Continuous
 62
     7
370
    15
100
AcDbLine
 10
366.9170966822
 20
136.5788905661
 30
0.0
 11
366.9170966822
 21
136.5729351801
 31
0.0
  0
LINE
  5
2D3
330
1F
100
AcDbEntity
  8
0
  6
Continuous
 62
     7
370
    15
100
AcDbLine
 10
364.9170966822
 20
136.5788905661
 30
0.0
 11
364.9170966822
 21
136.5729351801
 31
0.0
  0
LINE
  5
2D4
330
1F
100
AcDbEntity
  8
0
  6
Continuous
 62
     7
370
    15
100
AcDbLine
 10
366.9170966822
 20
132.1542275175
 30
0.0
 11
364.9170966822
 21
132.1542275175
 31
0.0
  0
LINE
  5
2D5
330
1F
100
AcDbEntity
  8
0
  6
Continuous
 62
     7
370
    15
100
AcDbLine
 10
366.9170966822
 20
132.1542275175
 30
0.0
 11
366.9170966822
 21
136.5729351801
 31
0.0
  0
LINE
  5
2D6
330
1F
100
AcDbEntity
  8
0
  6
Continuous
 62
     7
370
    15
100
AcDbLine
 10
364.9170966822
 20
132.1542275175
 30
0.0
 11
364.9170966822
 21
136.5729351801
 31
0.0
  0
LINE
  5
2D7
330
1F
100
AcDbEntity
  8
0
  6
Continuous
 62
     7
370
    15
100
AcDbLine
 10
366.9170966822
 20
128.7157756109
 30
0.0
 11
364.9170966822
 21
128.7157756109
 31
0.0
  0
LINE
  5
2D8
330
1F
100
AcDbEntity
  8
0
  6
Continuous
 62
     7
370
    15
100
AcDbLine
 10
366.9170966822
 20
132.1542275175
 30
0.0
 11
366.9170966822
 21
128.7157756109
 31
0.0
  0
LINE
  5
2D9
330
1F
100
AcDbEntity
  8
0
  6
Continuous
 62
     7
370
    15
100
AcDbLine
 10
364.9170966822
 20
132.1542275175
 30
0.0
 11
364.9170966822
 21
128.7157756109
 31
0.0
  0
LINE
  5
2DA
330
1F
100
AcDbEntity
  8
0
  6
Continuous
 62
     7
370
    15
100
AcDbLine
 10
366.9170966822
 20
110.4473625863
 30
0.0
 11
364.9170966822
 21
110.4473625863
 31
0.0
  0
LINE
  5
2DB
330
1F
100
AcDbEntity
  8
0
  6
Continuous
 62
     7
370
    15
100
AcDbLine
 10
366.9170966822
 20
110.4473625863
 30
0.0
 11
366.9170966822
 21
128.7157756109
 31
0.0
  0
LINE
  5
2DC
330
1F
100
AcDbEntity
  8
0
  6
Continuous
 62
     7
370
    15
100
AcDbLine
 10
364.9170966822
 20
110.4473625863
 30
0.0
 11
364.9170966822
 21
128.7157756109
 31
0.0
  0
LINE
  5
2DD
330
1F
100
AcDbEntity
  8
0
  6
Continuous
 62
     7
370
    15
100
AcDbLine
 10
366.9170966822
 20
83.6704046536
 30
0.0
 11
364.9170966822
 21
83.6704046536
 31
0.0
  0
LINE
  5
2DE
330
1F
100
AcDbEntity
  8
0
  6
Continuous
 62
     7
370
    15
100
AcDbLine
 10
366.9170966822
 20
110.4473625863
 30
0.0
 11
366.9170966822
 21
83.6704046536
 31
0.0
  0
LINE
  5
2DF
330
1F
100
AcDbEntity
  8
0
  6
Continuous
 62
     7
370
    15
100
AcDbLine
 10
364.9170966822
 20
110.4473625863
 30
0.0
 11
364.9170966822
 21
83.6704046536
 31
0.0
  0
DIMENSION
  5
2E0
330
1F
100
AcDbEntity
  8
DESSIN
 62
     7
100
AcDbDimension
  2
_D_3
 10
366.9170966822
 20
249.6228282854
 30
0.0
 11
382.2081598716
 21
249.6228282854
 31
0.0
 70
   160
  1
<>
 71
     2
 42
-1.0
  3
SLDDIMSTYLE2
100
AcDbAlignedDimension
 13
364.9170966822
 23
228.6283579706
 33
0.0
 14
366.9170966822
 24
228.6283579706
 34
0.0
100
AcDbRotatedDimension
  0
ENDSEC
  0
SECTION
  2
OBJECTS
  0
DICTIONARY
  5
C
330
0
100
AcDbDictionary
281
     1
  3
ACAD_GROUP
350
D
  3
ACAD_LAYOUT
350
1A
  3
ACAD_MLINESTYLE
350
17
  3
ACAD_PLOTSETTINGS
350
19
  3
ACAD_PLOTSTYLENAME
350
E
  3
ACAD_SCALELIST
350
47
  0
DICTIONARY
  5
D
102
{ACAD_REACTORS
330
C
102
}
330
C
100
AcDbDictionary
281
     1
  0
DICTIONARY
  5
1A
102
{ACAD_REACTORS
330
C
102
}
330
C
100
AcDbDictionary
281
     1
  3
Layout1
350
1E
  3
Layout2
350
26
  3
Model
350
22
  0
DICTIONARY
  5
17
102
{ACAD_REACTORS
330
C
102
}
330
C
100
AcDbDictionary
281
     1
  3
Standard
350
18
  0
DICTIONARY
  5
19
102
{ACAD_REACTORS
330
C
102
}
330
C
100
AcDbDictionary
281
     1
  0
ACDBDICTIONARYWDFLT
  5
E
102
{ACAD_REACTORS
330
C
102
}
330
C
100
AcDbDictionary
281
     1
  3
Normal
350
F
100
AcDbDictionaryWithDefault
340
F
  0
DICTIONARY
  5
47
102
{ACAD_REACTORS
330
C
102
}
330
C
100
AcDbDictionary
281
     1
  3
A0
350
48
  3
A1
350
49
  3
A2
350
4A
  3
A3
350
4B
  3
A4
350
4C
  3
A5
350
4D
  3
A6
350
4E
  3
A7
350
4F
  3
A8
350
50
  3
A9
350
51
  3
B0
350
52
  3
B1
350
53
  3
B2
350
54
  3
B3
350
55
  3
B4
350
56
  3
B5
350
57
  3
B6
350
58
  3
B7
350
59
  3
B8
350
5A
  3
B9
350
5B
  3
C0
350
5C
  3
C1
350
5D
  3
C2
350
5E
  3
C3
350
5F
  3
C4
350
60
  3
C5
350
61
  3
C6
350
62
  3
C7
350
63
  3
C8
350
64
  3
C9
350
65
  3
D0
350
66
  3
D1
350
67
  3
D2
350
68
  0
LAYOUT
  5
1E
102
{ACAD_REACTORS
330
1A
102
}
330
1A
100
AcDbPlotSettings
  1

  2
none_device
  4

  6

 40
0.0
 41
0.0
 42
0.0
 43
0.0
 44
0.0
 45
0.0
 46
0.0
 47
0.0
 48
0.0
 49
0.0
140
0.0
141
0.0
142
1.0
143
1.0
 70
   688
 72
     1
 73
     0
 74
     5
  7

 75
    16
147
1.0
148
0.0
149
0.0
100
AcDbLayout
  1
Layout1
 70
     1
 71
     1
 10
0.0
 20
0.0
 11
420.0
 21
297.0
 12
0.0
 22
0.0
 32
0.0
 14
1.0000000000E+20
 24
1.0000000000E+20
 34
1.0000000000E+20
 15
-1.0000000000E+20
 25
-1.0000000000E+20
 35
-1.0000000000E+20
146
0.0
 13
0.0
 23
0.0
 33
0.0
 16
1.0
 26
0.0
 36
0.0
 17
0.0
 27
1.0
 37
0.0
 76
     0
330
1B
  0
LAYOUT
  5
26
102
{ACAD_REACTORS
330
1A
102
}
330
1A
100
AcDbPlotSettings
  1

  2
none_device
  4

  6

 40
0.0
 41
0.0
 42
0.0
 43
0.0
 44
0.0
 45
0.0
 46
0.0
 47
0.0
 48
0.0
 49
0.0
140
0.0
141
0.0
142
1.0
143
1.0
 70
   688
 72
     1
 73
     0
 74
     5
  7

 75
    16
147
1.0
148
0.0
149
0.0
100
AcDbLayout
  1
Layout2
 70
     1
 71
     2
 10
0.0
 20
0.0
 11
0.0
 21
0.0
 12
0.0
 22
0.0
 32
0.0
 14
0.0
 24
0.0
 34
0.0
 15
0.0
 25
0.0
 35
0.0
146
0.0
 13
0.0
 23
0.0
 33
0.0
 16
1.0
 26
0.0
 36
0.0
 17
0.0
 27
1.0
 37
0.0
 76
     0
330
23
  0
LAYOUT
  5
22
102
{ACAD_REACTORS
330
1A
102
}
330
1A
100
AcDbPlotSettings
  1

  2
none_device
  4
Letter_(8.50_x_11.00_Inches)
  6

 40
6.35
 41
6.35
 42
6.35000508
 43
6.35000508
 44
215.9
 45
279.4
 46
0.0
 47
0.0
 48
0.0
 49
0.0
140
0.0
141
0.0
142
1.0
143
1.0
 70
  1712
 72
     1
 73
     0
 74
     0
  7

 75
     0
147
1.0
148
0.0
149
0.0
100
AcDbLayout
  1
Model
 70
     1
 71
     0
 10
0.0
 20
0.0
 11
420.0
 21
297.0
 12
0.0
 22
0.0
 32
0.0
 14
0.0
 24
0.0
 34
0.0
 15
420.0
 25
297.0
 35
0.0
146
0.0
 13
0.0
 23
0.0
 33
0.0
 16
1.0
 26
0.0
 36
0.0
 17
0.0
 27
1.0
 37
0.0
 76
     0
330
1F
331
29
  0
MLINESTYLE
  5
18
102
{ACAD_REACTORS
330
17
102
}
330
17
100
AcDbMlineStyle
  2
Standard
 70
     0
  3

 62
   256
 51
90.0
 52
90.0
 71
     2
 49
0.5
 62
   256
  6
BYLAYER
 49
-0.5
 62
   256
  6
BYLAYER
  0
ACDBPLACEHOLDER
  5
F
102
{ACAD_REACTORS
330
E
102
}
330
E
  0
SCALE
  5
48
102
{ACAD_REACTORS
330
47
102
}
330
47
100
AcDbScale
 70
     0
300
1:1
140
1.0
141
1.0
290
     1
  0
SCALE
  5
49
102
{ACAD_REACTORS
330
47
102
}
330
47
100
AcDbScale
 70
     0
300
1:2
140
1.0
141
2.0
290
     0
  0
SCALE
  5
4A
102
{ACAD_REACTORS
330
47
102
}
330
47
100
AcDbScale
 70
     0
300
1:4
140
1.0
141
4.0
290
     0
  0
SCALE
  5
4B
102
{ACAD_REACTORS
330
47
102
}
330
47
100
AcDbScale
 70
     0
300
1:5
140
1.0
141
5.0
290
     0
  0
SCALE
  5
4C
102
{ACAD_REACTORS
330
47
102
}
330
47
100
AcDbScale
 70
     0
300
1:8
140
1.0
141
8.0
290
     0
  0
SCALE
  5
4D
102
{ACAD_REACTORS
330
47
102
}
330
47
100
AcDbScale
 70
     0
300
1:10
140
1.0
141
10.0
290
     0
  0
SCALE
  5
4E
102
{ACAD_REACTORS
330
47
102
}
330
47
100
AcDbScale
 70
     0
300
1:16
140
1.0
141
16.0
290
     0
  0
SCALE
  5
4F
102
{ACAD_REACTORS
330
47
102
}
330
47
100
AcDbScale
 70
     0
300
1:20
140
1.0
141
20.0
290
     0
  0
SCALE
  5
50
102
{ACAD_REACTORS
330
47
102
}
330
47
100
AcDbScale
 70
     0
300
1:30
140
1.0
141
30.0
290
     0
  0
SCALE
  5
51
102
{ACAD_REACTORS
330
47
102
}
330
47
100
AcDbScale
 70
     0
300
1:40
140
1.0
141
40.0
290
     0
  0
SCALE
  5
52
102
{ACAD_REACTORS
330
47
102
}
330
47
100
AcDbScale
 70
     0
300
1:50
140
1.0
141
50.0
290
     0
  0
SCALE
  5
53
102
{ACAD_REACTORS
330
47
102
}
330
47
100
AcDbScale
 70
     0
300
1:100
140
1.0
141
100.0
290
     0
  0
SCALE
  5
54
102
{ACAD_REACTORS
330
47
102
}
330
47
100
AcDbScale
 70
     0
300
2:1
140
2.0
141
1.0
290
     0
  0
SCALE
  5
55
102
{ACAD_REACTORS
330
47
102
}
330
47
100
AcDbScale
 70
     0
300
4:1
140
4.0
141
1.0
290
     0
  0
SCALE
  5
56
102
{ACAD_REACTORS
330
47
102
}
330
47
100
AcDbScale
 70
     0
300
8:1
140
8.0
141
1.0
290
     0
  0
SCALE
  5
57
102
{ACAD_REACTORS
330
47
102
}
330
47
100
AcDbScale
 70
     0
300
10:1
140
10.0
141
1.0
290
     0
  0
SCALE
  5
58
102
{ACAD_REACTORS
330
47
102
}
330
47
100
AcDbScale
 70
     0
300
100:1
140
100.0
141
1.0
290
     0
  0
SCALE
  5
59
102
{ACAD_REACTORS
330
47
102
}
330
47
100
AcDbScale
 70
     0
300
1/128" = 1'-0"
140
0.0078125
141
12.0
290
     0
  0
SCALE
  5
5A
102
{ACAD_REACTORS
330
47
102
}
330
47
100
AcDbScale
 70
     0
300
1/64" = 1'-0"
140
0.015625
141
12.0
290
     0
  0
SCALE
  5
5B
102
{ACAD_REACTORS
330
47
102
}
330
47
100
AcDbScale
 70
     0
300
1/32" = 1'-0"
140
0.03125
141
12.0
290
     0
  0
SCALE
  5
5C
102
{ACAD_REACTORS
330
47
102
}
330
47
100
AcDbScale
 70
     0
300
1/16" = 1'-0"
140
0.0625
141
12.0
290
     0
  0
SCALE
  5
5D
102
{ACAD_REACTORS
330
47
102
}
330
47
100
AcDbScale
 70
     0
300
3/32" = 1'-0"
140
0.09375
141
12.0
290
     0
  0
SCALE
  5
5E
102
{ACAD_REACTORS
330
47
102
}
330
47
100
AcDbScale
 70
     0
300
1/8" = 1'-0"
140
0.125
141
12.0
290
     0
  0
SCALE
  5
5F
102
{ACAD_REACTORS
330
47
102
}
330
47
100
AcDbScale
 70
     0
300
3/16" = 1'-0"
140
0.1875
141
12.0
290
     0
  0
SCALE
  5
60
102
{ACAD_REACTORS
330
47
102
}
330
47
100
AcDbScale
 70
     0
300
1/4" = 1'-0"
140
0.25
141
12.0
290
     0
  0
SCALE
  5
61
102
{ACAD_REACTORS
330
47
102
}
330
47
100
AcDbScale
 70
     0
300
3/8" = 1'-0"
140
0.375
141
12.0
290
     0
  0
SCALE
  5
62
102
{ACAD_REACTORS
330
47
102
}
330
47
100
AcDbScale
 70
     0
300
1/2" = 1'-0"
140
0.5
141
12.0
290
     0
  0
SCALE
  5
63
102
{ACAD_REACTORS
330
47
102
}
330
47
100
AcDbScale
 70
     0
300
3/4" = 1'-0"
140
0.75
141
12.0
290
     0
  0
SCALE
  5
64
102
{ACAD_REACTORS
330
47
102
}
330
47
100
AcDbScale
 70
     0
300
1" = 1'-0"
140
1.0
141
12.0
290
     0
  0
SCALE
  5
65
102
{ACAD_REACTORS
330
47
102
}
330
47
100
AcDbScale
 70
     0
300
1-1/2" = 1'-0"
140
1.5
141
12.0
290
     0
  0
SCALE
  5
66
102
{ACAD_REACTORS
330
47
102
}
330
47
100
AcDbScale
 70
     0
300
3" = 1'-0"
140
3.0
141
12.0
290
     0
  0
SCALE
  5
67
102
{ACAD_REACTORS
330
47
102
}
330
47
100
AcDbScale
 70
     0
300
6" = 1'-0"
140
6.0
141
12.0
290
     0
  0
SCALE
  5
68
102
{ACAD_REACTORS
330
47
102
}
330
47
100
AcDbScale
 70
     0
300
1'-0" = 1'-0"
140
12.0
141
12.0
290
     0
  0
ENDSEC
  0
EOF
