  0
SECTION
  2
HEADER
  9
$ACADVER
  1
AC1015
  9
$ACADMAINTVER
 70
     6
  9
$DWGCODEPAGE
  3
ANSI_1252
  9
$INSBASE
 10
0.0
 20
0.0
 30
0.0
  9
$EXTMIN
 10
0.0
 20
0.0
 30
0.0
  9
$EXTMAX
 10
420.0
 20
297.0
 30
0.0
  9
$LIMMIN
 10
0.0
 20
0.0
  9
$LIMMAX
 10
420.0
 20
297.0
  9
$ORTHOMODE
 70
     0
  9
$REGENMODE
 70
     1
  9
$FILLMODE
 70
     1
  9
$QTEXTMODE
 70
     0
  9
$MIRRTEXT
 70
     1
  9
$LTSCALE
 40
1.0
  9
$ATTMODE
 70
     1
  9
$TEXTSIZE
 40
3.5
  9
$TRACEWID
 40
1.0
  9
$TEXTSTYLE
  7
Standard
  9
$CLAYER
  8
0
  9
$CELTYPE
  6
ByLayer
  9
$CECOLOR
 62
   256
  9
$CELTSCALE
 40
1.0
  9
$DISPSILH
 70
     0
  9
$DIMSCALE
 40
1.0
  9
$DIMASZ
 40
3.302
  9
$DIMEXO
 40
1.0
  9
$DIMDLI
 40
3.75
  9
$DIMRND
 40
0.0
  9
$DIMDLE
 40
0.0
  9
$DIMEXE
 40
1.0
  9
$DIMTP
 40
0.0
  9
$DIMTM
 40
0.0
  9
$DIMTXT
 40
3.5
  9
$DIMCEN
 40
2.5
  9
$DIMTSZ
 40
0.0
  9
$DIMTOL
 70
     0
  9
$DIMLIM
 70
     0
  9
$DIMTIH
 70
     1
  9
$DIMTOH
 70
     1
  9
$DIMSE1
 70
     0
  9
$DIMSE2
 70
     0
  9
$DIMTAD
 70
     1
  9
$DIMZIN
 70
     0
  9
$DIMBLK
  1

  9
$DIMASO
 70
     1
  9
$DIMSHO
 70
     1
  9
$DIMPOST
  1

  9
$DIMAPOST
  1

  9
$DIMALT
 70
     0
  9
$DIMALTD
 70
     3
  9
$DIMALTF
 40
0.0393700787
  9
$DIMLFAC
 40
1.0
  9
$DIMTOFL
 70
     1
  9
$DIMTVP
 40
0.0
  9
$DIMTIX
 70
     0
  9
$DIMSOXD
 70
     0
  9
$DIMSAH
 70
     0
  9
$DIMBLK1
  1

  9
$DIMBLK2
  1

  9
$DIMSTYLE
  2
ISO-25
  9
$DIMCLRD
 70
     0
  9
$DIMCLRE
 70
     0
  9
$DIMCLRT
 70
     0
  9
$DIMTFAC
 40
1.0
  9
$DIMGAP
 40
1.524
  9
$DIMJUST
 70
     0
  9
$DIMSD1
 70
     0
  9
$DIMSD2
 70
     0
  9
$DIMTOLJ
 70
     0
  9
$DIMTZIN
 70
     0
  9
$DIMALTZ
 70
     0
  9
$DIMALTTZ
 70
     0
  9
$DIMUPT
 70
     0
  9
$DIMDEC
 70
     2
  9
$DIMTDEC
 70
     2
  9
$DIMALTU
 70
     2
  9
$DIMALTTD
 70
     3
  9
$DIMTXSTY
  7
Standard
  9
$DIMAUNIT
 70
     0
  9
$DIMADEC
 70
     2
  9
$DIMALTRND
 40
0.0
  9
$DIMAZIN
 70
     0
  9
$DIMDSEP
 70
    44
  9
$DIMATFIT
 70
     3
  9
$DIMFRAC
 70
     0
  9
$DIMLDRBLK
  1

  9
$DIMLUNIT
 70
     2
  9
$DIMLWD
 70
    -2
  9
$DIMLWE
 70
    -2
  9
$DIMTMOVE
 70
     0
  9
$LUNITS
 70
     2
  9
$LUPREC
 70
     2
  9
$SKETCHINC
 40
1.0
  9
$FILLETRAD
 40
10.0
  9
$AUNITS
 70
     0
  9
$AUPREC
 70
     2
  9
$MENU
  1
.
  9
$ELEVATION
 40
0.0
  9
$PELEVATION
 40
0.0
  9
$THICKNESS
 40
0.0
  9
$LIMCHECK
 70
     0
  9
$CHAMFERA
 40
0.0
  9
$CHAMFERB
 40
0.0
  9
$CHAMFERC
 40
0.0
  9
$CHAMFERD
 40
0.0
  9
$SKPOLY
 70
     0
  9
$TDCREATE
 40
2458422.390286493
  9
$TDUCREATE
 40
2458422.348619827
  9
$TDUPDATE
 40
2458422.39028919
  9
$TDUUPDATE
 40
2458422.348622523
  9
$TDINDWG
 40
0.0000000116
  9
$TDUSRTIMER
 40
0.0000000116
  9
$USRTIMER
 70
     1
  9
$ANGBASE
 50
0.0
  9
$ANGDIR
 70
     0
  9
$PDMODE
 70
     0
  9
$PDSIZE
 40
-1.0
  9
$PLINEWID
 40
0.0
  9
$SPLFRAME
 70
     0
  9
$SPLINETYPE
 70
     6
  9
$SPLINESEGS
 70
     8
  9
$HANDSEED
  5
36F
  9
$SURFTAB1
 70
     6
  9
$SURFTAB2
 70
     6
  9
$SURFTYPE
 70
     6
  9
$SURFU
 70
     6
  9
$SURFV
 70
     6
  9
$UCSBASE
  2

  9
$UCSNAME
  2

  9
$UCSORG
 10
0.0
 20
0.0
 30
0.0
  9
$UCSXDIR
 10
1.0
 20
0.0
 30
0.0
  9
$UCSYDIR
 10
0.0
 20
1.0
 30
0.0
  9
$UCSORTHOREF
  2

  9
$UCSORTHOVIEW
 70
     0
  9
$UCSORGTOP
 10
0.0
 20
0.0
 30
0.0
  9
$UCSORGBOTTOM
 10
0.0
 20
0.0
 30
0.0
  9
$UCSORGLEFT
 10
0.0
 20
0.0
 30
0.0
  9
$UCSORGRIGHT
 10
0.0
 20
0.0
 30
0.0
  9
$UCSORGFRONT
 10
0.0
 20
0.0
 30
0.0
  9
$UCSORGBACK
 10
0.0
 20
0.0
 30
0.0
  9
$PUCSBASE
  2

  9
$PUCSNAME
  2

  9
$PUCSORG
 10
0.0
 20
0.0
 30
0.0
  9
$PUCSXDIR
 10
1.0
 20
0.0
 30
0.0
  9
$PUCSYDIR
 10
0.0
 20
1.0
 30
0.0
  9
$PUCSORTHOREF
  2

  9
$PUCSORTHOVIEW
 70
     0
  9
$PUCSORGTOP
 10
0.0
 20
0.0
 30
0.0
  9
$PUCSORGBOTTOM
 10
0.0
 20
0.0
 30
0.0
  9
$PUCSORGLEFT
 10
0.0
 20
0.0
 30
0.0
  9
$PUCSORGRIGHT
 10
0.0
 20
0.0
 30
0.0
  9
$PUCSORGFRONT
 10
0.0
 20
0.0
 30
0.0
  9
$PUCSORGBACK
 10
0.0
 20
0.0
 30
0.0
  9
$USERI1
 70
     0
  9
$USERI2
 70
     0
  9
$USERI3
 70
     0
  9
$USERI4
 70
     0
  9
$USERI5
 70
     0
  9
$USERR1
 40
0.0
  9
$USERR2
 40
0.0
  9
$USERR3
 40
0.0
  9
$USERR4
 40
0.0
  9
$USERR5
 40
0.0
  9
$WORLDVIEW
 70
     1
  9
$SHADEDGE
 70
     3
  9
$SHADEDIF
 70
    70
  9
$TILEMODE
 70
     1
  9
$MAXACTVP
 70
    64
  9
$PINSBASE
 10
0.0
 20
0.0
 30
0.0
  9
$PLIMCHECK
 70
     0
  9
$PEXTMIN
 10
1.0000000000E+20
 20
1.0000000000E+20
 30
1.0000000000E+20
  9
$PEXTMAX
 10
-1.0000000000E+20
 20
-1.0000000000E+20
 30
-1.0000000000E+20
  9
$PLIMMIN
 10
0.0
 20
0.0
  9
$PLIMMAX
 10
420.0
 20
297.0
  9
$UNITMODE
 70
     0
  9
$VISRETAIN
 70
     1
  9
$PLINEGEN
 70
     0
  9
$PSLTSCALE
 70
     1
  9
$TREEDEPTH
 70
  3020
  9
$CMLSTYLE
  2
Standard
  9
$CMLJUST
 70
     0
  9
$CMLSCALE
 40
20.0
  9
$PROXYGRAPHICS
 70
     1
  9
$MEASUREMENT
 70
     1
  9
$CELWEIGHT
370
    -1
  9
$ENDCAPS
280
     0
  9
$JOINSTYLE
280
     0
  9
$LWDISPLAY
290
     1
  9
$INSUNITS
 70
     4
  9
$HYPERLINKBASE
  1

  9
$STYLESHEET
  1

  9
$XEDIT
290
     1
  9
$CEPSNTYPE
380
     0
  9
$PSTYLEMODE
290
     1
  9
$FINGERPRINTGUID
  2
{CDE884D4-B859-4735-B078-E6B3FA283205}
  9
$VERSIONGUID
  2
{FAEB1C32-E019-11D5-929B-00C0DF256EC4}
  9
$EXTNAMES
290
     1
  9
$PSVPSCALE
 40
0.0
  9
$OLESTARTUP
290
     0
  0
ENDSEC
  0
SECTION
  2
CLASSES
  0
CLASS
  1
ACDBDICTIONARYWDFLT
  2
AcDbDictionaryWithDefault
  3
ObjectDBX Classes
 90
        0
280
     0
281
     0
  0
CLASS
  1
VISUALSTYLE
  2
AcDbVisualStyle
  3
ObjectDBX Classes
 90
     4095
280
     0
281
     0
  0
CLASS
  1
MATERIAL
  2
AcDbMaterial
  3
ObjectDBX Classes
 90
     1153
280
     0
281
     0
  0
CLASS
  1
SCALE
  2
AcDbScale
  3
ObjectDBX Classes
 90
     1153
280
     0
281
     0
  0
CLASS
  1
SUN
  2
AcDbSun
  3
SCENEOE
 90
     1153
280
     0
281
     0
  0
CLASS
  1
ACDBPLACEHOLDER
  2
AcDbPlaceHolder
  3
ObjectDBX Classes
 90
        0
280
     0
281
     0
  0
CLASS
  1
LAYOUT
  2
AcDbLayout
  3
ObjectDBX Classes
 90
        0
280
     0
281
     0
  0
ENDSEC
  0
SECTION
  2
TABLES
  0
TABLE
  2
VPORT
  5
8
330
0
100
AcDbSymbolTable
 70
     1
  0
VPORT
  5
29
330
8
100
AcDbSymbolTableRecord
100
AcDbViewportTableRecord
  2
*Active
 70
     0
 10
0.0
 20
0.0
 11
1.0
 21
1.0
 12
210.0
 22
148.5
 13
0.0
 23
0.0
 14
10.0
 24
10.0
 15
10.0
 25
10.0
 16
0.0
 26
0.0
 36
1.0
 17
0.0
 27
0.0
 37
0.0
 40
297.0
 41
1.4141414141
 42
50.0
 43
0.0
 44
0.0
 50
0.0
 51
0.0
 71
     0
 72
  2000
 73
     1
 74
     3
 75
     0
 76
     0
 77
     0
 78
     0
281
     0
 65
     1
110
0.0
120
0.0
130
0.0
111
1.0
121
0.0
131
0.0
112
0.0
122
1.0
132
0.0
 79
     0
146
0.0
  0
ENDTAB
  0
TABLE
  2
LTYPE
  5
5
330
0
100
AcDbSymbolTable
 70
     6
  0
LTYPE
  5
14
330
5
100
AcDbSymbolTableRecord
100
AcDbLinetypeTableRecord
  2
ByBlock
 70
     0
  3

 72
    65
 73
     0
 40
0.0
  0
LTYPE
  5
15
330
5
100
AcDbSymbolTableRecord
100
AcDbLinetypeTableRecord
  2
ByLayer
 70
     0
  3

 72
    65
 73
     0
 40
0.0
  0
LTYPE
  5
16
330
5
100
AcDbSymbolTableRecord
100
AcDbLinetypeTableRecord
  2
Continuous
 70
     0
  3
Solid line
 72
    65
 73
     0
 40
0.0
  0
LTYPE
  5
6A
330
5
100
AcDbSymbolTableRecord
100
AcDbLinetypeTableRecord
  2
HIDDEN
 70
     0
  3
Hidden __ __ __ __ __ __ __ __ __ __ __ __ __ __
 72
    65
 73
     2
 40
1.905
 49
1.27
 74
     0
 49
-0.635
 74
     0
  0
LTYPE
  5
6B
330
5
100
AcDbSymbolTableRecord
100
AcDbLinetypeTableRecord
  2
PHANTOM
 70
     0
  3
Phantom ______  __  __  ______  __  __  ______
 72
    65
 73
     6
 40
12.7
 49
6.35
 74
     0
 49
-1.27
 74
     0
 49
1.27
 74
     0
 49
-1.27
 74
     0
 49
1.27
 74
     0
 49
-1.27
 74
     0
  0
LTYPE
  5
6C
330
5
100
AcDbSymbolTableRecord
100
AcDbLinetypeTableRecord
  2
CENTER
 70
     0
  3
Center ____ _ ____ _ ____ _ ____ _ ____ _ ____
 72
    65
 73
     4
 40
10.16
 49
6.35
 74
     0
 49
-1.27
 74
     0
 49
1.27
 74
     0
 49
-1.27
 74
     0
  0
LTYPE
  5
6D
330
5
100
AcDbSymbolTableRecord
100
AcDbLinetypeTableRecord
  2
CENTERX2
 70
     0
  3
Center (2x) ________  __  ________  __  _____
 72
    65
 73
     4
 40
20.32
 49
12.7
 74
     0
 49
-2.54
 74
     0
 49
2.54
 74
     0
 49
-2.54
 74
     0
  0
LTYPE
  5
6E
330
5
100
AcDbSymbolTableRecord
100
AcDbLinetypeTableRecord
  2
DOT2
 70
     0
  3
Dot (.5x) ........................................
 72
    65
 73
     2
 40
0.635
 49
0.0
 74
     0
 49
-0.635
 74
     0
  0
ENDTAB
  0
TABLE
  2
LAYER
  5
2
330
0
100
AcDbSymbolTable
 70
    10
  0
LAYER
  5
10
330
2
100
AcDbSymbolTableRecord
100
AcDbLayerTableRecord
  2
0
 70
     0
 62
     7
  6
Continuous
370
    -3
390
F
  0
LAYER
  5
6F
330
2
100
AcDbSymbolTableRecord
100
AcDbLayerTableRecord
  2
FORMAT
 70
     0
 62
     7
  6
Continuous
370
    -3
390
F
  0
LAYER
  5
70
330
2
100
AcDbSymbolTableRecord
100
AcDbLayerTableRecord
  2
ASSEMBLY
 70
     0
 62
    -7
  6
Continuous
370
    -3
390
F
  0
LAYER
  5
71
330
2
100
AcDbSymbolTableRecord
100
AcDbLayerTableRecord
  2
PLASTIQUE
 70
     0
 62
    -7
  6
Continuous
370
    -3
390
F
  0
LAYER
  5
72
330
2
100
AcDbSymbolTableRecord
100
AcDbLayerTableRecord
  2
RUBBER
 70
     0
 62
    -7
  6
Continuous
370
    -3
390
F
  0
LAYER
  5
73
330
2
100
AcDbSymbolTableRecord
100
AcDbLayerTableRecord
  2
DIE-CASTING
 70
     0
 62
    -7
  6
Continuous
370
    -3
390
F
  0
LAYER
  5
74
330
2
100
AcDbSymbolTableRecord
100
AcDbLayerTableRecord
  2
TÔLERIE-USINAGE
 70
     0
 62
    -7
  6
Continuous
370
    -3
390
F
  0
LAYER
  5
75
330
2
100
AcDbSymbolTableRecord
100
AcDbLayerTableRecord
  2
SHIELD
 70
     0
 62
    -7
  6
Continuous
370
    -3
390
F
  0
LAYER
  5
76
330
2
100
AcDbSymbolTableRecord
100
AcDbLayerTableRecord
  2
DESSIN
 70
     0
 62
     7
  6
Continuous
370
    -3
390
F
  0
LAYER
  5
77
330
2
100
AcDbSymbolTableRecord
100
AcDbLayerTableRecord
  2
CALQUE_1
 70
     0
 62
     7
  6
Continuous
370
    -3
390
F
  0
ENDTAB
  0
TABLE
  2
STYLE
  5
3
330
0
100
AcDbSymbolTable
 70
     7
  0
STYLE
  5
11
330
3
100
AcDbSymbolTableRecord
100
AcDbTextStyleTableRecord
  2
Standard
 70
     0
 40
0.0
 41
1.0
 50
0.0
 71
     0
 42
3.5
  3
txt
  4

  0
STYLE
  5
D1
330
3
100
AcDbSymbolTableRecord
100
AcDbTextStyleTableRecord
  2
SLDTEXTSTYLE0
 70
     0
 40
0.0
 41
0.75
 50
0.0
 71
     0
 42
3.5
  3
TXT
  4

  0
STYLE
  5
F1
330
3
100
AcDbSymbolTableRecord
100
AcDbTextStyleTableRecord
  2
SLDTEXTSTYLE1
 70
     0
 40
0.0
 41
0.7
 50
0.0
 71
     0
 42
3.5
  3
TXT
  4

  0
STYLE
  5
10A
330
3
100
AcDbSymbolTableRecord
100
AcDbTextStyleTableRecord
  2
SLDTEXTSTYLE2
 70
     0
 40
0.0
 41
0.65
 50
0.0
 71
     0
 42
3.5
  3
TXT
  4

  0
STYLE
  5
11E
330
3
100
AcDbSymbolTableRecord
100
AcDbTextStyleTableRecord
  2
SLDTEXTSTYLE3
 70
     0
 40
0.0
 41
0.6333333333
 50
0.0
 71
     0
 42
3.5
  3
TXT
  4

  0
STYLE
  5
133
330
3
100
AcDbSymbolTableRecord
100
AcDbTextStyleTableRecord
  2
SLDTEXTSTYLE4
 70
     0
 40
0.0
 41
0.6538461538
 50
0.0
 71
     0
 42
3.5
  3
TXT
  4

  0
STYLE
  5
22D
330
3
100
AcDbSymbolTableRecord
100
AcDbTextStyleTableRecord
  2
SLDTEXTSTYLE5
 70
     0
 40
0.0
 41
0.6142857143
 50
0.0
 71
     0
 42
3.5
  3
TXT
  4

  0
ENDTAB
  0
TABLE
  2
VIEW
  5
6
330
0
100
AcDbSymbolTable
 70
     0
  0
ENDTAB
  0
TABLE
  2
UCS
  5
7
330
0
100
AcDbSymbolTable
 70
     0
  0
ENDTAB
  0
TABLE
  2
APPID
  5
9
330
0
100
AcDbSymbolTable
 70
     1
  0
APPID
  5
12
330
9
100
AcDbSymbolTableRecord
100
AcDbRegAppTableRecord
  2
ACAD
 70
     0
  0
ENDTAB
  0
TABLE
  2
DIMSTYLE
  5
A
330
0
100
AcDbSymbolTable
 70
     3
100
AcDbDimStyleTable
  0
DIMSTYLE
105
27
330
A
100
AcDbSymbolTableRecord
100
AcDbDimStyleTableRecord
  2
ISO-25
 70
     0
 41
2.5
 42
0.625
 43
3.75
 44
1.25
 73
     0
 74
     0
 77
     1
 78
     8
140
2.5
141
2.5
143
0.0393700787
147
0.625
171
     3
172
     1
178
     0
271
     2
272
     2
274
     3
278
    44
283
     0
284
     8
340
11
  0
DIMSTYLE
105
2CC
102
{ACAD_REACTORS
330
2CB
330
2D6
102
}
330
A
100
AcDbSymbolTableRecord
100
AcDbDimStyleTableRecord
  2
SLDDIMSTYLE0
 70
     0
 41
3.302
 44
0.0
 45
0.000000001
 73
     0
 74
     0
 77
     1
 78
    12
 79
     3
140
3.5
147
0.875
173
     1
178
     0
271
     2
272
     2
276
     2
284
    12
340
D1
  0
DIMSTYLE
105
363
102
{ACAD_REACTORS
330
362
102
}
330
A
100
AcDbSymbolTableRecord
100
AcDbDimStyleTableRecord
  2
SLDDIMSTYLE1
 70
     0
 41
3.302
 44
0.0
 45
0.000000001
 73
     0
 74
     0
 77
     1
 78
    12
 79
     3
140
3.5
147
0.875
172
     1
173
     1
178
     0
271
     2
272
     2
276
     2
284
    12
289
     0
340
D1
  0
ENDTAB
  0
TABLE
  2
BLOCK_RECORD
  5
1
330
0
100
AcDbSymbolTable
 70
    43
  0
BLOCK_RECORD
  5
1F
330
1
100
AcDbSymbolTableRecord
100
AcDbBlockTableRecord
  2
*Model_Space
340
22
  0
BLOCK_RECORD
  5
1B
330
1
100
AcDbSymbolTableRecord
100
AcDbBlockTableRecord
  2
*Paper_Space
340
1E
  0
BLOCK_RECORD
  5
23
330
1
100
AcDbSymbolTableRecord
100
AcDbBlockTableRecord
  2
*Paper_Space0
340
26
  0
BLOCK_RECORD
  5
EE
330
1
100
AcDbSymbolTableRecord
100
AcDbBlockTableRecord
  2
SW_NOTE_0
340
0
102
{BLKREFS
331
F5
102
}
  0
BLOCK_RECORD
  5
FB
330
1
100
AcDbSymbolTableRecord
100
AcDbBlockTableRecord
  2
SW_NOTE_1
340
0
102
{BLKREFS
331
110
102
}
  0
BLOCK_RECORD
  5
114
330
1
100
AcDbSymbolTableRecord
100
AcDbBlockTableRecord
  2
SW_NOTE_2
340
0
102
{BLKREFS
331
119
102
}
  0
BLOCK_RECORD
  5
11A
330
1
100
AcDbSymbolTableRecord
100
AcDbBlockTableRecord
  2
SW_NOTE_3
340
0
102
{BLKREFS
331
120
102
}
  0
BLOCK_RECORD
  5
121
330
1
100
AcDbSymbolTableRecord
100
AcDbBlockTableRecord
  2
SW_NOTE_4
340
0
102
{BLKREFS
331
126
102
}
  0
BLOCK_RECORD
  5
12D
330
1
100
AcDbSymbolTableRecord
100
AcDbBlockTableRecord
  2
SW_NOTE_5
340
0
102
{BLKREFS
331
132
102
}
  0
BLOCK_RECORD
  5
135
330
1
100
AcDbSymbolTableRecord
100
AcDbBlockTableRecord
  2
SW_NOTE_6
340
0
102
{BLKREFS
331
13A
102
}
  0
BLOCK_RECORD
  5
13B
330
1
100
AcDbSymbolTableRecord
100
AcDbBlockTableRecord
  2
SW_NOTE_7
340
0
102
{BLKREFS
331
140
102
}
  0
BLOCK_RECORD
  5
141
330
1
100
AcDbSymbolTableRecord
100
AcDbBlockTableRecord
  2
SW_NOTE_8
340
0
102
{BLKREFS
331
146
102
}
  0
BLOCK_RECORD
  5
147
330
1
100
AcDbSymbolTableRecord
100
AcDbBlockTableRecord
  2
SW_NOTE_9
340
0
102
{BLKREFS
331
15B
102
}
  0
BLOCK_RECORD
  5
15C
330
1
100
AcDbSymbolTableRecord
100
AcDbBlockTableRecord
  2
SW_NOTE_10
340
0
102
{BLKREFS
331
164
102
}
  0
BLOCK_RECORD
  5
165
330
1
100
AcDbSymbolTableRecord
100
AcDbBlockTableRecord
  2
SW_NOTE_11
340
0
102
{BLKREFS
331
16A
102
}
  0
BLOCK_RECORD
  5
16B
330
1
100
AcDbSymbolTableRecord
100
AcDbBlockTableRecord
  2
SW_NOTE_12
340
0
102
{BLKREFS
331
170
102
}
  0
BLOCK_RECORD
  5
171
330
1
100
AcDbSymbolTableRecord
100
AcDbBlockTableRecord
  2
SW_NOTE_13
340
0
102
{BLKREFS
331
18A
102
}
  0
BLOCK_RECORD
  5
18B
330
1
100
AcDbSymbolTableRecord
100
AcDbBlockTableRecord
  2
SW_NOTE_14
340
0
102
{BLKREFS
331
190
102
}
  0
BLOCK_RECORD
  5
191
330
1
100
AcDbSymbolTableRecord
100
AcDbBlockTableRecord
  2
SW_NOTE_15
340
0
102
{BLKREFS
331
199
102
}
  0
BLOCK_RECORD
  5
19B
330
1
100
AcDbSymbolTableRecord
100
AcDbBlockTableRecord
  2
SW_NOTE_16
340
0
102
{BLKREFS
331
1B3
102
}
  0
BLOCK_RECORD
  5
1B4
330
1
100
AcDbSymbolTableRecord
100
AcDbBlockTableRecord
  2
SW_NOTE_17
340
0
102
{BLKREFS
331
1B9
102
}
  0
BLOCK_RECORD
  5
1BA
330
1
100
AcDbSymbolTableRecord
100
AcDbBlockTableRecord
  2
SW_NOTE_18
340
0
102
{BLKREFS
331
1C2
102
}
  0
BLOCK_RECORD
  5
1C3
330
1
100
AcDbSymbolTableRecord
100
AcDbBlockTableRecord
  2
SW_NOTE_19
340
0
102
{BLKREFS
331
1C9
102
}
  0
BLOCK_RECORD
  5
1CA
330
1
100
AcDbSymbolTableRecord
100
AcDbBlockTableRecord
  2
SW_NOTE_20
340
0
102
{BLKREFS
331
1E0
102
}
  0
BLOCK_RECORD
  5
1E1
330
1
100
AcDbSymbolTableRecord
100
AcDbBlockTableRecord
  2
SW_NOTE_21
340
0
102
{BLKREFS
331
1E6
102
}
  0
BLOCK_RECORD
  5
1E7
330
1
100
AcDbSymbolTableRecord
100
AcDbBlockTableRecord
  2
SW_NOTE_22
340
0
102
{BLKREFS
331
1EF
102
}
  0
BLOCK_RECORD
  5
1F1
330
1
100
AcDbSymbolTableRecord
100
AcDbBlockTableRecord
  2
SW_NOTE_23
340
0
102
{BLKREFS
331
213
102
}
  0
BLOCK_RECORD
  5
214
330
1
100
AcDbSymbolTableRecord
100
AcDbBlockTableRecord
  2
SW_NOTE_24
340
0
102
{BLKREFS
331
219
102
}
  0
BLOCK_RECORD
  5
21A
330
1
100
AcDbSymbolTableRecord
100
AcDbBlockTableRecord
  2
SW_NOTE_25
340
0
102
{BLKREFS
331
222
102
}
  0
BLOCK_RECORD
  5
223
330
1
100
AcDbSymbolTableRecord
100
AcDbBlockTableRecord
  2
SW_NOTE_26
340
0
102
{BLKREFS
331
22F
102
}
  0
BLOCK_RECORD
  5
226
330
1
100
AcDbSymbolTableRecord
100
AcDbBlockTableRecord
  2
SW_SYMBOL_GTOL_POSI
340
0
102
{BLKREFS
331
22C
102
}
  0
BLOCK_RECORD
  5
230
330
1
100
AcDbSymbolTableRecord
100
AcDbBlockTableRecord
  2
SW_NOTE_27
340
0
102
{BLKREFS
331
239
102
}
  0
BLOCK_RECORD
  5
233
330
1
100
AcDbSymbolTableRecord
100
AcDbBlockTableRecord
  2
SW_SYMBOL_GTOL_LPROF
340
0
102
{BLKREFS
331
237
102
}
  0
BLOCK_RECORD
  5
23A
330
1
100
AcDbSymbolTableRecord
100
AcDbBlockTableRecord
  2
SW_NOTE_28
340
0
102
{BLKREFS
331
244
102
}
  0
BLOCK_RECORD
  5
23D
330
1
100
AcDbSymbolTableRecord
100
AcDbBlockTableRecord
  2
SW_SYMBOL_GTOL_SPROF
340
0
102
{BLKREFS
331
242
102
}
  0
BLOCK_RECORD
  5
2CD
330
1
100
AcDbSymbolTableRecord
100
AcDbBlockTableRecord
  2
_D
340
0
  0
BLOCK_RECORD
  5
2D7
330
1
100
AcDbSymbolTableRecord
100
AcDbBlockTableRecord
  2
_D_1
340
0
  0
BLOCK_RECORD
  5
2E0
330
1
100
AcDbSymbolTableRecord
100
AcDbBlockTableRecord
  2
SW_CENTERMARKSYMBOL_0
340
0
102
{BLKREFS
331
2EB
102
}
  0
BLOCK_RECORD
  5
2EC
330
1
100
AcDbSymbolTableRecord
100
AcDbBlockTableRecord
  2
SW_CENTERMARKSYMBOL_1
340
0
102
{BLKREFS
331
2F7
102
}
  0
BLOCK_RECORD
  5
2F8
330
1
100
AcDbSymbolTableRecord
100
AcDbBlockTableRecord
  2
SW_CENTERMARKSYMBOL_2
340
0
102
{BLKREFS
331
303
102
}
  0
BLOCK_RECORD
  5
304
330
1
100
AcDbSymbolTableRecord
100
AcDbBlockTableRecord
  2
SW_CENTERMARKSYMBOL_3
340
0
102
{BLKREFS
331
30F
102
}
  0
BLOCK_RECORD
  5
310
330
1
100
AcDbSymbolTableRecord
100
AcDbBlockTableRecord
  2
SW_CENTERMARKSYMBOL_4
340
0
102
{BLKREFS
331
31B
102
}
  0
BLOCK_RECORD
  5
31C
330
1
100
AcDbSymbolTableRecord
100
AcDbBlockTableRecord
  2
SW_CENTERMARKSYMBOL_5
340
0
102
{BLKREFS
331
327
102
}
  0
BLOCK_RECORD
  5
328
330
1
100
AcDbSymbolTableRecord
100
AcDbBlockTableRecord
  2
SW_CENTERMARKSYMBOL_6
340
0
102
{BLKREFS
331
333
102
}
  0
BLOCK_RECORD
  5
364
330
1
100
AcDbSymbolTableRecord
100
AcDbBlockTableRecord
  2
_D_2
340
0
  0
ENDTAB
  0
ENDSEC
  0
SECTION
  2
BLOCKS
  0
BLOCK
  5
20
330
1F
100
AcDbEntity
  8
0
100
AcDbBlockBegin
  2
*Model_Space
 70
     0
 10
0.0
 20
0.0
 30
0.0
  3
*Model_Space
  1
*Model_Space
  0
ENDBLK
  5
21
330
1F
100
AcDbEntity
  8
0
100
AcDbBlockEnd
  0
BLOCK
  5
1C
330
1B
100
AcDbEntity
 67
     1
  8
0
100
AcDbBlockBegin
  2
*Paper_Space
 70
     0
 10
0.0
 20
0.0
 30
0.0
  3
*Paper_Space
  1
*Paper_Space
  0
ENDBLK
  5
1D
330
1B
100
AcDbEntity
 67
     1
  8
0
100
AcDbBlockEnd
  0
BLOCK
  5
24
330
23
100
AcDbEntity
  8
0
100
AcDbBlockBegin
  2
*Paper_Space0
 70
     0
 10
0.0
 20
0.0
 30
0.0
  3
*Paper_Space0
  1
*Paper_Space0
  0
ENDBLK
  5
25
330
23
100
AcDbEntity
  8
0
100
AcDbBlockEnd
  0
BLOCK
  5
EF
330
EE
100
AcDbEntity
  8
0
100
AcDbBlockBegin
  2
SW_NOTE_0
 70
     0
 10
0.0
 20
0.0
 30
0.0
  3
SW_NOTE_0
  1
SW_NOTE_0
  0
MTEXT
  5
F2
330
EE
100
AcDbEntity
  8
FORMAT
 62
     0
100
AcDbMText
 10
36.5625
 20
2.3203219316
 30
0.0
 40
1.8
 41
0.0
 71
     2
 72
     1
  1
All geometry is to be derived from the CAD database.
  7
SLDTEXTSTYLE1
 73
     1
 44
1.0
  0
MTEXT
  5
F3
330
EE
100
AcDbEntity
  8
FORMAT
 62
     0
100
AcDbMText
 10
36.58375144
 20
-0.4796779686
 30
0.0
 40
1.8
 41
0.0
 71
     2
 72
     1
  1
Critical to function dimensions called out on this
  7
SLDTEXTSTYLE1
 73
     1
 44
1.0
  0
MTEXT
  5
F4
330
EE
100
AcDbEntity
  8
FORMAT
 62
     0
100
AcDbMText
 10
36.7325115204
 20
-3.2796778687
 30
0.0
 40
1.8
 41
0.0
 71
     2
 72
     1
  1
drawing are for inspection purposes.
  7
SLDTEXTSTYLE1
 73
     1
 44
1.0
  0
ENDBLK
  5
F0
330
EE
100
AcDbEntity
  8
0
100
AcDbBlockEnd
  0
BLOCK
  5
FC
330
FB
100
AcDbEntity
  8
0
100
AcDbBlockBegin
  2
SW_NOTE_1
 70
     0
 10
0.0
 20
0.0
 30
0.0
  3
SW_NOTE_1
  1
SW_NOTE_1
  0
MTEXT
  5
FE
330
FB
100
AcDbEntity
  8
FORMAT
 62
     0
100
AcDbMText
 10
0.0
 20
1.6757880617
 30
0.0
 40
1.3
 41
0.0
 71
     1
 72
     1
  1
ALL GEOMETRICAL TOLERANCES ACCORDING TO ISO 14638 : 2015
  7
SLDTEXTSTYLE1
 73
     1
 44
1.0
  0
MTEXT
  5
FF
330
FB
100
AcDbEntity
  8
FORMAT
 62
     0
100
AcDbMText
 10
0.0
 20
-0.6242119893
 30
0.0
 40
1.3
 41
0.0
 71
     1
 72
     1
  1
AND THE FOLLOWING STANDARDS :
  7
SLDTEXTSTYLE1
 73
     1
 44
1.0
  0
MTEXT
  5
100
330
FB
100
AcDbEntity
  8
FORMAT
 62
     0
100
AcDbMText
 10
0.0
 20
-2.9242120404
 30
0.0
 40
1.3
 41
0.0
 71
     1
 72
     1
  1
ISO 17450 : 2016
  7
SLDTEXTSTYLE1
 73
     1
 44
1.0
  0
MTEXT
  5
101
330
FB
100
AcDbEntity
  8
FORMAT
 62
     0
100
AcDbMText
 10
19.5884723216
 20
-2.9067002454
 30
0.0
 40
1.3229166667
 41
0.0
 71
     1
 72
     1
  1
|
  7
SLDTEXTSTYLE1
 73
     1
 44
1.0
  0
MTEXT
  5
102
330
FB
100
AcDbEntity
  8
FORMAT
 62
     0
100
AcDbMText
 10
21.6648811847
 20
-2.9242120404
 30
0.0
 40
1.3
 41
0.0
 71
     1
 72
     1
  1
ISO 1101: 2012
  7
SLDTEXTSTYLE1
 73
     1
 44
1.0
  0
MTEXT
  5
103
330
FB
100
AcDbEntity
  8
FORMAT
 62
     0
100
AcDbMText
 10
38.1757840514
 20
-2.9067002454
 30
0.0
 40
1.3229166667
 41
0.0
 71
     1
 72
     1
  1
|
  7
SLDTEXTSTYLE1
 73
     1
 44
1.0
  0
MTEXT
  5
104
330
FB
100
AcDbEntity
  8
FORMAT
 62
     0
100
AcDbMText
 10
40.2521929145
 20
-2.9242120404
 30
0.0
 40
1.3
 41
0.0
 71
     1
 72
     1
  1
ISO 5459 : 2011
  7
SLDTEXTSTYLE1
 73
     1
 44
1.0
  0
MTEXT
  5
105
330
FB
100
AcDbEntity
  8
FORMAT
 62
     0
100
AcDbMText
 10
0.0
 20
-5.2362412866
 30
0.0
 40
1.3
 41
0.0
 71
     1
 72
     1
  1
ISO 14405-1 : 2016
  7
SLDTEXTSTYLE1
 73
     1
 44
1.0
  0
MTEXT
  5
106
330
FB
100
AcDbEntity
  8
FORMAT
 62
     0
100
AcDbMText
 10
19.5884723216
 20
-5.2187294916
 30
0.0
 40
1.3229166667
 41
0.0
 71
     1
 72
     1
  1
|
  7
SLDTEXTSTYLE1
 73
     1
 44
1.0
  0
MTEXT
  5
107
330
FB
100
AcDbEntity
  8
FORMAT
 62
     0
100
AcDbMText
 10
21.6648811847
 20
-5.2362412866
 30
0.0
 40
1.3
 41
0.0
 71
     1
 72
     1
  1
ISO 2692 : 2014
  7
SLDTEXTSTYLE1
 73
     1
 44
1.0
  0
MTEXT
  5
108
330
FB
100
AcDbEntity
  8
FORMAT
 62
     0
100
AcDbMText
 10
38.1757840514
 20
-5.2187294916
 30
0.0
 40
1.3229166667
 41
0.0
 71
     1
 72
     1
  1
|
  7
SLDTEXTSTYLE1
 73
     1
 44
1.0
  0
MTEXT
  5
109
330
FB
100
AcDbEntity
  8
FORMAT
 62
     0
100
AcDbMText
 10
40.2521929145
 20
-5.2362412866
 30
0.0
 40
1.3
 41
0.0
 71
     1
 72
     1
  1
ISO 22432 : 2011
  7
SLDTEXTSTYLE1
 73
     1
 44
1.0
  0
MTEXT
  5
10B
330
FB
100
AcDbEntity
  8
FORMAT
 62
     0
100
AcDbMText
 10
0.0
 20
-7.5482705329
 30
0.0
 40
1.3
 41
0.0
 71
     1
 72
     1
  1
ISO 8015  : 2011
  7
SLDTEXTSTYLE2
 73
     1
 44
1.0
  0
MTEXT
  5
10C
330
FB
100
AcDbEntity
  8
FORMAT
 62
     0
100
AcDbMText
 10
19.5884723216
 20
-7.5307587379
 30
0.0
 40
1.3229166667
 41
0.0
 71
     1
 72
     1
  1
|
  7
SLDTEXTSTYLE1
 73
     1
 44
1.0
  0
MTEXT
  5
10D
330
FB
100
AcDbEntity
  8
FORMAT
 62
     0
100
AcDbMText
 10
21.6648811847
 20
-7.5482705329
 30
0.0
 40
1.3
 41
0.0
 71
     1
 72
     1
  1
ISO 5458 : 1998
  7
SLDTEXTSTYLE1
 73
     1
 44
1.0
  0
MTEXT
  5
10E
330
FB
100
AcDbEntity
  8
FORMAT
 62
     0
100
AcDbMText
 10
38.1757840514
 20
-7.5307587379
 30
0.0
 40
1.3229166667
 41
0.0
 71
     1
 72
     1
  1
|
  7
SLDTEXTSTYLE1
 73
     1
 44
1.0
  0
MTEXT
  5
10F
330
FB
100
AcDbEntity
  8
FORMAT
 62
     0
100
AcDbMText
 10
40.2521929145
 20
-7.5482705329
 30
0.0
 40
1.3
 41
0.0
 71
     1
 72
     1
  1
ISO 14405-2 : 2011
  7
SLDTEXTSTYLE1
 73
     1
 44
1.0
  0
ENDBLK
  5
FD
330
FB
100
AcDbEntity
  8
0
100
AcDbBlockEnd
  0
BLOCK
  5
115
330
114
100
AcDbEntity
  8
0
100
AcDbBlockBegin
  2
SW_NOTE_2
 70
     0
 10
0.0
 20
0.0
 30
0.0
  3
SW_NOTE_2
  1
SW_NOTE_2
  0
MTEXT
  5
117
330
114
100
AcDbEntity
  8
FORMAT
 62
     0
100
AcDbMText
 10
0.0
 20
1.9336016097
 30
0.0
 40
1.5
 41
0.0
 71
     1
 72
     1
  1
SCALE
  7
SLDTEXTSTYLE1
 73
     1
 44
1.0
  0
MTEXT
  5
118
330
114
100
AcDbEntity
  8
FORMAT
 62
     0
100
AcDbMText
 10
6.9979170337
 20
1.9336016097
 30
0.0
 40
1.5
 41
0.0
 71
     1
 72
     1
  1
1:1
  7
SLDTEXTSTYLE1
 73
     1
 44
1.0
  0
ENDBLK
  5
116
330
114
100
AcDbEntity
  8
0
100
AcDbBlockEnd
  0
BLOCK
  5
11B
330
11A
100
AcDbEntity
  8
0
100
AcDbBlockBegin
  2
SW_NOTE_3
 70
     0
 10
0.0
 20
0.0
 30
0.0
  3
SW_NOTE_3
  1
SW_NOTE_3
  0
MTEXT
  5
11D
330
11A
100
AcDbEntity
  8
FORMAT
 62
     0
100
AcDbMText
 10
0.0
 20
1.9336016097
 30
0.0
 40
1.5
 41
0.0
 71
     1
 72
     1
  1
SHEET
  7
SLDTEXTSTYLE1
 73
     1
 44
1.0
  0
MTEXT
  5
11F
330
11A
100
AcDbEntity
  8
FORMAT
 62
     0
100
AcDbMText
 10
6.9635419175
 20
1.9336016097
 30
0.0
 40
1.5
 41
0.0
 71
     1
 72
     1
  1
1 OF 1
  7
SLDTEXTSTYLE3
 73
     1
 44
1.0
  0
ENDBLK
  5
11C
330
11A
100
AcDbEntity
  8
0
100
AcDbBlockEnd
  0
BLOCK
  5
122
330
121
100
AcDbEntity
  8
0
100
AcDbBlockBegin
  2
SW_NOTE_4
 70
     0
 10
0.0
 20
0.0
 30
0.0
  3
SW_NOTE_4
  1
SW_NOTE_4
  0
MTEXT
  5
124
330
121
100
AcDbEntity
  8
FORMAT
 62
     0
100
AcDbMText
 10
0.0
 20
2.0463950369
 30
0.0
 40
1.5875
 41
0.0
 71
     1
 72
     1
  1
SIZE
  7
SLDTEXTSTYLE1
 73
     1
 44
1.0
  0
MTEXT
  5
125
330
121
100
AcDbEntity
  8
FORMAT
 62
     0
100
AcDbMText
 10
6.1897798628
 20
2.0463950369
 30
0.0
 40
1.5875
 41
0.0
 71
     1
 72
     1
  1
A3
  7
SLDTEXTSTYLE1
 73
     1
 44
1.0
  0
ENDBLK
  5
123
330
121
100
AcDbEntity
  8
0
100
AcDbBlockEnd
  0
BLOCK
  5
12E
330
12D
100
AcDbEntity
  8
0
100
AcDbBlockBegin
  2
SW_NOTE_5
 70
     0
 10
0.0
 20
0.0
 30
0.0
  3
SW_NOTE_5
  1
SW_NOTE_5
  0
MTEXT
  5
130
330
12D
100
AcDbEntity
  8
FORMAT
 62
     0
100
AcDbMText
 10
0.0
 20
2.0463950369
 30
0.0
 40
1.5875
 41
0.0
 71
     1
 72
     1
  1
TOLERANCES
  7
SLDTEXTSTYLE1
 73
     1
 44
1.0
  0
MTEXT
  5
131
330
12D
100
AcDbEntity
  8
FORMAT
 62
     0
100
AcDbMText
 10
0.0
 20
-0.0468477361
 30
0.0
 40
1.0583333333
 41
0.0
 71
     1
 72
     1
  1
(UNLESS OTHERWISE SPECIFIED)
  7
SLDTEXTSTYLE1
 73
     1
 44
1.0
  0
ENDBLK
  5
12F
330
12D
100
AcDbEntity
  8
0
100
AcDbBlockEnd
  0
BLOCK
  5
136
330
135
100
AcDbEntity
  8
0
100
AcDbBlockBegin
  2
SW_NOTE_6
 70
     0
 10
0.0
 20
0.0
 30
0.0
  3
SW_NOTE_6
  1
SW_NOTE_6
  0
MTEXT
  5
138
330
135
100
AcDbEntity
  8
FORMAT
 62
     0
100
AcDbMText
 10
0.0
 20
1.3642633579
 30
0.0
 40
1.0583333333
 41
0.0
 71
     1
 72
     1
  1
-0.2
  7
SLDTEXTSTYLE1
 73
     1
 44
1.0
  0
MTEXT
  5
139
330
135
100
AcDbEntity
  8
FORMAT
 62
     0
100
AcDbMText
 10
0.0
 20
-0.0468477361
 30
0.0
 40
1.0583333333
 41
0.0
 71
     1
 72
     1
  1
-0.3
  7
SLDTEXTSTYLE1
 73
     1
 44
1.0
  0
ENDBLK
  5
137
330
135
100
AcDbEntity
  8
0
100
AcDbBlockEnd
  0
BLOCK
  5
13C
330
13B
100
AcDbEntity
  8
0
100
AcDbBlockBegin
  2
SW_NOTE_7
 70
     0
 10
0.0
 20
0.0
 30
0.0
  3
SW_NOTE_7
  1
SW_NOTE_7
  0
MTEXT
  5
13E
330
13B
100
AcDbEntity
  8
FORMAT
 62
     0
100
AcDbMText
 10
0.0
 20
1.3642633579
 30
0.0
 40
1.0583333333
 41
0.0
 71
     1
 72
     1
  1
+0.3
  7
SLDTEXTSTYLE1
 73
     1
 44
1.0
  0
MTEXT
  5
13F
330
13B
100
AcDbEntity
  8
FORMAT
 62
     0
100
AcDbMText
 10
0.0
 20
-0.0468477361
 30
0.0
 40
1.0583333333
 41
0.0
 71
     1
 72
     1
  1
+0.2
  7
SLDTEXTSTYLE1
 73
     1
 44
1.0
  0
ENDBLK
  5
13D
330
13B
100
AcDbEntity
  8
0
100
AcDbBlockEnd
  0
BLOCK
  5
142
330
141
100
AcDbEntity
  8
0
100
AcDbBlockBegin
  2
SW_NOTE_8
 70
     0
 10
0.0
 20
0.0
 30
0.0
  3
SW_NOTE_8
  1
SW_NOTE_8
  0
MTEXT
  5
144
330
141
100
AcDbEntity
  8
PLASTIQUE
 62
     0
100
AcDbMText
 10
26.4583333333
 20
2.7285267159
 30
0.0
 40
2.1166666667
 41
0.0
 71
     3
 72
     1
  1
NFT 58000 : 1987
  7
SLDTEXTSTYLE1
 73
     1
 44
1.0
  0
MTEXT
  5
145
330
141
100
AcDbEntity
  8
PLASTIQUE
 62
     0
100
AcDbMText
 10
26.5891561409
 20
-0.0936954723
 30
0.0
 40
2.1166666667
 41
0.0
 71
     3
 72
     1
  1
Cat 4 Reduced
  7
SLDTEXTSTYLE1
 73
     1
 44
1.0
  0
ENDBLK
  5
143
330
141
100
AcDbEntity
  8
0
100
AcDbBlockEnd
  0
BLOCK
  5
148
330
147
100
AcDbEntity
  8
0
100
AcDbBlockBegin
  2
SW_NOTE_9
 70
     0
 10
0.0
 20
0.0
 30
0.0
  3
SW_NOTE_9
  1
SW_NOTE_9
  0
MTEXT
  5
14A
330
147
100
AcDbEntity
  8
PLASTIQUE
 62
     0
100
AcDbMText
 10
0.0
 20
3.4106583948
 30
0.0
 40
2.6458333333
 41
0.0
 71
     1
 72
     1
  1
Notes:
  7
SLDTEXTSTYLE1
 73
     1
 44
1.0
  0
MTEXT
  5
14B
330
147
100
AcDbEntity
  8
PLASTIQUE
 62
     0
100
AcDbMText
 10
0.0
 20
-3.6448970755
 30
0.0
 40
2.6458333333
 41
0.0
 71
     1
 72
     1
  1
1. Material : Bayer Bayblend T65XF BBS910 Raven 901626
  7
SLDTEXTSTYLE1
 73
     1
 44
1.0
  0
MTEXT
  5
14C
330
147
100
AcDbEntity
  8
PLASTIQUE
 62
     0
100
AcDbMText
 10
0.0
 20
-7.1726748106
 30
0.0
 40
2.6458333333
 41
0.0
 71
     1
 72
     1
  1
2. Color : Raven 71428000
  7
SLDTEXTSTYLE1
 73
     1
 44
1.0
  0
MTEXT
  5
14D
330
147
100
AcDbEntity
  8
PLASTIQUE
 62
     0
100
AcDbMText
 10
0.0
 20
-10.7004525458
 30
0.0
 40
2.6458333333
 41
0.0
 71
     1
 72
     1
  1
3. Finish :   Graining  3820473 on external sides
  7
SLDTEXTSTYLE1
 73
     1
 44
1.0
  0
MTEXT
  5
14E
330
147
100
AcDbEntity
  8
PLASTIQUE
 62
     0
100
AcDbMText
 10
0.0
 20
-14.2282302809
 30
0.0
 40
2.6458333333
 41
0.0
 71
     1
 72
     1
  1
4. No change in production material shall be allowed
  7
SLDTEXTSTYLE1
 73
     1
 44
1.0
  0
MTEXT
  5
14F
330
147
100
AcDbEntity
  8
PLASTIQUE
 62
     0
100
AcDbMText
 10
6.201171875
 20
-17.7560080161
 30
0.0
 40
2.6458333333
 41
0.0
 71
     1
 72
     1
  1
without explicit prior written approval from Parrot
  7
SLDTEXTSTYLE1
 73
     1
 44
1.0
  0
MTEXT
  5
150
330
147
100
AcDbEntity
  8
PLASTIQUE
 62
     0
100
AcDbMText
 10
0.0
 20
-21.2837857512
 30
0.0
 40
2.6458333333
 41
0.0
 71
     1
 72
     1
  1
5. Reference dimensions, shown in parantheses (DIM),
  7
SLDTEXTSTYLE1
 73
     1
 44
1.0
  0
MTEXT
  5
151
330
147
100
AcDbEntity
  8
PLASTIQUE
 62
     0
100
AcDbMText
 10
6.201171875
 20
-24.8115634863
 30
0.0
 40
2.6458333333
 41
0.0
 71
     1
 72
     1
  1
are without tolerance and are for information
  7
SLDTEXTSTYLE1
 73
     1
 44
1.0
  0
MTEXT
  5
152
330
147
100
AcDbEntity
  8
PLASTIQUE
 62
     0
100
AcDbMText
 10
6.201171875
 20
-28.3393412215
 30
0.0
 40
2.6458333333
 41
0.0
 71
     1
 72
     1
  1
purpose only
  7
SLDTEXTSTYLE1
 73
     1
 44
1.0
  0
MTEXT
  5
153
330
147
100
AcDbEntity
  8
PLASTIQUE
 62
     0
100
AcDbMText
 10
0.0
 20
-31.8671189566
 30
0.0
 40
2.6458333333
 41
0.0
 71
     1
 72
     1
  1
6. All geometry is to be derived from the CAD database.
  7
SLDTEXTSTYLE1
 73
     1
 44
1.0
  0
MTEXT
  5
154
330
147
100
AcDbEntity
  8
PLASTIQUE
 62
     0
100
AcDbMText
 10
6.201171875
 20
-35.3948966918
 30
0.0
 40
2.6458333333
 41
0.0
 71
     1
 72
     1
  1
Critical to function dimensions called out on this
  7
SLDTEXTSTYLE1
 73
     1
 44
1.0
  0
MTEXT
  5
155
330
147
100
AcDbEntity
  8
PLASTIQUE
 62
     0
100
AcDbMText
 10
6.201171875
 20
-38.9226744269
 30
0.0
 40
2.6458333333
 41
0.0
 71
     1
 72
     1
  1
drawing are only for inspection purposes
  7
SLDTEXTSTYLE1
 73
     1
 44
1.0
  0
MTEXT
  5
156
330
147
100
AcDbEntity
  8
PLASTIQUE
 62
     0
100
AcDbMText
 10
0.0
 20
-45.9782298972
 30
0.0
 40
2.6458333333
 41
0.0
 71
     1
 72
     1
  1
9.     = Special Characteristic Dimension
  7
SLDTEXTSTYLE1
 73
     1
 44
1.0
  0
MTEXT
  5
157
330
147
100
AcDbEntity
  8
PLASTIQUE
 62
     0
100
AcDbMText
 10
0.0
 20
-53.0337853675
 30
0.0
 40
2.6458333333
 41
0.0
 71
     1
 72
     1
  1
10.    = Dimension identification number for FAI
  7
SLDTEXTSTYLE1
 73
     1
 44
1.0
  0
MTEXT
  5
158
330
147
100
AcDbEntity
  8
PLASTIQUE
 62
     0
100
AcDbMText
 10
0.0
 20
-60.0893408378
 30
0.0
 40
2.6458333333
 41
0.0
 71
     1
 72
     1
  1
11. Parts should be marked with:
  7
SLDTEXTSTYLE1
 73
     1
 44
1.0
  0
MTEXT
  5
159
330
147
100
AcDbEntity
  8
PLASTIQUE
 62
     0
100
AcDbMText
 10
8.2682291667
 20
-63.6171185729
 30
0.0
 40
2.6458333333
 41
0.0
 71
     1
 72
     1
  1
SAP material number(see title bock)
  7
SLDTEXTSTYLE1
 73
     1
 44
1.0
  0
MTEXT
  5
15A
330
147
100
AcDbEntity
  8
PLASTIQUE
 62
     0
100
AcDbMText
 10
0.0
 20
-67.1448963081
 30
0.0
 40
2.6458333333
 41
0.0
 71
     1
 72
     1
  1
12. Marking location : see Drawing
  7
SLDTEXTSTYLE1
 73
     1
 44
1.0
  0
ENDBLK
  5
149
330
147
100
AcDbEntity
  8
0
100
AcDbBlockEnd
  0
BLOCK
  5
15D
330
15C
100
AcDbEntity
  8
0
100
AcDbBlockBegin
  2
SW_NOTE_10
 70
     0
 10
0.0
 20
0.0
 30
0.0
  3
SW_NOTE_10
  1
SW_NOTE_10
  0
LINE
  5
15F
330
15C
100
AcDbEntity
  8
PLASTIQUE
 62
     0
100
AcDbLine
 10
-1.5515530266
 20
1.5984568408
 30
0.0
 11
2.31511364
 21
5.4651235075
 31
0.0
  0
LINE
  5
160
330
15C
100
AcDbEntity
  8
PLASTIQUE
 62
     0
100
AcDbLine
 10
2.31511364
 20
5.4651235075
 30
0.0
 11
6.1817803067
 21
1.5984568408
 31
0.0
  0
LINE
  5
161
330
15C
100
AcDbEntity
  8
PLASTIQUE
 62
     0
100
AcDbLine
 10
6.1817803067
 20
1.5984568408
 30
0.0
 11
2.31511364
 21
-2.2682098258
 31
0.0
  0
LINE
  5
162
330
15C
100
AcDbEntity
  8
PLASTIQUE
 62
     0
100
AcDbLine
 10
2.31511364
 20
-2.2682098258
 30
0.0
 11
-1.5515530266
 21
1.5984568408
 31
0.0
  0
MTEXT
  5
163
330
15C
100
AcDbEntity
  8
PLASTIQUE
 62
     0
100
AcDbMText
 10
0.0
 20
2.5781354795
 30
0.0
 40
2.0
 41
0.0
 71
     1
 72
     1
  1
SCx
  7
SLDTEXTSTYLE1
 73
     1
 44
1.0
  0
ENDBLK
  5
15E
330
15C
100
AcDbEntity
  8
0
100
AcDbBlockEnd
  0
BLOCK
  5
166
330
165
100
AcDbEntity
  8
0
100
AcDbBlockBegin
  2
SW_NOTE_11
 70
     0
 10
0.0
 20
0.0
 30
0.0
  3
SW_NOTE_11
  1
SW_NOTE_11
  0
CIRCLE
  5
168
330
165
100
AcDbEntity
  8
PLASTIQUE
 62
     0
100
AcDbCircle
 10
1.0607831646
 20
2.0386445182
 30
0.0
 40
3.000000000000003
  0
MTEXT
  5
169
330
165
100
AcDbEntity
  8
PLASTIQUE
 62
     0
100
AcDbMText
 10
0.0
 20
3.4106583948
 30
0.0
 40
2.6458333333
 41
0.0
 71
     1
 72
     1
  1
X
  7
SLDTEXTSTYLE1
 73
     1
 44
1.0
  0
ENDBLK
  5
167
330
165
100
AcDbEntity
  8
0
100
AcDbBlockEnd
  0
BLOCK
  5
16C
330
16B
100
AcDbEntity
  8
0
100
AcDbBlockBegin
  2
SW_NOTE_12
 70
     0
 10
0.0
 20
0.0
 30
0.0
  3
SW_NOTE_12
  1
SW_NOTE_12
  0
MTEXT
  5
16E
330
16B
100
AcDbEntity
  8
RUBBER
 62
     0
100
AcDbMText
 10
23.1510416667
 20
2.7285267159
 30
0.0
 40
2.1166666667
 41
0.0
 71
     3
 72
     1
  1
DIN ISO 3302-1
  7
SLDTEXTSTYLE1
 73
     1
 44
1.0
  0
MTEXT
  5
16F
330
16B
100
AcDbEntity
  8
RUBBER
 62
     0
100
AcDbMText
 10
23.4126872818
 20
-0.0936954723
 30
0.0
 40
2.1166666667
 41
0.0
 71
     3
 72
     1
  1
Class M1
  7
SLDTEXTSTYLE1
 73
     1
 44
1.0
  0
ENDBLK
  5
16D
330
16B
100
AcDbEntity
  8
0
100
AcDbBlockEnd
  0
BLOCK
  5
172
330
171
100
AcDbEntity
  8
0
100
AcDbBlockBegin
  2
SW_NOTE_13
 70
     0
 10
0.0
 20
0.0
 30
0.0
  3
SW_NOTE_13
  1
SW_NOTE_13
  0
MTEXT
  5
174
330
171
100
AcDbEntity
  8
RUBBER
 62
     0
100
AcDbMText
 10
0.0
 20
3.4106583948
 30
0.0
 40
2.6458333333
 41
0.0
 71
     1
 72
     1
  1
Notes:
  7
SLDTEXTSTYLE1
 73
     1
 44
1.0
  0
MTEXT
  5
175
330
171
100
AcDbEntity
  8
RUBBER
 62
     0
100
AcDbMText
 10
0.0
 20
-3.6448970755
 30
0.0
 40
2.6458333333
 41
0.0
 71
     1
 72
     1
  1
1. Material : Silicone Wynca XHG 151-70
  7
SLDTEXTSTYLE1
 73
     1
 44
1.0
  0
MTEXT
  5
176
330
171
100
AcDbEntity
  8
RUBBER
 62
     0
100
AcDbMText
 10
28.9388020833
 20
-7.1726748106
 30
0.0
 40
2.6458333333
 41
0.0
 71
     1
 72
     1
  1
+ TSE322 glue (Momentive)
  7
SLDTEXTSTYLE1
 73
     1
 44
1.0
  0
MTEXT
  5
177
330
171
100
AcDbEntity
  8
RUBBER
 62
     0
100
AcDbMText
 10
0.0
 20
-10.7004525458
 30
0.0
 40
2.6458333333
 41
0.0
 71
     1
 72
     1
  1
2. Color : According to Volvo Master sample
  7
SLDTEXTSTYLE1
 73
     1
 44
1.0
  0
MTEXT
  5
178
330
171
100
AcDbEntity
  8
RUBBER
 62
     0
100
AcDbMText
 10
6.201171875
 20
-14.2282302809
 30
0.0
 40
2.6458333333
 41
0.0
 71
     1
 72
     1
  1
BOLD BLACK 22197151(TR84238804)
  7
SLDTEXTSTYLE1
 73
     1
 44
1.0
  0
MTEXT
  5
179
330
171
100
AcDbEntity
  8
RUBBER
 62
     0
100
AcDbMText
 10
6.201171875
 20
-17.7560080161
 30
0.0
 40
2.6458333333
 41
0.0
 71
     1
 72
     1
  1
For symbols : according to Volvo Master Sample Traffic
  7
SLDTEXTSTYLE1
 73
     1
 44
1.0
  0
MTEXT
  5
17A
330
171
100
AcDbEntity
  8
RUBBER
 62
     0
100
AcDbMText
 10
6.201171875
 20
-21.2837857512
 30
0.0
 40
2.6458333333
 41
0.0
 71
     1
 72
     1
  1
White 22197191
  7
SLDTEXTSTYLE1
 73
     1
 44
1.0
  0
MTEXT
  5
17B
330
171
100
AcDbEntity
  8
RUBBER
 62
     0
100
AcDbMText
 10
0.0
 20
-24.8115634863
 30
0.0
 40
2.6458333333
 41
0.0
 71
     1
 72
     1
  1
3. Finish (only for A surfaces) :  according to Volvo graining
  7
SLDTEXTSTYLE1
 73
     1
 44
1.0
  0
MTEXT
  5
17C
330
171
100
AcDbEntity
  8
RUBBER
 62
     0
100
AcDbMText
 10
6.201171875
 20
-28.3393412215
 30
0.0
 40
2.6458333333
 41
0.0
 71
     1
 72
     1
  1
master sample Renault Stipple Fine Grain 21555783
  7
SLDTEXTSTYLE1
 73
     1
 44
1.0
  0
MTEXT
  5
17D
330
171
100
AcDbEntity
  8
RUBBER
 62
     0
100
AcDbMText
 10
6.201171875
 20
-31.8671189566
 30
0.0
 40
2.6458333333
 41
0.0
 71
     1
 72
     1
  1
Tolerance of gloss : 3  +1 / -0,5 GU
  7
SLDTEXTSTYLE2
 73
     1
 44
1.0
  0
MTEXT
  5
17E
330
171
100
AcDbEntity
  8
RUBBER
 62
     0
100
AcDbMText
 10
0.0
 20
-35.3948966918
 30
0.0
 40
2.6458333333
 41
0.0
 71
     1
 72
     1
  1
4. Force : 3.5N +/15%N per key (8 keys)
  7
SLDTEXTSTYLE1
 73
     1
 44
1.0
  0
MTEXT
  5
17F
330
171
100
AcDbEntity
  8
RUBBER
 62
     0
100
AcDbMText
 10
0.0
 20
-38.9226744269
 30
0.0
 40
2.6458333333
 41
0.0
 71
     1
 72
     1
  1
5. stroke : 1.5mm +/-0.1 (without preload)
  7
SLDTEXTSTYLE1
 73
     1
 44
1.0
  0
MTEXT
  5
180
330
171
100
AcDbEntity
  8
RUBBER
 62
     0
100
AcDbMText
 10
0.0
 20
-42.4504521621
 30
0.0
 40
2.6458333333
 41
0.0
 71
     1
 72
     1
  1
6. Contact : SC-L pills (Blue pills) resistivity : <1.5 Ohm
  7
SLDTEXTSTYLE1
 73
     1
 44
1.0
  0
MTEXT
  5
181
330
171
100
AcDbEntity
  8
RUBBER
 62
     0
100
AcDbMText
 10
0.0
 20
-45.9782298972
 30
0.0
 40
2.6458333333
 41
0.0
 71
     1
 72
     1
  1
7. No change in production material shall be allowed
  7
SLDTEXTSTYLE1
 73
     1
 44
1.0
  0
MTEXT
  5
182
330
171
100
AcDbEntity
  8
RUBBER
 62
     0
100
AcDbMText
 10
6.201171875
 20
-49.5060076323
 30
0.0
 40
2.6458333333
 41
0.0
 71
     1
 72
     1
  1
without explicit prior written approval from Parrot
  7
SLDTEXTSTYLE1
 73
     1
 44
1.0
  0
MTEXT
  5
183
330
171
100
AcDbEntity
  8
RUBBER
 62
     0
100
AcDbMText
 10
0.0
 20
-53.0337853675
 30
0.0
 40
2.6458333333
 41
0.0
 71
     1
 72
     1
  1
8. Reference dimensions, shown in parantheses (DIM),
  7
SLDTEXTSTYLE1
 73
     1
 44
1.0
  0
MTEXT
  5
184
330
171
100
AcDbEntity
  8
RUBBER
 62
     0
100
AcDbMText
 10
6.201171875
 20
-56.5615631026
 30
0.0
 40
2.6458333333
 41
0.0
 71
     1
 72
     1
  1
are without tolerance and are for information purpose only
  7
SLDTEXTSTYLE1
 73
     1
 44
1.0
  0
MTEXT
  5
185
330
171
100
AcDbEntity
  8
RUBBER
 62
     0
100
AcDbMText
 10
0.0
 20
-60.0893408378
 30
0.0
 40
2.6458333333
 41
0.0
 71
     1
 72
     1
  1
9. All geometry is to be derived from the CAD database.
  7
SLDTEXTSTYLE1
 73
     1
 44
1.0
  0
MTEXT
  5
186
330
171
100
AcDbEntity
  8
RUBBER
 62
     0
100
AcDbMText
 10
6.201171875
 20
-63.6171185729
 30
0.0
 40
2.6458333333
 41
0.0
 71
     1
 72
     1
  1
Critical to function dimensions called out on this
  7
SLDTEXTSTYLE1
 73
     1
 44
1.0
  0
MTEXT
  5
187
330
171
100
AcDbEntity
  8
RUBBER
 62
     0
100
AcDbMText
 10
6.201171875
 20
-67.1448963081
 30
0.0
 40
2.6458333333
 41
0.0
 71
     1
 72
     1
  1
drawing are only for inspection purposes
  7
SLDTEXTSTYLE1
 73
     1
 44
1.0
  0
MTEXT
  5
188
330
171
100
AcDbEntity
  8
RUBBER
 62
     0
100
AcDbMText
 10
0.0
 20
-74.2004517784
 30
0.0
 40
2.6458333333
 41
0.0
 71
     1
 72
     1
  1
10.      = Special Characteristic Dimension
  7
SLDTEXTSTYLE1
 73
     1
 44
1.0
  0
MTEXT
  5
189
330
171
100
AcDbEntity
  8
RUBBER
 62
     0
100
AcDbMText
 10
0.0
 20
-81.2560072486
 30
0.0
 40
2.6458333333
 41
0.0
 71
     1
 72
     1
  1
11.      = Dimension identification number for FAI
  7
SLDTEXTSTYLE1
 73
     1
 44
1.0
  0
ENDBLK
  5
173
330
171
100
AcDbEntity
  8
0
100
AcDbBlockEnd
  0
BLOCK
  5
18C
330
18B
100
AcDbEntity
  8
0
100
AcDbBlockBegin
  2
SW_NOTE_14
 70
     0
 10
0.0
 20
0.0
 30
0.0
  3
SW_NOTE_14
  1
SW_NOTE_14
  0
CIRCLE
  5
18E
330
18B
100
AcDbEntity
  8
RUBBER
 62
     0
100
AcDbCircle
 10
1.0607831646
 20
2.0386445182
 30
0.0
 40
3.000000000000003
  0
MTEXT
  5
18F
330
18B
100
AcDbEntity
  8
RUBBER
 62
     0
100
AcDbMText
 10
0.0
 20
3.4106583948
 30
0.0
 40
2.6458333333
 41
0.0
 71
     1
 72
     1
  1
X
  7
SLDTEXTSTYLE1
 73
     1
 44
1.0
  0
ENDBLK
  5
18D
330
18B
100
AcDbEntity
  8
0
100
AcDbBlockEnd
  0
BLOCK
  5
192
330
191
100
AcDbEntity
  8
0
100
AcDbBlockBegin
  2
SW_NOTE_15
 70
     0
 10
0.0
 20
0.0
 30
0.0
  3
SW_NOTE_15
  1
SW_NOTE_15
  0
LINE
  5
194
330
191
100
AcDbEntity
  8
RUBBER
 62
     0
100
AcDbLine
 10
-1.5902021898
 20
1.5791942428
 30
0.0
 11
2.2764644769
 21
5.4458609095
 31
0.0
  0
LINE
  5
195
330
191
100
AcDbEntity
  8
RUBBER
 62
     0
100
AcDbLine
 10
2.2764644769
 20
5.4458609095
 30
0.0
 11
6.1431311436
 21
1.5791942428
 31
0.0
  0
LINE
  5
196
330
191
100
AcDbEntity
  8
RUBBER
 62
     0
100
AcDbLine
 10
6.1431311436
 20
1.5791942428
 30
0.0
 11
2.2764644769
 21
-2.2874724238
 31
0.0
  0
LINE
  5
197
330
191
100
AcDbEntity
  8
RUBBER
 62
     0
100
AcDbLine
 10
2.2764644769
 20
-2.2874724238
 30
0.0
 11
-1.5902021898
 21
1.5791942428
 31
0.0
  0
MTEXT
  5
198
330
191
100
AcDbEntity
  8
RUBBER
 62
     0
100
AcDbMText
 10
0.0
 20
2.5781354795
 30
0.0
 40
2.0
 41
0.0
 71
     1
 72
     1
  1
SCx
  7
SLDTEXTSTYLE1
 73
     1
 44
1.0
  0
ENDBLK
  5
193
330
191
100
AcDbEntity
  8
0
100
AcDbBlockEnd
  0
BLOCK
  5
19C
330
19B
100
AcDbEntity
  8
0
100
AcDbBlockBegin
  2
SW_NOTE_16
 70
     0
 10
0.0
 20
0.0
 30
0.0
  3
SW_NOTE_16
  1
SW_NOTE_16
  0
MTEXT
  5
19E
330
19B
100
AcDbEntity
  8
DIE-CASTING
 62
     0
100
AcDbMText
 10
0.0
 20
3.4106583948
 30
0.0
 40
2.6458333333
 41
0.0
 71
     1
 72
     1
  1
\LNotes:
  7
SLDTEXTSTYLE1
 73
     1
 44
1.0
  0
MTEXT
  5
19F
330
19B
100
AcDbEntity
  8
DIE-CASTING
 62
     0
100
AcDbMText
 10
0.0
 20
-3.6448970755
 30
0.0
 40
2.6458333333
 41
0.0
 71
     1
 72
     1
  1
1. Finishing free of oil
  7
SLDTEXTSTYLE1
 73
     1
 44
1.0
  0
MTEXT
  5
1A0
330
19B
100
AcDbEntity
  8
DIE-CASTING
 62
     0
100
AcDbMText
 10
0.0
 20
-7.1726748106
 30
0.0
 40
2.6458333333
 41
0.0
 71
     1
 72
     1
  1
2. No sharp edge
  7
SLDTEXTSTYLE1
 73
     1
 44
1.0
  0
MTEXT
  5
1A1
330
19B
100
AcDbEntity
  8
DIE-CASTING
 62
     0
100
AcDbMText
 10
0.0
 20
-10.7004525458
 30
0.0
 40
2.6458333333
 41
0.0
 71
     1
 72
     1
  1
3. ROHS Compliant
  7
SLDTEXTSTYLE1
 73
     1
 44
1.0
  0
MTEXT
  5
1A2
330
19B
100
AcDbEntity
  8
DIE-CASTING
 62
     0
100
AcDbMText
 10
0.0
 20
-14.2282302809
 30
0.0
 40
2.6458333333
 41
0.0
 71
     1
 72
     1
  1
4. Reference dimensions, shown in parantheses
  7
SLDTEXTSTYLE1
 73
     1
 44
1.0
  0
MTEXT
  5
1A3
330
19B
100
AcDbEntity
  8
DIE-CASTING
 62
     0
100
AcDbMText
 10
6.201171875
 20
-17.7560080161
 30
0.0
 40
2.6458333333
 41
0.0
 71
     1
 72
     1
  1
(DIM), are without tolerance and are for
  7
SLDTEXTSTYLE1
 73
     1
 44
1.0
  0
MTEXT
  5
1A4
330
19B
100
AcDbEntity
  8
DIE-CASTING
 62
     0
100
AcDbMText
 10
6.201171875
 20
-21.2837857512
 30
0.0
 40
2.6458333333
 41
0.0
 71
     1
 72
     1
  1
information prupose only.
  7
SLDTEXTSTYLE1
 73
     1
 44
1.0
  0
MTEXT
  5
1A5
330
19B
100
AcDbEntity
  8
DIE-CASTING
 62
     0
100
AcDbMText
 10
0.0
 20
-24.8115634863
 30
0.0
 40
2.6458333333
 41
0.0
 71
     1
 72
     1
  1
5. All geometry is to be derived from the CAD
  7
SLDTEXTSTYLE1
 73
     1
 44
1.0
  0
MTEXT
  5
1A6
330
19B
100
AcDbEntity
  8
DIE-CASTING
 62
     0
100
AcDbMText
 10
6.201171875
 20
-28.3393412215
 30
0.0
 40
2.6458333333
 41
0.0
 71
     1
 72
     1
  1
database.
  7
SLDTEXTSTYLE1
 73
     1
 44
1.0
  0
MTEXT
  5
1A7
330
19B
100
AcDbEntity
  8
DIE-CASTING
 62
     0
100
AcDbMText
 10
6.201171875
 20
-31.8671189566
 30
0.0
 40
2.6458333333
 41
0.0
 71
     1
 72
     1
  1
Critical to function dimensions called out on
  7
SLDTEXTSTYLE1
 73
     1
 44
1.0
  0
MTEXT
  5
1A8
330
19B
100
AcDbEntity
  8
DIE-CASTING
 62
     0
100
AcDbMText
 10
6.201171875
 20
-35.3948966918
 30
0.0
 40
2.6458333333
 41
0.0
 71
     1
 72
     1
  1
this drawing are only for inspection purposes
  7
SLDTEXTSTYLE1
 73
     1
 44
1.0
  0
MTEXT
  5
1A9
330
19B
100
AcDbEntity
  8
DIE-CASTING
 62
     0
100
AcDbMText
 10
0.0
 20
-38.9226744269
 30
0.0
 40
2.6458333333
 41
0.0
 71
     1
 72
     1
  1
6. No sharp edges
  7
SLDTEXTSTYLE1
 73
     1
 44
1.0
  0
MTEXT
  5
1AA
330
19B
100
AcDbEntity
  8
DIE-CASTING
 62
     0
100
AcDbMText
 10
0.0
 20
-42.4504521621
 30
0.0
 40
2.6458333333
 41
0.0
 71
     1
 72
     1
  1
7. Non specified draft angle= 3°
  7
SLDTEXTSTYLE1
 73
     1
 44
1.0
  0
MTEXT
  5
1AB
330
19B
100
AcDbEntity
  8
DIE-CASTING
 62
     0
100
AcDbMText
 10
0.0
 20
-45.9782298972
 30
0.0
 40
2.6458333333
 41
0.0
 71
     1
 72
     1
  1
8. Finition : Barreling or Vibrating polish
  7
SLDTEXTSTYLE1
 73
     1
 44
1.0
  0
MTEXT
  5
1AC
330
19B
100
AcDbEntity
  8
DIE-CASTING
 62
     0
100
AcDbMText
 10
6.201171875
 20
-49.5060076323
 30
0.0
 40
2.6458333333
 41
0.0
 71
     1
 72
     1
  1
process
  7
SLDTEXTSTYLE1
 73
     1
 44
1.0
  0
MTEXT
  5
1AD
330
19B
100
AcDbEntity
  8
DIE-CASTING
 62
     0
100
AcDbMText
 10
6.3646989875
 20
-53.0444325841
 30
0.0
 40
2.6458333333
 41
0.0
 71
     1
 72
     1
  1
Optional : sand blasted
  7
SLDTEXTSTYLE1
 73
     1
 44
1.0
  0
MTEXT
  5
1AE
330
19B
100
AcDbEntity
  8
DIE-CASTING
 62
     0
100
AcDbMText
 10
0.0
 20
-60.0893408378
 30
0.0
 40
2.6458333333
 41
0.0
 71
     1
 72
     1
  1
9.     = Special Characteristic Dimension
  7
SLDTEXTSTYLE1
 73
     1
 44
1.0
  0
MTEXT
  5
1AF
330
19B
100
AcDbEntity
  8
DIE-CASTING
 62
     0
100
AcDbMText
 10
0.0
 20
-67.1448963081
 30
0.0
 40
2.6458333333
 41
0.0
 71
     1
 72
     1
  1
10.    = Dimension identification number for FAI
  7
SLDTEXTSTYLE1
 73
     1
 44
1.0
  0
MTEXT
  5
1B0
330
19B
100
AcDbEntity
  8
DIE-CASTING
 62
     0
100
AcDbMText
 10
0.0
 20
-74.2004517784
 30
0.0
 40
2.6458333333
 41
0.0
 71
     1
 72
     1
  1
11. Parts should be marked with:
  7
SLDTEXTSTYLE1
 73
     1
 44
1.0
  0
MTEXT
  5
1B1
330
19B
100
AcDbEntity
  8
DIE-CASTING
 62
     0
100
AcDbMText
 10
8.2682291667
 20
-77.7282295135
 30
0.0
 40
2.6458333333
 41
0.0
 71
     1
 72
     1
  1
SAP material number(see title bock)
  7
SLDTEXTSTYLE1
 73
     1
 44
1.0
  0
MTEXT
  5
1B2
330
19B
100
AcDbEntity
  8
DIE-CASTING
 62
     0
100
AcDbMText
 10
0.0
 20
-81.2560072486
 30
0.0
 40
2.6458333333
 41
0.0
 71
     1
 72
     1
  1
12. Marking location : see Drawing
  7
SLDTEXTSTYLE1
 73
     1
 44
1.0
  0
ENDBLK
  5
19D
330
19B
100
AcDbEntity
  8
0
100
AcDbBlockEnd
  0
BLOCK
  5
1B5
330
1B4
100
AcDbEntity
  8
0
100
AcDbBlockBegin
  2
SW_NOTE_17
 70
     0
 10
0.0
 20
0.0
 30
0.0
  3
SW_NOTE_17
  1
SW_NOTE_17
  0
CIRCLE
  5
1B7
330
1B4
100
AcDbEntity
  8
DIE-CASTING
 62
     0
100
AcDbCircle
 10
1.0607831646
 20
2.0386445182
 30
0.0
 40
3.000000000000003
  0
MTEXT
  5
1B8
330
1B4
100
AcDbEntity
  8
DIE-CASTING
 62
     0
100
AcDbMText
 10
0.0
 20
3.4106583948
 30
0.0
 40
2.6458333333
 41
0.0
 71
     1
 72
     1
  1
X
  7
SLDTEXTSTYLE1
 73
     1
 44
1.0
  0
ENDBLK
  5
1B6
330
1B4
100
AcDbEntity
  8
0
100
AcDbBlockEnd
  0
BLOCK
  5
1BB
330
1BA
100
AcDbEntity
  8
0
100
AcDbBlockBegin
  2
SW_NOTE_18
 70
     0
 10
0.0
 20
0.0
 30
0.0
  3
SW_NOTE_18
  1
SW_NOTE_18
  0
LINE
  5
1BD
330
1BA
100
AcDbEntity
  8
DIE-CASTING
 62
     0
100
AcDbLine
 10
-1.5144318185
 20
1.5984568408
 30
0.0
 11
2.3522348482
 21
5.4651235075
 31
0.0
  0
LINE
  5
1BE
330
1BA
100
AcDbEntity
  8
DIE-CASTING
 62
     0
100
AcDbLine
 10
2.3522348482
 20
5.4651235075
 30
0.0
 11
6.2189015148
 21
1.5984568408
 31
0.0
  0
LINE
  5
1BF
330
1BA
100
AcDbEntity
  8
DIE-CASTING
 62
     0
100
AcDbLine
 10
6.2189015148
 20
1.5984568408
 30
0.0
 11
2.3522348482
 21
-2.2682098258
 31
0.0
  0
LINE
  5
1C0
330
1BA
100
AcDbEntity
  8
DIE-CASTING
 62
     0
100
AcDbLine
 10
2.3522348482
 20
-2.2682098258
 30
0.0
 11
-1.5144318185
 21
1.5984568408
 31
0.0
  0
MTEXT
  5
1C1
330
1BA
100
AcDbEntity
  8
DIE-CASTING
 62
     0
100
AcDbMText
 10
0.0
 20
2.5781354795
 30
0.0
 40
2.0
 41
0.0
 71
     1
 72
     1
  1
SCx
  7
SLDTEXTSTYLE1
 73
     1
 44
1.0
  0
ENDBLK
  5
1BC
330
1BA
100
AcDbEntity
  8
0
100
AcDbBlockEnd
  0
BLOCK
  5
1C4
330
1C3
100
AcDbEntity
  8
0
100
AcDbBlockBegin
  2
SW_NOTE_19
 70
     0
 10
0.0
 20
0.0
 30
0.0
  3
SW_NOTE_19
  1
SW_NOTE_19
  0
MTEXT
  5
1C6
330
1C3
100
AcDbEntity
  8
TÔLERIE-USINAGE
 62
     0
100
AcDbMText
 10
22.32421875
 20
2.0463950369
 30
0.0
 40
1.5875
 41
0.0
 71
     3
 72
     1
  1
ISO 2768 : 1989 mK
  7
SLDTEXTSTYLE1
 73
     1
 44
1.0
  0
MTEXT
  5
1C7
330
1C3
100
AcDbEntity
  8
TÔLERIE-USINAGE
 62
     0
100
AcDbMText
 10
22.6185654104
 20
-0.0702716042
 30
0.0
 40
1.5875
 41
0.0
 71
     3
 72
     1
  1
threads :
  7
SLDTEXTSTYLE1
 73
     1
 44
1.0
  0
MTEXT
  5
1C8
330
1C3
100
AcDbEntity
  8
TÔLERIE-USINAGE
 62
     0
100
AcDbMText
 10
22.1606948972
 20
-2.1869382453
 30
0.0
 40
1.5875
 41
0.0
 71
     3
 72
     1
  1
6g/6H (ISO 965-1:1998)
  7
SLDTEXTSTYLE1
 73
     1
 44
1.0
  0
ENDBLK
  5
1C5
330
1C3
100
AcDbEntity
  8
0
100
AcDbBlockEnd
  0
BLOCK
  5
1CB
330
1CA
100
AcDbEntity
  8
0
100
AcDbBlockBegin
  2
SW_NOTE_20
 70
     0
 10
0.0
 20
0.0
 30
0.0
  3
SW_NOTE_20
  1
SW_NOTE_20
  0
MTEXT
  5
1CD
330
1CA
100
AcDbEntity
  8
TÔLERIE-USINAGE
 62
     0
100
AcDbMText
 10
0.0
 20
3.4106583948
 30
0.0
 40
2.6458333333
 41
0.0
 71
     1
 72
     1
  1
\LNotes:
  7
SLDTEXTSTYLE1
 73
     1
 44
1.0
  0
MTEXT
  5
1CE
330
1CA
100
AcDbEntity
  8
TÔLERIE-USINAGE
 62
     0
100
AcDbMText
 10
0.0
 20
-3.6448970755
 30
0.0
 40
2.6458333333
 41
0.0
 71
     1
 72
     1
  1
1. No change in production material shall be allowed
  7
SLDTEXTSTYLE1
 73
     1
 44
1.0
  0
MTEXT
  5
1CF
330
1CA
100
AcDbEntity
  8
TÔLERIE-USINAGE
 62
     0
100
AcDbMText
 10
6.201171875
 20
-7.1726748106
 30
0.0
 40
2.6458333333
 41
0.0
 71
     1
 72
     1
  1
without explicit prior written approval from Parrot
  7
SLDTEXTSTYLE1
 73
     1
 44
1.0
  0
MTEXT
  5
1D0
330
1CA
100
AcDbEntity
  8
TÔLERIE-USINAGE
 62
     0
100
AcDbMText
 10
0.0
 20
-10.7004525458
 30
0.0
 40
2.6458333333
 41
0.0
 71
     1
 72
     1
  1
2. Parts shall be free of sharp edges. Burrs shall
  7
SLDTEXTSTYLE1
 73
     1
 44
1.0
  0
MTEXT
  5
1D1
330
1CA
100
AcDbEntity
  8
TÔLERIE-USINAGE
 62
     0
100
AcDbMText
 10
6.201171875
 20
-14.2282302809
 30
0.0
 40
2.6458333333
 41
0.0
 71
     1
 72
     1
  1
not exceed 10% of material thickness.
  7
SLDTEXTSTYLE1
 73
     1
 44
1.0
  0
MTEXT
  5
1D2
330
1CA
100
AcDbEntity
  8
TÔLERIE-USINAGE
 62
     0
100
AcDbMText
 10
0.0
 20
-17.7560080161
 30
0.0
 40
2.6458333333
 41
0.0
 71
     1
 72
     1
  1
3. Burr side shall be on the inside of the part.
  7
SLDTEXTSTYLE1
 73
     1
 44
1.0
  0
MTEXT
  5
1D3
330
1CA
100
AcDbEntity
  8
TÔLERIE-USINAGE
 62
     0
100
AcDbMText
 10
0.0
 20
-21.2837857512
 30
0.0
 40
2.6458333333
 41
0.0
 71
     1
 72
     1
  1
4. Reference dimensions, shown in parantheses (DIM,
  7
SLDTEXTSTYLE1
 73
     1
 44
1.0
  0
MTEXT
  5
1D4
330
1CA
100
AcDbEntity
  8
TÔLERIE-USINAGE
 62
     0
100
AcDbMText
 10
6.201171875
 20
-24.8115634863
 30
0.0
 40
2.6458333333
 41
0.0
 71
     1
 72
     1
  1
are without tolerance and are for information
  7
SLDTEXTSTYLE1
 73
     1
 44
1.0
  0
MTEXT
  5
1D5
330
1CA
100
AcDbEntity
  8
TÔLERIE-USINAGE
 62
     0
100
AcDbMText
 10
6.201171875
 20
-28.3393412215
 30
0.0
 40
2.6458333333
 41
0.0
 71
     1
 72
     1
  1
purpose only.
  7
SLDTEXTSTYLE1
 73
     1
 44
1.0
  0
MTEXT
  5
1D6
330
1CA
100
AcDbEntity
  8
TÔLERIE-USINAGE
 62
     0
100
AcDbMText
 10
0.0
 20
-31.8671189566
 30
0.0
 40
2.6458333333
 41
0.0
 71
     1
 72
     1
  1
5. All geometry is to be derived from the CAD database.
  7
SLDTEXTSTYLE1
 73
     1
 44
1.0
  0
MTEXT
  5
1D7
330
1CA
100
AcDbEntity
  8
TÔLERIE-USINAGE
 62
     0
100
AcDbMText
 10
6.201171875
 20
-35.3948966918
 30
0.0
 40
2.6458333333
 41
0.0
 71
     1
 72
     1
  1
Critical to function dimensions called out on this
  7
SLDTEXTSTYLE1
 73
     1
 44
1.0
  0
MTEXT
  5
1D8
330
1CA
100
AcDbEntity
  8
TÔLERIE-USINAGE
 62
     0
100
AcDbMText
 10
6.201171875
 20
-38.9226744269
 30
0.0
 40
2.6458333333
 41
0.0
 71
     1
 72
     1
  1
drawing are only for inspection purposes.
  7
SLDTEXTSTYLE1
 73
     1
 44
1.0
  0
MTEXT
  5
1D9
330
1CA
100
AcDbEntity
  8
TÔLERIE-USINAGE
 62
     0
100
AcDbMText
 10
0.0
 20
-42.4504521621
 30
0.0
 40
2.6458333333
 41
0.0
 71
     1
 72
     1
  1
6. All inner bending radius indicated on the 2D/3D are
  7
SLDTEXTSTYLE1
 73
     1
 44
1.0
  0
MTEXT
  5
1DA
330
1CA
100
AcDbEntity
  8
TÔLERIE-USINAGE
 62
     0
100
AcDbMText
 10
6.201171875
 20
-45.9782298972
 30
0.0
 40
2.6458333333
 41
0.0
 71
     1
 72
     1
  1
maximum values (radius can be 0mm)
  7
SLDTEXTSTYLE1
 73
     1
 44
1.0
  0
MTEXT
  5
1DB
330
1CA
100
AcDbEntity
  8
TÔLERIE-USINAGE
 62
     0
100
AcDbMText
 10
0.0
 20
-53.0337853675
 30
0.0
 40
2.6458333333
 41
0.0
 71
     1
 72
     1
  1
7.    = Special Characteristic Dimension
  7
SLDTEXTSTYLE1
 73
     1
 44
1.0
  0
MTEXT
  5
1DC
330
1CA
100
AcDbEntity
  8
TÔLERIE-USINAGE
 62
     0
100
AcDbMText
 10
0.0
 20
-60.0893408378
 30
0.0
 40
2.6458333333
 41
0.0
 71
     1
 72
     1
  1
8.    = Dimension identification number for FAI
  7
SLDTEXTSTYLE1
 73
     1
 44
1.0
  0
MTEXT
  5
1DD
330
1CA
100
AcDbEntity
  8
TÔLERIE-USINAGE
 62
     0
100
AcDbMText
 10
0.0
 20
-67.1448963081
 30
0.0
 40
2.6458333333
 41
0.0
 71
     1
 72
     1
  1
9. Parts should be marked with:
  7
SLDTEXTSTYLE1
 73
     1
 44
1.0
  0
MTEXT
  5
1DE
330
1CA
100
AcDbEntity
  8
TÔLERIE-USINAGE
 62
     0
100
AcDbMText
 10
6.201171875
 20
-70.6726740432
 30
0.0
 40
2.6458333333
 41
0.0
 71
     1
 72
     1
  1
SAP material number(see title bock)
  7
SLDTEXTSTYLE1
 73
     1
 44
1.0
  0
MTEXT
  5
1DF
330
1CA
100
AcDbEntity
  8
TÔLERIE-USINAGE
 62
     0
100
AcDbMText
 10
0.0
 20
-74.2004517784
 30
0.0
 40
2.6458333333
 41
0.0
 71
     1
 72
     1
  1
10. Marking location : see Drawing
  7
SLDTEXTSTYLE1
 73
     1
 44
1.0
  0
ENDBLK
  5
1CC
330
1CA
100
AcDbEntity
  8
0
100
AcDbBlockEnd
  0
BLOCK
  5
1E2
330
1E1
100
AcDbEntity
  8
0
100
AcDbBlockBegin
  2
SW_NOTE_21
 70
     0
 10
0.0
 20
0.0
 30
0.0
  3
SW_NOTE_21
  1
SW_NOTE_21
  0
CIRCLE
  5
1E4
330
1E1
100
AcDbEntity
  8
TÔLERIE-USINAGE
 62
     0
100
AcDbCircle
 10
1.0607831646
 20
2.0386445182
 30
0.0
 40
3.000000000000003
  0
MTEXT
  5
1E5
330
1E1
100
AcDbEntity
  8
TÔLERIE-USINAGE
 62
     0
100
AcDbMText
 10
0.0
 20
3.4106583948
 30
0.0
 40
2.6458333333
 41
0.0
 71
     1
 72
     1
  1
X
  7
SLDTEXTSTYLE1
 73
     1
 44
1.0
  0
ENDBLK
  5
1E3
330
1E1
100
AcDbEntity
  8
0
100
AcDbBlockEnd
  0
BLOCK
  5
1E8
330
1E7
100
AcDbEntity
  8
0
100
AcDbBlockBegin
  2
SW_NOTE_22
 70
     0
 10
0.0
 20
0.0
 30
0.0
  3
SW_NOTE_22
  1
SW_NOTE_22
  0
LINE
  5
1EA
330
1E7
100
AcDbEntity
  8
TÔLERIE-USINAGE
 62
     0
100
AcDbLine
 10
-1.5528924551
 20
1.5984568408
 30
0.0
 11
2.3137742116
 21
5.4651235075
 31
0.0
  0
LINE
  5
1EB
330
1E7
100
AcDbEntity
  8
TÔLERIE-USINAGE
 62
     0
100
AcDbLine
 10
2.3137742116
 20
5.4651235075
 30
0.0
 11
6.1804408783
 21
1.5984568408
 31
0.0
  0
LINE
  5
1EC
330
1E7
100
AcDbEntity
  8
TÔLERIE-USINAGE
 62
     0
100
AcDbLine
 10
6.1804408783
 20
1.5984568408
 30
0.0
 11
2.3137742116
 21
-2.2682098258
 31
0.0
  0
LINE
  5
1ED
330
1E7
100
AcDbEntity
  8
TÔLERIE-USINAGE
 62
     0
100
AcDbLine
 10
2.3137742116
 20
-2.2682098258
 30
0.0
 11
-1.5528924551
 21
1.5984568408
 31
0.0
  0
MTEXT
  5
1EE
330
1E7
100
AcDbEntity
  8
TÔLERIE-USINAGE
 62
     0
100
AcDbMText
 10
0.0
 20
2.5781354795
 30
0.0
 40
2.0
 41
0.0
 71
     1
 72
     1
  1
SCx
  7
SLDTEXTSTYLE1
 73
     1
 44
1.0
  0
ENDBLK
  5
1E9
330
1E7
100
AcDbEntity
  8
0
100
AcDbBlockEnd
  0
BLOCK
  5
1F2
330
1F1
100
AcDbEntity
  8
0
100
AcDbBlockBegin
  2
SW_NOTE_23
 70
     0
 10
0.0
 20
0.0
 30
0.0
  3
SW_NOTE_23
  1
SW_NOTE_23
  0
MTEXT
  5
1F4
330
1F1
100
AcDbEntity
  8
SHIELD
 62
     0
100
AcDbMText
 10
0.0
 20
3.4106583948
 30
0.0
 40
2.6458333333
 41
0.0
 71
     1
 72
     1
  1
Notes:
  7
SLDTEXTSTYLE1
 73
     1
 44
1.0
  0
MTEXT
  5
1F5
330
1F1
100
AcDbEntity
  8
SHIELD
 62
     0
100
AcDbMText
 10
0.0
 20
-3.6448970755
 30
0.0
 40
2.6458333333
 41
0.0
 71
     1
 72
     1
  1
Material and finnish
  7
SLDTEXTSTYLE1
 73
     1
 44
1.0
  0
MTEXT
  5
1F6
330
1F1
100
AcDbEntity
  8
SHIELD
 62
     0
100
AcDbMText
 10
0.0
 20
-7.1726748106
 30
0.0
 40
2.6458333333
 41
0.0
 71
     1
 72
     1
  1
1. Material : CRS 1010, Tin coating #100 11.2/11.2
  7
SLDTEXTSTYLE1
 73
     1
 44
1.0
  0
MTEXT
  5
1F7
330
1F1
100
AcDbEntity
  8
SHIELD
 62
     0
100
AcDbMText
 10
0.0
 20
-10.7004525458
 30
0.0
 40
2.6458333333
 41
0.0
 71
     1
 72
     1
  1
2. No change in production material shall be allowed
  7
SLDTEXTSTYLE1
 73
     1
 44
1.0
  0
MTEXT
  5
1F8
330
1F1
100
AcDbEntity
  8
SHIELD
 62
     0
100
AcDbMText
 10
6.201171875
 20
-14.2282302809
 30
0.0
 40
2.6458333333
 41
0.0
 71
     1
 72
     1
  1
without explicit prior written approval from Parrot
  7
SLDTEXTSTYLE1
 73
     1
 44
1.0
  0
MTEXT
  5
1F9
330
1F1
100
AcDbEntity
  8
SHIELD
 62
     0
100
AcDbMText
 10
0.0
 20
-17.7560080161
 30
0.0
 40
2.6458333333
 41
0.0
 71
     1
 72
     1
  1
3. Parts shall be free of sharp edges. Burrs shall
  7
SLDTEXTSTYLE1
 73
     1
 44
1.0
  0
MTEXT
  5
1FA
330
1F1
100
AcDbEntity
  8
SHIELD
 62
     0
100
AcDbMText
 10
0.0
 20
-21.2837857512
 30
0.0
 40
2.6458333333
 41
0.0
 71
     1
 72
     1
  1
not exceed 7% of material thickness.
  7
SLDTEXTSTYLE1
 73
     1
 44
1.0
  0
MTEXT
  5
1FB
330
1F1
100
AcDbEntity
  8
SHIELD
 62
     0
100
AcDbMText
 10
0.0
 20
-24.8115634863
 30
0.0
 40
2.6458333333
 41
0.0
 71
     1
 72
     1
  1
4. Burr side shall be on the outside of the frame/inside
  7
SLDTEXTSTYLE1
 73
     1
 44
1.0
  0
MTEXT
  5
1FC
330
1F1
100
AcDbEntity
  8
SHIELD
 62
     0
100
AcDbMText
 10
6.201171875
 20
-28.3393412215
 30
0.0
 40
2.6458333333
 41
0.0
 71
     1
 72
     1
  1
of the lid.
  7
SLDTEXTSTYLE1
 73
     1
 44
1.0
  0
MTEXT
  5
1FD
330
1F1
100
AcDbEntity
  8
SHIELD
 62
     0
100
AcDbMText
 10
0.0
 20
-31.8671189566
 30
0.0
 40
2.6458333333
 41
0.0
 71
     1
 72
     1
  1
5. Reference dimensions, shown in parantheses (DIM),
  7
SLDTEXTSTYLE1
 73
     1
 44
1.0
  0
MTEXT
  5
1FE
330
1F1
100
AcDbEntity
  8
SHIELD
 62
     0
100
AcDbMText
 10
6.201171875
 20
-35.3948966918
 30
0.0
 40
2.6458333333
 41
0.0
 71
     1
 72
     1
  1
are without tolerance and are for information
  7
SLDTEXTSTYLE1
 73
     1
 44
1.0
  0
MTEXT
  5
1FF
330
1F1
100
AcDbEntity
  8
SHIELD
 62
     0
100
AcDbMText
 10
6.201171875
 20
-38.9226744269
 30
0.0
 40
2.6458333333
 41
0.0
 71
     1
 72
     1
  1
purpose only.
  7
SLDTEXTSTYLE1
 73
     1
 44
1.0
  0
MTEXT
  5
200
330
1F1
100
AcDbEntity
  8
SHIELD
 62
     0
100
AcDbMText
 10
0.0
 20
-42.4504521621
 30
0.0
 40
2.6458333333
 41
0.0
 71
     1
 72
     1
  1
6. All geometry is to be derived from the CAD database.
  7
SLDTEXTSTYLE1
 73
     1
 44
1.0
  0
MTEXT
  5
201
330
1F1
100
AcDbEntity
  8
SHIELD
 62
     0
100
AcDbMText
 10
6.201171875
 20
-45.9782298972
 30
0.0
 40
2.6458333333
 41
0.0
 71
     1
 72
     1
  1
Critical to function dimensions called out on this
  7
SLDTEXTSTYLE1
 73
     1
 44
1.0
  0
MTEXT
  5
202
330
1F1
100
AcDbEntity
  8
SHIELD
 62
     0
100
AcDbMText
 10
6.201171875
 20
-49.5060076323
 30
0.0
 40
2.6458333333
 41
0.0
 71
     1
 72
     1
  1
drawing are only for inspection purposes.
  7
SLDTEXTSTYLE1
 73
     1
 44
1.0
  0
MTEXT
  5
203
330
1F1
100
AcDbEntity
  8
SHIELD
 62
     0
100
AcDbMText
 10
0.0
 20
-56.5615631026
 30
0.0
 40
2.6458333333
 41
0.0
 71
     1
 72
     1
  1
Lid and Frame assembly and disassembly forces
  7
SLDTEXTSTYLE1
 73
     1
 44
1.0
  0
MTEXT
  5
204
330
1F1
100
AcDbEntity
  8
SHIELD
 62
     0
100
AcDbMText
 10
0.0
 20
-60.0893408378
 30
0.0
 40
2.6458333333
 41
0.0
 71
     1
 72
     1
  1
7. Assembly force should be less than 30N even on worse
  7
SLDTEXTSTYLE1
 73
     1
 44
1.0
  0
MTEXT
  5
205
330
1F1
100
AcDbEntity
  8
SHIELD
 62
     0
100
AcDbMText
 10
6.201171875
 20
-63.6171185729
 30
0.0
 40
2.6458333333
 41
0.0
 71
     1
 72
     1
  1
dimensional case.
  7
SLDTEXTSTYLE1
 73
     1
 44
1.0
  0
MTEXT
  5
206
330
1F1
100
AcDbEntity
  8
SHIELD
 62
     0
100
AcDbMText
 10
0.0
 20
-67.1448963081
 30
0.0
 40
2.6458333333
 41
0.0
 71
     1
 72
     1
  1
8. Disassembly force should be 30N minimum even on worse
  7
SLDTEXTSTYLE1
 73
     1
 44
1.0
  0
MTEXT
  5
207
330
1F1
100
AcDbEntity
  8
SHIELD
 62
     0
100
AcDbMText
 10
6.201171875
 20
-70.6726740432
 30
0.0
 40
2.6458333333
 41
0.0
 71
     1
 72
     1
  1
dimensional case.
  7
SLDTEXTSTYLE1
 73
     1
 44
1.0
  0
MTEXT
  5
208
330
1F1
100
AcDbEntity
  8
SHIELD
 62
     0
100
AcDbMText
 10
0.0
 20
-77.7282295135
 30
0.0
 40
2.6458333333
 41
0.0
 71
     1
 72
     1
  1
Packaging
  7
SLDTEXTSTYLE1
 73
     1
 44
1.0
  0
MTEXT
  5
209
330
1F1
100
AcDbEntity
  8
SHIELD
 62
     0
100
AcDbMText
 10
0.0
 20
-81.2560072486
 30
0.0
 40
2.6458333333
 41
0.0
 71
     1
 72
     1
  1
9. All parts must be cleaned, degreased and dried before
  7
SLDTEXTSTYLE1
 73
     1
 44
1.0
  0
MTEXT
  5
20A
330
1F1
100
AcDbEntity
  8
SHIELD
 62
     0
100
AcDbMText
 10
6.201171875
 20
-84.7837849838
 30
0.0
 40
2.6458333333
 41
0.0
 71
     1
 72
     1
  1
packing.
  7
SLDTEXTSTYLE1
 73
     1
 44
1.0
  0
MTEXT
  5
20B
330
1F1
100
AcDbEntity
  8
SHIELD
 62
     0
100
AcDbMText
 10
0.0
 20
-88.3115627189
 30
0.0
 40
2.6458333333
 41
0.0
 71
     1
 72
     1
  1
10. Packaging material: TBD
  7
SLDTEXTSTYLE1
 73
     1
 44
1.0
  0
MTEXT
  5
20C
330
1F1
100
AcDbEntity
  8
SHIELD
 62
     0
100
AcDbMText
 10
0.0
 20
-95.3671181892
 30
0.0
 40
2.6458333333
 41
0.0
 71
     1
 72
     1
  1
Marking
  7
SLDTEXTSTYLE1
 73
     1
 44
1.0
  0
MTEXT
  5
20D
330
1F1
100
AcDbEntity
  8
SHIELD
 62
     0
100
AcDbMText
 10
0.0
 20
-98.8948959244
 30
0.0
 40
2.6458333333
 41
0.0
 71
     1
 72
     1
  1
11. Lowered or printed text. Text size = 1mm
  7
SLDTEXTSTYLE1
 73
     1
 44
1.0
  0
MTEXT
  5
20E
330
1F1
100
AcDbEntity
  8
SHIELD
 62
     0
100
AcDbMText
 10
0.0
 20
-102.4226736595
 30
0.0
 40
2.6458333333
 41
0.0
 71
     1
 72
     1
  1
12. Parts should be marked with:
  7
SLDTEXTSTYLE1
 73
     1
 44
1.0
  0
MTEXT
  5
20F
330
1F1
100
AcDbEntity
  8
SHIELD
 62
     0
100
AcDbMText
 10
8.2682291667
 20
-105.9504513946
 30
0.0
 40
2.6458333333
 41
0.0
 71
     1
 72
     1
  1
SAP Material Number (See title block)
  7
SLDTEXTSTYLE1
 73
     1
 44
1.0
  0
MTEXT
  5
210
330
1F1
100
AcDbEntity
  8
SHIELD
 62
     0
100
AcDbMText
 10
0.0
 20
-109.4782291298
 30
0.0
 40
2.6458333333
 41
0.0
 71
     1
 72
     1
  1
13. Marking location : see Drawing
  7
SLDTEXTSTYLE1
 73
     1
 44
1.0
  0
MTEXT
  5
211
330
1F1
100
AcDbEntity
  8
SHIELD
 62
     0
100
AcDbMText
 10
0.0
 20
-116.5337846001
 30
0.0
 40
2.6458333333
 41
0.0
 71
     1
 72
     1
  1
14.     = Special Characteristic Dimension
  7
SLDTEXTSTYLE1
 73
     1
 44
1.0
  0
MTEXT
  5
212
330
1F1
100
AcDbEntity
  8
SHIELD
 62
     0
100
AcDbMText
 10
0.0
 20
-123.5893400704
 30
0.0
 40
2.6458333333
 41
0.0
 71
     1
 72
     1
  1
15.     = Dimension identification number for FAI
  7
SLDTEXTSTYLE1
 73
     1
 44
1.0
  0
ENDBLK
  5
1F3
330
1F1
100
AcDbEntity
  8
0
100
AcDbBlockEnd
  0
BLOCK
  5
215
330
214
100
AcDbEntity
  8
0
100
AcDbBlockBegin
  2
SW_NOTE_24
 70
     0
 10
0.0
 20
0.0
 30
0.0
  3
SW_NOTE_24
  1
SW_NOTE_24
  0
CIRCLE
  5
217
330
214
100
AcDbEntity
  8
SHIELD
 62
     0
100
AcDbCircle
 10
1.0607831646
 20
2.0386445182
 30
0.0
 40
3.000000000000003
  0
MTEXT
  5
218
330
214
100
AcDbEntity
  8
SHIELD
 62
     0
100
AcDbMText
 10
0.0
 20
3.4106583948
 30
0.0
 40
2.6458333333
 41
0.0
 71
     1
 72
     1
  1
X
  7
SLDTEXTSTYLE1
 73
     1
 44
1.0
  0
ENDBLK
  5
216
330
214
100
AcDbEntity
  8
0
100
AcDbBlockEnd
  0
BLOCK
  5
21B
330
21A
100
AcDbEntity
  8
0
100
AcDbBlockBegin
  2
SW_NOTE_25
 70
     0
 10
0.0
 20
0.0
 30
0.0
  3
SW_NOTE_25
  1
SW_NOTE_25
  0
LINE
  5
21D
330
21A
100
AcDbEntity
  8
SHIELD
 62
     0
100
AcDbLine
 10
-1.6266108636
 20
1.6052830704
 30
0.0
 11
2.3067224697
 21
5.5386164037
 31
0.0
  0
LINE
  5
21E
330
21A
100
AcDbEntity
  8
SHIELD
 62
     0
100
AcDbLine
 10
2.3067224697
 20
5.5386164037
 30
0.0
 11
6.240055803
 21
1.6052830704
 31
0.0
  0
LINE
  5
21F
330
21A
100
AcDbEntity
  8
SHIELD
 62
     0
100
AcDbLine
 10
6.240055803
 20
1.6052830704
 30
0.0
 11
2.3067224697
 21
-2.3280502629
 31
0.0
  0
LINE
  5
220
330
21A
100
AcDbEntity
  8
SHIELD
 62
     0
100
AcDbLine
 10
2.3067224697
 20
-2.3280502629
 30
0.0
 11
-1.6266108636
 21
1.6052830704
 31
0.0
  0
MTEXT
  5
221
330
21A
100
AcDbEntity
  8
SHIELD
 62
     0
100
AcDbMText
 10
0.0
 20
2.5781354795
 30
0.0
 40
2.0
 41
0.0
 71
     1
 72
     1
  1
SCx
  7
SLDTEXTSTYLE1
 73
     1
 44
1.0
  0
ENDBLK
  5
21C
330
21A
100
AcDbEntity
  8
0
100
AcDbBlockEnd
  0
BLOCK
  5
224
330
223
100
AcDbEntity
  8
0
100
AcDbBlockBegin
  2
SW_NOTE_26
 70
     0
 10
0.0
 20
0.0
 30
0.0
  3
SW_NOTE_26
  1
SW_NOTE_26
  0
INSERT
  5
22C
330
223
100
AcDbEntity
  8
ASSEMBLY
 62
     0
100
AcDbBlockReference
  2
SW_SYMBOL_GTOL_POSI
 10
0.0
 20
0.1673200514
 30
0.0
 41
0.0013929734
 42
0.0013929734
 43
0.0013929734
  0
MTEXT
  5
22E
330
223
100
AcDbEntity
  8
ASSEMBLY
 62
     0
100
AcDbMText
 10
2.7061975561
 20
1.3642633579
 30
0.0
 40
1.0583333333
 41
0.0
 71
     1
 72
     1
  1
3 X Y Z
  7
SLDTEXTSTYLE5
 73
     1
 44
1.0
  0
ENDBLK
  5
225
330
223
100
AcDbEntity
  8
0
100
AcDbBlockEnd
  0
BLOCK
  5
227
330
226
100
AcDbEntity
  8
0
100
AcDbBlockBegin
  2
SW_SYMBOL_GTOL_POSI
 70
     0
 10
0.0
 20
0.0
 30
0.0
  3
SW_SYMBOL_GTOL_POSI
  1
SW_SYMBOL_GTOL_POSI
  0
CIRCLE
  5
229
330
226
100
AcDbEntity
  8
ASSEMBLY
 62
     0
100
AcDbCircle
 10
750.0
 20
500.0
 30
0.0
 40
500.0
  0
LINE
  5
22A
330
226
100
AcDbEntity
  8
ASSEMBLY
 62
     0
100
AcDbLine
 10
0.0
 20
500.0
 30
0.0
 11
1500.0
 21
500.0
 31
0.0
  0
LINE
  5
22B
330
226
100
AcDbEntity
  8
ASSEMBLY
 62
     0
100
AcDbLine
 10
750.0
 20
-250.0
 30
0.0
 11
750.0
 21
1250.0
 31
0.0
  0
ENDBLK
  5
228
330
226
100
AcDbEntity
  8
0
100
AcDbBlockEnd
  0
BLOCK
  5
231
330
230
100
AcDbEntity
  8
0
100
AcDbBlockBegin
  2
SW_NOTE_27
 70
     0
 10
0.0
 20
0.0
 30
0.0
  3
SW_NOTE_27
  1
SW_NOTE_27
  0
INSERT
  5
237
330
230
100
AcDbEntity
  8
ASSEMBLY
 62
     0
100
AcDbBlockReference
  2
SW_SYMBOL_GTOL_LPROF
 10
0.0
 20
0.1254900386
 30
0.0
 41
0.0010447301
 42
0.0010447301
 43
0.0010447301
  0
MTEXT
  5
238
330
230
100
AcDbEntity
  8
ASSEMBLY
 62
     0
100
AcDbMText
 10
2.6639131829
 20
1.2809686026
 30
0.0
 40
1.0583333333
 41
0.0
 71
     1
 72
     1
  1
3 X Y Z
  7
SLDTEXTSTYLE5
 73
     1
 44
1.0
  0
ENDBLK
  5
232
330
230
100
AcDbEntity
  8
0
100
AcDbBlockEnd
  0
BLOCK
  5
234
330
233
100
AcDbEntity
  8
0
100
AcDbBlockBegin
  2
SW_SYMBOL_GTOL_LPROF
 70
     0
 10
0.0
 20
0.0
 30
0.0
  3
SW_SYMBOL_GTOL_LPROF
  1
SW_SYMBOL_GTOL_LPROF
  0
ARC
  5
236
330
233
100
AcDbEntity
  8
ASSEMBLY
 62
     0
100
AcDbCircle
 10
1000.0
 20
0.0
 30
0.0
 40
1000.0
100
AcDbArc
 50
0.0
 51
180.0
  0
ENDBLK
  5
235
330
233
100
AcDbEntity
  8
0
100
AcDbBlockEnd
  0
BLOCK
  5
23B
330
23A
100
AcDbEntity
  8
0
100
AcDbBlockBegin
  2
SW_NOTE_28
 70
     0
 10
0.0
 20
0.0
 30
0.0
  3
SW_NOTE_28
  1
SW_NOTE_28
  0
INSERT
  5
242
330
23A
100
AcDbEntity
  8
ASSEMBLY
 62
     0
100
AcDbBlockReference
  2
SW_SYMBOL_GTOL_SPROF
 10
0.0
 20
0.1254900386
 30
0.0
 41
0.0010447301
 42
0.0010447301
 43
0.0010447301
  0
MTEXT
  5
243
330
23A
100
AcDbEntity
  8
ASSEMBLY
 62
     0
100
AcDbMText
 10
2.6639131829
 20
1.2809686026
 30
0.0
 40
1.0583333333
 41
0.0
 71
     1
 72
     1
  1
3 X Y Z
  7
SLDTEXTSTYLE5
 73
     1
 44
1.0
  0
ENDBLK
  5
23C
330
23A
100
AcDbEntity
  8
0
100
AcDbBlockEnd
  0
BLOCK
  5
23E
330
23D
100
AcDbEntity
  8
0
100
AcDbBlockBegin
  2
SW_SYMBOL_GTOL_SPROF
 70
     0
 10
0.0
 20
0.0
 30
0.0
  3
SW_SYMBOL_GTOL_SPROF
  1
SW_SYMBOL_GTOL_SPROF
  0
ARC
  5
240
330
23D
100
AcDbEntity
  8
ASSEMBLY
 62
     0
100
AcDbCircle
 10
1000.0
 20
0.0
 30
0.0
 40
1000.0
100
AcDbArc
 50
0.0
 51
180.0
  0
LINE
  5
241
330
23D
100
AcDbEntity
  8
ASSEMBLY
 62
     0
100
AcDbLine
 10
0.0
 20
0.0
 30
0.0
 11
2000.0
 21
0.0
 31
0.0
  0
ENDBLK
  5
23F
330
23D
100
AcDbEntity
  8
0
100
AcDbBlockEnd
  0
BLOCK
  5
2CE
330
2CD
100
AcDbEntity
  8
0
100
AcDbBlockBegin
  2
_D
 70
     0
 10
0.0
 20
0.0
 30
0.0
  3
_D
  1
_D
  0
SOLID
  5
2D0
330
2CD
100
AcDbEntity
  8
DESSIN
 62
     7
100
AcDbTrace
 10
93.3323612906
 20
233.8131786497
 30
0.0
 11
96.6343612906
 21
233.3051786497
 31
0.0
 12
96.6343612906
 22
234.3211786497
 32
0.0
 13
96.6343612906
 23
234.3211786497
 33
0.0
  0
SOLID
  5
2D1
330
2CD
100
AcDbEntity
  8
DESSIN
 62
     7
100
AcDbTrace
 10
313.3323612906
 20
233.8131786497
 30
0.0
 11
310.0303612906
 21
234.3211786497
 31
0.0
 12
310.0303612906
 22
233.3051786497
 32
0.0
 13
310.0303612906
 23
233.3051786497
 33
0.0
  0
LINE
  5
2D2
330
2CD
100
AcDbEntity
  8
DESSIN
 62
     7
100
AcDbLine
 10
93.3323612906
 20
199.8535435661
 30
0.0
 11
93.3323612906
 21
234.8131786497
 31
0.0
  0
LINE
  5
2D3
330
2CD
100
AcDbEntity
  8
DESSIN
 62
     7
100
AcDbLine
 10
313.3323612906
 20
199.8535435661
 30
0.0
 11
313.3323612906
 21
234.8131786497
 31
0.0
  0
LINE
  5
2D4
330
2CD
100
AcDbEntity
  8
DESSIN
 62
     7
100
AcDbLine
 10
93.3323612906
 20
233.8131786497
 30
0.0
 11
313.3323612906
 21
233.8131786497
 31
0.0
  0
MTEXT
  5
2D5
330
2CD
100
AcDbEntity
  8
DESSIN
 62
     7
100
AcDbMText
 10
200.0839339719
 20
238.3249155642
 30
0.0
 40
3.5
 41
0.0
 71
     1
 72
     1
  1
220
  7
SLDTEXTSTYLE0
 73
     1
 44
1.0
  0
ENDBLK
  5
2CF
330
2CD
100
AcDbEntity
  8
0
100
AcDbBlockEnd
  0
BLOCK
  5
2D8
330
2D7
100
AcDbEntity
  8
0
100
AcDbBlockBegin
  2
_D_1
 70
     0
 10
0.0
 20
0.0
 30
0.0
  3
_D_1
  1
_D_1
  0
SOLID
  5
2DA
330
2D7
100
AcDbEntity
  8
DESSIN
 62
     7
100
AcDbTrace
 10
53.3323612906
 20
217.8131786497
 30
0.0
 11
52.8243612906
 21
214.5111786497
 31
0.0
 12
53.8403612906
 22
214.5111786497
 32
0.0
 13
53.8403612906
 23
214.5111786497
 33
0.0
  0
SOLID
  5
2DB
330
2D7
100
AcDbEntity
  8
DESSIN
 62
     7
100
AcDbTrace
 10
53.3323612906
 20
115.6753008957
 30
0.0
 11
53.8403612906
 21
118.9773008957
 31
0.0
 12
52.8243612906
 22
118.9773008957
 32
0.0
 13
52.8243612906
 23
118.9773008957
 33
0.0
  0
LINE
  5
2DC
330
2D7
100
AcDbEntity
  8
DESSIN
 62
     7
100
AcDbLine
 10
197.246574853
 20
217.8131786497
 30
0.0
 11
52.3323612906
 21
217.8131786497
 31
0.0
  0
LINE
  5
2DD
330
2D7
100
AcDbEntity
  8
DESSIN
 62
     7
100
AcDbLine
 10
143.3323612906
 20
115.6753008957
 30
0.0
 11
52.3323612906
 21
115.6753008957
 31
0.0
  0
LINE
  5
2DE
330
2D7
100
AcDbEntity
  8
DESSIN
 62
     7
100
AcDbLine
 10
53.3323612906
 20
217.8131786497
 30
0.0
 11
53.3323612906
 21
115.6753008957
 31
0.0
  0
MTEXT
  5
2DF
330
2D7
100
AcDbEntity
  8
DESSIN
 62
     7
100
AcDbMText
 10
48.8206243761
 20
161.8934472692
 30
0.0
 40
3.5
 41
0.0
 71
     1
 72
     1
  1
102,14
  7
SLDTEXTSTYLE0
 11
-6.156016597943509E-15
 21
1.0
 31
0.0
 73
     1
 44
1.0
  0
ENDBLK
  5
2D9
330
2D7
100
AcDbEntity
  8
0
100
AcDbBlockEnd
  0
BLOCK
  5
2E1
330
2E0
100
AcDbEntity
  8
0
100
AcDbBlockBegin
  2
SW_CENTERMARKSYMBOL_0
 70
     0
 10
0.0
 20
0.0
 30
0.0
  3
SW_CENTERMARKSYMBOL_0
  1
SW_CENTERMARKSYMBOL_0
  0
LINE
  5
2E3
330
2E0
100
AcDbEntity
  8
DESSIN
 62
     0
100
AcDbLine
 10
0.0
 20
0.0
 30
0.0
 11
0.0
 21
2.5
 31
0.0
  0
LINE
  5
2E4
330
2E0
100
AcDbEntity
  8
DESSIN
 62
     0
100
AcDbLine
 10
0.0
 20
0.0
 30
0.0
 11
-2.5
 21
0.0
 31
0.0
  0
LINE
  5
2E5
330
2E0
100
AcDbEntity
  8
DESSIN
 62
     0
100
AcDbLine
 10
0.0
 20
0.0
 30
0.0
 11
0.0
 21
-2.5
 31
0.0
  0
LINE
  5
2E6
330
2E0
100
AcDbEntity
  8
DESSIN
 62
     0
100
AcDbLine
 10
0.0
 20
0.0
 30
0.0
 11
2.5
 21
0.0
 31
0.0
  0
LINE
  5
2E7
330
2E0
100
AcDbEntity
  8
DESSIN
 62
     0
100
AcDbLine
 10
0.0
 20
5.0
 30
0.0
 11
0.0
 21
6.4
 31
0.0
  0
LINE
  5
2E8
330
2E0
100
AcDbEntity
  8
DESSIN
 62
     0
100
AcDbLine
 10
-5.0
 20
0.0
 30
0.0
 11
-6.4
 21
0.0
 31
0.0
  0
LINE
  5
2E9
330
2E0
100
AcDbEntity
  8
DESSIN
 62
     0
100
AcDbLine
 10
0.0
 20
-5.0
 30
0.0
 11
0.0
 21
-6.4
 31
0.0
  0
LINE
  5
2EA
330
2E0
100
AcDbEntity
  8
DESSIN
 62
     0
100
AcDbLine
 10
5.0
 20
0.0
 30
0.0
 11
6.4
 21
0.0
 31
0.0
  0
ENDBLK
  5
2E2
330
2E0
100
AcDbEntity
  8
0
100
AcDbBlockEnd
  0
BLOCK
  5
2ED
330
2EC
100
AcDbEntity
  8
0
100
AcDbBlockBegin
  2
SW_CENTERMARKSYMBOL_1
 70
     0
 10
0.0
 20
0.0
 30
0.0
  3
SW_CENTERMARKSYMBOL_1
  1
SW_CENTERMARKSYMBOL_1
  0
LINE
  5
2EF
330
2EC
100
AcDbEntity
  8
DESSIN
 62
     0
100
AcDbLine
 10
0.0
 20
0.0
 30
0.0
 11
0.0
 21
2.5
 31
0.0
  0
LINE
  5
2F0
330
2EC
100
AcDbEntity
  8
DESSIN
 62
     0
100
AcDbLine
 10
0.0
 20
0.0
 30
0.0
 11
-2.5
 21
0.0
 31
0.0
  0
LINE
  5
2F1
330
2EC
100
AcDbEntity
  8
DESSIN
 62
     0
100
AcDbLine
 10
0.0
 20
0.0
 30
0.0
 11
0.0
 21
-2.5
 31
0.0
  0
LINE
  5
2F2
330
2EC
100
AcDbEntity
  8
DESSIN
 62
     0
100
AcDbLine
 10
0.0
 20
0.0
 30
0.0
 11
2.5
 21
0.0
 31
0.0
  0
LINE
  5
2F3
330
2EC
100
AcDbEntity
  8
DESSIN
 62
     0
100
AcDbLine
 10
0.0
 20
5.0
 30
0.0
 11
0.0
 21
6.4
 31
0.0
  0
LINE
  5
2F4
330
2EC
100
AcDbEntity
  8
DESSIN
 62
     0
100
AcDbLine
 10
-5.0
 20
0.0
 30
0.0
 11
-6.4
 21
0.0
 31
0.0
  0
LINE
  5
2F5
330
2EC
100
AcDbEntity
  8
DESSIN
 62
     0
100
AcDbLine
 10
0.0
 20
-5.0
 30
0.0
 11
0.0
 21
-6.4
 31
0.0
  0
LINE
  5
2F6
330
2EC
100
AcDbEntity
  8
DESSIN
 62
     0
100
AcDbLine
 10
5.0
 20
0.0
 30
0.0
 11
6.4
 21
0.0
 31
0.0
  0
ENDBLK
  5
2EE
330
2EC
100
AcDbEntity
  8
0
100
AcDbBlockEnd
  0
BLOCK
  5
2F9
330
2F8
100
AcDbEntity
  8
0
100
AcDbBlockBegin
  2
SW_CENTERMARKSYMBOL_2
 70
     0
 10
0.0
 20
0.0
 30
0.0
  3
SW_CENTERMARKSYMBOL_2
  1
SW_CENTERMARKSYMBOL_2
  0
LINE
  5
2FB
330
2F8
100
AcDbEntity
  8
DESSIN
 62
     0
100
AcDbLine
 10
0.0
 20
0.0
 30
0.0
 11
0.0
 21
2.5
 31
0.0
  0
LINE
  5
2FC
330
2F8
100
AcDbEntity
  8
DESSIN
 62
     0
100
AcDbLine
 10
0.0
 20
0.0
 30
0.0
 11
-2.5
 21
0.0
 31
0.0
  0
LINE
  5
2FD
330
2F8
100
AcDbEntity
  8
DESSIN
 62
     0
100
AcDbLine
 10
0.0
 20
0.0
 30
0.0
 11
0.0
 21
-2.5
 31
0.0
  0
LINE
  5
2FE
330
2F8
100
AcDbEntity
  8
DESSIN
 62
     0
100
AcDbLine
 10
0.0
 20
0.0
 30
0.0
 11
2.5
 21
0.0
 31
0.0
  0
LINE
  5
2FF
330
2F8
100
AcDbEntity
  8
DESSIN
 62
     0
100
AcDbLine
 10
0.0
 20
5.0
 30
0.0
 11
0.0
 21
5.75
 31
0.0
  0
LINE
  5
300
330
2F8
100
AcDbEntity
  8
DESSIN
 62
     0
100
AcDbLine
 10
-5.0
 20
0.0
 30
0.0
 11
-5.75
 21
0.0
 31
0.0
  0
LINE
  5
301
330
2F8
100
AcDbEntity
  8
DESSIN
 62
     0
100
AcDbLine
 10
0.0
 20
-5.0
 30
0.0
 11
0.0
 21
-5.75
 31
0.0
  0
LINE
  5
302
330
2F8
100
AcDbEntity
  8
DESSIN
 62
     0
100
AcDbLine
 10
5.0
 20
0.0
 30
0.0
 11
5.75
 21
0.0
 31
0.0
  0
ENDBLK
  5
2FA
330
2F8
100
AcDbEntity
  8
0
100
AcDbBlockEnd
  0
BLOCK
  5
305
330
304
100
AcDbEntity
  8
0
100
AcDbBlockBegin
  2
SW_CENTERMARKSYMBOL_3
 70
     0
 10
0.0
 20
0.0
 30
0.0
  3
SW_CENTERMARKSYMBOL_3
  1
SW_CENTERMARKSYMBOL_3
  0
LINE
  5
307
330
304
100
AcDbEntity
  8
DESSIN
 62
     0
100
AcDbLine
 10
0.0
 20
0.0
 30
0.0
 11
0.0
 21
2.5
 31
0.0
  0
LINE
  5
308
330
304
100
AcDbEntity
  8
DESSIN
 62
     0
100
AcDbLine
 10
0.0
 20
0.0
 30
0.0
 11
-2.5
 21
0.0
 31
0.0
  0
LINE
  5
309
330
304
100
AcDbEntity
  8
DESSIN
 62
     0
100
AcDbLine
 10
0.0
 20
0.0
 30
0.0
 11
0.0
 21
-2.5
 31
0.0
  0
LINE
  5
30A
330
304
100
AcDbEntity
  8
DESSIN
 62
     0
100
AcDbLine
 10
0.0
 20
0.0
 30
0.0
 11
2.5
 21
0.0
 31
0.0
  0
LINE
  5
30B
330
304
100
AcDbEntity
  8
DESSIN
 62
     0
100
AcDbLine
 10
0.0
 20
5.0
 30
0.0
 11
0.0
 21
5.75
 31
0.0
  0
LINE
  5
30C
330
304
100
AcDbEntity
  8
DESSIN
 62
     0
100
AcDbLine
 10
-5.0
 20
0.0
 30
0.0
 11
-5.75
 21
0.0
 31
0.0
  0
LINE
  5
30D
330
304
100
AcDbEntity
  8
DESSIN
 62
     0
100
AcDbLine
 10
0.0
 20
-5.0
 30
0.0
 11
0.0
 21
-5.75
 31
0.0
  0
LINE
  5
30E
330
304
100
AcDbEntity
  8
DESSIN
 62
     0
100
AcDbLine
 10
5.0
 20
0.0
 30
0.0
 11
5.75
 21
0.0
 31
0.0
  0
ENDBLK
  5
306
330
304
100
AcDbEntity
  8
0
100
AcDbBlockEnd
  0
BLOCK
  5
311
330
310
100
AcDbEntity
  8
0
100
AcDbBlockBegin
  2
SW_CENTERMARKSYMBOL_4
 70
     0
 10
0.0
 20
0.0
 30
0.0
  3
SW_CENTERMARKSYMBOL_4
  1
SW_CENTERMARKSYMBOL_4
  0
LINE
  5
313
330
310
100
AcDbEntity
  8
DESSIN
 62
     0
100
AcDbLine
 10
0.0
 20
0.0
 30
0.0
 11
0.0
 21
2.5
 31
0.0
  0
LINE
  5
314
330
310
100
AcDbEntity
  8
DESSIN
 62
     0
100
AcDbLine
 10
0.0
 20
0.0
 30
0.0
 11
-2.5
 21
0.0
 31
0.0
  0
LINE
  5
315
330
310
100
AcDbEntity
  8
DESSIN
 62
     0
100
AcDbLine
 10
0.0
 20
0.0
 30
0.0
 11
0.0
 21
-2.5
 31
0.0
  0
LINE
  5
316
330
310
100
AcDbEntity
  8
DESSIN
 62
     0
100
AcDbLine
 10
0.0
 20
0.0
 30
0.0
 11
2.5
 21
0.0
 31
0.0
  0
LINE
  5
317
330
310
100
AcDbEntity
  8
DESSIN
 62
     0
100
AcDbLine
 10
0.0
 20
5.0
 30
0.0
 11
0.0
 21
6.0
 31
0.0
  0
LINE
  5
318
330
310
100
AcDbEntity
  8
DESSIN
 62
     0
100
AcDbLine
 10
-5.0
 20
0.0
 30
0.0
 11
-6.0
 21
0.0
 31
0.0
  0
LINE
  5
319
330
310
100
AcDbEntity
  8
DESSIN
 62
     0
100
AcDbLine
 10
0.0
 20
-5.0
 30
0.0
 11
0.0
 21
-6.0
 31
0.0
  0
LINE
  5
31A
330
310
100
AcDbEntity
  8
DESSIN
 62
     0
100
AcDbLine
 10
5.0
 20
0.0
 30
0.0
 11
6.0
 21
0.0
 31
0.0
  0
ENDBLK
  5
312
330
310
100
AcDbEntity
  8
0
100
AcDbBlockEnd
  0
BLOCK
  5
31D
330
31C
100
AcDbEntity
  8
0
100
AcDbBlockBegin
  2
SW_CENTERMARKSYMBOL_5
 70
     0
 10
0.0
 20
0.0
 30
0.0
  3
SW_CENTERMARKSYMBOL_5
  1
SW_CENTERMARKSYMBOL_5
  0
LINE
  5
31F
330
31C
100
AcDbEntity
  8
DESSIN
 62
     0
100
AcDbLine
 10
0.0
 20
0.0
 30
0.0
 11
0.0
 21
2.5
 31
0.0
  0
LINE
  5
320
330
31C
100
AcDbEntity
  8
DESSIN
 62
     0
100
AcDbLine
 10
0.0
 20
0.0
 30
0.0
 11
-2.5
 21
0.0
 31
0.0
  0
LINE
  5
321
330
31C
100
AcDbEntity
  8
DESSIN
 62
     0
100
AcDbLine
 10
0.0
 20
0.0
 30
0.0
 11
0.0
 21
-2.5
 31
0.0
  0
LINE
  5
322
330
31C
100
AcDbEntity
  8
DESSIN
 62
     0
100
AcDbLine
 10
0.0
 20
0.0
 30
0.0
 11
2.5
 21
0.0
 31
0.0
  0
LINE
  5
323
330
31C
100
AcDbEntity
  8
DESSIN
 62
     0
100
AcDbLine
 10
0.0
 20
2.5
 30
0.0
 11
0.0
 21
4.75
 31
0.0
  0
LINE
  5
324
330
31C
100
AcDbEntity
  8
DESSIN
 62
     0
100
AcDbLine
 10
-2.5
 20
0.0
 30
0.0
 11
-4.75
 21
0.0
 31
0.0
  0
LINE
  5
325
330
31C
100
AcDbEntity
  8
DESSIN
 62
     0
100
AcDbLine
 10
0.0
 20
-2.5
 30
0.0
 11
0.0
 21
-4.75
 31
0.0
  0
LINE
  5
326
330
31C
100
AcDbEntity
  8
DESSIN
 62
     0
100
AcDbLine
 10
2.5
 20
0.0
 30
0.0
 11
4.75
 21
0.0
 31
0.0
  0
ENDBLK
  5
31E
330
31C
100
AcDbEntity
  8
0
100
AcDbBlockEnd
  0
BLOCK
  5
329
330
328
100
AcDbEntity
  8
0
100
AcDbBlockBegin
  2
SW_CENTERMARKSYMBOL_6
 70
     0
 10
0.0
 20
0.0
 30
0.0
  3
SW_CENTERMARKSYMBOL_6
  1
SW_CENTERMARKSYMBOL_6
  0
LINE
  5
32B
330
328
100
AcDbEntity
  8
DESSIN
 62
     0
100
AcDbLine
 10
0.0
 20
0.0
 30
0.0
 11
0.0
 21
2.5
 31
0.0
  0
LINE
  5
32C
330
328
100
AcDbEntity
  8
DESSIN
 62
     0
100
AcDbLine
 10
0.0
 20
0.0
 30
0.0
 11
-2.5
 21
0.0
 31
0.0
  0
LINE
  5
32D
330
328
100
AcDbEntity
  8
DESSIN
 62
     0
100
AcDbLine
 10
0.0
 20
0.0
 30
0.0
 11
0.0
 21
-2.5
 31
0.0
  0
LINE
  5
32E
330
328
100
AcDbEntity
  8
DESSIN
 62
     0
100
AcDbLine
 10
0.0
 20
0.0
 30
0.0
 11
2.5
 21
0.0
 31
0.0
  0
LINE
  5
32F
330
328
100
AcDbEntity
  8
DESSIN
 62
     0
100
AcDbLine
 10
0.0
 20
2.5
 30
0.0
 11
0.0
 21
4.75
 31
0.0
  0
LINE
  5
330
330
328
100
AcDbEntity
  8
DESSIN
 62
     0
100
AcDbLine
 10
-2.5
 20
0.0
 30
0.0
 11
-4.75
 21
0.0
 31
0.0
  0
LINE
  5
331
330
328
100
AcDbEntity
  8
DESSIN
 62
     0
100
AcDbLine
 10
0.0
 20
-2.5
 30
0.0
 11
0.0
 21
-4.75
 31
0.0
  0
LINE
  5
332
330
328
100
AcDbEntity
  8
DESSIN
 62
     0
100
AcDbLine
 10
2.5
 20
0.0
 30
0.0
 11
4.75
 21
0.0
 31
0.0
  0
ENDBLK
  5
32A
330
328
100
AcDbEntity
  8
0
100
AcDbBlockEnd
  0
BLOCK
  5
365
330
364
100
AcDbEntity
  8
0
100
AcDbBlockBegin
  2
_D_2
 70
     0
 10
0.0
 20
0.0
 30
0.0
  3
_D_2
  1
_D_2
  0
SOLID
  5
367
330
364
100
AcDbEntity
  8
DESSIN
 62
     7
100
AcDbTrace
 10
365.4191420787
 20
239.8131786497
 30
0.0
 11
362.1171420787
 21
240.3211786497
 31
0.0
 12
362.1171420787
 22
239.3051786497
 32
0.0
 13
362.1171420787
 23
239.3051786497
 33
0.0
  0
SOLID
  5
368
330
364
100
AcDbEntity
  8
DESSIN
 62
     7
100
AcDbTrace
 10
367.4191420787
 20
239.8131786497
 30
0.0
 11
370.7211420787
 21
239.3051786497
 31
0.0
 12
370.7211420787
 22
240.3211786497
 32
0.0
 13
370.7211420787
 23
240.3211786497
 33
0.0
  0
LINE
  5
369
330
364
100
AcDbEntity
  8
DESSIN
 62
     7
100
AcDbLine
 10
365.4191420787
 20
218.8131786497
 30
0.0
 11
365.4191420787
 21
240.8131786497
 31
0.0
  0
LINE
  5
36A
330
364
100
AcDbEntity
  8
DESSIN
 62
     7
100
AcDbLine
 10
367.4191420787
 20
218.8131786497
 30
0.0
 11
367.4191420787
 21
240.8131786497
 31
0.0
  0
LINE
  5
36B
330
364
100
AcDbEntity
  8
DESSIN
 62
     7
100
AcDbLine
 10
365.4191420787
 20
239.8131786497
 30
0.0
 11
344.8082008219
 21
239.8131786497
 31
0.0
  0
LINE
  5
36C
330
364
100
AcDbEntity
  8
DESSIN
 62
     7
100
AcDbLine
 10
365.4191420787
 20
239.8131786497
 30
0.0
 11
367.4191420787
 21
239.8131786497
 31
0.0
  0
LINE
  5
36D
330
364
100
AcDbEntity
  8
DESSIN
 62
     7
100
AcDbLine
 10
367.4191420787
 20
239.8131786497
 30
0.0
 11
373.7691420787
 21
239.8131786497
 31
0.0
  0
MTEXT
  5
36E
330
364
100
AcDbEntity
  8
DESSIN
 62
     7
100
AcDbMText
 10
344.8082008219
 20
244.3249155642
 30
0.0
 40
3.5
 41
0.0
 71
     1
 72
     1
  1
2
  7
SLDTEXTSTYLE0
 73
     1
 44
1.0
  0
ENDBLK
  5
366
330
364
100
AcDbEntity
  8
0
100
AcDbBlockEnd
  0
ENDSEC
  0
SECTION
  2
ENTITIES
  0
HATCH
  5
78
330
1F
100
AcDbEntity
  8
FORMAT
 62
     7
100
AcDbHatch
 10
0.0
 20
0.0
 30
0.0
210
0.0
220
0.0
230
1.0
  2
SOLID
 70
     1
 71
     0
 91
        1
 92
        0
 93
        3
 72
     1
 10
249.8219804851232
 20
46.93531861965948
 11
249.4866428643128
 21
47.24902155525632
 72
     1
 10
249.4866428643128
 20
47.24902155525632
 11
248.6664806125129
 21
45.9554355133106
 72
     1
 10
248.6664806125129
 20
45.9554355133106
 11
249.8219804851232
 21
46.93531861965948
 97
        0
 75
     0
 76
     1
 98
        1
 10
0.0
 20
0.0
  0
HATCH
  5
79
330
1F
100
AcDbEntity
  8
FORMAT
 62
     7
100
AcDbHatch
 10
0.0
 20
0.0
 30
0.0
210
0.0
220
0.0
230
1.0
  2
SOLID
 70
     1
 71
     0
 91
        1
 92
        0
 93
        3
 72
     1
 10
239.6274110865315
 20
43.53510564123089
 11
239.2920734657211
 21
43.84880857682774
 72
     1
 10
239.2920734657211
 20
43.84880857682774
 11
238.4719112139212
 21
42.55522253488202
 72
     1
 10
238.4719112139212
 20
42.55522253488202
 11
239.6274110865315
 21
43.53510564123089
 97
        0
 75
     0
 76
     1
 98
        1
 10
0.0
 20
0.0
  0
LINE
  5
7A
330
1F
100
AcDbEntity
  8
FORMAT
 62
     7
370
     0
100
AcDbLine
 10
410.1925968167
 20
287.0
 30
0.0
 11
410.1925968167
 21
10.0
 31
0.0
  0
LINE
  5
7B
330
1F
100
AcDbEntity
  8
FORMAT
 62
     7
370
     0
100
AcDbLine
 10
415.0
 20
292.0
 30
0.0
 11
415.0
 21
5.0
 31
0.0
  0
LINE
  5
7C
330
1F
100
AcDbEntity
  8
FORMAT
 62
     7
370
     0
100
AcDbLine
 10
415.0
 20
5.0
 30
0.0
 11
5.0
 21
5.0
 31
0.0
  0
LINE
  5
7D
330
1F
100
AcDbEntity
  8
FORMAT
 62
     7
370
     0
100
AcDbLine
 10
5.0
 20
5.0
 30
0.0
 11
5.0
 21
292.0
 31
0.0
  0
LINE
  5
7E
330
1F
100
AcDbEntity
  8
FORMAT
 62
     7
370
     0
100
AcDbLine
 10
10.0
 20
10.0
 30
0.0
 11
10.0
 21
287.0
 31
0.0
  0
LINE
  5
7F
330
1F
100
AcDbEntity
  8
FORMAT
 62
     7
370
     0
100
AcDbLine
 10
10.0
 20
287.0
 30
0.0
 11
410.1925968167
 21
287.0
 31
0.0
  0
LINE
  5
80
330
1F
100
AcDbEntity
  8
FORMAT
 62
     7
370
     0
100
AcDbLine
 10
415.0
 20
292.0
 30
0.0
 11
5.0
 21
292.0
 31
0.0
  0
LINE
  5
81
330
1F
100
AcDbEntity
  8
FORMAT
 62
     7
370
     0
100
AcDbLine
 10
10.0
 20
10.0
 30
0.0
 11
410.1925968167
 21
10.0
 31
0.0
  0
LINE
  5
82
330
1F
100
AcDbEntity
  8
FORMAT
 62
     7
370
     0
100
AcDbLine
 10
310.0
 20
5.0
 30
0.0
 11
310.0
 21
10.0
 31
0.0
  0
LINE
  5
83
330
1F
100
AcDbEntity
  8
FORMAT
 62
     7
370
     0
100
AcDbLine
 10
360.0
 20
5.0
 30
0.0
 11
360.0
 21
10.0
 31
0.0
  0
LINE
  5
84
330
1F
100
AcDbEntity
  8
FORMAT
 62
     7
370
     0
100
AcDbLine
 10
410.1925968167
 20
48.5
 30
0.0
 11
415.0
 21
48.5
 31
0.0
  0
LINE
  5
85
330
1F
100
AcDbEntity
  8
FORMAT
  6
Continuous
370
     0
100
AcDbLine
 10
215.1925968167
 20
10.0
 30
0.0
 11
410.1925968167
 21
10.0
 31
0.0
  0
LINE
  5
86
330
1F
100
AcDbEntity
  8
FORMAT
 62
     7
100
AcDbLine
 10
215.1925968167
 20
51.8687928505
 30
0.0
 11
351.1649933754
 21
51.8687928505
 31
0.0
  0
LINE
  5
87
330
1F
100
AcDbEntity
  8
FORMAT
 62
     7
370
     0
100
AcDbLine
 10
283.4006928142
 20
21.3099567735
 30
0.0
 11
283.4006928142
 21
14.25
 31
0.0
  0
LINE
  5
88
330
1F
100
AcDbEntity
  8
FORMAT
100
AcDbLine
 10
405.9426256584
 20
14.25
 30
0.0
 11
405.9426256584
 21
65.0
 31
0.0
  0
LINE
  5
89
330
1F
100
AcDbEntity
  8
FORMAT
100
AcDbLine
 10
215.1925968167
 20
65.0
 30
0.0
 11
410.1925968167
 21
65.0
 31
0.0
  0
LINE
  5
8A
330
1F
100
AcDbEntity
  8
FORMAT
100
AcDbLine
 10
357.9662944645
 20
27.9980860131
 30
0.0
 11
405.9426256584
 21
27.9980860131
 31
0.0
  0
LINE
  5
8B
330
1F
100
AcDbEntity
  8
FORMAT
100
AcDbLine
 10
405.9426256584
 20
21.3099567735
 30
0.0
 11
215.1925968167
 21
21.3099567735
 31
0.0
  0
LINE
  5
8C
330
1F
100
AcDbEntity
  8
FORMAT
100
AcDbLine
 10
329.1321380759
 20
35.0294727499
 30
0.0
 11
329.1321380759
 21
14.25
 31
0.0
  0
LINE
  5
8D
330
1F
100
AcDbEntity
  8
FORMAT
100
AcDbLine
 10
357.9662944645
 20
27.9980860131
 30
0.0
 11
329.1321669176
 21
27.9980860131
 31
0.0
  0
LINE
  5
8E
330
1F
100
AcDbEntity
  8
FORMAT
100
AcDbLine
 10
368.6361364225
 20
21.3099567735
 30
0.0
 11
368.6361364225
 21
14.25
 31
0.0
  0
LINE
  5
8F
330
1F
100
AcDbEntity
  8
FORMAT
100
AcDbLine
 10
351.1649933754
 20
14.25
 30
0.0
 11
405.9426256584
 21
14.25
 31
0.0
  0
LINE
  5
90
330
1F
100
AcDbEntity
  8
FORMAT
100
AcDbLine
 10
215.1925968167
 20
65.0
 30
0.0
 11
215.1925968167
 21
10.0
 31
0.0
  0
LINE
  5
91
330
1F
100
AcDbEntity
  8
FORMAT
100
AcDbLine
 10
351.1649933754
 20
14.25
 30
0.0
 11
215.1925968167
 21
14.25
 31
0.0
  0
LINE
  5
92
330
1F
100
AcDbEntity
  8
FORMAT
100
AcDbLine
 10
386.5098680994
 20
21.3099567735
 30
0.0
 11
386.5098680994
 21
14.25
 31
0.0
  0
LINE
  5
93
330
1F
100
AcDbEntity
  8
FORMAT
100
AcDbLine
 10
215.1925968167
 20
41.9559636665
 30
0.0
 11
405.9426256584
 21
41.9559636665
 31
0.0
  0
LINE
  5
94
330
1F
100
AcDbEntity
  8
FORMAT
100
AcDbLine
 10
357.9662656227
 20
35.0294727499
 30
0.0
 11
215.1925968167
 21
35.0294727499
 31
0.0
  0
LINE
  5
95
330
1F
100
AcDbEntity
  8
FORMAT
100
AcDbLine
 10
351.1649933754
 20
65.0
 30
0.0
 11
351.1649933754
 21
14.25
 31
0.0
  0
LINE
  5
96
330
1F
100
AcDbEntity
  8
FORMAT
100
AcDbLine
 10
357.9662656227
 20
35.0294727499
 30
0.0
 11
405.9426256584
 21
35.0294727499
 31
0.0
  0
LINE
  5
97
330
1F
100
AcDbEntity
  8
FORMAT
 62
     7
370
     0
100
AcDbLine
 10
249.8219804851
 20
46.9353186197
 30
0.0
 11
248.6664806125
 21
45.9554355133
 31
0.0
  0
LINE
  5
98
330
1F
100
AcDbEntity
  8
FORMAT
 62
     7
370
    15
100
AcDbLine
 10
248.6664806125
 20
45.9554355133
 30
0.0
 11
245.2601466984
 21
45.9554355133
 31
0.0
  0
LINE
  5
99
330
1F
100
AcDbEntity
  8
FORMAT
 62
     7
370
     0
100
AcDbLine
 10
255.8182473167
 20
41.9559636665
 30
0.0
 11
255.8182473167
 21
14.25
 31
0.0
  0
LINE
  5
9A
330
1F
100
AcDbEntity
  8
FORMAT
 62
     7
370
     0
100
AcDbLine
 10
236.1599894355
 20
51.8687928505
 30
0.0
 11
236.1599894355
 21
41.9559636665
 31
0.0
  0
LINE
  5
9B
330
1F
100
AcDbEntity
  8
FORMAT
 62
     7
370
     0
100
AcDbLine
 10
255.8182473167
 20
41.9559636665
 30
0.0
 11
255.8182473167
 21
51.8687928505
 31
0.0
  0
LINE
  5
9C
330
1F
100
AcDbEntity
  8
FORMAT
 62
     7
370
    15
100
AcDbLine
 10
248.6664806125
 20
42.5491015992
 30
0.0
 11
248.6664806125
 21
45.9554355133
 31
0.0
  0
LINE
  5
9D
330
1F
100
AcDbEntity
  8
FORMAT
 62
     7
370
     0
100
AcDbLine
 10
249.4866428643
 20
47.2490215553
 30
0.0
 11
248.6664806125
 21
45.9554355133
 31
0.0
  0
LINE
  5
9E
330
1F
100
AcDbEntity
  8
FORMAT
 62
     7
370
    15
100
AcDbLine
 10
238.4719112139
 20
42.5552225349
 30
0.0
 11
241.8721241923
 21
42.5552225349
 31
0.0
  0
LINE
  5
9F
330
1F
100
AcDbEntity
  8
FORMAT
 62
     7
370
    15
100
AcDbLine
 10
238.4719112139
 20
45.9554355133
 30
0.0
 11
238.4719112139
 21
42.5552225349
 31
0.0
  0
LINE
  5
A0
330
1F
100
AcDbEntity
  8
FORMAT
 62
     7
370
     0
100
AcDbLine
 10
249.8219804851
 20
46.9353186197
 30
0.0
 11
249.4866428643
 21
47.2490215553
 31
0.0
  0
LINE
  5
A1
330
1F
100
AcDbEntity
  8
FORMAT
 62
     7
370
     0
100
AcDbLine
 10
249.6543116747
 20
47.0921700875
 30
0.0
 11
250.0638503907
 21
47.5299528528
 31
0.0
  0
LINE
  5
A2
330
1F
100
AcDbEntity
  8
FORMAT
 62
     7
370
     0
100
AcDbLine
 10
250.0638503907
 20
47.5299528528
 30
0.0
 11
253.5198166544
 21
47.5299528528
 31
0.0
  0
LINE
  5
A3
330
1F
100
AcDbEntity
  8
FORMAT
 62
     7
370
     0
100
AcDbLine
 10
10.0
 20
248.5
 30
0.0
 11
5.0
 21
248.5
 31
0.0
  0
LINE
  5
A4
330
1F
100
AcDbEntity
  8
FORMAT
 62
     7
370
     0
100
AcDbLine
 10
10.0
 20
198.5
 30
0.0
 11
5.0
 21
198.5
 31
0.0
  0
LINE
  5
A5
330
1F
100
AcDbEntity
  8
FORMAT
 62
     7
370
     0
100
AcDbLine
 10
15.0
 20
148.5
 30
0.0
 11
5.0
 21
148.5
 31
0.0
  0
LINE
  5
A6
330
1F
100
AcDbEntity
  8
FORMAT
 62
     7
370
     0
100
AcDbLine
 10
10.0
 20
98.5
 30
0.0
 11
5.0
 21
98.5
 31
0.0
  0
LINE
  5
A7
330
1F
100
AcDbEntity
  8
FORMAT
 62
     7
370
     0
100
AcDbLine
 10
250.0638503907
 20
47.5299528528
 30
0.0
 11
250.0638503907
 21
50.6453343674
 31
0.0
  0
LINE
  5
A8
330
1F
100
AcDbEntity
  8
FORMAT
 62
     7
370
     0
100
AcDbLine
 10
239.6274110865
 20
43.5351056412
 30
0.0
 11
238.4719112139
 21
42.5552225349
 31
0.0
  0
LINE
  5
A9
330
1F
100
AcDbEntity
  8
FORMAT
 62
     7
370
     0
100
AcDbLine
 10
60.0
 20
10.0
 30
0.0
 11
60.0
 21
5.0
 31
0.0
  0
LINE
  5
AA
330
1F
100
AcDbEntity
  8
FORMAT
 62
     7
370
     0
100
AcDbLine
 10
110.0
 20
10.0
 30
0.0
 11
110.0
 21
5.0
 31
0.0
  0
LINE
  5
AB
330
1F
100
AcDbEntity
  8
FORMAT
 62
     7
370
     0
100
AcDbLine
 10
160.0
 20
10.0
 30
0.0
 11
160.0
 21
5.0
 31
0.0
  0
LINE
  5
AC
330
1F
100
AcDbEntity
  8
FORMAT
 62
     7
370
     0
100
AcDbLine
 10
10.0
 20
48.5
 30
0.0
 11
5.0
 21
48.5
 31
0.0
  0
LINE
  5
AD
330
1F
100
AcDbEntity
  8
FORMAT
 62
     7
370
     0
100
AcDbLine
 10
360.0
 20
292.0
 30
0.0
 11
360.0
 21
287.0
 31
0.0
  0
LINE
  5
AE
330
1F
100
AcDbEntity
  8
FORMAT
 62
     7
370
     0
100
AcDbLine
 10
310.0
 20
292.0
 30
0.0
 11
310.0
 21
287.0
 31
0.0
  0
LINE
  5
AF
330
1F
100
AcDbEntity
  8
FORMAT
 62
     7
370
     0
100
AcDbLine
 10
260.0
 20
292.0
 30
0.0
 11
260.0
 21
287.0
 31
0.0
  0
LINE
  5
B0
330
1F
100
AcDbEntity
  8
FORMAT
 62
     7
370
     0
100
AcDbLine
 10
210.0
 20
282.0
 30
0.0
 11
210.0
 21
292.0
 31
0.0
  0
LINE
  5
B1
330
1F
100
AcDbEntity
  8
FORMAT
 62
     7
370
     0
100
AcDbLine
 10
410.0
 20
248.5
 30
0.0
 11
415.0
 21
248.5
 31
0.0
  0
LINE
  5
B2
330
1F
100
AcDbEntity
  8
FORMAT
 62
     7
370
     0
100
AcDbLine
 10
210.0
 20
15.0
 30
0.0
 11
210.0
 21
5.0
 31
0.0
  0
LINE
  5
B3
330
1F
100
AcDbEntity
  8
FORMAT
 62
     7
370
     0
100
AcDbLine
 10
410.0
 20
198.5
 30
0.0
 11
415.0
 21
198.5
 31
0.0
  0
LINE
  5
B4
330
1F
100
AcDbEntity
  8
FORMAT
 62
     7
370
     0
100
AcDbLine
 10
405.0
 20
148.5
 30
0.0
 11
415.0
 21
148.5
 31
0.0
  0
LINE
  5
B5
330
1F
100
AcDbEntity
  8
FORMAT
 62
     7
370
     0
100
AcDbLine
 10
410.1925968167
 20
98.5
 30
0.0
 11
415.0
 21
98.5
 31
0.0
  0
LINE
  5
B6
330
1F
100
AcDbEntity
  8
FORMAT
 62
     7
370
     0
100
AcDbLine
 10
160.0
 20
287.0
 30
0.0
 11
160.0
 21
292.0
 31
0.0
  0
LINE
  5
B7
330
1F
100
AcDbEntity
  8
FORMAT
 62
     7
370
     0
100
AcDbLine
 10
110.0
 20
287.0
 30
0.0
 11
110.0
 21
292.0
 31
0.0
  0
LINE
  5
B8
330
1F
100
AcDbEntity
  8
FORMAT
 62
     7
370
     0
100
AcDbLine
 10
60.0
 20
287.0
 30
0.0
 11
60.0
 21
292.0
 31
0.0
  0
LINE
  5
B9
330
1F
100
AcDbEntity
  8
FORMAT
 62
     7
370
     0
100
AcDbLine
 10
260.0
 20
10.0
 30
0.0
 11
260.0
 21
5.0
 31
0.0
  0
LINE
  5
BA
330
1F
100
AcDbEntity
  8
FORMAT
 62
     7
370
     0
100
AcDbLine
 10
239.2920734657
 20
43.8488085768
 30
0.0
 11
238.4719112139
 21
42.5552225349
 31
0.0
  0
LINE
  5
BB
330
1F
100
AcDbEntity
  8
FORMAT
 62
     7
370
     0
100
AcDbLine
 10
239.6274110865
 20
43.5351056412
 30
0.0
 11
239.2920734657
 21
43.8488085768
 31
0.0
  0
LINE
  5
BC
330
1F
100
AcDbEntity
  8
FORMAT
 62
     7
370
     0
100
AcDbLine
 10
239.4597422761
 20
43.691957109
 30
0.0
 11
239.8692809921
 21
44.1297398744
 31
0.0
  0
LINE
  5
BD
330
1F
100
AcDbEntity
  8
FORMAT
 62
     7
370
     0
100
AcDbLine
 10
239.8692809921
 20
44.1297398744
 30
0.0
 11
243.3252472558
 21
44.1297398744
 31
0.0
  0
LINE
  5
BE
330
1F
100
AcDbEntity
  8
FORMAT
 62
     7
370
     0
100
AcDbLine
 10
239.8692809921
 20
44.1297398744
 30
0.0
 11
239.8692809921
 21
47.245121389
 31
0.0
  0
LINE
  5
BF
330
1F
100
AcDbEntity
  8
FORMAT
 62
     7
370
     0
100
AcDbLine
 10
219.6324535566
 20
44.135020276
 30
0.0
 11
219.6324535566
 21
46.8915067906
 31
0.0
  0
LINE
  5
C0
330
1F
100
AcDbEntity
  8
FORMAT
 62
     7
370
     0
100
AcDbLine
 10
219.6324535566
 20
46.8915067906
 30
0.0
 11
223.9951485019
 21
47.5284124973
 31
0.0
  0
LINE
  5
C1
330
1F
100
AcDbEntity
  8
FORMAT
 62
     7
370
     0
100
AcDbLine
 10
229.2277013884
 20
48.1311022434
 30
0.0
 11
229.2277013884
 21
42.9099613589
 31
0.0
  0
LINE
  5
C2
330
1F
100
AcDbEntity
  8
FORMAT
 62
     7
370
     0
100
AcDbLine
 10
223.9951485019
 20
47.5284124973
 30
0.0
 11
223.9951485019
 21
43.4981145693
 31
0.0
  0
LINE
  5
C3
330
1F
100
AcDbEntity
  8
FORMAT
 62
     7
370
     0
100
AcDbLine
 10
218.3772593254
 20
45.5132635333
 30
0.0
 11
232.4135456072
 21
45.5132635333
 31
0.0
  0
LINE
  5
C4
330
1F
100
AcDbEntity
  8
FORMAT
 62
     7
370
     0
100
AcDbLine
 10
219.6324535566
 20
44.135020276
 30
0.0
 11
223.9951485019
 21
43.4981145693
 31
0.0
  0
LINE
  5
C5
330
1F
100
AcDbEntity
  8
ASSEMBLY
 62
     7
370
     0
100
AcDbLine
 10
230.0328838379
 20
26.9440185725
 30
0.0
 11
239.3257032093
 21
26.9440185725
 31
0.0
  0
LINE
  5
C6
330
1F
100
AcDbEntity
  8
ASSEMBLY
 62
     7
370
     0
100
AcDbLine
 10
230.0328838379
 20
29.1153560086
 30
0.0
 11
239.3257032093
 21
29.1153560086
 31
0.0
  0
LINE
  5
C7
330
1F
100
AcDbEntity
  8
ASSEMBLY
 62
     7
370
     0
100
AcDbLine
 10
230.0328838379
 20
29.1153560086
 30
0.0
 11
230.0328838379
 21
22.5870046458
 31
0.0
  0
LINE
  5
C8
330
1F
100
AcDbEntity
  8
ASSEMBLY
 62
     7
370
     0
100
AcDbLine
 10
230.0328838379
 20
22.5870046458
 30
0.0
 11
239.3257032093
 21
22.5870046458
 31
0.0
  0
LINE
  5
C9
330
1F
100
AcDbEntity
  8
ASSEMBLY
 62
     7
370
     0
100
AcDbLine
 10
239.3257032093
 20
29.1153560086
 30
0.0
 11
239.3257032093
 21
22.5870046458
 31
0.0
  0
LINE
  5
CA
330
1F
100
AcDbEntity
  8
ASSEMBLY
 62
     7
370
     0
100
AcDbLine
 10
230.0328838379
 20
24.6931626694
 30
0.0
 11
239.3257032093
 21
24.6931626694
 31
0.0
  0
LINE
  5
CB
330
1F
100
AcDbEntity
  8
ASSEMBLY
 62
     7
370
     0
100
AcDbLine
 10
237.6746051272
 20
29.1153560086
 30
0.0
 11
237.6746051272
 21
22.5870046458
 31
0.0
  0
LINE
  5
CC
330
1F
100
AcDbEntity
  8
ASSEMBLY
 62
     7
370
     0
100
AcDbLine
 10
235.8993499073
 20
29.1153560086
 30
0.0
 11
235.8993499073
 21
22.5870046458
 31
0.0
  0
LINE
  5
CD
330
1F
100
AcDbEntity
  8
ASSEMBLY
 62
     7
370
     0
100
AcDbLine
 10
234.1393986118
 20
29.1153560086
 30
0.0
 11
234.1393986118
 21
22.5870046458
 31
0.0
  0
LINE
  5
CE
330
1F
100
AcDbEntity
  8
ASSEMBLY
 62
     7
370
     0
100
AcDbLine
 10
232.6549179538
 20
29.1153560086
 30
0.0
 11
232.6549179538
 21
22.5870046458
 31
0.0
  0
CIRCLE
  5
CF
330
1F
100
AcDbEntity
  8
FORMAT
 62
     7
370
     0
100
AcDbCircle
 10
229.2277013884
 20
45.5132635333
 30
0.0
 40
1.381181693819008
  0
CIRCLE
  5
D0
330
1F
100
AcDbEntity
  8
FORMAT
 62
     7
370
     0
100
AcDbCircle
 10
229.2277013884
 20
45.5132635333
 30
0.0
 40
2.008274061454955
  0
MTEXT
  5
D2
330
1F
100
AcDbEntity
  8
FORMAT
100
AcDbMText
 10
6.6666666667
 20
124.6680204036
 30
0.0
 40
1.8520833333
 41
0.0
 71
     1
 72
     1
  1
D
  7
SLDTEXTSTYLE0
 73
     1
 44
1.0
  0
MTEXT
  5
D3
330
1F
100
AcDbEntity
  8
FORMAT
100
AcDbMText
 10
6.6666666667
 20
74.6680204036
 30
0.0
 40
1.8520833333
 41
0.0
 71
     1
 72
     1
  1
E
  7
SLDTEXTSTYLE0
 73
     1
 44
1.0
  0
MTEXT
  5
D4
330
1F
100
AcDbEntity
  8
FORMAT
100
AcDbMText
 10
6.6666666667
 20
24.6680204036
 30
0.0
 40
1.8520833333
 41
0.0
 71
     1
 72
     1
  1
F
  7
SLDTEXTSTYLE0
 73
     1
 44
1.0
  0
MTEXT
  5
D5
330
1F
100
AcDbEntity
  8
FORMAT
100
AcDbMText
 10
6.6666666667
 20
174.6680204036
 30
0.0
 40
1.8520833333
 41
0.0
 71
     1
 72
     1
  1
C
  7
SLDTEXTSTYLE0
 73
     1
 44
1.0
  0
MTEXT
  5
D6
330
1F
100
AcDbEntity
  8
FORMAT
100
AcDbMText
 10
34.5833333333
 20
8.6680244036
 30
0.0
 40
1.8520833333
 41
0.0
 71
     1
 72
     1
  1
1
  7
SLDTEXTSTYLE0
 73
     1
 44
1.0
  0
MTEXT
  5
D7
330
1F
100
AcDbEntity
  8
FORMAT
100
AcDbMText
 10
84.1666666667
 20
8.6680244036
 30
0.0
 40
1.8520833333
 41
0.0
 71
     1
 72
     1
  1
2
  7
SLDTEXTSTYLE0
 73
     1
 44
1.0
  0
MTEXT
  5
D8
330
1F
100
AcDbEntity
  8
FORMAT
100
AcDbMText
 10
134.1666666667
 20
8.6680244036
 30
0.0
 40
1.8520833333
 41
0.0
 71
     1
 72
     1
  1
3
  7
SLDTEXTSTYLE0
 73
     1
 44
1.0
  0
MTEXT
  5
D9
330
1F
100
AcDbEntity
  8
FORMAT
100
AcDbMText
 10
184.1666666667
 20
8.6680244036
 30
0.0
 40
1.8520833333
 41
0.0
 71
     1
 72
     1
  1
4
  7
SLDTEXTSTYLE0
 73
     1
 44
1.0
  0
MTEXT
  5
DA
330
1F
100
AcDbEntity
  8
FORMAT
100
AcDbMText
 10
6.6666666667
 20
224.6680204036
 30
0.0
 40
1.8520833333
 41
0.0
 71
     1
 72
     1
  1
B
  7
SLDTEXTSTYLE0
 73
     1
 44
1.0
  0
MTEXT
  5
DB
330
1F
100
AcDbEntity
  8
FORMAT
100
AcDbMText
 10
6.6666666667
 20
274.6680204036
 30
0.0
 40
1.8520833333
 41
0.0
 71
     1
 72
     1
  1
A
  7
SLDTEXTSTYLE0
 73
     1
 44
1.0
  0
MTEXT
  5
DC
330
1F
100
AcDbEntity
  8
FORMAT
100
AcDbMText
 10
134.1666666667
 20
290.6680244036
 30
0.0
 40
1.8520833333
 41
0.0
 71
     1
 72
     1
  1
3
  7
SLDTEXTSTYLE0
 73
     1
 44
1.0
  0
MTEXT
  5
DD
330
1F
100
AcDbEntity
  8
FORMAT
100
AcDbMText
 10
84.1666666667
 20
290.6680244036
 30
0.0
 40
1.8520833333
 41
0.0
 71
     1
 72
     1
  1
2
  7
SLDTEXTSTYLE0
 73
     1
 44
1.0
  0
MTEXT
  5
DE
330
1F
100
AcDbEntity
  8
FORMAT
100
AcDbMText
 10
34.5833333333
 20
290.6680244036
 30
0.0
 40
1.8520833333
 41
0.0
 71
     1
 72
     1
  1
1
  7
SLDTEXTSTYLE0
 73
     1
 44
1.0
  0
MTEXT
  5
DF
330
1F
100
AcDbEntity
  8
FORMAT
100
AcDbMText
 10
234.1666666667
 20
290.6680244036
 30
0.0
 40
1.8520833333
 41
0.0
 71
     1
 72
     1
  1
5
  7
SLDTEXTSTYLE0
 73
     1
 44
1.0
  0
MTEXT
  5
E0
330
1F
100
AcDbEntity
  8
FORMAT
100
AcDbMText
 10
411.6666666667
 20
174.6680204036
 30
0.0
 40
1.8520833333
 41
0.0
 71
     1
 72
     1
  1
C
  7
SLDTEXTSTYLE0
 73
     1
 44
1.0
  0
MTEXT
  5
E1
330
1F
100
AcDbEntity
  8
FORMAT
100
AcDbMText
 10
411.6666666667
 20
124.6680204036
 30
0.0
 40
1.8520833333
 41
0.0
 71
     1
 72
     1
  1
D
  7
SLDTEXTSTYLE0
 73
     1
 44
1.0
  0
MTEXT
  5
E2
330
1F
100
AcDbEntity
  8
FORMAT
100
AcDbMText
 10
184.1666666667
 20
290.6680244036
 30
0.0
 40
1.8520833333
 41
0.0
 71
     1
 72
     1
  1
4
  7
SLDTEXTSTYLE0
 73
     1
 44
1.0
  0
MTEXT
  5
E3
330
1F
100
AcDbEntity
  8
FORMAT
100
AcDbMText
 10
284.1666666667
 20
290.6680244036
 30
0.0
 40
1.8520833333
 41
0.0
 71
     1
 72
     1
  1
6
  7
SLDTEXTSTYLE0
 73
     1
 44
1.0
  0
MTEXT
  5
E4
330
1F
100
AcDbEntity
  8
FORMAT
100
AcDbMText
 10
334.1666666667
 20
290.6680244036
 30
0.0
 40
1.8520833333
 41
0.0
 71
     1
 72
     1
  1
7
  7
SLDTEXTSTYLE0
 73
     1
 44
1.0
  0
MTEXT
  5
E5
330
1F
100
AcDbEntity
  8
FORMAT
100
AcDbMText
 10
384.1666666667
 20
290.6680244036
 30
0.0
 40
1.8520833333
 41
0.0
 71
     1
 72
     1
  1
8
  7
SLDTEXTSTYLE0
 73
     1
 44
1.0
  0
MTEXT
  5
E6
330
1F
100
AcDbEntity
  8
FORMAT
100
AcDbMText
 10
411.6666666667
 20
274.6680204036
 30
0.0
 40
1.8520833333
 41
0.0
 71
     1
 72
     1
  1
A
  7
SLDTEXTSTYLE0
 73
     1
 44
1.0
  0
MTEXT
  5
E7
330
1F
100
AcDbEntity
  8
FORMAT
100
AcDbMText
 10
411.6666666667
 20
224.6680204036
 30
0.0
 40
1.8520833333
 41
0.0
 71
     1
 72
     1
  1
B
  7
SLDTEXTSTYLE0
 73
     1
 44
1.0
  0
MTEXT
  5
E8
330
1F
100
AcDbEntity
  8
FORMAT
100
AcDbMText
 10
234.8908998318
 20
8.6680244036
 30
0.0
 40
1.8520833333
 41
0.0
 71
     1
 72
     1
  1
5
  7
SLDTEXTSTYLE0
 73
     1
 44
1.0
  0
MTEXT
  5
E9
330
1F
100
AcDbEntity
  8
FORMAT
100
AcDbMText
 10
284.1948008978
 20
8.6680244036
 30
0.0
 40
1.8520833333
 41
0.0
 71
     1
 72
     1
  1
6
  7
SLDTEXTSTYLE0
 73
     1
 44
1.0
  0
MTEXT
  5
EA
330
1F
100
AcDbEntity
  8
FORMAT
100
AcDbMText
 10
411.9500386894
 20
75.3176655667
 30
0.0
 40
1.8520833333
 41
0.0
 71
     1
 72
     1
  1
E
  7
SLDTEXTSTYLE0
 73
     1
 44
1.0
  0
MTEXT
  5
EB
330
1F
100
AcDbEntity
  8
FORMAT
100
AcDbMText
 10
386.8168512055
 20
8.3006598171
 30
0.0
 40
1.8520833333
 41
0.0
 71
     1
 72
     1
  1
8
  7
SLDTEXTSTYLE0
 73
     1
 44
1.0
  0
MTEXT
  5
EC
330
1F
100
AcDbEntity
  8
FORMAT
100
AcDbMText
 10
334.7447149284
 20
8.6680244036
 30
0.0
 40
1.8520833333
 41
0.0
 71
     1
 72
     1
  1
7
  7
SLDTEXTSTYLE0
 73
     1
 44
1.0
  0
MTEXT
  5
ED
330
1F
100
AcDbEntity
  8
FORMAT
100
AcDbMText
 10
411.9326546561
 20
28.7158516162
 30
0.0
 40
1.8520833333
 41
0.0
 71
     1
 72
     1
  1
F
  7
SLDTEXTSTYLE0
 73
     1
 44
1.0
  0
INSERT
  5
F5
330
1F
100
AcDbEntity
  8
FORMAT
100
AcDbBlockReference
  2
SW_NOTE_0
 10
266.6957946296
 20
48.4898730695
 30
0.0
  0
MTEXT
  5
F6
330
1F
100
AcDbEntity
  8
FORMAT
100
AcDbMText
 10
236.8168072202
 20
50.6356538528
 30
0.0
 40
1.5875
 41
0.0
 71
     1
 72
     1
  1
EDGES
  7
SLDTEXTSTYLE1
 73
     1
 44
1.0
  0
MTEXT
  5
F7
330
1F
100
AcDbEntity
  8
FORMAT
100
AcDbMText
 10
216.7497631791
 20
38.2393864475
 30
0.0
 40
1.4
 41
0.0
 71
     1
 72
     1
  1
All dimensions in millimeters (mm)
  7
SLDTEXTSTYLE1
 73
     1
 44
1.0
  0
MTEXT
  5
F8
330
1F
100
AcDbEntity
  8
FORMAT
100
AcDbMText
 10
216.7497631791
 20
41.2623807393
 30
0.0
 40
1.5875
 41
0.0
 71
     1
 72
     1
  1
UNITS
  7
SLDTEXTSTYLE1
 73
     1
 44
1.0
  0
MTEXT
  5
F9
330
1F
100
AcDbEntity
  8
FORMAT
100
AcDbMText
 10
285.2362639143
 20
20.4908848056
 30
0.0
 40
1.5875
 41
0.0
 71
     1
 72
     1
  1
FINISH
  7
SLDTEXTSTYLE1
 73
     1
 44
1.0
  0
MTEXT
  5
FA
330
1F
100
AcDbEntity
  8
FORMAT
100
AcDbMText
 10
257.5223484471
 20
20.4908848056
 30
0.0
 40
1.5875
 41
0.0
 71
     1
 72
     1
  1
COLOR
  7
SLDTEXTSTYLE1
 73
     1
 44
1.0
  0
INSERT
  5
110
330
1F
100
AcDbEntity
  8
FORMAT
100
AcDbBlockReference
  2
SW_NOTE_1
 10
257.5223484471
 20
31.7195197254
 30
0.0
  0
MTEXT
  5
111
330
1F
100
AcDbEntity
  8
FORMAT
100
AcDbMText
 10
217.308077338
 20
50.6356538528
 30
0.0
 40
1.5875
 41
0.0
 71
     1
 72
     1
  1
PROJECTION
  7
SLDTEXTSTYLE1
 73
     1
 44
1.0
  0
MTEXT
  5
112
330
1F
100
AcDbEntity
  8
FORMAT
100
AcDbMText
 10
256.8360938148
 20
41.2623807393
 30
0.0
 40
1.5875
 41
0.0
 71
     1
 72
     1
  1
PART NAME
  7
SLDTEXTSTYLE1
 73
     1
 44
1.0
  0
MTEXT
  5
113
330
1F
100
AcDbEntity
  8
FORMAT
100
AcDbMText
 10
352.1093817006
 20
34.5727322508
 30
0.0
 40
1.5875
 41
0.0
 71
     1
 72
     1
  1
SAP 2D DRAWING NO
  7
SLDTEXTSTYLE1
 73
     1
 44
1.0
  0
INSERT
  5
119
330
1F
100
AcDbEntity
  8
FORMAT
100
AcDbBlockReference
  2
SW_NOTE_2
 10
354.4652822227
 20
16.8219825277
 30
0.0
  0
INSERT
  5
120
330
1F
100
AcDbEntity
  8
FORMAT
100
AcDbBlockReference
  2
SW_NOTE_3
 10
389.1988224649
 20
16.8219825277
 30
0.0
  0
INSERT
  5
126
330
1F
100
AcDbEntity
  8
FORMAT
100
AcDbBlockReference
  2
SW_NOTE_4
 10
372.5254469588
 20
16.7972140038
 30
0.0
  0
MTEXT
  5
127
330
1F
100
AcDbEntity
  8
FORMAT
100
AcDbMText
 10
330.8641756463
 20
27.5917098154
 30
0.0
 40
1.5875
 41
0.0
 71
     1
 72
     1
  1
DATE
  7
SLDTEXTSTYLE1
 73
     1
 44
1.0
  0
MTEXT
  5
128
330
1F
100
AcDbEntity
  8
FORMAT
100
AcDbMText
 10
216.6925820437
 20
20.4908848056
 30
0.0
 40
1.5875
 41
0.0
 71
     1
 72
     1
  1
MATERIAL
  7
SLDTEXTSTYLE1
 73
     1
 44
1.0
  0
MTEXT
  5
129
330
1F
100
AcDbEntity
  8
FORMAT
100
AcDbMText
 10
330.6422198236
 20
20.4908848056
 30
0.0
 40
1.5875
 41
0.0
 71
     1
 72
     1
  1
MASS
  7
SLDTEXTSTYLE1
 73
     1
 44
1.0
  0
MTEXT
  5
12A
330
1F
100
AcDbEntity
  8
FORMAT
100
AcDbMText
 10
348.5855339395
 20
24.950963146
 30
0.0
 40
2.1166666667
 41
0.0
 71
     3
 72
     1
  1
30/10/2018
  7
SLDTEXTSTYLE1
 73
     1
 44
1.0
  0
MTEXT
  5
12B
330
1F
100
AcDbEntity
  8
FORMAT
100
AcDbMText
 10
352.1093817006
 20
41.2799928586
 30
0.0
 40
1.5875
 41
0.0
 71
     1
 72
     1
  1
SAP MATERIAL NO
  7
SLDTEXTSTYLE1
 73
     1
 44
1.0
  0
MTEXT
  5
12C
330
1F
100
AcDbEntity
  8
FORMAT
100
AcDbMText
 10
330.8641756463
 20
34.5727322508
 30
0.0
 40
1.5875
 41
0.0
 71
     1
 72
     1
  1
DRAWN BY
  7
SLDTEXTSTYLE1
 73
     1
 44
1.0
  0
INSERT
  5
132
330
1F
100
AcDbEntity
  8
FORMAT
100
AcDbBlockReference
  2
SW_NOTE_5
 10
217.0075115102
 20
31.1217830896
 30
0.0
  0
MTEXT
  5
134
330
1F
100
AcDbEntity
  8
FORMAT
100
AcDbMText
 10
352.1093817006
 20
27.5917098154
 30
0.0
 40
1.5875
 41
0.0
 71
     1
 72
     1
  1
SAP 3D CAD NO
  7
SLDTEXTSTYLE4
 73
     1
 44
1.0
  0
INSERT
  5
13A
330
1F
100
AcDbEntity
  8
FORMAT
100
AcDbBlockReference
  2
SW_NOTE_6
 10
250.1099855545
 20
49.159779203
 30
0.0
  0
INSERT
  5
140
330
1F
100
AcDbEntity
  8
FORMAT
100
AcDbBlockReference
  2
SW_NOTE_7
 10
240.1663090301
 20
45.7920676411
 30
0.0
  0
INSERT
  5
146
330
1F
100
AcDbEntity
  8
PLASTIQUE
100
AcDbBlockReference
  2
SW_NOTE_8
 10
226.4211303913
 20
25.0557697123
 30
0.0
  0
INSERT
  5
15B
330
1F
100
AcDbEntity
  8
PLASTIQUE
100
AcDbBlockReference
  2
SW_NOTE_9
 10
291.4093046216
 20
137.9895501326
 30
0.0
  0
INSERT
  5
164
330
1F
100
AcDbEntity
  8
PLASTIQUE
 62
     7
100
AcDbBlockReference
  2
SW_NOTE_10
 10
298.7515530266
 20
89.0682098258
 30
0.0
  0
INSERT
  5
16A
330
1F
100
AcDbEntity
  8
PLASTIQUE
 62
     7
100
AcDbBlockReference
  2
SW_NOTE_11
 10
300.1392168354
 20
81.1388888151
 30
0.0
  0
INSERT
  5
170
330
1F
100
AcDbEntity
  8
RUBBER
100
AcDbBlockReference
  2
SW_NOTE_12
 10
229.815637263
 20
25.0557697123
 30
0.0
  0
INSERT
  5
18A
330
1F
100
AcDbEntity
  8
RUBBER
100
AcDbBlockReference
  2
SW_NOTE_13
 10
276.3421240259
 20
152.1006573479
 30
0.0
  0
INSERT
  5
190
330
1F
100
AcDbEntity
  8
RUBBER
 62
     7
100
AcDbBlockReference
  2
SW_NOTE_14
 10
286.6725501688
 20
67.5388888151
 30
0.0
  0
INSERT
  5
199
330
1F
100
AcDbEntity
  8
RUBBER
 62
     7
100
AcDbBlockReference
  2
SW_NOTE_15
 10
285.5902021898
 20
75.4874724238
 30
0.0
  0
MTEXT
  5
19A
330
1F
100
AcDbEntity
  8
DIE-CASTING
100
AcDbMText
 10
253.0538941347
 20
26.6045980993
 30
0.0
 40
2.1166666667
 41
0.0
 71
     3
 72
     1
  1
NADCA : 2006
  7
SLDTEXTSTYLE1
 73
     1
 44
1.0
  0
INSERT
  5
1B3
330
1F
100
AcDbEntity
  8
DIE-CASTING
100
AcDbBlockReference
  2
SW_NOTE_16
 10
304.2462635028
 20
152.1006573479
 30
0.0
  0
INSERT
  5
1B9
330
1F
100
AcDbEntity
  8
DIE-CASTING
 62
     7
100
AcDbBlockReference
  2
SW_NOTE_17
 10
313.2058835021
 20
81.1388888151
 30
0.0
  0
INSERT
  5
1C2
330
1F
100
AcDbEntity
  8
DIE-CASTING
 62
     7
100
AcDbBlockReference
  2
SW_NOTE_18
 10
311.5144318185
 20
89.0682098258
 30
0.0
  0
INSERT
  5
1C9
330
1F
100
AcDbEntity
  8
TÔLERIE-USINAGE
100
AcDbBlockReference
  2
SW_NOTE_19
 10
230.9546170303
 20
26.6334702006
 30
0.0
  0
INSERT
  5
1E0
330
1F
100
AcDbEntity
  8
TÔLERIE-USINAGE
100
AcDbBlockReference
  2
SW_NOTE_20
 10
291.4093046216
 20
145.0451065342
 30
0.0
  0
INSERT
  5
1E6
330
1F
100
AcDbEntity
  8
TÔLERIE-USINAGE
 62
     7
100
AcDbBlockReference
  2
SW_NOTE_21
 10
298.2725501688
 20
81.1388888151
 30
0.0
  0
INSERT
  5
1EF
330
1F
100
AcDbEntity
  8
TÔLERIE-USINAGE
 62
     7
100
AcDbBlockReference
  2
SW_NOTE_22
 10
297.0195591217
 20
89.0682098258
 30
0.0
  0
MTEXT
  5
1F0
330
1F
100
AcDbEntity
  8
SHIELD
100
AcDbMText
 10
252.9884864562
 20
26.089055931
 30
0.0
 40
1.5875
 41
0.0
 71
     3
 72
     1
  1
ISO 2768 : 1989 mK
  7
SLDTEXTSTYLE1
 73
     1
 44
1.0
  0
INSERT
  5
213
330
1F
100
AcDbEntity
  8
SHIELD
100
AcDbBlockReference
  2
SW_NOTE_23
 10
285.1801945526
 20
197.5942799154
 30
0.0
  0
INSERT
  5
219
330
1F
100
AcDbEntity
  8
SHIELD
 62
     7
100
AcDbBlockReference
  2
SW_NOTE_24
 10
295.0725501688
 20
69.9388888151
 30
0.0
  0
INSERT
  5
222
330
1F
100
AcDbEntity
  8
SHIELD
 62
     7
100
AcDbBlockReference
  2
SW_NOTE_25
 10
293.8266108636
 20
78.2280502629
 30
0.0
  0
INSERT
  5
22F
330
1F
100
AcDbEntity
  8
ASSEMBLY
100
AcDbBlockReference
  2
SW_NOTE_26
 10
230.2571467668
 20
22.7986360138
 30
0.0
  0
INSERT
  5
239
330
1F
100
AcDbEntity
  8
ASSEMBLY
100
AcDbBlockReference
  2
SW_NOTE_27
 10
230.2994316056
 20
25.09576806
 30
0.0
  0
INSERT
  5
244
330
1F
100
AcDbEntity
  8
ASSEMBLY
100
AcDbBlockReference
  2
SW_NOTE_28
 10
230.2994316056
 20
27.3348369253
 30
0.0
  0
MTEXT
  5
245
330
1F
100
AcDbEntity
  8
DESSIN
 62
     7
100
AcDbMText
 10
379.2868754843
 20
49.0590217751
 30
0.0
 40
2.6458333333
 41
0.0
 71
     2
 72
     1
  1
MOOCK CYCLES
  7
SLDTEXTSTYLE1
 73
     1
 44
1.0
  0
MTEXT
  5
246
330
1F
100
AcDbEntity
  8
DESSIN
 62
     7
100
AcDbMText
 10
379.5707488466
 20
59.3127753686
 30
0.0
 40
9.525
 41
0.0
 71
     2
 72
     1
  1
-MCK-
  7
SLDTEXTSTYLE1
 73
     1
 44
1.0
  0
MTEXT
  5
247
330
1F
100
AcDbEntity
  8
DESSIN
 62
     7
100
AcDbMText
 10
233.2997182498
 20
26.0590837472
 30
0.0
 40
2.6458333333
 41
0.0
 71
     1
 72
     1
  1
ISO 2768mK
  7
SLDTEXTSTYLE0
 73
     1
 44
1.0
  0
MTEXT
  5
248
330
1F
100
AcDbEntity
  8
DESSIN
 62
     7
100
AcDbMText
 10
237.4615003151
 20
17.8063018604
 30
0.0
 40
2.1166666667
 41
0.0
 71
     1
 72
     1
  1
VOIR NOTES
  7
SLDTEXTSTYLE0
 73
     1
 44
1.0
  0
MTEXT
  5
249
330
1F
100
AcDbEntity
  8
DESSIN
 62
     7
100
AcDbMText
 10
265.9287074268
 20
17.8063018604
 30
0.0
 40
2.1166666667
 41
0.0
 71
     1
 72
     1
  1
VOIR NOTES
  7
SLDTEXTSTYLE0
 73
     1
 44
1.0
  0
MTEXT
  5
24A
330
1F
100
AcDbEntity
  8
DESSIN
 62
     7
100
AcDbMText
 10
311.2362363253
 20
17.8063018604
 30
0.0
 40
2.1166666667
 41
0.0
 71
     1
 72
     1
  1
VOIR NOTES
  7
SLDTEXTSTYLE0
 73
     1
 44
1.0
  0
MTEXT
  5
24B
330
1F
100
AcDbEntity
  8
DESSIN
 62
     7
100
AcDbMText
 10
337.1182552105
 20
31.4130263764
 30
0.0
 40
2.1166666667
 41
0.0
 71
     1
 72
     1
  1
C.ABEILLE
  7
SLDTEXTSTYLE0
 73
     1
 44
1.0
  0
MTEXT
  5
24C
330
1F
100
AcDbEntity
  8
DESSIN
 62
     7
100
AcDbMText
 10
306.1850061436
 20
40.0268959955
 30
0.0
 40
3.175
 41
0.0
 71
     1
 72
     1
  1
TW - FENDER BRACKET
  7
SLDTEXTSTYLE0
 73
     1
 44
1.0
  0
LINE
  5
24D
330
1F
100
AcDbEntity
  8
0
  6
CENTERX2
 62
     7
100
AcDbLine
 10
194.8323612906
 20
203.2532095888
 30
0.0
 11
211.8323612906
 21
203.2532095888
 31
0.0
  0
LINE
  5
24E
330
1F
100
AcDbEntity
  8
0
  6
CENTERX2
 62
     7
100
AcDbLine
 10
243.3323612906
 20
175.1060120376
 30
0.0
 11
237.3323612906
 21
175.1060120376
 31
0.0
  0
LINE
  5
24F
330
1F
100
AcDbEntity
  8
0
  6
CENTERX2
 62
     7
100
AcDbLine
 10
229.3323612906
 20
175.1060120376
 30
0.0
 11
222.3323612906
 21
175.1060120376
 31
0.0
  0
LINE
  5
250
330
1F
100
AcDbEntity
  8
0
  6
CENTERX2
 62
     7
100
AcDbLine
 10
214.3323612906
 20
175.1060120376
 30
0.0
 11
207.3323612906
 21
175.1060120376
 31
0.0
  0
LINE
  5
251
330
1F
100
AcDbEntity
  8
0
  6
CENTERX2
 62
     7
100
AcDbLine
 10
199.3323612906
 20
175.1060120376
 30
0.0
 11
192.3323612906
 21
175.1060120376
 31
0.0
  0
LINE
  5
252
330
1F
100
AcDbEntity
  8
0
  6
CENTERX2
 62
     7
100
AcDbLine
 10
184.3323612906
 20
175.1060120376
 30
0.0
 11
177.3323612906
 21
175.1060120376
 31
0.0
  0
LINE
  5
253
330
1F
100
AcDbEntity
  8
0
  6
CENTERX2
 62
     7
100
AcDbLine
 10
169.3323612906
 20
175.1060120376
 30
0.0
 11
163.3323612906
 21
175.1060120376
 31
0.0
  0
ARC
  5
254
330
1F
100
AcDbEntity
  8
0
  6
Continuous
 62
     7
370
    15
100
AcDbCircle
 10
223.3323612906
 20
165.2077351095
 30
0.0
 40
2.500000000000028
100
AcDbArc
 50
270.0
 51
90.0
  0
LINE
  5
255
330
1F
100
AcDbEntity
  8
0
  6
Continuous
 62
     7
370
    15
100
AcDbLine
 10
223.3323612906
 20
167.7077351095
 30
0.0
 11
183.3323612906
 21
167.7077351095
 31
0.0
  0
ARC
  5
256
330
1F
100
AcDbEntity
  8
0
  6
Continuous
 62
     7
370
    15
100
AcDbCircle
 10
183.3323612906
 20
165.2077351095
 30
0.0
 40
2.500000000000028
100
AcDbArc
 50
90.0
 51
270.0
  0
LINE
  5
257
330
1F
100
AcDbEntity
  8
0
  6
Continuous
 62
     7
370
    15
100
AcDbLine
 10
183.3323612906
 20
162.7077351095
 30
0.0
 11
223.3323612906
 21
162.7077351095
 31
0.0
  0
LINE
  5
258
330
1F
100
AcDbEntity
  8
0
  6
Continuous
 62
     7
370
    15
100
AcDbLine
 10
231.8418570483
 20
146.417791394
 30
0.0
 11
241.4736915191
 21
156.0496258647
 31
0.0
  0
ARC
  5
259
330
1F
100
AcDbEntity
  8
0
  6
Continuous
 62
     7
370
    15
100
AcDbCircle
 10
233.6096240012
 20
144.650024441
 30
0.0
 40
2.49999999999998
100
AcDbArc
 50
135.0
 51
315.0
  0
LINE
  5
25A
330
1F
100
AcDbEntity
  8
0
  6
Continuous
 62
     7
370
    15
100
AcDbLine
 10
245.009225425
 20
152.5140919588
 30
0.0
 11
235.3773909542
 21
142.882257488
 31
0.0
  0
ARC
  5
25B
330
1F
100
AcDbEntity
  8
0
  6
Continuous
 62
     7
370
    15
100
AcDbCircle
 10
243.241458472
 20
154.2818589118
 30
0.0
 40
2.50000000000002
100
AcDbArc
 50
315.0
 51
135.0
  0
CIRCLE
  5
25C
330
1F
100
AcDbEntity
  8
0
  6
Continuous
 62
     7
370
    15
100
AcDbCircle
 10
253.3323612906
 20
125.6753008957
 30
0.0
 40
2.249999999999986
  0
CIRCLE
  5
25D
330
1F
100
AcDbEntity
  8
0
  6
Continuous
 62
     7
370
    15
100
AcDbCircle
 10
153.3323612906
 20
125.6753008957
 30
0.0
 40
2.25
  0
ARC
  5
25E
330
1F
100
AcDbEntity
  8
0
  6
Continuous
 62
     7
370
    15
100
AcDbCircle
 10
179.6547618711
 20
152.1924967737
 30
0.0
 40
2.50000000000002
100
AcDbArc
 50
225.0
 51
45.0
  0
LINE
  5
25F
330
1F
100
AcDbEntity
  8
0
  6
Continuous
 62
     7
370
    15
100
AcDbLine
 10
181.4225288241
 20
153.9602637266
 30
0.0
 11
169.4072904882
 21
165.9755020625
 31
0.0
  0
ARC
  5
260
330
1F
100
AcDbEntity
  8
0
  6
Continuous
 62
     7
370
    15
100
AcDbCircle
 10
167.6395235352
 20
164.2077351095
 30
0.0
 40
2.5
100
AcDbArc
 50
45.0
 51
225.0
  0
LINE
  5
261
330
1F
100
AcDbEntity
  8
0
  6
Continuous
 62
     7
370
    15
100
AcDbLine
 10
165.8717565823
 20
162.4399681566
 30
0.0
 11
177.8869949182
 21
150.4247298207
 31
0.0
  0
ARC
  5
262
330
1F
100
AcDbEntity
  8
0
  6
Continuous
 62
     7
370
    15
100
AcDbCircle
 10
173.05509858
 20
144.650024441
 30
0.0
 40
2.49999999999998
100
AcDbArc
 50
225.0
 51
45.0
  0
LINE
  5
263
330
1F
100
AcDbEntity
  8
0
  6
Continuous
 62
     7
370
    15
100
AcDbLine
 10
174.822865533
 20
146.417791394
 30
0.0
 11
165.1910310622
 21
156.0496258647
 31
0.0
  0
ARC
  5
264
330
1F
100
AcDbEntity
  8
0
  6
Continuous
 62
     7
370
    15
100
AcDbCircle
 10
163.4232641093
 20
154.2818589118
 30
0.0
 40
2.50000000000002
100
AcDbArc
 50
45.0
 51
225.0
  0
LINE
  5
265
330
1F
100
AcDbEntity
  8
0
  6
Continuous
 62
     7
370
    15
100
AcDbLine
 10
161.6554971563
 20
152.5140919588
 30
0.0
 11
171.2873316271
 21
142.882257488
 31
0.0
  0
ARC
  5
266
330
1F
100
AcDbEntity
  8
0
  6
Continuous
 62
     7
370
    15
100
AcDbCircle
 10
166.455435289
 20
137.1075521083
 30
0.0
 40
2.49999999999994
100
AcDbArc
 50
225.0
 51
45.0
  0
LINE
  5
267
330
1F
100
AcDbEntity
  8
0
  6
Continuous
 62
     7
370
    15
100
AcDbLine
 10
168.2232022419
 20
138.8753190613
 30
0.0
 11
160.9747716363
 21
146.123749667
 31
0.0
  0
ARC
  5
268
330
1F
100
AcDbEntity
  8
0
  6
Continuous
 62
     7
370
    15
100
AcDbCircle
 10
159.2070046833
 20
144.355982714
 30
0.0
 40
2.5
100
AcDbArc
 50
45.0
 51
225.0
  0
LINE
  5
269
330
1F
100
AcDbEntity
  8
0
  6
Continuous
 62
     7
370
    15
100
AcDbLine
 10
157.4392377303
 20
142.5882157611
 30
0.0
 11
164.687668336
 21
135.3397851554
 31
0.0
  0
LINE
  5
26A
330
1F
100
AcDbEntity
  8
0
  6
Continuous
 62
     7
370
    15
100
AcDbLine
 10
225.2421937572
 20
153.9602637266
 30
0.0
 11
237.2574320931
 21
165.9755020625
 31
0.0
  0
ARC
  5
26B
330
1F
100
AcDbEntity
  8
0
  6
Continuous
 62
     7
370
    15
100
AcDbCircle
 10
227.0099607102
 20
152.1924967737
 30
0.0
 40
2.50000000000002
100
AcDbArc
 50
135.0
 51
315.0
  0
LINE
  5
26C
330
1F
100
AcDbEntity
  8
0
  6
Continuous
 62
     7
370
    15
100
AcDbLine
 10
240.792965999
 20
162.4399681566
 30
0.0
 11
228.7777276631
 21
150.4247298207
 31
0.0
  0
ARC
  5
26D
330
1F
100
AcDbEntity
  8
0
  6
Continuous
 62
     7
370
    15
100
AcDbCircle
 10
239.0251990461
 20
164.2077351095
 30
0.0
 40
2.49999999999998
100
AcDbArc
 50
315.0
 51
135.0
  0
LINE
  5
26E
330
1F
100
AcDbEntity
  8
0
  6
Continuous
 62
     7
370
    15
100
AcDbLine
 10
238.4415203393
 20
138.8753190613
 30
0.0
 11
245.689950945
 21
146.123749667
 31
0.0
  0
ARC
  5
26F
330
1F
100
AcDbEntity
  8
0
  6
Continuous
 62
     7
370
    15
100
AcDbCircle
 10
240.2092872923
 20
137.1075521083
 30
0.0
 40
2.49999999999996
100
AcDbArc
 50
135.0
 51
315.0
  0
LINE
  5
270
330
1F
100
AcDbEntity
  8
0
  6
Continuous
 62
     7
370
    15
100
AcDbLine
 10
249.225484851
 20
142.5882157611
 30
0.0
 11
241.9770542453
 21
135.3397851554
 31
0.0
  0
ARC
  5
271
330
1F
100
AcDbEntity
  8
0
  6
Continuous
 62
     7
370
    15
100
AcDbCircle
 10
247.457717898
 20
144.355982714
 30
0.0
 40
2.50000000000004
100
AcDbArc
 50
315.0
 51
135.0
  0
CIRCLE
  5
272
330
1F
100
AcDbEntity
  8
0
  6
Continuous
 62
     7
370
    15
100
AcDbCircle
 10
203.3323612906
 20
209.7402385139
 30
0.0
 40
3.5
  0
ARC
  5
273
330
1F
100
AcDbEntity
  8
0
  6
Continuous
 62
     7
370
    15
100
AcDbCircle
 10
206.3323612906
 20
175.6819706908
 30
0.0
 40
1.0
100
AcDbArc
 50
360.0
 51
90.0
  0
LINE
  5
274
330
1F
100
AcDbEntity
  8
0
  6
Continuous
 62
     7
370
    15
100
AcDbLine
 10
206.3323612906
 20
176.6819706908
 30
0.0
 11
200.3323612906
 21
176.6819706908
 31
0.0
  0
ARC
  5
275
330
1F
100
AcDbEntity
  8
0
  6
Continuous
 62
     7
370
    15
100
AcDbCircle
 10
200.3323612906
 20
175.6819706908
 30
0.0
 40
1.0
100
AcDbArc
 50
90.0
 51
180.0
  0
LINE
  5
276
330
1F
100
AcDbEntity
  8
0
  6
Continuous
 62
     7
370
    15
100
AcDbLine
 10
199.3323612906
 20
174.4209255493
 30
0.0
 11
199.3323612906
 21
175.6819706908
 31
0.0
  0
ARC
  5
277
330
1F
100
AcDbEntity
  8
0
  6
Continuous
 62
     7
370
    15
100
AcDbCircle
 10
200.3323612906
 20
174.4209255493
 30
0.0
 40
1.0
100
AcDbArc
 50
180.0
 51
270.0
  0
LINE
  5
278
330
1F
100
AcDbEntity
  8
0
  6
Continuous
 62
     7
370
    15
100
AcDbLine
 10
206.3323612906
 20
173.4209255493
 30
0.0
 11
200.3323612906
 21
173.4209255493
 31
0.0
  0
ARC
  5
279
330
1F
100
AcDbEntity
  8
0
  6
Continuous
 62
     7
370
    15
100
AcDbCircle
 10
206.3323612906
 20
174.4209255493
 30
0.0
 40
1.0
100
AcDbArc
 50
270.0
 51
0.0
  0
LINE
  5
27A
330
1F
100
AcDbEntity
  8
0
  6
Continuous
 62
     7
370
    15
100
AcDbLine
 10
207.3323612906
 20
175.6819706908
 30
0.0
 11
207.3323612906
 21
174.4209255493
 31
0.0
  0
CIRCLE
  5
27B
330
1F
100
AcDbEntity
  8
0
  6
Continuous
 62
     7
370
    15
100
AcDbCircle
 10
153.3323612906
 20
190.1819706908
 30
0.0
 40
3.25
  0
CIRCLE
  5
27C
330
1F
100
AcDbEntity
  8
0
  6
Continuous
 62
     7
370
    15
100
AcDbCircle
 10
253.3323612906
 20
190.1819706908
 30
0.0
 40
3.249999999999972
  0
CIRCLE
  5
27D
330
1F
100
AcDbEntity
  8
0
  6
Continuous
 62
     7
370
    15
100
AcDbCircle
 10
103.3323612906
 20
188.7819706908
 30
0.0
 40
3.900000000000006
  0
CIRCLE
  5
27E
330
1F
100
AcDbEntity
  8
0
  6
Continuous
 62
     7
370
    15
100
AcDbCircle
 10
303.3323612906
 20
188.7819706908
 30
0.0
 40
3.900000000000034
  0
LINE
  5
27F
330
1F
100
AcDbEntity
  8
0
  6
Continuous
 62
     7
370
    15
100
AcDbLine
 10
191.3323612906
 20
173.4209255493
 30
0.0
 11
185.3323612906
 21
173.4209255493
 31
0.0
  0
ARC
  5
280
330
1F
100
AcDbEntity
  8
0
  6
Continuous
 62
     7
370
    15
100
AcDbCircle
 10
191.3323612906
 20
174.4209255493
 30
0.0
 40
1.0
100
AcDbArc
 50
270.0
 51
0.0
  0
LINE
  5
281
330
1F
100
AcDbEntity
  8
0
  6
Continuous
 62
     7
370
    15
100
AcDbLine
 10
192.3323612906
 20
175.6819706908
 30
0.0
 11
192.3323612906
 21
174.4209255493
 31
0.0
  0
ARC
  5
282
330
1F
100
AcDbEntity
  8
0
  6
Continuous
 62
     7
370
    15
100
AcDbCircle
 10
191.3323612906
 20
175.6819706908
 30
0.0
 40
1.0
100
AcDbArc
 50
360.0
 51
90.0
  0
LINE
  5
283
330
1F
100
AcDbEntity
  8
0
  6
Continuous
 62
     7
370
    15
100
AcDbLine
 10
191.3323612906
 20
176.6819706908
 30
0.0
 11
185.3323612906
 21
176.6819706908
 31
0.0
  0
ARC
  5
284
330
1F
100
AcDbEntity
  8
0
  6
Continuous
 62
     7
370
    15
100
AcDbCircle
 10
185.3323612906
 20
175.6819706908
 30
0.0
 40
1.0
100
AcDbArc
 50
90.0
 51
180.0
  0
LINE
  5
285
330
1F
100
AcDbEntity
  8
0
  6
Continuous
 62
     7
370
    15
100
AcDbLine
 10
184.3323612906
 20
174.4209255493
 30
0.0
 11
184.3323612906
 21
175.6819706908
 31
0.0
  0
ARC
  5
286
330
1F
100
AcDbEntity
  8
0
  6
Continuous
 62
     7
370
    15
100
AcDbCircle
 10
185.3323612906
 20
174.4209255493
 30
0.0
 40
1.0
100
AcDbArc
 50
180.0
 51
270.0
  0
LINE
  5
287
330
1F
100
AcDbEntity
  8
0
  6
Continuous
 62
     7
370
    15
100
AcDbLine
 10
176.3323612906
 20
173.4209255493
 30
0.0
 11
170.3323612906
 21
173.4209255493
 31
0.0
  0
ARC
  5
288
330
1F
100
AcDbEntity
  8
0
  6
Continuous
 62
     7
370
    15
100
AcDbCircle
 10
176.3323612906
 20
174.4209255493
 30
0.0
 40
1.0
100
AcDbArc
 50
270.0
 51
0.0
  0
LINE
  5
289
330
1F
100
AcDbEntity
  8
0
  6
Continuous
 62
     7
370
    15
100
AcDbLine
 10
177.3323612906
 20
175.6819706908
 30
0.0
 11
177.3323612906
 21
174.4209255493
 31
0.0
  0
ARC
  5
28A
330
1F
100
AcDbEntity
  8
0
  6
Continuous
 62
     7
370
    15
100
AcDbCircle
 10
176.3323612906
 20
175.6819706908
 30
0.0
 40
1.0
100
AcDbArc
 50
360.0
 51
90.0
  0
LINE
  5
28B
330
1F
100
AcDbEntity
  8
0
  6
Continuous
 62
     7
370
    15
100
AcDbLine
 10
176.3323612906
 20
176.6819706908
 30
0.0
 11
170.3323612906
 21
176.6819706908
 31
0.0
  0
ARC
  5
28C
330
1F
100
AcDbEntity
  8
0
  6
Continuous
 62
     7
370
    15
100
AcDbCircle
 10
170.3323612906
 20
175.6819706908
 30
0.0
 40
1.0
100
AcDbArc
 50
90.0
 51
180.0
  0
LINE
  5
28D
330
1F
100
AcDbEntity
  8
0
  6
Continuous
 62
     7
370
    15
100
AcDbLine
 10
169.3323612906
 20
174.4209255493
 30
0.0
 11
169.3323612906
 21
175.6819706908
 31
0.0
  0
ARC
  5
28E
330
1F
100
AcDbEntity
  8
0
  6
Continuous
 62
     7
370
    15
100
AcDbCircle
 10
170.3323612906
 20
174.4209255493
 30
0.0
 40
1.0
100
AcDbArc
 50
180.0
 51
270.0
  0
LINE
  5
28F
330
1F
100
AcDbEntity
  8
0
  6
Continuous
 62
     7
370
    15
100
AcDbLine
 10
221.3323612906
 20
173.4209255493
 30
0.0
 11
215.3323612906
 21
173.4209255493
 31
0.0
  0
ARC
  5
290
330
1F
100
AcDbEntity
  8
0
  6
Continuous
 62
     7
370
    15
100
AcDbCircle
 10
221.3323612906
 20
174.4209255493
 30
0.0
 40
1.0
100
AcDbArc
 50
270.0
 51
0.0
  0
LINE
  5
291
330
1F
100
AcDbEntity
  8
0
  6
Continuous
 62
     7
370
    15
100
AcDbLine
 10
222.3323612906
 20
175.6819706908
 30
0.0
 11
222.3323612906
 21
174.4209255493
 31
0.0
  0
ARC
  5
292
330
1F
100
AcDbEntity
  8
0
  6
Continuous
 62
     7
370
    15
100
AcDbCircle
 10
221.3323612906
 20
175.6819706908
 30
0.0
 40
1.0
100
AcDbArc
 50
360.0
 51
90.0
  0
LINE
  5
293
330
1F
100
AcDbEntity
  8
0
  6
Continuous
 62
     7
370
    15
100
AcDbLine
 10
221.3323612906
 20
176.6819706908
 30
0.0
 11
215.3323612906
 21
176.6819706908
 31
0.0
  0
ARC
  5
294
330
1F
100
AcDbEntity
  8
0
  6
Continuous
 62
     7
370
    15
100
AcDbCircle
 10
215.3323612906
 20
175.6819706908
 30
0.0
 40
1.0
100
AcDbArc
 50
90.0
 51
180.0
  0
LINE
  5
295
330
1F
100
AcDbEntity
  8
0
  6
Continuous
 62
     7
370
    15
100
AcDbLine
 10
214.3323612906
 20
174.4209255493
 30
0.0
 11
214.3323612906
 21
175.6819706908
 31
0.0
  0
ARC
  5
296
330
1F
100
AcDbEntity
  8
0
  6
Continuous
 62
     7
370
    15
100
AcDbCircle
 10
215.3323612906
 20
174.4209255493
 30
0.0
 40
1.0
100
AcDbArc
 50
180.0
 51
270.0
  0
LINE
  5
297
330
1F
100
AcDbEntity
  8
0
  6
Continuous
 62
     7
370
    15
100
AcDbLine
 10
262.3323612906
 20
115.6753008957
 30
0.0
 11
266.5435539118
 21
119.8864935169
 31
0.0
  0
LINE
  5
298
330
1F
100
AcDbEntity
  8
0
  6
Continuous
 62
     7
370
    15
100
AcDbLine
 10
248.3323612906
 20
115.6753008957
 30
0.0
 11
262.3323612906
 21
115.6753008957
 31
0.0
  0
LINE
  5
299
330
1F
100
AcDbEntity
  8
0
  6
Continuous
 62
     7
370
    15
100
AcDbLine
 10
213.3323612906
 20
155.6753008957
 30
0.0
 11
248.3323612906
 21
115.6753008957
 31
0.0
  0
LINE
  5
29A
330
1F
100
AcDbEntity
  8
0
  6
Continuous
 62
     7
370
    15
100
AcDbLine
 10
193.3323612906
 20
155.6753008957
 30
0.0
 11
213.3323612906
 21
155.6753008957
 31
0.0
  0
LINE
  5
29B
330
1F
100
AcDbEntity
  8
0
  6
Continuous
 62
     7
370
    15
100
AcDbLine
 10
158.3323612906
 20
115.6753008957
 30
0.0
 11
193.3323612906
 21
155.6753008957
 31
0.0
  0
LINE
  5
29C
330
1F
100
AcDbEntity
  8
0
  6
Continuous
 62
     7
370
    15
100
AcDbLine
 10
144.3323612906
 20
115.6753008957
 30
0.0
 11
158.3323612906
 21
115.6753008957
 31
0.0
  0
LINE
  5
29D
330
1F
100
AcDbEntity
  8
0
  6
Continuous
 62
     7
370
    15
100
AcDbLine
 10
140.1211686694
 20
119.8864935169
 30
0.0
 11
144.3323612906
 21
115.6753008957
 31
0.0
  0
LINE
  5
29E
330
1F
100
AcDbEntity
  8
0
  6
Continuous
 62
     7
370
    15
100
AcDbLine
 10
163.3323612906
 20
174.5300533845
 30
0.0
 11
140.1211686694
 21
119.8864935169
 31
0.0
  0
LINE
  5
29F
330
1F
100
AcDbEntity
  8
0
  6
Continuous
 62
     7
370
    15
100
AcDbLine
 10
163.3323612906
 20
176.6819706908
 30
0.0
 11
163.3323612906
 21
174.5300533845
 31
0.0
  0
ARC
  5
2A0
330
1F
100
AcDbEntity
  8
0
  6
Continuous
 62
     7
370
    15
100
AcDbCircle
 10
162.3323612906
 20
176.6819706908
 30
0.0
 40
1.000000000000028
100
AcDbArc
 50
0.0
 51
90.0
  0
LINE
  5
2A1
330
1F
100
AcDbEntity
  8
0
  6
Continuous
 62
     7
370
    15
100
AcDbLine
 10
101.1607884154
 20
177.6819706908
 30
0.0
 11
162.3323612906
 21
177.6819706908
 31
0.0
  0
ARC
  5
2A2
330
1F
100
AcDbEntity
  8
0
  6
Continuous
 62
     7
370
    15
100
AcDbCircle
 10
101.1607884154
 20
179.6819706908
 30
0.0
 40
2.000000000000016
100
AcDbArc
 50
225.0
 51
270.0
  0
LINE
  5
2A3
330
1F
100
AcDbEntity
  8
0
  6
Continuous
 62
     7
370
    15
100
AcDbLine
 10
93.9181477283
 20
184.0961842532
 30
0.0
 11
99.746574853
 21
178.2677571284
 31
0.0
  0
ARC
  5
2A4
330
1F
100
AcDbEntity
  8
0
  6
Continuous
 62
     7
370
    15
100
AcDbCircle
 10
95.3323612906
 20
185.5103978155
 30
0.0
 40
2.000000000000016
100
AcDbArc
 50
180.0
 51
225.0
  0
LINE
  5
2A5
330
1F
100
AcDbEntity
  8
0
  6
Continuous
 62
     7
370
    15
100
AcDbLine
 10
93.3323612906
 20
198.8535435661
 30
0.0
 11
93.3323612906
 21
185.5103978155
 31
0.0
  0
ARC
  5
2A6
330
1F
100
AcDbEntity
  8
0
  6
Continuous
 62
     7
370
    15
100
AcDbCircle
 10
95.3323612906
 20
198.8535435661
 30
0.0
 40
2.000000000000016
100
AcDbArc
 50
135.0
 51
180.0
  0
LINE
  5
2A7
330
1F
100
AcDbEntity
  8
0
  6
Continuous
 62
     7
370
    15
100
AcDbLine
 10
95.746574853
 20
202.0961842532
 30
0.0
 11
93.9181477283
 21
200.2677571284
 31
0.0
  0
ARC
  5
2A8
330
1F
100
AcDbEntity
  8
0
  6
Continuous
 62
     7
370
    15
100
AcDbCircle
 10
97.1607884154
 20
200.6819706908
 30
0.0
 40
2.000000000000016
100
AcDbArc
 50
90.0
 51
135.0
  0
LINE
  5
2A9
330
1F
100
AcDbEntity
  8
0
  6
Continuous
 62
     7
370
    15
100
AcDbLine
 10
191.8323612906
 20
202.6819706908
 30
0.0
 11
97.1607884154
 21
202.6819706908
 31
0.0
  0
ARC
  5
2AA
330
1F
100
AcDbEntity
  8
0
  6
Continuous
 62
     7
370
    15
100
AcDbCircle
 10
191.8323612906
 20
201.6819706908
 30
0.0
 40
1.0
100
AcDbArc
 50
0.0
 51
90.0
  0
ARC
  5
2AB
330
1F
100
AcDbEntity
  8
0
  6
Continuous
 62
     7
370
    15
100
AcDbCircle
 10
193.8323612906
 20
201.6819706908
 30
0.0
 40
1.000000000000028
100
AcDbArc
 50
180.0
 51
0.0
  0
LINE
  5
2AC
330
1F
100
AcDbEntity
  8
0
  6
Continuous
 62
     7
370
    15
100
AcDbLine
 10
194.8323612906
 20
201.6819706908
 30
0.0
 11
194.8323612906
 21
214.3989650873
 31
0.0
  0
ARC
  5
2AD
330
1F
100
AcDbEntity
  8
0
  6
Continuous
 62
     7
370
    15
100
AcDbCircle
 10
195.8323612906
 20
214.3989650873
 30
0.0
 40
1.000000000000008
100
AcDbArc
 50
135.0
 51
180.0
  0
LINE
  5
2AE
330
1F
100
AcDbEntity
  8
0
  6
Continuous
 62
     7
370
    15
100
AcDbLine
 10
197.5394680718
 20
217.5202854308
 30
0.0
 11
195.1252545095
 21
215.1060718685
 31
0.0
  0
ARC
  5
2AF
330
1F
100
AcDbEntity
  8
0
  6
Continuous
 62
     7
370
    15
100
AcDbCircle
 10
198.246574853
 20
216.8131786497
 30
0.0
 40
1.000000000000028
100
AcDbArc
 50
90.0
 51
135.0
  0
LINE
  5
2B0
330
1F
100
AcDbEntity
  8
0
  6
Continuous
 62
     7
370
    15
100
AcDbLine
 10
198.246574853
 20
217.8131786497
 30
0.0
 11
208.4181477283
 21
217.8131786497
 31
0.0
  0
ARC
  5
2B1
330
1F
100
AcDbEntity
  8
0
  6
Continuous
 62
     7
370
    15
100
AcDbCircle
 10
208.4181477283
 20
216.8131786497
 30
0.0
 40
1.0
100
AcDbArc
 50
45.0
 51
90.0
  0
LINE
  5
2B2
330
1F
100
AcDbEntity
  8
0
  6
Continuous
 62
     7
370
    15
100
AcDbLine
 10
211.5394680718
 20
215.1060718685
 30
0.0
 11
209.1252545095
 21
217.5202854308
 31
0.0
  0
ARC
  5
2B3
330
1F
100
AcDbEntity
  8
0
  6
Continuous
 62
     7
370
    15
100
AcDbCircle
 10
210.8323612906
 20
214.3989650873
 30
0.0
 40
1.000000000000008
100
AcDbArc
 50
0.0
 51
45.0
  0
LINE
  5
2B4
330
1F
100
AcDbEntity
  8
0
  6
Continuous
 62
     7
370
    15
100
AcDbLine
 10
211.8323612906
 20
214.3989650873
 30
0.0
 11
211.8323612906
 21
201.6819706908
 31
0.0
  0
ARC
  5
2B5
330
1F
100
AcDbEntity
  8
0
  6
Continuous
 62
     7
370
    15
100
AcDbCircle
 10
212.8323612906
 20
201.6819706908
 30
0.0
 40
1.0
100
AcDbArc
 50
180.0
 51
360.0
  0
ARC
  5
2B6
330
1F
100
AcDbEntity
  8
0
  6
Continuous
 62
     7
370
    15
100
AcDbCircle
 10
214.8323612906
 20
201.6819706908
 30
0.0
 40
1.0
100
AcDbArc
 50
90.0
 51
180.0
  0
LINE
  5
2B7
330
1F
100
AcDbEntity
  8
0
  6
Continuous
 62
     7
370
    15
100
AcDbLine
 10
309.5039341659
 20
202.6819706908
 30
0.0
 11
214.8323612906
 21
202.6819706908
 31
0.0
  0
ARC
  5
2B8
330
1F
100
AcDbEntity
  8
0
  6
Continuous
 62
     7
370
    15
100
AcDbCircle
 10
309.5039341659
 20
200.6819706908
 30
0.0
 40
2.000000000000076
100
AcDbArc
 50
45.0
 51
90.0
  0
LINE
  5
2B9
330
1F
100
AcDbEntity
  8
0
  6
Continuous
 62
     7
370
    15
100
AcDbLine
 10
312.746574853
 20
200.2677571284
 30
0.0
 11
310.9181477283
 21
202.0961842532
 31
0.0
  0
ARC
  5
2BA
330
1F
100
AcDbEntity
  8
0
  6
Continuous
 62
     7
370
    15
100
AcDbCircle
 10
311.3323612906
 20
198.8535435661
 30
0.0
 40
2.0
100
AcDbArc
 50
0.0
 51
45.0
  0
LINE
  5
2BB
330
1F
100
AcDbEntity
  8
0
  6
Continuous
 62
     7
370
    15
100
AcDbLine
 10
313.3323612906
 20
185.5103978155
 30
0.0
 11
313.3323612906
 21
198.8535435661
 31
0.0
  0
ARC
  5
2BC
330
1F
100
AcDbEntity
  8
0
  6
Continuous
 62
     7
370
    15
100
AcDbCircle
 10
311.3323612906
 20
185.5103978155
 30
0.0
 40
2.0
100
AcDbArc
 50
315.0
 51
0.0
  0
LINE
  5
2BD
330
1F
100
AcDbEntity
  8
0
  6
Continuous
 62
     7
370
    15
100
AcDbLine
 10
306.9181477283
 20
178.2677571284
 30
0.0
 11
312.746574853
 21
184.0961842532
 31
0.0
  0
ARC
  5
2BE
330
1F
100
AcDbEntity
  8
0
  6
Continuous
 62
     7
370
    15
100
AcDbCircle
 10
305.5039341659
 20
179.6819706908
 30
0.0
 40
2.000000000000076
100
AcDbArc
 50
270.0
 51
315.0
  0
LINE
  5
2BF
330
1F
100
AcDbEntity
  8
0
  6
Continuous
 62
     7
370
    15
100
AcDbLine
 10
244.3323612906
 20
177.6819706908
 30
0.0
 11
305.5039341659
 21
177.6819706908
 31
0.0
  0
ARC
  5
2C0
330
1F
100
AcDbEntity
  8
0
  6
Continuous
 62
     7
370
    15
100
AcDbCircle
 10
244.3323612906
 20
176.6819706908
 30
0.0
 40
1.000000000000028
100
AcDbArc
 50
90.0
 51
180.0
  0
LINE
  5
2C1
330
1F
100
AcDbEntity
  8
0
  6
Continuous
 62
     7
370
    15
100
AcDbLine
 10
243.3323612906
 20
174.5300533845
 30
0.0
 11
243.3323612906
 21
176.6819706908
 31
0.0
  0
LINE
  5
2C2
330
1F
100
AcDbEntity
  8
0
  6
Continuous
 62
     7
370
    15
100
AcDbLine
 10
266.5435539118
 20
119.8864935169
 30
0.0
 11
243.3323612906
 21
174.5300533845
 31
0.0
  0
LINE
  5
2C3
330
1F
100
AcDbEntity
  8
0
  6
Continuous
 62
     7
370
    15
100
AcDbLine
 10
236.3323612906
 20
173.4209255493
 30
0.0
 11
230.3323612906
 21
173.4209255493
 31
0.0
  0
ARC
  5
2C4
330
1F
100
AcDbEntity
  8
0
  6
Continuous
 62
     7
370
    15
100
AcDbCircle
 10
236.3323612906
 20
174.4209255493
 30
0.0
 40
1.0
100
AcDbArc
 50
270.0
 51
0.0
  0
LINE
  5
2C5
330
1F
100
AcDbEntity
  8
0
  6
Continuous
 62
     7
370
    15
100
AcDbLine
 10
237.3323612906
 20
175.6819706908
 30
0.0
 11
237.3323612906
 21
174.4209255493
 31
0.0
  0
ARC
  5
2C6
330
1F
100
AcDbEntity
  8
0
  6
Continuous
 62
     7
370
    15
100
AcDbCircle
 10
236.3323612906
 20
175.6819706908
 30
0.0
 40
1.0
100
AcDbArc
 50
0.0
 51
90.0
  0
LINE
  5
2C7
330
1F
100
AcDbEntity
  8
0
  6
Continuous
 62
     7
370
    15
100
AcDbLine
 10
236.3323612906
 20
176.6819706908
 30
0.0
 11
230.3323612906
 21
176.6819706908
 31
0.0
  0
ARC
  5
2C8
330
1F
100
AcDbEntity
  8
0
  6
Continuous
 62
     7
370
    15
100
AcDbCircle
 10
230.3323612906
 20
175.6819706908
 30
0.0
 40
1.0
100
AcDbArc
 50
90.0
 51
180.0
  0
LINE
  5
2C9
330
1F
100
AcDbEntity
  8
0
  6
Continuous
 62
     7
370
    15
100
AcDbLine
 10
229.3323612906
 20
174.4209255493
 30
0.0
 11
229.3323612906
 21
175.6819706908
 31
0.0
  0
ARC
  5
2CA
330
1F
100
AcDbEntity
  8
0
  6
Continuous
 62
     7
370
    15
100
AcDbCircle
 10
230.3323612906
 20
174.4209255493
 30
0.0
 40
1.0
100
AcDbArc
 50
180.0
 51
270.0
  0
DIMENSION
  5
2CB
330
1F
100
AcDbEntity
  8
DESSIN
 62
     7
100
AcDbDimension
  2
_D
 10
313.3323612906
 20
233.8131786497
 30
0.0
 11
203.9631006457
 21
233.8131786497
 31
0.0
 70
   160
  1
<>
 71
     2
 42
-1.0
  3
SLDDIMSTYLE0
100
AcDbAlignedDimension
 13
93.3323612906
 23
198.8535435661
 33
0.0
 14
313.3323612906
 24
198.8535435661
 34
0.0
100
AcDbRotatedDimension
  0
DIMENSION
  5
2D6
330
1F
100
AcDbEntity
  8
DESSIN
 62
     7
100
AcDbDimension
  2
_D_1
 10
53.3323612906
 20
115.6753008957
 30
0.0
 11
53.3323612906
 21
169.005253226
 31
0.0
 70
   160
  1
<>
 71
     2
 42
-1.0
  3
SLDDIMSTYLE0
100
AcDbAlignedDimension
 13
198.246574853
 23
217.8131786497
 33
0.0
 14
144.3323612906
 24
115.6753008957
 34
0.0
 50
90.0
100
AcDbRotatedDimension
  0
INSERT
  5
2EB
330
1F
100
AcDbEntity
  8
DESSIN
 62
     7
100
AcDbBlockReference
  2
SW_CENTERMARKSYMBOL_0
 10
103.3323612906
 20
188.7819706908
 30
0.0
  0
INSERT
  5
2F7
330
1F
100
AcDbEntity
  8
DESSIN
 62
     7
100
AcDbBlockReference
  2
SW_CENTERMARKSYMBOL_1
 10
303.3323612906
 20
188.7819706908
 30
0.0
  0
INSERT
  5
303
330
1F
100
AcDbEntity
  8
DESSIN
 62
     7
100
AcDbBlockReference
  2
SW_CENTERMARKSYMBOL_2
 10
253.3323612906
 20
190.1819706908
 30
0.0
  0
INSERT
  5
30F
330
1F
100
AcDbEntity
  8
DESSIN
 62
     7
100
AcDbBlockReference
  2
SW_CENTERMARKSYMBOL_3
 10
153.3323612906
 20
190.1819706908
 30
0.0
  0
INSERT
  5
31B
330
1F
100
AcDbEntity
  8
DESSIN
 62
     7
100
AcDbBlockReference
  2
SW_CENTERMARKSYMBOL_4
 10
203.3323612906
 20
209.7402385139
 30
0.0
  0
INSERT
  5
327
330
1F
100
AcDbEntity
  8
DESSIN
 62
     7
100
AcDbBlockReference
  2
SW_CENTERMARKSYMBOL_5
 10
253.3323612906
 20
125.6753008957
 30
0.0
  0
INSERT
  5
333
330
1F
100
AcDbEntity
  8
DESSIN
 62
     7
100
AcDbBlockReference
  2
SW_CENTERMARKSYMBOL_6
 10
153.3323612906
 20
125.6753008957
 30
0.0
  0
LINE
  5
334
330
1F
100
AcDbEntity
  8
0
  6
Continuous
 62
     7
370
    15
100
AcDbLine
 10
365.4191420787
 20
185.5103978155
 30
0.0
 11
367.4191420787
 21
185.5103978155
 31
0.0
  0
LINE
  5
335
330
1F
100
AcDbEntity
  8
0
  6
Continuous
 62
     7
370
    15
100
AcDbLine
 10
367.4191420787
 20
185.5103978155
 30
0.0
 11
367.4191420787
 21
184.0961842532
 31
0.0
  0
LINE
  5
336
330
1F
100
AcDbEntity
  8
0
  6
Continuous
 62
     7
370
    15
100
AcDbLine
 10
367.4191420787
 20
184.0961842532
 30
0.0
 11
365.4191420787
 21
184.0961842532
 31
0.0
  0
LINE
  5
337
330
1F
100
AcDbEntity
  8
0
  6
Continuous
 62
     7
370
    15
100
AcDbLine
 10
365.4191420787
 20
184.0961842532
 30
0.0
 11
365.4191420787
 21
185.5103978155
 31
0.0
  0
LINE
  5
338
330
1F
100
AcDbEntity
  8
0
  6
Continuous
 62
     7
370
    15
100
AcDbLine
 10
367.4191420787
 20
198.8535435661
 30
0.0
 11
365.4191420787
 21
198.8535435661
 31
0.0
  0
LINE
  5
339
330
1F
100
AcDbEntity
  8
0
  6
Continuous
 62
     7
370
    15
100
AcDbLine
 10
367.4191420787
 20
198.8535435661
 30
0.0
 11
367.4191420787
 21
185.5103978155
 31
0.0
  0
LINE
  5
33A
330
1F
100
AcDbEntity
  8
0
  6
Continuous
 62
     7
370
    15
100
AcDbLine
 10
365.4191420787
 20
198.8535435661
 30
0.0
 11
365.4191420787
 21
185.5103978155
 31
0.0
  0
LINE
  5
33B
330
1F
100
AcDbEntity
  8
0
  6
Continuous
 62
     7
370
    15
100
AcDbLine
 10
365.4191420787
 20
200.2677571284
 30
0.0
 11
367.4191420787
 21
200.2677571284
 31
0.0
  0
LINE
  5
33C
330
1F
100
AcDbEntity
  8
0
  6
Continuous
 62
     7
370
    15
100
AcDbLine
 10
367.4191420787
 20
200.2677571284
 30
0.0
 11
367.4191420787
 21
198.8535435661
 31
0.0
  0
LINE
  5
33D
330
1F
100
AcDbEntity
  8
0
  6
Continuous
 62
     7
370
    15
100
AcDbLine
 10
365.4191420787
 20
198.8535435661
 30
0.0
 11
365.4191420787
 21
200.2677571284
 31
0.0
  0
LINE
  5
33E
330
1F
100
AcDbEntity
  8
0
  6
Continuous
 62
     7
370
    15
100
AcDbLine
 10
367.4191420787
 20
202.0961842532
 30
0.0
 11
365.4191420787
 21
202.0961842532
 31
0.0
  0
LINE
  5
33F
330
1F
100
AcDbEntity
  8
0
  6
Continuous
 62
     7
370
    15
100
AcDbLine
 10
367.4191420787
 20
202.0961842532
 30
0.0
 11
367.4191420787
 21
200.2677571284
 31
0.0
  0
LINE
  5
340
330
1F
100
AcDbEntity
  8
0
  6
Continuous
 62
     7
370
    15
100
AcDbLine
 10
365.4191420787
 20
200.2677571284
 30
0.0
 11
365.4191420787
 21
202.0961842532
 31
0.0
  0
LINE
  5
341
330
1F
100
AcDbEntity
  8
0
  6
Continuous
 62
     7
370
    15
100
AcDbLine
 10
365.4191420787
 20
178.2677571284
 30
0.0
 11
367.4191420787
 21
178.2677571284
 31
0.0
  0
LINE
  5
342
330
1F
100
AcDbEntity
  8
0
  6
Continuous
 62
     7
370
    15
100
AcDbLine
 10
367.4191420787
 20
184.0961842532
 30
0.0
 11
367.4191420787
 21
178.2677571284
 31
0.0
  0
LINE
  5
343
330
1F
100
AcDbEntity
  8
0
  6
Continuous
 62
     7
370
    15
100
AcDbLine
 10
365.4191420787
 20
178.2677571284
 30
0.0
 11
365.4191420787
 21
184.0961842532
 31
0.0
  0
LINE
  5
344
330
1F
100
AcDbEntity
  8
0
  6
Continuous
 62
     7
370
    15
100
AcDbLine
 10
365.4191420787
 20
202.6819706908
 30
0.0
 11
367.4191420787
 21
202.6819706908
 31
0.0
  0
LINE
  5
345
330
1F
100
AcDbEntity
  8
0
  6
Continuous
 62
     7
370
    15
100
AcDbLine
 10
367.4191420787
 20
202.6819706908
 30
0.0
 11
367.4191420787
 21
202.0961842532
 31
0.0
  0
LINE
  5
346
330
1F
100
AcDbEntity
  8
0
  6
Continuous
 62
     7
370
    15
100
AcDbLine
 10
365.4191420787
 20
202.0961842532
 30
0.0
 11
365.4191420787
 21
202.6819706908
 31
0.0
  0
LINE
  5
347
330
1F
100
AcDbEntity
  8
0
  6
Continuous
 62
     7
370
    15
100
AcDbLine
 10
367.4191420787
 20
177.6819706908
 30
0.0
 11
365.4191420787
 21
177.6819706908
 31
0.0
  0
LINE
  5
348
330
1F
100
AcDbEntity
  8
0
  6
Continuous
 62
     7
370
    15
100
AcDbLine
 10
367.4191420787
 20
178.2677571284
 30
0.0
 11
367.4191420787
 21
177.6819706908
 31
0.0
  0
LINE
  5
349
330
1F
100
AcDbEntity
  8
0
  6
Continuous
 62
     7
370
    15
100
AcDbLine
 10
365.4191420787
 20
177.6819706908
 30
0.0
 11
365.4191420787
 21
178.2677571284
 31
0.0
  0
LINE
  5
34A
330
1F
100
AcDbEntity
  8
0
  6
Continuous
 62
     7
370
    15
100
AcDbLine
 10
365.4191420787
 20
119.8864935169
 30
0.0
 11
367.4191420787
 21
119.8864935169
 31
0.0
  0
LINE
  5
34B
330
1F
100
AcDbEntity
  8
0
  6
Continuous
 62
     7
370
    15
100
AcDbLine
 10
367.4191420787
 20
115.6753008957
 30
0.0
 11
365.4191420787
 21
115.6753008957
 31
0.0
  0
LINE
  5
34C
330
1F
100
AcDbEntity
  8
0
  6
Continuous
 62
     7
370
    15
100
AcDbLine
 10
367.4191420787
 20
119.8864935169
 30
0.0
 11
367.4191420787
 21
115.6753008957
 31
0.0
  0
LINE
  5
34D
330
1F
100
AcDbEntity
  8
0
  6
Continuous
 62
     7
370
    15
100
AcDbLine
 10
365.4191420787
 20
115.6753008957
 30
0.0
 11
365.4191420787
 21
119.8864935169
 31
0.0
  0
LINE
  5
34E
330
1F
100
AcDbEntity
  8
0
  6
Continuous
 62
     7
370
    15
100
AcDbLine
 10
365.4191420787
 20
174.5300533845
 30
0.0
 11
367.4191420787
 21
174.5300533845
 31
0.0
  0
LINE
  5
34F
330
1F
100
AcDbEntity
  8
0
  6
Continuous
 62
     7
370
    15
100
AcDbLine
 10
367.4191420787
 20
174.5300533845
 30
0.0
 11
367.4191420787
 21
119.8864935169
 31
0.0
  0
LINE
  5
350
330
1F
100
AcDbEntity
  8
0
  6
Continuous
 62
     7
370
    15
100
AcDbLine
 10
365.4191420787
 20
174.5300533845
 30
0.0
 11
365.4191420787
 21
119.8864935169
 31
0.0
  0
LINE
  5
351
330
1F
100
AcDbEntity
  8
0
  6
Continuous
 62
     7
370
    15
100
AcDbLine
 10
367.4191420787
 20
176.6819706908
 30
0.0
 11
365.4191420787
 21
176.6819706908
 31
0.0
  0
LINE
  5
352
330
1F
100
AcDbEntity
  8
0
  6
Continuous
 62
     7
370
    15
100
AcDbLine
 10
367.4191420787
 20
177.6819706908
 30
0.0
 11
367.4191420787
 21
176.6819706908
 31
0.0
  0
LINE
  5
353
330
1F
100
AcDbEntity
  8
0
  6
Continuous
 62
     7
370
    15
100
AcDbLine
 10
365.4191420787
 20
176.6819706908
 30
0.0
 11
365.4191420787
 21
177.6819706908
 31
0.0
  0
LINE
  5
354
330
1F
100
AcDbEntity
  8
0
  6
Continuous
 62
     7
370
    15
100
AcDbLine
 10
367.4191420787
 20
176.6819706908
 30
0.0
 11
367.4191420787
 21
174.5300533845
 31
0.0
  0
LINE
  5
355
330
1F
100
AcDbEntity
  8
0
  6
Continuous
 62
     7
370
    15
100
AcDbLine
 10
365.4191420787
 20
176.6819706908
 30
0.0
 11
365.4191420787
 21
174.5300533845
 31
0.0
  0
LINE
  5
356
330
1F
100
AcDbEntity
  8
0
  6
Continuous
 62
     7
370
    15
100
AcDbLine
 10
367.4191420787
 20
214.3989650873
 30
0.0
 11
365.4191420787
 21
214.3989650873
 31
0.0
  0
LINE
  5
357
330
1F
100
AcDbEntity
  8
0
  6
Continuous
 62
     7
370
    15
100
AcDbLine
 10
367.4191420787
 20
202.6819706908
 30
0.0
 11
367.4191420787
 21
214.3989650873
 31
0.0
  0
LINE
  5
358
330
1F
100
AcDbEntity
  8
0
  6
Continuous
 62
     7
370
    15
100
AcDbLine
 10
365.4191420787
 20
202.6819706908
 30
0.0
 11
365.4191420787
 21
214.3989650873
 31
0.0
  0
LINE
  5
359
330
1F
100
AcDbEntity
  8
0
  6
Continuous
 62
     7
370
    15
100
AcDbLine
 10
365.4191420787
 20
215.1060718685
 30
0.0
 11
367.4191420787
 21
215.1060718685
 31
0.0
  0
LINE
  5
35A
330
1F
100
AcDbEntity
  8
0
  6
Continuous
 62
     7
370
    15
100
AcDbLine
 10
367.4191420787
 20
215.1060718685
 30
0.0
 11
367.4191420787
 21
214.3989650873
 31
0.0
  0
LINE
  5
35B
330
1F
100
AcDbEntity
  8
0
  6
Continuous
 62
     7
370
    15
100
AcDbLine
 10
365.4191420787
 20
214.3989650873
 30
0.0
 11
365.4191420787
 21
215.1060718685
 31
0.0
  0
LINE
  5
35C
330
1F
100
AcDbEntity
  8
0
  6
Continuous
 62
     7
370
    15
100
AcDbLine
 10
367.4191420787
 20
217.5202854308
 30
0.0
 11
365.4191420787
 21
217.5202854308
 31
0.0
  0
LINE
  5
35D
330
1F
100
AcDbEntity
  8
0
  6
Continuous
 62
     7
370
    15
100
AcDbLine
 10
367.4191420787
 20
217.5202854308
 30
0.0
 11
367.4191420787
 21
215.1060718685
 31
0.0
  0
LINE
  5
35E
330
1F
100
AcDbEntity
  8
0
  6
Continuous
 62
     7
370
    15
100
AcDbLine
 10
365.4191420787
 20
215.1060718685
 30
0.0
 11
365.4191420787
 21
217.5202854308
 31
0.0
  0
LINE
  5
35F
330
1F
100
AcDbEntity
  8
0
  6
Continuous
 62
     7
370
    15
100
AcDbLine
 10
365.4191420787
 20
217.8131786497
 30
0.0
 11
367.4191420787
 21
217.8131786497
 31
0.0
  0
LINE
  5
360
330
1F
100
AcDbEntity
  8
0
  6
Continuous
 62
     7
370
    15
100
AcDbLine
 10
367.4191420787
 20
217.8131786497
 30
0.0
 11
367.4191420787
 21
217.5202854308
 31
0.0
  0
LINE
  5
361
330
1F
100
AcDbEntity
  8
0
  6
Continuous
 62
     7
370
    15
100
AcDbLine
 10
365.4191420787
 20
217.5202854308
 30
0.0
 11
365.4191420787
 21
217.8131786497
 31
0.0
  0
DIMENSION
  5
362
330
1F
100
AcDbEntity
  8
DESSIN
 62
     7
100
AcDbDimension
  2
_D_2
 10
367.4191420787
 20
239.8131786497
 30
0.0
 11
346.1012564187
 21
239.8131786497
 31
0.0
 70
   160
  1
<>
 71
     2
 42
-1.0
  3
SLDDIMSTYLE1
100
AcDbAlignedDimension
 13
365.4191420787
 23
217.8131786497
 33
0.0
 14
367.4191420787
 24
217.8131786497
 34
0.0
100
AcDbRotatedDimension
  0
ENDSEC
  0
SECTION
  2
OBJECTS
  0
DICTIONARY
  5
C
330
0
100
AcDbDictionary
281
     1
  3
ACAD_GROUP
350
D
  3
ACAD_LAYOUT
350
1A
  3
ACAD_MLINESTYLE
350
17
  3
ACAD_PLOTSETTINGS
350
19
  3
ACAD_PLOTSTYLENAME
350
E
  3
ACAD_SCALELIST
350
47
  0
DICTIONARY
  5
D
102
{ACAD_REACTORS
330
C
102
}
330
C
100
AcDbDictionary
281
     1
  0
DICTIONARY
  5
1A
102
{ACAD_REACTORS
330
C
102
}
330
C
100
AcDbDictionary
281
     1
  3
Layout1
350
1E
  3
Layout2
350
26
  3
Model
350
22
  0
DICTIONARY
  5
17
102
{ACAD_REACTORS
330
C
102
}
330
C
100
AcDbDictionary
281
     1
  3
Standard
350
18
  0
DICTIONARY
  5
19
102
{ACAD_REACTORS
330
C
102
}
330
C
100
AcDbDictionary
281
     1
  0
ACDBDICTIONARYWDFLT
  5
E
102
{ACAD_REACTORS
330
C
102
}
330
C
100
AcDbDictionary
281
     1
  3
Normal
350
F
100
AcDbDictionaryWithDefault
340
F
  0
DICTIONARY
  5
47
102
{ACAD_REACTORS
330
C
102
}
330
C
100
AcDbDictionary
281
     1
  3
A0
350
48
  3
A1
350
49
  3
A2
350
4A
  3
A3
350
4B
  3
A4
350
4C
  3
A5
350
4D
  3
A6
350
4E
  3
A7
350
4F
  3
A8
350
50
  3
A9
350
51
  3
B0
350
52
  3
B1
350
53
  3
B2
350
54
  3
B3
350
55
  3
B4
350
56
  3
B5
350
57
  3
B6
350
58
  3
B7
350
59
  3
B8
350
5A
  3
B9
350
5B
  3
C0
350
5C
  3
C1
350
5D
  3
C2
350
5E
  3
C3
350
5F
  3
C4
350
60
  3
C5
350
61
  3
C6
350
62
  3
C7
350
63
  3
C8
350
64
  3
C9
350
65
  3
D0
350
66
  3
D1
350
67
  3
D2
350
68
  0
LAYOUT
  5
1E
102
{ACAD_REACTORS
330
1A
102
}
330
1A
100
AcDbPlotSettings
  1

  2
none_device
  4

  6

 40
0.0
 41
0.0
 42
0.0
 43
0.0
 44
0.0
 45
0.0
 46
0.0
 47
0.0
 48
0.0
 49
0.0
140
0.0
141
0.0
142
1.0
143
1.0
 70
   688
 72
     1
 73
     0
 74
     5
  7

 75
    16
147
1.0
148
0.0
149
0.0
100
AcDbLayout
  1
Layout1
 70
     1
 71
     1
 10
0.0
 20
0.0
 11
420.0
 21
297.0
 12
0.0
 22
0.0
 32
0.0
 14
1.0000000000E+20
 24
1.0000000000E+20
 34
1.0000000000E+20
 15
-1.0000000000E+20
 25
-1.0000000000E+20
 35
-1.0000000000E+20
146
0.0
 13
0.0
 23
0.0
 33
0.0
 16
1.0
 26
0.0
 36
0.0
 17
0.0
 27
1.0
 37
0.0
 76
     0
330
1B
  0
LAYOUT
  5
26
102
{ACAD_REACTORS
330
1A
102
}
330
1A
100
AcDbPlotSettings
  1

  2
none_device
  4

  6

 40
0.0
 41
0.0
 42
0.0
 43
0.0
 44
0.0
 45
0.0
 46
0.0
 47
0.0
 48
0.0
 49
0.0
140
0.0
141
0.0
142
1.0
143
1.0
 70
   688
 72
     1
 73
     0
 74
     5
  7

 75
    16
147
1.0
148
0.0
149
0.0
100
AcDbLayout
  1
Layout2
 70
     1
 71
     2
 10
0.0
 20
0.0
 11
0.0
 21
0.0
 12
0.0
 22
0.0
 32
0.0
 14
0.0
 24
0.0
 34
0.0
 15
0.0
 25
0.0
 35
0.0
146
0.0
 13
0.0
 23
0.0
 33
0.0
 16
1.0
 26
0.0
 36
0.0
 17
0.0
 27
1.0
 37
0.0
 76
     0
330
23
  0
LAYOUT
  5
22
102
{ACAD_REACTORS
330
1A
102
}
330
1A
100
AcDbPlotSettings
  1

  2
none_device
  4
Letter_(8.50_x_11.00_Inches)
  6

 40
6.35
 41
6.35
 42
6.35000508
 43
6.35000508
 44
215.9
 45
279.4
 46
0.0
 47
0.0
 48
0.0
 49
0.0
140
0.0
141
0.0
142
1.0
143
1.0
 70
  1712
 72
     1
 73
     0
 74
     0
  7

 75
     0
147
1.0
148
0.0
149
0.0
100
AcDbLayout
  1
Model
 70
     1
 71
     0
 10
0.0
 20
0.0
 11
420.0
 21
297.0
 12
0.0
 22
0.0
 32
0.0
 14
0.0
 24
0.0
 34
0.0
 15
420.0
 25
297.0
 35
0.0
146
0.0
 13
0.0
 23
0.0
 33
0.0
 16
1.0
 26
0.0
 36
0.0
 17
0.0
 27
1.0
 37
0.0
 76
     0
330
1F
331
29
  0
MLINESTYLE
  5
18
102
{ACAD_REACTORS
330
17
102
}
330
17
100
AcDbMlineStyle
  2
Standard
 70
     0
  3

 62
   256
 51
90.0
 52
90.0
 71
     2
 49
0.5
 62
   256
  6
BYLAYER
 49
-0.5
 62
   256
  6
BYLAYER
  0
ACDBPLACEHOLDER
  5
F
102
{ACAD_REACTORS
330
E
102
}
330
E
  0
SCALE
  5
48
102
{ACAD_REACTORS
330
47
102
}
330
47
100
AcDbScale
 70
     0
300
1:1
140
1.0
141
1.0
290
     1
  0
SCALE
  5
49
102
{ACAD_REACTORS
330
47
102
}
330
47
100
AcDbScale
 70
     0
300
1:2
140
1.0
141
2.0
290
     0
  0
SCALE
  5
4A
102
{ACAD_REACTORS
330
47
102
}
330
47
100
AcDbScale
 70
     0
300
1:4
140
1.0
141
4.0
290
     0
  0
SCALE
  5
4B
102
{ACAD_REACTORS
330
47
102
}
330
47
100
AcDbScale
 70
     0
300
1:5
140
1.0
141
5.0
290
     0
  0
SCALE
  5
4C
102
{ACAD_REACTORS
330
47
102
}
330
47
100
AcDbScale
 70
     0
300
1:8
140
1.0
141
8.0
290
     0
  0
SCALE
  5
4D
102
{ACAD_REACTORS
330
47
102
}
330
47
100
AcDbScale
 70
     0
300
1:10
140
1.0
141
10.0
290
     0
  0
SCALE
  5
4E
102
{ACAD_REACTORS
330
47
102
}
330
47
100
AcDbScale
 70
     0
300
1:16
140
1.0
141
16.0
290
     0
  0
SCALE
  5
4F
102
{ACAD_REACTORS
330
47
102
}
330
47
100
AcDbScale
 70
     0
300
1:20
140
1.0
141
20.0
290
     0
  0
SCALE
  5
50
102
{ACAD_REACTORS
330
47
102
}
330
47
100
AcDbScale
 70
     0
300
1:30
140
1.0
141
30.0
290
     0
  0
SCALE
  5
51
102
{ACAD_REACTORS
330
47
102
}
330
47
100
AcDbScale
 70
     0
300
1:40
140
1.0
141
40.0
290
     0
  0
SCALE
  5
52
102
{ACAD_REACTORS
330
47
102
}
330
47
100
AcDbScale
 70
     0
300
1:50
140
1.0
141
50.0
290
     0
  0
SCALE
  5
53
102
{ACAD_REACTORS
330
47
102
}
330
47
100
AcDbScale
 70
     0
300
1:100
140
1.0
141
100.0
290
     0
  0
SCALE
  5
54
102
{ACAD_REACTORS
330
47
102
}
330
47
100
AcDbScale
 70
     0
300
2:1
140
2.0
141
1.0
290
     0
  0
SCALE
  5
55
102
{ACAD_REACTORS
330
47
102
}
330
47
100
AcDbScale
 70
     0
300
4:1
140
4.0
141
1.0
290
     0
  0
SCALE
  5
56
102
{ACAD_REACTORS
330
47
102
}
330
47
100
AcDbScale
 70
     0
300
8:1
140
8.0
141
1.0
290
     0
  0
SCALE
  5
57
102
{ACAD_REACTORS
330
47
102
}
330
47
100
AcDbScale
 70
     0
300
10:1
140
10.0
141
1.0
290
     0
  0
SCALE
  5
58
102
{ACAD_REACTORS
330
47
102
}
330
47
100
AcDbScale
 70
     0
300
100:1
140
100.0
141
1.0
290
     0
  0
SCALE
  5
59
102
{ACAD_REACTORS
330
47
102
}
330
47
100
AcDbScale
 70
     0
300
1/128" = 1'-0"
140
0.0078125
141
12.0
290
     0
  0
SCALE
  5
5A
102
{ACAD_REACTORS
330
47
102
}
330
47
100
AcDbScale
 70
     0
300
1/64" = 1'-0"
140
0.015625
141
12.0
290
     0
  0
SCALE
  5
5B
102
{ACAD_REACTORS
330
47
102
}
330
47
100
AcDbScale
 70
     0
300
1/32" = 1'-0"
140
0.03125
141
12.0
290
     0
  0
SCALE
  5
5C
102
{ACAD_REACTORS
330
47
102
}
330
47
100
AcDbScale
 70
     0
300
1/16" = 1'-0"
140
0.0625
141
12.0
290
     0
  0
SCALE
  5
5D
102
{ACAD_REACTORS
330
47
102
}
330
47
100
AcDbScale
 70
     0
300
3/32" = 1'-0"
140
0.09375
141
12.0
290
     0
  0
SCALE
  5
5E
102
{ACAD_REACTORS
330
47
102
}
330
47
100
AcDbScale
 70
     0
300
1/8" = 1'-0"
140
0.125
141
12.0
290
     0
  0
SCALE
  5
5F
102
{ACAD_REACTORS
330
47
102
}
330
47
100
AcDbScale
 70
     0
300
3/16" = 1'-0"
140
0.1875
141
12.0
290
     0
  0
SCALE
  5
60
102
{ACAD_REACTORS
330
47
102
}
330
47
100
AcDbScale
 70
     0
300
1/4" = 1'-0"
140
0.25
141
12.0
290
     0
  0
SCALE
  5
61
102
{ACAD_REACTORS
330
47
102
}
330
47
100
AcDbScale
 70
     0
300
3/8" = 1'-0"
140
0.375
141
12.0
290
     0
  0
SCALE
  5
62
102
{ACAD_REACTORS
330
47
102
}
330
47
100
AcDbScale
 70
     0
300
1/2" = 1'-0"
140
0.5
141
12.0
290
     0
  0
SCALE
  5
63
102
{ACAD_REACTORS
330
47
102
}
330
47
100
AcDbScale
 70
     0
300
3/4" = 1'-0"
140
0.75
141
12.0
290
     0
  0
SCALE
  5
64
102
{ACAD_REACTORS
330
47
102
}
330
47
100
AcDbScale
 70
     0
300
1" = 1'-0"
140
1.0
141
12.0
290
     0
  0
SCALE
  5
65
102
{ACAD_REACTORS
330
47
102
}
330
47
100
AcDbScale
 70
     0
300
1-1/2" = 1'-0"
140
1.5
141
12.0
290
     0
  0
SCALE
  5
66
102
{ACAD_REACTORS
330
47
102
}
330
47
100
AcDbScale
 70
     0
300
3" = 1'-0"
140
3.0
141
12.0
290
     0
  0
SCALE
  5
67
102
{ACAD_REACTORS
330
47
102
}
330
47
100
AcDbScale
 70
     0
300
6" = 1'-0"
140
6.0
141
12.0
290
     0
  0
SCALE
  5
68
102
{ACAD_REACTORS
330
47
102
}
330
47
100
AcDbScale
 70
     0
300
1'-0" = 1'-0"
140
12.0
141
12.0
290
     0
  0
ENDSEC
  0
EOF
