  0
SECTION
  2
HEADER
  9
$ACADVER
  1
AC1015
  9
$ACADMAINTVER
 70
     6
  9
$DWGCODEPAGE
  3
ANSI_1252
  9
$INSBASE
 10
0.0
 20
0.0
 30
0.0
  9
$EXTMIN
 10
0.0
 20
0.0
 30
0.0
  9
$EXTMAX
 10
841.0
 20
594.0
 30
0.0
  9
$LIMMIN
 10
0.0
 20
0.0
  9
$LIMMAX
 10
841.0
 20
594.0
  9
$ORTHOMODE
 70
     0
  9
$REGENMODE
 70
     1
  9
$FILLMODE
 70
     1
  9
$QTEXTMODE
 70
     0
  9
$MIRRTEXT
 70
     1
  9
$LTSCALE
 40
1.0
  9
$ATTMODE
 70
     1
  9
$TEXTSIZE
 40
3.5
  9
$TRACEWID
 40
1.0
  9
$TEXTSTYLE
  7
Standard
  9
$CLAYER
  8
0
  9
$CELTYPE
  6
ByLayer
  9
$CECOLOR
 62
   256
  9
$CELTSCALE
 40
1.0
  9
$DISPSILH
 70
     0
  9
$DIMSCALE
 40
1.0
  9
$DIMASZ
 40
6.0
  9
$DIMEXO
 40
1.0
  9
$DIMDLI
 40
3.75
  9
$DIMRND
 40
0.0
  9
$DIMDLE
 40
0.0
  9
$DIMEXE
 40
1.0
  9
$DIMTP
 40
0.0
  9
$DIMTM
 40
0.0
  9
$DIMTXT
 40
3.5
  9
$DIMCEN
 40
2.5
  9
$DIMTSZ
 40
0.0
  9
$DIMTOL
 70
     0
  9
$DIMLIM
 70
     0
  9
$DIMTIH
 70
     1
  9
$DIMTOH
 70
     1
  9
$DIMSE1
 70
     0
  9
$DIMSE2
 70
     0
  9
$DIMTAD
 70
     1
  9
$DIMZIN
 70
     0
  9
$DIMBLK
  1

  9
$DIMASO
 70
     1
  9
$DIMSHO
 70
     1
  9
$DIMPOST
  1

  9
$DIMAPOST
  1

  9
$DIMALT
 70
     0
  9
$DIMALTD
 70
     3
  9
$DIMALTF
 40
0.0393700787
  9
$DIMLFAC
 40
1.0
  9
$DIMTOFL
 70
     1
  9
$DIMTVP
 40
0.0
  9
$DIMTIX
 70
     0
  9
$DIMSOXD
 70
     0
  9
$DIMSAH
 70
     0
  9
$DIMBLK1
  1

  9
$DIMBLK2
  1

  9
$DIMSTYLE
  2
ISO-25
  9
$DIMCLRD
 70
     0
  9
$DIMCLRE
 70
     0
  9
$DIMCLRT
 70
     0
  9
$DIMTFAC
 40
1.0
  9
$DIMGAP
 40
1.524
  9
$DIMJUST
 70
     0
  9
$DIMSD1
 70
     0
  9
$DIMSD2
 70
     0
  9
$DIMTOLJ
 70
     0
  9
$DIMTZIN
 70
     0
  9
$DIMALTZ
 70
     0
  9
$DIMALTTZ
 70
     0
  9
$DIMUPT
 70
     0
  9
$DIMDEC
 70
     2
  9
$DIMTDEC
 70
     2
  9
$DIMALTU
 70
     2
  9
$DIMALTTD
 70
     3
  9
$DIMTXSTY
  7
Standard
  9
$DIMAUNIT
 70
     0
  9
$DIMADEC
 70
     2
  9
$DIMALTRND
 40
0.0
  9
$DIMAZIN
 70
     0
  9
$DIMDSEP
 70
    44
  9
$DIMATFIT
 70
     3
  9
$DIMFRAC
 70
     0
  9
$DIMLDRBLK
  1

  9
$DIMLUNIT
 70
     2
  9
$DIMLWD
 70
    -2
  9
$DIMLWE
 70
    -2
  9
$DIMTMOVE
 70
     0
  9
$LUNITS
 70
     2
  9
$LUPREC
 70
     2
  9
$SKETCHINC
 40
1.0
  9
$FILLETRAD
 40
10.0
  9
$AUNITS
 70
     0
  9
$AUPREC
 70
     2
  9
$MENU
  1
.
  9
$ELEVATION
 40
0.0
  9
$PELEVATION
 40
0.0
  9
$THICKNESS
 40
0.0
  9
$LIMCHECK
 70
     0
  9
$CHAMFERA
 40
0.0
  9
$CHAMFERB
 40
0.0
  9
$CHAMFERC
 40
0.0
  9
$CHAMFERD
 40
0.0
  9
$SKPOLY
 70
     0
  9
$TDCREATE
 40
2458331.531707442
  9
$TDUCREATE
 40
2458331.448374109
  9
$TDUPDATE
 40
2458331.531709317
  9
$TDUUPDATE
 40
2458331.448375984
  9
$TDINDWG
 40
0.0000000116
  9
$TDUSRTIMER
 40
0.0000000116
  9
$USRTIMER
 70
     1
  9
$ANGBASE
 50
0.0
  9
$ANGDIR
 70
     0
  9
$PDMODE
 70
     0
  9
$PDSIZE
 40
-1.0
  9
$PLINEWID
 40
0.0
  9
$SPLFRAME
 70
     0
  9
$SPLINETYPE
 70
     6
  9
$SPLINESEGS
 70
     8
  9
$HANDSEED
  5
38A
  9
$SURFTAB1
 70
     6
  9
$SURFTAB2
 70
     6
  9
$SURFTYPE
 70
     6
  9
$SURFU
 70
     6
  9
$SURFV
 70
     6
  9
$UCSBASE
  2

  9
$UCSNAME
  2

  9
$UCSORG
 10
0.0
 20
0.0
 30
0.0
  9
$UCSXDIR
 10
1.0
 20
0.0
 30
0.0
  9
$UCSYDIR
 10
0.0
 20
1.0
 30
0.0
  9
$UCSORTHOREF
  2

  9
$UCSORTHOVIEW
 70
     0
  9
$UCSORGTOP
 10
0.0
 20
0.0
 30
0.0
  9
$UCSORGBOTTOM
 10
0.0
 20
0.0
 30
0.0
  9
$UCSORGLEFT
 10
0.0
 20
0.0
 30
0.0
  9
$UCSORGRIGHT
 10
0.0
 20
0.0
 30
0.0
  9
$UCSORGFRONT
 10
0.0
 20
0.0
 30
0.0
  9
$UCSORGBACK
 10
0.0
 20
0.0
 30
0.0
  9
$PUCSBASE
  2

  9
$PUCSNAME
  2

  9
$PUCSORG
 10
0.0
 20
0.0
 30
0.0
  9
$PUCSXDIR
 10
1.0
 20
0.0
 30
0.0
  9
$PUCSYDIR
 10
0.0
 20
1.0
 30
0.0
  9
$PUCSORTHOREF
  2

  9
$PUCSORTHOVIEW
 70
     0
  9
$PUCSORGTOP
 10
0.0
 20
0.0
 30
0.0
  9
$PUCSORGBOTTOM
 10
0.0
 20
0.0
 30
0.0
  9
$PUCSORGLEFT
 10
0.0
 20
0.0
 30
0.0
  9
$PUCSORGRIGHT
 10
0.0
 20
0.0
 30
0.0
  9
$PUCSORGFRONT
 10
0.0
 20
0.0
 30
0.0
  9
$PUCSORGBACK
 10
0.0
 20
0.0
 30
0.0
  9
$USERI1
 70
     0
  9
$USERI2
 70
     0
  9
$USERI3
 70
     0
  9
$USERI4
 70
     0
  9
$USERI5
 70
     0
  9
$USERR1
 40
0.0
  9
$USERR2
 40
0.0
  9
$USERR3
 40
0.0
  9
$USERR4
 40
0.0
  9
$USERR5
 40
0.0
  9
$WORLDVIEW
 70
     1
  9
$SHADEDGE
 70
     3
  9
$SHADEDIF
 70
    70
  9
$TILEMODE
 70
     1
  9
$MAXACTVP
 70
    64
  9
$PINSBASE
 10
0.0
 20
0.0
 30
0.0
  9
$PLIMCHECK
 70
     0
  9
$PEXTMIN
 10
1.0000000000E+20
 20
1.0000000000E+20
 30
1.0000000000E+20
  9
$PEXTMAX
 10
-1.0000000000E+20
 20
-1.0000000000E+20
 30
-1.0000000000E+20
  9
$PLIMMIN
 10
0.0
 20
0.0
  9
$PLIMMAX
 10
420.0
 20
297.0
  9
$UNITMODE
 70
     0
  9
$VISRETAIN
 70
     1
  9
$PLINEGEN
 70
     0
  9
$PSLTSCALE
 70
     1
  9
$TREEDEPTH
 70
  3020
  9
$CMLSTYLE
  2
Standard
  9
$CMLJUST
 70
     0
  9
$CMLSCALE
 40
20.0
  9
$PROXYGRAPHICS
 70
     1
  9
$MEASUREMENT
 70
     1
  9
$CELWEIGHT
370
    -1
  9
$ENDCAPS
280
     0
  9
$JOINSTYLE
280
     0
  9
$LWDISPLAY
290
     1
  9
$INSUNITS
 70
     4
  9
$HYPERLINKBASE
  1

  9
$STYLESHEET
  1

  9
$XEDIT
290
     1
  9
$CEPSNTYPE
380
     0
  9
$PSTYLEMODE
290
     1
  9
$FINGERPRINTGUID
  2
{F5956DC4-1621-4931-948D-D2EF32B5C2B7}
  9
$VERSIONGUID
  2
{FAEB1C32-E019-11D5-929B-00C0DF256EC4}
  9
$EXTNAMES
290
     1
  9
$PSVPSCALE
 40
0.0
  9
$OLESTARTUP
290
     0
  0
ENDSEC
  0
SECTION
  2
CLASSES
  0
CLASS
  1
ACDBDICTIONARYWDFLT
  2
AcDbDictionaryWithDefault
  3
ObjectDBX Classes
 90
        0
280
     0
281
     0
  0
CLASS
  1
VISUALSTYLE
  2
AcDbVisualStyle
  3
ObjectDBX Classes
 90
     4095
280
     0
281
     0
  0
CLASS
  1
MATERIAL
  2
AcDbMaterial
  3
ObjectDBX Classes
 90
     1153
280
     0
281
     0
  0
CLASS
  1
SCALE
  2
AcDbScale
  3
ObjectDBX Classes
 90
     1153
280
     0
281
     0
  0
CLASS
  1
SUN
  2
AcDbSun
  3
SCENEOE
 90
     1153
280
     0
281
     0
  0
CLASS
  1
ACDBPLACEHOLDER
  2
AcDbPlaceHolder
  3
ObjectDBX Classes
 90
        0
280
     0
281
     0
  0
CLASS
  1
LAYOUT
  2
AcDbLayout
  3
ObjectDBX Classes
 90
        0
280
     0
281
     0
  0
ENDSEC
  0
SECTION
  2
TABLES
  0
TABLE
  2
VPORT
  5
8
330
0
100
AcDbSymbolTable
 70
     1
  0
VPORT
  5
29
330
8
100
AcDbSymbolTableRecord
100
AcDbViewportTableRecord
  2
*Active
 70
     0
 10
0.0
 20
0.0
 11
1.0
 21
1.0
 12
420.5
 22
297.0
 13
0.0
 23
0.0
 14
10.0
 24
10.0
 15
10.0
 25
10.0
 16
0.0
 26
0.0
 36
1.0
 17
0.0
 27
0.0
 37
0.0
 40
594.0
 41
1.4158249158
 42
50.0
 43
0.0
 44
0.0
 50
0.0
 51
0.0
 71
     0
 72
  2000
 73
     1
 74
     3
 75
     0
 76
     0
 77
     0
 78
     0
281
     0
 65
     1
110
0.0
120
0.0
130
0.0
111
1.0
121
0.0
131
0.0
112
0.0
122
1.0
132
0.0
 79
     0
146
0.0
  0
ENDTAB
  0
TABLE
  2
LTYPE
  5
5
330
0
100
AcDbSymbolTable
 70
     6
  0
LTYPE
  5
14
330
5
100
AcDbSymbolTableRecord
100
AcDbLinetypeTableRecord
  2
ByBlock
 70
     0
  3

 72
    65
 73
     0
 40
0.0
  0
LTYPE
  5
15
330
5
100
AcDbSymbolTableRecord
100
AcDbLinetypeTableRecord
  2
ByLayer
 70
     0
  3

 72
    65
 73
     0
 40
0.0
  0
LTYPE
  5
16
330
5
100
AcDbSymbolTableRecord
100
AcDbLinetypeTableRecord
  2
Continuous
 70
     0
  3
Solid line
 72
    65
 73
     0
 40
0.0
  0
LTYPE
  5
6A
330
5
100
AcDbSymbolTableRecord
100
AcDbLinetypeTableRecord
  2
HIDDEN
 70
     0
  3
Hidden __ __ __ __ __ __ __ __ __ __ __ __ __ __
 72
    65
 73
     2
 40
1.905
 49
1.27
 74
     0
 49
-0.635
 74
     0
  0
LTYPE
  5
6B
330
5
100
AcDbSymbolTableRecord
100
AcDbLinetypeTableRecord
  2
PHANTOM
 70
     0
  3
Phantom ______  __  __  ______  __  __  ______
 72
    65
 73
     6
 40
12.7
 49
6.35
 74
     0
 49
-1.27
 74
     0
 49
1.27
 74
     0
 49
-1.27
 74
     0
 49
1.27
 74
     0
 49
-1.27
 74
     0
  0
LTYPE
  5
6C
330
5
100
AcDbSymbolTableRecord
100
AcDbLinetypeTableRecord
  2
CENTER
 70
     0
  3
Center ____ _ ____ _ ____ _ ____ _ ____ _ ____
 72
    65
 73
     4
 40
10.16
 49
6.35
 74
     0
 49
-1.27
 74
     0
 49
1.27
 74
     0
 49
-1.27
 74
     0
  0
LTYPE
  5
6D
330
5
100
AcDbSymbolTableRecord
100
AcDbLinetypeTableRecord
  2
CENTERX2
 70
     0
  3
Center (2x) ________  __  ________  __  _____
 72
    65
 73
     4
 40
20.32
 49
12.7
 74
     0
 49
-2.54
 74
     0
 49
2.54
 74
     0
 49
-2.54
 74
     0
  0
LTYPE
  5
6E
330
5
100
AcDbSymbolTableRecord
100
AcDbLinetypeTableRecord
  2
DOT2
 70
     0
  3
Dot (.5x) ........................................
 72
    65
 73
     2
 40
0.635
 49
0.0
 74
     0
 49
-0.635
 74
     0
  0
ENDTAB
  0
TABLE
  2
LAYER
  5
2
330
0
100
AcDbSymbolTable
 70
    11
  0
LAYER
  5
10
330
2
100
AcDbSymbolTableRecord
100
AcDbLayerTableRecord
  2
0
 70
     0
 62
     7
  6
Continuous
370
    -3
390
F
  0
LAYER
  5
6F
330
2
100
AcDbSymbolTableRecord
100
AcDbLayerTableRecord
  2
FORMAT
 70
     0
 62
     7
  6
Continuous
370
    -3
390
F
  0
LAYER
  5
70
330
2
100
AcDbSymbolTableRecord
100
AcDbLayerTableRecord
  2
SLD-0
 70
     0
 62
   179
  6
Continuous
370
    -3
390
F
  0
LAYER
  5
71
330
2
100
AcDbSymbolTableRecord
100
AcDbLayerTableRecord
  2
ASSEMBLY
 70
     0
 62
    -7
  6
Continuous
370
    -3
390
F
  0
LAYER
  5
72
330
2
100
AcDbSymbolTableRecord
100
AcDbLayerTableRecord
  2
PLASTIQUE
 70
     0
 62
     7
  6
Continuous
370
    -3
390
F
  0
LAYER
  5
73
330
2
100
AcDbSymbolTableRecord
100
AcDbLayerTableRecord
  2
RUBBER
 70
     0
 62
    -7
  6
Continuous
370
    -3
390
F
  0
LAYER
  5
74
330
2
100
AcDbSymbolTableRecord
100
AcDbLayerTableRecord
  2
DIE-CASTING
 70
     0
 62
    -7
  6
Continuous
370
    -3
390
F
  0
LAYER
  5
75
330
2
100
AcDbSymbolTableRecord
100
AcDbLayerTableRecord
  2
TÔLERIE-USINAGE
 70
     0
 62
    -7
  6
Continuous
370
    -3
390
F
  0
LAYER
  5
76
330
2
100
AcDbSymbolTableRecord
100
AcDbLayerTableRecord
  2
SHIELD
 70
     0
 62
    -7
  6
Continuous
370
    -3
390
F
  0
LAYER
  5
77
330
2
100
AcDbSymbolTableRecord
100
AcDbLayerTableRecord
  2
DESSIN
 70
     0
 62
     7
  6
Continuous
370
    -3
390
F
  0
LAYER
  5
78
330
2
100
AcDbSymbolTableRecord
100
AcDbLayerTableRecord
  2
CALQUE_1
 70
     0
 62
     7
  6
Continuous
370
    -3
390
F
  0
ENDTAB
  0
TABLE
  2
STYLE
  5
3
330
0
100
AcDbSymbolTable
 70
     8
  0
STYLE
  5
11
330
3
100
AcDbSymbolTableRecord
100
AcDbTextStyleTableRecord
  2
Standard
 70
     0
 40
0.0
 41
1.0
 50
0.0
 71
     0
 42
3.5
  3
txt
  4

  0
STYLE
  5
7C
330
3
100
AcDbSymbolTableRecord
100
AcDbTextStyleTableRecord
  2
SLDTEXTSTYLE0
 70
     0
 40
0.0
 41
0.7
 50
0.0
 71
     0
 42
3.5
  3
TXT
  4

  0
STYLE
  5
F9
330
3
100
AcDbSymbolTableRecord
100
AcDbTextStyleTableRecord
  2
SLDTEXTSTYLE1
 70
     0
 40
0.0
 41
0.75
 50
0.0
 71
     0
 42
3.5
  3
TXT
  4

  0
STYLE
  5
FB
330
3
100
AcDbSymbolTableRecord
100
AcDbTextStyleTableRecord
  2
SLDTEXTSTYLE2
 70
     0
 40
0.0
 41
0.6979166667
 50
0.0
 71
     0
 42
3.5
  3
TXT
  4

  0
STYLE
  5
135
330
3
100
AcDbSymbolTableRecord
100
AcDbTextStyleTableRecord
  2
SLDTEXTSTYLE3
 70
     0
 40
0.0
 41
0.6538461538
 50
0.0
 71
     0
 42
3.5
  3
TXT
  4

  0
STYLE
  5
14E
330
3
100
AcDbSymbolTableRecord
100
AcDbTextStyleTableRecord
  2
SLDTEXTSTYLE4
 70
     0
 40
0.0
 41
0.6333333333
 50
0.0
 71
     0
 42
3.5
  3
TXT
  4

  0
STYLE
  5
169
330
3
100
AcDbSymbolTableRecord
100
AcDbTextStyleTableRecord
  2
SLDTEXTSTYLE5
 70
     0
 40
0.0
 41
0.65
 50
0.0
 71
     0
 42
3.5
  3
TXT
  4

  0
STYLE
  5
24E
330
3
100
AcDbSymbolTableRecord
100
AcDbTextStyleTableRecord
  2
SLDTEXTSTYLE6
 70
     0
 40
0.0
 41
0.6142857143
 50
0.0
 71
     0
 42
3.5
  3
TXT
  4

  0
ENDTAB
  0
TABLE
  2
VIEW
  5
6
330
0
100
AcDbSymbolTable
 70
     0
  0
ENDTAB
  0
TABLE
  2
UCS
  5
7
330
0
100
AcDbSymbolTable
 70
     0
  0
ENDTAB
  0
TABLE
  2
APPID
  5
9
330
0
100
AcDbSymbolTable
 70
     1
  0
APPID
  5
12
330
9
100
AcDbSymbolTableRecord
100
AcDbRegAppTableRecord
  2
ACAD
 70
     0
  0
ENDTAB
  0
TABLE
  2
DIMSTYLE
  5
A
330
0
100
AcDbSymbolTable
 70
     3
100
AcDbDimStyleTable
  0
DIMSTYLE
105
27
330
A
100
AcDbSymbolTableRecord
100
AcDbDimStyleTableRecord
  2
ISO-25
 70
     0
 41
2.5
 42
0.625
 43
3.75
 44
1.25
 73
     0
 74
     0
 77
     1
 78
     8
140
2.5
141
2.5
143
0.0393700787
147
0.625
171
     3
172
     1
178
     0
271
     2
272
     2
274
     3
278
    44
283
     0
284
     8
340
11
  0
DIMSTYLE
105
296
102
{ACAD_REACTORS
330
295
330
2A2
102
}
330
A
100
AcDbSymbolTableRecord
100
AcDbDimStyleTableRecord
  2
SLDDIMSTYLE0
 70
     0
 41
6.0
 44
0.0
 45
0.000000001
 73
     0
 74
     0
 77
     1
 78
    12
 79
     3
140
3.5
147
0.875
173
     1
178
     0
271
     2
272
     2
276
     2
284
    12
340
7C
  0
DIMSTYLE
105
325
102
{ACAD_REACTORS
330
324
102
}
330
A
100
AcDbSymbolTableRecord
100
AcDbDimStyleTableRecord
  2
SLDDIMSTYLE1
 70
     0
 41
6.0
 44
0.0
 45
0.000000001
 73
     0
 74
     0
 77
     1
 78
    12
 79
     3
140
3.5
147
0.875
172
     1
173
     1
178
     0
271
     2
272
     2
276
     2
284
    12
289
     0
340
7C
  0
ENDTAB
  0
TABLE
  2
BLOCK_RECORD
  5
1
330
0
100
AcDbSymbolTable
 70
    43
  0
BLOCK_RECORD
  5
1F
330
1
100
AcDbSymbolTableRecord
100
AcDbBlockTableRecord
  2
*Model_Space
340
22
  0
BLOCK_RECORD
  5
1B
330
1
100
AcDbSymbolTableRecord
100
AcDbBlockTableRecord
  2
*Paper_Space
340
1E
  0
BLOCK_RECORD
  5
23
330
1
100
AcDbSymbolTableRecord
100
AcDbBlockTableRecord
  2
*Paper_Space0
340
26
  0
BLOCK_RECORD
  5
79
330
1
100
AcDbSymbolTableRecord
100
AcDbBlockTableRecord
  2
Bloc6
340
0
102
{BLKREFS
331
F5
102
}
  0
BLOCK_RECORD
  5
F6
330
1
100
AcDbSymbolTableRecord
100
AcDbBlockTableRecord
  2
SW_NOTE_0
340
0
102
{BLKREFS
331
FD
102
}
  0
BLOCK_RECORD
  5
138
330
1
100
AcDbSymbolTableRecord
100
AcDbBlockTableRecord
  2
SW_NOTE_1
340
0
102
{BLKREFS
331
13D
102
}
  0
BLOCK_RECORD
  5
144
330
1
100
AcDbSymbolTableRecord
100
AcDbBlockTableRecord
  2
SW_NOTE_2
340
0
102
{BLKREFS
331
149
102
}
  0
BLOCK_RECORD
  5
14A
330
1
100
AcDbSymbolTableRecord
100
AcDbBlockTableRecord
  2
SW_NOTE_3
340
0
102
{BLKREFS
331
150
102
}
  0
BLOCK_RECORD
  5
151
330
1
100
AcDbSymbolTableRecord
100
AcDbBlockTableRecord
  2
SW_NOTE_4
340
0
102
{BLKREFS
331
156
102
}
  0
BLOCK_RECORD
  5
15A
330
1
100
AcDbSymbolTableRecord
100
AcDbBlockTableRecord
  2
SW_NOTE_5
340
0
102
{BLKREFS
331
16F
102
}
  0
BLOCK_RECORD
  5
178
330
1
100
AcDbSymbolTableRecord
100
AcDbBlockTableRecord
  2
SW_NOTE_6
340
0
102
{BLKREFS
331
17E
102
}
  0
BLOCK_RECORD
  5
17F
330
1
100
AcDbSymbolTableRecord
100
AcDbBlockTableRecord
  2
SW_NOTE_7
340
0
102
{BLKREFS
331
184
102
}
  0
BLOCK_RECORD
  5
185
330
1
100
AcDbSymbolTableRecord
100
AcDbBlockTableRecord
  2
SW_NOTE_8
340
0
102
{BLKREFS
331
18A
102
}
  0
BLOCK_RECORD
  5
18C
330
1
100
AcDbSymbolTableRecord
100
AcDbBlockTableRecord
  2
SW_NOTE_9
340
0
102
{BLKREFS
331
191
102
}
  0
BLOCK_RECORD
  5
192
330
1
100
AcDbSymbolTableRecord
100
AcDbBlockTableRecord
  2
SW_NOTE_10
340
0
102
{BLKREFS
331
1AB
102
}
  0
BLOCK_RECORD
  5
1AC
330
1
100
AcDbSymbolTableRecord
100
AcDbBlockTableRecord
  2
SW_NOTE_11
340
0
102
{BLKREFS
331
1B4
102
}
  0
BLOCK_RECORD
  5
1B5
330
1
100
AcDbSymbolTableRecord
100
AcDbBlockTableRecord
  2
SW_NOTE_12
340
0
102
{BLKREFS
331
1BA
102
}
  0
BLOCK_RECORD
  5
1BC
330
1
100
AcDbSymbolTableRecord
100
AcDbBlockTableRecord
  2
SW_NOTE_13
340
0
102
{BLKREFS
331
1D4
102
}
  0
BLOCK_RECORD
  5
1D5
330
1
100
AcDbSymbolTableRecord
100
AcDbBlockTableRecord
  2
SW_NOTE_14
340
0
102
{BLKREFS
331
1DA
102
}
  0
BLOCK_RECORD
  5
1DB
330
1
100
AcDbSymbolTableRecord
100
AcDbBlockTableRecord
  2
SW_NOTE_15
340
0
102
{BLKREFS
331
1E3
102
}
  0
BLOCK_RECORD
  5
1E4
330
1
100
AcDbSymbolTableRecord
100
AcDbBlockTableRecord
  2
SW_NOTE_16
340
0
102
{BLKREFS
331
1EA
102
}
  0
BLOCK_RECORD
  5
1EB
330
1
100
AcDbSymbolTableRecord
100
AcDbBlockTableRecord
  2
SW_NOTE_17
340
0
102
{BLKREFS
331
201
102
}
  0
BLOCK_RECORD
  5
202
330
1
100
AcDbSymbolTableRecord
100
AcDbBlockTableRecord
  2
SW_NOTE_18
340
0
102
{BLKREFS
331
207
102
}
  0
BLOCK_RECORD
  5
208
330
1
100
AcDbSymbolTableRecord
100
AcDbBlockTableRecord
  2
SW_NOTE_19
340
0
102
{BLKREFS
331
210
102
}
  0
BLOCK_RECORD
  5
212
330
1
100
AcDbSymbolTableRecord
100
AcDbBlockTableRecord
  2
SW_NOTE_20
340
0
102
{BLKREFS
331
234
102
}
  0
BLOCK_RECORD
  5
235
330
1
100
AcDbSymbolTableRecord
100
AcDbBlockTableRecord
  2
SW_NOTE_21
340
0
102
{BLKREFS
331
23A
102
}
  0
BLOCK_RECORD
  5
23B
330
1
100
AcDbSymbolTableRecord
100
AcDbBlockTableRecord
  2
SW_NOTE_22
340
0
102
{BLKREFS
331
243
102
}
  0
BLOCK_RECORD
  5
244
330
1
100
AcDbSymbolTableRecord
100
AcDbBlockTableRecord
  2
SW_NOTE_23
340
0
102
{BLKREFS
331
250
102
}
  0
BLOCK_RECORD
  5
247
330
1
100
AcDbSymbolTableRecord
100
AcDbBlockTableRecord
  2
SW_SYMBOL_GTOL_POSI
340
0
102
{BLKREFS
331
24D
102
}
  0
BLOCK_RECORD
  5
251
330
1
100
AcDbSymbolTableRecord
100
AcDbBlockTableRecord
  2
SW_NOTE_24
340
0
102
{BLKREFS
331
25A
102
}
  0
BLOCK_RECORD
  5
254
330
1
100
AcDbSymbolTableRecord
100
AcDbBlockTableRecord
  2
SW_SYMBOL_GTOL_LPROF
340
0
102
{BLKREFS
331
258
102
}
  0
BLOCK_RECORD
  5
25B
330
1
100
AcDbSymbolTableRecord
100
AcDbBlockTableRecord
  2
SW_NOTE_25
340
0
102
{BLKREFS
331
265
102
}
  0
BLOCK_RECORD
  5
25E
330
1
100
AcDbSymbolTableRecord
100
AcDbBlockTableRecord
  2
SW_SYMBOL_GTOL_SPROF
340
0
102
{BLKREFS
331
263
102
}
  0
BLOCK_RECORD
  5
297
330
1
100
AcDbSymbolTableRecord
100
AcDbBlockTableRecord
  2
_D
340
0
  0
BLOCK_RECORD
  5
2A3
330
1
100
AcDbSymbolTableRecord
100
AcDbBlockTableRecord
  2
_D_1
340
0
  0
BLOCK_RECORD
  5
2AE
330
1
100
AcDbSymbolTableRecord
100
AcDbBlockTableRecord
  2
SW_CENTERMARKSYMBOL_0
340
0
102
{BLKREFS
331
2B9
102
}
  0
BLOCK_RECORD
  5
2BA
330
1
100
AcDbSymbolTableRecord
100
AcDbBlockTableRecord
  2
SW_CENTERMARKSYMBOL_1
340
0
102
{BLKREFS
331
2C5
102
}
  0
BLOCK_RECORD
  5
2C6
330
1
100
AcDbSymbolTableRecord
100
AcDbBlockTableRecord
  2
SW_CENTERMARKSYMBOL_2
340
0
102
{BLKREFS
331
2D1
102
}
  0
BLOCK_RECORD
  5
2D2
330
1
100
AcDbSymbolTableRecord
100
AcDbBlockTableRecord
  2
SW_CENTERMARKSYMBOL_3
340
0
102
{BLKREFS
331
2DD
102
}
  0
BLOCK_RECORD
  5
2DE
330
1
100
AcDbSymbolTableRecord
100
AcDbBlockTableRecord
  2
SW_CENTERMARKSYMBOL_4
340
0
102
{BLKREFS
331
2E9
102
}
  0
BLOCK_RECORD
  5
2EA
330
1
100
AcDbSymbolTableRecord
100
AcDbBlockTableRecord
  2
SW_CENTERMARKSYMBOL_5
340
0
102
{BLKREFS
331
2F5
102
}
  0
BLOCK_RECORD
  5
2F6
330
1
100
AcDbSymbolTableRecord
100
AcDbBlockTableRecord
  2
SW_CENTERMARKSYMBOL_6
340
0
102
{BLKREFS
331
301
102
}
  0
BLOCK_RECORD
  5
302
330
1
100
AcDbSymbolTableRecord
100
AcDbBlockTableRecord
  2
SW_CENTERMARKSYMBOL_7
340
0
102
{BLKREFS
331
30D
102
}
  0
BLOCK_RECORD
  5
30E
330
1
100
AcDbSymbolTableRecord
100
AcDbBlockTableRecord
  2
SW_CENTERMARKSYMBOL_8
340
0
102
{BLKREFS
331
319
102
}
  0
BLOCK_RECORD
  5
326
330
1
100
AcDbSymbolTableRecord
100
AcDbBlockTableRecord
  2
_D_2
340
0
  0
ENDTAB
  0
ENDSEC
  0
SECTION
  2
BLOCKS
  0
BLOCK
  5
20
330
1F
100
AcDbEntity
  8
0
100
AcDbBlockBegin
  2
*Model_Space
 70
     0
 10
0.0
 20
0.0
 30
0.0
  3
*Model_Space
  1
*Model_Space
  0
ENDBLK
  5
21
330
1F
100
AcDbEntity
  8
0
100
AcDbBlockEnd
  0
BLOCK
  5
1C
330
1B
100
AcDbEntity
 67
     1
  8
0
100
AcDbBlockBegin
  2
*Paper_Space
 70
     0
 10
0.0
 20
0.0
 30
0.0
  3
*Paper_Space
  1
*Paper_Space
  0
ENDBLK
  5
1D
330
1B
100
AcDbEntity
 67
     1
  8
0
100
AcDbBlockEnd
  0
BLOCK
  5
24
330
23
100
AcDbEntity
  8
0
100
AcDbBlockBegin
  2
*Paper_Space0
 70
     0
 10
0.0
 20
0.0
 30
0.0
  3
*Paper_Space0
  1
*Paper_Space0
  0
ENDBLK
  5
25
330
23
100
AcDbEntity
  8
0
100
AcDbBlockEnd
  0
BLOCK
  5
7A
330
79
100
AcDbEntity
  8
0
100
AcDbBlockBegin
  2
Bloc6
 70
     0
 10
0.0
 20
0.0
 30
0.0
  3
Bloc6
  1
Bloc6
  0
MTEXT
  5
7D
330
79
100
AcDbEntity
  8
DESSIN
100
AcDbMText
 10
21.2493868757
 20
3.0768053232
 30
0.0
 40
2.6458333333
 41
0.0
 71
     2
 72
     1
  1
MOOCK CYCLES
  7
SLDTEXTSTYLE0
 73
     1
 44
1.0
  0
MTEXT
  5
7E
330
79
100
AcDbEntity
  8
DESSIN
100
AcDbMText
 10
21.533260238
 20
13.3305589167
 30
0.0
 40
9.525
 41
0.0
 71
     2
 72
     1
  1
-MCK-
  7
SLDTEXTSTYLE0
 73
     1
 44
1.0
  0
ENDBLK
  5
7B
330
79
100
AcDbEntity
  8
0
100
AcDbBlockEnd
  0
BLOCK
  5
F7
330
F6
100
AcDbEntity
  8
0
100
AcDbBlockBegin
  2
SW_NOTE_0
 70
     0
 10
0.0
 20
0.0
 30
0.0
  3
SW_NOTE_0
  1
SW_NOTE_0
  0
MTEXT
  5
FA
330
F6
100
AcDbEntity
  8
DESSIN
 62
     0
100
AcDbMText
 10
0.0
 20
4.5117370892
 30
0.0
 40
3.5
 41
0.0
 71
     1
 72
     1
  1
NOTES :
  7
SLDTEXTSTYLE1
 73
     1
 44
1.0
  0
MTEXT
  5
FC
330
F6
100
AcDbEntity
  8
DESSIN
 62
     0
100
AcDbMText
 10
0.0
 20
-0.0139574413
 30
0.0
 40
3.5
 41
0.0
 71
     1
 72
     1
  1
- MATIERE : INOX A2 brut
  7
SLDTEXTSTYLE2
 73
     1
 44
1.0
  0
ENDBLK
  5
F8
330
F6
100
AcDbEntity
  8
0
100
AcDbBlockEnd
  0
BLOCK
  5
139
330
138
100
AcDbEntity
  8
0
100
AcDbBlockBegin
  2
SW_NOTE_1
 70
     0
 10
0.0
 20
0.0
 30
0.0
  3
SW_NOTE_1
  1
SW_NOTE_1
  0
MTEXT
  5
13B
330
138
100
AcDbEntity
  8
FORMAT
 62
     0
100
AcDbMText
 10
0.0
 20
2.0463950369
 30
0.0
 40
1.5875
 41
0.0
 71
     1
 72
     1
  1
TOLERANCES
  7
SLDTEXTSTYLE0
 73
     1
 44
1.0
  0
MTEXT
  5
13C
330
138
100
AcDbEntity
  8
FORMAT
 62
     0
100
AcDbMText
 10
0.0
 20
-0.0468477361
 30
0.0
 40
1.0583333333
 41
0.0
 71
     1
 72
     1
  1
(UNLESS OTHERWISE SPECIFIED)
  7
SLDTEXTSTYLE0
 73
     1
 44
1.0
  0
ENDBLK
  5
13A
330
138
100
AcDbEntity
  8
0
100
AcDbBlockEnd
  0
BLOCK
  5
145
330
144
100
AcDbEntity
  8
0
100
AcDbBlockBegin
  2
SW_NOTE_2
 70
     0
 10
0.0
 20
0.0
 30
0.0
  3
SW_NOTE_2
  1
SW_NOTE_2
  0
MTEXT
  5
147
330
144
100
AcDbEntity
  8
FORMAT
 62
     0
100
AcDbMText
 10
0.0
 20
2.0463950369
 30
0.0
 40
1.5875
 41
0.0
 71
     1
 72
     1
  1
SIZE
  7
SLDTEXTSTYLE0
 73
     1
 44
1.0
  0
MTEXT
  5
148
330
144
100
AcDbEntity
  8
FORMAT
 62
     0
100
AcDbMText
 10
6.1897798628
 20
2.0463950369
 30
0.0
 40
1.5875
 41
0.0
 71
     1
 72
     1
  1
A1
  7
SLDTEXTSTYLE0
 73
     1
 44
1.0
  0
ENDBLK
  5
146
330
144
100
AcDbEntity
  8
0
100
AcDbBlockEnd
  0
BLOCK
  5
14B
330
14A
100
AcDbEntity
  8
0
100
AcDbBlockBegin
  2
SW_NOTE_3
 70
     0
 10
0.0
 20
0.0
 30
0.0
  3
SW_NOTE_3
  1
SW_NOTE_3
  0
MTEXT
  5
14D
330
14A
100
AcDbEntity
  8
FORMAT
 62
     0
100
AcDbMText
 10
0.0
 20
1.9336016097
 30
0.0
 40
1.5
 41
0.0
 71
     1
 72
     1
  1
SHEET
  7
SLDTEXTSTYLE0
 73
     1
 44
1.0
  0
MTEXT
  5
14F
330
14A
100
AcDbEntity
  8
FORMAT
 62
     0
100
AcDbMText
 10
6.9635419175
 20
1.9336016097
 30
0.0
 40
1.5
 41
0.0
 71
     1
 72
     1
  1
1 OF 1
  7
SLDTEXTSTYLE4
 73
     1
 44
1.0
  0
ENDBLK
  5
14C
330
14A
100
AcDbEntity
  8
0
100
AcDbBlockEnd
  0
BLOCK
  5
152
330
151
100
AcDbEntity
  8
0
100
AcDbBlockBegin
  2
SW_NOTE_4
 70
     0
 10
0.0
 20
0.0
 30
0.0
  3
SW_NOTE_4
  1
SW_NOTE_4
  0
MTEXT
  5
154
330
151
100
AcDbEntity
  8
FORMAT
 62
     0
100
AcDbMText
 10
0.0
 20
1.9336016097
 30
0.0
 40
1.5
 41
0.0
 71
     1
 72
     1
  1
SCALE
  7
SLDTEXTSTYLE0
 73
     1
 44
1.0
  0
MTEXT
  5
155
330
151
100
AcDbEntity
  8
FORMAT
 62
     0
100
AcDbMText
 10
6.9979170337
 20
1.9336016097
 30
0.0
 40
1.5
 41
0.0
 71
     1
 72
     1
  1
1:1
  7
SLDTEXTSTYLE0
 73
     1
 44
1.0
  0
ENDBLK
  5
153
330
151
100
AcDbEntity
  8
0
100
AcDbBlockEnd
  0
BLOCK
  5
15B
330
15A
100
AcDbEntity
  8
0
100
AcDbBlockBegin
  2
SW_NOTE_5
 70
     0
 10
0.0
 20
0.0
 30
0.0
  3
SW_NOTE_5
  1
SW_NOTE_5
  0
MTEXT
  5
15D
330
15A
100
AcDbEntity
  8
FORMAT
 62
     0
100
AcDbMText
 10
0.0
 20
1.6757880617
 30
0.0
 40
1.3
 41
0.0
 71
     1
 72
     1
  1
ALL GEOMETRICAL TOLERANCES ACCORDING TO ISO 14638 : 2015
  7
SLDTEXTSTYLE0
 73
     1
 44
1.0
  0
MTEXT
  5
15E
330
15A
100
AcDbEntity
  8
FORMAT
 62
     0
100
AcDbMText
 10
0.0
 20
-0.6242119893
 30
0.0
 40
1.3
 41
0.0
 71
     1
 72
     1
  1
AND THE FOLLOWING STANDARDS :
  7
SLDTEXTSTYLE0
 73
     1
 44
1.0
  0
MTEXT
  5
15F
330
15A
100
AcDbEntity
  8
FORMAT
 62
     0
100
AcDbMText
 10
0.0
 20
-2.9242120404
 30
0.0
 40
1.3
 41
0.0
 71
     1
 72
     1
  1
ISO 17450 : 2016
  7
SLDTEXTSTYLE0
 73
     1
 44
1.0
  0
MTEXT
  5
160
330
15A
100
AcDbEntity
  8
FORMAT
 62
     0
100
AcDbMText
 10
19.5884723216
 20
-2.9067002454
 30
0.0
 40
1.3229166667
 41
0.0
 71
     1
 72
     1
  1
|
  7
SLDTEXTSTYLE0
 73
     1
 44
1.0
  0
MTEXT
  5
161
330
15A
100
AcDbEntity
  8
FORMAT
 62
     0
100
AcDbMText
 10
21.6648811847
 20
-2.9242120404
 30
0.0
 40
1.3
 41
0.0
 71
     1
 72
     1
  1
ISO 1101: 2012
  7
SLDTEXTSTYLE0
 73
     1
 44
1.0
  0
MTEXT
  5
162
330
15A
100
AcDbEntity
  8
FORMAT
 62
     0
100
AcDbMText
 10
38.1757840514
 20
-2.9067002454
 30
0.0
 40
1.3229166667
 41
0.0
 71
     1
 72
     1
  1
|
  7
SLDTEXTSTYLE0
 73
     1
 44
1.0
  0
MTEXT
  5
163
330
15A
100
AcDbEntity
  8
FORMAT
 62
     0
100
AcDbMText
 10
40.2521929145
 20
-2.9242120404
 30
0.0
 40
1.3
 41
0.0
 71
     1
 72
     1
  1
ISO 5459 : 2011
  7
SLDTEXTSTYLE0
 73
     1
 44
1.0
  0
MTEXT
  5
164
330
15A
100
AcDbEntity
  8
FORMAT
 62
     0
100
AcDbMText
 10
0.0
 20
-5.2362412866
 30
0.0
 40
1.3
 41
0.0
 71
     1
 72
     1
  1
ISO 14405-1 : 2016
  7
SLDTEXTSTYLE0
 73
     1
 44
1.0
  0
MTEXT
  5
165
330
15A
100
AcDbEntity
  8
FORMAT
 62
     0
100
AcDbMText
 10
19.5884723216
 20
-5.2187294916
 30
0.0
 40
1.3229166667
 41
0.0
 71
     1
 72
     1
  1
|
  7
SLDTEXTSTYLE0
 73
     1
 44
1.0
  0
MTEXT
  5
166
330
15A
100
AcDbEntity
  8
FORMAT
 62
     0
100
AcDbMText
 10
21.6648811847
 20
-5.2362412866
 30
0.0
 40
1.3
 41
0.0
 71
     1
 72
     1
  1
ISO 2692 : 2014
  7
SLDTEXTSTYLE0
 73
     1
 44
1.0
  0
MTEXT
  5
167
330
15A
100
AcDbEntity
  8
FORMAT
 62
     0
100
AcDbMText
 10
38.1757840514
 20
-5.2187294916
 30
0.0
 40
1.3229166667
 41
0.0
 71
     1
 72
     1
  1
|
  7
SLDTEXTSTYLE0
 73
     1
 44
1.0
  0
MTEXT
  5
168
330
15A
100
AcDbEntity
  8
FORMAT
 62
     0
100
AcDbMText
 10
40.2521929145
 20
-5.2362412866
 30
0.0
 40
1.3
 41
0.0
 71
     1
 72
     1
  1
ISO 22432 : 2011
  7
SLDTEXTSTYLE0
 73
     1
 44
1.0
  0
MTEXT
  5
16A
330
15A
100
AcDbEntity
  8
FORMAT
 62
     0
100
AcDbMText
 10
0.0
 20
-7.5482705329
 30
0.0
 40
1.3
 41
0.0
 71
     1
 72
     1
  1
ISO 8015  : 2011
  7
SLDTEXTSTYLE5
 73
     1
 44
1.0
  0
MTEXT
  5
16B
330
15A
100
AcDbEntity
  8
FORMAT
 62
     0
100
AcDbMText
 10
19.5884723216
 20
-7.5307587379
 30
0.0
 40
1.3229166667
 41
0.0
 71
     1
 72
     1
  1
|
  7
SLDTEXTSTYLE0
 73
     1
 44
1.0
  0
MTEXT
  5
16C
330
15A
100
AcDbEntity
  8
FORMAT
 62
     0
100
AcDbMText
 10
21.6648811847
 20
-7.5482705329
 30
0.0
 40
1.3
 41
0.0
 71
     1
 72
     1
  1
ISO 5458 : 1998
  7
SLDTEXTSTYLE0
 73
     1
 44
1.0
  0
MTEXT
  5
16D
330
15A
100
AcDbEntity
  8
FORMAT
 62
     0
100
AcDbMText
 10
38.1757840514
 20
-7.5307587379
 30
0.0
 40
1.3229166667
 41
0.0
 71
     1
 72
     1
  1
|
  7
SLDTEXTSTYLE0
 73
     1
 44
1.0
  0
MTEXT
  5
16E
330
15A
100
AcDbEntity
  8
FORMAT
 62
     0
100
AcDbMText
 10
40.2521929145
 20
-7.5482705329
 30
0.0
 40
1.3
 41
0.0
 71
     1
 72
     1
  1
ISO 14405-2 : 2011
  7
SLDTEXTSTYLE0
 73
     1
 44
1.0
  0
ENDBLK
  5
15C
330
15A
100
AcDbEntity
  8
0
100
AcDbBlockEnd
  0
BLOCK
  5
179
330
178
100
AcDbEntity
  8
0
100
AcDbBlockBegin
  2
SW_NOTE_6
 70
     0
 10
0.0
 20
0.0
 30
0.0
  3
SW_NOTE_6
  1
SW_NOTE_6
  0
MTEXT
  5
17B
330
178
100
AcDbEntity
  8
FORMAT
 62
     0
100
AcDbMText
 10
36.5625
 20
2.3203219316
 30
0.0
 40
1.8
 41
0.0
 71
     2
 72
     1
  1
All geometry is to be derived from the CAD database.
  7
SLDTEXTSTYLE0
 73
     1
 44
1.0
  0
MTEXT
  5
17C
330
178
100
AcDbEntity
  8
FORMAT
 62
     0
100
AcDbMText
 10
36.58375144
 20
-0.4796779686
 30
0.0
 40
1.8
 41
0.0
 71
     2
 72
     1
  1
Critical to function dimensions called out on this
  7
SLDTEXTSTYLE0
 73
     1
 44
1.0
  0
MTEXT
  5
17D
330
178
100
AcDbEntity
  8
FORMAT
 62
     0
100
AcDbMText
 10
36.7325115204
 20
-3.2796778687
 30
0.0
 40
1.8
 41
0.0
 71
     2
 72
     1
  1
drawing are for inspection purposes.
  7
SLDTEXTSTYLE0
 73
     1
 44
1.0
  0
ENDBLK
  5
17A
330
178
100
AcDbEntity
  8
0
100
AcDbBlockEnd
  0
BLOCK
  5
180
330
17F
100
AcDbEntity
  8
0
100
AcDbBlockBegin
  2
SW_NOTE_7
 70
     0
 10
0.0
 20
0.0
 30
0.0
  3
SW_NOTE_7
  1
SW_NOTE_7
  0
MTEXT
  5
182
330
17F
100
AcDbEntity
  8
FORMAT
 62
     0
100
AcDbMText
 10
0.0
 20
1.3642633579
 30
0.0
 40
1.0583333333
 41
0.0
 71
     1
 72
     1
  1
-0.2
  7
SLDTEXTSTYLE0
 73
     1
 44
1.0
  0
MTEXT
  5
183
330
17F
100
AcDbEntity
  8
FORMAT
 62
     0
100
AcDbMText
 10
0.0
 20
-0.0468477361
 30
0.0
 40
1.0583333333
 41
0.0
 71
     1
 72
     1
  1
-0.3
  7
SLDTEXTSTYLE0
 73
     1
 44
1.0
  0
ENDBLK
  5
181
330
17F
100
AcDbEntity
  8
0
100
AcDbBlockEnd
  0
BLOCK
  5
186
330
185
100
AcDbEntity
  8
0
100
AcDbBlockBegin
  2
SW_NOTE_8
 70
     0
 10
0.0
 20
0.0
 30
0.0
  3
SW_NOTE_8
  1
SW_NOTE_8
  0
MTEXT
  5
188
330
185
100
AcDbEntity
  8
FORMAT
 62
     0
100
AcDbMText
 10
0.0
 20
1.3642633579
 30
0.0
 40
1.0583333333
 41
0.0
 71
     1
 72
     1
  1
+0.3
  7
SLDTEXTSTYLE0
 73
     1
 44
1.0
  0
MTEXT
  5
189
330
185
100
AcDbEntity
  8
FORMAT
 62
     0
100
AcDbMText
 10
0.0
 20
-0.0468477361
 30
0.0
 40
1.0583333333
 41
0.0
 71
     1
 72
     1
  1
+0.2
  7
SLDTEXTSTYLE0
 73
     1
 44
1.0
  0
ENDBLK
  5
187
330
185
100
AcDbEntity
  8
0
100
AcDbBlockEnd
  0
BLOCK
  5
18D
330
18C
100
AcDbEntity
  8
0
100
AcDbBlockBegin
  2
SW_NOTE_9
 70
     0
 10
0.0
 20
0.0
 30
0.0
  3
SW_NOTE_9
  1
SW_NOTE_9
  0
MTEXT
  5
18F
330
18C
100
AcDbEntity
  8
RUBBER
 62
     0
100
AcDbMText
 10
23.1510416667
 20
2.7285267159
 30
0.0
 40
2.1166666667
 41
0.0
 71
     3
 72
     1
  1
DIN ISO 3302-1
  7
SLDTEXTSTYLE0
 73
     1
 44
1.0
  0
MTEXT
  5
190
330
18C
100
AcDbEntity
  8
RUBBER
 62
     0
100
AcDbMText
 10
23.4126872818
 20
-0.0936954723
 30
0.0
 40
2.1166666667
 41
0.0
 71
     3
 72
     1
  1
Class M1
  7
SLDTEXTSTYLE0
 73
     1
 44
1.0
  0
ENDBLK
  5
18E
330
18C
100
AcDbEntity
  8
0
100
AcDbBlockEnd
  0
BLOCK
  5
193
330
192
100
AcDbEntity
  8
0
100
AcDbBlockBegin
  2
SW_NOTE_10
 70
     0
 10
0.0
 20
0.0
 30
0.0
  3
SW_NOTE_10
  1
SW_NOTE_10
  0
MTEXT
  5
195
330
192
100
AcDbEntity
  8
RUBBER
 62
     0
100
AcDbMText
 10
0.0
 20
3.4106583948
 30
0.0
 40
2.6458333333
 41
0.0
 71
     1
 72
     1
  1
Notes:
  7
SLDTEXTSTYLE0
 73
     1
 44
1.0
  0
MTEXT
  5
196
330
192
100
AcDbEntity
  8
RUBBER
 62
     0
100
AcDbMText
 10
0.0
 20
-3.6448970755
 30
0.0
 40
2.6458333333
 41
0.0
 71
     1
 72
     1
  1
1. Material : Silicone Wynca XHG 151-70
  7
SLDTEXTSTYLE0
 73
     1
 44
1.0
  0
MTEXT
  5
197
330
192
100
AcDbEntity
  8
RUBBER
 62
     0
100
AcDbMText
 10
28.9388020833
 20
-7.1726748106
 30
0.0
 40
2.6458333333
 41
0.0
 71
     1
 72
     1
  1
+ TSE322 glue (Momentive)
  7
SLDTEXTSTYLE0
 73
     1
 44
1.0
  0
MTEXT
  5
198
330
192
100
AcDbEntity
  8
RUBBER
 62
     0
100
AcDbMText
 10
0.0
 20
-10.7004525458
 30
0.0
 40
2.6458333333
 41
0.0
 71
     1
 72
     1
  1
2. Color : According to Volvo Master sample
  7
SLDTEXTSTYLE0
 73
     1
 44
1.0
  0
MTEXT
  5
199
330
192
100
AcDbEntity
  8
RUBBER
 62
     0
100
AcDbMText
 10
6.201171875
 20
-14.2282302809
 30
0.0
 40
2.6458333333
 41
0.0
 71
     1
 72
     1
  1
BOLD BLACK 22197151(TR84238804)
  7
SLDTEXTSTYLE0
 73
     1
 44
1.0
  0
MTEXT
  5
19A
330
192
100
AcDbEntity
  8
RUBBER
 62
     0
100
AcDbMText
 10
6.201171875
 20
-17.7560080161
 30
0.0
 40
2.6458333333
 41
0.0
 71
     1
 72
     1
  1
For symbols : according to Volvo Master Sample Traffic
  7
SLDTEXTSTYLE0
 73
     1
 44
1.0
  0
MTEXT
  5
19B
330
192
100
AcDbEntity
  8
RUBBER
 62
     0
100
AcDbMText
 10
6.201171875
 20
-21.2837857512
 30
0.0
 40
2.6458333333
 41
0.0
 71
     1
 72
     1
  1
White 22197191
  7
SLDTEXTSTYLE0
 73
     1
 44
1.0
  0
MTEXT
  5
19C
330
192
100
AcDbEntity
  8
RUBBER
 62
     0
100
AcDbMText
 10
0.0
 20
-24.8115634863
 30
0.0
 40
2.6458333333
 41
0.0
 71
     1
 72
     1
  1
3. Finish (only for A surfaces) :  according to Volvo graining
  7
SLDTEXTSTYLE0
 73
     1
 44
1.0
  0
MTEXT
  5
19D
330
192
100
AcDbEntity
  8
RUBBER
 62
     0
100
AcDbMText
 10
6.201171875
 20
-28.3393412215
 30
0.0
 40
2.6458333333
 41
0.0
 71
     1
 72
     1
  1
master sample Renault Stipple Fine Grain 21555783
  7
SLDTEXTSTYLE0
 73
     1
 44
1.0
  0
MTEXT
  5
19E
330
192
100
AcDbEntity
  8
RUBBER
 62
     0
100
AcDbMText
 10
6.201171875
 20
-31.8671189566
 30
0.0
 40
2.6458333333
 41
0.0
 71
     1
 72
     1
  1
Tolerance of gloss : 3  +1 / -0,5 GU
  7
SLDTEXTSTYLE5
 73
     1
 44
1.0
  0
MTEXT
  5
19F
330
192
100
AcDbEntity
  8
RUBBER
 62
     0
100
AcDbMText
 10
0.0
 20
-35.3948966918
 30
0.0
 40
2.6458333333
 41
0.0
 71
     1
 72
     1
  1
4. Force : 3.5N +/15%N per key (8 keys)
  7
SLDTEXTSTYLE0
 73
     1
 44
1.0
  0
MTEXT
  5
1A0
330
192
100
AcDbEntity
  8
RUBBER
 62
     0
100
AcDbMText
 10
0.0
 20
-38.9226744269
 30
0.0
 40
2.6458333333
 41
0.0
 71
     1
 72
     1
  1
5. stroke : 1.5mm +/-0.1 (without preload)
  7
SLDTEXTSTYLE0
 73
     1
 44
1.0
  0
MTEXT
  5
1A1
330
192
100
AcDbEntity
  8
RUBBER
 62
     0
100
AcDbMText
 10
0.0
 20
-42.4504521621
 30
0.0
 40
2.6458333333
 41
0.0
 71
     1
 72
     1
  1
6. Contact : SC-L pills (Blue pills) resistivity : <1.5 Ohm
  7
SLDTEXTSTYLE0
 73
     1
 44
1.0
  0
MTEXT
  5
1A2
330
192
100
AcDbEntity
  8
RUBBER
 62
     0
100
AcDbMText
 10
0.0
 20
-45.9782298972
 30
0.0
 40
2.6458333333
 41
0.0
 71
     1
 72
     1
  1
7. No change in production material shall be allowed
  7
SLDTEXTSTYLE0
 73
     1
 44
1.0
  0
MTEXT
  5
1A3
330
192
100
AcDbEntity
  8
RUBBER
 62
     0
100
AcDbMText
 10
6.201171875
 20
-49.5060076323
 30
0.0
 40
2.6458333333
 41
0.0
 71
     1
 72
     1
  1
without explicit prior written approval from Parrot
  7
SLDTEXTSTYLE0
 73
     1
 44
1.0
  0
MTEXT
  5
1A4
330
192
100
AcDbEntity
  8
RUBBER
 62
     0
100
AcDbMText
 10
0.0
 20
-53.0337853675
 30
0.0
 40
2.6458333333
 41
0.0
 71
     1
 72
     1
  1
8. Reference dimensions, shown in parantheses (DIM),
  7
SLDTEXTSTYLE0
 73
     1
 44
1.0
  0
MTEXT
  5
1A5
330
192
100
AcDbEntity
  8
RUBBER
 62
     0
100
AcDbMText
 10
6.201171875
 20
-56.5615631026
 30
0.0
 40
2.6458333333
 41
0.0
 71
     1
 72
     1
  1
are without tolerance and are for information purpose only
  7
SLDTEXTSTYLE0
 73
     1
 44
1.0
  0
MTEXT
  5
1A6
330
192
100
AcDbEntity
  8
RUBBER
 62
     0
100
AcDbMText
 10
0.0
 20
-60.0893408378
 30
0.0
 40
2.6458333333
 41
0.0
 71
     1
 72
     1
  1
9. All geometry is to be derived from the CAD database.
  7
SLDTEXTSTYLE0
 73
     1
 44
1.0
  0
MTEXT
  5
1A7
330
192
100
AcDbEntity
  8
RUBBER
 62
     0
100
AcDbMText
 10
6.201171875
 20
-63.6171185729
 30
0.0
 40
2.6458333333
 41
0.0
 71
     1
 72
     1
  1
Critical to function dimensions called out on this
  7
SLDTEXTSTYLE0
 73
     1
 44
1.0
  0
MTEXT
  5
1A8
330
192
100
AcDbEntity
  8
RUBBER
 62
     0
100
AcDbMText
 10
6.201171875
 20
-67.1448963081
 30
0.0
 40
2.6458333333
 41
0.0
 71
     1
 72
     1
  1
drawing are only for inspection purposes
  7
SLDTEXTSTYLE0
 73
     1
 44
1.0
  0
MTEXT
  5
1A9
330
192
100
AcDbEntity
  8
RUBBER
 62
     0
100
AcDbMText
 10
0.0
 20
-74.2004517784
 30
0.0
 40
2.6458333333
 41
0.0
 71
     1
 72
     1
  1
10.      = Special Characteristic Dimension
  7
SLDTEXTSTYLE0
 73
     1
 44
1.0
  0
MTEXT
  5
1AA
330
192
100
AcDbEntity
  8
RUBBER
 62
     0
100
AcDbMText
 10
0.0
 20
-81.2560072486
 30
0.0
 40
2.6458333333
 41
0.0
 71
     1
 72
     1
  1
11.      = Dimension identification number for FAI
  7
SLDTEXTSTYLE0
 73
     1
 44
1.0
  0
ENDBLK
  5
194
330
192
100
AcDbEntity
  8
0
100
AcDbBlockEnd
  0
BLOCK
  5
1AD
330
1AC
100
AcDbEntity
  8
0
100
AcDbBlockBegin
  2
SW_NOTE_11
 70
     0
 10
0.0
 20
0.0
 30
0.0
  3
SW_NOTE_11
  1
SW_NOTE_11
  0
LINE
  5
1AF
330
1AC
100
AcDbEntity
  8
RUBBER
 62
     0
100
AcDbLine
 10
-1.5069176382
 20
1.5720890052
 30
0.0
 11
2.3729321741
 21
5.4519388174
 31
0.0
  0
LINE
  5
1B0
330
1AC
100
AcDbEntity
  8
RUBBER
 62
     0
100
AcDbLine
 10
2.3729321741
 20
5.4519388174
 30
0.0
 11
6.2527819863
 21
1.5720890052
 31
0.0
  0
LINE
  5
1B1
330
1AC
100
AcDbEntity
  8
RUBBER
 62
     0
100
AcDbLine
 10
6.2527819863
 20
1.5720890052
 30
0.0
 11
2.3729321741
 21
-2.3077608071
 31
0.0
  0
LINE
  5
1B2
330
1AC
100
AcDbEntity
  8
RUBBER
 62
     0
100
AcDbLine
 10
2.3729321741
 20
-2.3077608071
 30
0.0
 11
-1.5069176382
 21
1.5720890052
 31
0.0
  0
MTEXT
  5
1B3
330
1AC
100
AcDbEntity
  8
RUBBER
 62
     0
100
AcDbMText
 10
0.0
 20
2.5781354795
 30
0.0
 40
2.0
 41
0.0
 71
     1
 72
     1
  1
SCx
  7
SLDTEXTSTYLE0
 73
     1
 44
1.0
  0
ENDBLK
  5
1AE
330
1AC
100
AcDbEntity
  8
0
100
AcDbBlockEnd
  0
BLOCK
  5
1B6
330
1B5
100
AcDbEntity
  8
0
100
AcDbBlockBegin
  2
SW_NOTE_12
 70
     0
 10
0.0
 20
0.0
 30
0.0
  3
SW_NOTE_12
  1
SW_NOTE_12
  0
CIRCLE
  5
1B8
330
1B5
100
AcDbEntity
  8
RUBBER
 62
     0
100
AcDbCircle
 10
1.0607831646
 20
2.0506564498
 30
0.0
 40
3.000000000000114
  0
MTEXT
  5
1B9
330
1B5
100
AcDbEntity
  8
RUBBER
 62
     0
100
AcDbMText
 10
0.0
 20
3.4106583948
 30
0.0
 40
2.6458333333
 41
0.0
 71
     1
 72
     1
  1
X
  7
SLDTEXTSTYLE0
 73
     1
 44
1.0
  0
ENDBLK
  5
1B7
330
1B5
100
AcDbEntity
  8
0
100
AcDbBlockEnd
  0
BLOCK
  5
1BD
330
1BC
100
AcDbEntity
  8
0
100
AcDbBlockBegin
  2
SW_NOTE_13
 70
     0
 10
0.0
 20
0.0
 30
0.0
  3
SW_NOTE_13
  1
SW_NOTE_13
  0
MTEXT
  5
1BF
330
1BC
100
AcDbEntity
  8
DIE-CASTING
 62
     0
100
AcDbMText
 10
0.0
 20
3.4106583948
 30
0.0
 40
2.6458333333
 41
0.0
 71
     1
 72
     1
  1
\LNotes:
  7
SLDTEXTSTYLE0
 73
     1
 44
1.0
  0
MTEXT
  5
1C0
330
1BC
100
AcDbEntity
  8
DIE-CASTING
 62
     0
100
AcDbMText
 10
0.0
 20
-3.6448970755
 30
0.0
 40
2.6458333333
 41
0.0
 71
     1
 72
     1
  1
1. Finishing free of oil
  7
SLDTEXTSTYLE0
 73
     1
 44
1.0
  0
MTEXT
  5
1C1
330
1BC
100
AcDbEntity
  8
DIE-CASTING
 62
     0
100
AcDbMText
 10
0.0
 20
-7.1726748106
 30
0.0
 40
2.6458333333
 41
0.0
 71
     1
 72
     1
  1
2. No sharp edge
  7
SLDTEXTSTYLE0
 73
     1
 44
1.0
  0
MTEXT
  5
1C2
330
1BC
100
AcDbEntity
  8
DIE-CASTING
 62
     0
100
AcDbMText
 10
0.0
 20
-10.7004525458
 30
0.0
 40
2.6458333333
 41
0.0
 71
     1
 72
     1
  1
3. ROHS Compliant
  7
SLDTEXTSTYLE0
 73
     1
 44
1.0
  0
MTEXT
  5
1C3
330
1BC
100
AcDbEntity
  8
DIE-CASTING
 62
     0
100
AcDbMText
 10
0.0
 20
-14.2282302809
 30
0.0
 40
2.6458333333
 41
0.0
 71
     1
 72
     1
  1
4. Reference dimensions, shown in parantheses
  7
SLDTEXTSTYLE0
 73
     1
 44
1.0
  0
MTEXT
  5
1C4
330
1BC
100
AcDbEntity
  8
DIE-CASTING
 62
     0
100
AcDbMText
 10
6.201171875
 20
-17.7560080161
 30
0.0
 40
2.6458333333
 41
0.0
 71
     1
 72
     1
  1
(DIM), are without tolerance and are for
  7
SLDTEXTSTYLE0
 73
     1
 44
1.0
  0
MTEXT
  5
1C5
330
1BC
100
AcDbEntity
  8
DIE-CASTING
 62
     0
100
AcDbMText
 10
6.201171875
 20
-21.2837857512
 30
0.0
 40
2.6458333333
 41
0.0
 71
     1
 72
     1
  1
information prupose only.
  7
SLDTEXTSTYLE0
 73
     1
 44
1.0
  0
MTEXT
  5
1C6
330
1BC
100
AcDbEntity
  8
DIE-CASTING
 62
     0
100
AcDbMText
 10
0.0
 20
-24.8115634863
 30
0.0
 40
2.6458333333
 41
0.0
 71
     1
 72
     1
  1
5. All geometry is to be derived from the CAD
  7
SLDTEXTSTYLE0
 73
     1
 44
1.0
  0
MTEXT
  5
1C7
330
1BC
100
AcDbEntity
  8
DIE-CASTING
 62
     0
100
AcDbMText
 10
6.201171875
 20
-28.3393412215
 30
0.0
 40
2.6458333333
 41
0.0
 71
     1
 72
     1
  1
database.
  7
SLDTEXTSTYLE0
 73
     1
 44
1.0
  0
MTEXT
  5
1C8
330
1BC
100
AcDbEntity
  8
DIE-CASTING
 62
     0
100
AcDbMText
 10
6.201171875
 20
-31.8671189566
 30
0.0
 40
2.6458333333
 41
0.0
 71
     1
 72
     1
  1
Critical to function dimensions called out on
  7
SLDTEXTSTYLE0
 73
     1
 44
1.0
  0
MTEXT
  5
1C9
330
1BC
100
AcDbEntity
  8
DIE-CASTING
 62
     0
100
AcDbMText
 10
6.201171875
 20
-35.3948966918
 30
0.0
 40
2.6458333333
 41
0.0
 71
     1
 72
     1
  1
this drawing are only for inspection purposes
  7
SLDTEXTSTYLE0
 73
     1
 44
1.0
  0
MTEXT
  5
1CA
330
1BC
100
AcDbEntity
  8
DIE-CASTING
 62
     0
100
AcDbMText
 10
0.0
 20
-38.9226744269
 30
0.0
 40
2.6458333333
 41
0.0
 71
     1
 72
     1
  1
6. No sharp edges
  7
SLDTEXTSTYLE0
 73
     1
 44
1.0
  0
MTEXT
  5
1CB
330
1BC
100
AcDbEntity
  8
DIE-CASTING
 62
     0
100
AcDbMText
 10
0.0
 20
-42.4504521621
 30
0.0
 40
2.6458333333
 41
0.0
 71
     1
 72
     1
  1
7. Non specified draft angle= 3°
  7
SLDTEXTSTYLE0
 73
     1
 44
1.0
  0
MTEXT
  5
1CC
330
1BC
100
AcDbEntity
  8
DIE-CASTING
 62
     0
100
AcDbMText
 10
0.0
 20
-45.9782298972
 30
0.0
 40
2.6458333333
 41
0.0
 71
     1
 72
     1
  1
8. Finition : Barreling or Vibrating polish
  7
SLDTEXTSTYLE0
 73
     1
 44
1.0
  0
MTEXT
  5
1CD
330
1BC
100
AcDbEntity
  8
DIE-CASTING
 62
     0
100
AcDbMText
 10
6.201171875
 20
-49.5060076323
 30
0.0
 40
2.6458333333
 41
0.0
 71
     1
 72
     1
  1
process
  7
SLDTEXTSTYLE0
 73
     1
 44
1.0
  0
MTEXT
  5
1CE
330
1BC
100
AcDbEntity
  8
DIE-CASTING
 62
     0
100
AcDbMText
 10
6.3646989875
 20
-53.0444325841
 30
0.0
 40
2.6458333333
 41
0.0
 71
     1
 72
     1
  1
Optional : sand blasted
  7
SLDTEXTSTYLE0
 73
     1
 44
1.0
  0
MTEXT
  5
1CF
330
1BC
100
AcDbEntity
  8
DIE-CASTING
 62
     0
100
AcDbMText
 10
0.0
 20
-60.0893408378
 30
0.0
 40
2.6458333333
 41
0.0
 71
     1
 72
     1
  1
9.     = Special Characteristic Dimension
  7
SLDTEXTSTYLE0
 73
     1
 44
1.0
  0
MTEXT
  5
1D0
330
1BC
100
AcDbEntity
  8
DIE-CASTING
 62
     0
100
AcDbMText
 10
0.0
 20
-67.1448963081
 30
0.0
 40
2.6458333333
 41
0.0
 71
     1
 72
     1
  1
10.    = Dimension identification number for FAI
  7
SLDTEXTSTYLE0
 73
     1
 44
1.0
  0
MTEXT
  5
1D1
330
1BC
100
AcDbEntity
  8
DIE-CASTING
 62
     0
100
AcDbMText
 10
0.0
 20
-74.2004517784
 30
0.0
 40
2.6458333333
 41
0.0
 71
     1
 72
     1
  1
11. Parts should be marked with:
  7
SLDTEXTSTYLE0
 73
     1
 44
1.0
  0
MTEXT
  5
1D2
330
1BC
100
AcDbEntity
  8
DIE-CASTING
 62
     0
100
AcDbMText
 10
8.2682291667
 20
-77.7282295135
 30
0.0
 40
2.6458333333
 41
0.0
 71
     1
 72
     1
  1
SAP material number(see title bock)
  7
SLDTEXTSTYLE0
 73
     1
 44
1.0
  0
MTEXT
  5
1D3
330
1BC
100
AcDbEntity
  8
DIE-CASTING
 62
     0
100
AcDbMText
 10
0.0
 20
-81.2560072486
 30
0.0
 40
2.6458333333
 41
0.0
 71
     1
 72
     1
  1
12. Marking location : see Drawing
  7
SLDTEXTSTYLE0
 73
     1
 44
1.0
  0
ENDBLK
  5
1BE
330
1BC
100
AcDbEntity
  8
0
100
AcDbBlockEnd
  0
BLOCK
  5
1D6
330
1D5
100
AcDbEntity
  8
0
100
AcDbBlockBegin
  2
SW_NOTE_14
 70
     0
 10
0.0
 20
0.0
 30
0.0
  3
SW_NOTE_14
  1
SW_NOTE_14
  0
CIRCLE
  5
1D8
330
1D5
100
AcDbEntity
  8
DIE-CASTING
 62
     0
100
AcDbCircle
 10
1.0607831646
 20
2.0506564498
 30
0.0
 40
2.999999999999892
  0
MTEXT
  5
1D9
330
1D5
100
AcDbEntity
  8
DIE-CASTING
 62
     0
100
AcDbMText
 10
0.0
 20
3.4106583948
 30
0.0
 40
2.6458333333
 41
0.0
 71
     1
 72
     1
  1
X
  7
SLDTEXTSTYLE0
 73
     1
 44
1.0
  0
ENDBLK
  5
1D7
330
1D5
100
AcDbEntity
  8
0
100
AcDbBlockEnd
  0
BLOCK
  5
1DC
330
1DB
100
AcDbEntity
  8
0
100
AcDbBlockBegin
  2
SW_NOTE_15
 70
     0
 10
0.0
 20
0.0
 30
0.0
  3
SW_NOTE_15
  1
SW_NOTE_15
  0
LINE
  5
1DE
330
1DB
100
AcDbEntity
  8
DIE-CASTING
 62
     0
100
AcDbLine
 10
-1.553641098
 20
1.5886807192
 30
0.0
 11
2.3262087143
 21
5.4685305315
 31
0.0
  0
LINE
  5
1DF
330
1DB
100
AcDbEntity
  8
DIE-CASTING
 62
     0
100
AcDbLine
 10
2.3262087143
 20
5.4685305315
 30
0.0
 11
6.2060585266
 21
1.5886807192
 31
0.0
  0
LINE
  5
1E0
330
1DB
100
AcDbEntity
  8
DIE-CASTING
 62
     0
100
AcDbLine
 10
6.2060585266
 20
1.5886807192
 30
0.0
 11
2.3262087143
 21
-2.291169093
 31
0.0
  0
LINE
  5
1E1
330
1DB
100
AcDbEntity
  8
DIE-CASTING
 62
     0
100
AcDbLine
 10
2.3262087143
 20
-2.291169093
 30
0.0
 11
-1.553641098
 21
1.5886807192
 31
0.0
  0
MTEXT
  5
1E2
330
1DB
100
AcDbEntity
  8
DIE-CASTING
 62
     0
100
AcDbMText
 10
0.0
 20
2.5781354795
 30
0.0
 40
2.0
 41
0.0
 71
     1
 72
     1
  1
SCx
  7
SLDTEXTSTYLE0
 73
     1
 44
1.0
  0
ENDBLK
  5
1DD
330
1DB
100
AcDbEntity
  8
0
100
AcDbBlockEnd
  0
BLOCK
  5
1E5
330
1E4
100
AcDbEntity
  8
0
100
AcDbBlockBegin
  2
SW_NOTE_16
 70
     0
 10
0.0
 20
0.0
 30
0.0
  3
SW_NOTE_16
  1
SW_NOTE_16
  0
MTEXT
  5
1E7
330
1E4
100
AcDbEntity
  8
TÔLERIE-USINAGE
 62
     0
100
AcDbMText
 10
22.32421875
 20
2.0463950369
 30
0.0
 40
1.5875
 41
0.0
 71
     3
 72
     1
  1
ISO 2768 : 1989 mK
  7
SLDTEXTSTYLE0
 73
     1
 44
1.0
  0
MTEXT
  5
1E8
330
1E4
100
AcDbEntity
  8
TÔLERIE-USINAGE
 62
     0
100
AcDbMText
 10
22.6185654104
 20
-0.0702716042
 30
0.0
 40
1.5875
 41
0.0
 71
     3
 72
     1
  1
threads :
  7
SLDTEXTSTYLE0
 73
     1
 44
1.0
  0
MTEXT
  5
1E9
330
1E4
100
AcDbEntity
  8
TÔLERIE-USINAGE
 62
     0
100
AcDbMText
 10
22.1606948972
 20
-2.1869382453
 30
0.0
 40
1.5875
 41
0.0
 71
     3
 72
     1
  1
6g/6H (ISO 965-1:1998)
  7
SLDTEXTSTYLE0
 73
     1
 44
1.0
  0
ENDBLK
  5
1E6
330
1E4
100
AcDbEntity
  8
0
100
AcDbBlockEnd
  0
BLOCK
  5
1EC
330
1EB
100
AcDbEntity
  8
0
100
AcDbBlockBegin
  2
SW_NOTE_17
 70
     0
 10
0.0
 20
0.0
 30
0.0
  3
SW_NOTE_17
  1
SW_NOTE_17
  0
MTEXT
  5
1EE
330
1EB
100
AcDbEntity
  8
TÔLERIE-USINAGE
 62
     0
100
AcDbMText
 10
0.0
 20
3.4106583948
 30
0.0
 40
2.6458333333
 41
0.0
 71
     1
 72
     1
  1
\LNotes:
  7
SLDTEXTSTYLE0
 73
     1
 44
1.0
  0
MTEXT
  5
1EF
330
1EB
100
AcDbEntity
  8
TÔLERIE-USINAGE
 62
     0
100
AcDbMText
 10
0.0
 20
-3.6448970755
 30
0.0
 40
2.6458333333
 41
0.0
 71
     1
 72
     1
  1
1. No change in production material shall be allowed
  7
SLDTEXTSTYLE0
 73
     1
 44
1.0
  0
MTEXT
  5
1F0
330
1EB
100
AcDbEntity
  8
TÔLERIE-USINAGE
 62
     0
100
AcDbMText
 10
6.201171875
 20
-7.1726748106
 30
0.0
 40
2.6458333333
 41
0.0
 71
     1
 72
     1
  1
without explicit prior written approval from Parrot
  7
SLDTEXTSTYLE0
 73
     1
 44
1.0
  0
MTEXT
  5
1F1
330
1EB
100
AcDbEntity
  8
TÔLERIE-USINAGE
 62
     0
100
AcDbMText
 10
0.0
 20
-10.7004525458
 30
0.0
 40
2.6458333333
 41
0.0
 71
     1
 72
     1
  1
2. Parts shall be free of sharp edges. Burrs shall
  7
SLDTEXTSTYLE0
 73
     1
 44
1.0
  0
MTEXT
  5
1F2
330
1EB
100
AcDbEntity
  8
TÔLERIE-USINAGE
 62
     0
100
AcDbMText
 10
6.201171875
 20
-14.2282302809
 30
0.0
 40
2.6458333333
 41
0.0
 71
     1
 72
     1
  1
not exceed 10% of material thickness.
  7
SLDTEXTSTYLE0
 73
     1
 44
1.0
  0
MTEXT
  5
1F3
330
1EB
100
AcDbEntity
  8
TÔLERIE-USINAGE
 62
     0
100
AcDbMText
 10
0.0
 20
-17.7560080161
 30
0.0
 40
2.6458333333
 41
0.0
 71
     1
 72
     1
  1
3. Burr side shall be on the inside of the part.
  7
SLDTEXTSTYLE0
 73
     1
 44
1.0
  0
MTEXT
  5
1F4
330
1EB
100
AcDbEntity
  8
TÔLERIE-USINAGE
 62
     0
100
AcDbMText
 10
0.0
 20
-21.2837857512
 30
0.0
 40
2.6458333333
 41
0.0
 71
     1
 72
     1
  1
4. Reference dimensions, shown in parantheses (DIM,
  7
SLDTEXTSTYLE0
 73
     1
 44
1.0
  0
MTEXT
  5
1F5
330
1EB
100
AcDbEntity
  8
TÔLERIE-USINAGE
 62
     0
100
AcDbMText
 10
6.201171875
 20
-24.8115634863
 30
0.0
 40
2.6458333333
 41
0.0
 71
     1
 72
     1
  1
are without tolerance and are for information
  7
SLDTEXTSTYLE0
 73
     1
 44
1.0
  0
MTEXT
  5
1F6
330
1EB
100
AcDbEntity
  8
TÔLERIE-USINAGE
 62
     0
100
AcDbMText
 10
6.201171875
 20
-28.3393412215
 30
0.0
 40
2.6458333333
 41
0.0
 71
     1
 72
     1
  1
purpose only.
  7
SLDTEXTSTYLE0
 73
     1
 44
1.0
  0
MTEXT
  5
1F7
330
1EB
100
AcDbEntity
  8
TÔLERIE-USINAGE
 62
     0
100
AcDbMText
 10
0.0
 20
-31.8671189566
 30
0.0
 40
2.6458333333
 41
0.0
 71
     1
 72
     1
  1
5. All geometry is to be derived from the CAD database.
  7
SLDTEXTSTYLE0
 73
     1
 44
1.0
  0
MTEXT
  5
1F8
330
1EB
100
AcDbEntity
  8
TÔLERIE-USINAGE
 62
     0
100
AcDbMText
 10
6.201171875
 20
-35.3948966918
 30
0.0
 40
2.6458333333
 41
0.0
 71
     1
 72
     1
  1
Critical to function dimensions called out on this
  7
SLDTEXTSTYLE0
 73
     1
 44
1.0
  0
MTEXT
  5
1F9
330
1EB
100
AcDbEntity
  8
TÔLERIE-USINAGE
 62
     0
100
AcDbMText
 10
6.201171875
 20
-38.9226744269
 30
0.0
 40
2.6458333333
 41
0.0
 71
     1
 72
     1
  1
drawing are only for inspection purposes.
  7
SLDTEXTSTYLE0
 73
     1
 44
1.0
  0
MTEXT
  5
1FA
330
1EB
100
AcDbEntity
  8
TÔLERIE-USINAGE
 62
     0
100
AcDbMText
 10
0.0
 20
-42.4504521621
 30
0.0
 40
2.6458333333
 41
0.0
 71
     1
 72
     1
  1
6. All inner bending radius indicated on the 2D/3D are
  7
SLDTEXTSTYLE0
 73
     1
 44
1.0
  0
MTEXT
  5
1FB
330
1EB
100
AcDbEntity
  8
TÔLERIE-USINAGE
 62
     0
100
AcDbMText
 10
6.201171875
 20
-45.9782298972
 30
0.0
 40
2.6458333333
 41
0.0
 71
     1
 72
     1
  1
maximum values (radius can be 0mm)
  7
SLDTEXTSTYLE0
 73
     1
 44
1.0
  0
MTEXT
  5
1FC
330
1EB
100
AcDbEntity
  8
TÔLERIE-USINAGE
 62
     0
100
AcDbMText
 10
0.0
 20
-53.0337853675
 30
0.0
 40
2.6458333333
 41
0.0
 71
     1
 72
     1
  1
7.    = Special Characteristic Dimension
  7
SLDTEXTSTYLE0
 73
     1
 44
1.0
  0
MTEXT
  5
1FD
330
1EB
100
AcDbEntity
  8
TÔLERIE-USINAGE
 62
     0
100
AcDbMText
 10
0.0
 20
-60.0893408378
 30
0.0
 40
2.6458333333
 41
0.0
 71
     1
 72
     1
  1
8.    = Dimension identification number for FAI
  7
SLDTEXTSTYLE0
 73
     1
 44
1.0
  0
MTEXT
  5
1FE
330
1EB
100
AcDbEntity
  8
TÔLERIE-USINAGE
 62
     0
100
AcDbMText
 10
0.0
 20
-67.1448963081
 30
0.0
 40
2.6458333333
 41
0.0
 71
     1
 72
     1
  1
9. Parts should be marked with:
  7
SLDTEXTSTYLE0
 73
     1
 44
1.0
  0
MTEXT
  5
1FF
330
1EB
100
AcDbEntity
  8
TÔLERIE-USINAGE
 62
     0
100
AcDbMText
 10
6.201171875
 20
-70.6726740432
 30
0.0
 40
2.6458333333
 41
0.0
 71
     1
 72
     1
  1
SAP material number(see title bock)
  7
SLDTEXTSTYLE0
 73
     1
 44
1.0
  0
MTEXT
  5
200
330
1EB
100
AcDbEntity
  8
TÔLERIE-USINAGE
 62
     0
100
AcDbMText
 10
0.0
 20
-74.2004517784
 30
0.0
 40
2.6458333333
 41
0.0
 71
     1
 72
     1
  1
10. Marking location : see Drawing
  7
SLDTEXTSTYLE0
 73
     1
 44
1.0
  0
ENDBLK
  5
1ED
330
1EB
100
AcDbEntity
  8
0
100
AcDbBlockEnd
  0
BLOCK
  5
203
330
202
100
AcDbEntity
  8
0
100
AcDbBlockBegin
  2
SW_NOTE_18
 70
     0
 10
0.0
 20
0.0
 30
0.0
  3
SW_NOTE_18
  1
SW_NOTE_18
  0
CIRCLE
  5
205
330
202
100
AcDbEntity
  8
TÔLERIE-USINAGE
 62
     0
100
AcDbCircle
 10
1.0607831646
 20
2.0506564498
 30
0.0
 40
3.000000000000114
  0
MTEXT
  5
206
330
202
100
AcDbEntity
  8
TÔLERIE-USINAGE
 62
     0
100
AcDbMText
 10
0.0
 20
3.4106583948
 30
0.0
 40
2.6458333333
 41
0.0
 71
     1
 72
     1
  1
X
  7
SLDTEXTSTYLE0
 73
     1
 44
1.0
  0
ENDBLK
  5
204
330
202
100
AcDbEntity
  8
0
100
AcDbBlockEnd
  0
BLOCK
  5
209
330
208
100
AcDbEntity
  8
0
100
AcDbBlockBegin
  2
SW_NOTE_19
 70
     0
 10
0.0
 20
0.0
 30
0.0
  3
SW_NOTE_19
  1
SW_NOTE_19
  0
LINE
  5
20B
330
208
100
AcDbEntity
  8
TÔLERIE-USINAGE
 62
     0
100
AcDbLine
 10
-1.5986588592
 20
1.5886807192
 30
0.0
 11
2.2811909531
 21
5.4685305315
 31
0.0
  0
LINE
  5
20C
330
208
100
AcDbEntity
  8
TÔLERIE-USINAGE
 62
     0
100
AcDbLine
 10
2.2811909531
 20
5.4685305315
 30
0.0
 11
6.1610407653
 21
1.5886807192
 31
0.0
  0
LINE
  5
20D
330
208
100
AcDbEntity
  8
TÔLERIE-USINAGE
 62
     0
100
AcDbLine
 10
6.1610407653
 20
1.5886807192
 30
0.0
 11
2.2811909531
 21
-2.291169093
 31
0.0
  0
LINE
  5
20E
330
208
100
AcDbEntity
  8
TÔLERIE-USINAGE
 62
     0
100
AcDbLine
 10
2.2811909531
 20
-2.291169093
 30
0.0
 11
-1.5986588592
 21
1.5886807192
 31
0.0
  0
MTEXT
  5
20F
330
208
100
AcDbEntity
  8
TÔLERIE-USINAGE
 62
     0
100
AcDbMText
 10
0.0
 20
2.5781354795
 30
0.0
 40
2.0
 41
0.0
 71
     1
 72
     1
  1
SCx
  7
SLDTEXTSTYLE0
 73
     1
 44
1.0
  0
ENDBLK
  5
20A
330
208
100
AcDbEntity
  8
0
100
AcDbBlockEnd
  0
BLOCK
  5
213
330
212
100
AcDbEntity
  8
0
100
AcDbBlockBegin
  2
SW_NOTE_20
 70
     0
 10
0.0
 20
0.0
 30
0.0
  3
SW_NOTE_20
  1
SW_NOTE_20
  0
MTEXT
  5
215
330
212
100
AcDbEntity
  8
SHIELD
 62
     0
100
AcDbMText
 10
0.0
 20
3.4106583948
 30
0.0
 40
2.6458333333
 41
0.0
 71
     1
 72
     1
  1
Notes:
  7
SLDTEXTSTYLE0
 73
     1
 44
1.0
  0
MTEXT
  5
216
330
212
100
AcDbEntity
  8
SHIELD
 62
     0
100
AcDbMText
 10
0.0
 20
-3.6448970755
 30
0.0
 40
2.6458333333
 41
0.0
 71
     1
 72
     1
  1
Material and finnish
  7
SLDTEXTSTYLE0
 73
     1
 44
1.0
  0
MTEXT
  5
217
330
212
100
AcDbEntity
  8
SHIELD
 62
     0
100
AcDbMText
 10
0.0
 20
-7.1726748106
 30
0.0
 40
2.6458333333
 41
0.0
 71
     1
 72
     1
  1
1. Material : CRS 1010, Tin coating #100 11.2/11.2
  7
SLDTEXTSTYLE0
 73
     1
 44
1.0
  0
MTEXT
  5
218
330
212
100
AcDbEntity
  8
SHIELD
 62
     0
100
AcDbMText
 10
0.0
 20
-10.7004525458
 30
0.0
 40
2.6458333333
 41
0.0
 71
     1
 72
     1
  1
2. No change in production material shall be allowed
  7
SLDTEXTSTYLE0
 73
     1
 44
1.0
  0
MTEXT
  5
219
330
212
100
AcDbEntity
  8
SHIELD
 62
     0
100
AcDbMText
 10
6.201171875
 20
-14.2282302809
 30
0.0
 40
2.6458333333
 41
0.0
 71
     1
 72
     1
  1
without explicit prior written approval from Parrot
  7
SLDTEXTSTYLE0
 73
     1
 44
1.0
  0
MTEXT
  5
21A
330
212
100
AcDbEntity
  8
SHIELD
 62
     0
100
AcDbMText
 10
0.0
 20
-17.7560080161
 30
0.0
 40
2.6458333333
 41
0.0
 71
     1
 72
     1
  1
3. Parts shall be free of sharp edges. Burrs shall
  7
SLDTEXTSTYLE0
 73
     1
 44
1.0
  0
MTEXT
  5
21B
330
212
100
AcDbEntity
  8
SHIELD
 62
     0
100
AcDbMText
 10
0.0
 20
-21.2837857512
 30
0.0
 40
2.6458333333
 41
0.0
 71
     1
 72
     1
  1
not exceed 7% of material thickness.
  7
SLDTEXTSTYLE0
 73
     1
 44
1.0
  0
MTEXT
  5
21C
330
212
100
AcDbEntity
  8
SHIELD
 62
     0
100
AcDbMText
 10
0.0
 20
-24.8115634863
 30
0.0
 40
2.6458333333
 41
0.0
 71
     1
 72
     1
  1
4. Burr side shall be on the outside of the frame/inside
  7
SLDTEXTSTYLE0
 73
     1
 44
1.0
  0
MTEXT
  5
21D
330
212
100
AcDbEntity
  8
SHIELD
 62
     0
100
AcDbMText
 10
6.201171875
 20
-28.3393412215
 30
0.0
 40
2.6458333333
 41
0.0
 71
     1
 72
     1
  1
of the lid.
  7
SLDTEXTSTYLE0
 73
     1
 44
1.0
  0
MTEXT
  5
21E
330
212
100
AcDbEntity
  8
SHIELD
 62
     0
100
AcDbMText
 10
0.0
 20
-31.8671189566
 30
0.0
 40
2.6458333333
 41
0.0
 71
     1
 72
     1
  1
5. Reference dimensions, shown in parantheses (DIM),
  7
SLDTEXTSTYLE0
 73
     1
 44
1.0
  0
MTEXT
  5
21F
330
212
100
AcDbEntity
  8
SHIELD
 62
     0
100
AcDbMText
 10
6.201171875
 20
-35.3948966918
 30
0.0
 40
2.6458333333
 41
0.0
 71
     1
 72
     1
  1
are without tolerance and are for information
  7
SLDTEXTSTYLE0
 73
     1
 44
1.0
  0
MTEXT
  5
220
330
212
100
AcDbEntity
  8
SHIELD
 62
     0
100
AcDbMText
 10
6.201171875
 20
-38.9226744269
 30
0.0
 40
2.6458333333
 41
0.0
 71
     1
 72
     1
  1
purpose only.
  7
SLDTEXTSTYLE0
 73
     1
 44
1.0
  0
MTEXT
  5
221
330
212
100
AcDbEntity
  8
SHIELD
 62
     0
100
AcDbMText
 10
0.0
 20
-42.4504521621
 30
0.0
 40
2.6458333333
 41
0.0
 71
     1
 72
     1
  1
6. All geometry is to be derived from the CAD database.
  7
SLDTEXTSTYLE0
 73
     1
 44
1.0
  0
MTEXT
  5
222
330
212
100
AcDbEntity
  8
SHIELD
 62
     0
100
AcDbMText
 10
6.201171875
 20
-45.9782298972
 30
0.0
 40
2.6458333333
 41
0.0
 71
     1
 72
     1
  1
Critical to function dimensions called out on this
  7
SLDTEXTSTYLE0
 73
     1
 44
1.0
  0
MTEXT
  5
223
330
212
100
AcDbEntity
  8
SHIELD
 62
     0
100
AcDbMText
 10
6.201171875
 20
-49.5060076323
 30
0.0
 40
2.6458333333
 41
0.0
 71
     1
 72
     1
  1
drawing are only for inspection purposes.
  7
SLDTEXTSTYLE0
 73
     1
 44
1.0
  0
MTEXT
  5
224
330
212
100
AcDbEntity
  8
SHIELD
 62
     0
100
AcDbMText
 10
0.0
 20
-56.5615631026
 30
0.0
 40
2.6458333333
 41
0.0
 71
     1
 72
     1
  1
Lid and Frame assembly and disassembly forces
  7
SLDTEXTSTYLE0
 73
     1
 44
1.0
  0
MTEXT
  5
225
330
212
100
AcDbEntity
  8
SHIELD
 62
     0
100
AcDbMText
 10
0.0
 20
-60.0893408378
 30
0.0
 40
2.6458333333
 41
0.0
 71
     1
 72
     1
  1
7. Assembly force should be less than 30N even on worse
  7
SLDTEXTSTYLE0
 73
     1
 44
1.0
  0
MTEXT
  5
226
330
212
100
AcDbEntity
  8
SHIELD
 62
     0
100
AcDbMText
 10
6.201171875
 20
-63.6171185729
 30
0.0
 40
2.6458333333
 41
0.0
 71
     1
 72
     1
  1
dimensional case.
  7
SLDTEXTSTYLE0
 73
     1
 44
1.0
  0
MTEXT
  5
227
330
212
100
AcDbEntity
  8
SHIELD
 62
     0
100
AcDbMText
 10
0.0
 20
-67.1448963081
 30
0.0
 40
2.6458333333
 41
0.0
 71
     1
 72
     1
  1
8. Disassembly force should be 30N minimum even on worse
  7
SLDTEXTSTYLE0
 73
     1
 44
1.0
  0
MTEXT
  5
228
330
212
100
AcDbEntity
  8
SHIELD
 62
     0
100
AcDbMText
 10
6.201171875
 20
-70.6726740432
 30
0.0
 40
2.6458333333
 41
0.0
 71
     1
 72
     1
  1
dimensional case.
  7
SLDTEXTSTYLE0
 73
     1
 44
1.0
  0
MTEXT
  5
229
330
212
100
AcDbEntity
  8
SHIELD
 62
     0
100
AcDbMText
 10
0.0
 20
-77.7282295135
 30
0.0
 40
2.6458333333
 41
0.0
 71
     1
 72
     1
  1
Packaging
  7
SLDTEXTSTYLE0
 73
     1
 44
1.0
  0
MTEXT
  5
22A
330
212
100
AcDbEntity
  8
SHIELD
 62
     0
100
AcDbMText
 10
0.0
 20
-81.2560072486
 30
0.0
 40
2.6458333333
 41
0.0
 71
     1
 72
     1
  1
9. All parts must be cleaned, degreased and dried before
  7
SLDTEXTSTYLE0
 73
     1
 44
1.0
  0
MTEXT
  5
22B
330
212
100
AcDbEntity
  8
SHIELD
 62
     0
100
AcDbMText
 10
6.201171875
 20
-84.7837849838
 30
0.0
 40
2.6458333333
 41
0.0
 71
     1
 72
     1
  1
packing.
  7
SLDTEXTSTYLE0
 73
     1
 44
1.0
  0
MTEXT
  5
22C
330
212
100
AcDbEntity
  8
SHIELD
 62
     0
100
AcDbMText
 10
0.0
 20
-88.3115627189
 30
0.0
 40
2.6458333333
 41
0.0
 71
     1
 72
     1
  1
10. Packaging material: TBD
  7
SLDTEXTSTYLE0
 73
     1
 44
1.0
  0
MTEXT
  5
22D
330
212
100
AcDbEntity
  8
SHIELD
 62
     0
100
AcDbMText
 10
0.0
 20
-95.3671181892
 30
0.0
 40
2.6458333333
 41
0.0
 71
     1
 72
     1
  1
Marking
  7
SLDTEXTSTYLE0
 73
     1
 44
1.0
  0
MTEXT
  5
22E
330
212
100
AcDbEntity
  8
SHIELD
 62
     0
100
AcDbMText
 10
0.0
 20
-98.8948959244
 30
0.0
 40
2.6458333333
 41
0.0
 71
     1
 72
     1
  1
11. Lowered or printed text. Text size = 1mm
  7
SLDTEXTSTYLE0
 73
     1
 44
1.0
  0
MTEXT
  5
22F
330
212
100
AcDbEntity
  8
SHIELD
 62
     0
100
AcDbMText
 10
0.0
 20
-102.4226736595
 30
0.0
 40
2.6458333333
 41
0.0
 71
     1
 72
     1
  1
12. Parts should be marked with:
  7
SLDTEXTSTYLE0
 73
     1
 44
1.0
  0
MTEXT
  5
230
330
212
100
AcDbEntity
  8
SHIELD
 62
     0
100
AcDbMText
 10
8.2682291667
 20
-105.9504513946
 30
0.0
 40
2.6458333333
 41
0.0
 71
     1
 72
     1
  1
SAP Material Number (See title block)
  7
SLDTEXTSTYLE0
 73
     1
 44
1.0
  0
MTEXT
  5
231
330
212
100
AcDbEntity
  8
SHIELD
 62
     0
100
AcDbMText
 10
0.0
 20
-109.4782291298
 30
0.0
 40
2.6458333333
 41
0.0
 71
     1
 72
     1
  1
13. Marking location : see Drawing
  7
SLDTEXTSTYLE0
 73
     1
 44
1.0
  0
MTEXT
  5
232
330
212
100
AcDbEntity
  8
SHIELD
 62
     0
100
AcDbMText
 10
0.0
 20
-116.5337846001
 30
0.0
 40
2.6458333333
 41
0.0
 71
     1
 72
     1
  1
14.     = Special Characteristic Dimension
  7
SLDTEXTSTYLE0
 73
     1
 44
1.0
  0
MTEXT
  5
233
330
212
100
AcDbEntity
  8
SHIELD
 62
     0
100
AcDbMText
 10
0.0
 20
-123.5893400704
 30
0.0
 40
2.6458333333
 41
0.0
 71
     1
 72
     1
  1
15.     = Dimension identification number for FAI
  7
SLDTEXTSTYLE0
 73
     1
 44
1.0
  0
ENDBLK
  5
214
330
212
100
AcDbEntity
  8
0
100
AcDbBlockEnd
  0
BLOCK
  5
236
330
235
100
AcDbEntity
  8
0
100
AcDbBlockBegin
  2
SW_NOTE_21
 70
     0
 10
0.0
 20
0.0
 30
0.0
  3
SW_NOTE_21
  1
SW_NOTE_21
  0
CIRCLE
  5
238
330
235
100
AcDbEntity
  8
SHIELD
 62
     0
100
AcDbCircle
 10
1.0607831646
 20
2.0506564498
 30
0.0
 40
3.000000000000114
  0
MTEXT
  5
239
330
235
100
AcDbEntity
  8
SHIELD
 62
     0
100
AcDbMText
 10
0.0
 20
3.4106583948
 30
0.0
 40
2.6458333333
 41
0.0
 71
     1
 72
     1
  1
X
  7
SLDTEXTSTYLE0
 73
     1
 44
1.0
  0
ENDBLK
  5
237
330
235
100
AcDbEntity
  8
0
100
AcDbBlockEnd
  0
BLOCK
  5
23C
330
23B
100
AcDbEntity
  8
0
100
AcDbBlockBegin
  2
SW_NOTE_22
 70
     0
 10
0.0
 20
0.0
 30
0.0
  3
SW_NOTE_22
  1
SW_NOTE_22
  0
LINE
  5
23E
330
23B
100
AcDbEntity
  8
SHIELD
 62
     0
100
AcDbLine
 10
-1.5986588592
 20
1.5720890052
 30
0.0
 11
2.2811909531
 21
5.4519388174
 31
0.0
  0
LINE
  5
23F
330
23B
100
AcDbEntity
  8
SHIELD
 62
     0
100
AcDbLine
 10
2.2811909531
 20
5.4519388174
 30
0.0
 11
6.1610407653
 21
1.5720890052
 31
0.0
  0
LINE
  5
240
330
23B
100
AcDbEntity
  8
SHIELD
 62
     0
100
AcDbLine
 10
6.1610407653
 20
1.5720890052
 30
0.0
 11
2.2811909531
 21
-2.3077608071
 31
0.0
  0
LINE
  5
241
330
23B
100
AcDbEntity
  8
SHIELD
 62
     0
100
AcDbLine
 10
2.2811909531
 20
-2.3077608071
 30
0.0
 11
-1.5986588592
 21
1.5720890052
 31
0.0
  0
MTEXT
  5
242
330
23B
100
AcDbEntity
  8
SHIELD
 62
     0
100
AcDbMText
 10
0.0
 20
2.5781354795
 30
0.0
 40
2.0
 41
0.0
 71
     1
 72
     1
  1
SCx
  7
SLDTEXTSTYLE0
 73
     1
 44
1.0
  0
ENDBLK
  5
23D
330
23B
100
AcDbEntity
  8
0
100
AcDbBlockEnd
  0
BLOCK
  5
245
330
244
100
AcDbEntity
  8
0
100
AcDbBlockBegin
  2
SW_NOTE_23
 70
     0
 10
0.0
 20
0.0
 30
0.0
  3
SW_NOTE_23
  1
SW_NOTE_23
  0
INSERT
  5
24D
330
244
100
AcDbEntity
  8
ASSEMBLY
 62
     0
100
AcDbBlockReference
  2
SW_SYMBOL_GTOL_POSI
 10
0.0
 20
0.1673200514
 30
0.0
 41
0.0013929734
 42
0.0013929734
 43
0.0013929734
  0
MTEXT
  5
24F
330
244
100
AcDbEntity
  8
ASSEMBLY
 62
     0
100
AcDbMText
 10
2.7061975561
 20
1.3642633579
 30
0.0
 40
1.0583333333
 41
0.0
 71
     1
 72
     1
  1
3 X Y Z
  7
SLDTEXTSTYLE6
 73
     1
 44
1.0
  0
ENDBLK
  5
246
330
244
100
AcDbEntity
  8
0
100
AcDbBlockEnd
  0
BLOCK
  5
248
330
247
100
AcDbEntity
  8
0
100
AcDbBlockBegin
  2
SW_SYMBOL_GTOL_POSI
 70
     0
 10
0.0
 20
0.0
 30
0.0
  3
SW_SYMBOL_GTOL_POSI
  1
SW_SYMBOL_GTOL_POSI
  0
CIRCLE
  5
24A
330
247
100
AcDbEntity
  8
ASSEMBLY
 62
     0
100
AcDbCircle
 10
750.0
 20
500.0
 30
0.0
 40
500.0
  0
LINE
  5
24B
330
247
100
AcDbEntity
  8
ASSEMBLY
 62
     0
100
AcDbLine
 10
0.0
 20
500.0
 30
0.0
 11
1500.0
 21
500.0
 31
0.0
  0
LINE
  5
24C
330
247
100
AcDbEntity
  8
ASSEMBLY
 62
     0
100
AcDbLine
 10
750.0
 20
-250.0
 30
0.0
 11
750.0
 21
1250.0
 31
0.0
  0
ENDBLK
  5
249
330
247
100
AcDbEntity
  8
0
100
AcDbBlockEnd
  0
BLOCK
  5
252
330
251
100
AcDbEntity
  8
0
100
AcDbBlockBegin
  2
SW_NOTE_24
 70
     0
 10
0.0
 20
0.0
 30
0.0
  3
SW_NOTE_24
  1
SW_NOTE_24
  0
INSERT
  5
258
330
251
100
AcDbEntity
  8
ASSEMBLY
 62
     0
100
AcDbBlockReference
  2
SW_SYMBOL_GTOL_LPROF
 10
0.0
 20
0.1254900386
 30
0.0
 41
0.0010447301
 42
0.0010447301
 43
0.0010447301
  0
MTEXT
  5
259
330
251
100
AcDbEntity
  8
ASSEMBLY
 62
     0
100
AcDbMText
 10
2.6639131829
 20
1.2809686026
 30
0.0
 40
1.0583333333
 41
0.0
 71
     1
 72
     1
  1
3 X Y Z
  7
SLDTEXTSTYLE6
 73
     1
 44
1.0
  0
ENDBLK
  5
253
330
251
100
AcDbEntity
  8
0
100
AcDbBlockEnd
  0
BLOCK
  5
255
330
254
100
AcDbEntity
  8
0
100
AcDbBlockBegin
  2
SW_SYMBOL_GTOL_LPROF
 70
     0
 10
0.0
 20
0.0
 30
0.0
  3
SW_SYMBOL_GTOL_LPROF
  1
SW_SYMBOL_GTOL_LPROF
  0
ARC
  5
257
330
254
100
AcDbEntity
  8
ASSEMBLY
 62
     0
100
AcDbCircle
 10
1000.0
 20
0.0
 30
0.0
 40
1000.0
100
AcDbArc
 50
0.0
 51
180.0
  0
ENDBLK
  5
256
330
254
100
AcDbEntity
  8
0
100
AcDbBlockEnd
  0
BLOCK
  5
25C
330
25B
100
AcDbEntity
  8
0
100
AcDbBlockBegin
  2
SW_NOTE_25
 70
     0
 10
0.0
 20
0.0
 30
0.0
  3
SW_NOTE_25
  1
SW_NOTE_25
  0
INSERT
  5
263
330
25B
100
AcDbEntity
  8
ASSEMBLY
 62
     0
100
AcDbBlockReference
  2
SW_SYMBOL_GTOL_SPROF
 10
0.0
 20
0.1254900386
 30
0.0
 41
0.0010447301
 42
0.0010447301
 43
0.0010447301
  0
MTEXT
  5
264
330
25B
100
AcDbEntity
  8
ASSEMBLY
 62
     0
100
AcDbMText
 10
2.6639131829
 20
1.2809686026
 30
0.0
 40
1.0583333333
 41
0.0
 71
     1
 72
     1
  1
3 X Y Z
  7
SLDTEXTSTYLE6
 73
     1
 44
1.0
  0
ENDBLK
  5
25D
330
25B
100
AcDbEntity
  8
0
100
AcDbBlockEnd
  0
BLOCK
  5
25F
330
25E
100
AcDbEntity
  8
0
100
AcDbBlockBegin
  2
SW_SYMBOL_GTOL_SPROF
 70
     0
 10
0.0
 20
0.0
 30
0.0
  3
SW_SYMBOL_GTOL_SPROF
  1
SW_SYMBOL_GTOL_SPROF
  0
ARC
  5
261
330
25E
100
AcDbEntity
  8
ASSEMBLY
 62
     0
100
AcDbCircle
 10
1000.0
 20
0.0
 30
0.0
 40
1000.0
100
AcDbArc
 50
0.0
 51
180.0
  0
LINE
  5
262
330
25E
100
AcDbEntity
  8
ASSEMBLY
 62
     0
100
AcDbLine
 10
0.0
 20
0.0
 30
0.0
 11
2000.0
 21
0.0
 31
0.0
  0
ENDBLK
  5
260
330
25E
100
AcDbEntity
  8
0
100
AcDbBlockEnd
  0
BLOCK
  5
298
330
297
100
AcDbEntity
  8
0
100
AcDbBlockBegin
  2
_D
 70
     0
 10
0.0
 20
0.0
 30
0.0
  3
_D
  1
_D
  0
ARC
  5
29A
330
297
100
AcDbEntity
  8
DESSIN
 62
     7
100
AcDbCircle
 10
339.4951170735
 20
531.6877318512
 30
0.0
 40
6.179466983947386
100
AcDbArc
 50
153.4349488229
 51
206.5650511771
  0
ARC
  5
29B
330
297
100
AcDbEntity
  8
DESSIN
 62
     7
100
AcDbCircle
 10
336.768034143
 20
531.6877318512
 30
0.0
 40
6.179466983947386
100
AcDbArc
 50
333.4349488229
 51
26.5650511771
  0
SOLID
  5
29C
330
297
100
AcDbEntity
  8
DESSIN
 62
     7
100
AcDbTrace
 10
223.1315754918
 20
528.924190203
 30
0.0
 11
229.1315754918
 21
528.024190203
 31
0.0
 12
229.1315754918
 22
529.824190203
 32
0.0
 13
229.1315754918
 23
529.824190203
 33
0.0
  0
SOLID
  5
29D
330
297
100
AcDbEntity
  8
DESSIN
 62
     7
100
AcDbTrace
 10
453.1315754918
 20
528.924190203
 30
0.0
 11
447.1315754918
 21
529.824190203
 31
0.0
 12
447.1315754918
 22
528.024190203
 32
0.0
 13
447.1315754918
 23
528.024190203
 33
0.0
  0
LINE
  5
29E
330
297
100
AcDbEntity
  8
DESSIN
 62
     7
100
AcDbLine
 10
223.1315754918
 20
462.924190203
 30
0.0
 11
223.1315754918
 21
529.924190203
 31
0.0
  0
LINE
  5
29F
330
297
100
AcDbEntity
  8
DESSIN
 62
     7
100
AcDbLine
 10
453.1315754918
 20
462.924190203
 30
0.0
 11
453.1315754918
 21
529.924190203
 31
0.0
  0
LINE
  5
2A0
330
297
100
AcDbEntity
  8
DESSIN
 62
     7
100
AcDbLine
 10
223.1315754918
 20
528.924190203
 30
0.0
 11
453.1315754918
 21
528.924190203
 31
0.0
  0
MTEXT
  5
2A1
330
297
100
AcDbEntity
  8
DESSIN
 62
     7
100
AcDbMText
 10
333.9680337771
 20
533.4359274086
 30
0.0
 40
3.5
 41
0.0
 71
     1
 72
     1
  1
230
  7
SLDTEXTSTYLE0
 73
     1
 44
1.0
  0
ENDBLK
  5
299
330
297
100
AcDbEntity
  8
0
100
AcDbBlockEnd
  0
BLOCK
  5
2A4
330
2A3
100
AcDbEntity
  8
0
100
AcDbBlockBegin
  2
_D_1
 70
     0
 10
0.0
 20
0.0
 30
0.0
  3
_D_1
  1
_D_1
  0
ARC
  5
2A6
330
2A3
100
AcDbEntity
  8
DESSIN
 62
     7
100
AcDbCircle
 10
162.3680338436
 20
344.6817116918
 30
0.0
 40
6.179466983947374
100
AcDbArc
 50
243.4349488229
 51
296.5650511771
  0
ARC
  5
2A7
330
2A3
100
AcDbEntity
  8
DESSIN
 62
     7
100
AcDbCircle
 10
162.3680338436
 20
350.2817124235
 30
0.0
 40
6.179466983947425
100
AcDbArc
 50
63.4349488229
 51
116.5650511771
  0
SOLID
  5
2A8
330
2A3
100
AcDbEntity
  8
DESSIN
 62
     7
100
AcDbTrace
 10
165.1315754918
 20
476.924190203
 30
0.0
 11
164.2315754918
 21
470.924190203
 31
0.0
 12
166.0315754918
 22
470.924190203
 32
0.0
 13
166.0315754918
 23
470.924190203
 33
0.0
  0
SOLID
  5
2A9
330
2A3
100
AcDbEntity
  8
DESSIN
 62
     7
100
AcDbTrace
 10
165.1315754918
 20
218.0392346108
 30
0.0
 11
166.0315754918
 21
224.0392346108
 31
0.0
 12
164.2315754918
 22
224.0392346108
 32
0.0
 13
164.2315754918
 23
224.0392346108
 33
0.0
  0
LINE
  5
2AA
330
2A3
100
AcDbEntity
  8
DESSIN
 62
     7
100
AcDbLine
 10
237.1315754918
 20
476.924190203
 30
0.0
 11
164.1315754918
 21
476.924190203
 31
0.0
  0
LINE
  5
2AB
330
2A3
100
AcDbEntity
  8
DESSIN
 62
     7
100
AcDbLine
 10
332.1315754918
 20
218.0392346108
 30
0.0
 11
164.1315754918
 21
218.0392346108
 31
0.0
  0
LINE
  5
2AC
330
2A3
100
AcDbEntity
  8
DESSIN
 62
     7
100
AcDbLine
 10
165.1315754918
 20
476.924190203
 30
0.0
 11
165.1315754918
 21
218.0392346108
 31
0.0
  0
MTEXT
  5
2AD
330
2A3
100
AcDbEntity
  8
DESSIN
 62
     7
100
AcDbMText
 10
160.6198382862
 20
339.1546283955
 30
0.0
 40
3.5
 41
0.0
 71
     1
 72
     1
  1
258,88
  7
SLDTEXTSTYLE0
 11
-7.044195017643634E-15
 21
1.0
 31
0.0
 73
     1
 44
1.0
  0
ENDBLK
  5
2A5
330
2A3
100
AcDbEntity
  8
0
100
AcDbBlockEnd
  0
BLOCK
  5
2AF
330
2AE
100
AcDbEntity
  8
0
100
AcDbBlockBegin
  2
SW_CENTERMARKSYMBOL_0
 70
     0
 10
0.0
 20
0.0
 30
0.0
  3
SW_CENTERMARKSYMBOL_0
  1
SW_CENTERMARKSYMBOL_0
  0
LINE
  5
2B1
330
2AE
100
AcDbEntity
  8
DESSIN
 62
     0
100
AcDbLine
 10
0.0
 20
0.0
 30
0.0
 11
0.0
 21
2.5
 31
0.0
  0
LINE
  5
2B2
330
2AE
100
AcDbEntity
  8
DESSIN
 62
     0
100
AcDbLine
 10
0.0
 20
0.0
 30
0.0
 11
-2.5
 21
0.0
 31
0.0
  0
LINE
  5
2B3
330
2AE
100
AcDbEntity
  8
DESSIN
 62
     0
100
AcDbLine
 10
0.0
 20
0.0
 30
0.0
 11
0.0
 21
-2.5
 31
0.0
  0
LINE
  5
2B4
330
2AE
100
AcDbEntity
  8
DESSIN
 62
     0
100
AcDbLine
 10
0.0
 20
0.0
 30
0.0
 11
2.5
 21
0.0
 31
0.0
  0
LINE
  5
2B5
330
2AE
100
AcDbEntity
  8
DESSIN
 62
     0
100
AcDbLine
 10
0.0
 20
2.5
 30
0.0
 11
0.0
 21
4.75
 31
0.0
  0
LINE
  5
2B6
330
2AE
100
AcDbEntity
  8
DESSIN
 62
     0
100
AcDbLine
 10
-2.5
 20
0.0
 30
0.0
 11
-4.75
 21
0.0
 31
0.0
  0
LINE
  5
2B7
330
2AE
100
AcDbEntity
  8
DESSIN
 62
     0
100
AcDbLine
 10
0.0
 20
-2.5
 30
0.0
 11
0.0
 21
-4.75
 31
0.0
  0
LINE
  5
2B8
330
2AE
100
AcDbEntity
  8
DESSIN
 62
     0
100
AcDbLine
 10
2.5
 20
0.0
 30
0.0
 11
111.7043396139
 21
0.0
 31
0.0
  0
ENDBLK
  5
2B0
330
2AE
100
AcDbEntity
  8
0
100
AcDbBlockEnd
  0
BLOCK
  5
2BB
330
2BA
100
AcDbEntity
  8
0
100
AcDbBlockBegin
  2
SW_CENTERMARKSYMBOL_1
 70
     0
 10
0.0
 20
0.0
 30
0.0
  3
SW_CENTERMARKSYMBOL_1
  1
SW_CENTERMARKSYMBOL_1
  0
LINE
  5
2BD
330
2BA
100
AcDbEntity
  8
DESSIN
 62
     0
100
AcDbLine
 10
0.0
 20
0.0
 30
0.0
 11
0.0
 21
2.5
 31
0.0
  0
LINE
  5
2BE
330
2BA
100
AcDbEntity
  8
DESSIN
 62
     0
100
AcDbLine
 10
0.0
 20
0.0
 30
0.0
 11
-2.5
 21
0.0
 31
0.0
  0
LINE
  5
2BF
330
2BA
100
AcDbEntity
  8
DESSIN
 62
     0
100
AcDbLine
 10
0.0
 20
0.0
 30
0.0
 11
0.0
 21
-2.5
 31
0.0
  0
LINE
  5
2C0
330
2BA
100
AcDbEntity
  8
DESSIN
 62
     0
100
AcDbLine
 10
0.0
 20
0.0
 30
0.0
 11
2.5
 21
0.0
 31
0.0
  0
LINE
  5
2C1
330
2BA
100
AcDbEntity
  8
DESSIN
 62
     0
100
AcDbLine
 10
0.0
 20
2.5
 30
0.0
 11
0.0
 21
4.75
 31
0.0
  0
LINE
  5
2C2
330
2BA
100
AcDbEntity
  8
DESSIN
 62
     0
100
AcDbLine
 10
-2.5
 20
0.0
 30
0.0
 11
-4.75
 21
0.0
 31
0.0
  0
LINE
  5
2C3
330
2BA
100
AcDbEntity
  8
DESSIN
 62
     0
100
AcDbLine
 10
0.0
 20
-2.5
 30
0.0
 11
0.0
 21
-4.75
 31
0.0
  0
LINE
  5
2C4
330
2BA
100
AcDbEntity
  8
DESSIN
 62
     0
100
AcDbLine
 10
2.5
 20
0.0
 30
0.0
 11
4.75
 21
0.0
 31
0.0
  0
ENDBLK
  5
2BC
330
2BA
100
AcDbEntity
  8
0
100
AcDbBlockEnd
  0
BLOCK
  5
2C7
330
2C6
100
AcDbEntity
  8
0
100
AcDbBlockBegin
  2
SW_CENTERMARKSYMBOL_2
 70
     0
 10
0.0
 20
0.0
 30
0.0
  3
SW_CENTERMARKSYMBOL_2
  1
SW_CENTERMARKSYMBOL_2
  0
LINE
  5
2C9
330
2C6
100
AcDbEntity
  8
DESSIN
 62
     0
100
AcDbLine
 10
0.0
 20
0.0
 30
0.0
 11
0.0
 21
2.5
 31
0.0
  0
LINE
  5
2CA
330
2C6
100
AcDbEntity
  8
DESSIN
 62
     0
100
AcDbLine
 10
0.0
 20
0.0
 30
0.0
 11
-2.5
 21
0.0
 31
0.0
  0
LINE
  5
2CB
330
2C6
100
AcDbEntity
  8
DESSIN
 62
     0
100
AcDbLine
 10
0.0
 20
0.0
 30
0.0
 11
0.0
 21
-2.5
 31
0.0
  0
LINE
  5
2CC
330
2C6
100
AcDbEntity
  8
DESSIN
 62
     0
100
AcDbLine
 10
0.0
 20
0.0
 30
0.0
 11
2.5
 21
0.0
 31
0.0
  0
LINE
  5
2CD
330
2C6
100
AcDbEntity
  8
DESSIN
 62
     0
100
AcDbLine
 10
0.0
 20
2.5
 30
0.0
 11
0.0
 21
5.0
 31
0.0
  0
LINE
  5
2CE
330
2C6
100
AcDbEntity
  8
DESSIN
 62
     0
100
AcDbLine
 10
-2.5
 20
0.0
 30
0.0
 11
-5.0
 21
0.0
 31
0.0
  0
LINE
  5
2CF
330
2C6
100
AcDbEntity
  8
DESSIN
 62
     0
100
AcDbLine
 10
0.0
 20
-2.5
 30
0.0
 11
0.0
 21
-149.3006715191
 31
0.0
  0
LINE
  5
2D0
330
2C6
100
AcDbEntity
  8
DESSIN
 62
     0
100
AcDbLine
 10
2.5
 20
0.0
 30
0.0
 11
79.4875909187
 21
0.0
 31
0.0
  0
ENDBLK
  5
2C8
330
2C6
100
AcDbEntity
  8
0
100
AcDbBlockEnd
  0
BLOCK
  5
2D3
330
2D2
100
AcDbEntity
  8
0
100
AcDbBlockBegin
  2
SW_CENTERMARKSYMBOL_3
 70
     0
 10
0.0
 20
0.0
 30
0.0
  3
SW_CENTERMARKSYMBOL_3
  1
SW_CENTERMARKSYMBOL_3
  0
LINE
  5
2D5
330
2D2
100
AcDbEntity
  8
DESSIN
 62
     0
100
AcDbLine
 10
0.0
 20
0.0
 30
0.0
 11
0.0
 21
2.5
 31
0.0
  0
LINE
  5
2D6
330
2D2
100
AcDbEntity
  8
DESSIN
 62
     0
100
AcDbLine
 10
0.0
 20
0.0
 30
0.0
 11
-2.5
 21
0.0
 31
0.0
  0
LINE
  5
2D7
330
2D2
100
AcDbEntity
  8
DESSIN
 62
     0
100
AcDbLine
 10
0.0
 20
0.0
 30
0.0
 11
0.0
 21
-2.5
 31
0.0
  0
LINE
  5
2D8
330
2D2
100
AcDbEntity
  8
DESSIN
 62
     0
100
AcDbLine
 10
0.0
 20
0.0
 30
0.0
 11
2.5
 21
0.0
 31
0.0
  0
LINE
  5
2D9
330
2D2
100
AcDbEntity
  8
DESSIN
 62
     0
100
AcDbLine
 10
0.0
 20
2.5
 30
0.0
 11
0.0
 21
5.0
 31
0.0
  0
LINE
  5
2DA
330
2D2
100
AcDbEntity
  8
DESSIN
 62
     0
100
AcDbLine
 10
-2.5
 20
0.0
 30
0.0
 11
-5.0
 21
0.0
 31
0.0
  0
LINE
  5
2DB
330
2D2
100
AcDbEntity
  8
DESSIN
 62
     0
100
AcDbLine
 10
0.0
 20
-2.5
 30
0.0
 11
0.0
 21
-5.0
 31
0.0
  0
LINE
  5
2DC
330
2D2
100
AcDbEntity
  8
DESSIN
 62
     0
100
AcDbLine
 10
2.5
 20
0.0
 30
0.0
 11
5.0
 21
0.0
 31
0.0
  0
ENDBLK
  5
2D4
330
2D2
100
AcDbEntity
  8
0
100
AcDbBlockEnd
  0
BLOCK
  5
2DF
330
2DE
100
AcDbEntity
  8
0
100
AcDbBlockBegin
  2
SW_CENTERMARKSYMBOL_4
 70
     0
 10
0.0
 20
0.0
 30
0.0
  3
SW_CENTERMARKSYMBOL_4
  1
SW_CENTERMARKSYMBOL_4
  0
LINE
  5
2E1
330
2DE
100
AcDbEntity
  8
DESSIN
 62
     0
100
AcDbLine
 10
0.0
 20
0.0
 30
0.0
 11
0.0
 21
2.5
 31
0.0
  0
LINE
  5
2E2
330
2DE
100
AcDbEntity
  8
DESSIN
 62
     0
100
AcDbLine
 10
0.0
 20
0.0
 30
0.0
 11
-2.5
 21
0.0
 31
0.0
  0
LINE
  5
2E3
330
2DE
100
AcDbEntity
  8
DESSIN
 62
     0
100
AcDbLine
 10
0.0
 20
0.0
 30
0.0
 11
0.0
 21
-2.5
 31
0.0
  0
LINE
  5
2E4
330
2DE
100
AcDbEntity
  8
DESSIN
 62
     0
100
AcDbLine
 10
0.0
 20
0.0
 30
0.0
 11
2.5
 21
0.0
 31
0.0
  0
LINE
  5
2E5
330
2DE
100
AcDbEntity
  8
DESSIN
 62
     0
100
AcDbLine
 10
0.0
 20
2.5
 30
0.0
 11
0.0
 21
5.0
 31
0.0
  0
LINE
  5
2E6
330
2DE
100
AcDbEntity
  8
DESSIN
 62
     0
100
AcDbLine
 10
-2.5
 20
0.0
 30
0.0
 11
-5.0
 21
0.0
 31
0.0
  0
LINE
  5
2E7
330
2DE
100
AcDbEntity
  8
DESSIN
 62
     0
100
AcDbLine
 10
0.0
 20
-2.5
 30
0.0
 11
0.0
 21
-130.2384561113
 31
0.0
  0
LINE
  5
2E8
330
2DE
100
AcDbEntity
  8
DESSIN
 62
     0
100
AcDbLine
 10
2.5
 20
0.0
 30
0.0
 11
76.9151417763
 21
0.0
 31
0.0
  0
ENDBLK
  5
2E0
330
2DE
100
AcDbEntity
  8
0
100
AcDbBlockEnd
  0
BLOCK
  5
2EB
330
2EA
100
AcDbEntity
  8
0
100
AcDbBlockBegin
  2
SW_CENTERMARKSYMBOL_5
 70
     0
 10
0.0
 20
0.0
 30
0.0
  3
SW_CENTERMARKSYMBOL_5
  1
SW_CENTERMARKSYMBOL_5
  0
LINE
  5
2ED
330
2EA
100
AcDbEntity
  8
DESSIN
 62
     0
100
AcDbLine
 10
0.0
 20
0.0
 30
0.0
 11
0.0
 21
2.5
 31
0.0
  0
LINE
  5
2EE
330
2EA
100
AcDbEntity
  8
DESSIN
 62
     0
100
AcDbLine
 10
0.0
 20
0.0
 30
0.0
 11
-2.5
 21
0.0
 31
0.0
  0
LINE
  5
2EF
330
2EA
100
AcDbEntity
  8
DESSIN
 62
     0
100
AcDbLine
 10
0.0
 20
0.0
 30
0.0
 11
0.0
 21
-2.5
 31
0.0
  0
LINE
  5
2F0
330
2EA
100
AcDbEntity
  8
DESSIN
 62
     0
100
AcDbLine
 10
0.0
 20
0.0
 30
0.0
 11
2.5
 21
0.0
 31
0.0
  0
LINE
  5
2F1
330
2EA
100
AcDbEntity
  8
DESSIN
 62
     0
100
AcDbLine
 10
0.0
 20
2.5
 30
0.0
 11
0.0
 21
5.0
 31
0.0
  0
LINE
  5
2F2
330
2EA
100
AcDbEntity
  8
DESSIN
 62
     0
100
AcDbLine
 10
-2.5
 20
0.0
 30
0.0
 11
-5.0
 21
0.0
 31
0.0
  0
LINE
  5
2F3
330
2EA
100
AcDbEntity
  8
DESSIN
 62
     0
100
AcDbLine
 10
0.0
 20
-2.5
 30
0.0
 11
0.0
 21
-5.0
 31
0.0
  0
LINE
  5
2F4
330
2EA
100
AcDbEntity
  8
DESSIN
 62
     0
100
AcDbLine
 10
2.5
 20
0.0
 30
0.0
 11
73.1973098141
 21
0.0
 31
0.0
  0
ENDBLK
  5
2EC
330
2EA
100
AcDbEntity
  8
0
100
AcDbBlockEnd
  0
BLOCK
  5
2F7
330
2F6
100
AcDbEntity
  8
0
100
AcDbBlockBegin
  2
SW_CENTERMARKSYMBOL_6
 70
     0
 10
0.0
 20
0.0
 30
0.0
  3
SW_CENTERMARKSYMBOL_6
  1
SW_CENTERMARKSYMBOL_6
  0
LINE
  5
2F9
330
2F6
100
AcDbEntity
  8
DESSIN
 62
     0
100
AcDbLine
 10
0.0
 20
0.0
 30
0.0
 11
0.0
 21
2.5
 31
0.0
  0
LINE
  5
2FA
330
2F6
100
AcDbEntity
  8
DESSIN
 62
     0
100
AcDbLine
 10
0.0
 20
0.0
 30
0.0
 11
-2.5
 21
0.0
 31
0.0
  0
LINE
  5
2FB
330
2F6
100
AcDbEntity
  8
DESSIN
 62
     0
100
AcDbLine
 10
0.0
 20
0.0
 30
0.0
 11
0.0
 21
-2.5
 31
0.0
  0
LINE
  5
2FC
330
2F6
100
AcDbEntity
  8
DESSIN
 62
     0
100
AcDbLine
 10
0.0
 20
0.0
 30
0.0
 11
2.5
 21
0.0
 31
0.0
  0
LINE
  5
2FD
330
2F6
100
AcDbEntity
  8
DESSIN
 62
     0
100
AcDbLine
 10
0.0
 20
5.0
 30
0.0
 11
0.0
 21
265.2800969819
 31
0.0
  0
LINE
  5
2FE
330
2F6
100
AcDbEntity
  8
DESSIN
 62
     0
100
AcDbLine
 10
-5.0
 20
0.0
 30
0.0
 11
-7.5
 21
0.0
 31
0.0
  0
LINE
  5
2FF
330
2F6
100
AcDbEntity
  8
DESSIN
 62
     0
100
AcDbLine
 10
0.0
 20
-5.0
 30
0.0
 11
0.0
 21
-18.6224732864
 31
0.0
  0
LINE
  5
300
330
2F6
100
AcDbEntity
  8
DESSIN
 62
     0
100
AcDbLine
 10
5.0
 20
0.0
 30
0.0
 11
7.5
 21
0.0
 31
0.0
  0
ENDBLK
  5
2F8
330
2F6
100
AcDbEntity
  8
0
100
AcDbBlockEnd
  0
BLOCK
  5
303
330
302
100
AcDbEntity
  8
0
100
AcDbBlockBegin
  2
SW_CENTERMARKSYMBOL_7
 70
     0
 10
0.0
 20
0.0
 30
0.0
  3
SW_CENTERMARKSYMBOL_7
  1
SW_CENTERMARKSYMBOL_7
  0
LINE
  5
305
330
302
100
AcDbEntity
  8
DESSIN
 62
     0
100
AcDbLine
 10
0.0
 20
0.0
 30
0.0
 11
0.0
 21
2.5
 31
0.0
  0
LINE
  5
306
330
302
100
AcDbEntity
  8
DESSIN
 62
     0
100
AcDbLine
 10
0.0
 20
0.0
 30
0.0
 11
-2.5
 21
0.0
 31
0.0
  0
LINE
  5
307
330
302
100
AcDbEntity
  8
DESSIN
 62
     0
100
AcDbLine
 10
0.0
 20
0.0
 30
0.0
 11
0.0
 21
-2.5
 31
0.0
  0
LINE
  5
308
330
302
100
AcDbEntity
  8
DESSIN
 62
     0
100
AcDbLine
 10
0.0
 20
0.0
 30
0.0
 11
2.5
 21
0.0
 31
0.0
  0
LINE
  5
309
330
302
100
AcDbEntity
  8
DESSIN
 62
     0
100
AcDbLine
 10
0.0
 20
2.5
 30
0.0
 11
0.0
 21
5.0
 31
0.0
  0
LINE
  5
30A
330
302
100
AcDbEntity
  8
DESSIN
 62
     0
100
AcDbLine
 10
-2.5
 20
0.0
 30
0.0
 11
-5.0
 21
0.0
 31
0.0
  0
LINE
  5
30B
330
302
100
AcDbEntity
  8
DESSIN
 62
     0
100
AcDbLine
 10
0.0
 20
-2.5
 30
0.0
 11
0.0
 21
-5.0
 31
0.0
  0
LINE
  5
30C
330
302
100
AcDbEntity
  8
DESSIN
 62
     0
100
AcDbLine
 10
2.5
 20
0.0
 30
0.0
 11
5.0
 21
0.0
 31
0.0
  0
ENDBLK
  5
304
330
302
100
AcDbEntity
  8
0
100
AcDbBlockEnd
  0
BLOCK
  5
30F
330
30E
100
AcDbEntity
  8
0
100
AcDbBlockBegin
  2
SW_CENTERMARKSYMBOL_8
 70
     0
 10
0.0
 20
0.0
 30
0.0
  3
SW_CENTERMARKSYMBOL_8
  1
SW_CENTERMARKSYMBOL_8
  0
LINE
  5
311
330
30E
100
AcDbEntity
  8
DESSIN
 62
     0
100
AcDbLine
 10
0.0
 20
0.0
 30
0.0
 11
0.0
 21
2.5
 31
0.0
  0
LINE
  5
312
330
30E
100
AcDbEntity
  8
DESSIN
 62
     0
100
AcDbLine
 10
0.0
 20
0.0
 30
0.0
 11
-2.5
 21
0.0
 31
0.0
  0
LINE
  5
313
330
30E
100
AcDbEntity
  8
DESSIN
 62
     0
100
AcDbLine
 10
0.0
 20
0.0
 30
0.0
 11
0.0
 21
-2.5
 31
0.0
  0
LINE
  5
314
330
30E
100
AcDbEntity
  8
DESSIN
 62
     0
100
AcDbLine
 10
0.0
 20
0.0
 30
0.0
 11
2.5
 21
0.0
 31
0.0
  0
LINE
  5
315
330
30E
100
AcDbEntity
  8
DESSIN
 62
     0
100
AcDbLine
 10
0.0
 20
2.5
 30
0.0
 11
0.0
 21
141.3144136654
 31
0.0
  0
LINE
  5
316
330
30E
100
AcDbEntity
  8
DESSIN
 62
     0
100
AcDbLine
 10
-2.5
 20
0.0
 30
0.0
 11
-75.1091667867
 21
0.0
 31
0.0
  0
LINE
  5
317
330
30E
100
AcDbEntity
  8
DESSIN
 62
     0
100
AcDbLine
 10
0.0
 20
-2.5
 30
0.0
 11
0.0
 21
-5.0
 31
0.0
  0
LINE
  5
318
330
30E
100
AcDbEntity
  8
DESSIN
 62
     0
100
AcDbLine
 10
2.5
 20
0.0
 30
0.0
 11
5.0
 21
0.0
 31
0.0
  0
ENDBLK
  5
310
330
30E
100
AcDbEntity
  8
0
100
AcDbBlockEnd
  0
BLOCK
  5
327
330
326
100
AcDbEntity
  8
0
100
AcDbBlockBegin
  2
_D_2
 70
     0
 10
0.0
 20
0.0
 30
0.0
  3
_D_2
  1
_D_2
  0
SOLID
  5
329
330
326
100
AcDbEntity
  8
DESSIN
 62
     7
100
AcDbTrace
 10
201.1315754918
 20
130.4531855653
 30
0.0
 11
202.0315754918
 21
136.4531855653
 31
0.0
 12
200.2315754918
 22
136.4531855653
 32
0.0
 13
200.2315754918
 23
136.4531855653
 33
0.0
  0
SOLID
  5
32A
330
326
100
AcDbEntity
  8
DESSIN
 62
     7
100
AcDbTrace
 10
201.1315754918
 20
128.4531855653
 30
0.0
 11
200.2315754918
 21
122.4531855653
 31
0.0
 12
202.0315754918
 22
122.4531855653
 32
0.0
 13
202.0315754918
 23
122.4531855653
 33
0.0
  0
LINE
  5
32B
330
326
100
AcDbEntity
  8
DESSIN
 62
     7
100
AcDbLine
 10
222.1315754918
 20
130.4531855653
 30
0.0
 11
200.1315754918
 21
130.4531855653
 31
0.0
  0
LINE
  5
32C
330
326
100
AcDbEntity
  8
DESSIN
 62
     7
100
AcDbLine
 10
222.1315754918
 20
128.4531855653
 30
0.0
 11
200.1315754918
 21
128.4531855653
 31
0.0
  0
LINE
  5
32D
330
326
100
AcDbEntity
  8
DESSIN
 62
     7
100
AcDbLine
 10
201.1315754918
 20
130.4531855653
 30
0.0
 11
201.1315754918
 21
171.39744664
 31
0.0
  0
LINE
  5
32E
330
326
100
AcDbEntity
  8
DESSIN
 62
     7
100
AcDbLine
 10
201.1315754918
 20
130.4531855653
 30
0.0
 11
201.1315754918
 21
128.4531855653
 31
0.0
  0
LINE
  5
32F
330
326
100
AcDbEntity
  8
DESSIN
 62
     7
100
AcDbLine
 10
201.1315754918
 20
128.4531855653
 30
0.0
 11
201.1315754918
 21
116.4531855653
 31
0.0
  0
MTEXT
  5
330
330
326
100
AcDbEntity
  8
DESSIN
 62
     7
100
AcDbMText
 10
196.6198382862
 20
157.5189744906
 30
0.0
 40
3.5
 41
0.0
 71
     1
 72
     1
  1
Ep.
  7
SLDTEXTSTYLE0
 11
-7.044195017643634E-15
 21
1.0
 31
0.0
 73
     1
 44
1.0
  0
MTEXT
  5
331
330
326
100
AcDbEntity
  8
DESSIN
 62
     7
100
AcDbMText
 10
196.6198382862
 20
168.6217523963
 30
0.0
 40
3.5
 41
0.0
 71
     1
 72
     1
  1
2
  7
SLDTEXTSTYLE0
 11
-7.044195017643634E-15
 21
1.0
 31
0.0
 73
     1
 44
1.0
  0
ENDBLK
  5
328
330
326
100
AcDbEntity
  8
0
100
AcDbBlockEnd
  0
ENDSEC
  0
SECTION
  2
ENTITIES
  0
HATCH
  5
7F
330
1F
100
AcDbEntity
  8
FORMAT
 62
     7
100
AcDbHatch
 10
0.0
 20
0.0
 30
0.0
210
0.0
220
0.0
230
1.0
  2
SOLID
 70
     1
 71
     0
 91
        1
 92
        0
 93
        3
 72
     1
 10
671.2927749232821
 20
47.21804393533383
 11
670.9574373024717
 21
47.53174687093068
 72
     1
 10
670.9574373024717
 20
47.53174687093068
 11
670.1372750506719
 21
46.23816082898496
 72
     1
 10
670.1372750506719
 20
46.23816082898496
 11
671.2927749232821
 21
47.21804393533383
 97
        0
 75
     0
 76
     1
 98
        1
 10
0.0
 20
0.0
  0
HATCH
  5
80
330
1F
100
AcDbEntity
  8
FORMAT
 62
     7
100
AcDbHatch
 10
0.0
 20
0.0
 30
0.0
210
0.0
220
0.0
230
1.0
  2
SOLID
 70
     1
 71
     0
 91
        1
 92
        0
 93
        3
 72
     1
 10
661.0982055246905
 20
43.81783095690525
 11
660.7628679038801
 21
44.13153389250208
 72
     1
 10
660.7628679038801
 20
44.13153389250208
 11
659.9427056520801
 21
42.83794785055637
 72
     1
 10
659.9427056520801
 20
42.83794785055637
 11
661.0982055246905
 21
43.81783095690525
 97
        0
 75
     0
 76
     1
 98
        1
 10
0.0
 20
0.0
  0
LINE
  5
81
330
1F
100
AcDbEntity
  8
FORMAT
 62
     7
370
     0
100
AcDbLine
 10
831.0
 20
584.0
 30
0.0
 11
10.0
 21
584.0
 31
0.0
  0
LINE
  5
82
330
1F
100
AcDbEntity
  8
FORMAT
 62
     7
370
     0
100
AcDbLine
 10
5.0
 20
5.0
 30
0.0
 11
836.0
 21
5.0
 31
0.0
  0
LINE
  5
83
330
1F
100
AcDbEntity
  8
FORMAT
 62
     7
370
     0
100
AcDbLine
 10
5.0
 20
589.0
 30
0.0
 11
836.0
 21
589.0
 31
0.0
  0
LINE
  5
84
330
1F
100
AcDbEntity
  8
FORMAT
 62
     7
370
     0
100
AcDbLine
 10
10.0
 20
10.0
 30
0.0
 11
831.0
 21
10.0
 31
0.0
  0
LINE
  5
85
330
1F
100
AcDbEntity
  8
FORMAT
 62
     7
370
     0
100
AcDbLine
 10
836.0
 20
5.0
 30
0.0
 11
836.0
 21
589.0
 31
0.0
  0
LINE
  5
86
330
1F
100
AcDbEntity
  8
FORMAT
 62
     7
370
     0
100
AcDbLine
 10
831.0
 20
584.0
 30
0.0
 11
831.0
 21
10.0
 31
0.0
  0
LINE
  5
87
330
1F
100
AcDbEntity
  8
FORMAT
 62
     7
370
     0
100
AcDbLine
 10
70.5
 20
584.0
 30
0.0
 11
70.5
 21
589.0
 31
0.0
  0
LINE
  5
88
330
1F
100
AcDbEntity
  8
FORMAT
 62
     7
370
     0
100
AcDbLine
 10
120.5
 20
584.0
 30
0.0
 11
120.5
 21
589.0
 31
0.0
  0
LINE
  5
89
330
1F
100
AcDbEntity
  8
FORMAT
 62
     7
370
     0
100
AcDbLine
 10
170.5
 20
584.0
 30
0.0
 11
170.5
 21
589.0
 31
0.0
  0
LINE
  5
8A
330
1F
100
AcDbEntity
  8
FORMAT
 62
     7
370
     0
100
AcDbLine
 10
220.5
 20
584.0
 30
0.0
 11
220.5
 21
589.0
 31
0.0
  0
LINE
  5
8B
330
1F
100
AcDbEntity
  8
FORMAT
 62
     7
370
     0
100
AcDbLine
 10
270.5
 20
584.0
 30
0.0
 11
270.5
 21
589.0
 31
0.0
  0
LINE
  5
8C
330
1F
100
AcDbEntity
  8
FORMAT
 62
     7
370
     0
100
AcDbLine
 10
320.5
 20
584.0
 30
0.0
 11
320.5
 21
589.0
 31
0.0
  0
LINE
  5
8D
330
1F
100
AcDbEntity
  8
FORMAT
 62
     7
370
     0
100
AcDbLine
 10
420.5
 20
579.0
 30
0.0
 11
420.5
 21
589.0
 31
0.0
  0
LINE
  5
8E
330
1F
100
AcDbEntity
  8
FORMAT
 62
     7
370
     0
100
AcDbLine
 10
10.0
 20
584.0
 30
0.0
 11
10.0
 21
10.0
 31
0.0
  0
LINE
  5
8F
330
1F
100
AcDbEntity
  8
FORMAT
 62
     7
370
     0
100
AcDbLine
 10
5.0
 20
5.0
 30
0.0
 11
5.0
 21
589.0
 31
0.0
  0
LINE
  5
90
330
1F
100
AcDbEntity
  8
FORMAT
 62
     7
370
     0
100
AcDbLine
 10
10.0
 20
47.0
 30
0.0
 11
5.0
 21
47.0
 31
0.0
  0
LINE
  5
91
330
1F
100
AcDbEntity
  8
FORMAT
 62
     7
370
     0
100
AcDbLine
 10
10.0
 20
97.0
 30
0.0
 11
5.0
 21
97.0
 31
0.0
  0
LINE
  5
92
330
1F
100
AcDbEntity
  8
FORMAT
 62
     7
370
     0
100
AcDbLine
 10
10.0
 20
147.0
 30
0.0
 11
5.0
 21
147.0
 31
0.0
  0
LINE
  5
93
330
1F
100
AcDbEntity
  8
FORMAT
 62
     7
370
     0
100
AcDbLine
 10
10.0
 20
197.0
 30
0.0
 11
5.0
 21
197.0
 31
0.0
  0
LINE
  5
94
330
1F
100
AcDbEntity
  8
FORMAT
 62
     7
370
     0
100
AcDbLine
 10
10.0
 20
247.0
 30
0.0
 11
5.0
 21
247.0
 31
0.0
  0
LINE
  5
95
330
1F
100
AcDbEntity
  8
FORMAT
 62
     7
370
     0
100
AcDbLine
 10
15.0
 20
297.0
 30
0.0
 11
5.0
 21
297.0
 31
0.0
  0
LINE
  5
96
330
1F
100
AcDbEntity
  8
FORMAT
 62
     7
370
     0
100
AcDbLine
 10
10.0
 20
347.0
 30
0.0
 11
5.0
 21
347.0
 31
0.0
  0
LINE
  5
97
330
1F
100
AcDbEntity
  8
FORMAT
 62
     7
370
     0
100
AcDbLine
 10
10.0
 20
397.0
 30
0.0
 11
5.0
 21
397.0
 31
0.0
  0
LINE
  5
98
330
1F
100
AcDbEntity
  8
FORMAT
 62
     7
370
     0
100
AcDbLine
 10
10.0
 20
447.0
 30
0.0
 11
5.0
 21
447.0
 31
0.0
  0
LINE
  5
99
330
1F
100
AcDbEntity
  8
FORMAT
 62
     7
370
     0
100
AcDbLine
 10
10.0
 20
497.0
 30
0.0
 11
5.0
 21
497.0
 31
0.0
  0
LINE
  5
9A
330
1F
100
AcDbEntity
  8
FORMAT
 62
     7
370
     0
100
AcDbLine
 10
370.5
 20
584.0
 30
0.0
 11
370.5
 21
589.0
 31
0.0
  0
LINE
  5
9B
330
1F
100
AcDbEntity
  8
FORMAT
 62
     7
370
     0
100
AcDbLine
 10
470.5
 20
584.0
 30
0.0
 11
470.5
 21
589.0
 31
0.0
  0
LINE
  5
9C
330
1F
100
AcDbEntity
  8
FORMAT
 62
     7
370
     0
100
AcDbLine
 10
520.5
 20
584.0
 30
0.0
 11
520.5
 21
589.0
 31
0.0
  0
LINE
  5
9D
330
1F
100
AcDbEntity
  8
FORMAT
 62
     7
370
     0
100
AcDbLine
 10
570.5
 20
584.0
 30
0.0
 11
570.5
 21
589.0
 31
0.0
  0
LINE
  5
9E
330
1F
100
AcDbEntity
  8
FORMAT
 62
     7
370
     0
100
AcDbLine
 10
620.5
 20
584.0
 30
0.0
 11
620.5
 21
589.0
 31
0.0
  0
LINE
  5
9F
330
1F
100
AcDbEntity
  8
FORMAT
 62
     7
370
     0
100
AcDbLine
 10
670.5
 20
584.0
 30
0.0
 11
670.5
 21
589.0
 31
0.0
  0
LINE
  5
A0
330
1F
100
AcDbEntity
  8
FORMAT
 62
     7
370
     0
100
AcDbLine
 10
720.5
 20
584.0
 30
0.0
 11
720.5
 21
589.0
 31
0.0
  0
LINE
  5
A1
330
1F
100
AcDbEntity
  8
FORMAT
 62
     7
370
     0
100
AcDbLine
 10
770.5
 20
584.0
 30
0.0
 11
770.5
 21
589.0
 31
0.0
  0
LINE
  5
A2
330
1F
100
AcDbEntity
  8
FORMAT
 62
     7
370
     0
100
AcDbLine
 10
10.0
 20
547.0
 30
0.0
 11
5.0
 21
547.0
 31
0.0
  0
LINE
  5
A3
330
1F
100
AcDbEntity
  8
FORMAT
 62
     7
370
     0
100
AcDbLine
 10
620.5
 20
10.0
 30
0.0
 11
620.5
 21
5.0
 31
0.0
  0
LINE
  5
A4
330
1F
100
AcDbEntity
  8
FORMAT
 62
     7
370
     0
100
AcDbLine
 10
831.0
 20
97.0
 30
0.0
 11
836.0
 21
97.0
 31
0.0
  0
LINE
  5
A5
330
1F
100
AcDbEntity
  8
FORMAT
 62
     7
370
     0
100
AcDbLine
 10
570.5
 20
10.0
 30
0.0
 11
570.5
 21
5.0
 31
0.0
  0
LINE
  5
A6
330
1F
100
AcDbEntity
  8
FORMAT
 62
     7
370
     0
100
AcDbLine
 10
520.5
 20
10.0
 30
0.0
 11
520.5
 21
5.0
 31
0.0
  0
LINE
  5
A7
330
1F
100
AcDbEntity
  8
FORMAT
 62
     7
370
     0
100
AcDbLine
 10
470.5
 20
10.0
 30
0.0
 11
470.5
 21
5.0
 31
0.0
  0
LINE
  5
A8
330
1F
100
AcDbEntity
  8
FORMAT
 62
     7
370
     0
100
AcDbLine
 10
420.5
 20
15.0
 30
0.0
 11
420.5
 21
5.0
 31
0.0
  0
LINE
  5
A9
330
1F
100
AcDbEntity
  8
FORMAT
 62
     7
370
     0
100
AcDbLine
 10
370.5
 20
10.0
 30
0.0
 11
370.5
 21
5.0
 31
0.0
  0
LINE
  5
AA
330
1F
100
AcDbEntity
  8
FORMAT
 62
     7
370
     0
100
AcDbLine
 10
320.5
 20
10.0
 30
0.0
 11
320.5
 21
5.0
 31
0.0
  0
LINE
  5
AB
330
1F
100
AcDbEntity
  8
FORMAT
 62
     7
370
     0
100
AcDbLine
 10
270.5
 20
10.0
 30
0.0
 11
270.5
 21
5.0
 31
0.0
  0
LINE
  5
AC
330
1F
100
AcDbEntity
  8
FORMAT
 62
     7
370
     0
100
AcDbLine
 10
70.5
 20
10.0
 30
0.0
 11
70.5
 21
5.0
 31
0.0
  0
LINE
  5
AD
330
1F
100
AcDbEntity
  8
FORMAT
 62
     7
370
     0
100
AcDbLine
 10
120.5
 20
10.0
 30
0.0
 11
120.5
 21
5.0
 31
0.0
  0
LINE
  5
AE
330
1F
100
AcDbEntity
  8
FORMAT
 62
     7
370
     0
100
AcDbLine
 10
170.5
 20
10.0
 30
0.0
 11
170.5
 21
5.0
 31
0.0
  0
LINE
  5
AF
330
1F
100
AcDbEntity
  8
FORMAT
 62
     7
370
     0
100
AcDbLine
 10
220.5
 20
10.0
 30
0.0
 11
220.5
 21
5.0
 31
0.0
  0
LINE
  5
B0
330
1F
100
AcDbEntity
  8
FORMAT
 62
     7
370
     0
100
AcDbLine
 10
831.0
 20
147.0
 30
0.0
 11
836.0
 21
147.0
 31
0.0
  0
LINE
  5
B1
330
1F
100
AcDbEntity
  8
FORMAT
 62
     7
370
     0
100
AcDbLine
 10
831.0
 20
197.0
 30
0.0
 11
836.0
 21
197.0
 31
0.0
  0
LINE
  5
B2
330
1F
100
AcDbEntity
  8
FORMAT
 62
     7
370
     0
100
AcDbLine
 10
831.0
 20
247.0
 30
0.0
 11
836.0
 21
247.0
 31
0.0
  0
LINE
  5
B3
330
1F
100
AcDbEntity
  8
FORMAT
 62
     7
370
     0
100
AcDbLine
 10
826.0
 20
297.0
 30
0.0
 11
836.0
 21
297.0
 31
0.0
  0
LINE
  5
B4
330
1F
100
AcDbEntity
  8
FORMAT
 62
     7
370
     0
100
AcDbLine
 10
831.0
 20
347.0
 30
0.0
 11
836.0
 21
347.0
 31
0.0
  0
LINE
  5
B5
330
1F
100
AcDbEntity
  8
FORMAT
 62
     7
370
     0
100
AcDbLine
 10
831.0
 20
397.0
 30
0.0
 11
836.0
 21
397.0
 31
0.0
  0
LINE
  5
B6
330
1F
100
AcDbEntity
  8
FORMAT
 62
     7
370
     0
100
AcDbLine
 10
831.0
 20
447.0
 30
0.0
 11
836.0
 21
447.0
 31
0.0
  0
LINE
  5
B7
330
1F
100
AcDbEntity
  8
FORMAT
 62
     7
370
     0
100
AcDbLine
 10
831.0
 20
497.0
 30
0.0
 11
836.0
 21
497.0
 31
0.0
  0
LINE
  5
B8
330
1F
100
AcDbEntity
  8
FORMAT
 62
     7
370
     0
100
AcDbLine
 10
831.0
 20
547.0
 30
0.0
 11
836.0
 21
547.0
 31
0.0
  0
LINE
  5
B9
330
1F
100
AcDbEntity
  8
FORMAT
  6
Continuous
370
     0
100
AcDbLine
 10
636.0
 20
10.0
 30
0.0
 11
831.0
 21
10.0
 31
0.0
  0
LINE
  5
BA
330
1F
100
AcDbEntity
  8
FORMAT
 62
     7
370
     0
100
AcDbLine
 10
770.5
 20
10.0
 30
0.0
 11
770.5
 21
5.0
 31
0.0
  0
LINE
  5
BB
330
1F
100
AcDbEntity
  8
FORMAT
 62
     7
370
     0
100
AcDbLine
 10
831.0
 20
47.0
 30
0.0
 11
836.0
 21
47.0
 31
0.0
  0
LINE
  5
BC
330
1F
100
AcDbEntity
  8
FORMAT
 62
     7
100
AcDbLine
 10
636.0
 20
51.8687928505
 30
0.0
 11
771.9723965587
 21
51.8687928505
 31
0.0
  0
LINE
  5
BD
330
1F
100
AcDbEntity
  8
FORMAT
 62
     7
370
     0
100
AcDbLine
 10
704.2080959976
 20
21.3099567735
 30
0.0
 11
704.2080959976
 21
14.25
 31
0.0
  0
LINE
  5
BE
330
1F
100
AcDbEntity
  8
FORMAT
100
AcDbLine
 10
826.7500288418
 20
14.25
 30
0.0
 11
826.7500288418
 21
65.0
 31
0.0
  0
LINE
  5
BF
330
1F
100
AcDbEntity
  8
FORMAT
100
AcDbLine
 10
636.0
 20
65.0
 30
0.0
 11
831.0
 21
65.0
 31
0.0
  0
LINE
  5
C0
330
1F
100
AcDbEntity
  8
FORMAT
100
AcDbLine
 10
778.7736976478
 20
27.9980860131
 30
0.0
 11
826.7500288418
 21
27.9980860131
 31
0.0
  0
LINE
  5
C1
330
1F
100
AcDbEntity
  8
FORMAT
100
AcDbLine
 10
826.7500288418
 20
21.3099567735
 30
0.0
 11
636.0
 21
21.3099567735
 31
0.0
  0
LINE
  5
C2
330
1F
100
AcDbEntity
  8
FORMAT
100
AcDbLine
 10
749.9395412592
 20
35.0294727499
 30
0.0
 11
749.9395412592
 21
14.25
 31
0.0
  0
LINE
  5
C3
330
1F
100
AcDbEntity
  8
FORMAT
100
AcDbLine
 10
778.7736976478
 20
27.9980860131
 30
0.0
 11
749.939570101
 21
27.9980860131
 31
0.0
  0
LINE
  5
C4
330
1F
100
AcDbEntity
  8
FORMAT
100
AcDbLine
 10
789.4435396058
 20
21.3099567735
 30
0.0
 11
789.4435396058
 21
14.25
 31
0.0
  0
LINE
  5
C5
330
1F
100
AcDbEntity
  8
FORMAT
100
AcDbLine
 10
771.9723965587
 20
14.25
 30
0.0
 11
826.7500288418
 21
14.25
 31
0.0
  0
LINE
  5
C6
330
1F
100
AcDbEntity
  8
FORMAT
100
AcDbLine
 10
636.0
 20
65.0
 30
0.0
 11
636.0
 21
10.0
 31
0.0
  0
LINE
  5
C7
330
1F
100
AcDbEntity
  8
FORMAT
100
AcDbLine
 10
771.9723965587
 20
14.25
 30
0.0
 11
636.0
 21
14.25
 31
0.0
  0
LINE
  5
C8
330
1F
100
AcDbEntity
  8
FORMAT
100
AcDbLine
 10
807.3172712828
 20
21.3099567735
 30
0.0
 11
807.3172712828
 21
14.25
 31
0.0
  0
LINE
  5
C9
330
1F
100
AcDbEntity
  8
FORMAT
100
AcDbLine
 10
636.0
 20
41.9559636665
 30
0.0
 11
826.7500288418
 21
41.9559636665
 31
0.0
  0
LINE
  5
CA
330
1F
100
AcDbEntity
  8
FORMAT
100
AcDbLine
 10
778.7736688061
 20
35.0294727499
 30
0.0
 11
636.0
 21
35.0294727499
 31
0.0
  0
LINE
  5
CB
330
1F
100
AcDbEntity
  8
FORMAT
100
AcDbLine
 10
771.9723965587
 20
65.0
 30
0.0
 11
771.9723965587
 21
14.25
 31
0.0
  0
LINE
  5
CC
330
1F
100
AcDbEntity
  8
FORMAT
100
AcDbLine
 10
778.7736688061
 20
35.0294727499
 30
0.0
 11
826.7500288418
 21
35.0294727499
 31
0.0
  0
LINE
  5
CD
330
1F
100
AcDbEntity
  8
FORMAT
 62
     7
370
     0
100
AcDbLine
 10
671.2927749233
 20
47.2180439353
 30
0.0
 11
670.1372750507
 21
46.238160829
 31
0.0
  0
LINE
  5
CE
330
1F
100
AcDbEntity
  8
FORMAT
 62
     7
370
    15
100
AcDbLine
 10
670.1372750507
 20
46.238160829
 30
0.0
 11
666.7309411366
 21
46.238160829
 31
0.0
  0
LINE
  5
CF
330
1F
100
AcDbEntity
  8
FORMAT
 62
     7
370
     0
100
AcDbLine
 10
826.7500288418
 20
14.25
 30
0.0
 11
826.7500288418
 21
21.0715950965
 31
0.0
  0
LINE
  5
D0
330
1F
100
AcDbEntity
  8
FORMAT
 62
     7
370
     0
100
AcDbLine
 10
676.6256505
 20
41.9559636665
 30
0.0
 11
676.6256505
 21
14.25
 31
0.0
  0
LINE
  5
D1
330
1F
100
AcDbEntity
  8
FORMAT
 62
     7
370
     0
100
AcDbLine
 10
656.9673926188
 20
51.8687928505
 30
0.0
 11
656.9673926188
 21
41.9559636665
 31
0.0
  0
LINE
  5
D2
330
1F
100
AcDbEntity
  8
FORMAT
 62
     7
370
     0
100
AcDbLine
 10
670.5
 20
5.0
 30
0.0
 11
670.5
 21
10.0
 31
0.0
  0
LINE
  5
D3
330
1F
100
AcDbEntity
  8
FORMAT
 62
     7
370
     0
100
AcDbLine
 10
720.5
 20
10.0
 30
0.0
 11
720.5
 21
5.0
 31
0.0
  0
LINE
  5
D4
330
1F
100
AcDbEntity
  8
FORMAT
 62
     7
370
     0
100
AcDbLine
 10
676.6256505
 20
41.9559636665
 30
0.0
 11
676.6256505
 21
51.8687928505
 31
0.0
  0
LINE
  5
D5
330
1F
100
AcDbEntity
  8
FORMAT
 62
     7
370
    15
100
AcDbLine
 10
670.1372750507
 20
42.8318269149
 30
0.0
 11
670.1372750507
 21
46.238160829
 31
0.0
  0
LINE
  5
D6
330
1F
100
AcDbEntity
  8
FORMAT
 62
     7
370
     0
100
AcDbLine
 10
670.9574373025
 20
47.5317468709
 30
0.0
 11
670.1372750507
 21
46.238160829
 31
0.0
  0
LINE
  5
D7
330
1F
100
AcDbEntity
  8
FORMAT
 62
     7
370
    15
100
AcDbLine
 10
659.9427056521
 20
42.8379478506
 30
0.0
 11
663.3429186305
 21
42.8379478506
 31
0.0
  0
LINE
  5
D8
330
1F
100
AcDbEntity
  8
FORMAT
 62
     7
370
    15
100
AcDbLine
 10
659.9427056521
 20
46.238160829
 30
0.0
 11
659.9427056521
 21
42.8379478506
 31
0.0
  0
LINE
  5
D9
330
1F
100
AcDbEntity
  8
FORMAT
 62
     7
370
     0
100
AcDbLine
 10
671.2927749233
 20
47.2180439353
 30
0.0
 11
670.9574373025
 21
47.5317468709
 31
0.0
  0
LINE
  5
DA
330
1F
100
AcDbEntity
  8
FORMAT
 62
     7
370
     0
100
AcDbLine
 10
671.1251061129
 20
47.3748954031
 30
0.0
 11
671.5346448289
 21
47.8126781685
 31
0.0
  0
LINE
  5
DB
330
1F
100
AcDbEntity
  8
FORMAT
 62
     7
370
     0
100
AcDbLine
 10
671.5346448289
 20
47.8126781685
 30
0.0
 11
674.9906110925
 21
47.8126781685
 31
0.0
  0
LINE
  5
DC
330
1F
100
AcDbEntity
  8
FORMAT
 62
     7
370
     0
100
AcDbLine
 10
671.5346448289
 20
47.8126781685
 30
0.0
 11
671.5346448289
 21
50.9280596831
 31
0.0
  0
LINE
  5
DD
330
1F
100
AcDbEntity
  8
FORMAT
 62
     7
370
     0
100
AcDbLine
 10
661.0982055247
 20
43.8178309569
 30
0.0
 11
659.9427056521
 21
42.8379478506
 31
0.0
  0
LINE
  5
DE
330
1F
100
AcDbEntity
  8
FORMAT
 62
     7
370
     0
100
AcDbLine
 10
660.7628679039
 20
44.1315338925
 30
0.0
 11
659.9427056521
 21
42.8379478506
 31
0.0
  0
LINE
  5
DF
330
1F
100
AcDbEntity
  8
FORMAT
 62
     7
370
     0
100
AcDbLine
 10
661.0982055247
 20
43.8178309569
 30
0.0
 11
660.7628679039
 21
44.1315338925
 31
0.0
  0
LINE
  5
E0
330
1F
100
AcDbEntity
  8
FORMAT
 62
     7
370
     0
100
AcDbLine
 10
660.9305367143
 20
43.9746824247
 30
0.0
 11
661.3400754303
 21
44.4124651901
 31
0.0
  0
LINE
  5
E1
330
1F
100
AcDbEntity
  8
FORMAT
 62
     7
370
     0
100
AcDbLine
 10
661.3400754303
 20
44.4124651901
 30
0.0
 11
664.7960416939
 21
44.4124651901
 31
0.0
  0
LINE
  5
E2
330
1F
100
AcDbEntity
  8
FORMAT
 62
     7
370
     0
100
AcDbLine
 10
661.3400754303
 20
44.4124651901
 30
0.0
 11
661.3400754303
 21
47.5278467047
 31
0.0
  0
LINE
  5
E3
330
1F
100
AcDbEntity
  8
FORMAT
 62
     7
370
     0
100
AcDbLine
 10
640.7422237857
 20
44.1340149253
 30
0.0
 11
640.7422237857
 21
46.8905014399
 31
0.0
  0
LINE
  5
E4
330
1F
100
AcDbEntity
  8
FORMAT
 62
     7
370
     0
100
AcDbLine
 10
640.7422237857
 20
46.8905014399
 30
0.0
 11
645.104918731
 21
47.5274071466
 31
0.0
  0
LINE
  5
E5
330
1F
100
AcDbEntity
  8
FORMAT
 62
     7
370
     0
100
AcDbLine
 10
650.3374716174
 20
48.1300968927
 30
0.0
 11
650.3374716174
 21
42.9089560083
 31
0.0
  0
LINE
  5
E6
330
1F
100
AcDbEntity
  8
FORMAT
 62
     7
370
     0
100
AcDbLine
 10
645.104918731
 20
47.5274071466
 30
0.0
 11
645.104918731
 21
43.4971092186
 31
0.0
  0
LINE
  5
E7
330
1F
100
AcDbEntity
  8
FORMAT
 62
     7
370
     0
100
AcDbLine
 10
639.4870295544
 20
45.5122581826
 30
0.0
 11
653.5233158363
 21
45.5122581826
 31
0.0
  0
LINE
  5
E8
330
1F
100
AcDbEntity
  8
FORMAT
 62
     7
370
     0
100
AcDbLine
 10
640.7422237857
 20
44.1340149253
 30
0.0
 11
645.104918731
 21
43.4971092186
 31
0.0
  0
LINE
  5
E9
330
1F
100
AcDbEntity
  8
ASSEMBLY
 62
     7
370
     0
100
AcDbLine
 10
651.9514756183
 20
26.8220767757
 30
0.0
 11
661.2442949897
 21
26.8220767757
 31
0.0
  0
LINE
  5
EA
330
1F
100
AcDbEntity
  8
ASSEMBLY
 62
     7
370
     0
100
AcDbLine
 10
651.9514756183
 20
28.9934142117
 30
0.0
 11
661.2442949897
 21
28.9934142117
 31
0.0
  0
LINE
  5
EB
330
1F
100
AcDbEntity
  8
ASSEMBLY
 62
     7
370
     0
100
AcDbLine
 10
651.9514756183
 20
28.9934142117
 30
0.0
 11
651.9514756183
 21
22.465062849
 31
0.0
  0
LINE
  5
EC
330
1F
100
AcDbEntity
  8
ASSEMBLY
 62
     7
370
     0
100
AcDbLine
 10
651.9514756183
 20
22.465062849
 30
0.0
 11
661.2442949897
 21
22.465062849
 31
0.0
  0
LINE
  5
ED
330
1F
100
AcDbEntity
  8
ASSEMBLY
 62
     7
370
     0
100
AcDbLine
 10
661.2442949897
 20
28.9934142117
 30
0.0
 11
661.2442949897
 21
22.465062849
 31
0.0
  0
LINE
  5
EE
330
1F
100
AcDbEntity
  8
ASSEMBLY
 62
     7
370
     0
100
AcDbLine
 10
651.9514756183
 20
24.5712208726
 30
0.0
 11
661.2442949897
 21
24.5712208726
 31
0.0
  0
LINE
  5
EF
330
1F
100
AcDbEntity
  8
ASSEMBLY
 62
     7
370
     0
100
AcDbLine
 10
659.5931969077
 20
28.9934142117
 30
0.0
 11
659.5931969077
 21
22.465062849
 31
0.0
  0
LINE
  5
F0
330
1F
100
AcDbEntity
  8
ASSEMBLY
 62
     7
370
     0
100
AcDbLine
 10
657.8179416878
 20
28.9934142117
 30
0.0
 11
657.8179416878
 21
22.465062849
 31
0.0
  0
LINE
  5
F1
330
1F
100
AcDbEntity
  8
ASSEMBLY
 62
     7
370
     0
100
AcDbLine
 10
656.0579903923
 20
28.9934142117
 30
0.0
 11
656.0579903923
 21
22.465062849
 31
0.0
  0
LINE
  5
F2
330
1F
100
AcDbEntity
  8
ASSEMBLY
 62
     7
370
     0
100
AcDbLine
 10
654.5735097343
 20
28.9934142117
 30
0.0
 11
654.5735097343
 21
22.465062849
 31
0.0
  0
CIRCLE
  5
F3
330
1F
100
AcDbEntity
  8
FORMAT
 62
     7
370
     0
100
AcDbCircle
 10
650.3374716174
 20
45.5122581826
 30
0.0
 40
1.381181693819063
  0
CIRCLE
  5
F4
330
1F
100
AcDbEntity
  8
FORMAT
 62
     7
370
     0
100
AcDbCircle
 10
650.3374716174
 20
45.5122581826
 30
0.0
 40
2.008274061455038
  0
INSERT
  5
F5
330
1F
100
AcDbEntity
  8
0
  6
Continuous
 62
     7
100
AcDbBlockReference
  2
Bloc6
 10
778.7529038616
 20
45.6862327983
 30
0.0
  0
INSERT
  5
FD
330
1F
100
AcDbEntity
  8
DESSIN
 62
     7
100
AcDbBlockReference
  2
SW_NOTE_0
 10
771.0431176118
 20
74.4406860093
 30
0.0
  0
MTEXT
  5
FE
330
1F
100
AcDbEntity
  8
FORMAT
 62
     7
100
AcDbMText
 10
6.6666666667
 20
323.1680244036
 30
0.0
 40
1.8520833333
 41
0.0
 71
     1
 72
     1
  1
F
  7
SLDTEXTSTYLE1
 73
     1
 44
1.0
  0
MTEXT
  5
FF
330
1F
100
AcDbEntity
  8
FORMAT
 62
     7
100
AcDbMText
 10
394.0104166667
 20
587.6680314036
 30
0.0
 40
1.8520833333
 41
0.0
 71
     1
 72
     1
  1
8
  7
SLDTEXTSTYLE1
 73
     1
 44
1.0
  0
MTEXT
  5
100
330
1F
100
AcDbEntity
  8
FORMAT
 62
     7
100
AcDbMText
 10
6.6666666667
 20
373.1680244036
 30
0.0
 40
1.8520833333
 41
0.0
 71
     1
 72
     1
  1
E
  7
SLDTEXTSTYLE1
 73
     1
 44
1.0
  0
MTEXT
  5
101
330
1F
100
AcDbEntity
  8
FORMAT
 62
     7
100
AcDbMText
 10
6.6666666667
 20
423.1680244036
 30
0.0
 40
1.8520833333
 41
0.0
 71
     1
 72
     1
  1
D
  7
SLDTEXTSTYLE1
 73
     1
 44
1.0
  0
MTEXT
  5
102
330
1F
100
AcDbEntity
  8
FORMAT
 62
     7
100
AcDbMText
 10
6.6666666667
 20
473.1680244036
 30
0.0
 40
1.8520833333
 41
0.0
 71
     1
 72
     1
  1
C
  7
SLDTEXTSTYLE1
 73
     1
 44
1.0
  0
MTEXT
  5
103
330
1F
100
AcDbEntity
  8
FORMAT
 62
     7
100
AcDbMText
 10
6.6666666667
 20
523.1680244036
 30
0.0
 40
1.8520833333
 41
0.0
 71
     1
 72
     1
  1
B
  7
SLDTEXTSTYLE1
 73
     1
 44
1.0
  0
MTEXT
  5
104
330
1F
100
AcDbEntity
  8
FORMAT
 62
     7
100
AcDbMText
 10
6.6666666667
 20
573.1680244036
 30
0.0
 40
1.8520833333
 41
0.0
 71
     1
 72
     1
  1
A
  7
SLDTEXTSTYLE1
 73
     1
 44
1.0
  0
MTEXT
  5
105
330
1F
100
AcDbEntity
  8
FORMAT
 62
     7
100
AcDbMText
 10
6.6666666667
 20
273.1680244036
 30
0.0
 40
1.8520833333
 41
0.0
 71
     1
 72
     1
  1
G
  7
SLDTEXTSTYLE1
 73
     1
 44
1.0
  0
MTEXT
  5
106
330
1F
100
AcDbEntity
  8
FORMAT
 62
     7
100
AcDbMText
 10
6.6666666667
 20
223.1680244036
 30
0.0
 40
1.8520833333
 41
0.0
 71
     1
 72
     1
  1
H
  7
SLDTEXTSTYLE1
 73
     1
 44
1.0
  0
MTEXT
  5
107
330
1F
100
AcDbEntity
  8
FORMAT
 62
     7
100
AcDbMText
 10
6.6666666667
 20
173.1680244036
 30
0.0
 40
1.8520833333
 41
0.0
 71
     1
 72
     1
  1
J
  7
SLDTEXTSTYLE1
 73
     1
 44
1.0
  0
MTEXT
  5
108
330
1F
100
AcDbEntity
  8
FORMAT
 62
     7
100
AcDbMText
 10
6.6666666667
 20
123.1680244036
 30
0.0
 40
1.8520833333
 41
0.0
 71
     1
 72
     1
  1
K
  7
SLDTEXTSTYLE1
 73
     1
 44
1.0
  0
MTEXT
  5
109
330
1F
100
AcDbEntity
  8
FORMAT
 62
     7
100
AcDbMText
 10
6.6666666667
 20
73.1680244036
 30
0.0
 40
1.8520833333
 41
0.0
 71
     1
 72
     1
  1
L
  7
SLDTEXTSTYLE1
 73
     1
 44
1.0
  0
MTEXT
  5
10A
330
1F
100
AcDbEntity
  8
FORMAT
 62
     7
100
AcDbMText
 10
6.6666666667
 20
23.1680244036
 30
0.0
 40
1.8520833333
 41
0.0
 71
     1
 72
     1
  1
M
  7
SLDTEXTSTYLE1
 73
     1
 44
1.0
  0
MTEXT
  5
10B
330
1F
100
AcDbEntity
  8
FORMAT
 62
     7
100
AcDbMText
 10
344.0104166667
 20
587.6680314036
 30
0.0
 40
1.8520833333
 41
0.0
 71
     1
 72
     1
  1
7
  7
SLDTEXTSTYLE1
 73
     1
 44
1.0
  0
MTEXT
  5
10C
330
1F
100
AcDbEntity
  8
FORMAT
 62
     7
100
AcDbMText
 10
294.0104166667
 20
587.6680314036
 30
0.0
 40
1.8520833333
 41
0.0
 71
     1
 72
     1
  1
6
  7
SLDTEXTSTYLE1
 73
     1
 44
1.0
  0
MTEXT
  5
10D
330
1F
100
AcDbEntity
  8
FORMAT
 62
     7
100
AcDbMText
 10
244.0104166667
 20
587.6680314036
 30
0.0
 40
1.8520833333
 41
0.0
 71
     1
 72
     1
  1
5
  7
SLDTEXTSTYLE1
 73
     1
 44
1.0
  0
MTEXT
  5
10E
330
1F
100
AcDbEntity
  8
FORMAT
 62
     7
100
AcDbMText
 10
194.0104166667
 20
587.6680314036
 30
0.0
 40
1.8520833333
 41
0.0
 71
     1
 72
     1
  1
4
  7
SLDTEXTSTYLE1
 73
     1
 44
1.0
  0
MTEXT
  5
10F
330
1F
100
AcDbEntity
  8
FORMAT
 62
     7
100
AcDbMText
 10
144.0104166667
 20
587.6680314036
 30
0.0
 40
1.8520833333
 41
0.0
 71
     1
 72
     1
  1
3
  7
SLDTEXTSTYLE1
 73
     1
 44
1.0
  0
MTEXT
  5
110
330
1F
100
AcDbEntity
  8
FORMAT
 62
     7
100
AcDbMText
 10
94.0104166667
 20
587.6680314036
 30
0.0
 40
1.8520833333
 41
0.0
 71
     1
 72
     1
  1
2
  7
SLDTEXTSTYLE1
 73
     1
 44
1.0
  0
MTEXT
  5
111
330
1F
100
AcDbEntity
  8
FORMAT
 62
     7
100
AcDbMText
 10
44.4270833333
 20
587.6680314036
 30
0.0
 40
1.8520833333
 41
0.0
 71
     1
 72
     1
  1
1
  7
SLDTEXTSTYLE1
 73
     1
 44
1.0
  0
MTEXT
  5
112
330
1F
100
AcDbEntity
  8
FORMAT
 62
     7
100
AcDbMText
 10
444.0104166667
 20
587.6680314036
 30
0.0
 40
1.8520833333
 41
0.0
 71
     1
 72
     1
  1
9
  7
SLDTEXTSTYLE1
 73
     1
 44
1.0
  0
MTEXT
  5
113
330
1F
100
AcDbEntity
  8
FORMAT
 62
     7
100
AcDbMText
 10
493.3854166667
 20
587.6680314036
 30
0.0
 40
1.8520833333
 41
0.0
 71
     1
 72
     1
  1
10
  7
SLDTEXTSTYLE1
 73
     1
 44
1.0
  0
MTEXT
  5
114
330
1F
100
AcDbEntity
  8
FORMAT
 62
     7
100
AcDbMText
 10
543.59375
 20
587.6680314036
 30
0.0
 40
1.8520833333
 41
0.0
 71
     1
 72
     1
  1
11
  7
SLDTEXTSTYLE1
 73
     1
 44
1.0
  0
MTEXT
  5
115
330
1F
100
AcDbEntity
  8
FORMAT
 62
     7
100
AcDbMText
 10
593.1770833333
 20
587.6680314036
 30
0.0
 40
1.8520833333
 41
0.0
 71
     1
 72
     1
  1
12
  7
SLDTEXTSTYLE1
 73
     1
 44
1.0
  0
MTEXT
  5
116
330
1F
100
AcDbEntity
  8
FORMAT
 62
     7
100
AcDbMText
 10
643.1770833333
 20
587.6680314036
 30
0.0
 40
1.8520833333
 41
0.0
 71
     1
 72
     1
  1
13
  7
SLDTEXTSTYLE1
 73
     1
 44
1.0
  0
MTEXT
  5
117
330
1F
100
AcDbEntity
  8
FORMAT
 62
     7
100
AcDbMText
 10
693.1770833333
 20
587.6680314036
 30
0.0
 40
1.8520833333
 41
0.0
 71
     1
 72
     1
  1
14
  7
SLDTEXTSTYLE1
 73
     1
 44
1.0
  0
MTEXT
  5
118
330
1F
100
AcDbEntity
  8
FORMAT
 62
     7
100
AcDbMText
 10
743.1770833333
 20
587.6680314036
 30
0.0
 40
1.8520833333
 41
0.0
 71
     1
 72
     1
  1
15
  7
SLDTEXTSTYLE1
 73
     1
 44
1.0
  0
MTEXT
  5
119
330
1F
100
AcDbEntity
  8
FORMAT
 62
     7
100
AcDbMText
 10
793.1770833333
 20
587.6680314036
 30
0.0
 40
1.8520833333
 41
0.0
 71
     1
 72
     1
  1
16
  7
SLDTEXTSTYLE1
 73
     1
 44
1.0
  0
MTEXT
  5
11A
330
1F
100
AcDbEntity
  8
FORMAT
 62
     7
100
AcDbMText
 10
444.0104166667
 20
8.6680314036
 30
0.0
 40
1.8520833333
 41
0.0
 71
     1
 72
     1
  1
9
  7
SLDTEXTSTYLE1
 73
     1
 44
1.0
  0
MTEXT
  5
11B
330
1F
100
AcDbEntity
  8
FORMAT
 62
     7
100
AcDbMText
 10
44.4270833333
 20
8.6680314036
 30
0.0
 40
1.8520833333
 41
0.0
 71
     1
 72
     1
  1
1
  7
SLDTEXTSTYLE1
 73
     1
 44
1.0
  0
MTEXT
  5
11C
330
1F
100
AcDbEntity
  8
FORMAT
 62
     7
100
AcDbMText
 10
94.0104166667
 20
8.6680314036
 30
0.0
 40
1.8520833333
 41
0.0
 71
     1
 72
     1
  1
2
  7
SLDTEXTSTYLE1
 73
     1
 44
1.0
  0
MTEXT
  5
11D
330
1F
100
AcDbEntity
  8
FORMAT
 62
     7
100
AcDbMText
 10
144.0104166667
 20
8.6680314036
 30
0.0
 40
1.8520833333
 41
0.0
 71
     1
 72
     1
  1
3
  7
SLDTEXTSTYLE1
 73
     1
 44
1.0
  0
MTEXT
  5
11E
330
1F
100
AcDbEntity
  8
FORMAT
 62
     7
100
AcDbMText
 10
194.0104166667
 20
8.6680314036
 30
0.0
 40
1.8520833333
 41
0.0
 71
     1
 72
     1
  1
4
  7
SLDTEXTSTYLE1
 73
     1
 44
1.0
  0
MTEXT
  5
11F
330
1F
100
AcDbEntity
  8
FORMAT
 62
     7
100
AcDbMText
 10
244.0104166667
 20
8.6680314036
 30
0.0
 40
1.8520833333
 41
0.0
 71
     1
 72
     1
  1
5
  7
SLDTEXTSTYLE1
 73
     1
 44
1.0
  0
MTEXT
  5
120
330
1F
100
AcDbEntity
  8
FORMAT
 62
     7
100
AcDbMText
 10
294.0104166667
 20
8.6680314036
 30
0.0
 40
1.8520833333
 41
0.0
 71
     1
 72
     1
  1
6
  7
SLDTEXTSTYLE1
 73
     1
 44
1.0
  0
MTEXT
  5
121
330
1F
100
AcDbEntity
  8
FORMAT
 62
     7
100
AcDbMText
 10
344.0104166667
 20
8.6680314036
 30
0.0
 40
1.8520833333
 41
0.0
 71
     1
 72
     1
  1
7
  7
SLDTEXTSTYLE1
 73
     1
 44
1.0
  0
MTEXT
  5
122
330
1F
100
AcDbEntity
  8
FORMAT
 62
     7
100
AcDbMText
 10
394.0104166667
 20
8.6680314036
 30
0.0
 40
1.8520833333
 41
0.0
 71
     1
 72
     1
  1
8
  7
SLDTEXTSTYLE1
 73
     1
 44
1.0
  0
MTEXT
  5
123
330
1F
100
AcDbEntity
  8
FORMAT
 62
     7
100
AcDbMText
 10
493.3854166667
 20
8.6680314036
 30
0.0
 40
1.8520833333
 41
0.0
 71
     1
 72
     1
  1
10
  7
SLDTEXTSTYLE1
 73
     1
 44
1.0
  0
MTEXT
  5
124
330
1F
100
AcDbEntity
  8
FORMAT
 62
     7
100
AcDbMText
 10
543.59375
 20
8.6680314036
 30
0.0
 40
1.8520833333
 41
0.0
 71
     1
 72
     1
  1
11
  7
SLDTEXTSTYLE1
 73
     1
 44
1.0
  0
MTEXT
  5
125
330
1F
100
AcDbEntity
  8
FORMAT
 62
     7
100
AcDbMText
 10
593.1770833333
 20
8.6680314036
 30
0.0
 40
1.8520833333
 41
0.0
 71
     1
 72
     1
  1
12
  7
SLDTEXTSTYLE1
 73
     1
 44
1.0
  0
MTEXT
  5
126
330
1F
100
AcDbEntity
  8
FORMAT
 62
     7
100
AcDbMText
 10
832.6666516667
 20
123.1680244036
 30
0.0
 40
1.8520833333
 41
0.0
 71
     1
 72
     1
  1
K
  7
SLDTEXTSTYLE1
 73
     1
 44
1.0
  0
MTEXT
  5
127
330
1F
100
AcDbEntity
  8
FORMAT
 62
     7
100
AcDbMText
 10
832.6666516667
 20
273.1680244036
 30
0.0
 40
1.8520833333
 41
0.0
 71
     1
 72
     1
  1
G
  7
SLDTEXTSTYLE1
 73
     1
 44
1.0
  0
MTEXT
  5
128
330
1F
100
AcDbEntity
  8
FORMAT
 62
     7
100
AcDbMText
 10
832.6666516667
 20
573.1680244036
 30
0.0
 40
1.8520833333
 41
0.0
 71
     1
 72
     1
  1
A
  7
SLDTEXTSTYLE1
 73
     1
 44
1.0
  0
MTEXT
  5
129
330
1F
100
AcDbEntity
  8
FORMAT
 62
     7
100
AcDbMText
 10
832.6666516667
 20
523.1680244036
 30
0.0
 40
1.8520833333
 41
0.0
 71
     1
 72
     1
  1
B
  7
SLDTEXTSTYLE1
 73
     1
 44
1.0
  0
MTEXT
  5
12A
330
1F
100
AcDbEntity
  8
FORMAT
 62
     7
100
AcDbMText
 10
832.6666516667
 20
473.1680244036
 30
0.0
 40
1.8520833333
 41
0.0
 71
     1
 72
     1
  1
C
  7
SLDTEXTSTYLE1
 73
     1
 44
1.0
  0
MTEXT
  5
12B
330
1F
100
AcDbEntity
  8
FORMAT
 62
     7
100
AcDbMText
 10
832.6666516667
 20
423.1680244036
 30
0.0
 40
1.8520833333
 41
0.0
 71
     1
 72
     1
  1
D
  7
SLDTEXTSTYLE1
 73
     1
 44
1.0
  0
MTEXT
  5
12C
330
1F
100
AcDbEntity
  8
FORMAT
 62
     7
100
AcDbMText
 10
832.6666516667
 20
373.1680244036
 30
0.0
 40
1.8520833333
 41
0.0
 71
     1
 72
     1
  1
E
  7
SLDTEXTSTYLE1
 73
     1
 44
1.0
  0
MTEXT
  5
12D
330
1F
100
AcDbEntity
  8
FORMAT
 62
     7
100
AcDbMText
 10
832.6666516667
 20
323.1680244036
 30
0.0
 40
1.8520833333
 41
0.0
 71
     1
 72
     1
  1
F
  7
SLDTEXTSTYLE1
 73
     1
 44
1.0
  0
MTEXT
  5
12E
330
1F
100
AcDbEntity
  8
FORMAT
 62
     7
100
AcDbMText
 10
832.6666516667
 20
223.1680244036
 30
0.0
 40
1.8520833333
 41
0.0
 71
     1
 72
     1
  1
H
  7
SLDTEXTSTYLE1
 73
     1
 44
1.0
  0
MTEXT
  5
12F
330
1F
100
AcDbEntity
  8
FORMAT
 62
     7
100
AcDbMText
 10
832.6666516667
 20
173.1680244036
 30
0.0
 40
1.8520833333
 41
0.0
 71
     1
 72
     1
  1
J
  7
SLDTEXTSTYLE1
 73
     1
 44
1.0
  0
MTEXT
  5
130
330
1F
100
AcDbEntity
  8
FORMAT
 62
     7
100
AcDbMText
 10
695.1281860084
 20
8.6680314036
 30
0.0
 40
1.8520833333
 41
0.0
 71
     1
 72
     1
  1
14
  7
SLDTEXTSTYLE1
 73
     1
 44
1.0
  0
MTEXT
  5
131
330
1F
100
AcDbEntity
  8
FORMAT
 62
     7
100
AcDbMText
 10
643.8623635542
 20
8.6680314036
 30
0.0
 40
1.8520833333
 41
0.0
 71
     1
 72
     1
  1
13
  7
SLDTEXTSTYLE1
 73
     1
 44
1.0
  0
MTEXT
  5
132
330
1F
100
AcDbEntity
  8
FORMAT
 62
     7
100
AcDbMText
 10
832.1991444299
 20
28.1377183983
 30
0.0
 40
1.8520833333
 41
0.0
 71
     1
 72
     1
  1
M
  7
SLDTEXTSTYLE1
 73
     1
 44
1.0
  0
MTEXT
  5
133
330
1F
100
AcDbEntity
  8
FORMAT
 62
     7
100
AcDbMText
 10
801.7910128594
 20
8.6680314036
 30
0.0
 40
1.8520833333
 41
0.0
 71
     1
 72
     1
  1
16
  7
SLDTEXTSTYLE1
 73
     1
 44
1.0
  0
MTEXT
  5
134
330
1F
100
AcDbEntity
  8
FORMAT
 62
     7
100
AcDbMText
 10
745.1226959452
 20
8.6680314036
 30
0.0
 40
1.8520833333
 41
0.0
 71
     1
 72
     1
  1
15
  7
SLDTEXTSTYLE1
 73
     1
 44
1.0
  0
MTEXT
  5
136
330
1F
100
AcDbEntity
  8
FORMAT
100
AcDbMText
 10
772.916784884
 20
27.5917098154
 30
0.0
 40
1.5875
 41
0.0
 71
     1
 72
     1
  1
SAP 3D CAD NO
  7
SLDTEXTSTYLE3
 73
     1
 44
1.0
  0
MTEXT
  5
137
330
1F
100
AcDbEntity
  8
FORMAT
100
AcDbMText
 10
769.4139121256
 20
39.8370362906
 30
0.0
 40
3.175
 41
0.0
 71
     3
 72
     1
  1
TW FRONT PANEL
  7
SLDTEXTSTYLE0
 73
     1
 44
1.0
  0
INSERT
  5
13D
330
1F
100
AcDbEntity
  8
FORMAT
100
AcDbBlockReference
  2
SW_NOTE_1
 10
637.8149146936
 20
31.1217830896
 30
0.0
  0
MTEXT
  5
13E
330
1F
100
AcDbEntity
  8
FORMAT
100
AcDbMText
 10
751.6715788297
 20
34.5727322508
 30
0.0
 40
1.5875
 41
0.0
 71
     1
 72
     1
  1
DRAWN BY
  7
SLDTEXTSTYLE0
 73
     1
 44
1.0
  0
MTEXT
  5
13F
330
1F
100
AcDbEntity
  8
FORMAT
100
AcDbMText
 10
772.916784884
 20
41.2799928586
 30
0.0
 40
1.5875
 41
0.0
 71
     1
 72
     1
  1
SAP MATERIAL NO
  7
SLDTEXTSTYLE0
 73
     1
 44
1.0
  0
MTEXT
  5
140
330
1F
100
AcDbEntity
  8
FORMAT
100
AcDbMText
 10
769.8935938906
 20
24.9902622699
 30
0.0
 40
2.1166666667
 41
0.0
 71
     3
 72
     1
  1
31/07/2018
  7
SLDTEXTSTYLE0
 73
     1
 44
1.0
  0
MTEXT
  5
141
330
1F
100
AcDbEntity
  8
FORMAT
100
AcDbMText
 10
751.4496230069
 20
20.4908848056
 30
0.0
 40
1.5875
 41
0.0
 71
     1
 72
     1
  1
MASS
  7
SLDTEXTSTYLE0
 73
     1
 44
1.0
  0
MTEXT
  5
142
330
1F
100
AcDbEntity
  8
FORMAT
100
AcDbMText
 10
637.4999852271
 20
20.4908848056
 30
0.0
 40
1.5875
 41
0.0
 71
     1
 72
     1
  1
MATERIAL
  7
SLDTEXTSTYLE0
 73
     1
 44
1.0
  0
MTEXT
  5
143
330
1F
100
AcDbEntity
  8
FORMAT
100
AcDbMText
 10
751.6715788297
 20
27.5917098154
 30
0.0
 40
1.5875
 41
0.0
 71
     1
 72
     1
  1
DATE
  7
SLDTEXTSTYLE0
 73
     1
 44
1.0
  0
INSERT
  5
149
330
1F
100
AcDbEntity
  8
FORMAT
100
AcDbBlockReference
  2
SW_NOTE_2
 10
793.3328501421
 20
16.7972140038
 30
0.0
  0
INSERT
  5
150
330
1F
100
AcDbEntity
  8
FORMAT
100
AcDbBlockReference
  2
SW_NOTE_3
 10
810.0062256483
 20
16.8219825277
 30
0.0
  0
INSERT
  5
156
330
1F
100
AcDbEntity
  8
FORMAT
100
AcDbBlockReference
  2
SW_NOTE_4
 10
775.272685406
 20
16.8219825277
 30
0.0
  0
MTEXT
  5
157
330
1F
100
AcDbEntity
  8
FORMAT
100
AcDbMText
 10
772.916784884
 20
34.5727322508
 30
0.0
 40
1.5875
 41
0.0
 71
     1
 72
     1
  1
SAP 2D DRAWING NO
  7
SLDTEXTSTYLE0
 73
     1
 44
1.0
  0
MTEXT
  5
158
330
1F
100
AcDbEntity
  8
FORMAT
100
AcDbMText
 10
677.6434969982
 20
41.2623807393
 30
0.0
 40
1.5875
 41
0.0
 71
     1
 72
     1
  1
PART NAME
  7
SLDTEXTSTYLE0
 73
     1
 44
1.0
  0
MTEXT
  5
159
330
1F
100
AcDbEntity
  8
FORMAT
100
AcDbMText
 10
638.1154805213
 20
50.6356538528
 30
0.0
 40
1.5875
 41
0.0
 71
     1
 72
     1
  1
PROJECTION
  7
SLDTEXTSTYLE0
 73
     1
 44
1.0
  0
INSERT
  5
16F
330
1F
100
AcDbEntity
  8
FORMAT
100
AcDbBlockReference
  2
SW_NOTE_5
 10
678.3297516305
 20
31.7195197254
 30
0.0
  0
MTEXT
  5
170
330
1F
100
AcDbEntity
  8
FORMAT
100
AcDbMText
 10
678.3297516305
 20
20.4908848056
 30
0.0
 40
1.5875
 41
0.0
 71
     1
 72
     1
  1
COLOR
  7
SLDTEXTSTYLE0
 73
     1
 44
1.0
  0
MTEXT
  5
171
330
1F
100
AcDbEntity
  8
FORMAT
100
AcDbMText
 10
706.0436670976
 20
20.4908848056
 30
0.0
 40
1.5875
 41
0.0
 71
     1
 72
     1
  1
FINISH
  7
SLDTEXTSTYLE0
 73
     1
 44
1.0
  0
MTEXT
  5
172
330
1F
100
AcDbEntity
  8
FORMAT
100
AcDbMText
 10
637.5571663625
 20
41.2623807393
 30
0.0
 40
1.5875
 41
0.0
 71
     1
 72
     1
  1
UNITS
  7
SLDTEXTSTYLE0
 73
     1
 44
1.0
  0
MTEXT
  5
173
330
1F
100
AcDbEntity
  8
FORMAT
100
AcDbMText
 10
637.5571663625
 20
38.2393864475
 30
0.0
 40
1.4
 41
0.0
 71
     1
 72
     1
  1
All dimensions in millimeters (mm)
  7
SLDTEXTSTYLE0
 73
     1
 44
1.0
  0
MTEXT
  5
174
330
1F
100
AcDbEntity
  8
FORMAT
100
AcDbMText
 10
657.6242104035
 20
50.6356538528
 30
0.0
 40
1.5875
 41
0.0
 71
     1
 72
     1
  1
EDGES
  7
SLDTEXTSTYLE0
 73
     1
 44
1.0
  0
MTEXT
  5
175
330
1F
100
AcDbEntity
  8
FORMAT
100
AcDbMText
 10
752.438203781
 20
31.3699090516
 30
0.0
 40
2.1166666667
 41
0.0
 71
     1
 72
     1
  1
C.ABEILLE
  7
SLDTEXTSTYLE0
 73
     1
 44
1.0
  0
MTEXT
  5
176
330
1F
100
AcDbEntity
  8
FORMAT
100
AcDbMText
 10
684.8822275356
 20
17.7631845356
 30
0.0
 40
2.1166666667
 41
0.0
 71
     1
 72
     1
  1
VOIR NOTES
  7
SLDTEXTSTYLE0
 73
     1
 44
1.0
  0
MTEXT
  5
177
330
1F
100
AcDbEntity
  8
FORMAT
100
AcDbMText
 10
735.0092903051
 20
17.7631845356
 30
0.0
 40
2.1166666667
 41
0.0
 71
     1
 72
     1
  1
VOIR NOTES
  7
SLDTEXTSTYLE0
 73
     1
 44
1.0
  0
INSERT
  5
17E
330
1F
100
AcDbEntity
  8
FORMAT
100
AcDbBlockReference
  2
SW_NOTE_6
 10
686.0714327327
 20
48.1976428026
 30
0.0
  0
INSERT
  5
184
330
1F
100
AcDbEntity
  8
FORMAT
100
AcDbBlockReference
  2
SW_NOTE_7
 10
671.5807799926
 20
49.4425045187
 30
0.0
  0
INSERT
  5
18A
330
1F
100
AcDbEntity
  8
FORMAT
100
AcDbBlockReference
  2
SW_NOTE_8
 10
661.6371034683
 20
46.0747929567
 30
0.0
  0
MTEXT
  5
18B
330
1F
100
AcDbEntity
  8
PLASTIQUE
100
AcDbMText
 10
673.601631565
 20
27.7842964282
 30
0.0
 40
2.1166666667
 41
0.0
 71
     3
 72
     1
  1
ISO 2768 mK
  7
SLDTEXTSTYLE0
 73
     1
 44
1.0
  0
INSERT
  5
191
330
1F
100
AcDbEntity
  8
RUBBER
100
AcDbBlockReference
  2
SW_NOTE_9
 10
651.4535834353
 20
25.0557697123
 30
0.0
  0
INSERT
  5
1AB
330
1F
100
AcDbEntity
  8
RUBBER
100
AcDbBlockReference
  2
SW_NOTE_10
 10
697.7921172637
 20
153.0799033956
 30
0.0
  0
INSERT
  5
1B4
330
1F
100
AcDbEntity
  8
RUBBER
 62
     7
100
AcDbBlockReference
  2
SW_NOTE_11
 10
707.9524745844
 20
76.6965342739
 30
0.0
  0
INSERT
  5
1BA
330
1F
100
AcDbEntity
  8
RUBBER
 62
     7
100
AcDbBlockReference
  2
SW_NOTE_12
 10
709.2020453711
 20
68.3120218981
 30
0.0
  0
MTEXT
  5
1BB
330
1F
100
AcDbEntity
  8
DIE-CASTING
100
AcDbMText
 10
673.5580239625
 20
27.2741034863
 30
0.0
 40
2.1166666667
 41
0.0
 71
     3
 72
     1
  1
NADCA : 2006
  7
SLDTEXTSTYLE0
 73
     1
 44
1.0
  0
INSERT
  5
1D4
330
1F
100
AcDbEntity
  8
DIE-CASTING
100
AcDbBlockReference
  2
SW_NOTE_13
 10
725.2393193864
 20
153.0799033956
 30
0.0
  0
INSERT
  5
1DA
330
1F
100
AcDbEntity
  8
DIE-CASTING
 62
     7
100
AcDbBlockReference
  2
SW_NOTE_14
 10
734.1081780369
 20
82.4547002461
 30
0.0
  0
INSERT
  5
1E3
330
1F
100
AcDbEntity
  8
DIE-CASTING
 62
     7
100
AcDbBlockReference
  2
SW_NOTE_15
 10
732.90533071
 20
90.3219951256
 30
0.0
  0
INSERT
  5
1EA
330
1F
100
AcDbEntity
  8
TÔLERIE-USINAGE
100
AcDbBlockReference
  2
SW_NOTE_16
 10
652.3022138785
 20
26.6334702006
 30
0.0
  0
INSERT
  5
201
330
1F
100
AcDbEntity
  8
TÔLERIE-USINAGE
100
AcDbBlockReference
  2
SW_NOTE_17
 10
713.0614917272
 20
146.0243525819
 30
0.0
  0
INSERT
  5
207
330
1F
100
AcDbEntity
  8
TÔLERIE-USINAGE
 62
     7
100
AcDbBlockReference
  2
SW_NOTE_18
 10
720.3409690257
 20
82.4547002461
 30
0.0
  0
INSERT
  5
210
330
1F
100
AcDbEntity
  8
TÔLERIE-USINAGE
 62
     7
100
AcDbBlockReference
  2
SW_NOTE_19
 10
719.3082959055
 20
90.3219951256
 30
0.0
  0
MTEXT
  5
211
330
1F
100
AcDbEntity
  8
SHIELD
100
AcDbMText
 10
673.7778021853
 20
26.758561318
 30
0.0
 40
1.5875
 41
0.0
 71
     3
 72
     1
  1
ISO 2768 : 1989 mK
  7
SLDTEXTSTYLE0
 73
     1
 44
1.0
  0
INSERT
  5
234
330
1F
100
AcDbEntity
  8
SHIELD
100
AcDbBlockReference
  2
SW_NOTE_20
 10
710.4251298547
 20
196.1339756356
 30
0.0
  0
INSERT
  5
23A
330
1F
100
AcDbEntity
  8
SHIELD
 62
     7
100
AcDbBlockReference
  2
SW_NOTE_21
 10
720.3409690257
 20
68.3120218981
 30
0.0
  0
INSERT
  5
243
330
1F
100
AcDbEntity
  8
SHIELD
 62
     7
100
AcDbBlockReference
  2
SW_NOTE_22
 10
719.3082959055
 20
76.6965342739
 30
0.0
  0
INSERT
  5
250
330
1F
100
AcDbEntity
  8
ASSEMBLY
100
AcDbBlockReference
  2
SW_NOTE_23
 10
652.1757385472
 20
22.676694217
 30
0.0
  0
INSERT
  5
25A
330
1F
100
AcDbEntity
  8
ASSEMBLY
100
AcDbBlockReference
  2
SW_NOTE_24
 10
652.2180233861
 20
24.9738262631
 30
0.0
  0
INSERT
  5
265
330
1F
100
AcDbEntity
  8
ASSEMBLY
100
AcDbBlockReference
  2
SW_NOTE_25
 10
652.2180233861
 20
27.2128951285
 30
0.0
  0
MTEXT
  5
266
330
1F
100
AcDbEntity
  8
FORMAT
100
AcDbMText
 10
657.8727579033
 20
17.7631845356
 30
0.0
 40
2.1166666667
 41
0.0
 71
     1
 72
     1
  1
VOIR NOTES
  7
SLDTEXTSTYLE0
 73
     1
 44
1.0
  0
CIRCLE
  5
267
330
1F
100
AcDbEntity
  8
0
  6
Continuous
 62
     7
370
    15
100
AcDbCircle
 10
424.7918936299
 20
401.5767645609
 30
0.0
 40
2.499999999999886
  0
CIRCLE
  5
268
330
1F
100
AcDbEntity
  8
0
  6
Continuous
 62
     7
370
    15
100
AcDbCircle
 10
424.7918936299
 20
256.5767645609
 30
0.0
 40
2.499999999999829
  0
CIRCLE
  5
269
330
1F
100
AcDbEntity
  8
0
  6
Continuous
 62
     7
370
    15
100
AcDbCircle
 10
338.1315754918
 20
228.0392346108
 30
0.0
 40
5.0
  0
ARC
  5
26A
330
1F
100
AcDbEntity
  8
0
  6
Continuous
 62
     7
370
    15
100
AcDbCircle
 10
407.4285856566
 20
251.924190203
 30
0.0
 40
15.0
100
AcDbArc
 50
270.0
 51
291.2689351942
  0
LINE
  5
26B
330
1F
100
AcDbEntity
  8
0
  6
Continuous
 62
     7
370
    15
100
AcDbLine
 10
350.1315754918
 20
236.924190203
 30
0.0
 11
407.4285856566
 21
236.924190203
 31
0.0
  0
LINE
  5
26C
330
1F
100
AcDbEntity
  8
0
  6
Continuous
 62
     7
370
    15
100
AcDbLine
 10
350.1315754918
 20
239.524190203
 30
0.0
 11
350.1315754918
 21
236.924190203
 31
0.0
  0
LINE
  5
26D
330
1F
100
AcDbEntity
  8
0
  6
Continuous
 62
     7
370
    15
100
AcDbLine
 10
348.1315754918
 20
239.524190203
 30
0.0
 11
350.1315754918
 21
239.524190203
 31
0.0
  0
LINE
  5
26E
330
1F
100
AcDbEntity
  8
0
  6
Continuous
 62
     7
370
    15
100
AcDbLine
 10
348.1315754918
 20
223.0392346108
 30
0.0
 11
348.1315754918
 21
239.524190203
 31
0.0
  0
LINE
  5
26F
330
1F
100
AcDbEntity
  8
0
  6
Continuous
 62
     7
370
    15
100
AcDbLine
 10
343.1315754918
 20
218.0392346108
 30
0.0
 11
348.1315754918
 21
223.0392346108
 31
0.0
  0
LINE
  5
270
330
1F
100
AcDbEntity
  8
0
  6
Continuous
 62
     7
370
    15
100
AcDbLine
 10
343.1315754918
 20
218.0392346108
 30
0.0
 11
333.1315754918
 21
218.0392346108
 31
0.0
  0
LINE
  5
271
330
1F
100
AcDbEntity
  8
0
  6
Continuous
 62
     7
370
    15
100
AcDbLine
 10
328.1315754918
 20
223.0392346108
 30
0.0
 11
333.1315754918
 21
218.0392346108
 31
0.0
  0
LINE
  5
272
330
1F
100
AcDbEntity
  8
0
  6
Continuous
 62
     7
370
    15
100
AcDbLine
 10
328.1315754918
 20
239.524190203
 30
0.0
 11
328.1315754918
 21
223.0392346108
 31
0.0
  0
LINE
  5
273
330
1F
100
AcDbEntity
  8
0
  6
Continuous
 62
     7
370
    15
100
AcDbLine
 10
326.1315754918
 20
239.524190203
 30
0.0
 11
328.1315754918
 21
239.524190203
 31
0.0
  0
LINE
  5
274
330
1F
100
AcDbEntity
  8
0
  6
Continuous
 62
     7
370
    15
100
AcDbLine
 10
326.1315754918
 20
236.924190203
 30
0.0
 11
326.1315754918
 21
239.524190203
 31
0.0
  0
LINE
  5
275
330
1F
100
AcDbEntity
  8
0
  6
Continuous
 62
     7
370
    15
100
AcDbLine
 10
268.834565327
 20
236.924190203
 30
0.0
 11
326.1315754918
 21
236.924190203
 31
0.0
  0
ARC
  5
276
330
1F
100
AcDbEntity
  8
0
  6
Continuous
 62
     7
370
    15
100
AcDbCircle
 10
268.834565327
 20
251.924190203
 30
0.0
 40
15.0
100
AcDbArc
 50
228.3664606634
 51
270.0
  0
LINE
  5
277
330
1F
100
AcDbEntity
  8
0
  6
Continuous
 62
     7
370
    15
100
AcDbLine
 10
228.1661179094
 20
268.0045969429
 30
0.0
 11
258.8691077446
 21
240.7130504227
 31
0.0
  0
ARC
  5
278
330
1F
100
AcDbEntity
  8
0
  6
Continuous
 62
     7
370
    15
100
AcDbCircle
 10
238.1315754918
 20
279.2157367232
 30
0.0
 40
15.00000000000004
100
AcDbArc
 50
180.0
 51
228.3664606634
  0
LINE
  5
279
330
1F
100
AcDbEntity
  8
0
  6
Continuous
 62
     7
370
    15
100
AcDbLine
 10
223.1315754918
 20
461.924190203
 30
0.0
 11
223.1315754918
 21
279.2157367232
 31
0.0
  0
ARC
  5
27A
330
1F
100
AcDbEntity
  8
0
  6
Continuous
 62
     7
370
    15
100
AcDbCircle
 10
238.1315754918
 20
461.924190203
 30
0.0
 40
15.0
100
AcDbArc
 50
90.0
 51
180.0
  0
LINE
  5
27B
330
1F
100
AcDbEntity
  8
0
  6
Continuous
 62
     7
370
    15
100
AcDbLine
 10
438.1315754918
 20
476.924190203
 30
0.0
 11
238.1315754918
 21
476.924190203
 31
0.0
  0
ARC
  5
27C
330
1F
100
AcDbEntity
  8
0
  6
Continuous
 62
     7
370
    15
100
AcDbCircle
 10
438.1315754918
 20
461.924190203
 30
0.0
 40
15.0
100
AcDbArc
 50
0.0
 51
90.0
  0
LINE
  5
27D
330
1F
100
AcDbEntity
  8
0
  6
Continuous
 62
     7
370
    15
100
AcDbLine
 10
453.1315754918
 20
279.2157367232
 30
0.0
 11
453.1315754918
 21
461.924190203
 31
0.0
  0
ARC
  5
27E
330
1F
100
AcDbEntity
  8
0
  6
Continuous
 62
     7
370
    15
100
AcDbCircle
 10
438.1315754918
 20
279.2157367232
 30
0.0
 40
15.00000000000006
100
AcDbArc
 50
311.6335393366
 51
0.0
  0
LINE
  5
27F
330
1F
100
AcDbEntity
  8
0
  6
Continuous
 62
     7
370
    15
100
AcDbLine
 10
417.394043239
 20
240.7130504227
 30
0.0
 11
448.0970330743
 21
268.0045969429
 31
0.0
  0
ARC
  5
280
330
1F
100
AcDbEntity
  8
0
  6
Continuous
 62
     7
370
    15
100
AcDbCircle
 10
407.4285856566
 20
251.924190203
 30
0.0
 40
14.99999999999999
100
AcDbArc
 50
293.4315138829
 51
311.6335393366
  0
ARC
  5
281
330
1F
100
AcDbEntity
  8
0
  6
Continuous
 62
     7
370
    15
100
AcDbCircle
 10
418.834565327
 20
224.1828289053
 30
0.0
 40
15.00000000000002
100
AcDbArc
 50
111.2689351942
 51
113.4315138829
  0
CIRCLE
  5
282
330
1F
100
AcDbEntity
  8
0
  6
Continuous
 62
     7
370
    15
100
AcDbCircle
 10
282.1315754918
 20
457.024190203
 30
0.0
 40
2.249999999999943
  0
CIRCLE
  5
283
330
1F
100
AcDbEntity
  8
0
  6
Continuous
 62
     7
370
    15
100
AcDbCircle
 10
394.1315754918
 20
457.024190203
 30
0.0
 40
2.249999999999943
  0
CIRCLE
  5
284
330
1F
100
AcDbEntity
  8
0
  6
Continuous
 62
     7
370
    15
100
AcDbCircle
 10
350.2461397084
 20
401.5767645609
 30
0.0
 40
2.5
  0
CIRCLE
  5
285
330
1F
100
AcDbEntity
  8
0
  6
Continuous
 62
     7
370
    15
100
AcDbCircle
 10
350.2461397084
 20
256.5767645609
 30
0.0
 40
2.5
  0
CIRCLE
  5
286
330
1F
100
AcDbEntity
  8
0
  6
Continuous
 62
     7
370
    15
100
AcDbCircle
 10
275.2461397084
 20
391.5767645609
 30
0.0
 40
2.5
  0
CIRCLE
  5
287
330
1F
100
AcDbEntity
  8
0
  6
Continuous
 62
     7
370
    15
100
AcDbCircle
 10
275.2461397084
 20
256.5767645609
 30
0.0
 40
2.5
  0
LINE
  5
288
330
1F
100
AcDbEntity
  8
0
  6
Continuous
 62
     7
370
    15
100
AcDbLine
 10
424.0710672418
 20
369.1770021776
 30
0.0
 11
424.0710672418
 21
289.8266539081
 31
0.0
  0
SPLINE
  5
289
330
1F
100
AcDbEntity
  8
0
  6
Continuous
 62
     7
370
    15
100
AcDbSpline
210
0.0
220
0.0
230
1.0
 70
     8
 71
     3
 72
    14
 73
    10
 74
     0
 42
0.000000001
 43
0.00000001
 40
0.0
 40
0.0
 40
0.0
 40
0.0
 40
0.0078809999338681
 40
0.0078809999338681
 40
0.0157619998677362
 40
0.0157619998677362
 40
0.0236429998016043
 40
0.0236429998016043
 40
0.0315239997354724
 40
0.0315239997354724
 40
0.0315239997354724
 40
0.0315239997354724
 10
413.3933748796055
 20
398.3216314804127
 30
0.0
 10
415.1442108623485
 20
396.3027880332988
 30
0.0
 10
416.6714759109947
 20
394.1528875802684
 30
0.0
 10
419.3189227067493
 20
389.6146457046587
 30
0.0
 10
420.440139449534
 20
387.2252461252353
 30
0.0
 10
422.2618095915673
 20
382.2064876610187
 30
0.0
 10
422.9344637868544
 20
379.6552333856818
 30
0.0
 10
423.8385515379159
 20
374.4751529758215
 30
0.0
 10
424.071067241814
 20
371.8465037841187
 30
0.0
 10
424.0710672418138
 20
369.1770021775641
 30
0.0
  0
LINE
  5
28A
330
1F
100
AcDbEntity
  8
0
  6
Continuous
 62
     7
370
    15
100
AcDbLine
 10
413.3933748796
 20
398.3216314804
 30
0.0
 11
412.8697748816
 21
398.4287994575
 31
0.0
  0
SPLINE
  5
28B
330
1F
100
AcDbEntity
  8
0
  6
Continuous
 62
     7
370
    15
100
AcDbSpline
210
0.0
220
0.0
230
1.0
 70
     8
 71
     3
 72
    50
 73
    46
 74
     0
 42
0.000000001
 43
0.00000001
 40
0.6875
 40
0.6875
 40
0.6875
 40
0.6875
 40
0.71875
 40
0.71875
 40
0.734375
 40
0.734375
 40
0.7421875
 40
0.7421875
 40
0.74609375
 40
0.74609375
 40
0.748046875
 40
0.748046875
 40
0.75
 40
0.75
 40
0.78125
 40
0.78125
 40
0.796875
 40
0.796875
 40
0.8125
 40
0.8125
 40
0.84375
 40
0.84375
 40
0.859375
 40
0.859375
 40
0.8671875
 40
0.8671875
 40
0.87109375
 40
0.87109375
 40
0.873046875
 40
0.873046875
 40
0.875
 40
0.875
 40
0.90625
 40
0.90625
 40
0.921875
 40
0.921875
 40
0.9296875
 40
0.9296875
 40
0.93359375
 40
0.93359375
 40
0.935546875
 40
0.935546875
 40
0.9375
 40
0.9375
 40
1.0
 40
1.0
 40
1.0
 40
1.0
 10
387.9221738765225
 20
412.0269902546655
 30
0.0
 10
388.8971551568783
 20
411.9699378026914
 30
0.0
 10
389.8693786217478
 20
411.8670960569229
 30
0.0
 10
391.3235770956969
 20
411.6441494975886
 30
0.0
 10
391.8076204664385
 20
411.5583866543674
 30
0.0
 10
392.53265134172
 20
411.4125714043663
 30
0.0
 10
392.7741559366754
 20
411.3611044901711
 30
0.0
 10
393.1361542839007
 20
411.2796113725859
 30
0.0
 10
393.2567773087746
 20
411.251731542342
 30
0.0
 10
393.4376472097833
 20
411.2088386104032
 30
0.0
 10
393.4979264040693
 20
411.1943621019948
 30
0.0
 10
393.6184632472073
 20
411.1650513563202
 30
0.0
 10
393.6799226888961
 20
411.149917640654
 30
0.0
 10
394.6836891049645
 20
410.899786044641
 30
0.0
 10
395.6146064407766
 20
410.6234381221786
 30
0.0
 10
396.9902764490575
 20
410.1475213138687
 30
0.0
 10
397.4453821192449
 20
409.9786498903293
 30
0.0
 10
398.3486914611407
 20
409.6204420683785
 30
0.0
 10
398.7986465977423
 20
409.4303197547405
 30
0.0
 10
400.1276502204691
 20
408.8339708428775
 30
0.0
 10
400.9978626200706
 20
408.3967329874864
 30
0.0
 10
402.2794961961486
 20
407.6813683331761
 30
0.0
 10
402.7027598842871
 20
407.4329954698687
 30
0.0
 10
403.3317341606638
 20
407.0455592071017
 30
0.0
 10
403.5404053768175
 20
406.9139342915451
 30
0.0
 10
403.8519318870904
 20
406.7127776762586
 30
0.0
 10
403.9555273381883
 20
406.6451055975045
 30
0.0
 10
404.1105504363458
 20
406.5426676688856
 30
0.0
 10
404.1621631226501
 20
406.5083667242646
 30
0.0
 10
404.2652651357621
 20
406.4394548981934
 30
0.0
 10
404.3184439383651
 20
406.4037019061236
 30
0.0
 10
405.1639928498587
 20
405.8320983389531
 30
0.0
 10
405.9407601768318
 20
405.2600970470746
 30
0.0
 10
407.0773460474071
 20
404.3510629133267
 30
0.0
 10
407.4514471509515
 20
404.0395461694224
 30
0.0
 10
408.0054575262971
 20
403.5595130045834
 30
0.0
 10
408.1889374380837
 20
403.39737560814
 30
0.0
 10
408.462371985771
 20
403.1509800012292
 30
0.0
 10
408.5532192816679
 20
403.0683165468846
 30
0.0
 10
408.6890438955151
 20
402.9435239873064
 30
0.0
 10
408.7342443784645
 20
402.9017935711034
 30
0.0
 10
408.8244965676972
 20
402.8180669460103
 30
0.0
 10
408.8703927217013
 20
402.7752797645031
 30
0.0
 10
410.3267774392759
 20
401.4111213881581
 30
0.0
 10
411.6451942766345
 20
399.976073481868
 30
0.0
 10
412.8697761040065
 20
398.4287979130164
 30
0.0
  0
SPLINE
  5
28C
330
1F
100
AcDbEntity
  8
0
  6
Continuous
 62
     7
370
    15
100
AcDbSpline
210
0.0
220
0.0
230
1.0
 70
     8
 71
     3
 72
    10
 73
     6
 74
     0
 42
0.000000001
 43
0.00000001
 40
0.4727960531394662
 40
0.4727960531394662
 40
0.4727960531394662
 40
0.4727960531394662
 40
0.4999999999999998
 40
0.4999999999999998
 40
0.5132873353764045
 40
0.5132873353764045
 40
0.5132873353764045
 40
0.5132873353764045
 10
382.8499702934668
 20
411.9035447181031
 30
0.0
 10
383.9823646348843
 20
412.0247028991738
 30
0.0
 10
385.1173750982098
 20
412.0838247257223
 30
0.0
 10
386.8101612951613
 20
412.0769646128297
 30
0.0
 10
387.3660138249971
 20
412.0595445964216
 30
0.0
 10
387.9221738764641
 20
412.0269902546688
 30
0.0
  0
SPLINE
  5
28D
330
1F
100
AcDbEntity
  8
0
  6
Continuous
 62
     7
370
    15
100
AcDbSpline
210
0.0
220
0.0
230
1.0
 70
     8
 71
     3
 72
    28
 73
    24
 74
     0
 42
0.000000001
 43
0.00000001
 40
0.4998315495188735
 40
0.4998315495188735
 40
0.4998315495188735
 40
0.4998315495188735
 40
0.5
 40
0.5
 40
0.53125
 40
0.53125
 40
0.546875
 40
0.546875
 40
0.5546875
 40
0.5546875
 40
0.55859375
 40
0.55859375
 40
0.5625
 40
0.5625
 40
0.59375
 40
0.59375
 40
0.609375
 40
0.609375
 40
0.6171875
 40
0.6171875
 40
0.625
 40
0.625
 40
0.6332280685784328
 40
0.6332280685784328
 40
0.6332280685784328
 40
0.6332280685784328
 10
370.9397676276749
 20
408.2088268232691
 30
0.0
 10
370.9444224038832
 20
408.2113170607396
 30
0.0
 10
370.9490827695364
 20
408.2138089173313
 30
0.0
 10
371.8194166912861
 20
408.678913370801
 30
0.0
 10
372.7011136950165
 20
409.1013111399154
 30
0.0
 10
374.0477032856328
 20
409.6745882635341
 30
0.0
 10
374.5005738300085
 20
409.8556273830649
 30
0.0
 10
375.1858906678269
 20
410.112106179848
 30
0.0
 10
375.4153314506423
 20
410.1950857983567
 30
0.0
 10
375.7609953801791
 20
410.3157852554916
 30
0.0
 10
375.8764671492436
 20
410.3553900794319
 30
0.0
 10
376.1079116058107
 20
410.4333430704362
 30
0.0
 10
376.2222584021307
 20
410.471163559884
 30
0.0
 10
377.2828997432666
 20
410.8153912060661
 30
0.0
 10
378.2325977942744
 20
411.0768911270341
 30
0.0
 10
379.6675034924501
 20
411.4024206950281
 30
0.0
 10
380.147531828786
 20
411.4998104987831
 30
0.0
 10
380.8701639887058
 20
411.6292151260512
 30
0.0
 10
381.1114729845818
 20
411.6695699887466
 30
0.0
 10
381.5949541948056
 20
411.7447196880157
 30
0.0
 10
381.8358986600566
 20
411.779352506654
 30
0.0
 10
382.336531884143
 20
411.8454177651365
 30
0.0
 10
382.5932785710527
 20
411.8760895551367
 30
0.0
 10
382.8499702934668
 20
411.9035447181031
 30
0.0
  0
SPLINE
  5
28E
330
1F
100
AcDbEntity
  8
0
  6
Continuous
 62
     7
370
    15
100
AcDbSpline
210
0.0
220
0.0
230
1.0
 70
     8
 71
     3
 72
    30
 73
    26
 74
     0
 42
0.000000001
 43
0.00000001
 40
0.0
 40
0.0
 40
0.0
 40
0.0
 40
0.0625
 40
0.0625
 40
0.125
 40
0.125
 40
0.1562500000000001
 40
0.1562500000000001
 40
0.1718750000000002
 40
0.1718750000000002
 40
0.1875000000000003
 40
0.1875000000000003
 40
0.2500000000000008
 40
0.2500000000000008
 40
0.2656250000000009
 40
0.2656250000000009
 40
0.2812500000000009
 40
0.2812500000000009
 40
0.312500000000001
 40
0.312500000000001
 40
0.343750000000001
 40
0.343750000000001
 40
0.3593750000000009
 40
0.3593750000000009
 40
0.3731744148620913
 40
0.3731744148620913
 40
0.3731744148620913
 40
0.3731744148620913
 10
349.6315754918065
 20
369.1770021775687
 30
0.0
 10
349.6315754918065
 20
371.7858440423331
 30
0.0
 10
349.8330140917263
 20
374.379616798475
 30
0.0
 10
350.6368505950464
 20
379.5334709407436
 30
0.0
 10
351.2343803334298
 20
382.0555348658394
 30
0.0
 10
352.4292371834774
 20
385.7434265548838
 30
0.0
 10
352.8780053641722
 20
386.9578727062893
 30
0.0
 10
353.6294034275186
 20
388.7550717540803
 30
0.0
 10
353.8929980186343
 20
389.350224226091
 30
0.0
 10
354.4471873917211
 20
390.5322325928536
 30
0.0
 10
354.7379093520543
 20
391.1191764938965
 30
0.0
 10
356.2485697940434
 20
394.0087245961393
 30
0.0
 10
357.6457793155258
 20
396.1955519580103
 30
0.0
 10
359.6501285985631
 20
398.7581470858119
 30
0.0
 10
360.0643276709802
 20
399.2623561204337
 30
0.0
 10
360.9195394392439
 20
400.2524823535125
 30
0.0
 10
361.3617230033312
 20
400.739650996115
 30
0.0
 10
362.7204033926154
 20
402.1627975135855
 30
0.0
 10
363.66811237887
 20
403.0603185800389
 30
0.0
 10
365.6500074678949
 20
404.7509643006556
 30
0.0
 10
366.6845256435637
 20
405.5443657774047
 30
0.0
 10
368.3053491076153
 20
406.6505825445884
 30
0.0
 10
368.8573772826961
 20
407.0054506485981
 30
0.0
 10
369.9197590281793
 20
407.6459800710306
 30
0.0
 10
370.4272244379218
 20
407.9346238240238
 30
0.0
 10
370.9397675687657
 20
408.208826933383
 30
0.0
  0
LINE
  5
28F
330
1F
100
AcDbEntity
  8
0
  6
Continuous
 62
     7
370
    15
100
AcDbLine
 10
349.6315754918
 20
289.8266539081
 30
0.0
 11
349.6315754918
 21
369.1770021776
 31
0.0
  0
SPLINE
  5
290
330
1F
100
AcDbEntity
  8
0
  6
Continuous
 62
     7
370
    15
100
AcDbSpline
210
0.0
220
0.0
230
1.0
 70
     8
 71
     3
 72
    18
 73
    14
 74
     0
 42
0.000000001
 43
0.00000001
 40
0.7736746380878748
 40
0.7736746380878748
 40
0.7736746380878748
 40
0.7736746380878748
 40
0.8124999999999979
 40
0.8124999999999979
 40
0.843749999999998
 40
0.843749999999998
 40
0.8593749999999981
 40
0.8593749999999981
 40
0.8749999999999982
 40
0.8749999999999982
 40
0.9374999999999991
 40
0.9374999999999991
 40
1.0
 40
1.0
 40
1.0
 40
1.0
 10
357.4139235973043
 20
263.2965248764474
 30
0.0
 10
356.5246598751832
 20
264.6287671781463
 30
0.0
 10
355.7155273109127
 20
266.0049830775019
 30
0.0
 10
354.3883961100428
 20
268.5614224303432
 30
0.0
 10
353.8443625770665
 20
269.7288026287438
 30
0.0
 10
353.0996593244707
 20
271.5187229005852
 30
0.0
 10
352.863252621177
 20
272.1220437485514
 30
0.0
 10
352.4142864662867
 20
273.3418857119462
 30
0.0
 10
352.2013161522498
 20
273.9598209205424
 30
0.0
 10
351.2045110347116
 20
277.0573503637421
 30
0.0
 10
350.6184659136562
 20
279.5677444116151
 30
0.0
 10
349.8323949839839
 20
284.6488193247306
 30
0.0
 10
349.6315754918065
 20
287.2216156725045
 30
0.0
 10
349.6315754918065
 20
289.8266539080743
 30
0.0
  0
SPLINE
  5
291
330
1F
100
AcDbEntity
  8
0
  6
Continuous
 62
     7
370
    15
100
AcDbSpline
210
0.0
220
0.0
230
1.0
 70
     8
 71
     3
 72
    70
 73
    66
 74
     0
 42
0.000000001
 43
0.00000001
 40
0.369098148744061
 40
0.369098148744061
 40
0.369098148744061
 40
0.369098148744061
 40
0.37109375
 40
0.37109375
 40
0.375
 40
0.375
 40
0.40625
 40
0.40625
 40
0.421875
 40
0.421875
 40
0.4296875
 40
0.4296875
 40
0.43359375
 40
0.43359375
 40
0.4375
 40
0.4375
 40
0.46875
 40
0.46875
 40
0.484375
 40
0.484375
 40
0.4921875
 40
0.4921875
 40
0.49609375
 40
0.49609375
 40
0.5
 40
0.5
 40
0.53125
 40
0.53125
 40
0.546875
 40
0.546875
 40
0.5546875
 40
0.5546875
 40
0.55859375
 40
0.55859375
 40
0.560546875
 40
0.560546875
 40
0.5625
 40
0.5625
 40
0.59375
 40
0.59375
 40
0.609375
 40
0.609375
 40
0.6171875
 40
0.6171875
 40
0.62109375
 40
0.62109375
 40
0.623046875
 40
0.623046875
 40
0.625
 40
0.625
 40
0.65625
 40
0.65625
 40
0.671875
 40
0.671875
 40
0.6796875
 40
0.6796875
 40
0.68359375
 40
0.68359375
 40
0.685546875
 40
0.685546875
 40
0.6865234375
 40
0.6865234375
 40
0.6875
 40
0.6875
 40
0.6976227210619462
 40
0.6976227210619462
 40
0.6976227210619462
 40
0.6976227210619462
 10
382.4924074511492
 20
247.1404254173595
 30
0.0
 10
382.4298535632415
 20
247.1478437163695
 30
0.0
 10
382.3672957870552
 20
247.1554529735495
 30
0.0
 10
382.1822740363932
 20
247.1785215653448
 30
0.0
 10
382.0581488588799
 20
247.1947470150417
 30
0.0
 10
380.9705916571465
 20
247.3433036303539
 30
0.0
 10
380.0103729498664
 20
247.5196055283088
 30
0.0
 10
378.5797930970039
 20
247.8504357350905
 30
0.0
 10
378.1045578473926
 20
247.9717753639927
 30
0.0
 10
377.3941420249903
 20
248.1703791473082
 30
0.0
 10
377.1577429261919
 20
248.2393461317405
 30
0.0
 10
376.8037535409978
 20
248.3469451933795
 30
0.0
 10
376.6858586231004
 20
248.3835029780909
 30
0.0
 10
376.4502718749735
 20
248.4580014091773
 30
0.0
 10
376.3304923705645
 20
248.4966279216434
 30
0.0
 10
375.2909688606195
 20
248.8381438216836
 30
0.0
 10
374.3815076083204
 20
249.1824978862883
 30
0.0
 10
373.0391551980163
 20
249.7602055467155
 30
0.0
 10
372.595344305939
 20
249.9629708607779
 30
0.0
 10
371.9350878348592
 20
250.2824129727515
 30
0.0
 10
371.7159123223386
 20
250.3914427002227
 30
0.0
 10
371.3885140203167
 20
250.5588108266495
 30
0.0
 10
371.279608747436
 20
250.6152374579952
 30
0.0
 10
371.0622531905942
 20
250.7293652324264
 30
0.0
 10
370.9521623569054
 20
250.7879507275506
 30
0.0
 10
369.9929221989427
 20
251.3050371498039
 30
0.0
 10
369.1569627015636
 20
251.8028497439253
 30
0.0
 10
367.92807108671
 20
252.6068389632851
 30
0.0
 10
367.5226151536279
 20
252.8843804244346
 30
0.0
 10
366.9206931618085
 20
253.3150101982033
 30
0.0
 10
366.7210961491693
 20
253.4609397198003
 30
0.0
 10
366.4232661071616
 20
253.6834133977068
 30
0.0
 10
366.3242503393175
 20
253.7581678562609
 30
0.0
 10
366.1761180567891
 20
253.8711943929697
 30
0.0
 10
366.1268058574859
 20
253.9090190466856
 30
0.0
 10
366.0283119152921
 20
253.9849666370767
 30
0.0
 10
365.9775153873073
 20
254.0243478304039
 30
0.0
 10
365.169985984274
 20
254.6535827959512
 30
0.0
 10
364.4309340672333
 20
255.2773548238271
 30
0.0
 10
363.3538198262762
 20
256.260339191388
 30
0.0
 10
363.0000256850578
 20
256.5958883681996
 30
0.0
 10
362.4772003818812
 20
257.1110437148537
 30
0.0
 10
362.3042362655975
 20
257.2847340939778
 30
0.0
 10
362.0467565683346
 20
257.5482275580232
 30
0.0
 10
361.9612577487741
 20
257.6365516952649
 30
0.0
 10
361.8335011387241
 20
257.7697773749672
 30
0.0
 10
361.7909975385892
 20
257.814309180508
 30
0.0
 10
361.7061542114163
 20
257.9036192828694
 30
0.0
 10
361.6629071537161
 20
257.9493616752043
 30
0.0
 10
360.9599493366501
 20
258.6962982732932
 30
0.0
 10
360.3220095813243
 20
259.4260886505978
 30
0.0
 10
359.4006013512046
 20
260.560961055798
 30
0.0
 10
359.0993821749761
 20
260.9459496640719
 30
0.0
 10
358.6564287613508
 20
261.5334792862936
 30
0.0
 10
358.5102568485952
 20
261.730996945336
 30
0.0
 10
358.2932178171412
 20
262.0297851113522
 30
0.0
 10
358.221241279603
 20
262.1297997795998
 30
0.0
 10
358.1138311827157
 20
262.2804497013342
 30
0.0
 10
358.0781202686566
 20
262.3307709951396
 30
0.0
 10
358.0246925749228
 20
262.4064099156884
 30
0.0
 10
358.0069064565706
 20
262.4316490525115
 30
0.0
 10
357.9713804456514
 20
262.4821796527713
 30
0.0
 10
357.9529523460168
 20
262.5084545776483
 30
0.0
 10
357.7594112710512
 20
262.7850285818128
 30
0.0
 10
357.5854112123494
 20
263.0396072929781
 30
0.0
 10
357.4139235973043
 20
263.2965248764474
 30
0.0
  0
SPLINE
  5
292
330
1F
100
AcDbEntity
  8
0
  6
Continuous
 62
     7
370
    15
100
AcDbSpline
210
0.0
220
0.0
230
1.0
 70
     8
 71
     3
 72
    30
 73
    26
 74
     0
 42
0.000000001
 43
0.00000001
 40
0.2518650364928033
 40
0.2518650364928033
 40
0.2518650364928033
 40
0.2518650364928033
 40
0.2656249999999944
 40
0.2656249999999944
 40
0.2812499999999946
 40
0.2812499999999946
 40
0.3124999999999948
 40
0.3124999999999948
 40
0.343749999999995
 40
0.343749999999995
 40
0.3593749999999951
 40
0.3593749999999951
 40
0.3749999999999953
 40
0.3749999999999953
 40
0.4062499999999954
 40
0.4062499999999954
 40
0.4374999999999956
 40
0.4374999999999956
 40
0.4531249999999957
 40
0.4531249999999957
 40
0.4687499999999958
 40
0.4687499999999958
 40
0.4999999999999962
 40
0.4999999999999962
 40
0.5280004067635662
 40
0.5280004067635662
 40
0.5280004067635662
 40
0.5280004067635662
 10
412.8697761040071
 20
260.5748582297455
 30
0.0
 10
412.5139518359569
 20
260.1252721691383
 30
0.0
 10
412.1477832756122
 20
259.6822080753795
 30
0.0
 10
411.3436115443693
 20
258.7511737321304
 30
0.0
 10
410.9014279802817
 20
258.2640050895279
 30
0.0
 10
409.5427475909977
 20
256.8408585720574
 30
0.0
 10
408.595038604743
 20
255.9433375056041
 30
0.0
 10
406.6131435157184
 20
254.2526917849875
 30
0.0
 10
405.5786253400494
 20
253.4592903082382
 30
0.0
 10
403.9578018759979
 20
252.3530735410546
 30
0.0
 10
403.4057737009171
 20
251.9982054370449
 30
0.0
 10
402.2774783821504
 20
251.3179355134175
 30
0.0
 10
401.7014953296826
 20
250.99286602316
 30
0.0
 10
399.9561293969015
 20
250.0745689393906
 30
0.0
 10
398.7642962828249
 20
249.5352003154265
 30
0.0
 10
396.3253017643036
 20
248.6004573314923
 30
0.0
 10
395.0774378866388
 20
248.2047260522838
 30
0.0
 10
393.162385711889
 20
247.7235038306605
 30
0.0
 10
392.514378353226
 20
247.5814766429625
 30
0.0
 10
391.2172518049375
 20
247.3390430260267
 30
0.0
 10
390.5682269629102
 20
247.238448856219
 30
0.0
 10
388.6183569068945
 20
246.997949379805
 30
0.0
 10
387.3149259475467
 20
246.9191458696181
 30
0.0
 10
384.8378922456693
 20
246.9291841903842
 30
0.0
 10
383.6657047300002
 20
247.00128861131
 30
0.0
 10
382.4924080528971
 20
247.1404304915246
 30
0.0
  0
LINE
  5
293
330
1F
100
AcDbEntity
  8
0
  6
Continuous
 62
     7
370
    15
100
AcDbLine
 10
412.869776104
 20
260.5748582297
 30
0.0
 11
413.3933748796
 21
260.6820242555
 31
0.0
  0
SPLINE
  5
294
330
1F
100
AcDbEntity
  8
0
  6
Continuous
 62
     7
370
    15
100
AcDbSpline
210
0.0
220
0.0
230
1.0
 70
     8
 71
     3
 72
    16
 73
    12
 74
     0
 42
0.000000001
 43
0.00000001
 40
0.0
 40
0.0
 40
0.0
 40
0.0
 40
0.0078905468385886
 40
0.0078905468385886
 40
0.0118358202578828
 40
0.0118358202578828
 40
0.0157810936771771
 40
0.0157810936771771
 40
0.0236716405157657
 40
0.0236716405157657
 40
0.0315621873543542
 40
0.0315621873543542
 40
0.0315621873543542
 40
0.0315621873543542
 10
424.0710672418138
 20
289.8266539080743
 30
0.0
 10
424.0710672418139
 20
287.1570908856108
 30
0.0
 10
423.8385846768026
 20
284.5278812077569
 30
0.0
 10
423.1600536726546
 20
280.6413932443086
 30
0.0
 10
422.8785330579067
 20
279.3555123513453
 30
0.0
 10
422.2008831233039
 20
276.803662051199
 30
0.0
 10
421.8043741761236
 20
275.5365039579978
 30
0.0
 10
420.4380570030833
 20
271.7734521070011
 30
0.0
 10
419.317836508627
 20
269.3868175162535
 30
0.0
 10
416.6710836449989
 20
264.8504670459785
 30
0.0
 10
415.1442467232424
 20
262.7009065345377
 30
0.0
 10
413.3933748796055
 20
260.6820242554575
 30
0.0
  0
DIMENSION
  5
295
330
1F
100
AcDbEntity
  8
DESSIN
 62
     7
100
AcDbDimension
  2
_D
 10
453.1315754918
 20
528.924190203
 30
0.0
 11
338.1315754918
 21
528.924190203
 31
0.0
 70
   160
  1
(<>)
 71
     2
 42
-1.0
  3
SLDDIMSTYLE0
100
AcDbAlignedDimension
 13
223.1315754918
 23
461.924190203
 33
0.0
 14
453.1315754918
 24
461.924190203
 34
0.0
100
AcDbRotatedDimension
  0
DIMENSION
  5
2A2
330
1F
100
AcDbEntity
  8
DESSIN
 62
     7
100
AcDbDimension
  2
_D_1
 10
165.1315754918
 20
218.0392346108
 30
0.0
 11
165.1315754918
 21
347.4817124069
 31
0.0
 70
   160
  1
(<>)
 71
     2
 42
-1.0
  3
SLDDIMSTYLE0
100
AcDbAlignedDimension
 13
238.1315754918
 23
476.924190203
 33
0.0
 14
333.1315754918
 24
218.0392346108
 34
0.0
 50
90.0
100
AcDbRotatedDimension
  0
INSERT
  5
2B9
330
1F
100
AcDbEntity
  8
DESSIN
 62
     7
100
AcDbBlockReference
  2
SW_CENTERMARKSYMBOL_0
 10
282.1315754918
 20
457.024190203
 30
0.0
  0
INSERT
  5
2C5
330
1F
100
AcDbEntity
  8
DESSIN
 62
     7
100
AcDbBlockReference
  2
SW_CENTERMARKSYMBOL_1
 10
394.1315754918
 20
457.024190203
 30
0.0
  0
INSERT
  5
2D1
330
1F
100
AcDbEntity
  8
DESSIN
 62
     7
100
AcDbBlockReference
  2
SW_CENTERMARKSYMBOL_2
 10
350.2461397084
 20
401.5767645609
 30
0.0
  0
INSERT
  5
2DD
330
1F
100
AcDbEntity
  8
DESSIN
 62
     7
100
AcDbBlockReference
  2
SW_CENTERMARKSYMBOL_3
 10
350.2461397084
 20
256.5767645609
 30
0.0
  0
INSERT
  5
2E9
330
1F
100
AcDbEntity
  8
DESSIN
 62
     7
100
AcDbBlockReference
  2
SW_CENTERMARKSYMBOL_4
 10
275.2461397084
 20
391.5767645609
 30
0.0
  0
INSERT
  5
2F5
330
1F
100
AcDbEntity
  8
DESSIN
 62
     7
100
AcDbBlockReference
  2
SW_CENTERMARKSYMBOL_5
 10
275.2461397084
 20
256.5767645609
 30
0.0
  0
INSERT
  5
301
330
1F
100
AcDbEntity
  8
DESSIN
 62
     7
100
AcDbBlockReference
  2
SW_CENTERMARKSYMBOL_6
 10
338.1315754918
 20
228.0392346108
 30
0.0
  0
INSERT
  5
30D
330
1F
100
AcDbEntity
  8
DESSIN
 62
     7
100
AcDbBlockReference
  2
SW_CENTERMARKSYMBOL_7
 10
424.7918936299
 20
401.5767645609
 30
0.0
  0
INSERT
  5
319
330
1F
100
AcDbEntity
  8
DESSIN
 62
     7
100
AcDbBlockReference
  2
SW_CENTERMARKSYMBOL_8
 10
424.7918936299
 20
256.5767645609
 30
0.0
  0
LINE
  5
31A
330
1F
100
AcDbEntity
  8
0
  6
Continuous
 62
     7
370
    15
100
AcDbLine
 10
238.1315740017
 20
130.4531856603
 30
0.0
 11
238.1315740017
 21
128.4531855653
 31
0.0
  0
LINE
  5
31B
330
1F
100
AcDbEntity
  8
0
  6
Continuous
 62
     7
370
    15
100
AcDbLine
 10
238.1315740017
 20
128.4531855653
 30
0.0
 11
223.1315734056
 21
128.4531855653
 31
0.0
  0
LINE
  5
31C
330
1F
100
AcDbEntity
  8
0
  6
Continuous
 62
     7
370
    15
100
AcDbLine
 10
223.1315734056
 20
128.4531855653
 30
0.0
 11
223.1315734056
 21
130.4531856603
 31
0.0
  0
LINE
  5
31D
330
1F
100
AcDbEntity
  8
0
  6
Continuous
 62
     7
370
    15
100
AcDbLine
 10
223.1315734056
 20
130.4531856603
 30
0.0
 11
238.1315740017
 21
130.4531856603
 31
0.0
  0
LINE
  5
31E
330
1F
100
AcDbEntity
  8
0
  6
Continuous
 62
     7
370
    15
100
AcDbLine
 10
438.1315769819
 20
128.4531855653
 30
0.0
 11
438.1315769819
 21
130.4531856603
 31
0.0
  0
LINE
  5
31F
330
1F
100
AcDbEntity
  8
0
  6
Continuous
 62
     7
370
    15
100
AcDbLine
 10
438.1315769819
 20
128.4531855653
 30
0.0
 11
238.1315740017
 21
128.4531855653
 31
0.0
  0
LINE
  5
320
330
1F
100
AcDbEntity
  8
0
  6
Continuous
 62
     7
370
    15
100
AcDbLine
 10
438.1315769819
 20
130.4531856603
 30
0.0
 11
238.1315740017
 21
130.4531856603
 31
0.0
  0
LINE
  5
321
330
1F
100
AcDbEntity
  8
0
  6
Continuous
 62
     7
370
    15
100
AcDbLine
 10
453.131577578
 20
130.4531856603
 30
0.0
 11
453.131577578
 21
128.4531855653
 31
0.0
  0
LINE
  5
322
330
1F
100
AcDbEntity
  8
0
  6
Continuous
 62
     7
370
    15
100
AcDbLine
 10
453.131577578
 20
128.4531855653
 30
0.0
 11
438.1315769819
 21
128.4531855653
 31
0.0
  0
LINE
  5
323
330
1F
100
AcDbEntity
  8
0
  6
Continuous
 62
     7
370
    15
100
AcDbLine
 10
438.1315769819
 20
130.4531856603
 30
0.0
 11
453.131577578
 21
130.4531856603
 31
0.0
  0
DIMENSION
  5
324
330
1F
100
AcDbEntity
  8
DESSIN
 62
     7
100
AcDbDimension
  2
_D_2
 10
201.1315754918
 20
128.4531855653
 30
0.0
 11
201.1315754918
 21
164.4582105653
 31
0.0
 70
   160
  1
Ep. <>
 71
     2
 42
-1.0
  3
SLDDIMSTYLE1
100
AcDbAlignedDimension
 13
223.1315754918
 23
130.4531855653
 33
0.0
 14
223.1315754918
 24
128.4531855653
 34
0.0
 50
90.0
100
AcDbRotatedDimension
  0
LINE
  5
332
330
1F
100
AcDbEntity
  8
0
  6
Continuous
 62
     7
370
    15
100
AcDbLine
 10
737.9624821687
 20
219.888260523
 30
0.0
 11
739.376695731
 21
220.7046686349
 31
0.0
  0
LINE
  5
333
330
1F
100
AcDbEntity
  8
0
  6
Continuous
 62
     7
370
    15
100
AcDbLine
 10
582.9565585042
 20
477.5158546313
 30
0.0
 11
581.5423449418
 21
476.6994465195
 31
0.0
  0
LWPOLYLINE
  5
334
330
1F
100
AcDbEntity
  8
0
  6
Continuous
 62
     7
370
    15
100
AcDbPolyline
 90
       21
 70
   128
 43
0.0
 10
719.2627452175
 20
339.2575888529
 10
719.3492658906
 20
339.8384540002
 10
719.6003586634
 20
340.2625653769
 10
719.991444826
 20
340.4884080066
 10
720.4842421399
 20
340.4938748392
 10
721.0305121705
 20
340.2784307428
 10
721.576782201
 20
339.8631648869
 10
722.0695795149
 20
339.2887263867
 10
722.4606656775
 20
338.6113452849
 10
722.7117584504
 20
337.8973283634
 10
722.7982791234
 20
337.2165685734
 10
722.7117584504
 20
336.6357034261
 10
722.4606656775
 20
336.2115920493
 10
722.0695795149
 20
335.9857494196
 10
721.576782201
 20
335.9802825871
 10
721.0305121705
 20
336.1957266834
 10
720.4842421399
 20
336.6109925393
 10
719.991444826
 20
337.1854310396
 10
719.6003586634
 20
337.8628121413
 10
719.3492658906
 20
338.5768290628
 10
719.2627452175
 20
339.2575888529
  0
LWPOLYLINE
  5
335
330
1F
100
AcDbEntity
  8
0
  6
Continuous
 62
     7
370
    15
100
AcDbPolyline
 90
       21
 70
   128
 43
0.0
 10
719.2627452175
 20
220.8591711295
 10
719.3492658906
 20
221.4400362768
 10
719.6003586634
 20
221.8641476535
 10
719.991444826
 20
222.0899902832
 10
720.4842421399
 20
222.0954571157
 10
721.0305121705
 20
221.8800130194
 10
721.576782201
 20
221.4647471635
 10
722.0695795149
 20
220.8903086633
 10
722.4606656775
 20
220.2129275615
 10
722.7117584504
 20
219.49891064
 10
722.7982791234
 20
218.8181508499
 10
722.7117584504
 20
218.2372857026
 10
722.4606656775
 20
217.8131743259
 10
722.0695795149
 20
217.5873316962
 10
721.576782201
 20
217.5818648637
 10
721.0305121705
 20
217.79730896
 10
720.4842421399
 20
218.2125748159
 10
719.991444826
 20
218.7870133161
 10
719.6003586634
 20
219.4643944179
 10
719.3492658906
 20
220.1784113394
 10
719.2627452175
 20
220.8591711295
  0
LWPOLYLINE
  5
336
330
1F
100
AcDbEntity
  8
0
  6
Continuous
 62
     7
370
    15
100
AcDbPolyline
 90
       29
 70
   128
 43
0.0
 10
659.7524135552
 20
227.8289924062
 10
660.539143862
 20
227.477184582
 10
661.2864242261
 20
227.3477417007
 10
661.9567828897
 20
227.4471545686
 10
662.5166052702
 20
227.7704382096
 10
662.9378195359
 20
228.3013818319
 10
663.1993042446
 20
229.0133617053
 10
663.2879474612
 20
229.870676186
 10
663.1993042446
 20
230.8303359461
 10
662.9378195359
 20
231.844219638
 10
662.5166052702
 20
232.8614868997
 10
661.9567828897
 20
233.8311277032
 10
661.2864242261
 20
234.7045202095
 10
660.539143862
 20
235.4378688715
 10
659.7524135552
 20
235.994400525
 10
658.9656832485
 20
236.3462083491
 10
658.2184028844
 20
236.4756512305
 10
657.5480442208
 20
236.3762383625
 10
656.9882218402
 20
236.0529547216
 10
656.5670075746
 20
235.5220110992
 10
656.3055228659
 20
234.8100312258
 10
656.2168796493
 20
233.9527167451
 10
656.3055228659
 20
232.9930569851
 10
656.5670075746
 20
231.9791732932
 10
656.9882218402
 20
230.9619060314
 10
657.5480442208
 20
229.992265228
 10
658.2184028844
 20
229.1188727217
 10
658.9656832485
 20
228.3855240597
 10
659.7524135552
 20
227.8289924062
  0
ARC
  5
337
330
1F
100
AcDbEntity
  8
0
  6
Continuous
 62
     7
370
    15
100
AcDbCircle
 10
714.1558661452
 20
219.8382838976
 30
0.0
 40
10.46214312870846
100
AcDbArc
 50
238.9062601687
 51
261.4492698611
  0
LINE
  5
338
330
1F
100
AcDbEntity
  8
0
  6
Continuous
 62
     7
370
    15
100
AcDbLine
 10
668.2376949295
 20
234.2681766474
 30
0.0
 11
708.7527993587
 21
210.8793047066
 31
0.0
  0
LINE
  5
339
330
1F
100
AcDbEntity
  8
0
  6
Continuous
 62
     7
370
    15
100
AcDbLine
 10
668.2376949295
 20
236.3911827583
 30
0.0
 11
668.2376949295
 21
234.2681766474
 31
0.0
  0
LINE
  5
33A
330
1F
100
AcDbEntity
  8
0
  6
Continuous
 62
     7
370
    15
100
AcDbLine
 10
666.8234813671
 20
237.2075908702
 30
0.0
 11
668.2376949295
 21
236.3911827583
 31
0.0
  0
LINE
  5
33B
330
1F
100
AcDbEntity
  8
0
  6
Continuous
 62
     7
370
    15
100
AcDbLine
 10
666.8234813671
 20
223.746951847
 30
0.0
 11
666.8234813671
 21
237.2075908702
 31
0.0
  0
LINE
  5
33C
330
1F
100
AcDbEntity
  8
0
  6
Continuous
 62
     7
370
    15
100
AcDbLine
 10
663.2879474612
 20
221.7052680672
 30
0.0
 11
666.8234813671
 21
223.746951847
 31
0.0
  0
LINE
  5
33D
330
1F
100
AcDbEntity
  8
0
  6
Continuous
 62
     7
370
    15
100
AcDbLine
 10
663.2879474612
 20
221.7052680672
 30
0.0
 11
656.2168796493
 21
225.7873086263
 31
0.0
  0
LINE
  5
33E
330
1F
100
AcDbEntity
  8
0
  6
Continuous
 62
     7
370
    15
100
AcDbLine
 10
652.6813457434
 20
231.9110329653
 30
0.0
 11
656.2168796493
 21
225.7873086263
 31
0.0
  0
LINE
  5
33F
330
1F
100
AcDbEntity
  8
0
  6
Continuous
 62
     7
370
    15
100
AcDbLine
 10
652.6813457434
 20
245.3716719884
 30
0.0
 11
652.6813457434
 21
231.9110329653
 31
0.0
  0
LINE
  5
340
330
1F
100
AcDbEntity
  8
0
  6
Continuous
 62
     7
370
    15
100
AcDbLine
 10
651.267132181
 20
246.1880801002
 30
0.0
 11
652.6813457434
 21
245.3716719884
 31
0.0
  0
LINE
  5
341
330
1F
100
AcDbEntity
  8
0
  6
Continuous
 62
     7
370
    15
100
AcDbLine
 10
651.267132181
 20
244.0650739893
 30
0.0
 11
651.267132181
 21
246.1880801002
 31
0.0
  0
LINE
  5
342
330
1F
100
AcDbEntity
  8
0
  6
Continuous
 62
     7
370
    15
100
AcDbLine
 10
610.7520277518
 20
267.4539459302
 30
0.0
 11
651.267132181
 21
244.0650739893
 31
0.0
  0
ARC
  5
343
330
1F
100
AcDbEntity
  8
0
  6
Continuous
 62
     7
370
    15
100
AcDbCircle
 10
621.9251684765
 20
285.4951509652
 30
0.0
 40
21.22084241422829
100
AcDbArc
 50
210.8425223111
 51
238.2295563524
  0
LINE
  5
344
330
1F
100
AcDbEntity
  8
0
  6
Continuous
 62
     7
370
    15
100
AcDbLine
 10
581.9950928024
 20
309.4333916669
 30
0.0
 11
603.7053851176
 21
274.6156451343
 31
0.0
  0
ARC
  5
345
330
1F
100
AcDbEntity
  8
0
  6
Continuous
 62
     7
370
    15
100
AcDbCircle
 10
600.4431113105
 20
321.4622343434
 30
0.0
 40
22.02322508195041
100
AcDbArc
 50
182.1321679644
 51
213.1059513463
  0
LINE
  5
346
330
1F
100
AcDbEntity
  8
0
  6
Continuous
 62
     7
370
    15
100
AcDbLine
 10
578.4351337188
 20
469.8317744225
 30
0.0
 11
578.4351337188
 21
320.6428654797
 31
0.0
  0
LWPOLYLINE
  5
347
330
1F
100
AcDbEntity
  8
0
  6
Continuous
 62
     7
370
    15
100
AcDbPolyline
 90
       13
 70
   128
 43
0.0
 10
589.0417354366
 20
475.9568257621
 10
587.657296102
 20
476.6512612805
 10
586.2965449082
 20
477.1242462195
 10
584.9827646855
 20
477.3676876755
 10
583.7384345777
 20
477.3774202979
 10
582.5848454179
 20
477.1532775588
 10
581.5417354366
 20
476.6990946024
 10
580.6269525346
 20
476.0226426253
 10
579.8561489011
 20
475.1354959082
 10
579.2425132
 20
474.0528337773
 10
578.7965449082
 20
472.7931808821
 10
578.5258746668
 20
471.3780902327
 10
578.4351337188
 20
469.8317744225
  0
LINE
  5
348
330
1F
100
AcDbEntity
  8
0
  6
Continuous
 62
     7
370
    15
100
AcDbLine
 10
730.4630916739
 20
394.3160145798
 30
0.0
 11
589.0417354366
 21
475.9568257621
 31
0.0
  0
ARC
  5
349
330
1F
100
AcDbEntity
  8
0
  6
Continuous
 62
     7
370
    15
100
AcDbCircle
 10
718.0414518712
 20
374.896928779
 30
0.0
 40
23.0520721135812
100
AcDbArc
 50
2.6054784857
 51
57.39452166
  0
LINE
  5
34A
330
1F
100
AcDbEntity
  8
0
  6
Continuous
 62
     7
370
    15
100
AcDbLine
 10
741.0696933917
 20
226.7559326201
 30
0.0
 11
741.0696933917
 21
375.9448415629
 31
0.0
  0
ARC
  5
34B
330
1F
100
AcDbEntity
  8
0
  6
Continuous
 62
     7
370
    15
100
AcDbCircle
 10
733.8455025221
 20
225.9363536374
 30
0.0
 40
7.27053254092887
100
AcDbArc
 50
300.2639286087
 51
6.4724889073
  0
LINE
  5
34C
330
1F
100
AcDbEntity
  8
0
  6
Continuous
 62
     7
370
    15
100
AcDbLine
 10
715.7994419929
 20
209.9051235024
 30
0.0
 11
737.5097343081
 21
219.6567000763
 31
0.0
  0
ARC
  5
34D
330
1F
100
AcDbEntity
  8
0
  6
Continuous
 62
     7
370
    15
100
AcDbCircle
 10
713.505054356
 20
215.2035986667
 30
0.0
 40
5.773911472790865
100
AcDbArc
 50
264.6883150123
 51
293.4139583125
  0
ARC
  5
34E
330
1F
100
AcDbEntity
  8
0
  6
Continuous
 62
     7
370
    15
100
AcDbCircle
 10
712.0329442047
 20
202.1323454345
 30
0.0
 40
7.381921411559917
100
AcDbArc
 50
82.7029961506
 51
85.5920286994
  0
LWPOLYLINE
  5
34F
330
1F
100
AcDbEntity
  8
0
  6
Continuous
 62
     7
370
    15
100
AcDbPolyline
 90
       20
 70
   128
 43
0.0
 10
621.7454240665
 20
440.8282260197
 10
621.6592198259
 20
441.4745339969
 10
621.4099486712
 20
442.150333774
 10
621.0246229998
 20
442.7823919589
 10
620.5449988272
 20
443.30221524
 10
620.0230508747
 20
443.6534726987
 10
619.5153403016
 20
443.7981001392
 10
619.0768854266
 20
443.7204249342
 10
618.7551996387
 20
443.4288643973
 10
618.5851425845
 20
442.9550136368
 10
618.5851425845
 20
442.3502217351
 10
618.7551996387
 20
441.680027279
 10
619.0768854266
 20
441.0170562371
 10
619.5153403016
 20
440.4331518088
 10
620.0230508747
 20
439.9915890991
 10
620.5449988272
 20
439.7402182791
 10
621.0246229998
 20
439.7062792776
 10
621.4099486712
 20
439.8934499121
 10
621.6592198259
 20
440.28144734
 10
621.7454240665
 20
440.8282260197
  0
LWPOLYLINE
  5
350
330
1F
100
AcDbEntity
  8
0
  6
Continuous
 62
     7
370
    15
100
AcDbPolyline
 90
       20
 70
   128
 43
0.0
 10
697.759403044
 20
396.9462900092
 10
697.8456072846
 20
397.4930686888
 10
698.0948784393
 20
397.8810661167
 10
698.4802041107
 20
398.0682367512
 10
698.9598282832
 20
398.0342977497
 10
699.4817762358
 20
397.7829269298
 10
699.9894868089
 20
397.34136422
 10
700.4279416838
 20
396.7574597917
 10
700.7496274717
 20
396.0944887498
 10
700.9196845259
 20
395.4242942938
 10
700.9196845259
 20
394.8195023921
 10
700.7496274717
 20
394.3456516316
 10
700.4279416838
 20
394.0540910947
 10
699.9894868089
 20
393.9764158896
 10
699.4817762358
 20
394.1210433301
 10
698.9598282832
 20
394.4723007889
 10
698.4802041107
 20
394.9921240699
 10
698.0948784393
 20
395.6241822548
 10
697.8456072846
 20
396.2999820319
 10
697.759403044
 20
396.9462900092
  0
LWPOLYLINE
  5
351
330
1F
100
AcDbEntity
  8
0
  6
Continuous
 62
     7
370
    15
100
AcDbPolyline
 90
       21
 70
   128
 43
0.0
 10
666.5509371109
 20
369.6874679546
 10
666.637457784
 20
370.2683331019
 10
666.8885505569
 20
370.6924444787
 10
667.2796367195
 20
370.9182871084
 10
667.7724340334
 20
370.9237539409
 10
668.3187040639
 20
370.7083098446
 10
668.8649740945
 20
370.2930439886
 10
669.3577714084
 20
369.7186054884
 10
669.748857571
 20
369.0412243866
 10
669.9999503438
 20
368.3272074652
 10
670.0864710169
 20
367.6464476751
 10
669.9999503438
 20
367.0655825278
 10
669.748857571
 20
366.641471151
 10
669.3577714084
 20
366.4156285213
 10
668.8649740945
 20
366.4101616888
 10
668.3187040639
 20
366.6256057851
 10
667.7724340334
 20
367.0408716411
 10
667.2796367195
 20
367.6153101413
 10
666.8885505569
 20
368.2926912431
 10
666.637457784
 20
369.0067081646
 10
666.5509371109
 20
369.6874679546
  0
LWPOLYLINE
  5
352
330
1F
100
AcDbEntity
  8
0
  6
Continuous
 62
     7
370
    15
100
AcDbPolyline
 90
       21
 70
   128
 43
0.0
 10
666.5509371109
 20
251.2890502312
 10
666.637457784
 20
251.8699153785
 10
666.8885505569
 20
252.2940267552
 10
667.2796367195
 20
252.5198693849
 10
667.7724340334
 20
252.5253362175
 10
668.3187040639
 20
252.3098921211
 10
668.8649740945
 20
251.8946262652
 10
669.3577714084
 20
251.320187765
 10
669.748857571
 20
250.6428066632
 10
669.9999503438
 20
249.9287897417
 10
670.0864710169
 20
249.2480299516
 10
669.9999503438
 20
248.6671648044
 10
669.748857571
 20
248.2430534276
 10
669.3577714084
 20
248.0172107979
 10
668.8649740945
 20
248.0117439654
 10
668.3187040639
 20
248.2271880617
 10
667.7724340334
 20
248.6424539176
 10
667.2796367195
 20
249.2168924179
 10
666.8885505569
 20
249.8942735196
 10
666.637457784
 20
250.6082904411
 10
666.5509371109
 20
251.2890502312
  0
LWPOLYLINE
  5
353
330
1F
100
AcDbEntity
  8
0
  6
Continuous
 62
     7
370
    15
100
AcDbPolyline
 90
       21
 70
   128
 43
0.0
 10
613.517928522
 20
392.1373640291
 10
613.604449195
 20
392.7182291764
 10
613.8555419679
 20
393.1423405532
 10
614.2466281305
 20
393.3681831829
 10
614.7394254444
 20
393.3736500154
 10
615.2856954749
 20
393.1582059191
 10
615.8319655055
 20
392.7429400631
 10
616.3247628194
 20
392.1685015629
 10
616.715848982
 20
391.4911204611
 10
616.9669417548
 20
390.7771035397
 10
617.0534624279
 20
390.0963437496
 10
616.9669417548
 20
389.5154786023
 10
616.715848982
 20
389.0913672255
 10
616.3247628194
 20
388.8655245958
 10
615.8319655055
 20
388.8600577633
 10
615.2856954749
 20
389.0755018596
 10
614.7394254444
 20
389.4907677156
 10
614.2466281305
 20
390.0652062158
 10
613.8555419679
 20
390.7425873176
 10
613.604449195
 20
391.456604239
 10
613.517928522
 20
392.1373640291
  0
LWPOLYLINE
  5
354
330
1F
100
AcDbEntity
  8
0
  6
Continuous
 62
     7
370
    15
100
AcDbPolyline
 90
       21
 70
   128
 43
0.0
 10
613.517928522
 20
281.9043544246
 10
613.604449195
 20
282.4852195718
 10
613.8555419679
 20
282.9093309486
 10
614.2466281305
 20
283.1351735783
 10
614.7394254444
 20
283.1406404108
 10
615.2856954749
 20
282.9251963145
 10
615.8319655055
 20
282.5099304586
 10
616.3247628194
 20
281.9354919583
 10
616.715848982
 20
281.2581108566
 10
616.9669417548
 20
280.5440939351
 10
617.0534624279
 20
279.863334145
 10
616.9669417548
 20
279.2824689977
 10
616.715848982
 20
278.858357621
 10
616.3247628194
 20
278.6325149913
 10
615.8319655055
 20
278.6270481587
 10
615.2856954749
 20
278.8424922551
 10
614.7394254444
 20
279.257758111
 10
614.2466281305
 20
279.8321966112
 10
613.8555419679
 20
280.509577713
 10
613.604449195
 20
281.2235946345
 10
613.517928522
 20
281.9043544246
  0
LINE
  5
355
330
1F
100
AcDbEntity
  8
0
  6
Continuous
 62
     7
370
    15
100
AcDbLine
 10
720.5208109434
 20
312.075594687
 30
0.0
 11
720.5208109434
 21
247.2827968876
 31
0.0
  0
SPLINE
  5
356
330
1F
100
AcDbEntity
  8
0
  6
Continuous
 62
     7
370
    15
100
AcDbSpline
210
0.0
220
0.0
230
1.0
 70
     8
 71
     3
 72
    14
 73
    10
 74
     0
 42
0.000000001
 43
0.00000001
 40
0.0
 40
0.0
 40
0.0
 40
0.0
 40
0.0078809999338681
 40
0.0078809999338681
 40
0.0157619998677362
 40
0.0157619998677362
 40
0.0236429998016043
 40
0.0236429998016043
 40
0.0315239997354724
 40
0.0315239997354724
 40
0.0315239997354724
 40
0.0315239997354724
 10
712.970542266652
 20
340.2320512900358
 30
0.0
 10
714.2085702627951
 20
337.8688848732679
 30
0.0
 10
715.2885097353619
 20
335.4899676245678
 30
0.0
 10
717.1605373174707
 20
330.703609399087
 30
0.0
 10
717.9533572794736
 20
328.2948819046247
 30
0.0
 10
719.2414725899904
 20
323.4532476530843
 30
0.0
 10
719.7171109328715
 20
321.0954642450317
 30
0.0
 10
720.3563975124348
 20
316.4966648946478
 30
0.0
 10
720.5208109433935
 20
314.2553516960976
 30
0.0
 10
720.5208109433933
 20
312.0755946869514
 30
0.0
  0
LINE
  5
357
330
1F
100
AcDbEntity
  8
0
  6
Continuous
 62
     7
370
    15
100
AcDbLine
 10
712.9705422667
 20
340.23205129
 30
0.0
 11
712.6003011574
 21
340.53329396
 31
0.0
  0
SPLINE
  5
358
330
1F
100
AcDbEntity
  8
0
  6
Continuous
 62
     7
370
    15
100
AcDbSpline
210
0.0
220
0.0
230
1.0
 70
     8
 71
     3
 72
    50
 73
    46
 74
     0
 42
0.000000001
 43
0.00000001
 40
0.6875
 40
0.6875
 40
0.6875
 40
0.6875
 40
0.71875
 40
0.71875
 40
0.734375
 40
0.734375
 40
0.7421875
 40
0.7421875
 40
0.74609375
 40
0.74609375
 40
0.748046875
 40
0.748046875
 40
0.75
 40
0.75
 40
0.78125
 40
0.78125
 40
0.796875
 40
0.796875
 40
0.8125
 40
0.8125
 40
0.84375
 40
0.84375
 40
0.859375
 40
0.859375
 40
0.8671875
 40
0.8671875
 40
0.87109375
 40
0.87109375
 40
0.873046875
 40
0.873046875
 40
0.875
 40
0.875
 40
0.90625
 40
0.90625
 40
0.921875
 40
0.921875
 40
0.9296875
 40
0.9296875
 40
0.93359375
 40
0.93359375
 40
0.935546875
 40
0.935546875
 40
0.9375
 40
0.9375
 40
1.0
 40
1.0
 40
1.0
 40
1.0
 10
694.9596833124065
 20
361.8204836291414
 30
0.0
 10
695.649099187276
 20
361.3759066606076
 30
0.0
 10
696.3365649921138
 20
360.8950666164101
 30
0.0
 10
697.3648385942344
 20
360.119411936678
 30
0.0
 10
697.7071089440742
 20
359.8517946078708
 30
0.0
 10
698.2197831925554
 20
359.4367699612987
 30
0.0
 10
698.390552729336
 20
359.2961619702145
 30
0.0
 10
698.6465242154374
 20
359.0818503202478
 30
0.0
 10
698.7318175742929
 20
359.0098464930354
 30
0.0
 10
698.8597119078088
 20
358.9009908363819
 30
0.0
 10
698.9023357348528
 20
358.8645639648582
 30
0.0
 10
698.9875681540185
 20
358.7914269165324
 30
0.0
 10
699.0310265420045
 20
358.7539816266841
 30
0.0
 10
699.7407965815339
 20
358.1399974479706
 30
0.0
 10
700.3990545424107
 20
357.5343438588035
 30
0.0
 10
701.3718001339411
 20
356.5841842847802
 30
0.0
 10
701.693608439487
 20
356.2605178950603
 30
0.0
 10
702.3323446006508
 20
355.5992920521962
 30
0.0
 10
702.6505109289715
 20
355.2603759121218
 30
0.0
 10
703.5902584028231
 20
354.230928018344
 30
0.0
 10
704.205591491654
 20
353.5186812338941
 30
0.0
 10
705.111843284295
 20
352.411388774322
 30
0.0
 10
705.4111359084078
 20
352.0358042406484
 30
0.0
 10
705.8558878844257
 20
351.4626968694138
 30
0.0
 10
706.0034407164064
 20
351.2700393172149
 30
0.0
 10
706.2237232243397
 20
350.9786203462355
 30
0.0
 10
706.2969762703111
 20
350.8810752487954
 30
0.0
 10
706.4065941542589
 20
350.7341494419652
 30
0.0
 10
706.4430898347398
 20
350.6850728129101
 30
0.0
 10
706.5159939673653
 20
350.5867168345764
 30
0.0
 10
706.5535970593013
 20
350.5358152544933
 30
0.0
 10
707.1514904284433
 20
349.723921118536
 30
0.0
 10
707.7007478727502
 20
348.939779145896
 30
0.0
 10
708.5044354492348
 20
347.7335567140332
 30
0.0
 10
708.7689648764004
 20
347.3264809912619
 30
0.0
 10
709.1607093696549
 20
346.7083650388791
 30
0.0
 10
709.2904492594909
 20
346.5010759933805
 30
0.0
 10
709.483796682371
 20
346.1882668330763
 30
0.0
 10
709.5480354213522
 20
346.0836845142989
 30
0.0
 10
709.6440779268557
 20
345.9263421381185
 30
0.0
 10
709.6760394948622
 20
345.8738165297227
 30
0.0
 10
709.7398574298854
 20
345.7686090135931
 30
0.0
 10
709.7723109116122
 20
345.7149365374516
 30
0.0
 10
710.8021304214255
 20
344.0065434006089
 30
0.0
 10
711.7343919075524
 20
342.2965851177202
 30
0.0
 10
712.600302021805
 20
340.5332921997905
 30
0.0
  0
SPLINE
  5
359
330
1F
100
AcDbEntity
  8
0
  6
Continuous
 62
     7
370
    15
100
AcDbSpline
210
0.0
220
0.0
230
1.0
 70
     8
 71
     3
 72
    10
 73
     6
 74
     0
 42
0.000000001
 43
0.00000001
 40
0.4727960531394662
 40
0.4727960531394662
 40
0.4727960531394662
 40
0.4727960531394662
 40
0.4999999999999998
 40
0.4999999999999998
 40
0.5132873353764045
 40
0.5132873353764045
 40
0.5132873353764045
 40
0.5132873353764045
 10
691.373093763269
 20
363.7901793855046
 30
0.0
 10
692.1738174810627
 20
363.4268620219849
 30
0.0
 10
692.9763910763978
 20
363.0118215316037
 30
0.0
 10
694.1733716753612
 20
362.3152177780664
 30
0.0
 10
694.5664187685478
 20
362.0740923665579
 30
0.0
 10
694.9596833123651
 20
361.820483629168
 30
0.0
  0
SPLINE
  5
35A
330
1F
100
AcDbEntity
  8
0
  6
Continuous
 62
     7
370
    15
100
AcDbSpline
210
0.0
220
0.0
230
1.0
 70
     8
 71
     3
 72
    28
 73
    24
 74
     0
 42
0.000000001
 43
0.00000001
 40
0.4998315495188735
 40
0.4998315495188735
 40
0.4998315495188735
 40
0.4998315495188735
 40
0.5
 40
0.5
 40
0.53125
 40
0.53125
 40
0.546875
 40
0.546875
 40
0.5546875
 40
0.5546875
 40
0.55859375
 40
0.55859375
 40
0.5625
 40
0.5625
 40
0.59375
 40
0.59375
 40
0.609375
 40
0.609375
 40
0.6171875
 40
0.6171875
 40
0.625
 40
0.625
 40
0.6332280685784328
 40
0.6332280685784328
 40
0.6332280685784328
 40
0.6332280685784328
 10
682.9513086929816
 20
365.6350844708705
 30
0.0
 10
682.9546001168034
 20
365.6352177528689
 30
0.0
 10
682.9578954929594
 20
365.6353500753116
 30
0.0
 10
683.5733145109255
 20
365.6598530065041
 30
0.0
 10
684.196768441215
 20
365.6448457308278
 30
0.0
 10
685.148951072215
 20
365.5632665662454
 30
0.0
 10
685.4691789051427
 20
365.5262288028732
 30
0.0
 10
685.9537710884255
 20
365.455905095048
 30
0.0
 10
686.116010221835
 20
365.4300026819785
 30
0.0
 10
686.360431530422
 20
365.3874572966824
 30
0.0
 10
686.4420824013632
 20
365.3726602073017
 30
0.0
 10
686.6057383460698
 20
365.3418354399765
 30
0.0
 10
686.6865937411546
 20
365.3260405870979
 30
0.0
 10
687.4365804258786
 20
365.174158411466
 30
0.0
 10
688.1081183578258
 20
365.0000131729286
 30
0.0
 10
689.1227499073691
 20
364.6800870248257
 30
0.0
 10
689.462181199154
 20
364.5636602604085
 30
0.0
 10
689.9731592997367
 20
364.3743430412086
 30
0.0
 10
690.1437905270818
 20
364.3087911227129
 30
0.0
 10
690.4856633694075
 20
364.1727949281968
 30
0.0
 10
690.6560368346758
 20
364.1027195300807
 30
0.0
 10
691.0100379823145
 20
363.9523039972834
 30
0.0
 10
691.1915853056756
 20
363.8725437266538
 30
0.0
 10
691.373093763269
 20
363.7901793855046
 30
0.0
  0
SPLINE
  5
35B
330
1F
100
AcDbEntity
  8
0
  6
Continuous
 62
     7
370
    15
100
AcDbSpline
210
0.0
220
0.0
230
1.0
 70
     8
 71
     3
 72
    30
 73
    26
 74
     0
 42
0.000000001
 43
0.00000001
 40
0.0
 40
0.0
 40
0.0
 40
0.0
 40
0.0625
 40
0.0625
 40
0.125
 40
0.125
 40
0.1562500000000001
 40
0.1562500000000001
 40
0.1718750000000002
 40
0.1718750000000002
 40
0.1875000000000003
 40
0.1875000000000003
 40
0.2500000000000008
 40
0.2500000000000008
 40
0.2656250000000009
 40
0.2656250000000009
 40
0.2812500000000009
 40
0.2812500000000009
 40
0.312500000000001
 40
0.312500000000001
 40
0.343750000000001
 40
0.343750000000001
 40
0.3593750000000009
 40
0.3593750000000009
 40
0.3731744148620913
 40
0.3731744148620913
 40
0.3731744148620913
 40
0.3731744148620913
 10
667.8841415388831
 20
342.462097139288
 30
0.0
 10
667.8841415388831
 20
344.5923229936242
 30
0.0
 10
668.0265801388791
 20
346.6280162522671
 30
0.0
 10
668.5949783813421
 20
350.5082191769909
 30
0.0
 10
669.0174957113136
 20
352.3236732392807
 30
0.0
 10
669.8623870925294
 20
354.8472419007769
 30
0.0
 10
670.1797141162796
 20
355.6556977557134
 30
0.0
 10
670.7110327822422
 20
356.8164603882551
 30
0.0
 10
670.8974223051042
 20
357.1948262897368
 30
0.0
 10
671.2892933688753
 20
357.9337620113519
 30
0.0
 10
671.4948648384669
 20
358.2943517774903
 30
0.0
 10
672.5630630810676
 20
360.0371280113537
 30
0.0
 10
673.5510394084462
 20
361.2524152072428
 30
0.0
 10
674.9683283783482
 20
362.5266952066336
 30
0.0
 10
675.2612113512156
 20
362.7693247198083
 30
0.0
 10
675.8659373919054
 20
363.2287022855676
 30
0.0
 10
676.1786083886008
 20
363.4459942402057
 30
0.0
 10
677.1393405053287
 20
364.0534326074205
 30
0.0
 10
677.8094719561009
 20
364.3994365356941
 30
0.0
 10
679.2108834131507
 20
364.9709001512869
 30
0.0
 10
679.9423982304268
 20
365.1964503220409
 30
0.0
 10
681.088493492964
 20
365.4380947472965
 30
0.0
 10
681.4788363589697
 20
365.5025188970116
 30
0.0
 10
682.2300536954095
 20
365.5918687742089
 30
0.0
 10
682.5888859278562
 20
365.6204087401322
 30
0.0
 10
682.9513086513264
 20
365.6350845848299
 30
0.0
  0
LINE
  5
35C
330
1F
100
AcDbEntity
  8
0
  6
Continuous
 62
     7
370
    15
100
AcDbLine
 10
667.8841415389
 20
277.6692993399
 30
0.0
 11
667.8841415389
 21
342.4620971393
 31
0.0
  0
SPLINE
  5
35D
330
1F
100
AcDbEntity
  8
0
  6
Continuous
 62
     7
370
    15
100
AcDbSpline
210
0.0
220
0.0
230
1.0
 70
     8
 71
     3
 72
    18
 73
    14
 74
     0
 42
0.000000001
 43
0.00000001
 40
0.7736746380878748
 40
0.7736746380878748
 40
0.7736746380878748
 40
0.7736746380878748
 40
0.8124999999999979
 40
0.8124999999999979
 40
0.843749999999998
 40
0.843749999999998
 40
0.8593749999999981
 40
0.8593749999999981
 40
0.8749999999999982
 40
0.8749999999999982
 40
0.9374999999999991
 40
0.9374999999999991
 40
1.0
 40
1.0
 40
1.0
 40
1.0
 10
673.387092657835
 20
252.8295801798014
 30
0.0
 10
672.7582882496599
 20
254.2804114486038
 30
0.0
 10
672.1861451265854
 20
255.7344390908989
 30
0.0
 10
671.247721654926
 20
258.3636164945262
 30
0.0
 10
670.8630318545656
 20
259.5389067642203
 30
0.0
 10
670.3364471346835
 20
261.3044406043604
 30
0.0
 10
670.1692823516665
 20
261.8935788745155
 30
0.0
 10
669.8518153390203
 20
263.0728994270714
 30
0.0
 10
669.7012225857735
 20
263.6644040899698
 30
0.0
 10
668.9963749276407
 20
266.6005631882924
 30
0.0
 10
668.5819784484611
 20
268.8896283776577
 30
0.0
 10
668.0261423635963
 20
273.3594107541916
 30
0.0
 10
667.8841415388831
 20
275.5421793040324
 30
0.0
 10
667.8841415388831
 20
277.669299339898
 30
0.0
  0
SPLINE
  5
35E
330
1F
100
AcDbEntity
  8
0
  6
Continuous
 62
     7
370
    15
100
AcDbSpline
210
0.0
220
0.0
230
1.0
 70
     8
 71
     3
 72
    70
 73
    66
 74
     0
 42
0.000000001
 43
0.00000001
 40
0.369098148744061
 40
0.369098148744061
 40
0.369098148744061
 40
0.369098148744061
 40
0.37109375
 40
0.37109375
 40
0.375
 40
0.375
 40
0.40625
 40
0.40625
 40
0.421875
 40
0.421875
 40
0.4296875
 40
0.4296875
 40
0.43359375
 40
0.43359375
 40
0.4375
 40
0.4375
 40
0.46875
 40
0.46875
 40
0.484375
 40
0.484375
 40
0.4921875
 40
0.4921875
 40
0.49609375
 40
0.49609375
 40
0.5
 40
0.5
 40
0.53125
 40
0.53125
 40
0.546875
 40
0.546875
 40
0.5546875
 40
0.5546875
 40
0.55859375
 40
0.55859375
 40
0.560546875
 40
0.560546875
 40
0.5625
 40
0.5625
 40
0.59375
 40
0.59375
 40
0.609375
 40
0.609375
 40
0.6171875
 40
0.6171875
 40
0.62109375
 40
0.62109375
 40
0.623046875
 40
0.623046875
 40
0.625
 40
0.625
 40
0.65625
 40
0.65625
 40
0.671875
 40
0.671875
 40
0.6796875
 40
0.6796875
 40
0.68359375
 40
0.68359375
 40
0.685546875
 40
0.685546875
 40
0.6865234375
 40
0.6865234375
 40
0.6875
 40
0.6875
 40
0.6976227210619462
 40
0.6976227210619462
 40
0.6976227210619462
 40
0.6976227210619462
 10
691.120258652766
 20
229.400326785324
 30
0.0
 10
691.0760263744369
 20
229.4319188799773
 30
0.0
 10
691.0317913466796
 20
229.4636684869809
 30
0.0
 10
690.9009612121195
 20
229.5580315627066
 30
0.0
 10
690.8131914573837
 20
229.621948705477
 30
0.0
 10
690.0441723851098
 20
230.1871965055382
 30
0.0
 10
689.3651952257699
 20
230.723119371305
 30
0.0
 10
688.353622510782
 20
231.5772242351904
 30
0.0
 10
688.017580443123
 20
231.8702959506914
 30
0.0
 10
687.5152405976401
 20
232.3224586652518
 30
0.0
 10
687.3480811918133
 20
232.4752720936567
 30
0.0
 10
687.0977728970745
 20
232.7076310215913
 30
0.0
 10
687.0144086011619
 20
232.7856071284573
 30
0.0
 10
686.8478236140037
 20
232.9426056039652
 30
0.0
 10
686.7631267141888
 20
233.0230402073294
 30
0.0
 10
686.028072591104
 20
233.7262395905948
 30
0.0
 10
685.3849863723768
 20
234.3786645099661
 30
0.0
 10
684.4357998803087
 20
235.3983400903924
 30
0.0
 10
684.1219781889564
 20
235.7450716507628
 30
0.0
 10
683.6551063609335
 20
236.2754285416607
 30
0.0
 10
683.5001258697602
 20
236.4539240970172
 30
0.0
 10
683.2686203102515
 20
236.7242323176373
 30
0.0
 10
683.1916126532907
 20
236.8147625391083
 30
0.0
 10
683.0379190651191
 20
236.9966779445788
 30
0.0
 10
682.9600730900714
 20
237.0894549171626
 30
0.0
 10
682.2817878695895
 20
237.9032428072779
 30
0.0
 10
681.6906752401954
 20
238.6509691644565
 30
0.0
 10
680.8217176459892
 20
239.8090977158386
 30
0.0
 10
680.5350170062345
 20
240.201230402235
 30
0.0
 10
680.1093938840737
 20
240.7985641857332
 30
0.0
 10
679.968257482932
 20
240.9991979058832
 30
0.0
 10
679.7576598405873
 20
241.3024321745841
 30
0.0
 10
679.6876451197003
 20
241.403890878897
 30
0.0
 10
679.5828997782118
 20
241.5566498574854
 30
0.0
 10
679.5480307876892
 20
241.6076646707013
 30
0.0
 10
679.4783850532582
 20
241.7098846045062
 30
0.0
 10
679.4424664838596
 20
241.7627763048282
 30
0.0
 10
678.871456966967
 20
242.606209112049
 30
0.0
 10
678.3488683447787
 20
243.4172284201875
 30
0.0
 10
677.5872335608854
 20
244.6595576755853
 30
0.0
 10
677.3370633244857
 20
245.0779674762496
 30
0.0
 10
676.9673700072336
 20
245.7120322505436
 30
0.0
 10
676.8450659077075
 20
245.9244621875245
 30
0.0
 10
676.663000267755
 20
246.2447196113202
 30
0.0
 10
676.6025434726605
 20
246.3517408389729
 30
0.0
 10
676.5122059073526
 20
246.5126758100329
 30
0.0
 10
676.4821513234724
 20
246.5663879886498
 30
0.0
 10
676.42215803149
 20
246.6739467224106
 30
0.0
 10
676.3915777437238
 20
246.7289508769448
 30
0.0
 10
675.8945115043884
 20
247.6258053252364
 30
0.0
 10
675.443419977409
 20
248.4821185479782
 30
0.0
 10
674.7918859696503
 20
249.7849107597921
 30
0.0
 10
674.5788918475157
 20
250.2222285600136
 30
0.0
 10
674.2656764849914
 20
250.8827858547711
 30
0.0
 10
674.162317334263
 20
251.1037350520944
 30
0.0
 10
674.0088475633397
 20
251.4363039966858
 30
0.0
 10
673.9579524655601
 20
251.5473511696507
 30
0.0
 10
673.8820020576833
 20
251.7142082162495
 30
0.0
 10
673.8567506281896
 20
251.7698749463077
 30
0.0
 10
673.8189715436473
 20
251.8534466131829
 30
0.0
 10
673.8063948587495
 20
251.881315764106
 30
0.0
 10
673.78127417552
 20
251.9370779232147
 30
0.0
 10
673.7682435413041
 20
251.9660548967198
 30
0.0
 10
673.6313893347577
 20
252.2708931104131
 30
0.0
 10
673.5083527133229
 20
252.5497945476077
 30
0.0
 10
673.387092657835
 20
252.8295801798014
 30
0.0
  0
SPLINE
  5
35F
330
1F
100
AcDbEntity
  8
0
  6
Continuous
 62
     7
370
    15
100
AcDbSpline
210
0.0
220
0.0
230
1.0
 70
     8
 71
     3
 72
    30
 73
    26
 74
     0
 42
0.000000001
 43
0.00000001
 40
0.2518650364928033
 40
0.2518650364928033
 40
0.2518650364928033
 40
0.2518650364928033
 40
0.2656249999999944
 40
0.2656249999999944
 40
0.2812499999999946
 40
0.2812499999999946
 40
0.3124999999999948
 40
0.3124999999999948
 40
0.343749999999995
 40
0.343749999999995
 40
0.3593749999999951
 40
0.3593749999999951
 40
0.3749999999999953
 40
0.3749999999999953
 40
0.4062499999999954
 40
0.4062499999999954
 40
0.4374999999999956
 40
0.4374999999999956
 40
0.4531249999999957
 40
0.4531249999999957
 40
0.4687499999999958
 40
0.4687499999999958
 40
0.4999999999999962
 40
0.4999999999999962
 40
0.5280004067635662
 40
0.5280004067635662
 40
0.5280004067635662
 40
0.5280004067635662
 10
712.6003020218054
 20
227.969924369163
 30
0.0
 10
712.3486962689564
 20
227.7480679116322
 30
0.0
 10
712.0897759968793
 20
227.5357594882769
 30
0.0
 10
711.5211407124789
 20
227.1037981120894
 30
0.0
 10
711.2084697157833
 20
226.8865061574513
 30
0.0
 10
710.2477375990554
 20
226.2790677902365
 30
0.0
 10
709.5776061482834
 20
225.9330638619629
 30
0.0
 10
708.1761946912337
 20
225.3616002463702
 30
0.0
 10
707.4446798739574
 20
225.1360500756161
 30
0.0
 10
706.2985846114202
 20
224.8944056503605
 30
0.0
 10
705.9082417454147
 20
224.8299815006454
 30
0.0
 10
705.1104164743336
 20
224.7350880702915
 30
0.0
 10
704.7031349520852
 20
224.7047741829509
 30
0.0
 10
703.4689748653637
 20
224.6674125894282
 30
0.0
 10
702.6262215883575
 20
224.7135072064465
 30
0.0
 10
700.9015920250342
 20
224.9458588662463
 30
0.0
 10
700.0192190151397
 20
225.1321112223209
 30
0.0
 10
698.6650726360481
 20
225.5209057037939
 30
0.0
 10
698.2068622384787
 20
225.6694539407077
 30
0.0
 10
697.2896552601268
 20
226.0009893163482
 30
0.0
 10
696.8307253931708
 20
226.1837846441653
 30
0.0
 10
695.4519590541295
 20
226.7833518718017
 30
0.0
 10
694.5302941839661
 20
227.2510713938204
 30
0.0
 10
692.778766856141
 20
228.2704032961443
 30
0.0
 10
691.9499051149892
 20
228.8077711967324
 30
0.0
 10
691.120259078266
 20
229.4003306829509
 30
0.0
  0
LINE
  5
360
330
1F
100
AcDbEntity
  8
0
  6
Continuous
 62
     7
370
    15
100
AcDbLine
 10
712.6003020218
 20
227.9699243692
 30
0.0
 11
712.9705422667
 21
227.8436946589
 31
0.0
  0
SPLINE
  5
361
330
1F
100
AcDbEntity
  8
0
  6
Continuous
 62
     7
370
    15
100
AcDbSpline
210
0.0
220
0.0
230
1.0
 70
     8
 71
     3
 72
    16
 73
    12
 74
     0
 42
0.000000001
 43
0.00000001
 40
0.0
 40
0.0
 40
0.0
 40
0.0
 40
0.0078905468385886
 40
0.0078905468385886
 40
0.0118358202578828
 40
0.0118358202578828
 40
0.0157810936771771
 40
0.0157810936771771
 40
0.0236716405157657
 40
0.0236716405157657
 40
0.0315621873543542
 40
0.0315621873543542
 40
0.0315621873543542
 40
0.0315621873543542
 10
720.5208109433933
 20
247.2827968875652
 30
0.0
 10
720.5208109433933
 20
245.1029897298227
 30
0.0
 10
720.3564209451663
 20
243.0510330508161
 30
0.0
 10
719.8766270708878
 20
240.1545361217128
 30
0.0
 10
719.6775619351557
 20
239.2194797501469
 30
0.0
 10
719.1983910711276
 20
237.4124092860473
 30
0.0
 10
718.9180169057753
 20
236.5395795482815
 30
0.0
 10
717.9518847674668
 20
234.0246303463968
 30
0.0
 10
717.1597692594127
 20
232.5331243493453
 30
0.0
 10
715.2882323614164
 20
229.9094243072766
 30
0.0
 10
714.2085956202762
 20
228.7774814462434
 30
0.0
 10
712.970542266652
 20
227.8436946589351
 30
0.0
  0
LINE
  5
362
330
1F
100
AcDbEntity
  8
0
  6
Continuous
 62
     7
370
    15
100
AcDbLine
 10
742.4839069541
 20
376.7612496747
 30
0.0
 11
741.0696933917
 21
375.9448415629
 31
0.0
  0
LINE
  5
363
330
1F
100
AcDbEntity
  8
0
  6
Continuous
 62
     7
370
    15
100
AcDbLine
 10
730.4630916739
 20
394.3160145798
 30
0.0
 11
731.8773052363
 21
395.1324226916
 31
0.0
  0
ARC
  5
364
330
1F
100
AcDbEntity
  8
0
  6
Continuous
 62
     7
370
    15
100
AcDbCircle
 10
719.4556654336
 20
375.7133368908
 30
0.0
 40
23.05207211358051
100
AcDbArc
 50
2.6054784857
 51
57.39452166
  0
LINE
  5
365
330
1F
100
AcDbEntity
  8
0
  6
Continuous
 62
     7
370
    15
100
AcDbLine
 10
741.0696933917
 20
226.7559326201
 30
0.0
 11
742.4839069541
 21
227.5723407319
 31
0.0
  0
LINE
  5
366
330
1F
100
AcDbEntity
  8
0
  6
Continuous
 62
     7
370
    15
100
AcDbLine
 10
742.4839069541
 20
227.5723407319
 30
0.0
 11
742.4839069541
 21
376.7612496747
 31
0.0
  0
LINE
  5
367
330
1F
100
AcDbEntity
  8
0
  6
Continuous
 62
     7
370
    15
100
AcDbLine
 10
590.455948999
 20
476.7732338739
 30
0.0
 11
589.0417354366
 21
475.9568257621
 31
0.0
  0
LINE
  5
368
330
1F
100
AcDbEntity
  8
0
  6
Continuous
 62
     7
370
    15
100
AcDbLine
 10
731.8773052363
 20
395.1324226916
 30
0.0
 11
590.455948999
 21
476.7732338739
 31
0.0
  0
ARC
  5
369
330
1F
100
AcDbEntity
  8
0
  6
Continuous
 62
     7
370
    15
100
AcDbCircle
 10
702.4177833739
 20
397.7985974802
 30
0.0
 40
3.238879265310621
100
AcDbArc
 50
177.290591187
 51
242.7040322803
  0
LINE
  5
36A
330
1F
100
AcDbEntity
  8
0
  6
Continuous
 62
     7
370
    15
100
AcDbLine
 10
720.6769587799
 20
340.0739969647
 30
0.0
 11
720.7068869052
 21
340.4307565022
 31
0.0
  0
ARC
  5
36B
330
1F
100
AcDbEntity
  8
0
  6
Continuous
 62
     7
370
    15
100
AcDbCircle
 10
724.2848008673
 20
340.1340277234
 30
0.0
 40
3.608341477761639
100
AcDbArc
 50
180.953254513
 51
245.1488516488
  0
LINE
  5
36C
330
1F
100
AcDbEntity
  8
0
  6
Continuous
 62
     7
370
    15
100
AcDbLine
 10
667.8841415389
 20
342.4620971393
 30
0.0
 11
669.2983551013
 21
343.2785052511
 31
0.0
  0
SPLINE
  5
36D
330
1F
100
AcDbEntity
  8
0
  6
Continuous
 62
     7
370
    15
100
AcDbSpline
210
0.0
220
0.0
230
1.0
 70
     8
 71
     3
 72
    14
 73
    10
 74
     0
 42
0.000000001
 43
0.00000001
 40
0.0
 40
0.0
 40
0.0
 40
0.0
 40
0.158231175008896
 40
0.3164331825017468
 40
0.4737173508540796
 40
0.6312957028557218
 40
0.7897408991444076
 40
0.947547170754525
 40
1.0
 40
1.0
 40
1.0
 40
1.0
 10
669.2983551012562
 20
343.2785052511107
 30
0.0
 10
669.3350157640891
 20
344.6743531371403
 30
0.0
 10
669.408330331918
 20
347.4657916058227
 30
0.0
 10
669.9954697227621
 20
351.3247173715428
 30
0.0
 10
670.9323178673078
 20
354.8835772784316
 30
0.0
 10
672.2505831874721
 20
358.0894231125337
 30
0.0
 10
673.9721667469789
 20
360.8448905130749
 30
0.0
 10
675.533444117887
 20
362.7319785034996
 30
0.0
 10
676.6359664213464
 20
363.4833404876023
 30
0.0
 10
676.911009993241
 20
363.670780944131
 30
0.0
  0
LINE
  5
36E
330
1F
100
AcDbEntity
  8
0
  6
Continuous
 62
     7
370
    15
100
AcDbLine
 10
667.9651506733
 20
370.5038760665
 30
0.0
 11
667.9950787987
 21
370.860635604
 31
0.0
  0
ARC
  5
36F
330
1F
100
AcDbEntity
  8
0
  6
Continuous
 62
     7
370
    15
100
AcDbCircle
 10
671.5729927608
 20
370.5639068252
 30
0.0
 40
3.60834147776221
100
AcDbArc
 50
180.953254513
 51
245.1488516488
  0
LINE
  5
370
330
1F
100
AcDbEntity
  8
0
  6
Continuous
 62
     7
370
    15
100
AcDbLine
 10
619.9776571135
 20
443.4815523831
 30
0.0
 11
619.9865652749
 21
443.6705551281
 31
0.0
  0
ARC
  5
371
330
1F
100
AcDbEntity
  8
0
  6
Continuous
 62
     7
370
    15
100
AcDbCircle
 10
623.249729032
 20
443.5409765207
 30
0.0
 40
3.272611475297922
100
AcDbArc
 50
181.0404349668
 51
242.4587537062
  0
ARC
  5
372
330
1F
100
AcDbEntity
  8
0
  6
Continuous
 62
     7
370
    15
100
AcDbCircle
 10
735.0714867855
 20
226.7892681572
 30
0.0
 40
7.453668587483992
100
AcDbArc
 50
305.2816330821
 51
6.0305473113
  0
LINE
  5
373
330
1F
100
AcDbEntity
  8
0
  6
Continuous
 62
     7
370
    15
100
AcDbLine
 10
667.8841415389
 20
277.6692993399
 30
0.0
 11
669.2983551013
 21
278.4857074517
 31
0.0
  0
LINE
  5
374
330
1F
100
AcDbEntity
  8
0
  6
Continuous
 62
     7
370
    15
100
AcDbLine
 10
669.2983551013
 20
278.4857074517
 30
0.0
 11
669.2983551013
 21
343.2785052511
 31
0.0
  0
ARC
  5
375
330
1F
100
AcDbEntity
  8
0
  6
Continuous
 62
     7
370
    15
100
AcDbCircle
 10
586.0582236983
 20
470.6003824138
 30
0.0
 40
7.579187487338662
100
AcDbArc
 50
54.5327836208
 51
114.1567579501
  0
LINE
  5
376
330
1F
100
AcDbEntity
  8
0
  6
Continuous
 62
     7
370
    15
100
AcDbLine
 10
720.6769587799
 20
221.6755792413
 30
0.0
 11
720.7068869055
 21
222.0323387803
 31
0.0
  0
ARC
  5
377
330
1F
100
AcDbEntity
  8
0
  6
Continuous
 62
     7
370
    15
100
AcDbCircle
 10
724.2848008667
 20
221.7356099997
 30
0.0
 40
3.608341477086143
100
AcDbArc
 50
180.9532545088
 51
245.1488516827
  0
LINE
  5
378
330
1F
100
AcDbEntity
  8
0
  6
Continuous
 62
     7
370
    15
100
AcDbLine
 10
712.6003020218
 20
227.9699243692
 30
0.0
 11
713.8347566756
 21
228.6825598719
 31
0.0
  0
LINE
  5
379
330
1F
100
AcDbEntity
  8
0
  6
Continuous
 62
     7
370
    15
100
AcDbLine
 10
691.1202588655
 20
229.4003287341
 30
0.0
 11
692.5344724279
 21
230.216736846
 31
0.0
  0
SPLINE
  5
37A
330
1F
100
AcDbEntity
  8
0
  6
Continuous
 62
     7
370
    15
100
AcDbSpline
210
0.0
220
0.0
230
1.0
 70
     8
 71
     3
 72
    13
 73
     9
 74
     0
 42
0.000000001
 43
0.00000001
 40
0.0
 40
0.0
 40
0.0
 40
0.0
 40
0.1443503161430462
 40
0.3275979572195677
 40
0.5101013386014385
 40
0.6936467187540835
 40
0.8760861487594934
 40
1.0
 40
1.0
 40
1.0
 40
1.0
 10
710.9764312349608
 20
226.831638008285
 30
0.0
 10
710.2532580356769
 20
226.505022921298
 30
0.0
 10
708.6120419363193
 20
225.7637814875903
 30
0.0
 10
705.6748610239931
 20
225.3954583560354
 30
0.0
 10
702.2827076678991
 20
225.6675327143122
 30
0.0
 10
698.7007034152422
 20
226.7140329279329
 30
0.0
 10
695.410221204719
 20
228.2742121441679
 30
0.0
 10
693.3626676220109
 20
229.6573050378355
 30
0.0
 10
692.534472640639
 20
230.2167387947736
 30
0.0
  0
LINE
  5
37B
330
1F
100
AcDbEntity
  8
0
  6
Continuous
 62
     7
370
    15
100
AcDbLine
 10
614.9321420843
 20
392.953772141
 30
0.0
 11
614.9620702097
 21
393.3105316784
 31
0.0
  0
ARC
  5
37C
330
1F
100
AcDbEntity
  8
0
  6
Continuous
 62
     7
370
    15
100
AcDbCircle
 10
618.5399841718
 20
393.0138028997
 30
0.0
 40
3.608341477761553
100
AcDbArc
 50
180.953254513
 51
245.1488516488
  0
LINE
  5
37D
330
1F
100
AcDbEntity
  8
0
  6
Continuous
 62
     7
370
    15
100
AcDbLine
 10
673.3870926578
 20
252.8295801798
 30
0.0
 11
674.8013062202
 21
253.6459882916
 31
0.0
  0
SPLINE
  5
37E
330
1F
100
AcDbEntity
  8
0
  6
Continuous
 62
     7
370
    15
100
AcDbSpline
210
0.0
220
0.0
230
1.0
 70
     8
 71
     3
 72
    70
 73
    66
 74
     0
 42
0.000000001
 43
0.00000001
 40
0.369098148744061
 40
0.369098148744061
 40
0.369098148744061
 40
0.369098148744061
 40
0.37109375
 40
0.37109375
 40
0.375
 40
0.375
 40
0.40625
 40
0.40625
 40
0.421875
 40
0.421875
 40
0.4296875
 40
0.4296875
 40
0.43359375
 40
0.43359375
 40
0.4375
 40
0.4375
 40
0.46875
 40
0.46875
 40
0.484375
 40
0.484375
 40
0.4921875
 40
0.4921875
 40
0.49609375
 40
0.49609375
 40
0.5
 40
0.5
 40
0.53125
 40
0.53125
 40
0.546875
 40
0.546875
 40
0.5546875
 40
0.5546875
 40
0.55859375
 40
0.55859375
 40
0.560546875
 40
0.560546875
 40
0.5625
 40
0.5625
 40
0.59375
 40
0.59375
 40
0.609375
 40
0.609375
 40
0.6171875
 40
0.6171875
 40
0.62109375
 40
0.62109375
 40
0.623046875
 40
0.623046875
 40
0.625
 40
0.625
 40
0.65625
 40
0.65625
 40
0.671875
 40
0.671875
 40
0.6796875
 40
0.6796875
 40
0.68359375
 40
0.68359375
 40
0.685546875
 40
0.685546875
 40
0.6865234375
 40
0.6865234375
 40
0.6875
 40
0.6875
 40
0.6976227210619466
 40
0.6976227210619466
 40
0.6976227210619466
 40
0.6976227210619466
 10
692.5344722151391
 20
230.2167348971467
 30
0.0
 10
692.4902399368099
 20
230.2483269918
 30
0.0
 10
692.4460049090526
 20
230.2800765988036
 30
0.0
 10
692.3151747744926
 20
230.3744396745293
 30
0.0
 10
692.2274050197569
 20
230.4383568172997
 30
0.0
 10
691.458385947483
 20
231.0036046173609
 30
0.0
 10
690.7794087881431
 20
231.5395274831277
 30
0.0
 10
689.7678360731551
 20
232.3936323470131
 30
0.0
 10
689.4317940054962
 20
232.6867040625141
 30
0.0
 10
688.9294541600132
 20
233.1388667770745
 30
0.0
 10
688.7622947541864
 20
233.2916802054794
 30
0.0
 10
688.5119864594477
 20
233.524039133414
 30
0.0
 10
688.428622163535
 20
233.6020152402801
 30
0.0
 10
688.2620371763767
 20
233.7590137157879
 30
0.0
 10
688.177340276562
 20
233.8394483191521
 30
0.0
 10
687.442286153477
 20
234.5426477024176
 30
0.0
 10
686.7991999347499
 20
235.1950726217888
 30
0.0
 10
685.8500134426819
 20
236.2147482022151
 30
0.0
 10
685.5361917513295
 20
236.5614797625855
 30
0.0
 10
685.0693199233067
 20
237.0918366534835
 30
0.0
 10
684.9143394321333
 20
237.2703322088399
 30
0.0
 10
684.6828338726248
 20
237.54064042946
 30
0.0
 10
684.6058262156637
 20
237.631170650931
 30
0.0
 10
684.4521326274922
 20
237.8130860564015
 30
0.0
 10
684.3742866524445
 20
237.9058630289854
 30
0.0
 10
683.6960014319626
 20
238.7196509191006
 30
0.0
 10
683.1048888025686
 20
239.4673772762792
 30
0.0
 10
682.2359312083622
 20
240.6255058276613
 30
0.0
 10
681.9492305686076
 20
241.0176385140577
 30
0.0
 10
681.5236074464468
 20
241.6149722975559
 30
0.0
 10
681.3824710453051
 20
241.8156060177059
 30
0.0
 10
681.1718734029604
 20
242.1188402864068
 30
0.0
 10
681.1018586820734
 20
242.2202989907197
 30
0.0
 10
680.9971133405849
 20
242.3730579693081
 30
0.0
 10
680.9622443500624
 20
242.424072782524
 30
0.0
 10
680.8925986156313
 20
242.5262927163289
 30
0.0
 10
680.8566800462326
 20
242.5791844166509
 30
0.0
 10
680.2856705293402
 20
243.4226172238717
 30
0.0
 10
679.7630819071519
 20
244.2336365320102
 30
0.0
 10
679.0014471232585
 20
245.475965787408
 30
0.0
 10
678.7512768868589
 20
245.8943755880723
 30
0.0
 10
678.3815835696067
 20
246.5284403623663
 30
0.0
 10
678.2592794700806
 20
246.7408702993472
 30
0.0
 10
678.0772138301282
 20
247.0611277231429
 30
0.0
 10
678.0167570350335
 20
247.1681489507956
 30
0.0
 10
677.9264194697257
 20
247.3290839218556
 30
0.0
 10
677.8963648858455
 20
247.3827961004725
 30
0.0
 10
677.8363715938631
 20
247.4903548342333
 30
0.0
 10
677.8057913060969
 20
247.5453589887675
 30
0.0
 10
677.3087250667616
 20
248.4422134370591
 30
0.0
 10
676.8576335397821
 20
249.2985266598009
 30
0.0
 10
676.2060995320234
 20
250.6013188716148
 30
0.0
 10
675.9931054098888
 20
251.0386366718363
 30
0.0
 10
675.6798900473647
 20
251.6991939665938
 30
0.0
 10
675.5765308966362
 20
251.9201431639171
 30
0.0
 10
675.4230611257128
 20
252.2527121085085
 30
0.0
 10
675.3721660279333
 20
252.3637592814734
 30
0.0
 10
675.2962156200563
 20
252.5306163280722
 30
0.0
 10
675.2709641905626
 20
252.5862830581304
 30
0.0
 10
675.2331851060204
 20
252.6698547250056
 30
0.0
 10
675.2206084211226
 20
252.6977238759287
 30
0.0
 10
675.1954877378931
 20
252.7534860350374
 30
0.0
 10
675.182457103677
 20
252.7824630085425
 30
0.0
 10
675.0456028971308
 20
253.0873012222358
 30
0.0
 10
674.9225662756959
 20
253.3662026594304
 30
0.0
 10
674.8013062202081
 20
253.6459882916241
 30
0.0
  0
SPLINE
  5
37F
330
1F
100
AcDbEntity
  8
0
  6
Continuous
 62
     7
370
    15
100
AcDbSpline
210
0.0
220
0.0
230
1.0
 70
     8
 71
     3
 72
    18
 73
    14
 74
     0
 42
0.000000001
 43
0.00000001
 40
0.773674638087875
 40
0.773674638087875
 40
0.773674638087875
 40
0.773674638087875
 40
0.8124999999999979
 40
0.8124999999999979
 40
0.843749999999998
 40
0.843749999999998
 40
0.8593749999999981
 40
0.8593749999999981
 40
0.8749999999999982
 40
0.8749999999999982
 40
0.9374999999999991
 40
0.9374999999999991
 40
1.0
 40
1.0
 40
1.0
 40
1.0
 10
674.8013062202081
 20
253.6459882916241
 30
0.0
 10
674.172501812033
 20
255.0968195604265
 30
0.0
 10
673.6003586889585
 20
256.5508472027216
 30
0.0
 10
672.6619352172991
 20
259.1800246063489
 30
0.0
 10
672.2772454169386
 20
260.355314876043
 30
0.0
 10
671.7506606970566
 20
262.1208487161831
 30
0.0
 10
671.5834959140395
 20
262.7099869863383
 30
0.0
 10
671.2660289013934
 20
263.8893075388941
 30
0.0
 10
671.1154361481465
 20
264.4808122017926
 30
0.0
 10
670.4105884900138
 20
267.4169713001152
 30
0.0
 10
669.9961920108342
 20
269.7060364894804
 30
0.0
 10
669.4403559259692
 20
274.1758188660143
 30
0.0
 10
669.2983551012562
 20
276.3585874158551
 30
0.0
 10
669.2983551012562
 20
278.4857074517207
 30
0.0
  0
LINE
  5
380
330
1F
100
AcDbEntity
  8
0
  6
Continuous
 62
     7
370
    15
100
AcDbLine
 10
667.9651506733
 20
252.105458343
 30
0.0
 11
667.9950787987
 21
252.4622178805
 31
0.0
  0
ARC
  5
381
330
1F
100
AcDbEntity
  8
0
  6
Continuous
 62
     7
370
    15
100
AcDbCircle
 10
671.5729927608
 20
252.1654891017
 30
0.0
 40
3.608341477762325
100
AcDbArc
 50
180.953254513
 51
245.1488516487
  0
LINE
  5
382
330
1F
100
AcDbEntity
  8
0
  6
Continuous
 62
     7
370
    15
100
AcDbLine
 10
666.8234813671
 20
223.746951847
 30
0.0
 11
668.2376949295
 21
224.5633599589
 31
0.0
  0
LINE
  5
383
330
1F
100
AcDbEntity
  8
0
  6
Continuous
 62
     7
370
    15
100
AcDbLine
 10
668.2376949295
 20
224.5633599589
 30
0.0
 11
668.2376949295
 21
234.2681766474
 31
0.0
  0
LWPOLYLINE
  5
384
330
1F
100
AcDbEntity
  8
0
  6
Continuous
 62
     7
370
    15
100
AcDbPolyline
 90
       14
 70
   128
 43
0.0
 10
662.8572581663
 20
228.1664467415
 10
662.7006377885
 20
228.1641498125
 10
661.9533574244
 20
228.2935926939
 10
661.1666271176
 20
228.645400518
 10
660.3798968108
 20
229.2019321715
 10
659.6326164467
 20
229.9352808335
 10
658.9622577831
 20
230.8086733398
 10
658.4024354026
 20
231.7783141433
 10
657.981221137
 20
232.795581405
 10
657.7197364283
 20
233.8094650969
 10
657.6310932117
 20
234.769124857
 10
657.7197364283
 20
235.6264393376
 10
657.981221137
 20
236.3384192111
 10
658.0617825065
 20
236.4733543015
  0
LINE
  5
385
330
1F
100
AcDbEntity
  8
0
  6
Continuous
 62
     7
370
    15
100
AcDbLine
 10
664.7021610235
 20
222.521676179
 30
0.0
 11
663.2879474612
 21
221.7052680672
 31
0.0
  0
LINE
  5
386
330
1F
100
AcDbEntity
  8
0
  6
Continuous
 62
     7
370
    15
100
AcDbLine
 10
668.2376949295
 20
224.5633599589
 30
0.0
 11
664.7021610235
 21
222.521676179
 31
0.0
  0
LINE
  5
387
330
1F
100
AcDbEntity
  8
0
  6
Continuous
 62
     7
370
    15
100
AcDbLine
 10
651.267132181
 20
244.0650739893
 30
0.0
 11
652.6813457434
 21
244.8814821011
 31
0.0
  0
LINE
  5
388
330
1F
100
AcDbEntity
  8
0
  6
Continuous
 62
     7
370
    15
100
AcDbLine
 10
614.9321420843
 20
282.7207625364
 30
0.0
 11
614.9620702097
 21
283.0775220739
 31
0.0
  0
ARC
  5
389
330
1F
100
AcDbEntity
  8
0
  6
Continuous
 62
     7
370
    15
100
AcDbCircle
 10
618.5399841718
 20
282.7807932951
 30
0.0
 40
3.608341477761977
100
AcDbArc
 50
180.953254513
 51
245.1488516488
  0
ENDSEC
  0
SECTION
  2
OBJECTS
  0
DICTIONARY
  5
C
330
0
100
AcDbDictionary
281
     1
  3
ACAD_GROUP
350
D
  3
ACAD_LAYOUT
350
1A
  3
ACAD_MLINESTYLE
350
17
  3
ACAD_PLOTSETTINGS
350
19
  3
ACAD_PLOTSTYLENAME
350
E
  3
ACAD_SCALELIST
350
47
  0
DICTIONARY
  5
D
102
{ACAD_REACTORS
330
C
102
}
330
C
100
AcDbDictionary
281
     1
  0
DICTIONARY
  5
1A
102
{ACAD_REACTORS
330
C
102
}
330
C
100
AcDbDictionary
281
     1
  3
Layout1
350
1E
  3
Layout2
350
26
  3
Model
350
22
  0
DICTIONARY
  5
17
102
{ACAD_REACTORS
330
C
102
}
330
C
100
AcDbDictionary
281
     1
  3
Standard
350
18
  0
DICTIONARY
  5
19
102
{ACAD_REACTORS
330
C
102
}
330
C
100
AcDbDictionary
281
     1
  0
ACDBDICTIONARYWDFLT
  5
E
102
{ACAD_REACTORS
330
C
102
}
330
C
100
AcDbDictionary
281
     1
  3
Normal
350
F
100
AcDbDictionaryWithDefault
340
F
  0
DICTIONARY
  5
47
102
{ACAD_REACTORS
330
C
102
}
330
C
100
AcDbDictionary
281
     1
  3
A0
350
48
  3
A1
350
49
  3
A2
350
4A
  3
A3
350
4B
  3
A4
350
4C
  3
A5
350
4D
  3
A6
350
4E
  3
A7
350
4F
  3
A8
350
50
  3
A9
350
51
  3
B0
350
52
  3
B1
350
53
  3
B2
350
54
  3
B3
350
55
  3
B4
350
56
  3
B5
350
57
  3
B6
350
58
  3
B7
350
59
  3
B8
350
5A
  3
B9
350
5B
  3
C0
350
5C
  3
C1
350
5D
  3
C2
350
5E
  3
C3
350
5F
  3
C4
350
60
  3
C5
350
61
  3
C6
350
62
  3
C7
350
63
  3
C8
350
64
  3
C9
350
65
  3
D0
350
66
  3
D1
350
67
  3
D2
350
68
  0
LAYOUT
  5
1E
102
{ACAD_REACTORS
330
1A
102
}
330
1A
100
AcDbPlotSettings
  1

  2
none_device
  4

  6

 40
0.0
 41
0.0
 42
0.0
 43
0.0
 44
0.0
 45
0.0
 46
0.0
 47
0.0
 48
0.0
 49
0.0
140
0.0
141
0.0
142
1.0
143
1.0
 70
   688
 72
     1
 73
     0
 74
     5
  7

 75
    16
147
1.0
148
0.0
149
0.0
100
AcDbLayout
  1
Layout1
 70
     1
 71
     1
 10
0.0
 20
0.0
 11
420.0
 21
297.0
 12
0.0
 22
0.0
 32
0.0
 14
1.0000000000E+20
 24
1.0000000000E+20
 34
1.0000000000E+20
 15
-1.0000000000E+20
 25
-1.0000000000E+20
 35
-1.0000000000E+20
146
0.0
 13
0.0
 23
0.0
 33
0.0
 16
1.0
 26
0.0
 36
0.0
 17
0.0
 27
1.0
 37
0.0
 76
     0
330
1B
  0
LAYOUT
  5
26
102
{ACAD_REACTORS
330
1A
102
}
330
1A
100
AcDbPlotSettings
  1

  2
none_device
  4

  6

 40
0.0
 41
0.0
 42
0.0
 43
0.0
 44
0.0
 45
0.0
 46
0.0
 47
0.0
 48
0.0
 49
0.0
140
0.0
141
0.0
142
1.0
143
1.0
 70
   688
 72
     1
 73
     0
 74
     5
  7

 75
    16
147
1.0
148
0.0
149
0.0
100
AcDbLayout
  1
Layout2
 70
     1
 71
     2
 10
0.0
 20
0.0
 11
0.0
 21
0.0
 12
0.0
 22
0.0
 32
0.0
 14
0.0
 24
0.0
 34
0.0
 15
0.0
 25
0.0
 35
0.0
146
0.0
 13
0.0
 23
0.0
 33
0.0
 16
1.0
 26
0.0
 36
0.0
 17
0.0
 27
1.0
 37
0.0
 76
     0
330
23
  0
LAYOUT
  5
22
102
{ACAD_REACTORS
330
1A
102
}
330
1A
100
AcDbPlotSettings
  1

  2
none_device
  4
Letter_(8.50_x_11.00_Inches)
  6

 40
6.35
 41
6.35
 42
6.35000508
 43
6.35000508
 44
215.9
 45
279.4
 46
0.0
 47
0.0
 48
0.0
 49
0.0
140
0.0
141
0.0
142
1.0
143
1.0
 70
  1712
 72
     1
 73
     0
 74
     0
  7

 75
     0
147
1.0
148
0.0
149
0.0
100
AcDbLayout
  1
Model
 70
     1
 71
     0
 10
0.0
 20
0.0
 11
841.0
 21
594.0
 12
0.0
 22
0.0
 32
0.0
 14
0.0
 24
0.0
 34
0.0
 15
841.0
 25
594.0
 35
0.0
146
0.0
 13
0.0
 23
0.0
 33
0.0
 16
1.0
 26
0.0
 36
0.0
 17
0.0
 27
1.0
 37
0.0
 76
     0
330
1F
331
29
  0
MLINESTYLE
  5
18
102
{ACAD_REACTORS
330
17
102
}
330
17
100
AcDbMlineStyle
  2
Standard
 70
     0
  3

 62
   256
 51
90.0
 52
90.0
 71
     2
 49
0.5
 62
   256
  6
BYLAYER
 49
-0.5
 62
   256
  6
BYLAYER
  0
ACDBPLACEHOLDER
  5
F
102
{ACAD_REACTORS
330
E
102
}
330
E
  0
SCALE
  5
48
102
{ACAD_REACTORS
330
47
102
}
330
47
100
AcDbScale
 70
     0
300
1:1
140
1.0
141
1.0
290
     1
  0
SCALE
  5
49
102
{ACAD_REACTORS
330
47
102
}
330
47
100
AcDbScale
 70
     0
300
1:2
140
1.0
141
2.0
290
     0
  0
SCALE
  5
4A
102
{ACAD_REACTORS
330
47
102
}
330
47
100
AcDbScale
 70
     0
300
1:4
140
1.0
141
4.0
290
     0
  0
SCALE
  5
4B
102
{ACAD_REACTORS
330
47
102
}
330
47
100
AcDbScale
 70
     0
300
1:5
140
1.0
141
5.0
290
     0
  0
SCALE
  5
4C
102
{ACAD_REACTORS
330
47
102
}
330
47
100
AcDbScale
 70
     0
300
1:8
140
1.0
141
8.0
290
     0
  0
SCALE
  5
4D
102
{ACAD_REACTORS
330
47
102
}
330
47
100
AcDbScale
 70
     0
300
1:10
140
1.0
141
10.0
290
     0
  0
SCALE
  5
4E
102
{ACAD_REACTORS
330
47
102
}
330
47
100
AcDbScale
 70
     0
300
1:16
140
1.0
141
16.0
290
     0
  0
SCALE
  5
4F
102
{ACAD_REACTORS
330
47
102
}
330
47
100
AcDbScale
 70
     0
300
1:20
140
1.0
141
20.0
290
     0
  0
SCALE
  5
50
102
{ACAD_REACTORS
330
47
102
}
330
47
100
AcDbScale
 70
     0
300
1:30
140
1.0
141
30.0
290
     0
  0
SCALE
  5
51
102
{ACAD_REACTORS
330
47
102
}
330
47
100
AcDbScale
 70
     0
300
1:40
140
1.0
141
40.0
290
     0
  0
SCALE
  5
52
102
{ACAD_REACTORS
330
47
102
}
330
47
100
AcDbScale
 70
     0
300
1:50
140
1.0
141
50.0
290
     0
  0
SCALE
  5
53
102
{ACAD_REACTORS
330
47
102
}
330
47
100
AcDbScale
 70
     0
300
1:100
140
1.0
141
100.0
290
     0
  0
SCALE
  5
54
102
{ACAD_REACTORS
330
47
102
}
330
47
100
AcDbScale
 70
     0
300
2:1
140
2.0
141
1.0
290
     0
  0
SCALE
  5
55
102
{ACAD_REACTORS
330
47
102
}
330
47
100
AcDbScale
 70
     0
300
4:1
140
4.0
141
1.0
290
     0
  0
SCALE
  5
56
102
{ACAD_REACTORS
330
47
102
}
330
47
100
AcDbScale
 70
     0
300
8:1
140
8.0
141
1.0
290
     0
  0
SCALE
  5
57
102
{ACAD_REACTORS
330
47
102
}
330
47
100
AcDbScale
 70
     0
300
10:1
140
10.0
141
1.0
290
     0
  0
SCALE
  5
58
102
{ACAD_REACTORS
330
47
102
}
330
47
100
AcDbScale
 70
     0
300
100:1
140
100.0
141
1.0
290
     0
  0
SCALE
  5
59
102
{ACAD_REACTORS
330
47
102
}
330
47
100
AcDbScale
 70
     0
300
1/128" = 1'-0"
140
0.0078125
141
12.0
290
     0
  0
SCALE
  5
5A
102
{ACAD_REACTORS
330
47
102
}
330
47
100
AcDbScale
 70
     0
300
1/64" = 1'-0"
140
0.015625
141
12.0
290
     0
  0
SCALE
  5
5B
102
{ACAD_REACTORS
330
47
102
}
330
47
100
AcDbScale
 70
     0
300
1/32" = 1'-0"
140
0.03125
141
12.0
290
     0
  0
SCALE
  5
5C
102
{ACAD_REACTORS
330
47
102
}
330
47
100
AcDbScale
 70
     0
300
1/16" = 1'-0"
140
0.0625
141
12.0
290
     0
  0
SCALE
  5
5D
102
{ACAD_REACTORS
330
47
102
}
330
47
100
AcDbScale
 70
     0
300
3/32" = 1'-0"
140
0.09375
141
12.0
290
     0
  0
SCALE
  5
5E
102
{ACAD_REACTORS
330
47
102
}
330
47
100
AcDbScale
 70
     0
300
1/8" = 1'-0"
140
0.125
141
12.0
290
     0
  0
SCALE
  5
5F
102
{ACAD_REACTORS
330
47
102
}
330
47
100
AcDbScale
 70
     0
300
3/16" = 1'-0"
140
0.1875
141
12.0
290
     0
  0
SCALE
  5
60
102
{ACAD_REACTORS
330
47
102
}
330
47
100
AcDbScale
 70
     0
300
1/4" = 1'-0"
140
0.25
141
12.0
290
     0
  0
SCALE
  5
61
102
{ACAD_REACTORS
330
47
102
}
330
47
100
AcDbScale
 70
     0
300
3/8" = 1'-0"
140
0.375
141
12.0
290
     0
  0
SCALE
  5
62
102
{ACAD_REACTORS
330
47
102
}
330
47
100
AcDbScale
 70
     0
300
1/2" = 1'-0"
140
0.5
141
12.0
290
     0
  0
SCALE
  5
63
102
{ACAD_REACTORS
330
47
102
}
330
47
100
AcDbScale
 70
     0
300
3/4" = 1'-0"
140
0.75
141
12.0
290
     0
  0
SCALE
  5
64
102
{ACAD_REACTORS
330
47
102
}
330
47
100
AcDbScale
 70
     0
300
1" = 1'-0"
140
1.0
141
12.0
290
     0
  0
SCALE
  5
65
102
{ACAD_REACTORS
330
47
102
}
330
47
100
AcDbScale
 70
     0
300
1-1/2" = 1'-0"
140
1.5
141
12.0
290
     0
  0
SCALE
  5
66
102
{ACAD_REACTORS
330
47
102
}
330
47
100
AcDbScale
 70
     0
300
3" = 1'-0"
140
3.0
141
12.0
290
     0
  0
SCALE
  5
67
102
{ACAD_REACTORS
330
47
102
}
330
47
100
AcDbScale
 70
     0
300
6" = 1'-0"
140
6.0
141
12.0
290
     0
  0
SCALE
  5
68
102
{ACAD_REACTORS
330
47
102
}
330
47
100
AcDbScale
 70
     0
300
1'-0" = 1'-0"
140
12.0
141
12.0
290
     0
  0
ENDSEC
  0
EOF
