  0
SECTION
  2
HEADER
  9
$ACADVER
  1
AC1015
  9
$ACADMAINTVER
 70
     6
  9
$DWGCODEPAGE
  3
ANSI_1252
  9
$INSBASE
 10
0.0
 20
0.0
 30
0.0
  9
$EXTMIN
 10
0.0
 20
0.0
 30
0.0
  9
$EXTMAX
 10
841.0
 20
594.0
 30
0.0
  9
$LIMMIN
 10
0.0
 20
0.0
  9
$LIMMAX
 10
841.0
 20
594.0
  9
$ORTHOMODE
 70
     0
  9
$REGENMODE
 70
     1
  9
$FILLMODE
 70
     1
  9
$QTEXTMODE
 70
     0
  9
$MIRRTEXT
 70
     1
  9
$LTSCALE
 40
1.0
  9
$ATTMODE
 70
     1
  9
$TEXTSIZE
 40
3.5
  9
$TRACEWID
 40
1.0
  9
$TEXTSTYLE
  7
Standard
  9
$CLAYER
  8
0
  9
$CELTYPE
  6
ByLayer
  9
$CECOLOR
 62
   256
  9
$CELTSCALE
 40
1.0
  9
$DISPSILH
 70
     0
  9
$DIMSCALE
 40
1.0
  9
$DIMASZ
 40
6.0
  9
$DIMEXO
 40
1.0
  9
$DIMDLI
 40
3.75
  9
$DIMRND
 40
0.0
  9
$DIMDLE
 40
0.0
  9
$DIMEXE
 40
1.0
  9
$DIMTP
 40
0.0
  9
$DIMTM
 40
0.0
  9
$DIMTXT
 40
3.5
  9
$DIMCEN
 40
2.5
  9
$DIMTSZ
 40
0.0
  9
$DIMTOL
 70
     0
  9
$DIMLIM
 70
     0
  9
$DIMTIH
 70
     1
  9
$DIMTOH
 70
     1
  9
$DIMSE1
 70
     0
  9
$DIMSE2
 70
     0
  9
$DIMTAD
 70
     1
  9
$DIMZIN
 70
     0
  9
$DIMBLK
  1

  9
$DIMASO
 70
     1
  9
$DIMSHO
 70
     1
  9
$DIMPOST
  1

  9
$DIMAPOST
  1

  9
$DIMALT
 70
     0
  9
$DIMALTD
 70
     3
  9
$DIMALTF
 40
0.0393700787
  9
$DIMLFAC
 40
1.0
  9
$DIMTOFL
 70
     1
  9
$DIMTVP
 40
0.0
  9
$DIMTIX
 70
     0
  9
$DIMSOXD
 70
     0
  9
$DIMSAH
 70
     0
  9
$DIMBLK1
  1

  9
$DIMBLK2
  1

  9
$DIMSTYLE
  2
ISO-25
  9
$DIMCLRD
 70
     0
  9
$DIMCLRE
 70
     0
  9
$DIMCLRT
 70
     0
  9
$DIMTFAC
 40
1.0
  9
$DIMGAP
 40
1.524
  9
$DIMJUST
 70
     0
  9
$DIMSD1
 70
     0
  9
$DIMSD2
 70
     0
  9
$DIMTOLJ
 70
     0
  9
$DIMTZIN
 70
     0
  9
$DIMALTZ
 70
     0
  9
$DIMALTTZ
 70
     0
  9
$DIMUPT
 70
     0
  9
$DIMDEC
 70
     2
  9
$DIMTDEC
 70
     2
  9
$DIMALTU
 70
     2
  9
$DIMALTTD
 70
     3
  9
$DIMTXSTY
  7
Standard
  9
$DIMAUNIT
 70
     0
  9
$DIMADEC
 70
     2
  9
$DIMALTRND
 40
0.0
  9
$DIMAZIN
 70
     0
  9
$DIMDSEP
 70
    44
  9
$DIMATFIT
 70
     3
  9
$DIMFRAC
 70
     0
  9
$DIMLDRBLK
  1

  9
$DIMLUNIT
 70
     2
  9
$DIMLWD
 70
    -2
  9
$DIMLWE
 70
    -2
  9
$DIMTMOVE
 70
     0
  9
$LUNITS
 70
     2
  9
$LUPREC
 70
     2
  9
$SKETCHINC
 40
1.0
  9
$FILLETRAD
 40
10.0
  9
$AUNITS
 70
     0
  9
$AUPREC
 70
     2
  9
$MENU
  1
.
  9
$ELEVATION
 40
0.0
  9
$PELEVATION
 40
0.0
  9
$THICKNESS
 40
0.0
  9
$LIMCHECK
 70
     0
  9
$CHAMFERA
 40
0.0
  9
$CHAMFERB
 40
0.0
  9
$CHAMFERC
 40
0.0
  9
$CHAMFERD
 40
0.0
  9
$SKPOLY
 70
     0
  9
$TDCREATE
 40
2458328.030842465
  9
$TDUCREATE
 40
2458327.947509132
  9
$TDUPDATE
 40
2458328.030845
  9
$TDUUPDATE
 40
2458327.947511666
  9
$TDINDWG
 40
0.0000000116
  9
$TDUSRTIMER
 40
0.0000000116
  9
$USRTIMER
 70
     1
  9
$ANGBASE
 50
0.0
  9
$ANGDIR
 70
     0
  9
$PDMODE
 70
     0
  9
$PDSIZE
 40
-1.0
  9
$PLINEWID
 40
0.0
  9
$SPLFRAME
 70
     0
  9
$SPLINETYPE
 70
     6
  9
$SPLINESEGS
 70
     8
  9
$HANDSEED
  5
481
  9
$SURFTAB1
 70
     6
  9
$SURFTAB2
 70
     6
  9
$SURFTYPE
 70
     6
  9
$SURFU
 70
     6
  9
$SURFV
 70
     6
  9
$UCSBASE
  2

  9
$UCSNAME
  2

  9
$UCSORG
 10
0.0
 20
0.0
 30
0.0
  9
$UCSXDIR
 10
1.0
 20
0.0
 30
0.0
  9
$UCSYDIR
 10
0.0
 20
1.0
 30
0.0
  9
$UCSORTHOREF
  2

  9
$UCSORTHOVIEW
 70
     0
  9
$UCSORGTOP
 10
0.0
 20
0.0
 30
0.0
  9
$UCSORGBOTTOM
 10
0.0
 20
0.0
 30
0.0
  9
$UCSORGLEFT
 10
0.0
 20
0.0
 30
0.0
  9
$UCSORGRIGHT
 10
0.0
 20
0.0
 30
0.0
  9
$UCSORGFRONT
 10
0.0
 20
0.0
 30
0.0
  9
$UCSORGBACK
 10
0.0
 20
0.0
 30
0.0
  9
$PUCSBASE
  2

  9
$PUCSNAME
  2

  9
$PUCSORG
 10
0.0
 20
0.0
 30
0.0
  9
$PUCSXDIR
 10
1.0
 20
0.0
 30
0.0
  9
$PUCSYDIR
 10
0.0
 20
1.0
 30
0.0
  9
$PUCSORTHOREF
  2

  9
$PUCSORTHOVIEW
 70
     0
  9
$PUCSORGTOP
 10
0.0
 20
0.0
 30
0.0
  9
$PUCSORGBOTTOM
 10
0.0
 20
0.0
 30
0.0
  9
$PUCSORGLEFT
 10
0.0
 20
0.0
 30
0.0
  9
$PUCSORGRIGHT
 10
0.0
 20
0.0
 30
0.0
  9
$PUCSORGFRONT
 10
0.0
 20
0.0
 30
0.0
  9
$PUCSORGBACK
 10
0.0
 20
0.0
 30
0.0
  9
$USERI1
 70
     0
  9
$USERI2
 70
     0
  9
$USERI3
 70
     0
  9
$USERI4
 70
     0
  9
$USERI5
 70
     0
  9
$USERR1
 40
0.0
  9
$USERR2
 40
0.0
  9
$USERR3
 40
0.0
  9
$USERR4
 40
0.0
  9
$USERR5
 40
0.0
  9
$WORLDVIEW
 70
     1
  9
$SHADEDGE
 70
     3
  9
$SHADEDIF
 70
    70
  9
$TILEMODE
 70
     1
  9
$MAXACTVP
 70
    64
  9
$PINSBASE
 10
0.0
 20
0.0
 30
0.0
  9
$PLIMCHECK
 70
     0
  9
$PEXTMIN
 10
1.0000000000E+20
 20
1.0000000000E+20
 30
1.0000000000E+20
  9
$PEXTMAX
 10
-1.0000000000E+20
 20
-1.0000000000E+20
 30
-1.0000000000E+20
  9
$PLIMMIN
 10
0.0
 20
0.0
  9
$PLIMMAX
 10
420.0
 20
297.0
  9
$UNITMODE
 70
     0
  9
$VISRETAIN
 70
     1
  9
$PLINEGEN
 70
     0
  9
$PSLTSCALE
 70
     1
  9
$TREEDEPTH
 70
  3020
  9
$CMLSTYLE
  2
Standard
  9
$CMLJUST
 70
     0
  9
$CMLSCALE
 40
20.0
  9
$PROXYGRAPHICS
 70
     1
  9
$MEASUREMENT
 70
     1
  9
$CELWEIGHT
370
    -1
  9
$ENDCAPS
280
     0
  9
$JOINSTYLE
280
     0
  9
$LWDISPLAY
290
     1
  9
$INSUNITS
 70
     4
  9
$HYPERLINKBASE
  1

  9
$STYLESHEET
  1

  9
$XEDIT
290
     1
  9
$CEPSNTYPE
380
     0
  9
$PSTYLEMODE
290
     1
  9
$FINGERPRINTGUID
  2
{0265A4BB-6CDE-4433-83D8-B79EB65B9A94}
  9
$VERSIONGUID
  2
{FAEB1C32-E019-11D5-929B-00C0DF256EC4}
  9
$EXTNAMES
290
     1
  9
$PSVPSCALE
 40
0.0
  9
$OLESTARTUP
290
     0
  0
ENDSEC
  0
SECTION
  2
CLASSES
  0
CLASS
  1
ACDBDICTIONARYWDFLT
  2
AcDbDictionaryWithDefault
  3
ObjectDBX Classes
 90
        0
280
     0
281
     0
  0
CLASS
  1
VISUALSTYLE
  2
AcDbVisualStyle
  3
ObjectDBX Classes
 90
     4095
280
     0
281
     0
  0
CLASS
  1
MATERIAL
  2
AcDbMaterial
  3
ObjectDBX Classes
 90
     1153
280
     0
281
     0
  0
CLASS
  1
SCALE
  2
AcDbScale
  3
ObjectDBX Classes
 90
     1153
280
     0
281
     0
  0
CLASS
  1
SUN
  2
AcDbSun
  3
SCENEOE
 90
     1153
280
     0
281
     0
  0
CLASS
  1
ACDBPLACEHOLDER
  2
AcDbPlaceHolder
  3
ObjectDBX Classes
 90
        0
280
     0
281
     0
  0
CLASS
  1
LAYOUT
  2
AcDbLayout
  3
ObjectDBX Classes
 90
        0
280
     0
281
     0
  0
ENDSEC
  0
SECTION
  2
TABLES
  0
TABLE
  2
VPORT
  5
8
330
0
100
AcDbSymbolTable
 70
     1
  0
VPORT
  5
29
330
8
100
AcDbSymbolTableRecord
100
AcDbViewportTableRecord
  2
*Active
 70
     0
 10
0.0
 20
0.0
 11
1.0
 21
1.0
 12
420.5
 22
297.0
 13
0.0
 23
0.0
 14
10.0
 24
10.0
 15
10.0
 25
10.0
 16
0.0
 26
0.0
 36
1.0
 17
0.0
 27
0.0
 37
0.0
 40
594.0
 41
1.4158249158
 42
50.0
 43
0.0
 44
0.0
 50
0.0
 51
0.0
 71
     0
 72
  2000
 73
     1
 74
     3
 75
     0
 76
     0
 77
     0
 78
     0
281
     0
 65
     1
110
0.0
120
0.0
130
0.0
111
1.0
121
0.0
131
0.0
112
0.0
122
1.0
132
0.0
 79
     0
146
0.0
  0
ENDTAB
  0
TABLE
  2
LTYPE
  5
5
330
0
100
AcDbSymbolTable
 70
     6
  0
LTYPE
  5
14
330
5
100
AcDbSymbolTableRecord
100
AcDbLinetypeTableRecord
  2
ByBlock
 70
     0
  3

 72
    65
 73
     0
 40
0.0
  0
LTYPE
  5
15
330
5
100
AcDbSymbolTableRecord
100
AcDbLinetypeTableRecord
  2
ByLayer
 70
     0
  3

 72
    65
 73
     0
 40
0.0
  0
LTYPE
  5
16
330
5
100
AcDbSymbolTableRecord
100
AcDbLinetypeTableRecord
  2
Continuous
 70
     0
  3
Solid line
 72
    65
 73
     0
 40
0.0
  0
LTYPE
  5
6A
330
5
100
AcDbSymbolTableRecord
100
AcDbLinetypeTableRecord
  2
HIDDEN
 70
     0
  3
Hidden __ __ __ __ __ __ __ __ __ __ __ __ __ __
 72
    65
 73
     2
 40
1.905
 49
1.27
 74
     0
 49
-0.635
 74
     0
  0
LTYPE
  5
6B
330
5
100
AcDbSymbolTableRecord
100
AcDbLinetypeTableRecord
  2
PHANTOM
 70
     0
  3
Phantom ______  __  __  ______  __  __  ______
 72
    65
 73
     6
 40
12.7
 49
6.35
 74
     0
 49
-1.27
 74
     0
 49
1.27
 74
     0
 49
-1.27
 74
     0
 49
1.27
 74
     0
 49
-1.27
 74
     0
  0
LTYPE
  5
6C
330
5
100
AcDbSymbolTableRecord
100
AcDbLinetypeTableRecord
  2
CENTER
 70
     0
  3
Center ____ _ ____ _ ____ _ ____ _ ____ _ ____
 72
    65
 73
     4
 40
10.16
 49
6.35
 74
     0
 49
-1.27
 74
     0
 49
1.27
 74
     0
 49
-1.27
 74
     0
  0
LTYPE
  5
6D
330
5
100
AcDbSymbolTableRecord
100
AcDbLinetypeTableRecord
  2
CENTERX2
 70
     0
  3
Center (2x) ________  __  ________  __  _____
 72
    65
 73
     4
 40
20.32
 49
12.7
 74
     0
 49
-2.54
 74
     0
 49
2.54
 74
     0
 49
-2.54
 74
     0
  0
LTYPE
  5
6E
330
5
100
AcDbSymbolTableRecord
100
AcDbLinetypeTableRecord
  2
DOT2
 70
     0
  3
Dot (.5x) ........................................
 72
    65
 73
     2
 40
0.635
 49
0.0
 74
     0
 49
-0.635
 74
     0
  0
ENDTAB
  0
TABLE
  2
LAYER
  5
2
330
0
100
AcDbSymbolTable
 70
    11
  0
LAYER
  5
10
330
2
100
AcDbSymbolTableRecord
100
AcDbLayerTableRecord
  2
0
 70
     0
 62
     7
  6
Continuous
370
    -3
390
F
  0
LAYER
  5
6F
330
2
100
AcDbSymbolTableRecord
100
AcDbLayerTableRecord
  2
FORMAT
 70
     0
 62
     7
  6
Continuous
370
    -3
390
F
  0
LAYER
  5
70
330
2
100
AcDbSymbolTableRecord
100
AcDbLayerTableRecord
  2
SLD-0
 70
     0
 62
   179
  6
Continuous
370
    -3
390
F
  0
LAYER
  5
71
330
2
100
AcDbSymbolTableRecord
100
AcDbLayerTableRecord
  2
ASSEMBLY
 70
     0
 62
    -7
  6
Continuous
370
    -3
390
F
  0
LAYER
  5
72
330
2
100
AcDbSymbolTableRecord
100
AcDbLayerTableRecord
  2
PLASTIQUE
 70
     0
 62
     7
  6
Continuous
370
    -3
390
F
  0
LAYER
  5
73
330
2
100
AcDbSymbolTableRecord
100
AcDbLayerTableRecord
  2
RUBBER
 70
     0
 62
    -7
  6
Continuous
370
    -3
390
F
  0
LAYER
  5
74
330
2
100
AcDbSymbolTableRecord
100
AcDbLayerTableRecord
  2
DIE-CASTING
 70
     0
 62
    -7
  6
Continuous
370
    -3
390
F
  0
LAYER
  5
75
330
2
100
AcDbSymbolTableRecord
100
AcDbLayerTableRecord
  2
TÔLERIE-USINAGE
 70
     0
 62
    -7
  6
Continuous
370
    -3
390
F
  0
LAYER
  5
76
330
2
100
AcDbSymbolTableRecord
100
AcDbLayerTableRecord
  2
SHIELD
 70
     0
 62
    -7
  6
Continuous
370
    -3
390
F
  0
LAYER
  5
77
330
2
100
AcDbSymbolTableRecord
100
AcDbLayerTableRecord
  2
DESSIN
 70
     0
 62
     7
  6
Continuous
370
    -3
390
F
  0
LAYER
  5
78
330
2
100
AcDbSymbolTableRecord
100
AcDbLayerTableRecord
  2
CALQUE_1
 70
     0
 62
     7
  6
Continuous
370
    -3
390
F
  0
ENDTAB
  0
TABLE
  2
STYLE
  5
3
330
0
100
AcDbSymbolTable
 70
     8
  0
STYLE
  5
11
330
3
100
AcDbSymbolTableRecord
100
AcDbTextStyleTableRecord
  2
Standard
 70
     0
 40
0.0
 41
1.0
 50
0.0
 71
     0
 42
3.5
  3
txt
  4

  0
STYLE
  5
7C
330
3
100
AcDbSymbolTableRecord
100
AcDbTextStyleTableRecord
  2
SLDTEXTSTYLE0
 70
     0
 40
0.0
 41
0.7
 50
0.0
 71
     0
 42
3.5
  3
TXT
  4

  0
STYLE
  5
FB
330
3
100
AcDbSymbolTableRecord
100
AcDbTextStyleTableRecord
  2
SLDTEXTSTYLE1
 70
     0
 40
0.0
 41
0.75
 50
0.0
 71
     0
 42
3.5
  3
TXT
  4

  0
STYLE
  5
FD
330
3
100
AcDbSymbolTableRecord
100
AcDbTextStyleTableRecord
  2
SLDTEXTSTYLE2
 70
     0
 40
0.0
 41
0.6979166667
 50
0.0
 71
     0
 42
3.5
  3
TXT
  4

  0
STYLE
  5
137
330
3
100
AcDbSymbolTableRecord
100
AcDbTextStyleTableRecord
  2
SLDTEXTSTYLE3
 70
     0
 40
0.0
 41
0.6538461538
 50
0.0
 71
     0
 42
3.5
  3
TXT
  4

  0
STYLE
  5
151
330
3
100
AcDbSymbolTableRecord
100
AcDbTextStyleTableRecord
  2
SLDTEXTSTYLE4
 70
     0
 40
0.0
 41
0.6333333333
 50
0.0
 71
     0
 42
3.5
  3
TXT
  4

  0
STYLE
  5
16C
330
3
100
AcDbSymbolTableRecord
100
AcDbTextStyleTableRecord
  2
SLDTEXTSTYLE5
 70
     0
 40
0.0
 41
0.65
 50
0.0
 71
     0
 42
3.5
  3
TXT
  4

  0
STYLE
  5
251
330
3
100
AcDbSymbolTableRecord
100
AcDbTextStyleTableRecord
  2
SLDTEXTSTYLE6
 70
     0
 40
0.0
 41
0.6142857143
 50
0.0
 71
     0
 42
3.5
  3
TXT
  4

  0
ENDTAB
  0
TABLE
  2
VIEW
  5
6
330
0
100
AcDbSymbolTable
 70
     0
  0
ENDTAB
  0
TABLE
  2
UCS
  5
7
330
0
100
AcDbSymbolTable
 70
     0
  0
ENDTAB
  0
TABLE
  2
APPID
  5
9
330
0
100
AcDbSymbolTable
 70
     1
  0
APPID
  5
12
330
9
100
AcDbSymbolTableRecord
100
AcDbRegAppTableRecord
  2
ACAD
 70
     0
  0
ENDTAB
  0
TABLE
  2
DIMSTYLE
  5
A
330
0
100
AcDbSymbolTable
 70
     8
100
AcDbDimStyleTable
  0
DIMSTYLE
105
27
330
A
100
AcDbSymbolTableRecord
100
AcDbDimStyleTableRecord
  2
ISO-25
 70
     0
 41
2.5
 42
0.625
 43
3.75
 44
1.25
 73
     0
 74
     0
 77
     1
 78
     8
140
2.5
141
2.5
143
0.0393700787
147
0.625
171
     3
172
     1
178
     0
271
     2
272
     2
274
     3
278
    44
283
     0
284
     8
340
11
  0
DIMSTYLE
105
2B6
102
{ACAD_REACTORS
330
2B5
330
2CF
330
310
330
31C
330
3D2
330
3DC
330
3E6
102
}
330
A
100
AcDbSymbolTableRecord
100
AcDbDimStyleTableRecord
  2
SLDDIMSTYLE0
 70
     0
 41
6.0
 44
0.0
 45
0.000000001
 73
     0
 74
     0
 77
     1
 78
    12
 79
     3
140
3.5
147
0.875
173
     1
178
     0
271
     2
272
     2
276
     2
284
    12
340
7C
  0
DIMSTYLE
105
2C1
102
{ACAD_REACTORS
330
2C0
102
}
330
A
100
AcDbSymbolTableRecord
100
AcDbDimStyleTableRecord
  2
SLDDIMSTYLE1
 70
     0
 41
6.0
 44
0.0
 45
0.000000001
 73
     0
 74
     0
 77
     1
 78
     8
 79
     2
140
3.5
147
0.875
172
     1
173
     1
178
     0
271
     2
272
     2
276
     2
284
    12
289
     0
340
7C
  0
DIMSTYLE
105
39F
102
{ACAD_REACTORS
330
39E
330
405
102
}
330
A
100
AcDbSymbolTableRecord
100
AcDbDimStyleTableRecord
  2
SLDDIMSTYLE2
 70
     0
 41
6.0
 44
0.0
 45
0.000000001
 73
     0
 74
     0
 77
     1
 78
    12
 79
     3
140
3.5
147
0.875
172
     1
173
     1
178
     0
271
     2
272
     2
276
     2
284
    12
289
     0
340
7C
  0
DIMSTYLE
105
3F1
102
{ACAD_REACTORS
330
3F0
330
3FB
330
46D
102
}
330
A
100
AcDbSymbolTableRecord
100
AcDbDimStyleTableRecord
  2
SLDDIMSTYLE3
 70
     0
 41
6.0
 44
0.0
 73
     0
 74
     0
 77
     1
 78
    12
 79
     3
140
3.5
147
0.875
173
     1
178
     0
179
     2
272
     2
276
     2
284
    12
340
7C
  0
DIMSTYLE
105
452
102
{ACAD_REACTORS
330
451
102
}
330
A
100
AcDbSymbolTableRecord
100
AcDbDimStyleTableRecord
  2
SLDDIMSTYLE4
 70
     0
 41
6.0
 44
0.0
 45
0.000000001
 47
0.2
 48
0.2
 71
     1
 73
     0
 74
     0
 77
     1
 78
    12
 79
     3
140
3.5
147
0.875
172
     1
173
     1
178
     0
271
     1
272
     1
276
     2
284
     8
289
     0
340
7C
  0
DIMSTYLE
105
460
102
{ACAD_REACTORS
330
45F
102
}
330
A
100
AcDbSymbolTableRecord
100
AcDbDimStyleTableRecord
  2
SLDDIMSTYLE5
 70
     0
 41
6.0
 44
0.0
 45
0.000000001
 73
     0
 74
     0
 77
     1
 78
    12
 79
     3
140
3.5
147
0.875
172
     1
173
     1
178
     0
271
     1
272
     1
276
     2
284
    12
289
     0
340
7C
  0
DIMSTYLE
105
47E
330
A
100
AcDbSymbolTableRecord
100
AcDbDimStyleTableRecord
  2
SLDDIMSTYLE6
 70
     0
 41
6.0
 44
0.0
 45
0.000000001
146
6.0
147
0.0
173
     1
178
     0
271
     0
272
     0
276
     2
340
11
  0
ENDTAB
  0
TABLE
  2
BLOCK_RECORD
  5
1
330
0
100
AcDbSymbolTable
 70
    57
  0
BLOCK_RECORD
  5
1F
330
1
100
AcDbSymbolTableRecord
100
AcDbBlockTableRecord
  2
*Model_Space
340
22
  0
BLOCK_RECORD
  5
1B
330
1
100
AcDbSymbolTableRecord
100
AcDbBlockTableRecord
  2
*Paper_Space
340
1E
  0
BLOCK_RECORD
  5
23
330
1
100
AcDbSymbolTableRecord
100
AcDbBlockTableRecord
  2
*Paper_Space0
340
26
  0
BLOCK_RECORD
  5
79
330
1
100
AcDbSymbolTableRecord
100
AcDbBlockTableRecord
  2
Bloc6
340
0
102
{BLKREFS
331
F7
102
}
  0
BLOCK_RECORD
  5
F8
330
1
100
AcDbSymbolTableRecord
100
AcDbBlockTableRecord
  2
SW_NOTE_0
340
0
102
{BLKREFS
331
FF
102
}
  0
BLOCK_RECORD
  5
13B
330
1
100
AcDbSymbolTableRecord
100
AcDbBlockTableRecord
  2
SW_NOTE_1
340
0
102
{BLKREFS
331
140
102
}
  0
BLOCK_RECORD
  5
147
330
1
100
AcDbSymbolTableRecord
100
AcDbBlockTableRecord
  2
SW_NOTE_2
340
0
102
{BLKREFS
331
14C
102
}
  0
BLOCK_RECORD
  5
14D
330
1
100
AcDbSymbolTableRecord
100
AcDbBlockTableRecord
  2
SW_NOTE_3
340
0
102
{BLKREFS
331
153
102
}
  0
BLOCK_RECORD
  5
154
330
1
100
AcDbSymbolTableRecord
100
AcDbBlockTableRecord
  2
SW_NOTE_4
340
0
102
{BLKREFS
331
159
102
}
  0
BLOCK_RECORD
  5
15D
330
1
100
AcDbSymbolTableRecord
100
AcDbBlockTableRecord
  2
SW_NOTE_5
340
0
102
{BLKREFS
331
172
102
}
  0
BLOCK_RECORD
  5
17B
330
1
100
AcDbSymbolTableRecord
100
AcDbBlockTableRecord
  2
SW_NOTE_6
340
0
102
{BLKREFS
331
181
102
}
  0
BLOCK_RECORD
  5
182
330
1
100
AcDbSymbolTableRecord
100
AcDbBlockTableRecord
  2
SW_NOTE_7
340
0
102
{BLKREFS
331
187
102
}
  0
BLOCK_RECORD
  5
188
330
1
100
AcDbSymbolTableRecord
100
AcDbBlockTableRecord
  2
SW_NOTE_8
340
0
102
{BLKREFS
331
18D
102
}
  0
BLOCK_RECORD
  5
18F
330
1
100
AcDbSymbolTableRecord
100
AcDbBlockTableRecord
  2
SW_NOTE_9
340
0
102
{BLKREFS
331
194
102
}
  0
BLOCK_RECORD
  5
195
330
1
100
AcDbSymbolTableRecord
100
AcDbBlockTableRecord
  2
SW_NOTE_10
340
0
102
{BLKREFS
331
1AE
102
}
  0
BLOCK_RECORD
  5
1AF
330
1
100
AcDbSymbolTableRecord
100
AcDbBlockTableRecord
  2
SW_NOTE_11
340
0
102
{BLKREFS
331
1B7
102
}
  0
BLOCK_RECORD
  5
1B8
330
1
100
AcDbSymbolTableRecord
100
AcDbBlockTableRecord
  2
SW_NOTE_12
340
0
102
{BLKREFS
331
1BD
102
}
  0
BLOCK_RECORD
  5
1BF
330
1
100
AcDbSymbolTableRecord
100
AcDbBlockTableRecord
  2
SW_NOTE_13
340
0
102
{BLKREFS
331
1D7
102
}
  0
BLOCK_RECORD
  5
1D8
330
1
100
AcDbSymbolTableRecord
100
AcDbBlockTableRecord
  2
SW_NOTE_14
340
0
102
{BLKREFS
331
1DD
102
}
  0
BLOCK_RECORD
  5
1DE
330
1
100
AcDbSymbolTableRecord
100
AcDbBlockTableRecord
  2
SW_NOTE_15
340
0
102
{BLKREFS
331
1E6
102
}
  0
BLOCK_RECORD
  5
1E7
330
1
100
AcDbSymbolTableRecord
100
AcDbBlockTableRecord
  2
SW_NOTE_16
340
0
102
{BLKREFS
331
1ED
102
}
  0
BLOCK_RECORD
  5
1EE
330
1
100
AcDbSymbolTableRecord
100
AcDbBlockTableRecord
  2
SW_NOTE_17
340
0
102
{BLKREFS
331
204
102
}
  0
BLOCK_RECORD
  5
205
330
1
100
AcDbSymbolTableRecord
100
AcDbBlockTableRecord
  2
SW_NOTE_18
340
0
102
{BLKREFS
331
20A
102
}
  0
BLOCK_RECORD
  5
20B
330
1
100
AcDbSymbolTableRecord
100
AcDbBlockTableRecord
  2
SW_NOTE_19
340
0
102
{BLKREFS
331
213
102
}
  0
BLOCK_RECORD
  5
215
330
1
100
AcDbSymbolTableRecord
100
AcDbBlockTableRecord
  2
SW_NOTE_20
340
0
102
{BLKREFS
331
237
102
}
  0
BLOCK_RECORD
  5
238
330
1
100
AcDbSymbolTableRecord
100
AcDbBlockTableRecord
  2
SW_NOTE_21
340
0
102
{BLKREFS
331
23D
102
}
  0
BLOCK_RECORD
  5
23E
330
1
100
AcDbSymbolTableRecord
100
AcDbBlockTableRecord
  2
SW_NOTE_22
340
0
102
{BLKREFS
331
246
102
}
  0
BLOCK_RECORD
  5
247
330
1
100
AcDbSymbolTableRecord
100
AcDbBlockTableRecord
  2
SW_NOTE_23
340
0
102
{BLKREFS
331
253
102
}
  0
BLOCK_RECORD
  5
24A
330
1
100
AcDbSymbolTableRecord
100
AcDbBlockTableRecord
  2
SW_SYMBOL_GTOL_POSI
340
0
102
{BLKREFS
331
250
102
}
  0
BLOCK_RECORD
  5
254
330
1
100
AcDbSymbolTableRecord
100
AcDbBlockTableRecord
  2
SW_NOTE_24
340
0
102
{BLKREFS
331
25D
102
}
  0
BLOCK_RECORD
  5
257
330
1
100
AcDbSymbolTableRecord
100
AcDbBlockTableRecord
  2
SW_SYMBOL_GTOL_LPROF
340
0
102
{BLKREFS
331
25B
102
}
  0
BLOCK_RECORD
  5
25E
330
1
100
AcDbSymbolTableRecord
100
AcDbBlockTableRecord
  2
SW_NOTE_25
340
0
102
{BLKREFS
331
268
102
}
  0
BLOCK_RECORD
  5
261
330
1
100
AcDbSymbolTableRecord
100
AcDbBlockTableRecord
  2
SW_SYMBOL_GTOL_SPROF
340
0
102
{BLKREFS
331
266
102
}
  0
BLOCK_RECORD
  5
2B7
330
1
100
AcDbSymbolTableRecord
100
AcDbBlockTableRecord
  2
_D
340
0
  0
BLOCK_RECORD
  5
2C2
330
1
100
AcDbSymbolTableRecord
100
AcDbBlockTableRecord
  2
_D_1
340
0
  0
BLOCK_RECORD
  5
2D0
330
1
100
AcDbSymbolTableRecord
100
AcDbBlockTableRecord
  2
_D_2
340
0
  0
BLOCK_RECORD
  5
311
330
1
100
AcDbSymbolTableRecord
100
AcDbBlockTableRecord
  2
_D_3
340
0
  0
BLOCK_RECORD
  5
31D
330
1
100
AcDbSymbolTableRecord
100
AcDbBlockTableRecord
  2
_D_4
340
0
  0
BLOCK_RECORD
  5
328
330
1
100
AcDbSymbolTableRecord
100
AcDbBlockTableRecord
  2
SW_CENTERMARKSYMBOL_0
340
0
102
{BLKREFS
331
333
102
}
  0
BLOCK_RECORD
  5
334
330
1
100
AcDbSymbolTableRecord
100
AcDbBlockTableRecord
  2
SW_CENTERMARKSYMBOL_1
340
0
102
{BLKREFS
331
33F
102
}
  0
BLOCK_RECORD
  5
340
330
1
100
AcDbSymbolTableRecord
100
AcDbBlockTableRecord
  2
SW_CENTERMARKSYMBOL_2
340
0
102
{BLKREFS
331
34B
102
}
  0
BLOCK_RECORD
  5
34C
330
1
100
AcDbSymbolTableRecord
100
AcDbBlockTableRecord
  2
SW_CENTERMARKSYMBOL_3
340
0
102
{BLKREFS
331
357
102
}
  0
BLOCK_RECORD
  5
358
330
1
100
AcDbSymbolTableRecord
100
AcDbBlockTableRecord
  2
SW_CENTERMARKSYMBOL_4
340
0
102
{BLKREFS
331
363
102
}
  0
BLOCK_RECORD
  5
364
330
1
100
AcDbSymbolTableRecord
100
AcDbBlockTableRecord
  2
SW_CENTERMARKSYMBOL_5
340
0
102
{BLKREFS
331
36F
102
}
  0
BLOCK_RECORD
  5
370
330
1
100
AcDbSymbolTableRecord
100
AcDbBlockTableRecord
  2
SW_CENTERMARKSYMBOL_6
340
0
102
{BLKREFS
331
37B
102
}
  0
BLOCK_RECORD
  5
37C
330
1
100
AcDbSymbolTableRecord
100
AcDbBlockTableRecord
  2
SW_CENTERMARKSYMBOL_7
340
0
102
{BLKREFS
331
387
102
}
  0
BLOCK_RECORD
  5
388
330
1
100
AcDbSymbolTableRecord
100
AcDbBlockTableRecord
  2
SW_CENTERMARKSYMBOL_8
340
0
102
{BLKREFS
331
393
102
}
  0
BLOCK_RECORD
  5
3A0
330
1
100
AcDbSymbolTableRecord
100
AcDbBlockTableRecord
  2
_D_5
340
0
  0
BLOCK_RECORD
  5
3D3
330
1
100
AcDbSymbolTableRecord
100
AcDbBlockTableRecord
  2
_D_6
340
0
  0
BLOCK_RECORD
  5
3DD
330
1
100
AcDbSymbolTableRecord
100
AcDbBlockTableRecord
  2
_D_7
340
0
  0
BLOCK_RECORD
  5
3E7
330
1
100
AcDbSymbolTableRecord
100
AcDbBlockTableRecord
  2
_D_8
340
0
  0
BLOCK_RECORD
  5
3F2
330
1
100
AcDbSymbolTableRecord
100
AcDbBlockTableRecord
  2
_D_9
340
0
  0
BLOCK_RECORD
  5
3FC
330
1
100
AcDbSymbolTableRecord
100
AcDbBlockTableRecord
  2
_D_10
340
0
  0
BLOCK_RECORD
  5
406
330
1
100
AcDbSymbolTableRecord
100
AcDbBlockTableRecord
  2
_D_11
340
0
  0
BLOCK_RECORD
  5
412
330
1
100
AcDbSymbolTableRecord
100
AcDbBlockTableRecord
  2
SW_CENTERMARKSYMBOL_9
340
0
102
{BLKREFS
331
41D
102
}
  0
BLOCK_RECORD
  5
453
330
1
100
AcDbSymbolTableRecord
100
AcDbBlockTableRecord
  2
_D_12
340
0
  0
BLOCK_RECORD
  5
461
330
1
100
AcDbSymbolTableRecord
100
AcDbBlockTableRecord
  2
_D_13
340
0
  0
BLOCK_RECORD
  5
46E
330
1
100
AcDbSymbolTableRecord
100
AcDbBlockTableRecord
  2
_D_14
340
0
  0
BLOCK_RECORD
  5
477
330
1
100
AcDbSymbolTableRecord
100
AcDbBlockTableRecord
  2
SW_NOTE_26
340
0
102
{BLKREFS
331
47D
102
}
  0
ENDTAB
  0
ENDSEC
  0
SECTION
  2
BLOCKS
  0
BLOCK
  5
20
330
1F
100
AcDbEntity
  8
0
100
AcDbBlockBegin
  2
*Model_Space
 70
     0
 10
0.0
 20
0.0
 30
0.0
  3
*Model_Space
  1
*Model_Space
  0
ENDBLK
  5
21
330
1F
100
AcDbEntity
  8
0
100
AcDbBlockEnd
  0
BLOCK
  5
1C
330
1B
100
AcDbEntity
 67
     1
  8
0
100
AcDbBlockBegin
  2
*Paper_Space
 70
     0
 10
0.0
 20
0.0
 30
0.0
  3
*Paper_Space
  1
*Paper_Space
  0
ENDBLK
  5
1D
330
1B
100
AcDbEntity
 67
     1
  8
0
100
AcDbBlockEnd
  0
BLOCK
  5
24
330
23
100
AcDbEntity
  8
0
100
AcDbBlockBegin
  2
*Paper_Space0
 70
     0
 10
0.0
 20
0.0
 30
0.0
  3
*Paper_Space0
  1
*Paper_Space0
  0
ENDBLK
  5
25
330
23
100
AcDbEntity
  8
0
100
AcDbBlockEnd
  0
BLOCK
  5
7A
330
79
100
AcDbEntity
  8
0
100
AcDbBlockBegin
  2
Bloc6
 70
     0
 10
0.0
 20
0.0
 30
0.0
  3
Bloc6
  1
Bloc6
  0
MTEXT
  5
7D
330
79
100
AcDbEntity
  8
DESSIN
100
AcDbMText
 10
21.2493868757
 20
3.0768053232
 30
0.0
 40
2.6458333333
 41
0.0
 71
     2
 72
     1
  1
MOOCK CYCLES
  7
SLDTEXTSTYLE0
 73
     1
 44
1.0
  0
MTEXT
  5
7E
330
79
100
AcDbEntity
  8
DESSIN
100
AcDbMText
 10
21.533260238
 20
13.3305589167
 30
0.0
 40
9.525
 41
0.0
 71
     2
 72
     1
  1
-MCK-
  7
SLDTEXTSTYLE0
 73
     1
 44
1.0
  0
ENDBLK
  5
7B
330
79
100
AcDbEntity
  8
0
100
AcDbBlockEnd
  0
BLOCK
  5
F9
330
F8
100
AcDbEntity
  8
0
100
AcDbBlockBegin
  2
SW_NOTE_0
 70
     0
 10
0.0
 20
0.0
 30
0.0
  3
SW_NOTE_0
  1
SW_NOTE_0
  0
MTEXT
  5
FC
330
F8
100
AcDbEntity
  8
DESSIN
 62
     0
100
AcDbMText
 10
0.0
 20
4.5117370892
 30
0.0
 40
3.5
 41
0.0
 71
     1
 72
     1
  1
NOTES :
  7
SLDTEXTSTYLE1
 73
     1
 44
1.0
  0
MTEXT
  5
FE
330
F8
100
AcDbEntity
  8
DESSIN
 62
     0
100
AcDbMText
 10
0.0
 20
-0.0139574413
 30
0.0
 40
3.5
 41
0.0
 71
     1
 72
     1
  1
- MATIERE : INOX A2 brut
  7
SLDTEXTSTYLE2
 73
     1
 44
1.0
  0
ENDBLK
  5
FA
330
F8
100
AcDbEntity
  8
0
100
AcDbBlockEnd
  0
BLOCK
  5
13C
330
13B
100
AcDbEntity
  8
0
100
AcDbBlockBegin
  2
SW_NOTE_1
 70
     0
 10
0.0
 20
0.0
 30
0.0
  3
SW_NOTE_1
  1
SW_NOTE_1
  0
MTEXT
  5
13E
330
13B
100
AcDbEntity
  8
FORMAT
 62
     0
100
AcDbMText
 10
0.0
 20
2.0463950369
 30
0.0
 40
1.5875
 41
0.0
 71
     1
 72
     1
  1
TOLERANCES
  7
SLDTEXTSTYLE0
 73
     1
 44
1.0
  0
MTEXT
  5
13F
330
13B
100
AcDbEntity
  8
FORMAT
 62
     0
100
AcDbMText
 10
0.0
 20
-0.0468477361
 30
0.0
 40
1.0583333333
 41
0.0
 71
     1
 72
     1
  1
(UNLESS OTHERWISE SPECIFIED)
  7
SLDTEXTSTYLE0
 73
     1
 44
1.0
  0
ENDBLK
  5
13D
330
13B
100
AcDbEntity
  8
0
100
AcDbBlockEnd
  0
BLOCK
  5
148
330
147
100
AcDbEntity
  8
0
100
AcDbBlockBegin
  2
SW_NOTE_2
 70
     0
 10
0.0
 20
0.0
 30
0.0
  3
SW_NOTE_2
  1
SW_NOTE_2
  0
MTEXT
  5
14A
330
147
100
AcDbEntity
  8
FORMAT
 62
     0
100
AcDbMText
 10
0.0
 20
2.0463950369
 30
0.0
 40
1.5875
 41
0.0
 71
     1
 72
     1
  1
SIZE
  7
SLDTEXTSTYLE0
 73
     1
 44
1.0
  0
MTEXT
  5
14B
330
147
100
AcDbEntity
  8
FORMAT
 62
     0
100
AcDbMText
 10
6.1897798628
 20
2.0463950369
 30
0.0
 40
1.5875
 41
0.0
 71
     1
 72
     1
  1
A1
  7
SLDTEXTSTYLE0
 73
     1
 44
1.0
  0
ENDBLK
  5
149
330
147
100
AcDbEntity
  8
0
100
AcDbBlockEnd
  0
BLOCK
  5
14E
330
14D
100
AcDbEntity
  8
0
100
AcDbBlockBegin
  2
SW_NOTE_3
 70
     0
 10
0.0
 20
0.0
 30
0.0
  3
SW_NOTE_3
  1
SW_NOTE_3
  0
MTEXT
  5
150
330
14D
100
AcDbEntity
  8
FORMAT
 62
     0
100
AcDbMText
 10
0.0
 20
1.9336016097
 30
0.0
 40
1.5
 41
0.0
 71
     1
 72
     1
  1
SHEET
  7
SLDTEXTSTYLE0
 73
     1
 44
1.0
  0
MTEXT
  5
152
330
14D
100
AcDbEntity
  8
FORMAT
 62
     0
100
AcDbMText
 10
6.9635419175
 20
1.9336016097
 30
0.0
 40
1.5
 41
0.0
 71
     1
 72
     1
  1
1 OF 1
  7
SLDTEXTSTYLE4
 73
     1
 44
1.0
  0
ENDBLK
  5
14F
330
14D
100
AcDbEntity
  8
0
100
AcDbBlockEnd
  0
BLOCK
  5
155
330
154
100
AcDbEntity
  8
0
100
AcDbBlockBegin
  2
SW_NOTE_4
 70
     0
 10
0.0
 20
0.0
 30
0.0
  3
SW_NOTE_4
  1
SW_NOTE_4
  0
MTEXT
  5
157
330
154
100
AcDbEntity
  8
FORMAT
 62
     0
100
AcDbMText
 10
0.0
 20
1.9336016097
 30
0.0
 40
1.5
 41
0.0
 71
     1
 72
     1
  1
SCALE
  7
SLDTEXTSTYLE0
 73
     1
 44
1.0
  0
MTEXT
  5
158
330
154
100
AcDbEntity
  8
FORMAT
 62
     0
100
AcDbMText
 10
6.9979170337
 20
1.9336016097
 30
0.0
 40
1.5
 41
0.0
 71
     1
 72
     1
  1
1:1
  7
SLDTEXTSTYLE0
 73
     1
 44
1.0
  0
ENDBLK
  5
156
330
154
100
AcDbEntity
  8
0
100
AcDbBlockEnd
  0
BLOCK
  5
15E
330
15D
100
AcDbEntity
  8
0
100
AcDbBlockBegin
  2
SW_NOTE_5
 70
     0
 10
0.0
 20
0.0
 30
0.0
  3
SW_NOTE_5
  1
SW_NOTE_5
  0
MTEXT
  5
160
330
15D
100
AcDbEntity
  8
FORMAT
 62
     0
100
AcDbMText
 10
0.0
 20
1.6757880617
 30
0.0
 40
1.3
 41
0.0
 71
     1
 72
     1
  1
ALL GEOMETRICAL TOLERANCES ACCORDING TO ISO 14638 : 2015
  7
SLDTEXTSTYLE0
 73
     1
 44
1.0
  0
MTEXT
  5
161
330
15D
100
AcDbEntity
  8
FORMAT
 62
     0
100
AcDbMText
 10
0.0
 20
-0.6242119893
 30
0.0
 40
1.3
 41
0.0
 71
     1
 72
     1
  1
AND THE FOLLOWING STANDARDS :
  7
SLDTEXTSTYLE0
 73
     1
 44
1.0
  0
MTEXT
  5
162
330
15D
100
AcDbEntity
  8
FORMAT
 62
     0
100
AcDbMText
 10
0.0
 20
-2.9242120404
 30
0.0
 40
1.3
 41
0.0
 71
     1
 72
     1
  1
ISO 17450 : 2016
  7
SLDTEXTSTYLE0
 73
     1
 44
1.0
  0
MTEXT
  5
163
330
15D
100
AcDbEntity
  8
FORMAT
 62
     0
100
AcDbMText
 10
19.5884723216
 20
-2.9067002454
 30
0.0
 40
1.3229166667
 41
0.0
 71
     1
 72
     1
  1
|
  7
SLDTEXTSTYLE0
 73
     1
 44
1.0
  0
MTEXT
  5
164
330
15D
100
AcDbEntity
  8
FORMAT
 62
     0
100
AcDbMText
 10
21.6648811847
 20
-2.9242120404
 30
0.0
 40
1.3
 41
0.0
 71
     1
 72
     1
  1
ISO 1101: 2012
  7
SLDTEXTSTYLE0
 73
     1
 44
1.0
  0
MTEXT
  5
165
330
15D
100
AcDbEntity
  8
FORMAT
 62
     0
100
AcDbMText
 10
38.1757840514
 20
-2.9067002454
 30
0.0
 40
1.3229166667
 41
0.0
 71
     1
 72
     1
  1
|
  7
SLDTEXTSTYLE0
 73
     1
 44
1.0
  0
MTEXT
  5
166
330
15D
100
AcDbEntity
  8
FORMAT
 62
     0
100
AcDbMText
 10
40.2521929145
 20
-2.9242120404
 30
0.0
 40
1.3
 41
0.0
 71
     1
 72
     1
  1
ISO 5459 : 2011
  7
SLDTEXTSTYLE0
 73
     1
 44
1.0
  0
MTEXT
  5
167
330
15D
100
AcDbEntity
  8
FORMAT
 62
     0
100
AcDbMText
 10
0.0
 20
-5.2362412866
 30
0.0
 40
1.3
 41
0.0
 71
     1
 72
     1
  1
ISO 14405-1 : 2016
  7
SLDTEXTSTYLE0
 73
     1
 44
1.0
  0
MTEXT
  5
168
330
15D
100
AcDbEntity
  8
FORMAT
 62
     0
100
AcDbMText
 10
19.5884723216
 20
-5.2187294916
 30
0.0
 40
1.3229166667
 41
0.0
 71
     1
 72
     1
  1
|
  7
SLDTEXTSTYLE0
 73
     1
 44
1.0
  0
MTEXT
  5
169
330
15D
100
AcDbEntity
  8
FORMAT
 62
     0
100
AcDbMText
 10
21.6648811847
 20
-5.2362412866
 30
0.0
 40
1.3
 41
0.0
 71
     1
 72
     1
  1
ISO 2692 : 2014
  7
SLDTEXTSTYLE0
 73
     1
 44
1.0
  0
MTEXT
  5
16A
330
15D
100
AcDbEntity
  8
FORMAT
 62
     0
100
AcDbMText
 10
38.1757840514
 20
-5.2187294916
 30
0.0
 40
1.3229166667
 41
0.0
 71
     1
 72
     1
  1
|
  7
SLDTEXTSTYLE0
 73
     1
 44
1.0
  0
MTEXT
  5
16B
330
15D
100
AcDbEntity
  8
FORMAT
 62
     0
100
AcDbMText
 10
40.2521929145
 20
-5.2362412866
 30
0.0
 40
1.3
 41
0.0
 71
     1
 72
     1
  1
ISO 22432 : 2011
  7
SLDTEXTSTYLE0
 73
     1
 44
1.0
  0
MTEXT
  5
16D
330
15D
100
AcDbEntity
  8
FORMAT
 62
     0
100
AcDbMText
 10
0.0
 20
-7.5482705329
 30
0.0
 40
1.3
 41
0.0
 71
     1
 72
     1
  1
ISO 8015  : 2011
  7
SLDTEXTSTYLE5
 73
     1
 44
1.0
  0
MTEXT
  5
16E
330
15D
100
AcDbEntity
  8
FORMAT
 62
     0
100
AcDbMText
 10
19.5884723216
 20
-7.5307587379
 30
0.0
 40
1.3229166667
 41
0.0
 71
     1
 72
     1
  1
|
  7
SLDTEXTSTYLE0
 73
     1
 44
1.0
  0
MTEXT
  5
16F
330
15D
100
AcDbEntity
  8
FORMAT
 62
     0
100
AcDbMText
 10
21.6648811847
 20
-7.5482705329
 30
0.0
 40
1.3
 41
0.0
 71
     1
 72
     1
  1
ISO 5458 : 1998
  7
SLDTEXTSTYLE0
 73
     1
 44
1.0
  0
MTEXT
  5
170
330
15D
100
AcDbEntity
  8
FORMAT
 62
     0
100
AcDbMText
 10
38.1757840514
 20
-7.5307587379
 30
0.0
 40
1.3229166667
 41
0.0
 71
     1
 72
     1
  1
|
  7
SLDTEXTSTYLE0
 73
     1
 44
1.0
  0
MTEXT
  5
171
330
15D
100
AcDbEntity
  8
FORMAT
 62
     0
100
AcDbMText
 10
40.2521929145
 20
-7.5482705329
 30
0.0
 40
1.3
 41
0.0
 71
     1
 72
     1
  1
ISO 14405-2 : 2011
  7
SLDTEXTSTYLE0
 73
     1
 44
1.0
  0
ENDBLK
  5
15F
330
15D
100
AcDbEntity
  8
0
100
AcDbBlockEnd
  0
BLOCK
  5
17C
330
17B
100
AcDbEntity
  8
0
100
AcDbBlockBegin
  2
SW_NOTE_6
 70
     0
 10
0.0
 20
0.0
 30
0.0
  3
SW_NOTE_6
  1
SW_NOTE_6
  0
MTEXT
  5
17E
330
17B
100
AcDbEntity
  8
FORMAT
 62
     0
100
AcDbMText
 10
36.5625
 20
2.3203219316
 30
0.0
 40
1.8
 41
0.0
 71
     2
 72
     1
  1
All geometry is to be derived from the CAD database.
  7
SLDTEXTSTYLE0
 73
     1
 44
1.0
  0
MTEXT
  5
17F
330
17B
100
AcDbEntity
  8
FORMAT
 62
     0
100
AcDbMText
 10
36.58375144
 20
-0.4796779686
 30
0.0
 40
1.8
 41
0.0
 71
     2
 72
     1
  1
Critical to function dimensions called out on this
  7
SLDTEXTSTYLE0
 73
     1
 44
1.0
  0
MTEXT
  5
180
330
17B
100
AcDbEntity
  8
FORMAT
 62
     0
100
AcDbMText
 10
36.7325115204
 20
-3.2796778687
 30
0.0
 40
1.8
 41
0.0
 71
     2
 72
     1
  1
drawing are for inspection purposes.
  7
SLDTEXTSTYLE0
 73
     1
 44
1.0
  0
ENDBLK
  5
17D
330
17B
100
AcDbEntity
  8
0
100
AcDbBlockEnd
  0
BLOCK
  5
183
330
182
100
AcDbEntity
  8
0
100
AcDbBlockBegin
  2
SW_NOTE_7
 70
     0
 10
0.0
 20
0.0
 30
0.0
  3
SW_NOTE_7
  1
SW_NOTE_7
  0
MTEXT
  5
185
330
182
100
AcDbEntity
  8
FORMAT
 62
     0
100
AcDbMText
 10
0.0
 20
1.3642633579
 30
0.0
 40
1.0583333333
 41
0.0
 71
     1
 72
     1
  1
-0.2
  7
SLDTEXTSTYLE0
 73
     1
 44
1.0
  0
MTEXT
  5
186
330
182
100
AcDbEntity
  8
FORMAT
 62
     0
100
AcDbMText
 10
0.0
 20
-0.0468477361
 30
0.0
 40
1.0583333333
 41
0.0
 71
     1
 72
     1
  1
-0.3
  7
SLDTEXTSTYLE0
 73
     1
 44
1.0
  0
ENDBLK
  5
184
330
182
100
AcDbEntity
  8
0
100
AcDbBlockEnd
  0
BLOCK
  5
189
330
188
100
AcDbEntity
  8
0
100
AcDbBlockBegin
  2
SW_NOTE_8
 70
     0
 10
0.0
 20
0.0
 30
0.0
  3
SW_NOTE_8
  1
SW_NOTE_8
  0
MTEXT
  5
18B
330
188
100
AcDbEntity
  8
FORMAT
 62
     0
100
AcDbMText
 10
0.0
 20
1.3642633579
 30
0.0
 40
1.0583333333
 41
0.0
 71
     1
 72
     1
  1
+0.3
  7
SLDTEXTSTYLE0
 73
     1
 44
1.0
  0
MTEXT
  5
18C
330
188
100
AcDbEntity
  8
FORMAT
 62
     0
100
AcDbMText
 10
0.0
 20
-0.0468477361
 30
0.0
 40
1.0583333333
 41
0.0
 71
     1
 72
     1
  1
+0.2
  7
SLDTEXTSTYLE0
 73
     1
 44
1.0
  0
ENDBLK
  5
18A
330
188
100
AcDbEntity
  8
0
100
AcDbBlockEnd
  0
BLOCK
  5
190
330
18F
100
AcDbEntity
  8
0
100
AcDbBlockBegin
  2
SW_NOTE_9
 70
     0
 10
0.0
 20
0.0
 30
0.0
  3
SW_NOTE_9
  1
SW_NOTE_9
  0
MTEXT
  5
192
330
18F
100
AcDbEntity
  8
RUBBER
 62
     0
100
AcDbMText
 10
23.1510416667
 20
2.7285267159
 30
0.0
 40
2.1166666667
 41
0.0
 71
     3
 72
     1
  1
DIN ISO 3302-1
  7
SLDTEXTSTYLE0
 73
     1
 44
1.0
  0
MTEXT
  5
193
330
18F
100
AcDbEntity
  8
RUBBER
 62
     0
100
AcDbMText
 10
23.4126872818
 20
-0.0936954723
 30
0.0
 40
2.1166666667
 41
0.0
 71
     3
 72
     1
  1
Class M1
  7
SLDTEXTSTYLE0
 73
     1
 44
1.0
  0
ENDBLK
  5
191
330
18F
100
AcDbEntity
  8
0
100
AcDbBlockEnd
  0
BLOCK
  5
196
330
195
100
AcDbEntity
  8
0
100
AcDbBlockBegin
  2
SW_NOTE_10
 70
     0
 10
0.0
 20
0.0
 30
0.0
  3
SW_NOTE_10
  1
SW_NOTE_10
  0
MTEXT
  5
198
330
195
100
AcDbEntity
  8
RUBBER
 62
     0
100
AcDbMText
 10
0.0
 20
3.4106583948
 30
0.0
 40
2.6458333333
 41
0.0
 71
     1
 72
     1
  1
Notes:
  7
SLDTEXTSTYLE0
 73
     1
 44
1.0
  0
MTEXT
  5
199
330
195
100
AcDbEntity
  8
RUBBER
 62
     0
100
AcDbMText
 10
0.0
 20
-3.6448970755
 30
0.0
 40
2.6458333333
 41
0.0
 71
     1
 72
     1
  1
1. Material : Silicone Wynca XHG 151-70
  7
SLDTEXTSTYLE0
 73
     1
 44
1.0
  0
MTEXT
  5
19A
330
195
100
AcDbEntity
  8
RUBBER
 62
     0
100
AcDbMText
 10
28.9388020833
 20
-7.1726748106
 30
0.0
 40
2.6458333333
 41
0.0
 71
     1
 72
     1
  1
+ TSE322 glue (Momentive)
  7
SLDTEXTSTYLE0
 73
     1
 44
1.0
  0
MTEXT
  5
19B
330
195
100
AcDbEntity
  8
RUBBER
 62
     0
100
AcDbMText
 10
0.0
 20
-10.7004525458
 30
0.0
 40
2.6458333333
 41
0.0
 71
     1
 72
     1
  1
2. Color : According to Volvo Master sample
  7
SLDTEXTSTYLE0
 73
     1
 44
1.0
  0
MTEXT
  5
19C
330
195
100
AcDbEntity
  8
RUBBER
 62
     0
100
AcDbMText
 10
6.201171875
 20
-14.2282302809
 30
0.0
 40
2.6458333333
 41
0.0
 71
     1
 72
     1
  1
BOLD BLACK 22197151(TR84238804)
  7
SLDTEXTSTYLE0
 73
     1
 44
1.0
  0
MTEXT
  5
19D
330
195
100
AcDbEntity
  8
RUBBER
 62
     0
100
AcDbMText
 10
6.201171875
 20
-17.7560080161
 30
0.0
 40
2.6458333333
 41
0.0
 71
     1
 72
     1
  1
For symbols : according to Volvo Master Sample Traffic
  7
SLDTEXTSTYLE0
 73
     1
 44
1.0
  0
MTEXT
  5
19E
330
195
100
AcDbEntity
  8
RUBBER
 62
     0
100
AcDbMText
 10
6.201171875
 20
-21.2837857512
 30
0.0
 40
2.6458333333
 41
0.0
 71
     1
 72
     1
  1
White 22197191
  7
SLDTEXTSTYLE0
 73
     1
 44
1.0
  0
MTEXT
  5
19F
330
195
100
AcDbEntity
  8
RUBBER
 62
     0
100
AcDbMText
 10
0.0
 20
-24.8115634863
 30
0.0
 40
2.6458333333
 41
0.0
 71
     1
 72
     1
  1
3. Finish (only for A surfaces) :  according to Volvo graining
  7
SLDTEXTSTYLE0
 73
     1
 44
1.0
  0
MTEXT
  5
1A0
330
195
100
AcDbEntity
  8
RUBBER
 62
     0
100
AcDbMText
 10
6.201171875
 20
-28.3393412215
 30
0.0
 40
2.6458333333
 41
0.0
 71
     1
 72
     1
  1
master sample Renault Stipple Fine Grain 21555783
  7
SLDTEXTSTYLE0
 73
     1
 44
1.0
  0
MTEXT
  5
1A1
330
195
100
AcDbEntity
  8
RUBBER
 62
     0
100
AcDbMText
 10
6.201171875
 20
-31.8671189566
 30
0.0
 40
2.6458333333
 41
0.0
 71
     1
 72
     1
  1
Tolerance of gloss : 3  +1 / -0,5 GU
  7
SLDTEXTSTYLE5
 73
     1
 44
1.0
  0
MTEXT
  5
1A2
330
195
100
AcDbEntity
  8
RUBBER
 62
     0
100
AcDbMText
 10
0.0
 20
-35.3948966918
 30
0.0
 40
2.6458333333
 41
0.0
 71
     1
 72
     1
  1
4. Force : 3.5N +/15%N per key (8 keys)
  7
SLDTEXTSTYLE0
 73
     1
 44
1.0
  0
MTEXT
  5
1A3
330
195
100
AcDbEntity
  8
RUBBER
 62
     0
100
AcDbMText
 10
0.0
 20
-38.9226744269
 30
0.0
 40
2.6458333333
 41
0.0
 71
     1
 72
     1
  1
5. stroke : 1.5mm +/-0.1 (without preload)
  7
SLDTEXTSTYLE0
 73
     1
 44
1.0
  0
MTEXT
  5
1A4
330
195
100
AcDbEntity
  8
RUBBER
 62
     0
100
AcDbMText
 10
0.0
 20
-42.4504521621
 30
0.0
 40
2.6458333333
 41
0.0
 71
     1
 72
     1
  1
6. Contact : SC-L pills (Blue pills) resistivity : <1.5 Ohm
  7
SLDTEXTSTYLE0
 73
     1
 44
1.0
  0
MTEXT
  5
1A5
330
195
100
AcDbEntity
  8
RUBBER
 62
     0
100
AcDbMText
 10
0.0
 20
-45.9782298972
 30
0.0
 40
2.6458333333
 41
0.0
 71
     1
 72
     1
  1
7. No change in production material shall be allowed
  7
SLDTEXTSTYLE0
 73
     1
 44
1.0
  0
MTEXT
  5
1A6
330
195
100
AcDbEntity
  8
RUBBER
 62
     0
100
AcDbMText
 10
6.201171875
 20
-49.5060076323
 30
0.0
 40
2.6458333333
 41
0.0
 71
     1
 72
     1
  1
without explicit prior written approval from Parrot
  7
SLDTEXTSTYLE0
 73
     1
 44
1.0
  0
MTEXT
  5
1A7
330
195
100
AcDbEntity
  8
RUBBER
 62
     0
100
AcDbMText
 10
0.0
 20
-53.0337853675
 30
0.0
 40
2.6458333333
 41
0.0
 71
     1
 72
     1
  1
8. Reference dimensions, shown in parantheses (DIM),
  7
SLDTEXTSTYLE0
 73
     1
 44
1.0
  0
MTEXT
  5
1A8
330
195
100
AcDbEntity
  8
RUBBER
 62
     0
100
AcDbMText
 10
6.201171875
 20
-56.5615631026
 30
0.0
 40
2.6458333333
 41
0.0
 71
     1
 72
     1
  1
are without tolerance and are for information purpose only
  7
SLDTEXTSTYLE0
 73
     1
 44
1.0
  0
MTEXT
  5
1A9
330
195
100
AcDbEntity
  8
RUBBER
 62
     0
100
AcDbMText
 10
0.0
 20
-60.0893408378
 30
0.0
 40
2.6458333333
 41
0.0
 71
     1
 72
     1
  1
9. All geometry is to be derived from the CAD database.
  7
SLDTEXTSTYLE0
 73
     1
 44
1.0
  0
MTEXT
  5
1AA
330
195
100
AcDbEntity
  8
RUBBER
 62
     0
100
AcDbMText
 10
6.201171875
 20
-63.6171185729
 30
0.0
 40
2.6458333333
 41
0.0
 71
     1
 72
     1
  1
Critical to function dimensions called out on this
  7
SLDTEXTSTYLE0
 73
     1
 44
1.0
  0
MTEXT
  5
1AB
330
195
100
AcDbEntity
  8
RUBBER
 62
     0
100
AcDbMText
 10
6.201171875
 20
-67.1448963081
 30
0.0
 40
2.6458333333
 41
0.0
 71
     1
 72
     1
  1
drawing are only for inspection purposes
  7
SLDTEXTSTYLE0
 73
     1
 44
1.0
  0
MTEXT
  5
1AC
330
195
100
AcDbEntity
  8
RUBBER
 62
     0
100
AcDbMText
 10
0.0
 20
-74.2004517784
 30
0.0
 40
2.6458333333
 41
0.0
 71
     1
 72
     1
  1
10.      = Special Characteristic Dimension
  7
SLDTEXTSTYLE0
 73
     1
 44
1.0
  0
MTEXT
  5
1AD
330
195
100
AcDbEntity
  8
RUBBER
 62
     0
100
AcDbMText
 10
0.0
 20
-81.2560072486
 30
0.0
 40
2.6458333333
 41
0.0
 71
     1
 72
     1
  1
11.      = Dimension identification number for FAI
  7
SLDTEXTSTYLE0
 73
     1
 44
1.0
  0
ENDBLK
  5
197
330
195
100
AcDbEntity
  8
0
100
AcDbBlockEnd
  0
BLOCK
  5
1B0
330
1AF
100
AcDbEntity
  8
0
100
AcDbBlockBegin
  2
SW_NOTE_11
 70
     0
 10
0.0
 20
0.0
 30
0.0
  3
SW_NOTE_11
  1
SW_NOTE_11
  0
LINE
  5
1B2
330
1AF
100
AcDbEntity
  8
RUBBER
 62
     0
100
AcDbLine
 10
-1.5069176382
 20
1.5720890052
 30
0.0
 11
2.3729321741
 21
5.4519388174
 31
0.0
  0
LINE
  5
1B3
330
1AF
100
AcDbEntity
  8
RUBBER
 62
     0
100
AcDbLine
 10
2.3729321741
 20
5.4519388174
 30
0.0
 11
6.2527819863
 21
1.5720890052
 31
0.0
  0
LINE
  5
1B4
330
1AF
100
AcDbEntity
  8
RUBBER
 62
     0
100
AcDbLine
 10
6.2527819863
 20
1.5720890052
 30
0.0
 11
2.3729321741
 21
-2.3077608071
 31
0.0
  0
LINE
  5
1B5
330
1AF
100
AcDbEntity
  8
RUBBER
 62
     0
100
AcDbLine
 10
2.3729321741
 20
-2.3077608071
 30
0.0
 11
-1.5069176382
 21
1.5720890052
 31
0.0
  0
MTEXT
  5
1B6
330
1AF
100
AcDbEntity
  8
RUBBER
 62
     0
100
AcDbMText
 10
0.0
 20
2.5781354795
 30
0.0
 40
2.0
 41
0.0
 71
     1
 72
     1
  1
SCx
  7
SLDTEXTSTYLE0
 73
     1
 44
1.0
  0
ENDBLK
  5
1B1
330
1AF
100
AcDbEntity
  8
0
100
AcDbBlockEnd
  0
BLOCK
  5
1B9
330
1B8
100
AcDbEntity
  8
0
100
AcDbBlockBegin
  2
SW_NOTE_12
 70
     0
 10
0.0
 20
0.0
 30
0.0
  3
SW_NOTE_12
  1
SW_NOTE_12
  0
CIRCLE
  5
1BB
330
1B8
100
AcDbEntity
  8
RUBBER
 62
     0
100
AcDbCircle
 10
1.0607831646
 20
2.0506564498
 30
0.0
 40
3.000000000000003
  0
MTEXT
  5
1BC
330
1B8
100
AcDbEntity
  8
RUBBER
 62
     0
100
AcDbMText
 10
0.0
 20
3.4106583948
 30
0.0
 40
2.6458333333
 41
0.0
 71
     1
 72
     1
  1
X
  7
SLDTEXTSTYLE0
 73
     1
 44
1.0
  0
ENDBLK
  5
1BA
330
1B8
100
AcDbEntity
  8
0
100
AcDbBlockEnd
  0
BLOCK
  5
1C0
330
1BF
100
AcDbEntity
  8
0
100
AcDbBlockBegin
  2
SW_NOTE_13
 70
     0
 10
0.0
 20
0.0
 30
0.0
  3
SW_NOTE_13
  1
SW_NOTE_13
  0
MTEXT
  5
1C2
330
1BF
100
AcDbEntity
  8
DIE-CASTING
 62
     0
100
AcDbMText
 10
0.0
 20
3.4106583948
 30
0.0
 40
2.6458333333
 41
0.0
 71
     1
 72
     1
  1
\LNotes:
  7
SLDTEXTSTYLE0
 73
     1
 44
1.0
  0
MTEXT
  5
1C3
330
1BF
100
AcDbEntity
  8
DIE-CASTING
 62
     0
100
AcDbMText
 10
0.0
 20
-3.6448970755
 30
0.0
 40
2.6458333333
 41
0.0
 71
     1
 72
     1
  1
1. Finishing free of oil
  7
SLDTEXTSTYLE0
 73
     1
 44
1.0
  0
MTEXT
  5
1C4
330
1BF
100
AcDbEntity
  8
DIE-CASTING
 62
     0
100
AcDbMText
 10
0.0
 20
-7.1726748106
 30
0.0
 40
2.6458333333
 41
0.0
 71
     1
 72
     1
  1
2. No sharp edge
  7
SLDTEXTSTYLE0
 73
     1
 44
1.0
  0
MTEXT
  5
1C5
330
1BF
100
AcDbEntity
  8
DIE-CASTING
 62
     0
100
AcDbMText
 10
0.0
 20
-10.7004525458
 30
0.0
 40
2.6458333333
 41
0.0
 71
     1
 72
     1
  1
3. ROHS Compliant
  7
SLDTEXTSTYLE0
 73
     1
 44
1.0
  0
MTEXT
  5
1C6
330
1BF
100
AcDbEntity
  8
DIE-CASTING
 62
     0
100
AcDbMText
 10
0.0
 20
-14.2282302809
 30
0.0
 40
2.6458333333
 41
0.0
 71
     1
 72
     1
  1
4. Reference dimensions, shown in parantheses
  7
SLDTEXTSTYLE0
 73
     1
 44
1.0
  0
MTEXT
  5
1C7
330
1BF
100
AcDbEntity
  8
DIE-CASTING
 62
     0
100
AcDbMText
 10
6.201171875
 20
-17.7560080161
 30
0.0
 40
2.6458333333
 41
0.0
 71
     1
 72
     1
  1
(DIM), are without tolerance and are for
  7
SLDTEXTSTYLE0
 73
     1
 44
1.0
  0
MTEXT
  5
1C8
330
1BF
100
AcDbEntity
  8
DIE-CASTING
 62
     0
100
AcDbMText
 10
6.201171875
 20
-21.2837857512
 30
0.0
 40
2.6458333333
 41
0.0
 71
     1
 72
     1
  1
information prupose only.
  7
SLDTEXTSTYLE0
 73
     1
 44
1.0
  0
MTEXT
  5
1C9
330
1BF
100
AcDbEntity
  8
DIE-CASTING
 62
     0
100
AcDbMText
 10
0.0
 20
-24.8115634863
 30
0.0
 40
2.6458333333
 41
0.0
 71
     1
 72
     1
  1
5. All geometry is to be derived from the CAD
  7
SLDTEXTSTYLE0
 73
     1
 44
1.0
  0
MTEXT
  5
1CA
330
1BF
100
AcDbEntity
  8
DIE-CASTING
 62
     0
100
AcDbMText
 10
6.201171875
 20
-28.3393412215
 30
0.0
 40
2.6458333333
 41
0.0
 71
     1
 72
     1
  1
database.
  7
SLDTEXTSTYLE0
 73
     1
 44
1.0
  0
MTEXT
  5
1CB
330
1BF
100
AcDbEntity
  8
DIE-CASTING
 62
     0
100
AcDbMText
 10
6.201171875
 20
-31.8671189566
 30
0.0
 40
2.6458333333
 41
0.0
 71
     1
 72
     1
  1
Critical to function dimensions called out on
  7
SLDTEXTSTYLE0
 73
     1
 44
1.0
  0
MTEXT
  5
1CC
330
1BF
100
AcDbEntity
  8
DIE-CASTING
 62
     0
100
AcDbMText
 10
6.201171875
 20
-35.3948966918
 30
0.0
 40
2.6458333333
 41
0.0
 71
     1
 72
     1
  1
this drawing are only for inspection purposes
  7
SLDTEXTSTYLE0
 73
     1
 44
1.0
  0
MTEXT
  5
1CD
330
1BF
100
AcDbEntity
  8
DIE-CASTING
 62
     0
100
AcDbMText
 10
0.0
 20
-38.9226744269
 30
0.0
 40
2.6458333333
 41
0.0
 71
     1
 72
     1
  1
6. No sharp edges
  7
SLDTEXTSTYLE0
 73
     1
 44
1.0
  0
MTEXT
  5
1CE
330
1BF
100
AcDbEntity
  8
DIE-CASTING
 62
     0
100
AcDbMText
 10
0.0
 20
-42.4504521621
 30
0.0
 40
2.6458333333
 41
0.0
 71
     1
 72
     1
  1
7. Non specified draft angle= 3°
  7
SLDTEXTSTYLE0
 73
     1
 44
1.0
  0
MTEXT
  5
1CF
330
1BF
100
AcDbEntity
  8
DIE-CASTING
 62
     0
100
AcDbMText
 10
0.0
 20
-45.9782298972
 30
0.0
 40
2.6458333333
 41
0.0
 71
     1
 72
     1
  1
8. Finition : Barreling or Vibrating polish
  7
SLDTEXTSTYLE0
 73
     1
 44
1.0
  0
MTEXT
  5
1D0
330
1BF
100
AcDbEntity
  8
DIE-CASTING
 62
     0
100
AcDbMText
 10
6.201171875
 20
-49.5060076323
 30
0.0
 40
2.6458333333
 41
0.0
 71
     1
 72
     1
  1
process
  7
SLDTEXTSTYLE0
 73
     1
 44
1.0
  0
MTEXT
  5
1D1
330
1BF
100
AcDbEntity
  8
DIE-CASTING
 62
     0
100
AcDbMText
 10
6.3646989875
 20
-53.0444325841
 30
0.0
 40
2.6458333333
 41
0.0
 71
     1
 72
     1
  1
Optional : sand blasted
  7
SLDTEXTSTYLE0
 73
     1
 44
1.0
  0
MTEXT
  5
1D2
330
1BF
100
AcDbEntity
  8
DIE-CASTING
 62
     0
100
AcDbMText
 10
0.0
 20
-60.0893408378
 30
0.0
 40
2.6458333333
 41
0.0
 71
     1
 72
     1
  1
9.     = Special Characteristic Dimension
  7
SLDTEXTSTYLE0
 73
     1
 44
1.0
  0
MTEXT
  5
1D3
330
1BF
100
AcDbEntity
  8
DIE-CASTING
 62
     0
100
AcDbMText
 10
0.0
 20
-67.1448963081
 30
0.0
 40
2.6458333333
 41
0.0
 71
     1
 72
     1
  1
10.    = Dimension identification number for FAI
  7
SLDTEXTSTYLE0
 73
     1
 44
1.0
  0
MTEXT
  5
1D4
330
1BF
100
AcDbEntity
  8
DIE-CASTING
 62
     0
100
AcDbMText
 10
0.0
 20
-74.2004517784
 30
0.0
 40
2.6458333333
 41
0.0
 71
     1
 72
     1
  1
11. Parts should be marked with:
  7
SLDTEXTSTYLE0
 73
     1
 44
1.0
  0
MTEXT
  5
1D5
330
1BF
100
AcDbEntity
  8
DIE-CASTING
 62
     0
100
AcDbMText
 10
8.2682291667
 20
-77.7282295135
 30
0.0
 40
2.6458333333
 41
0.0
 71
     1
 72
     1
  1
SAP material number(see title bock)
  7
SLDTEXTSTYLE0
 73
     1
 44
1.0
  0
MTEXT
  5
1D6
330
1BF
100
AcDbEntity
  8
DIE-CASTING
 62
     0
100
AcDbMText
 10
0.0
 20
-81.2560072486
 30
0.0
 40
2.6458333333
 41
0.0
 71
     1
 72
     1
  1
12. Marking location : see Drawing
  7
SLDTEXTSTYLE0
 73
     1
 44
1.0
  0
ENDBLK
  5
1C1
330
1BF
100
AcDbEntity
  8
0
100
AcDbBlockEnd
  0
BLOCK
  5
1D9
330
1D8
100
AcDbEntity
  8
0
100
AcDbBlockBegin
  2
SW_NOTE_14
 70
     0
 10
0.0
 20
0.0
 30
0.0
  3
SW_NOTE_14
  1
SW_NOTE_14
  0
CIRCLE
  5
1DB
330
1D8
100
AcDbEntity
  8
DIE-CASTING
 62
     0
100
AcDbCircle
 10
1.0607831646
 20
2.0506564498
 30
0.0
 40
3.000000000000114
  0
MTEXT
  5
1DC
330
1D8
100
AcDbEntity
  8
DIE-CASTING
 62
     0
100
AcDbMText
 10
0.0
 20
3.4106583948
 30
0.0
 40
2.6458333333
 41
0.0
 71
     1
 72
     1
  1
X
  7
SLDTEXTSTYLE0
 73
     1
 44
1.0
  0
ENDBLK
  5
1DA
330
1D8
100
AcDbEntity
  8
0
100
AcDbBlockEnd
  0
BLOCK
  5
1DF
330
1DE
100
AcDbEntity
  8
0
100
AcDbBlockBegin
  2
SW_NOTE_15
 70
     0
 10
0.0
 20
0.0
 30
0.0
  3
SW_NOTE_15
  1
SW_NOTE_15
  0
LINE
  5
1E1
330
1DE
100
AcDbEntity
  8
DIE-CASTING
 62
     0
100
AcDbLine
 10
-1.553641098
 20
1.5886807192
 30
0.0
 11
2.3262087143
 21
5.4685305315
 31
0.0
  0
LINE
  5
1E2
330
1DE
100
AcDbEntity
  8
DIE-CASTING
 62
     0
100
AcDbLine
 10
2.3262087143
 20
5.4685305315
 30
0.0
 11
6.2060585266
 21
1.5886807192
 31
0.0
  0
LINE
  5
1E3
330
1DE
100
AcDbEntity
  8
DIE-CASTING
 62
     0
100
AcDbLine
 10
6.2060585266
 20
1.5886807192
 30
0.0
 11
2.3262087143
 21
-2.291169093
 31
0.0
  0
LINE
  5
1E4
330
1DE
100
AcDbEntity
  8
DIE-CASTING
 62
     0
100
AcDbLine
 10
2.3262087143
 20
-2.291169093
 30
0.0
 11
-1.553641098
 21
1.5886807192
 31
0.0
  0
MTEXT
  5
1E5
330
1DE
100
AcDbEntity
  8
DIE-CASTING
 62
     0
100
AcDbMText
 10
0.0
 20
2.5781354795
 30
0.0
 40
2.0
 41
0.0
 71
     1
 72
     1
  1
SCx
  7
SLDTEXTSTYLE0
 73
     1
 44
1.0
  0
ENDBLK
  5
1E0
330
1DE
100
AcDbEntity
  8
0
100
AcDbBlockEnd
  0
BLOCK
  5
1E8
330
1E7
100
AcDbEntity
  8
0
100
AcDbBlockBegin
  2
SW_NOTE_16
 70
     0
 10
0.0
 20
0.0
 30
0.0
  3
SW_NOTE_16
  1
SW_NOTE_16
  0
MTEXT
  5
1EA
330
1E7
100
AcDbEntity
  8
TÔLERIE-USINAGE
 62
     0
100
AcDbMText
 10
22.32421875
 20
2.0463950369
 30
0.0
 40
1.5875
 41
0.0
 71
     3
 72
     1
  1
ISO 2768 : 1989 mK
  7
SLDTEXTSTYLE0
 73
     1
 44
1.0
  0
MTEXT
  5
1EB
330
1E7
100
AcDbEntity
  8
TÔLERIE-USINAGE
 62
     0
100
AcDbMText
 10
22.6185654104
 20
-0.0702716042
 30
0.0
 40
1.5875
 41
0.0
 71
     3
 72
     1
  1
threads :
  7
SLDTEXTSTYLE0
 73
     1
 44
1.0
  0
MTEXT
  5
1EC
330
1E7
100
AcDbEntity
  8
TÔLERIE-USINAGE
 62
     0
100
AcDbMText
 10
22.1606948972
 20
-2.1869382453
 30
0.0
 40
1.5875
 41
0.0
 71
     3
 72
     1
  1
6g/6H (ISO 965-1:1998)
  7
SLDTEXTSTYLE0
 73
     1
 44
1.0
  0
ENDBLK
  5
1E9
330
1E7
100
AcDbEntity
  8
0
100
AcDbBlockEnd
  0
BLOCK
  5
1EF
330
1EE
100
AcDbEntity
  8
0
100
AcDbBlockBegin
  2
SW_NOTE_17
 70
     0
 10
0.0
 20
0.0
 30
0.0
  3
SW_NOTE_17
  1
SW_NOTE_17
  0
MTEXT
  5
1F1
330
1EE
100
AcDbEntity
  8
TÔLERIE-USINAGE
 62
     0
100
AcDbMText
 10
0.0
 20
3.4106583948
 30
0.0
 40
2.6458333333
 41
0.0
 71
     1
 72
     1
  1
\LNotes:
  7
SLDTEXTSTYLE0
 73
     1
 44
1.0
  0
MTEXT
  5
1F2
330
1EE
100
AcDbEntity
  8
TÔLERIE-USINAGE
 62
     0
100
AcDbMText
 10
0.0
 20
-3.6448970755
 30
0.0
 40
2.6458333333
 41
0.0
 71
     1
 72
     1
  1
1. No change in production material shall be allowed
  7
SLDTEXTSTYLE0
 73
     1
 44
1.0
  0
MTEXT
  5
1F3
330
1EE
100
AcDbEntity
  8
TÔLERIE-USINAGE
 62
     0
100
AcDbMText
 10
6.201171875
 20
-7.1726748106
 30
0.0
 40
2.6458333333
 41
0.0
 71
     1
 72
     1
  1
without explicit prior written approval from Parrot
  7
SLDTEXTSTYLE0
 73
     1
 44
1.0
  0
MTEXT
  5
1F4
330
1EE
100
AcDbEntity
  8
TÔLERIE-USINAGE
 62
     0
100
AcDbMText
 10
0.0
 20
-10.7004525458
 30
0.0
 40
2.6458333333
 41
0.0
 71
     1
 72
     1
  1
2. Parts shall be free of sharp edges. Burrs shall
  7
SLDTEXTSTYLE0
 73
     1
 44
1.0
  0
MTEXT
  5
1F5
330
1EE
100
AcDbEntity
  8
TÔLERIE-USINAGE
 62
     0
100
AcDbMText
 10
6.201171875
 20
-14.2282302809
 30
0.0
 40
2.6458333333
 41
0.0
 71
     1
 72
     1
  1
not exceed 10% of material thickness.
  7
SLDTEXTSTYLE0
 73
     1
 44
1.0
  0
MTEXT
  5
1F6
330
1EE
100
AcDbEntity
  8
TÔLERIE-USINAGE
 62
     0
100
AcDbMText
 10
0.0
 20
-17.7560080161
 30
0.0
 40
2.6458333333
 41
0.0
 71
     1
 72
     1
  1
3. Burr side shall be on the inside of the part.
  7
SLDTEXTSTYLE0
 73
     1
 44
1.0
  0
MTEXT
  5
1F7
330
1EE
100
AcDbEntity
  8
TÔLERIE-USINAGE
 62
     0
100
AcDbMText
 10
0.0
 20
-21.2837857512
 30
0.0
 40
2.6458333333
 41
0.0
 71
     1
 72
     1
  1
4. Reference dimensions, shown in parantheses (DIM,
  7
SLDTEXTSTYLE0
 73
     1
 44
1.0
  0
MTEXT
  5
1F8
330
1EE
100
AcDbEntity
  8
TÔLERIE-USINAGE
 62
     0
100
AcDbMText
 10
6.201171875
 20
-24.8115634863
 30
0.0
 40
2.6458333333
 41
0.0
 71
     1
 72
     1
  1
are without tolerance and are for information
  7
SLDTEXTSTYLE0
 73
     1
 44
1.0
  0
MTEXT
  5
1F9
330
1EE
100
AcDbEntity
  8
TÔLERIE-USINAGE
 62
     0
100
AcDbMText
 10
6.201171875
 20
-28.3393412215
 30
0.0
 40
2.6458333333
 41
0.0
 71
     1
 72
     1
  1
purpose only.
  7
SLDTEXTSTYLE0
 73
     1
 44
1.0
  0
MTEXT
  5
1FA
330
1EE
100
AcDbEntity
  8
TÔLERIE-USINAGE
 62
     0
100
AcDbMText
 10
0.0
 20
-31.8671189566
 30
0.0
 40
2.6458333333
 41
0.0
 71
     1
 72
     1
  1
5. All geometry is to be derived from the CAD database.
  7
SLDTEXTSTYLE0
 73
     1
 44
1.0
  0
MTEXT
  5
1FB
330
1EE
100
AcDbEntity
  8
TÔLERIE-USINAGE
 62
     0
100
AcDbMText
 10
6.201171875
 20
-35.3948966918
 30
0.0
 40
2.6458333333
 41
0.0
 71
     1
 72
     1
  1
Critical to function dimensions called out on this
  7
SLDTEXTSTYLE0
 73
     1
 44
1.0
  0
MTEXT
  5
1FC
330
1EE
100
AcDbEntity
  8
TÔLERIE-USINAGE
 62
     0
100
AcDbMText
 10
6.201171875
 20
-38.9226744269
 30
0.0
 40
2.6458333333
 41
0.0
 71
     1
 72
     1
  1
drawing are only for inspection purposes.
  7
SLDTEXTSTYLE0
 73
     1
 44
1.0
  0
MTEXT
  5
1FD
330
1EE
100
AcDbEntity
  8
TÔLERIE-USINAGE
 62
     0
100
AcDbMText
 10
0.0
 20
-42.4504521621
 30
0.0
 40
2.6458333333
 41
0.0
 71
     1
 72
     1
  1
6. All inner bending radius indicated on the 2D/3D are
  7
SLDTEXTSTYLE0
 73
     1
 44
1.0
  0
MTEXT
  5
1FE
330
1EE
100
AcDbEntity
  8
TÔLERIE-USINAGE
 62
     0
100
AcDbMText
 10
6.201171875
 20
-45.9782298972
 30
0.0
 40
2.6458333333
 41
0.0
 71
     1
 72
     1
  1
maximum values (radius can be 0mm)
  7
SLDTEXTSTYLE0
 73
     1
 44
1.0
  0
MTEXT
  5
1FF
330
1EE
100
AcDbEntity
  8
TÔLERIE-USINAGE
 62
     0
100
AcDbMText
 10
0.0
 20
-53.0337853675
 30
0.0
 40
2.6458333333
 41
0.0
 71
     1
 72
     1
  1
7.    = Special Characteristic Dimension
  7
SLDTEXTSTYLE0
 73
     1
 44
1.0
  0
MTEXT
  5
200
330
1EE
100
AcDbEntity
  8
TÔLERIE-USINAGE
 62
     0
100
AcDbMText
 10
0.0
 20
-60.0893408378
 30
0.0
 40
2.6458333333
 41
0.0
 71
     1
 72
     1
  1
8.    = Dimension identification number for FAI
  7
SLDTEXTSTYLE0
 73
     1
 44
1.0
  0
MTEXT
  5
201
330
1EE
100
AcDbEntity
  8
TÔLERIE-USINAGE
 62
     0
100
AcDbMText
 10
0.0
 20
-67.1448963081
 30
0.0
 40
2.6458333333
 41
0.0
 71
     1
 72
     1
  1
9. Parts should be marked with:
  7
SLDTEXTSTYLE0
 73
     1
 44
1.0
  0
MTEXT
  5
202
330
1EE
100
AcDbEntity
  8
TÔLERIE-USINAGE
 62
     0
100
AcDbMText
 10
6.201171875
 20
-70.6726740432
 30
0.0
 40
2.6458333333
 41
0.0
 71
     1
 72
     1
  1
SAP material number(see title bock)
  7
SLDTEXTSTYLE0
 73
     1
 44
1.0
  0
MTEXT
  5
203
330
1EE
100
AcDbEntity
  8
TÔLERIE-USINAGE
 62
     0
100
AcDbMText
 10
0.0
 20
-74.2004517784
 30
0.0
 40
2.6458333333
 41
0.0
 71
     1
 72
     1
  1
10. Marking location : see Drawing
  7
SLDTEXTSTYLE0
 73
     1
 44
1.0
  0
ENDBLK
  5
1F0
330
1EE
100
AcDbEntity
  8
0
100
AcDbBlockEnd
  0
BLOCK
  5
206
330
205
100
AcDbEntity
  8
0
100
AcDbBlockBegin
  2
SW_NOTE_18
 70
     0
 10
0.0
 20
0.0
 30
0.0
  3
SW_NOTE_18
  1
SW_NOTE_18
  0
CIRCLE
  5
208
330
205
100
AcDbEntity
  8
TÔLERIE-USINAGE
 62
     0
100
AcDbCircle
 10
1.0607831646
 20
2.0506564498
 30
0.0
 40
3.000000000000003
  0
MTEXT
  5
209
330
205
100
AcDbEntity
  8
TÔLERIE-USINAGE
 62
     0
100
AcDbMText
 10
0.0
 20
3.4106583948
 30
0.0
 40
2.6458333333
 41
0.0
 71
     1
 72
     1
  1
X
  7
SLDTEXTSTYLE0
 73
     1
 44
1.0
  0
ENDBLK
  5
207
330
205
100
AcDbEntity
  8
0
100
AcDbBlockEnd
  0
BLOCK
  5
20C
330
20B
100
AcDbEntity
  8
0
100
AcDbBlockBegin
  2
SW_NOTE_19
 70
     0
 10
0.0
 20
0.0
 30
0.0
  3
SW_NOTE_19
  1
SW_NOTE_19
  0
LINE
  5
20E
330
20B
100
AcDbEntity
  8
TÔLERIE-USINAGE
 62
     0
100
AcDbLine
 10
-1.5986588592
 20
1.5886807192
 30
0.0
 11
2.2811909531
 21
5.4685305315
 31
0.0
  0
LINE
  5
20F
330
20B
100
AcDbEntity
  8
TÔLERIE-USINAGE
 62
     0
100
AcDbLine
 10
2.2811909531
 20
5.4685305315
 30
0.0
 11
6.1610407653
 21
1.5886807192
 31
0.0
  0
LINE
  5
210
330
20B
100
AcDbEntity
  8
TÔLERIE-USINAGE
 62
     0
100
AcDbLine
 10
6.1610407653
 20
1.5886807192
 30
0.0
 11
2.2811909531
 21
-2.291169093
 31
0.0
  0
LINE
  5
211
330
20B
100
AcDbEntity
  8
TÔLERIE-USINAGE
 62
     0
100
AcDbLine
 10
2.2811909531
 20
-2.291169093
 30
0.0
 11
-1.5986588592
 21
1.5886807192
 31
0.0
  0
MTEXT
  5
212
330
20B
100
AcDbEntity
  8
TÔLERIE-USINAGE
 62
     0
100
AcDbMText
 10
0.0
 20
2.5781354795
 30
0.0
 40
2.0
 41
0.0
 71
     1
 72
     1
  1
SCx
  7
SLDTEXTSTYLE0
 73
     1
 44
1.0
  0
ENDBLK
  5
20D
330
20B
100
AcDbEntity
  8
0
100
AcDbBlockEnd
  0
BLOCK
  5
216
330
215
100
AcDbEntity
  8
0
100
AcDbBlockBegin
  2
SW_NOTE_20
 70
     0
 10
0.0
 20
0.0
 30
0.0
  3
SW_NOTE_20
  1
SW_NOTE_20
  0
MTEXT
  5
218
330
215
100
AcDbEntity
  8
SHIELD
 62
     0
100
AcDbMText
 10
0.0
 20
3.4106583948
 30
0.0
 40
2.6458333333
 41
0.0
 71
     1
 72
     1
  1
Notes:
  7
SLDTEXTSTYLE0
 73
     1
 44
1.0
  0
MTEXT
  5
219
330
215
100
AcDbEntity
  8
SHIELD
 62
     0
100
AcDbMText
 10
0.0
 20
-3.6448970755
 30
0.0
 40
2.6458333333
 41
0.0
 71
     1
 72
     1
  1
Material and finnish
  7
SLDTEXTSTYLE0
 73
     1
 44
1.0
  0
MTEXT
  5
21A
330
215
100
AcDbEntity
  8
SHIELD
 62
     0
100
AcDbMText
 10
0.0
 20
-7.1726748106
 30
0.0
 40
2.6458333333
 41
0.0
 71
     1
 72
     1
  1
1. Material : CRS 1010, Tin coating #100 11.2/11.2
  7
SLDTEXTSTYLE0
 73
     1
 44
1.0
  0
MTEXT
  5
21B
330
215
100
AcDbEntity
  8
SHIELD
 62
     0
100
AcDbMText
 10
0.0
 20
-10.7004525458
 30
0.0
 40
2.6458333333
 41
0.0
 71
     1
 72
     1
  1
2. No change in production material shall be allowed
  7
SLDTEXTSTYLE0
 73
     1
 44
1.0
  0
MTEXT
  5
21C
330
215
100
AcDbEntity
  8
SHIELD
 62
     0
100
AcDbMText
 10
6.201171875
 20
-14.2282302809
 30
0.0
 40
2.6458333333
 41
0.0
 71
     1
 72
     1
  1
without explicit prior written approval from Parrot
  7
SLDTEXTSTYLE0
 73
     1
 44
1.0
  0
MTEXT
  5
21D
330
215
100
AcDbEntity
  8
SHIELD
 62
     0
100
AcDbMText
 10
0.0
 20
-17.7560080161
 30
0.0
 40
2.6458333333
 41
0.0
 71
     1
 72
     1
  1
3. Parts shall be free of sharp edges. Burrs shall
  7
SLDTEXTSTYLE0
 73
     1
 44
1.0
  0
MTEXT
  5
21E
330
215
100
AcDbEntity
  8
SHIELD
 62
     0
100
AcDbMText
 10
0.0
 20
-21.2837857512
 30
0.0
 40
2.6458333333
 41
0.0
 71
     1
 72
     1
  1
not exceed 7% of material thickness.
  7
SLDTEXTSTYLE0
 73
     1
 44
1.0
  0
MTEXT
  5
21F
330
215
100
AcDbEntity
  8
SHIELD
 62
     0
100
AcDbMText
 10
0.0
 20
-24.8115634863
 30
0.0
 40
2.6458333333
 41
0.0
 71
     1
 72
     1
  1
4. Burr side shall be on the outside of the frame/inside
  7
SLDTEXTSTYLE0
 73
     1
 44
1.0
  0
MTEXT
  5
220
330
215
100
AcDbEntity
  8
SHIELD
 62
     0
100
AcDbMText
 10
6.201171875
 20
-28.3393412215
 30
0.0
 40
2.6458333333
 41
0.0
 71
     1
 72
     1
  1
of the lid.
  7
SLDTEXTSTYLE0
 73
     1
 44
1.0
  0
MTEXT
  5
221
330
215
100
AcDbEntity
  8
SHIELD
 62
     0
100
AcDbMText
 10
0.0
 20
-31.8671189566
 30
0.0
 40
2.6458333333
 41
0.0
 71
     1
 72
     1
  1
5. Reference dimensions, shown in parantheses (DIM),
  7
SLDTEXTSTYLE0
 73
     1
 44
1.0
  0
MTEXT
  5
222
330
215
100
AcDbEntity
  8
SHIELD
 62
     0
100
AcDbMText
 10
6.201171875
 20
-35.3948966918
 30
0.0
 40
2.6458333333
 41
0.0
 71
     1
 72
     1
  1
are without tolerance and are for information
  7
SLDTEXTSTYLE0
 73
     1
 44
1.0
  0
MTEXT
  5
223
330
215
100
AcDbEntity
  8
SHIELD
 62
     0
100
AcDbMText
 10
6.201171875
 20
-38.9226744269
 30
0.0
 40
2.6458333333
 41
0.0
 71
     1
 72
     1
  1
purpose only.
  7
SLDTEXTSTYLE0
 73
     1
 44
1.0
  0
MTEXT
  5
224
330
215
100
AcDbEntity
  8
SHIELD
 62
     0
100
AcDbMText
 10
0.0
 20
-42.4504521621
 30
0.0
 40
2.6458333333
 41
0.0
 71
     1
 72
     1
  1
6. All geometry is to be derived from the CAD database.
  7
SLDTEXTSTYLE0
 73
     1
 44
1.0
  0
MTEXT
  5
225
330
215
100
AcDbEntity
  8
SHIELD
 62
     0
100
AcDbMText
 10
6.201171875
 20
-45.9782298972
 30
0.0
 40
2.6458333333
 41
0.0
 71
     1
 72
     1
  1
Critical to function dimensions called out on this
  7
SLDTEXTSTYLE0
 73
     1
 44
1.0
  0
MTEXT
  5
226
330
215
100
AcDbEntity
  8
SHIELD
 62
     0
100
AcDbMText
 10
6.201171875
 20
-49.5060076323
 30
0.0
 40
2.6458333333
 41
0.0
 71
     1
 72
     1
  1
drawing are only for inspection purposes.
  7
SLDTEXTSTYLE0
 73
     1
 44
1.0
  0
MTEXT
  5
227
330
215
100
AcDbEntity
  8
SHIELD
 62
     0
100
AcDbMText
 10
0.0
 20
-56.5615631026
 30
0.0
 40
2.6458333333
 41
0.0
 71
     1
 72
     1
  1
Lid and Frame assembly and disassembly forces
  7
SLDTEXTSTYLE0
 73
     1
 44
1.0
  0
MTEXT
  5
228
330
215
100
AcDbEntity
  8
SHIELD
 62
     0
100
AcDbMText
 10
0.0
 20
-60.0893408378
 30
0.0
 40
2.6458333333
 41
0.0
 71
     1
 72
     1
  1
7. Assembly force should be less than 30N even on worse
  7
SLDTEXTSTYLE0
 73
     1
 44
1.0
  0
MTEXT
  5
229
330
215
100
AcDbEntity
  8
SHIELD
 62
     0
100
AcDbMText
 10
6.201171875
 20
-63.6171185729
 30
0.0
 40
2.6458333333
 41
0.0
 71
     1
 72
     1
  1
dimensional case.
  7
SLDTEXTSTYLE0
 73
     1
 44
1.0
  0
MTEXT
  5
22A
330
215
100
AcDbEntity
  8
SHIELD
 62
     0
100
AcDbMText
 10
0.0
 20
-67.1448963081
 30
0.0
 40
2.6458333333
 41
0.0
 71
     1
 72
     1
  1
8. Disassembly force should be 30N minimum even on worse
  7
SLDTEXTSTYLE0
 73
     1
 44
1.0
  0
MTEXT
  5
22B
330
215
100
AcDbEntity
  8
SHIELD
 62
     0
100
AcDbMText
 10
6.201171875
 20
-70.6726740432
 30
0.0
 40
2.6458333333
 41
0.0
 71
     1
 72
     1
  1
dimensional case.
  7
SLDTEXTSTYLE0
 73
     1
 44
1.0
  0
MTEXT
  5
22C
330
215
100
AcDbEntity
  8
SHIELD
 62
     0
100
AcDbMText
 10
0.0
 20
-77.7282295135
 30
0.0
 40
2.6458333333
 41
0.0
 71
     1
 72
     1
  1
Packaging
  7
SLDTEXTSTYLE0
 73
     1
 44
1.0
  0
MTEXT
  5
22D
330
215
100
AcDbEntity
  8
SHIELD
 62
     0
100
AcDbMText
 10
0.0
 20
-81.2560072486
 30
0.0
 40
2.6458333333
 41
0.0
 71
     1
 72
     1
  1
9. All parts must be cleaned, degreased and dried before
  7
SLDTEXTSTYLE0
 73
     1
 44
1.0
  0
MTEXT
  5
22E
330
215
100
AcDbEntity
  8
SHIELD
 62
     0
100
AcDbMText
 10
6.201171875
 20
-84.7837849838
 30
0.0
 40
2.6458333333
 41
0.0
 71
     1
 72
     1
  1
packing.
  7
SLDTEXTSTYLE0
 73
     1
 44
1.0
  0
MTEXT
  5
22F
330
215
100
AcDbEntity
  8
SHIELD
 62
     0
100
AcDbMText
 10
0.0
 20
-88.3115627189
 30
0.0
 40
2.6458333333
 41
0.0
 71
     1
 72
     1
  1
10. Packaging material: TBD
  7
SLDTEXTSTYLE0
 73
     1
 44
1.0
  0
MTEXT
  5
230
330
215
100
AcDbEntity
  8
SHIELD
 62
     0
100
AcDbMText
 10
0.0
 20
-95.3671181892
 30
0.0
 40
2.6458333333
 41
0.0
 71
     1
 72
     1
  1
Marking
  7
SLDTEXTSTYLE0
 73
     1
 44
1.0
  0
MTEXT
  5
231
330
215
100
AcDbEntity
  8
SHIELD
 62
     0
100
AcDbMText
 10
0.0
 20
-98.8948959244
 30
0.0
 40
2.6458333333
 41
0.0
 71
     1
 72
     1
  1
11. Lowered or printed text. Text size = 1mm
  7
SLDTEXTSTYLE0
 73
     1
 44
1.0
  0
MTEXT
  5
232
330
215
100
AcDbEntity
  8
SHIELD
 62
     0
100
AcDbMText
 10
0.0
 20
-102.4226736595
 30
0.0
 40
2.6458333333
 41
0.0
 71
     1
 72
     1
  1
12. Parts should be marked with:
  7
SLDTEXTSTYLE0
 73
     1
 44
1.0
  0
MTEXT
  5
233
330
215
100
AcDbEntity
  8
SHIELD
 62
     0
100
AcDbMText
 10
8.2682291667
 20
-105.9504513946
 30
0.0
 40
2.6458333333
 41
0.0
 71
     1
 72
     1
  1
SAP Material Number (See title block)
  7
SLDTEXTSTYLE0
 73
     1
 44
1.0
  0
MTEXT
  5
234
330
215
100
AcDbEntity
  8
SHIELD
 62
     0
100
AcDbMText
 10
0.0
 20
-109.4782291298
 30
0.0
 40
2.6458333333
 41
0.0
 71
     1
 72
     1
  1
13. Marking location : see Drawing
  7
SLDTEXTSTYLE0
 73
     1
 44
1.0
  0
MTEXT
  5
235
330
215
100
AcDbEntity
  8
SHIELD
 62
     0
100
AcDbMText
 10
0.0
 20
-116.5337846001
 30
0.0
 40
2.6458333333
 41
0.0
 71
     1
 72
     1
  1
14.     = Special Characteristic Dimension
  7
SLDTEXTSTYLE0
 73
     1
 44
1.0
  0
MTEXT
  5
236
330
215
100
AcDbEntity
  8
SHIELD
 62
     0
100
AcDbMText
 10
0.0
 20
-123.5893400704
 30
0.0
 40
2.6458333333
 41
0.0
 71
     1
 72
     1
  1
15.     = Dimension identification number for FAI
  7
SLDTEXTSTYLE0
 73
     1
 44
1.0
  0
ENDBLK
  5
217
330
215
100
AcDbEntity
  8
0
100
AcDbBlockEnd
  0
BLOCK
  5
239
330
238
100
AcDbEntity
  8
0
100
AcDbBlockBegin
  2
SW_NOTE_21
 70
     0
 10
0.0
 20
0.0
 30
0.0
  3
SW_NOTE_21
  1
SW_NOTE_21
  0
CIRCLE
  5
23B
330
238
100
AcDbEntity
  8
SHIELD
 62
     0
100
AcDbCircle
 10
1.0607831646
 20
2.0506564498
 30
0.0
 40
3.000000000000003
  0
MTEXT
  5
23C
330
238
100
AcDbEntity
  8
SHIELD
 62
     0
100
AcDbMText
 10
0.0
 20
3.4106583948
 30
0.0
 40
2.6458333333
 41
0.0
 71
     1
 72
     1
  1
X
  7
SLDTEXTSTYLE0
 73
     1
 44
1.0
  0
ENDBLK
  5
23A
330
238
100
AcDbEntity
  8
0
100
AcDbBlockEnd
  0
BLOCK
  5
23F
330
23E
100
AcDbEntity
  8
0
100
AcDbBlockBegin
  2
SW_NOTE_22
 70
     0
 10
0.0
 20
0.0
 30
0.0
  3
SW_NOTE_22
  1
SW_NOTE_22
  0
LINE
  5
241
330
23E
100
AcDbEntity
  8
SHIELD
 62
     0
100
AcDbLine
 10
-1.5986588592
 20
1.5720890052
 30
0.0
 11
2.2811909531
 21
5.4519388174
 31
0.0
  0
LINE
  5
242
330
23E
100
AcDbEntity
  8
SHIELD
 62
     0
100
AcDbLine
 10
2.2811909531
 20
5.4519388174
 30
0.0
 11
6.1610407653
 21
1.5720890052
 31
0.0
  0
LINE
  5
243
330
23E
100
AcDbEntity
  8
SHIELD
 62
     0
100
AcDbLine
 10
6.1610407653
 20
1.5720890052
 30
0.0
 11
2.2811909531
 21
-2.3077608071
 31
0.0
  0
LINE
  5
244
330
23E
100
AcDbEntity
  8
SHIELD
 62
     0
100
AcDbLine
 10
2.2811909531
 20
-2.3077608071
 30
0.0
 11
-1.5986588592
 21
1.5720890052
 31
0.0
  0
MTEXT
  5
245
330
23E
100
AcDbEntity
  8
SHIELD
 62
     0
100
AcDbMText
 10
0.0
 20
2.5781354795
 30
0.0
 40
2.0
 41
0.0
 71
     1
 72
     1
  1
SCx
  7
SLDTEXTSTYLE0
 73
     1
 44
1.0
  0
ENDBLK
  5
240
330
23E
100
AcDbEntity
  8
0
100
AcDbBlockEnd
  0
BLOCK
  5
248
330
247
100
AcDbEntity
  8
0
100
AcDbBlockBegin
  2
SW_NOTE_23
 70
     0
 10
0.0
 20
0.0
 30
0.0
  3
SW_NOTE_23
  1
SW_NOTE_23
  0
INSERT
  5
250
330
247
100
AcDbEntity
  8
ASSEMBLY
 62
     0
100
AcDbBlockReference
  2
SW_SYMBOL_GTOL_POSI
 10
0.0
 20
0.1673200514
 30
0.0
 41
0.0013929734
 42
0.0013929734
 43
0.0013929734
  0
MTEXT
  5
252
330
247
100
AcDbEntity
  8
ASSEMBLY
 62
     0
100
AcDbMText
 10
2.7061975561
 20
1.3642633579
 30
0.0
 40
1.0583333333
 41
0.0
 71
     1
 72
     1
  1
3 X Y Z
  7
SLDTEXTSTYLE6
 73
     1
 44
1.0
  0
ENDBLK
  5
249
330
247
100
AcDbEntity
  8
0
100
AcDbBlockEnd
  0
BLOCK
  5
24B
330
24A
100
AcDbEntity
  8
0
100
AcDbBlockBegin
  2
SW_SYMBOL_GTOL_POSI
 70
     0
 10
0.0
 20
0.0
 30
0.0
  3
SW_SYMBOL_GTOL_POSI
  1
SW_SYMBOL_GTOL_POSI
  0
CIRCLE
  5
24D
330
24A
100
AcDbEntity
  8
ASSEMBLY
 62
     0
100
AcDbCircle
 10
750.0
 20
500.0
 30
0.0
 40
500.0
  0
LINE
  5
24E
330
24A
100
AcDbEntity
  8
ASSEMBLY
 62
     0
100
AcDbLine
 10
0.0
 20
500.0
 30
0.0
 11
1500.0
 21
500.0
 31
0.0
  0
LINE
  5
24F
330
24A
100
AcDbEntity
  8
ASSEMBLY
 62
     0
100
AcDbLine
 10
750.0
 20
-250.0
 30
0.0
 11
750.0
 21
1250.0
 31
0.0
  0
ENDBLK
  5
24C
330
24A
100
AcDbEntity
  8
0
100
AcDbBlockEnd
  0
BLOCK
  5
255
330
254
100
AcDbEntity
  8
0
100
AcDbBlockBegin
  2
SW_NOTE_24
 70
     0
 10
0.0
 20
0.0
 30
0.0
  3
SW_NOTE_24
  1
SW_NOTE_24
  0
INSERT
  5
25B
330
254
100
AcDbEntity
  8
ASSEMBLY
 62
     0
100
AcDbBlockReference
  2
SW_SYMBOL_GTOL_LPROF
 10
0.0
 20
0.1254900386
 30
0.0
 41
0.0010447301
 42
0.0010447301
 43
0.0010447301
  0
MTEXT
  5
25C
330
254
100
AcDbEntity
  8
ASSEMBLY
 62
     0
100
AcDbMText
 10
2.6639131829
 20
1.2809686026
 30
0.0
 40
1.0583333333
 41
0.0
 71
     1
 72
     1
  1
3 X Y Z
  7
SLDTEXTSTYLE6
 73
     1
 44
1.0
  0
ENDBLK
  5
256
330
254
100
AcDbEntity
  8
0
100
AcDbBlockEnd
  0
BLOCK
  5
258
330
257
100
AcDbEntity
  8
0
100
AcDbBlockBegin
  2
SW_SYMBOL_GTOL_LPROF
 70
     0
 10
0.0
 20
0.0
 30
0.0
  3
SW_SYMBOL_GTOL_LPROF
  1
SW_SYMBOL_GTOL_LPROF
  0
ARC
  5
25A
330
257
100
AcDbEntity
  8
ASSEMBLY
 62
     0
100
AcDbCircle
 10
1000.0
 20
0.0
 30
0.0
 40
1000.0
100
AcDbArc
 50
0.0
 51
180.0
  0
ENDBLK
  5
259
330
257
100
AcDbEntity
  8
0
100
AcDbBlockEnd
  0
BLOCK
  5
25F
330
25E
100
AcDbEntity
  8
0
100
AcDbBlockBegin
  2
SW_NOTE_25
 70
     0
 10
0.0
 20
0.0
 30
0.0
  3
SW_NOTE_25
  1
SW_NOTE_25
  0
INSERT
  5
266
330
25E
100
AcDbEntity
  8
ASSEMBLY
 62
     0
100
AcDbBlockReference
  2
SW_SYMBOL_GTOL_SPROF
 10
0.0
 20
0.1254900386
 30
0.0
 41
0.0010447301
 42
0.0010447301
 43
0.0010447301
  0
MTEXT
  5
267
330
25E
100
AcDbEntity
  8
ASSEMBLY
 62
     0
100
AcDbMText
 10
2.6639131829
 20
1.2809686026
 30
0.0
 40
1.0583333333
 41
0.0
 71
     1
 72
     1
  1
3 X Y Z
  7
SLDTEXTSTYLE6
 73
     1
 44
1.0
  0
ENDBLK
  5
260
330
25E
100
AcDbEntity
  8
0
100
AcDbBlockEnd
  0
BLOCK
  5
262
330
261
100
AcDbEntity
  8
0
100
AcDbBlockBegin
  2
SW_SYMBOL_GTOL_SPROF
 70
     0
 10
0.0
 20
0.0
 30
0.0
  3
SW_SYMBOL_GTOL_SPROF
  1
SW_SYMBOL_GTOL_SPROF
  0
ARC
  5
264
330
261
100
AcDbEntity
  8
ASSEMBLY
 62
     0
100
AcDbCircle
 10
1000.0
 20
0.0
 30
0.0
 40
1000.0
100
AcDbArc
 50
0.0
 51
180.0
  0
LINE
  5
265
330
261
100
AcDbEntity
  8
ASSEMBLY
 62
     0
100
AcDbLine
 10
0.0
 20
0.0
 30
0.0
 11
2000.0
 21
0.0
 31
0.0
  0
ENDBLK
  5
263
330
261
100
AcDbEntity
  8
0
100
AcDbBlockEnd
  0
BLOCK
  5
2B8
330
2B7
100
AcDbEntity
  8
0
100
AcDbBlockBegin
  2
_D
 70
     0
 10
0.0
 20
0.0
 30
0.0
  3
_D
  1
_D
  0
SOLID
  5
2BA
330
2B7
100
AcDbEntity
  8
DESSIN
 62
     7
100
AcDbTrace
 10
415.0012152258
 20
235.3817911149
 30
0.0
 11
415.9012152258
 21
241.3817911149
 31
0.0
 12
414.1012152258
 22
241.3817911149
 32
0.0
 13
414.1012152258
 23
241.3817911149
 33
0.0
  0
SOLID
  5
2BB
330
2B7
100
AcDbEntity
  8
DESSIN
 62
     7
100
AcDbTrace
 10
415.0012152258
 20
476.7817911149
 30
0.0
 11
414.1012152258
 21
470.7817911149
 31
0.0
 12
415.9012152258
 22
470.7817911149
 32
0.0
 13
415.9012152258
 23
470.7817911149
 33
0.0
  0
LINE
  5
2BC
330
2B7
100
AcDbEntity
  8
DESSIN
 62
     7
100
AcDbLine
 10
567.6842166715
 20
235.3817911149
 30
0.0
 11
414.0012152258
 21
235.3817911149
 31
0.0
  0
LINE
  5
2BD
330
2B7
100
AcDbEntity
  8
DESSIN
 62
     7
100
AcDbLine
 10
479.5958320314
 20
476.7817911149
 30
0.0
 11
414.0012152258
 21
476.7817911149
 31
0.0
  0
LINE
  5
2BE
330
2B7
100
AcDbEntity
  8
DESSIN
 62
     7
100
AcDbLine
 10
415.0012152258
 20
235.3817911149
 30
0.0
 11
415.0012152258
 21
476.7817911149
 31
0.0
  0
MTEXT
  5
2BF
330
2B7
100
AcDbEntity
  8
DESSIN
 62
     7
100
AcDbMText
 10
410.4894780202
 20
347.7547074527
 30
0.0
 40
3.5
 41
0.0
 71
     1
 72
     1
  1
241,40
  7
SLDTEXTSTYLE0
 11
6.123233995736766E-17
 21
1.0
 31
0.0
 73
     1
 44
1.0
  0
ENDBLK
  5
2B9
330
2B7
100
AcDbEntity
  8
0
100
AcDbBlockEnd
  0
BLOCK
  5
2C3
330
2C2
100
AcDbEntity
  8
0
100
AcDbBlockBegin
  2
_D_1
 70
     0
 10
0.0
 20
0.0
 30
0.0
  3
_D_1
  1
_D_1
  0
ARC
  5
2C5
330
2C2
100
AcDbEntity
  8
DESSIN
 62
     7
100
AcDbCircle
 10
535.1327048807
 20
204.0521615501
 30
0.0
 40
6.179466983947386
100
AcDbArc
 50
243.4349488229
 51
296.5650511771
  0
ARC
  5
2C6
330
2C2
100
AcDbEntity
  8
DESSIN
 62
     7
100
AcDbCircle
 10
535.1327048807
 20
204.1007728632
 30
0.0
 40
6.179466983947386
100
AcDbArc
 50
63.4349488229
 51
116.5650511771
  0
SOLID
  5
2C7
330
2C2
100
AcDbEntity
  8
DESSIN
 62
     7
100
AcDbTrace
 10
537.8962465289
 20
234.7817911149
 30
0.0
 11
536.9962465289
 21
228.7817911149
 31
0.0
 12
538.7962465289
 22
228.7817911149
 32
0.0
 13
538.7962465289
 23
228.7817911149
 33
0.0
  0
SOLID
  5
2C8
330
2C2
100
AcDbEntity
  8
DESSIN
 62
     7
100
AcDbTrace
 10
537.8962465289
 20
235.3817911149
 30
0.0
 11
538.7962465289
 21
241.3817911149
 31
0.0
 12
536.9962465289
 22
241.3817911149
 32
0.0
 13
536.9962465289
 23
241.3817911149
 33
0.0
  0
LINE
  5
2C9
330
2C2
100
AcDbEntity
  8
DESSIN
 62
     7
100
AcDbLine
 10
571.6842166715
 20
234.7817911149
 30
0.0
 11
536.8962465289
 21
234.7817911149
 31
0.0
  0
LINE
  5
2CA
330
2C2
100
AcDbEntity
  8
DESSIN
 62
     7
100
AcDbLine
 10
567.6842166715
 20
235.3817911149
 30
0.0
 11
536.8962465289
 21
235.3817911149
 31
0.0
  0
LINE
  5
2CB
330
2C2
100
AcDbEntity
  8
DESSIN
 62
     7
100
AcDbLine
 10
537.8962465289
 20
234.7817911149
 30
0.0
 11
537.8962465289
 21
197.87269459
 31
0.0
  0
LINE
  5
2CC
330
2C2
100
AcDbEntity
  8
DESSIN
 62
     7
100
AcDbLine
 10
537.8962465289
 20
234.7817911149
 30
0.0
 11
537.8962465289
 21
235.3817911149
 31
0.0
  0
LINE
  5
2CD
330
2C2
100
AcDbEntity
  8
DESSIN
 62
     7
100
AcDbLine
 10
537.8962465289
 20
235.3817911149
 30
0.0
 11
537.8962465289
 21
247.3817911149
 31
0.0
  0
MTEXT
  5
2CE
330
2C2
100
AcDbEntity
  8
DESSIN
 62
     7
100
AcDbMText
 10
533.3845093233
 20
198.5250782537
 30
0.0
 40
3.5
 41
0.0
 71
     1
 72
     1
  1
0,60
  7
SLDTEXTSTYLE0
 11
6.123233995736766E-17
 21
1.0
 31
0.0
 73
     1
 44
1.0
  0
ENDBLK
  5
2C4
330
2C2
100
AcDbEntity
  8
0
100
AcDbBlockEnd
  0
BLOCK
  5
2D1
330
2D0
100
AcDbEntity
  8
0
100
AcDbBlockBegin
  2
_D_2
 70
     0
 10
0.0
 20
0.0
 30
0.0
  3
_D_2
  1
_D_2
  0
ARC
  5
2D3
330
2D0
100
AcDbEntity
  8
DESSIN
 62
     7
100
AcDbCircle
 10
575.8842159564
 20
521.1295430519
 30
0.0
 40
6.179466983947386
100
AcDbArc
 50
153.4349488229
 51
206.5650511771
  0
ARC
  5
2D4
330
2D0
100
AcDbEntity
  8
DESSIN
 62
     7
100
AcDbCircle
 10
581.4842166881
 20
521.1295430519
 30
0.0
 40
6.179466983947386
100
AcDbArc
 50
333.4349488229
 51
26.5650511771
  0
SOLID
  5
2D5
330
2D0
100
AcDbEntity
  8
DESSIN
 62
     7
100
AcDbTrace
 10
467.0012152258
 20
518.3660014037
 30
0.0
 11
473.0012152258
 21
517.4660014037
 31
0.0
 12
473.0012152258
 22
519.2660014037
 32
0.0
 13
473.0012152258
 23
519.2660014037
 33
0.0
  0
SOLID
  5
2D6
330
2D0
100
AcDbEntity
  8
DESSIN
 62
     7
100
AcDbTrace
 10
690.3672181172
 20
518.3660014037
 30
0.0
 11
684.3672181172
 21
519.2660014037
 31
0.0
 12
684.3672181172
 22
517.4660014037
 32
0.0
 13
684.3672181172
 23
517.4660014037
 33
0.0
  0
LINE
  5
2D7
330
2D0
100
AcDbEntity
  8
DESSIN
 62
     7
100
AcDbLine
 10
467.0012152258
 20
462.7817911149
 30
0.0
 11
467.0012152258
 21
519.3660014037
 31
0.0
  0
LINE
  5
2D8
330
2D0
100
AcDbEntity
  8
DESSIN
 62
     7
100
AcDbLine
 10
690.3672181172
 20
462.7817911149
 30
0.0
 11
690.3672181172
 21
519.3660014037
 31
0.0
  0
LINE
  5
2D9
330
2D0
100
AcDbEntity
  8
DESSIN
 62
     7
100
AcDbLine
 10
467.0012152258
 20
518.3660014037
 30
0.0
 11
690.3672181172
 21
518.3660014037
 31
0.0
  0
MTEXT
  5
2DA
330
2D0
100
AcDbEntity
  8
DESSIN
 62
     7
100
AcDbMText
 10
570.3571326601
 20
522.8777386093
 30
0.0
 40
3.5
 41
0.0
 71
     1
 72
     1
  1
223,37
  7
SLDTEXTSTYLE0
 73
     1
 44
1.0
  0
ENDBLK
  5
2D2
330
2D0
100
AcDbEntity
  8
0
100
AcDbBlockEnd
  0
BLOCK
  5
312
330
311
100
AcDbEntity
  8
0
100
AcDbBlockBegin
  2
_D_3
 70
     0
 10
0.0
 20
0.0
 30
0.0
  3
_D_3
  1
_D_3
  0
ARC
  5
314
330
311
100
AcDbEntity
  8
DESSIN
 62
     7
100
AcDbCircle
 10
215.1656545681
 20
562.1069295989
 30
0.0
 40
6.179466983947386
100
AcDbArc
 50
153.4349488229
 51
206.5650511771
  0
ARC
  5
315
330
311
100
AcDbEntity
  8
DESSIN
 62
     7
100
AcDbCircle
 10
212.4385716376
 20
562.1069295989
 30
0.0
 40
6.179466983947386
100
AcDbArc
 50
333.4349488229
 51
26.5650511771
  0
SOLID
  5
316
330
311
100
AcDbEntity
  8
DESSIN
 62
     7
100
AcDbTrace
 10
98.8021129864
 20
559.3433879507
 30
0.0
 11
104.8021129864
 21
558.4433879507
 31
0.0
 12
104.8021129864
 22
560.2433879507
 32
0.0
 13
104.8021129864
 23
560.2433879507
 33
0.0
  0
SOLID
  5
317
330
311
100
AcDbEntity
  8
DESSIN
 62
     7
100
AcDbTrace
 10
328.8021129864
 20
559.3433879507
 30
0.0
 11
322.8021129864
 21
560.2433879507
 31
0.0
 12
322.8021129864
 22
558.4433879507
 32
0.0
 13
322.8021129864
 23
558.4433879507
 33
0.0
  0
LINE
  5
318
330
311
100
AcDbEntity
  8
DESSIN
 62
     7
100
AcDbLine
 10
98.8021129864
 20
493.3433879507
 30
0.0
 11
98.8021129864
 21
560.3433879507
 31
0.0
  0
LINE
  5
319
330
311
100
AcDbEntity
  8
DESSIN
 62
     7
100
AcDbLine
 10
328.8021129864
 20
493.3433879507
 30
0.0
 11
328.8021129864
 21
560.3433879507
 31
0.0
  0
LINE
  5
31A
330
311
100
AcDbEntity
  8
DESSIN
 62
     7
100
AcDbLine
 10
98.8021129864
 20
559.3433879507
 30
0.0
 11
328.8021129864
 21
559.3433879507
 31
0.0
  0
MTEXT
  5
31B
330
311
100
AcDbEntity
  8
DESSIN
 62
     7
100
AcDbMText
 10
209.6385712717
 20
563.8551251563
 30
0.0
 40
3.5
 41
0.0
 71
     1
 72
     1
  1
230
  7
SLDTEXTSTYLE0
 73
     1
 44
1.0
  0
ENDBLK
  5
313
330
311
100
AcDbEntity
  8
0
100
AcDbBlockEnd
  0
BLOCK
  5
31E
330
31D
100
AcDbEntity
  8
0
100
AcDbBlockBegin
  2
_D_4
 70
     0
 10
0.0
 20
0.0
 30
0.0
  3
_D_4
  1
_D_4
  0
ARC
  5
320
330
31D
100
AcDbEntity
  8
DESSIN
 62
     7
100
AcDbCircle
 10
38.0385713382
 20
375.1009094396
 30
0.0
 40
6.179466983947418
100
AcDbArc
 50
243.4349488229
 51
296.5650511771
  0
ARC
  5
321
330
31D
100
AcDbEntity
  8
DESSIN
 62
     7
100
AcDbCircle
 10
38.0385713382
 20
380.7009101712
 30
0.0
 40
6.179466983947367
100
AcDbArc
 50
63.4349488229
 51
116.5650511771
  0
SOLID
  5
322
330
31D
100
AcDbEntity
  8
DESSIN
 62
     7
100
AcDbTrace
 10
40.8021129864
 20
507.3433879507
 30
0.0
 11
39.9021129864
 21
501.3433879507
 31
0.0
 12
41.7021129864
 22
501.3433879507
 32
0.0
 13
41.7021129864
 23
501.3433879507
 33
0.0
  0
SOLID
  5
323
330
31D
100
AcDbEntity
  8
DESSIN
 62
     7
100
AcDbTrace
 10
40.8021129864
 20
248.4584323586
 30
0.0
 11
41.7021129864
 21
254.4584323586
 31
0.0
 12
39.9021129864
 22
254.4584323586
 32
0.0
 13
39.9021129864
 23
254.4584323586
 33
0.0
  0
LINE
  5
324
330
31D
100
AcDbEntity
  8
DESSIN
 62
     7
100
AcDbLine
 10
112.8021129864
 20
507.3433879507
 30
0.0
 11
39.8021129864
 21
507.3433879507
 31
0.0
  0
LINE
  5
325
330
31D
100
AcDbEntity
  8
DESSIN
 62
     7
100
AcDbLine
 10
207.8021129864
 20
248.4584323586
 30
0.0
 11
39.8021129864
 21
248.4584323586
 31
0.0
  0
LINE
  5
326
330
31D
100
AcDbEntity
  8
DESSIN
 62
     7
100
AcDbLine
 10
40.8021129864
 20
507.3433879507
 30
0.0
 11
40.8021129864
 21
248.4584323586
 31
0.0
  0
MTEXT
  5
327
330
31D
100
AcDbEntity
  8
DESSIN
 62
     7
100
AcDbMText
 10
36.2903757808
 20
369.5738261432
 30
0.0
 40
3.5
 41
0.0
 71
     1
 72
     1
  1
258,88
  7
SLDTEXTSTYLE0
 11
-7.044195017643634E-15
 21
1.0
 31
0.0
 73
     1
 44
1.0
  0
ENDBLK
  5
31F
330
31D
100
AcDbEntity
  8
0
100
AcDbBlockEnd
  0
BLOCK
  5
329
330
328
100
AcDbEntity
  8
0
100
AcDbBlockBegin
  2
SW_CENTERMARKSYMBOL_0
 70
     0
 10
0.0
 20
0.0
 30
0.0
  3
SW_CENTERMARKSYMBOL_0
  1
SW_CENTERMARKSYMBOL_0
  0
LINE
  5
32B
330
328
100
AcDbEntity
  8
DESSIN
 62
     0
100
AcDbLine
 10
0.0
 20
0.0
 30
0.0
 11
0.0
 21
2.5
 31
0.0
  0
LINE
  5
32C
330
328
100
AcDbEntity
  8
DESSIN
 62
     0
100
AcDbLine
 10
0.0
 20
0.0
 30
0.0
 11
-2.5
 21
0.0
 31
0.0
  0
LINE
  5
32D
330
328
100
AcDbEntity
  8
DESSIN
 62
     0
100
AcDbLine
 10
0.0
 20
0.0
 30
0.0
 11
0.0
 21
-2.5
 31
0.0
  0
LINE
  5
32E
330
328
100
AcDbEntity
  8
DESSIN
 62
     0
100
AcDbLine
 10
0.0
 20
0.0
 30
0.0
 11
2.5
 21
0.0
 31
0.0
  0
LINE
  5
32F
330
328
100
AcDbEntity
  8
DESSIN
 62
     0
100
AcDbLine
 10
0.0
 20
2.5
 30
0.0
 11
0.0
 21
4.75
 31
0.0
  0
LINE
  5
330
330
328
100
AcDbEntity
  8
DESSIN
 62
     0
100
AcDbLine
 10
-2.5
 20
0.0
 30
0.0
 11
-4.75
 21
0.0
 31
0.0
  0
LINE
  5
331
330
328
100
AcDbEntity
  8
DESSIN
 62
     0
100
AcDbLine
 10
0.0
 20
-2.5
 30
0.0
 11
0.0
 21
-4.75
 31
0.0
  0
LINE
  5
332
330
328
100
AcDbEntity
  8
DESSIN
 62
     0
100
AcDbLine
 10
2.5
 20
0.0
 30
0.0
 11
111.7043396139
 21
0.0
 31
0.0
  0
ENDBLK
  5
32A
330
328
100
AcDbEntity
  8
0
100
AcDbBlockEnd
  0
BLOCK
  5
335
330
334
100
AcDbEntity
  8
0
100
AcDbBlockBegin
  2
SW_CENTERMARKSYMBOL_1
 70
     0
 10
0.0
 20
0.0
 30
0.0
  3
SW_CENTERMARKSYMBOL_1
  1
SW_CENTERMARKSYMBOL_1
  0
LINE
  5
337
330
334
100
AcDbEntity
  8
DESSIN
 62
     0
100
AcDbLine
 10
0.0
 20
0.0
 30
0.0
 11
0.0
 21
2.5
 31
0.0
  0
LINE
  5
338
330
334
100
AcDbEntity
  8
DESSIN
 62
     0
100
AcDbLine
 10
0.0
 20
0.0
 30
0.0
 11
-2.5
 21
0.0
 31
0.0
  0
LINE
  5
339
330
334
100
AcDbEntity
  8
DESSIN
 62
     0
100
AcDbLine
 10
0.0
 20
0.0
 30
0.0
 11
0.0
 21
-2.5
 31
0.0
  0
LINE
  5
33A
330
334
100
AcDbEntity
  8
DESSIN
 62
     0
100
AcDbLine
 10
0.0
 20
0.0
 30
0.0
 11
2.5
 21
0.0
 31
0.0
  0
LINE
  5
33B
330
334
100
AcDbEntity
  8
DESSIN
 62
     0
100
AcDbLine
 10
0.0
 20
2.5
 30
0.0
 11
0.0
 21
4.75
 31
0.0
  0
LINE
  5
33C
330
334
100
AcDbEntity
  8
DESSIN
 62
     0
100
AcDbLine
 10
-2.5
 20
0.0
 30
0.0
 11
-4.75
 21
0.0
 31
0.0
  0
LINE
  5
33D
330
334
100
AcDbEntity
  8
DESSIN
 62
     0
100
AcDbLine
 10
0.0
 20
-2.5
 30
0.0
 11
0.0
 21
-4.75
 31
0.0
  0
LINE
  5
33E
330
334
100
AcDbEntity
  8
DESSIN
 62
     0
100
AcDbLine
 10
2.5
 20
0.0
 30
0.0
 11
4.75
 21
0.0
 31
0.0
  0
ENDBLK
  5
336
330
334
100
AcDbEntity
  8
0
100
AcDbBlockEnd
  0
BLOCK
  5
341
330
340
100
AcDbEntity
  8
0
100
AcDbBlockBegin
  2
SW_CENTERMARKSYMBOL_2
 70
     0
 10
0.0
 20
0.0
 30
0.0
  3
SW_CENTERMARKSYMBOL_2
  1
SW_CENTERMARKSYMBOL_2
  0
LINE
  5
343
330
340
100
AcDbEntity
  8
DESSIN
 62
     0
100
AcDbLine
 10
0.0
 20
0.0
 30
0.0
 11
0.0
 21
2.5
 31
0.0
  0
LINE
  5
344
330
340
100
AcDbEntity
  8
DESSIN
 62
     0
100
AcDbLine
 10
0.0
 20
0.0
 30
0.0
 11
-2.5
 21
0.0
 31
0.0
  0
LINE
  5
345
330
340
100
AcDbEntity
  8
DESSIN
 62
     0
100
AcDbLine
 10
0.0
 20
0.0
 30
0.0
 11
0.0
 21
-2.5
 31
0.0
  0
LINE
  5
346
330
340
100
AcDbEntity
  8
DESSIN
 62
     0
100
AcDbLine
 10
0.0
 20
0.0
 30
0.0
 11
2.5
 21
0.0
 31
0.0
  0
LINE
  5
347
330
340
100
AcDbEntity
  8
DESSIN
 62
     0
100
AcDbLine
 10
0.0
 20
2.5
 30
0.0
 11
0.0
 21
5.0
 31
0.0
  0
LINE
  5
348
330
340
100
AcDbEntity
  8
DESSIN
 62
     0
100
AcDbLine
 10
-2.5
 20
0.0
 30
0.0
 11
-5.0
 21
0.0
 31
0.0
  0
LINE
  5
349
330
340
100
AcDbEntity
  8
DESSIN
 62
     0
100
AcDbLine
 10
0.0
 20
-2.5
 30
0.0
 11
0.0
 21
-149.3006715191
 31
0.0
  0
LINE
  5
34A
330
340
100
AcDbEntity
  8
DESSIN
 62
     0
100
AcDbLine
 10
2.5
 20
0.0
 30
0.0
 11
79.4875909187
 21
0.0
 31
0.0
  0
ENDBLK
  5
342
330
340
100
AcDbEntity
  8
0
100
AcDbBlockEnd
  0
BLOCK
  5
34D
330
34C
100
AcDbEntity
  8
0
100
AcDbBlockBegin
  2
SW_CENTERMARKSYMBOL_3
 70
     0
 10
0.0
 20
0.0
 30
0.0
  3
SW_CENTERMARKSYMBOL_3
  1
SW_CENTERMARKSYMBOL_3
  0
LINE
  5
34F
330
34C
100
AcDbEntity
  8
DESSIN
 62
     0
100
AcDbLine
 10
0.0
 20
0.0
 30
0.0
 11
0.0
 21
2.5
 31
0.0
  0
LINE
  5
350
330
34C
100
AcDbEntity
  8
DESSIN
 62
     0
100
AcDbLine
 10
0.0
 20
0.0
 30
0.0
 11
-2.5
 21
0.0
 31
0.0
  0
LINE
  5
351
330
34C
100
AcDbEntity
  8
DESSIN
 62
     0
100
AcDbLine
 10
0.0
 20
0.0
 30
0.0
 11
0.0
 21
-2.5
 31
0.0
  0
LINE
  5
352
330
34C
100
AcDbEntity
  8
DESSIN
 62
     0
100
AcDbLine
 10
0.0
 20
0.0
 30
0.0
 11
2.5
 21
0.0
 31
0.0
  0
LINE
  5
353
330
34C
100
AcDbEntity
  8
DESSIN
 62
     0
100
AcDbLine
 10
0.0
 20
2.5
 30
0.0
 11
0.0
 21
5.0
 31
0.0
  0
LINE
  5
354
330
34C
100
AcDbEntity
  8
DESSIN
 62
     0
100
AcDbLine
 10
-2.5
 20
0.0
 30
0.0
 11
-5.0
 21
0.0
 31
0.0
  0
LINE
  5
355
330
34C
100
AcDbEntity
  8
DESSIN
 62
     0
100
AcDbLine
 10
0.0
 20
-2.5
 30
0.0
 11
0.0
 21
-5.0
 31
0.0
  0
LINE
  5
356
330
34C
100
AcDbEntity
  8
DESSIN
 62
     0
100
AcDbLine
 10
2.5
 20
0.0
 30
0.0
 11
5.0
 21
0.0
 31
0.0
  0
ENDBLK
  5
34E
330
34C
100
AcDbEntity
  8
0
100
AcDbBlockEnd
  0
BLOCK
  5
359
330
358
100
AcDbEntity
  8
0
100
AcDbBlockBegin
  2
SW_CENTERMARKSYMBOL_4
 70
     0
 10
0.0
 20
0.0
 30
0.0
  3
SW_CENTERMARKSYMBOL_4
  1
SW_CENTERMARKSYMBOL_4
  0
LINE
  5
35B
330
358
100
AcDbEntity
  8
DESSIN
 62
     0
100
AcDbLine
 10
0.0
 20
0.0
 30
0.0
 11
0.0
 21
2.5
 31
0.0
  0
LINE
  5
35C
330
358
100
AcDbEntity
  8
DESSIN
 62
     0
100
AcDbLine
 10
0.0
 20
0.0
 30
0.0
 11
-2.5
 21
0.0
 31
0.0
  0
LINE
  5
35D
330
358
100
AcDbEntity
  8
DESSIN
 62
     0
100
AcDbLine
 10
0.0
 20
0.0
 30
0.0
 11
0.0
 21
-2.5
 31
0.0
  0
LINE
  5
35E
330
358
100
AcDbEntity
  8
DESSIN
 62
     0
100
AcDbLine
 10
0.0
 20
0.0
 30
0.0
 11
2.5
 21
0.0
 31
0.0
  0
LINE
  5
35F
330
358
100
AcDbEntity
  8
DESSIN
 62
     0
100
AcDbLine
 10
0.0
 20
2.5
 30
0.0
 11
0.0
 21
5.0
 31
0.0
  0
LINE
  5
360
330
358
100
AcDbEntity
  8
DESSIN
 62
     0
100
AcDbLine
 10
-2.5
 20
0.0
 30
0.0
 11
-5.0
 21
0.0
 31
0.0
  0
LINE
  5
361
330
358
100
AcDbEntity
  8
DESSIN
 62
     0
100
AcDbLine
 10
0.0
 20
-2.5
 30
0.0
 11
0.0
 21
-130.2384561113
 31
0.0
  0
LINE
  5
362
330
358
100
AcDbEntity
  8
DESSIN
 62
     0
100
AcDbLine
 10
2.5
 20
0.0
 30
0.0
 11
76.9151417763
 21
0.0
 31
0.0
  0
ENDBLK
  5
35A
330
358
100
AcDbEntity
  8
0
100
AcDbBlockEnd
  0
BLOCK
  5
365
330
364
100
AcDbEntity
  8
0
100
AcDbBlockBegin
  2
SW_CENTERMARKSYMBOL_5
 70
     0
 10
0.0
 20
0.0
 30
0.0
  3
SW_CENTERMARKSYMBOL_5
  1
SW_CENTERMARKSYMBOL_5
  0
LINE
  5
367
330
364
100
AcDbEntity
  8
DESSIN
 62
     0
100
AcDbLine
 10
0.0
 20
0.0
 30
0.0
 11
0.0
 21
2.5
 31
0.0
  0
LINE
  5
368
330
364
100
AcDbEntity
  8
DESSIN
 62
     0
100
AcDbLine
 10
0.0
 20
0.0
 30
0.0
 11
-2.5
 21
0.0
 31
0.0
  0
LINE
  5
369
330
364
100
AcDbEntity
  8
DESSIN
 62
     0
100
AcDbLine
 10
0.0
 20
0.0
 30
0.0
 11
0.0
 21
-2.5
 31
0.0
  0
LINE
  5
36A
330
364
100
AcDbEntity
  8
DESSIN
 62
     0
100
AcDbLine
 10
0.0
 20
0.0
 30
0.0
 11
2.5
 21
0.0
 31
0.0
  0
LINE
  5
36B
330
364
100
AcDbEntity
  8
DESSIN
 62
     0
100
AcDbLine
 10
0.0
 20
2.5
 30
0.0
 11
0.0
 21
5.0
 31
0.0
  0
LINE
  5
36C
330
364
100
AcDbEntity
  8
DESSIN
 62
     0
100
AcDbLine
 10
-2.5
 20
0.0
 30
0.0
 11
-5.0
 21
0.0
 31
0.0
  0
LINE
  5
36D
330
364
100
AcDbEntity
  8
DESSIN
 62
     0
100
AcDbLine
 10
0.0
 20
-2.5
 30
0.0
 11
0.0
 21
-5.0
 31
0.0
  0
LINE
  5
36E
330
364
100
AcDbEntity
  8
DESSIN
 62
     0
100
AcDbLine
 10
2.5
 20
0.0
 30
0.0
 11
73.1973098141
 21
0.0
 31
0.0
  0
ENDBLK
  5
366
330
364
100
AcDbEntity
  8
0
100
AcDbBlockEnd
  0
BLOCK
  5
371
330
370
100
AcDbEntity
  8
0
100
AcDbBlockBegin
  2
SW_CENTERMARKSYMBOL_6
 70
     0
 10
0.0
 20
0.0
 30
0.0
  3
SW_CENTERMARKSYMBOL_6
  1
SW_CENTERMARKSYMBOL_6
  0
LINE
  5
373
330
370
100
AcDbEntity
  8
DESSIN
 62
     0
100
AcDbLine
 10
0.0
 20
0.0
 30
0.0
 11
0.0
 21
2.5
 31
0.0
  0
LINE
  5
374
330
370
100
AcDbEntity
  8
DESSIN
 62
     0
100
AcDbLine
 10
0.0
 20
0.0
 30
0.0
 11
-2.5
 21
0.0
 31
0.0
  0
LINE
  5
375
330
370
100
AcDbEntity
  8
DESSIN
 62
     0
100
AcDbLine
 10
0.0
 20
0.0
 30
0.0
 11
0.0
 21
-2.5
 31
0.0
  0
LINE
  5
376
330
370
100
AcDbEntity
  8
DESSIN
 62
     0
100
AcDbLine
 10
0.0
 20
0.0
 30
0.0
 11
2.5
 21
0.0
 31
0.0
  0
LINE
  5
377
330
370
100
AcDbEntity
  8
DESSIN
 62
     0
100
AcDbLine
 10
0.0
 20
5.0
 30
0.0
 11
0.0
 21
265.2800969819
 31
0.0
  0
LINE
  5
378
330
370
100
AcDbEntity
  8
DESSIN
 62
     0
100
AcDbLine
 10
-5.0
 20
0.0
 30
0.0
 11
-7.5
 21
0.0
 31
0.0
  0
LINE
  5
379
330
370
100
AcDbEntity
  8
DESSIN
 62
     0
100
AcDbLine
 10
0.0
 20
-5.0
 30
0.0
 11
0.0
 21
-18.6224732864
 31
0.0
  0
LINE
  5
37A
330
370
100
AcDbEntity
  8
DESSIN
 62
     0
100
AcDbLine
 10
5.0
 20
0.0
 30
0.0
 11
7.5
 21
0.0
 31
0.0
  0
ENDBLK
  5
372
330
370
100
AcDbEntity
  8
0
100
AcDbBlockEnd
  0
BLOCK
  5
37D
330
37C
100
AcDbEntity
  8
0
100
AcDbBlockBegin
  2
SW_CENTERMARKSYMBOL_7
 70
     0
 10
0.0
 20
0.0
 30
0.0
  3
SW_CENTERMARKSYMBOL_7
  1
SW_CENTERMARKSYMBOL_7
  0
LINE
  5
37F
330
37C
100
AcDbEntity
  8
DESSIN
 62
     0
100
AcDbLine
 10
0.0
 20
0.0
 30
0.0
 11
0.0
 21
2.5
 31
0.0
  0
LINE
  5
380
330
37C
100
AcDbEntity
  8
DESSIN
 62
     0
100
AcDbLine
 10
0.0
 20
0.0
 30
0.0
 11
-2.5
 21
0.0
 31
0.0
  0
LINE
  5
381
330
37C
100
AcDbEntity
  8
DESSIN
 62
     0
100
AcDbLine
 10
0.0
 20
0.0
 30
0.0
 11
0.0
 21
-2.5
 31
0.0
  0
LINE
  5
382
330
37C
100
AcDbEntity
  8
DESSIN
 62
     0
100
AcDbLine
 10
0.0
 20
0.0
 30
0.0
 11
2.5
 21
0.0
 31
0.0
  0
LINE
  5
383
330
37C
100
AcDbEntity
  8
DESSIN
 62
     0
100
AcDbLine
 10
0.0
 20
2.5
 30
0.0
 11
0.0
 21
5.0
 31
0.0
  0
LINE
  5
384
330
37C
100
AcDbEntity
  8
DESSIN
 62
     0
100
AcDbLine
 10
-2.5
 20
0.0
 30
0.0
 11
-5.0
 21
0.0
 31
0.0
  0
LINE
  5
385
330
37C
100
AcDbEntity
  8
DESSIN
 62
     0
100
AcDbLine
 10
0.0
 20
-2.5
 30
0.0
 11
0.0
 21
-5.0
 31
0.0
  0
LINE
  5
386
330
37C
100
AcDbEntity
  8
DESSIN
 62
     0
100
AcDbLine
 10
2.5
 20
0.0
 30
0.0
 11
5.0
 21
0.0
 31
0.0
  0
ENDBLK
  5
37E
330
37C
100
AcDbEntity
  8
0
100
AcDbBlockEnd
  0
BLOCK
  5
389
330
388
100
AcDbEntity
  8
0
100
AcDbBlockBegin
  2
SW_CENTERMARKSYMBOL_8
 70
     0
 10
0.0
 20
0.0
 30
0.0
  3
SW_CENTERMARKSYMBOL_8
  1
SW_CENTERMARKSYMBOL_8
  0
LINE
  5
38B
330
388
100
AcDbEntity
  8
DESSIN
 62
     0
100
AcDbLine
 10
0.0
 20
0.0
 30
0.0
 11
0.0
 21
2.5
 31
0.0
  0
LINE
  5
38C
330
388
100
AcDbEntity
  8
DESSIN
 62
     0
100
AcDbLine
 10
0.0
 20
0.0
 30
0.0
 11
-2.5
 21
0.0
 31
0.0
  0
LINE
  5
38D
330
388
100
AcDbEntity
  8
DESSIN
 62
     0
100
AcDbLine
 10
0.0
 20
0.0
 30
0.0
 11
0.0
 21
-2.5
 31
0.0
  0
LINE
  5
38E
330
388
100
AcDbEntity
  8
DESSIN
 62
     0
100
AcDbLine
 10
0.0
 20
0.0
 30
0.0
 11
2.5
 21
0.0
 31
0.0
  0
LINE
  5
38F
330
388
100
AcDbEntity
  8
DESSIN
 62
     0
100
AcDbLine
 10
0.0
 20
2.5
 30
0.0
 11
0.0
 21
141.3144136654
 31
0.0
  0
LINE
  5
390
330
388
100
AcDbEntity
  8
DESSIN
 62
     0
100
AcDbLine
 10
-2.5
 20
0.0
 30
0.0
 11
-75.1091667867
 21
0.0
 31
0.0
  0
LINE
  5
391
330
388
100
AcDbEntity
  8
DESSIN
 62
     0
100
AcDbLine
 10
0.0
 20
-2.5
 30
0.0
 11
0.0
 21
-5.0
 31
0.0
  0
LINE
  5
392
330
388
100
AcDbEntity
  8
DESSIN
 62
     0
100
AcDbLine
 10
2.5
 20
0.0
 30
0.0
 11
5.0
 21
0.0
 31
0.0
  0
ENDBLK
  5
38A
330
388
100
AcDbEntity
  8
0
100
AcDbBlockEnd
  0
BLOCK
  5
3A1
330
3A0
100
AcDbEntity
  8
0
100
AcDbBlockBegin
  2
_D_5
 70
     0
 10
0.0
 20
0.0
 30
0.0
  3
_D_5
  1
_D_5
  0
SOLID
  5
3A3
330
3A0
100
AcDbEntity
  8
DESSIN
 62
     7
100
AcDbTrace
 10
76.8021129864
 20
186.7056865169
 30
0.0
 11
77.7021129864
 21
192.7056865169
 31
0.0
 12
75.9021129864
 22
192.7056865169
 32
0.0
 13
75.9021129864
 23
192.7056865169
 33
0.0
  0
SOLID
  5
3A4
330
3A0
100
AcDbEntity
  8
DESSIN
 62
     7
100
AcDbTrace
 10
76.8021129864
 20
184.7056865169
 30
0.0
 11
75.9021129864
 21
178.7056865169
 31
0.0
 12
77.7021129864
 22
178.7056865169
 32
0.0
 13
77.7021129864
 23
178.7056865169
 33
0.0
  0
LINE
  5
3A5
330
3A0
100
AcDbEntity
  8
DESSIN
 62
     7
100
AcDbLine
 10
97.8021129864
 20
186.7056865169
 30
0.0
 11
75.8021129864
 21
186.7056865169
 31
0.0
  0
LINE
  5
3A6
330
3A0
100
AcDbEntity
  8
DESSIN
 62
     7
100
AcDbLine
 10
97.8021129864
 20
184.7056865169
 30
0.0
 11
75.8021129864
 21
184.7056865169
 31
0.0
  0
LINE
  5
3A7
330
3A0
100
AcDbEntity
  8
DESSIN
 62
     7
100
AcDbLine
 10
76.8021129864
 20
186.7056865169
 30
0.0
 11
76.8021129864
 21
227.6499475916
 31
0.0
  0
LINE
  5
3A8
330
3A0
100
AcDbEntity
  8
DESSIN
 62
     7
100
AcDbLine
 10
76.8021129864
 20
186.7056865169
 30
0.0
 11
76.8021129864
 21
184.7056865169
 31
0.0
  0
LINE
  5
3A9
330
3A0
100
AcDbEntity
  8
DESSIN
 62
     7
100
AcDbLine
 10
76.8021129864
 20
184.7056865169
 30
0.0
 11
76.8021129864
 21
172.7056865169
 31
0.0
  0
MTEXT
  5
3AA
330
3A0
100
AcDbEntity
  8
DESSIN
 62
     7
100
AcDbMText
 10
72.2903757808
 20
213.7714754422
 30
0.0
 40
3.5
 41
0.0
 71
     1
 72
     1
  1
Ep.
  7
SLDTEXTSTYLE0
 11
-7.044195017643634E-15
 21
1.0
 31
0.0
 73
     1
 44
1.0
  0
MTEXT
  5
3AB
330
3A0
100
AcDbEntity
  8
DESSIN
 62
     7
100
AcDbMText
 10
72.2903757808
 20
224.874253348
 30
0.0
 40
3.5
 41
0.0
 71
     1
 72
     1
  1
2
  7
SLDTEXTSTYLE0
 11
-7.044195017643634E-15
 21
1.0
 31
0.0
 73
     1
 44
1.0
  0
ENDBLK
  5
3A2
330
3A0
100
AcDbEntity
  8
0
100
AcDbBlockEnd
  0
BLOCK
  5
3D4
330
3D3
100
AcDbEntity
  8
0
100
AcDbBlockBegin
  2
_D_6
 70
     0
 10
0.0
 20
0.0
 30
0.0
  3
_D_6
  1
_D_6
  0
SOLID
  5
3D6
330
3D3
100
AcDbEntity
  8
DESSIN
 62
     7
100
AcDbTrace
 10
503.4582878015
 20
109.8039569684
 30
0.0
 11
509.4582878015
 21
108.9039569684
 31
0.0
 12
509.4582878015
 22
110.7039569684
 32
0.0
 13
509.4582878015
 23
110.7039569684
 33
0.0
  0
SOLID
  5
3D7
330
3D3
100
AcDbEntity
  8
DESSIN
 62
     7
100
AcDbTrace
 10
653.9101455415
 20
109.8039569684
 30
0.0
 11
647.9101455415
 21
110.7039569684
 31
0.0
 12
647.9101455415
 22
108.9039569684
 32
0.0
 13
647.9101455415
 23
108.9039569684
 33
0.0
  0
LINE
  5
3D8
330
3D3
100
AcDbEntity
  8
DESSIN
 62
     7
100
AcDbLine
 10
503.4582878015
 20
145.2330475945
 30
0.0
 11
503.4582878015
 21
108.8039569684
 31
0.0
  0
LINE
  5
3D9
330
3D3
100
AcDbEntity
  8
DESSIN
 62
     7
100
AcDbLine
 10
653.9101455415
 20
145.2330475945
 30
0.0
 11
653.9101455415
 21
108.8039569684
 31
0.0
  0
LINE
  5
3DA
330
3D3
100
AcDbEntity
  8
DESSIN
 62
     7
100
AcDbLine
 10
503.4582878015
 20
109.8039569684
 30
0.0
 11
653.9101455415
 21
109.8039569684
 31
0.0
  0
MTEXT
  5
3DB
330
3D3
100
AcDbEntity
  8
DESSIN
 62
     7
100
AcDbMText
 10
570.3571330094
 20
114.315694174
 30
0.0
 40
3.5
 41
0.0
 71
     1
 72
     1
  1
150,45
  7
SLDTEXTSTYLE0
 73
     1
 44
1.0
  0
ENDBLK
  5
3D5
330
3D3
100
AcDbEntity
  8
0
100
AcDbBlockEnd
  0
BLOCK
  5
3DE
330
3DD
100
AcDbEntity
  8
0
100
AcDbBlockBegin
  2
_D_7
 70
     0
 10
0.0
 20
0.0
 30
0.0
  3
_D_7
  1
_D_7
  0
SOLID
  5
3E0
330
3DD
100
AcDbEntity
  8
DESSIN
 62
     7
100
AcDbTrace
 10
452.8714391804
 20
132.9318572159
 30
0.0
 11
457.9289294671
 21
129.5804706371
 31
0.0
 12
458.6896423382
 22
131.2118246538
 32
0.0
 13
458.6896423382
 23
131.2118246538
 33
0.0
  0
SOLID
  5
3E1
330
3DD
100
AcDbEntity
  8
DESSIN
 62
     7
100
AcDbTrace
 10
489.3285117561
 20
115.93164508
 30
0.0
 11
484.2710214695
 21
119.2830316588
 31
0.0
 12
483.5103085983
 22
117.6516776421
 32
0.0
 13
483.5103085983
 23
117.6516776421
 33
0.0
  0
LINE
  5
3E2
330
3DD
100
AcDbEntity
  8
DESSIN
 62
     7
100
AcDbLine
 10
466.5785969641
 20
162.3269519435
 30
0.0
 11
452.4488209187
 21
132.0255494289
 31
0.0
  0
LINE
  5
3E3
330
3DD
100
AcDbEntity
  8
DESSIN
 62
     7
100
AcDbLine
 10
503.0356695398
 20
145.3267398075
 30
0.0
 11
488.9058934944
 21
115.0253372929
 31
0.0
  0
LINE
  5
3E4
330
3DD
100
AcDbEntity
  8
DESSIN
 62
     7
100
AcDbLine
 10
452.8714391804
 20
132.9318572159
 30
0.0
 11
489.3285117561
 21
115.93164508
 31
0.0
  0
MTEXT
  5
3E5
330
3DD
100
AcDbEntity
  8
DESSIN
 62
     7
100
AcDbMText
 10
466.717634313
 20
131.4534215982
 30
0.0
 40
3.5
 41
0.0
 71
     1
 72
     1
  1
40,23
  7
SLDTEXTSTYLE0
 11
0.9063077870366549
 21
-0.4226182617406887
 31
0.0
 73
     1
 44
1.0
  0
ENDBLK
  5
3DF
330
3DD
100
AcDbEntity
  8
0
100
AcDbBlockEnd
  0
BLOCK
  5
3E8
330
3E7
100
AcDbEntity
  8
0
100
AcDbBlockBegin
  2
_D_8
 70
     0
 10
0.0
 20
0.0
 30
0.0
  3
_D_8
  1
_D_8
  0
SOLID
  5
3EA
330
3E7
100
AcDbEntity
  8
DESSIN
 62
     7
100
AcDbTrace
 10
670.5580475102
 20
110.5315066107
 30
0.0
 11
676.376250668
 21
112.2515391728
 31
0.0
 12
675.6155377969
 22
113.8828931895
 32
0.0
 13
675.6155377969
 23
113.8828931895
 33
0.0
  0
SOLID
  5
3EB
330
3E7
100
AcDbEntity
  8
DESSIN
 62
     7
100
AcDbTrace
 10
707.0151200859
 20
127.5317187466
 30
0.0
 11
701.1969169281
 21
125.8116861845
 31
0.0
 12
701.9576297993
 22
124.1803321678
 32
0.0
 13
701.9576297993
 23
124.1803321678
 33
0.0
  0
LINE
  5
3EC
330
3E7
100
AcDbEntity
  8
DESSIN
 62
     7
100
AcDbLine
 10
654.3327638033
 20
145.3267398075
 30
0.0
 11
670.980665772
 21
109.6251988236
 31
0.0
  0
LINE
  5
3ED
330
3E7
100
AcDbEntity
  8
DESSIN
 62
     7
100
AcDbLine
 10
690.7898363789
 20
162.3269519435
 30
0.0
 11
707.4377383477
 21
126.6254109596
 31
0.0
  0
LINE
  5
3EE
330
3E7
100
AcDbEntity
  8
DESSIN
 62
     7
100
AcDbLine
 10
670.5580475102
 20
110.5315066107
 30
0.0
 11
707.0151200859
 21
127.5317187466
 31
0.0
  0
MTEXT
  5
3EF
330
3E7
100
AcDbEntity
  8
DESSIN
 62
     7
100
AcDbMText
 10
680.5907575722
 20
120.1879873535
 30
0.0
 40
3.5
 41
0.0
 71
     1
 72
     1
  1
40,23
  7
SLDTEXTSTYLE0
 11
0.9063077870366487
 21
0.4226182617407021
 31
0.0
 73
     1
 44
1.0
  0
ENDBLK
  5
3E9
330
3E7
100
AcDbEntity
  8
0
100
AcDbBlockEnd
  0
BLOCK
  5
3F3
330
3F2
100
AcDbEntity
  8
0
100
AcDbBlockBegin
  2
_D_9
 70
     0
 10
0.0
 20
0.0
 30
0.0
  3
_D_9
  1
_D_9
  0
ARC
  5
3F5
330
3F2
100
AcDbEntity
  8
DESSIN
 62
     7
100
AcDbCircle
 10
503.9016771268
 20
148.2330475945
 30
0.0
 40
66.57568126789425
100
AcDbArc
 50
155.0
 51
180.0
  0
SOLID
  5
3F6
330
3F2
100
AcDbEntity
  8
DESSIN
 62
     7
100
AcDbTrace
 10
443.5636187664
 20
176.3691462862
 30
0.0
 11
440.4428234471
 21
171.1662012956
 31
0.0
 12
442.1067053899
 22
170.4795449913
 32
0.0
 13
442.1067053899
 23
170.4795449913
 33
0.0
  0
SOLID
  5
3F7
330
3F2
100
AcDbEntity
  8
DESSIN
 62
     7
100
AcDbTrace
 10
437.3259958589
 20
148.2330475945
 30
0.0
 11
438.4946369823
 21
154.1865573094
 31
0.0
 12
436.6964543271
 22
154.2674222481
 32
0.0
 13
436.6964543271
 23
154.2674222481
 33
0.0
  0
LINE
  5
3F8
330
3F2
100
AcDbEntity
  8
DESSIN
 62
     7
100
AcDbLine
 10
480.5347607678
 20
159.1292196402
 30
0.0
 11
442.6573109794
 21
176.7917645479
 31
0.0
  0
LINE
  5
3F9
330
3F2
100
AcDbEntity
  8
DESSIN
 62
     7
100
AcDbLine
 10
502.9460160593
 20
148.2330475945
 30
0.0
 11
436.3259958589
 21
148.2330475945
 31
0.0
  0
MTEXT
  5
3FA
330
3F2
100
AcDbEntity
  8
DESSIN
 62
     7
100
AcDbMText
 10
433.5981589281
 20
159.5543317397
 30
0.0
 40
3.5
 41
0.0
 71
     1
 72
     1
  1
25°
  7
SLDTEXTSTYLE0
 11
0.2164396139380966
 21
0.9762960071199348
 31
0.0
 73
     1
 44
1.0
  0
ENDBLK
  5
3F4
330
3F2
100
AcDbEntity
  8
0
100
AcDbBlockEnd
  0
BLOCK
  5
3FD
330
3FC
100
AcDbEntity
  8
0
100
AcDbBlockBegin
  2
_D_10
 70
     0
 10
0.0
 20
0.0
 30
0.0
  3
_D_10
  1
_D_10
  0
ARC
  5
3FF
330
3FC
100
AcDbEntity
  8
DESSIN
 62
     7
100
AcDbCircle
 10
653.4667562162
 20
148.2330475945
 30
0.0
 40
77.69090589613064
100
AcDbArc
 50
0.0
 51
25.0
  0
SOLID
  5
400
330
3FC
100
AcDbEntity
  8
DESSIN
 62
     7
100
AcDbTrace
 10
731.1576621124
 20
148.2330475945
 30
0.0
 11
731.8258227253
 21
154.2632682701
 31
0.0
 12
730.0271592238
 22
154.1939169287
 32
0.0
 13
730.0271592238
 23
154.1939169287
 33
0.0
  0
SOLID
  5
401
330
3FC
100
AcDbEntity
  8
DESSIN
 62
     7
100
AcDbTrace
 10
723.8786292118
 20
181.0666431974
 30
0.0
 11
725.3732178772
 21
175.1864897367
 31
0.0
 12
727.0326697581
 22
175.8837841185
 32
0.0
 13
727.0326697581
 23
175.8837841185
 33
0.0
  0
LINE
  5
402
330
3FC
100
AcDbEntity
  8
DESSIN
 62
     7
100
AcDbLine
 10
654.4224172837
 20
148.2330475945
 30
0.0
 11
732.1576621124
 21
148.2330475945
 31
0.0
  0
LINE
  5
403
330
3FC
100
AcDbEntity
  8
DESSIN
 62
     7
100
AcDbLine
 10
676.8336725752
 20
159.1292196402
 30
0.0
 11
724.7849369989
 21
181.4892614592
 31
0.0
  0
MTEXT
  5
404
330
3FC
100
AcDbEntity
  8
DESSIN
 62
     7
100
AcDbMText
 10
732.8197130646
 20
170.0898051973
 30
0.0
 40
3.5
 41
0.0
 71
     1
 72
     1
  1
25°
  7
SLDTEXTSTYLE0
 11
0.216439613938096
 21
-0.9762960071199349
 31
0.0
 73
     1
 44
1.0
  0
ENDBLK
  5
3FE
330
3FC
100
AcDbEntity
  8
0
100
AcDbBlockEnd
  0
BLOCK
  5
407
330
406
100
AcDbEntity
  8
0
100
AcDbBlockBegin
  2
_D_11
 70
     0
 10
0.0
 20
0.0
 30
0.0
  3
_D_11
  1
_D_11
  0
ARC
  5
409
330
406
100
AcDbEntity
  8
DESSIN
 62
     7
100
AcDbCircle
 10
605.1932974548
 20
190.984436298
 30
0.0
 40
6.179466983947386
100
AcDbArc
 50
243.4349488229
 51
296.5650511771
  0
ARC
  5
40A
330
406
100
AcDbEntity
  8
DESSIN
 62
     7
100
AcDbCircle
 10
605.1932974548
 20
185.4816586582
 30
0.0
 40
6.179466983947412
100
AcDbArc
 50
63.4349488229
 51
116.5650511771
  0
SOLID
  5
40B
330
406
100
AcDbEntity
  8
DESSIN
 62
     7
100
AcDbTrace
 10
607.956839103
 20
166.2330475945
 30
0.0
 11
608.856839103
 21
172.2330475945
 31
0.0
 12
607.056839103
 22
172.2330475945
 32
0.0
 13
607.056839103
 23
172.2330475945
 33
0.0
  0
SOLID
  5
40C
330
406
100
AcDbEntity
  8
DESSIN
 62
     7
100
AcDbTrace
 10
607.956839103
 20
146.2330475945
 30
0.0
 11
607.056839103
 21
140.2330475945
 31
0.0
 12
608.856839103
 22
140.2330475945
 32
0.0
 13
608.856839103
 23
140.2330475945
 33
0.0
  0
LINE
  5
40D
330
406
100
AcDbEntity
  8
DESSIN
 62
     7
100
AcDbLine
 10
584.6842166715
 20
166.2330475945
 30
0.0
 11
608.956839103
 21
166.2330475945
 31
0.0
  0
LINE
  5
40E
330
406
100
AcDbEntity
  8
DESSIN
 62
     7
100
AcDbLine
 10
607.956839103
 20
166.2330475945
 30
0.0
 11
607.956839103
 21
191.6611258511
 31
0.0
  0
LINE
  5
40F
330
406
100
AcDbEntity
  8
DESSIN
 62
     7
100
AcDbLine
 10
607.956839103
 20
166.2330475945
 30
0.0
 11
607.956839103
 21
146.2330475945
 31
0.0
  0
LINE
  5
410
330
406
100
AcDbEntity
  8
DESSIN
 62
     7
100
AcDbLine
 10
607.956839103
 20
146.2330475945
 30
0.0
 11
607.956839103
 21
134.2330475945
 31
0.0
  0
MTEXT
  5
411
330
406
100
AcDbEntity
  8
DESSIN
 62
     7
100
AcDbMText
 10
603.4451018974
 20
185.4573530017
 30
0.0
 40
3.5
 41
0.0
 71
     1
 72
     1
  1
20
  7
SLDTEXTSTYLE0
 11
-7.044195017643634E-15
 21
1.0
 31
0.0
 73
     1
 44
1.0
  0
ENDBLK
  5
408
330
406
100
AcDbEntity
  8
0
100
AcDbBlockEnd
  0
BLOCK
  5
413
330
412
100
AcDbEntity
  8
0
100
AcDbBlockBegin
  2
SW_CENTERMARKSYMBOL_9
 70
     0
 10
0.0
 20
0.0
 30
0.0
  3
SW_CENTERMARKSYMBOL_9
  1
SW_CENTERMARKSYMBOL_9
  0
LINE
  5
415
330
412
100
AcDbEntity
  8
DESSIN
 62
     0
100
AcDbLine
 10
0.0
 20
0.0
 30
0.0
 11
0.0
 21
2.5
 31
0.0
  0
LINE
  5
416
330
412
100
AcDbEntity
  8
DESSIN
 62
     0
100
AcDbLine
 10
0.0
 20
0.0
 30
0.0
 11
-2.5
 21
0.0
 31
0.0
  0
LINE
  5
417
330
412
100
AcDbEntity
  8
DESSIN
 62
     0
100
AcDbLine
 10
0.0
 20
0.0
 30
0.0
 11
0.0
 21
-2.5
 31
0.0
  0
LINE
  5
418
330
412
100
AcDbEntity
  8
DESSIN
 62
     0
100
AcDbLine
 10
0.0
 20
0.0
 30
0.0
 11
2.5
 21
0.0
 31
0.0
  0
LINE
  5
419
330
412
100
AcDbEntity
  8
DESSIN
 62
     0
100
AcDbLine
 10
0.0
 20
5.0
 30
0.0
 11
0.0
 21
14.5860149264
 31
0.0
  0
LINE
  5
41A
330
412
100
AcDbEntity
  8
DESSIN
 62
     0
100
AcDbLine
 10
-5.0
 20
0.0
 30
0.0
 11
-14.4283654239
 21
0.0
 31
0.0
  0
LINE
  5
41B
330
412
100
AcDbEntity
  8
DESSIN
 62
     0
100
AcDbLine
 10
0.0
 20
-5.0
 30
0.0
 11
0.0
 21
-19.990107429
 31
0.0
  0
LINE
  5
41C
330
412
100
AcDbEntity
  8
DESSIN
 62
     0
100
AcDbLine
 10
5.0
 20
0.0
 30
0.0
 11
6.5
 21
0.0
 31
0.0
  0
ENDBLK
  5
414
330
412
100
AcDbEntity
  8
0
100
AcDbBlockEnd
  0
BLOCK
  5
454
330
453
100
AcDbEntity
  8
0
100
AcDbBlockBegin
  2
_D_12
 70
     0
 10
0.0
 20
0.0
 30
0.0
  3
_D_12
  1
_D_12
  0
SOLID
  5
456
330
453
100
AcDbEntity
  8
DESSIN
 62
     7
100
AcDbTrace
 10
769.8495886585
 20
218.7817911149
 30
0.0
 11
763.8495886585
 21
219.6817911149
 31
0.0
 12
763.8495886585
 22
217.8817911149
 32
0.0
 13
763.8495886585
 23
217.8817911149
 33
0.0
  0
SOLID
  5
457
330
453
100
AcDbEntity
  8
DESSIN
 62
     7
100
AcDbTrace
 10
777.8495886585
 20
218.7817911149
 30
0.0
 11
783.8495886585
 21
217.8817911149
 31
0.0
 12
783.8495886585
 22
219.6817911149
 32
0.0
 13
783.8495886585
 23
219.6817911149
 33
0.0
  0
LINE
  5
458
330
453
100
AcDbEntity
  8
DESSIN
 62
     7
100
AcDbLine
 10
769.8495886585
 20
232.2817911149
 30
0.0
 11
769.8495886585
 21
217.7817911149
 31
0.0
  0
LINE
  5
459
330
453
100
AcDbEntity
  8
DESSIN
 62
     7
100
AcDbLine
 10
777.8495886585
 20
236.5817911149
 30
0.0
 11
777.8495886585
 21
217.7817911149
 31
0.0
  0
LINE
  5
45A
330
453
100
AcDbEntity
  8
DESSIN
 62
     7
100
AcDbLine
 10
769.8495886585
 20
218.7817911149
 30
0.0
 11
757.8495886585
 21
218.7817911149
 31
0.0
  0
LINE
  5
45B
330
453
100
AcDbEntity
  8
DESSIN
 62
     7
100
AcDbLine
 10
769.8495886585
 20
218.7817911149
 30
0.0
 11
777.8495886585
 21
218.7817911149
 31
0.0
  0
LINE
  5
45C
330
453
100
AcDbEntity
  8
DESSIN
 62
     7
100
AcDbLine
 10
777.8495886585
 20
218.7817911149
 30
0.0
 11
808.6708965454
 21
218.7817911149
 31
0.0
  0
MTEXT
  5
45D
330
453
100
AcDbEntity
  8
DESSIN
 62
     7
100
AcDbMText
 10
792.0167292211
 20
223.2935283205
 30
0.0
 40
3.5
 41
0.0
 71
     1
 72
     1
  1
8
  7
SLDTEXTSTYLE0
 73
     1
 44
1.0
  0
MTEXT
  5
45E
330
453
100
AcDbEntity
  8
DESSIN
 62
     7
100
AcDbMText
 10
797.5267986975
 20
223.2935283205
 30
0.0
 40
3.5
 41
0.0
 71
     1
 72
     1
  1
±0,2
  7
SLDTEXTSTYLE0
 73
     1
 44
1.0
  0
ENDBLK
  5
455
330
453
100
AcDbEntity
  8
0
100
AcDbBlockEnd
  0
BLOCK
  5
462
330
461
100
AcDbEntity
  8
0
100
AcDbBlockBegin
  2
_D_13
 70
     0
 10
0.0
 20
0.0
 30
0.0
  3
_D_13
  1
_D_13
  0
SOLID
  5
464
330
461
100
AcDbEntity
  8
DESSIN
 62
     7
100
AcDbTrace
 10
743.8495886585
 20
237.3817911149
 30
0.0
 11
742.9495886585
 21
231.3817911149
 31
0.0
 12
744.7495886585
 22
231.3817911149
 32
0.0
 13
744.7495886585
 23
231.3817911149
 33
0.0
  0
SOLID
  5
465
330
461
100
AcDbEntity
  8
DESSIN
 62
     7
100
AcDbTrace
 10
743.8495886585
 20
246.8817911149
 30
0.0
 11
744.7495886585
 21
252.8817911149
 31
0.0
 12
742.9495886585
 22
252.8817911149
 32
0.0
 13
742.9495886585
 23
252.8817911149
 33
0.0
  0
LINE
  5
466
330
461
100
AcDbEntity
  8
DESSIN
 62
     7
100
AcDbLine
 10
758.8495886585
 20
237.3817911149
 30
0.0
 11
742.8495886585
 21
237.3817911149
 31
0.0
  0
LINE
  5
467
330
461
100
AcDbEntity
  8
DESSIN
 62
     7
100
AcDbLine
 10
763.8495886585
 20
246.8817911149
 30
0.0
 11
742.8495886585
 21
246.8817911149
 31
0.0
  0
LINE
  5
468
330
461
100
AcDbEntity
  8
DESSIN
 62
     7
100
AcDbLine
 10
743.8495886585
 20
237.3817911149
 30
0.0
 11
743.8495886585
 21
201.277225131
 31
0.0
  0
LINE
  5
469
330
461
100
AcDbEntity
  8
DESSIN
 62
     7
100
AcDbLine
 10
743.8495886585
 20
237.3817911149
 30
0.0
 11
743.8495886585
 21
246.8817911149
 31
0.0
  0
LINE
  5
46A
330
461
100
AcDbEntity
  8
DESSIN
 62
     7
100
AcDbLine
 10
743.8495886585
 20
246.8817911149
 30
0.0
 11
743.8495886585
 21
258.8817911149
 31
0.0
  0
MTEXT
  5
46B
330
461
100
AcDbEntity
  8
DESSIN
 62
     7
100
AcDbMText
 10
739.3378514529
 20
201.277225131
 30
0.0
 40
3.5
 41
0.0
 71
     1
 72
     1
  1
9,5
  7
SLDTEXTSTYLE0
 11
-1.493079894517852E-15
 21
1.0
 31
0.0
 73
     1
 44
1.0
  0
MTEXT
  5
46C
330
461
100
AcDbEntity
  8
DESSIN
 62
     7
100
AcDbMText
 10
739.3378514529
 20
212.3386837931
 30
0.0
 40
3.5
 41
0.0
 71
     1
 72
     1
  1
MAX
  7
SLDTEXTSTYLE0
 11
-1.493079894517852E-15
 21
1.0
 31
0.0
 73
     1
 44
1.0
  0
ENDBLK
  5
463
330
461
100
AcDbEntity
  8
0
100
AcDbBlockEnd
  0
BLOCK
  5
46F
330
46E
100
AcDbEntity
  8
0
100
AcDbBlockBegin
  2
_D_14
 70
     0
 10
0.0
 20
0.0
 30
0.0
  3
_D_14
  1
_D_14
  0
ARC
  5
471
330
46E
100
AcDbEntity
  8
DESSIN
 62
     7
100
AcDbCircle
 10
779.8495886585
 20
235.3817911149
 30
0.0
 40
72.83963971601133
100
AcDbArc
 50
90.0
 51
180.0
  0
SOLID
  5
472
330
46E
100
AcDbEntity
  8
DESSIN
 62
     7
100
AcDbTrace
 10
779.8495886585
 20
308.2214308309
 30
0.0
 11
773.8176801729
 21
308.8741788841
 31
0.0
 12
773.8916278168
 22
307.075698485
 32
0.0
 13
773.8916278168
 23
307.075698485
 33
0.0
  0
SOLID
  5
473
330
46E
100
AcDbEntity
  8
DESSIN
 62
     7
100
AcDbTrace
 10
707.0099489425
 20
235.3817911149
 30
0.0
 11
708.1556812884
 21
241.3397519566
 31
0.0
 12
706.3572008893
 22
241.4136996005
 32
0.0
 13
706.3572008893
 23
241.4136996005
 33
0.0
  0
LINE
  5
474
330
46E
100
AcDbEntity
  8
DESSIN
 62
     7
100
AcDbLine
 10
758.8495886585
 20
235.3817911149
 30
0.0
 11
706.0099489425
 21
235.3817911149
 31
0.0
  0
MTEXT
  5
475
330
46E
100
AcDbEntity
  8
DESSIN
 62
     7
100
AcDbMText
 10
722.2098368406
 20
287.1334056078
 30
0.0
 40
3.5
 41
0.0
 71
     1
 72
     1
  1
90°
  7
SLDTEXTSTYLE0
 11
0.7071067811865412
 21
0.7071067811865538
 31
0.0
 73
     1
 44
1.0
  0
ENDBLK
  5
470
330
46E
100
AcDbEntity
  8
0
100
AcDbBlockEnd
  0
BLOCK
  5
478
330
477
100
AcDbEntity
  8
0
100
AcDbBlockBegin
  2
SW_NOTE_26
 70
     0
 10
0.0
 20
0.0
 30
0.0
  3
SW_NOTE_26
  1
SW_NOTE_26
  0
MTEXT
  5
47A
330
477
100
AcDbEntity
  8
DESSIN
 62
     0
100
AcDbMText
 10
0.501823266
 20
1.797630133
 30
0.0
 40
3.5
 41
0.0
 71
     1
 72
     1
  1
RIVKLE M8
  7
SLDTEXTSTYLE0
 73
     1
 44
1.0
  0
MTEXT
  5
47B
330
477
100
AcDbEntity
  8
DESSIN
 62
     0
100
AcDbMText
 10
0.501823266
 20
-2.7912588251
 30
0.0
 40
3.5
 41
0.0
 71
     1
 72
     1
  1
34366 080 233
  7
SLDTEXTSTYLE0
 73
     1
 44
1.0
  0
MTEXT
  5
47C
330
477
100
AcDbEntity
  8
DESSIN
 62
     0
100
AcDbMText
 10
0.501823266
 20
-7.3801477832
 30
0.0
 40
3.5
 41
0.0
 71
     1
 72
     1
  1
ou equivalent
  7
SLDTEXTSTYLE0
 73
     1
 44
1.0
  0
ENDBLK
  5
479
330
477
100
AcDbEntity
  8
0
100
AcDbBlockEnd
  0
ENDSEC
  0
SECTION
  2
ENTITIES
  0
HATCH
  5
7F
330
1F
100
AcDbEntity
  8
FORMAT
 62
     7
100
AcDbHatch
 10
0.0
 20
0.0
 30
0.0
210
0.0
220
0.0
230
1.0
  2
SOLID
 70
     1
 71
     0
 91
        1
 92
        0
 93
        3
 72
     1
 10
671.2927749232821
 20
47.21804393533383
 11
670.9574373024717
 21
47.53174687093068
 72
     1
 10
670.9574373024717
 20
47.53174687093068
 11
670.1372750506719
 21
46.23816082898496
 72
     1
 10
670.1372750506719
 20
46.23816082898496
 11
671.2927749232821
 21
47.21804393533383
 97
        0
 75
     0
 76
     1
 98
        1
 10
0.0
 20
0.0
  0
HATCH
  5
80
330
1F
100
AcDbEntity
  8
FORMAT
 62
     7
100
AcDbHatch
 10
0.0
 20
0.0
 30
0.0
210
0.0
220
0.0
230
1.0
  2
SOLID
 70
     1
 71
     0
 91
        1
 92
        0
 93
        3
 72
     1
 10
661.0982055246905
 20
43.81783095690525
 11
660.7628679038801
 21
44.13153389250208
 72
     1
 10
660.7628679038801
 20
44.13153389250208
 11
659.9427056520801
 21
42.83794785055637
 72
     1
 10
659.9427056520801
 20
42.83794785055637
 11
661.0982055246905
 21
43.81783095690525
 97
        0
 75
     0
 76
     1
 98
        1
 10
0.0
 20
0.0
  0
LINE
  5
81
330
1F
100
AcDbEntity
  8
FORMAT
 62
     7
370
     0
100
AcDbLine
 10
831.0
 20
584.0
 30
0.0
 11
10.0
 21
584.0
 31
0.0
  0
LINE
  5
82
330
1F
100
AcDbEntity
  8
FORMAT
 62
     7
370
     0
100
AcDbLine
 10
5.0
 20
5.0
 30
0.0
 11
836.0
 21
5.0
 31
0.0
  0
LINE
  5
83
330
1F
100
AcDbEntity
  8
FORMAT
 62
     7
370
     0
100
AcDbLine
 10
5.0
 20
589.0
 30
0.0
 11
836.0
 21
589.0
 31
0.0
  0
LINE
  5
84
330
1F
100
AcDbEntity
  8
FORMAT
 62
     7
370
     0
100
AcDbLine
 10
10.0
 20
10.0
 30
0.0
 11
831.0
 21
10.0
 31
0.0
  0
LINE
  5
85
330
1F
100
AcDbEntity
  8
FORMAT
 62
     7
370
     0
100
AcDbLine
 10
836.0
 20
5.0
 30
0.0
 11
836.0
 21
589.0
 31
0.0
  0
LINE
  5
86
330
1F
100
AcDbEntity
  8
FORMAT
 62
     7
370
     0
100
AcDbLine
 10
831.0
 20
584.0
 30
0.0
 11
831.0
 21
10.0
 31
0.0
  0
LINE
  5
87
330
1F
100
AcDbEntity
  8
FORMAT
 62
     7
370
     0
100
AcDbLine
 10
70.5
 20
584.0
 30
0.0
 11
70.5
 21
589.0
 31
0.0
  0
LINE
  5
88
330
1F
100
AcDbEntity
  8
FORMAT
 62
     7
370
     0
100
AcDbLine
 10
120.5
 20
584.0
 30
0.0
 11
120.5
 21
589.0
 31
0.0
  0
LINE
  5
89
330
1F
100
AcDbEntity
  8
FORMAT
 62
     7
370
     0
100
AcDbLine
 10
170.5
 20
584.0
 30
0.0
 11
170.5
 21
589.0
 31
0.0
  0
LINE
  5
8A
330
1F
100
AcDbEntity
  8
FORMAT
 62
     7
370
     0
100
AcDbLine
 10
220.5
 20
584.0
 30
0.0
 11
220.5
 21
589.0
 31
0.0
  0
LINE
  5
8B
330
1F
100
AcDbEntity
  8
FORMAT
 62
     7
370
     0
100
AcDbLine
 10
270.5
 20
584.0
 30
0.0
 11
270.5
 21
589.0
 31
0.0
  0
LINE
  5
8C
330
1F
100
AcDbEntity
  8
FORMAT
 62
     7
370
     0
100
AcDbLine
 10
320.5
 20
584.0
 30
0.0
 11
320.5
 21
589.0
 31
0.0
  0
LINE
  5
8D
330
1F
100
AcDbEntity
  8
FORMAT
 62
     7
370
     0
100
AcDbLine
 10
420.5
 20
579.0
 30
0.0
 11
420.5
 21
589.0
 31
0.0
  0
LINE
  5
8E
330
1F
100
AcDbEntity
  8
FORMAT
 62
     7
370
     0
100
AcDbLine
 10
10.0
 20
584.0
 30
0.0
 11
10.0
 21
10.0
 31
0.0
  0
LINE
  5
8F
330
1F
100
AcDbEntity
  8
FORMAT
 62
     7
370
     0
100
AcDbLine
 10
5.0
 20
5.0
 30
0.0
 11
5.0
 21
589.0
 31
0.0
  0
LINE
  5
90
330
1F
100
AcDbEntity
  8
FORMAT
 62
     7
370
     0
100
AcDbLine
 10
10.0
 20
47.0
 30
0.0
 11
5.0
 21
47.0
 31
0.0
  0
LINE
  5
91
330
1F
100
AcDbEntity
  8
FORMAT
 62
     7
370
     0
100
AcDbLine
 10
10.0
 20
97.0
 30
0.0
 11
5.0
 21
97.0
 31
0.0
  0
LINE
  5
92
330
1F
100
AcDbEntity
  8
FORMAT
 62
     7
370
     0
100
AcDbLine
 10
10.0
 20
147.0
 30
0.0
 11
5.0
 21
147.0
 31
0.0
  0
LINE
  5
93
330
1F
100
AcDbEntity
  8
FORMAT
 62
     7
370
     0
100
AcDbLine
 10
10.0
 20
197.0
 30
0.0
 11
5.0
 21
197.0
 31
0.0
  0
LINE
  5
94
330
1F
100
AcDbEntity
  8
FORMAT
 62
     7
370
     0
100
AcDbLine
 10
10.0
 20
247.0
 30
0.0
 11
5.0
 21
247.0
 31
0.0
  0
LINE
  5
95
330
1F
100
AcDbEntity
  8
FORMAT
 62
     7
370
     0
100
AcDbLine
 10
15.0
 20
297.0
 30
0.0
 11
5.0
 21
297.0
 31
0.0
  0
LINE
  5
96
330
1F
100
AcDbEntity
  8
FORMAT
 62
     7
370
     0
100
AcDbLine
 10
10.0
 20
347.0
 30
0.0
 11
5.0
 21
347.0
 31
0.0
  0
LINE
  5
97
330
1F
100
AcDbEntity
  8
FORMAT
 62
     7
370
     0
100
AcDbLine
 10
10.0
 20
397.0
 30
0.0
 11
5.0
 21
397.0
 31
0.0
  0
LINE
  5
98
330
1F
100
AcDbEntity
  8
FORMAT
 62
     7
370
     0
100
AcDbLine
 10
10.0
 20
447.0
 30
0.0
 11
5.0
 21
447.0
 31
0.0
  0
LINE
  5
99
330
1F
100
AcDbEntity
  8
FORMAT
 62
     7
370
     0
100
AcDbLine
 10
10.0
 20
497.0
 30
0.0
 11
5.0
 21
497.0
 31
0.0
  0
LINE
  5
9A
330
1F
100
AcDbEntity
  8
FORMAT
 62
     7
370
     0
100
AcDbLine
 10
370.5
 20
584.0
 30
0.0
 11
370.5
 21
589.0
 31
0.0
  0
LINE
  5
9B
330
1F
100
AcDbEntity
  8
FORMAT
 62
     7
370
     0
100
AcDbLine
 10
470.5
 20
584.0
 30
0.0
 11
470.5
 21
589.0
 31
0.0
  0
LINE
  5
9C
330
1F
100
AcDbEntity
  8
FORMAT
 62
     7
370
     0
100
AcDbLine
 10
520.5
 20
584.0
 30
0.0
 11
520.5
 21
589.0
 31
0.0
  0
LINE
  5
9D
330
1F
100
AcDbEntity
  8
FORMAT
 62
     7
370
     0
100
AcDbLine
 10
570.5
 20
584.0
 30
0.0
 11
570.5
 21
589.0
 31
0.0
  0
LINE
  5
9E
330
1F
100
AcDbEntity
  8
FORMAT
 62
     7
370
     0
100
AcDbLine
 10
620.5
 20
584.0
 30
0.0
 11
620.5
 21
589.0
 31
0.0
  0
LINE
  5
9F
330
1F
100
AcDbEntity
  8
FORMAT
 62
     7
370
     0
100
AcDbLine
 10
670.5
 20
584.0
 30
0.0
 11
670.5
 21
589.0
 31
0.0
  0
LINE
  5
A0
330
1F
100
AcDbEntity
  8
FORMAT
 62
     7
370
     0
100
AcDbLine
 10
720.5
 20
584.0
 30
0.0
 11
720.5
 21
589.0
 31
0.0
  0
LINE
  5
A1
330
1F
100
AcDbEntity
  8
FORMAT
 62
     7
370
     0
100
AcDbLine
 10
770.5
 20
584.0
 30
0.0
 11
770.5
 21
589.0
 31
0.0
  0
LINE
  5
A2
330
1F
100
AcDbEntity
  8
FORMAT
 62
     7
370
     0
100
AcDbLine
 10
10.0
 20
547.0
 30
0.0
 11
5.0
 21
547.0
 31
0.0
  0
LINE
  5
A3
330
1F
100
AcDbEntity
  8
FORMAT
 62
     7
370
     0
100
AcDbLine
 10
620.5
 20
10.0
 30
0.0
 11
620.5
 21
5.0
 31
0.0
  0
LINE
  5
A4
330
1F
100
AcDbEntity
  8
FORMAT
 62
     7
370
     0
100
AcDbLine
 10
831.0
 20
97.0
 30
0.0
 11
836.0
 21
97.0
 31
0.0
  0
LINE
  5
A5
330
1F
100
AcDbEntity
  8
FORMAT
 62
     7
370
     0
100
AcDbLine
 10
570.5
 20
10.0
 30
0.0
 11
570.5
 21
5.0
 31
0.0
  0
LINE
  5
A6
330
1F
100
AcDbEntity
  8
FORMAT
 62
     7
370
     0
100
AcDbLine
 10
520.5
 20
10.0
 30
0.0
 11
520.5
 21
5.0
 31
0.0
  0
LINE
  5
A7
330
1F
100
AcDbEntity
  8
FORMAT
 62
     7
370
     0
100
AcDbLine
 10
470.5
 20
10.0
 30
0.0
 11
470.5
 21
5.0
 31
0.0
  0
LINE
  5
A8
330
1F
100
AcDbEntity
  8
FORMAT
 62
     7
370
     0
100
AcDbLine
 10
420.5
 20
15.0
 30
0.0
 11
420.5
 21
5.0
 31
0.0
  0
LINE
  5
A9
330
1F
100
AcDbEntity
  8
FORMAT
 62
     7
370
     0
100
AcDbLine
 10
370.5
 20
10.0
 30
0.0
 11
370.5
 21
5.0
 31
0.0
  0
LINE
  5
AA
330
1F
100
AcDbEntity
  8
FORMAT
 62
     7
370
     0
100
AcDbLine
 10
320.5
 20
10.0
 30
0.0
 11
320.5
 21
5.0
 31
0.0
  0
LINE
  5
AB
330
1F
100
AcDbEntity
  8
FORMAT
 62
     7
370
     0
100
AcDbLine
 10
270.5
 20
10.0
 30
0.0
 11
270.5
 21
5.0
 31
0.0
  0
LINE
  5
AC
330
1F
100
AcDbEntity
  8
FORMAT
 62
     7
370
     0
100
AcDbLine
 10
70.5
 20
10.0
 30
0.0
 11
70.5
 21
5.0
 31
0.0
  0
LINE
  5
AD
330
1F
100
AcDbEntity
  8
FORMAT
 62
     7
370
     0
100
AcDbLine
 10
120.5
 20
10.0
 30
0.0
 11
120.5
 21
5.0
 31
0.0
  0
LINE
  5
AE
330
1F
100
AcDbEntity
  8
FORMAT
 62
     7
370
     0
100
AcDbLine
 10
170.5
 20
10.0
 30
0.0
 11
170.5
 21
5.0
 31
0.0
  0
LINE
  5
AF
330
1F
100
AcDbEntity
  8
FORMAT
 62
     7
370
     0
100
AcDbLine
 10
220.5
 20
10.0
 30
0.0
 11
220.5
 21
5.0
 31
0.0
  0
LINE
  5
B0
330
1F
100
AcDbEntity
  8
FORMAT
 62
     7
370
     0
100
AcDbLine
 10
831.0
 20
147.0
 30
0.0
 11
836.0
 21
147.0
 31
0.0
  0
LINE
  5
B1
330
1F
100
AcDbEntity
  8
FORMAT
 62
     7
370
     0
100
AcDbLine
 10
831.0
 20
197.0
 30
0.0
 11
836.0
 21
197.0
 31
0.0
  0
LINE
  5
B2
330
1F
100
AcDbEntity
  8
FORMAT
 62
     7
370
     0
100
AcDbLine
 10
831.0
 20
247.0
 30
0.0
 11
836.0
 21
247.0
 31
0.0
  0
LINE
  5
B3
330
1F
100
AcDbEntity
  8
FORMAT
 62
     7
370
     0
100
AcDbLine
 10
826.0
 20
297.0
 30
0.0
 11
836.0
 21
297.0
 31
0.0
  0
LINE
  5
B4
330
1F
100
AcDbEntity
  8
FORMAT
 62
     7
370
     0
100
AcDbLine
 10
831.0
 20
347.0
 30
0.0
 11
836.0
 21
347.0
 31
0.0
  0
LINE
  5
B5
330
1F
100
AcDbEntity
  8
FORMAT
 62
     7
370
     0
100
AcDbLine
 10
831.0
 20
397.0
 30
0.0
 11
836.0
 21
397.0
 31
0.0
  0
LINE
  5
B6
330
1F
100
AcDbEntity
  8
FORMAT
 62
     7
370
     0
100
AcDbLine
 10
831.0
 20
447.0
 30
0.0
 11
836.0
 21
447.0
 31
0.0
  0
LINE
  5
B7
330
1F
100
AcDbEntity
  8
FORMAT
 62
     7
370
     0
100
AcDbLine
 10
831.0
 20
497.0
 30
0.0
 11
836.0
 21
497.0
 31
0.0
  0
LINE
  5
B8
330
1F
100
AcDbEntity
  8
FORMAT
 62
     7
370
     0
100
AcDbLine
 10
831.0
 20
547.0
 30
0.0
 11
836.0
 21
547.0
 31
0.0
  0
LINE
  5
B9
330
1F
100
AcDbEntity
  8
FORMAT
  6
Continuous
370
     0
100
AcDbLine
 10
636.0
 20
10.0
 30
0.0
 11
831.0
 21
10.0
 31
0.0
  0
LINE
  5
BA
330
1F
100
AcDbEntity
  8
FORMAT
 62
     7
370
     0
100
AcDbLine
 10
770.5
 20
10.0
 30
0.0
 11
770.5
 21
5.0
 31
0.0
  0
LINE
  5
BB
330
1F
100
AcDbEntity
  8
FORMAT
 62
     7
370
     0
100
AcDbLine
 10
831.0
 20
47.0
 30
0.0
 11
836.0
 21
47.0
 31
0.0
  0
LINE
  5
BC
330
1F
100
AcDbEntity
  8
FORMAT
 62
     7
100
AcDbLine
 10
636.0
 20
51.8687928505
 30
0.0
 11
771.9723965587
 21
51.8687928505
 31
0.0
  0
LINE
  5
BD
330
1F
100
AcDbEntity
  8
FORMAT
 62
     7
370
     0
100
AcDbLine
 10
704.2080959976
 20
21.3099567735
 30
0.0
 11
704.2080959976
 21
14.25
 31
0.0
  0
LINE
  5
BE
330
1F
100
AcDbEntity
  8
FORMAT
100
AcDbLine
 10
826.7500288418
 20
14.25
 30
0.0
 11
826.7500288418
 21
65.0
 31
0.0
  0
LINE
  5
BF
330
1F
100
AcDbEntity
  8
FORMAT
100
AcDbLine
 10
636.0
 20
65.0
 30
0.0
 11
831.0
 21
65.0
 31
0.0
  0
LINE
  5
C0
330
1F
100
AcDbEntity
  8
FORMAT
100
AcDbLine
 10
778.7736976478
 20
27.9980860131
 30
0.0
 11
826.7500288418
 21
27.9980860131
 31
0.0
  0
LINE
  5
C1
330
1F
100
AcDbEntity
  8
FORMAT
100
AcDbLine
 10
826.7500288418
 20
21.3099567735
 30
0.0
 11
636.0
 21
21.3099567735
 31
0.0
  0
LINE
  5
C2
330
1F
100
AcDbEntity
  8
FORMAT
100
AcDbLine
 10
749.9395412592
 20
35.0294727499
 30
0.0
 11
749.9395412592
 21
14.25
 31
0.0
  0
LINE
  5
C3
330
1F
100
AcDbEntity
  8
FORMAT
100
AcDbLine
 10
778.7736976478
 20
27.9980860131
 30
0.0
 11
749.939570101
 21
27.9980860131
 31
0.0
  0
LINE
  5
C4
330
1F
100
AcDbEntity
  8
FORMAT
100
AcDbLine
 10
789.4435396058
 20
21.3099567735
 30
0.0
 11
789.4435396058
 21
14.25
 31
0.0
  0
LINE
  5
C5
330
1F
100
AcDbEntity
  8
FORMAT
100
AcDbLine
 10
771.9723965587
 20
14.25
 30
0.0
 11
826.7500288418
 21
14.25
 31
0.0
  0
LINE
  5
C6
330
1F
100
AcDbEntity
  8
FORMAT
100
AcDbLine
 10
636.0
 20
65.0
 30
0.0
 11
636.0
 21
10.0
 31
0.0
  0
LINE
  5
C7
330
1F
100
AcDbEntity
  8
FORMAT
100
AcDbLine
 10
771.9723965587
 20
14.25
 30
0.0
 11
636.0
 21
14.25
 31
0.0
  0
LINE
  5
C8
330
1F
100
AcDbEntity
  8
FORMAT
100
AcDbLine
 10
807.3172712828
 20
21.3099567735
 30
0.0
 11
807.3172712828
 21
14.25
 31
0.0
  0
LINE
  5
C9
330
1F
100
AcDbEntity
  8
FORMAT
100
AcDbLine
 10
636.0
 20
41.9559636665
 30
0.0
 11
826.7500288418
 21
41.9559636665
 31
0.0
  0
LINE
  5
CA
330
1F
100
AcDbEntity
  8
FORMAT
100
AcDbLine
 10
778.7736688061
 20
35.0294727499
 30
0.0
 11
636.0
 21
35.0294727499
 31
0.0
  0
LINE
  5
CB
330
1F
100
AcDbEntity
  8
FORMAT
100
AcDbLine
 10
771.9723965587
 20
65.0
 30
0.0
 11
771.9723965587
 21
14.25
 31
0.0
  0
LINE
  5
CC
330
1F
100
AcDbEntity
  8
FORMAT
100
AcDbLine
 10
778.7736688061
 20
35.0294727499
 30
0.0
 11
826.7500288418
 21
35.0294727499
 31
0.0
  0
LINE
  5
CD
330
1F
100
AcDbEntity
  8
FORMAT
 62
     7
370
     0
100
AcDbLine
 10
671.2927749233
 20
47.2180439353
 30
0.0
 11
670.1372750507
 21
46.238160829
 31
0.0
  0
LINE
  5
CE
330
1F
100
AcDbEntity
  8
FORMAT
 62
     7
370
    15
100
AcDbLine
 10
670.1372750507
 20
46.238160829
 30
0.0
 11
666.7309411366
 21
46.238160829
 31
0.0
  0
LINE
  5
CF
330
1F
100
AcDbEntity
  8
FORMAT
 62
     7
370
     0
100
AcDbLine
 10
826.7500288418
 20
14.25
 30
0.0
 11
826.7500288418
 21
21.0715950965
 31
0.0
  0
LINE
  5
D0
330
1F
100
AcDbEntity
  8
FORMAT
 62
     7
370
     0
100
AcDbLine
 10
676.6256505
 20
41.9559636665
 30
0.0
 11
676.6256505
 21
14.25
 31
0.0
  0
LINE
  5
D1
330
1F
100
AcDbEntity
  8
FORMAT
 62
     7
370
     0
100
AcDbLine
 10
656.9673926188
 20
51.8687928505
 30
0.0
 11
656.9673926188
 21
41.9559636665
 31
0.0
  0
LINE
  5
D2
330
1F
100
AcDbEntity
  8
FORMAT
 62
     7
370
     0
100
AcDbLine
 10
670.5
 20
5.0
 30
0.0
 11
670.5
 21
10.0
 31
0.0
  0
LINE
  5
D3
330
1F
100
AcDbEntity
  8
FORMAT
 62
     7
370
     0
100
AcDbLine
 10
720.5
 20
10.0
 30
0.0
 11
720.5
 21
5.0
 31
0.0
  0
LINE
  5
D4
330
1F
100
AcDbEntity
  8
FORMAT
 62
     7
370
     0
100
AcDbLine
 10
676.6256505
 20
41.9559636665
 30
0.0
 11
676.6256505
 21
51.8687928505
 31
0.0
  0
LINE
  5
D5
330
1F
100
AcDbEntity
  8
FORMAT
 62
     7
370
    15
100
AcDbLine
 10
670.1372750507
 20
42.8318269149
 30
0.0
 11
670.1372750507
 21
46.238160829
 31
0.0
  0
LINE
  5
D6
330
1F
100
AcDbEntity
  8
FORMAT
 62
     7
370
     0
100
AcDbLine
 10
670.9574373025
 20
47.5317468709
 30
0.0
 11
670.1372750507
 21
46.238160829
 31
0.0
  0
LINE
  5
D7
330
1F
100
AcDbEntity
  8
FORMAT
 62
     7
370
    15
100
AcDbLine
 10
659.9427056521
 20
42.8379478506
 30
0.0
 11
663.3429186305
 21
42.8379478506
 31
0.0
  0
LINE
  5
D8
330
1F
100
AcDbEntity
  8
FORMAT
 62
     7
370
    15
100
AcDbLine
 10
659.9427056521
 20
46.238160829
 30
0.0
 11
659.9427056521
 21
42.8379478506
 31
0.0
  0
LINE
  5
D9
330
1F
100
AcDbEntity
  8
FORMAT
 62
     7
370
     0
100
AcDbLine
 10
671.2927749233
 20
47.2180439353
 30
0.0
 11
670.9574373025
 21
47.5317468709
 31
0.0
  0
LINE
  5
DA
330
1F
100
AcDbEntity
  8
FORMAT
 62
     7
370
     0
100
AcDbLine
 10
671.1251061129
 20
47.3748954031
 30
0.0
 11
671.5346448289
 21
47.8126781685
 31
0.0
  0
LINE
  5
DB
330
1F
100
AcDbEntity
  8
FORMAT
 62
     7
370
     0
100
AcDbLine
 10
671.5346448289
 20
47.8126781685
 30
0.0
 11
674.9906110925
 21
47.8126781685
 31
0.0
  0
LINE
  5
DC
330
1F
100
AcDbEntity
  8
FORMAT
 62
     7
370
     0
100
AcDbLine
 10
671.5346448289
 20
47.8126781685
 30
0.0
 11
671.5346448289
 21
50.9280596831
 31
0.0
  0
LINE
  5
DD
330
1F
100
AcDbEntity
  8
FORMAT
 62
     7
370
     0
100
AcDbLine
 10
661.0982055247
 20
43.8178309569
 30
0.0
 11
659.9427056521
 21
42.8379478506
 31
0.0
  0
LINE
  5
DE
330
1F
100
AcDbEntity
  8
FORMAT
 62
     7
370
     0
100
AcDbLine
 10
660.7628679039
 20
44.1315338925
 30
0.0
 11
659.9427056521
 21
42.8379478506
 31
0.0
  0
LINE
  5
DF
330
1F
100
AcDbEntity
  8
FORMAT
 62
     7
370
     0
100
AcDbLine
 10
661.0982055247
 20
43.8178309569
 30
0.0
 11
660.7628679039
 21
44.1315338925
 31
0.0
  0
LINE
  5
E0
330
1F
100
AcDbEntity
  8
FORMAT
 62
     7
370
     0
100
AcDbLine
 10
660.9305367143
 20
43.9746824247
 30
0.0
 11
661.3400754303
 21
44.4124651901
 31
0.0
  0
LINE
  5
E1
330
1F
100
AcDbEntity
  8
FORMAT
 62
     7
370
     0
100
AcDbLine
 10
661.3400754303
 20
44.4124651901
 30
0.0
 11
664.7960416939
 21
44.4124651901
 31
0.0
  0
LINE
  5
E2
330
1F
100
AcDbEntity
  8
FORMAT
 62
     7
370
     0
100
AcDbLine
 10
661.3400754303
 20
44.4124651901
 30
0.0
 11
661.3400754303
 21
47.5278467047
 31
0.0
  0
LINE
  5
E3
330
1F
100
AcDbEntity
  8
DESSIN
 62
     7
370
     0
100
AcDbLine
 10
370.5
 20
584.0
 30
0.0
 11
370.5
 21
147.0
 31
0.0
  0
LINE
  5
E4
330
1F
100
AcDbEntity
  8
DESSIN
 62
     7
370
     0
100
AcDbLine
 10
370.5
 20
147.0
 30
0.0
 11
10.0
 21
147.0
 31
0.0
  0
LINE
  5
E5
330
1F
100
AcDbEntity
  8
FORMAT
 62
     7
370
     0
100
AcDbLine
 10
640.7422237857
 20
44.1340149253
 30
0.0
 11
640.7422237857
 21
46.8905014399
 31
0.0
  0
LINE
  5
E6
330
1F
100
AcDbEntity
  8
FORMAT
 62
     7
370
     0
100
AcDbLine
 10
640.7422237857
 20
46.8905014399
 30
0.0
 11
645.104918731
 21
47.5274071466
 31
0.0
  0
LINE
  5
E7
330
1F
100
AcDbEntity
  8
FORMAT
 62
     7
370
     0
100
AcDbLine
 10
650.3374716174
 20
48.1300968927
 30
0.0
 11
650.3374716174
 21
42.9089560083
 31
0.0
  0
LINE
  5
E8
330
1F
100
AcDbEntity
  8
FORMAT
 62
     7
370
     0
100
AcDbLine
 10
645.104918731
 20
47.5274071466
 30
0.0
 11
645.104918731
 21
43.4971092186
 31
0.0
  0
LINE
  5
E9
330
1F
100
AcDbEntity
  8
FORMAT
 62
     7
370
     0
100
AcDbLine
 10
639.4870295544
 20
45.5122581826
 30
0.0
 11
653.5233158363
 21
45.5122581826
 31
0.0
  0
LINE
  5
EA
330
1F
100
AcDbEntity
  8
FORMAT
 62
     7
370
     0
100
AcDbLine
 10
640.7422237857
 20
44.1340149253
 30
0.0
 11
645.104918731
 21
43.4971092186
 31
0.0
  0
LINE
  5
EB
330
1F
100
AcDbEntity
  8
ASSEMBLY
 62
     7
370
     0
100
AcDbLine
 10
651.9514756183
 20
26.8220767757
 30
0.0
 11
661.2442949897
 21
26.8220767757
 31
0.0
  0
LINE
  5
EC
330
1F
100
AcDbEntity
  8
ASSEMBLY
 62
     7
370
     0
100
AcDbLine
 10
651.9514756183
 20
28.9934142117
 30
0.0
 11
661.2442949897
 21
28.9934142117
 31
0.0
  0
LINE
  5
ED
330
1F
100
AcDbEntity
  8
ASSEMBLY
 62
     7
370
     0
100
AcDbLine
 10
651.9514756183
 20
28.9934142117
 30
0.0
 11
651.9514756183
 21
22.465062849
 31
0.0
  0
LINE
  5
EE
330
1F
100
AcDbEntity
  8
ASSEMBLY
 62
     7
370
     0
100
AcDbLine
 10
651.9514756183
 20
22.465062849
 30
0.0
 11
661.2442949897
 21
22.465062849
 31
0.0
  0
LINE
  5
EF
330
1F
100
AcDbEntity
  8
ASSEMBLY
 62
     7
370
     0
100
AcDbLine
 10
661.2442949897
 20
28.9934142117
 30
0.0
 11
661.2442949897
 21
22.465062849
 31
0.0
  0
LINE
  5
F0
330
1F
100
AcDbEntity
  8
ASSEMBLY
 62
     7
370
     0
100
AcDbLine
 10
651.9514756183
 20
24.5712208726
 30
0.0
 11
661.2442949897
 21
24.5712208726
 31
0.0
  0
LINE
  5
F1
330
1F
100
AcDbEntity
  8
ASSEMBLY
 62
     7
370
     0
100
AcDbLine
 10
659.5931969077
 20
28.9934142117
 30
0.0
 11
659.5931969077
 21
22.465062849
 31
0.0
  0
LINE
  5
F2
330
1F
100
AcDbEntity
  8
ASSEMBLY
 62
     7
370
     0
100
AcDbLine
 10
657.8179416878
 20
28.9934142117
 30
0.0
 11
657.8179416878
 21
22.465062849
 31
0.0
  0
LINE
  5
F3
330
1F
100
AcDbEntity
  8
ASSEMBLY
 62
     7
370
     0
100
AcDbLine
 10
656.0579903923
 20
28.9934142117
 30
0.0
 11
656.0579903923
 21
22.465062849
 31
0.0
  0
LINE
  5
F4
330
1F
100
AcDbEntity
  8
ASSEMBLY
 62
     7
370
     0
100
AcDbLine
 10
654.5735097343
 20
28.9934142117
 30
0.0
 11
654.5735097343
 21
22.465062849
 31
0.0
  0
CIRCLE
  5
F5
330
1F
100
AcDbEntity
  8
FORMAT
 62
     7
370
     0
100
AcDbCircle
 10
650.3374716174
 20
45.5122581826
 30
0.0
 40
1.381181693819063
  0
CIRCLE
  5
F6
330
1F
100
AcDbEntity
  8
FORMAT
 62
     7
370
     0
100
AcDbCircle
 10
650.3374716174
 20
45.5122581826
 30
0.0
 40
2.008274061455038
  0
INSERT
  5
F7
330
1F
100
AcDbEntity
  8
0
  6
Continuous
 62
     7
100
AcDbBlockReference
  2
Bloc6
 10
778.7529038616
 20
45.6862327983
 30
0.0
  0
INSERT
  5
FF
330
1F
100
AcDbEntity
  8
DESSIN
 62
     7
100
AcDbBlockReference
  2
SW_NOTE_0
 10
771.0431176118
 20
74.4406860093
 30
0.0
  0
MTEXT
  5
100
330
1F
100
AcDbEntity
  8
FORMAT
 62
     7
100
AcDbMText
 10
6.6666666667
 20
323.1680244036
 30
0.0
 40
1.8520833333
 41
0.0
 71
     1
 72
     1
  1
F
  7
SLDTEXTSTYLE1
 73
     1
 44
1.0
  0
MTEXT
  5
101
330
1F
100
AcDbEntity
  8
FORMAT
 62
     7
100
AcDbMText
 10
394.0104166667
 20
587.6680314036
 30
0.0
 40
1.8520833333
 41
0.0
 71
     1
 72
     1
  1
8
  7
SLDTEXTSTYLE1
 73
     1
 44
1.0
  0
MTEXT
  5
102
330
1F
100
AcDbEntity
  8
FORMAT
 62
     7
100
AcDbMText
 10
6.6666666667
 20
373.1680244036
 30
0.0
 40
1.8520833333
 41
0.0
 71
     1
 72
     1
  1
E
  7
SLDTEXTSTYLE1
 73
     1
 44
1.0
  0
MTEXT
  5
103
330
1F
100
AcDbEntity
  8
FORMAT
 62
     7
100
AcDbMText
 10
6.6666666667
 20
423.1680244036
 30
0.0
 40
1.8520833333
 41
0.0
 71
     1
 72
     1
  1
D
  7
SLDTEXTSTYLE1
 73
     1
 44
1.0
  0
MTEXT
  5
104
330
1F
100
AcDbEntity
  8
FORMAT
 62
     7
100
AcDbMText
 10
6.6666666667
 20
473.1680244036
 30
0.0
 40
1.8520833333
 41
0.0
 71
     1
 72
     1
  1
C
  7
SLDTEXTSTYLE1
 73
     1
 44
1.0
  0
MTEXT
  5
105
330
1F
100
AcDbEntity
  8
FORMAT
 62
     7
100
AcDbMText
 10
6.6666666667
 20
523.1680244036
 30
0.0
 40
1.8520833333
 41
0.0
 71
     1
 72
     1
  1
B
  7
SLDTEXTSTYLE1
 73
     1
 44
1.0
  0
MTEXT
  5
106
330
1F
100
AcDbEntity
  8
FORMAT
 62
     7
100
AcDbMText
 10
6.6666666667
 20
573.1680244036
 30
0.0
 40
1.8520833333
 41
0.0
 71
     1
 72
     1
  1
A
  7
SLDTEXTSTYLE1
 73
     1
 44
1.0
  0
MTEXT
  5
107
330
1F
100
AcDbEntity
  8
FORMAT
 62
     7
100
AcDbMText
 10
6.6666666667
 20
273.1680244036
 30
0.0
 40
1.8520833333
 41
0.0
 71
     1
 72
     1
  1
G
  7
SLDTEXTSTYLE1
 73
     1
 44
1.0
  0
MTEXT
  5
108
330
1F
100
AcDbEntity
  8
FORMAT
 62
     7
100
AcDbMText
 10
6.6666666667
 20
223.1680244036
 30
0.0
 40
1.8520833333
 41
0.0
 71
     1
 72
     1
  1
H
  7
SLDTEXTSTYLE1
 73
     1
 44
1.0
  0
MTEXT
  5
109
330
1F
100
AcDbEntity
  8
FORMAT
 62
     7
100
AcDbMText
 10
6.6666666667
 20
173.1680244036
 30
0.0
 40
1.8520833333
 41
0.0
 71
     1
 72
     1
  1
J
  7
SLDTEXTSTYLE1
 73
     1
 44
1.0
  0
MTEXT
  5
10A
330
1F
100
AcDbEntity
  8
FORMAT
 62
     7
100
AcDbMText
 10
6.6666666667
 20
123.1680244036
 30
0.0
 40
1.8520833333
 41
0.0
 71
     1
 72
     1
  1
K
  7
SLDTEXTSTYLE1
 73
     1
 44
1.0
  0
MTEXT
  5
10B
330
1F
100
AcDbEntity
  8
FORMAT
 62
     7
100
AcDbMText
 10
6.6666666667
 20
73.1680244036
 30
0.0
 40
1.8520833333
 41
0.0
 71
     1
 72
     1
  1
L
  7
SLDTEXTSTYLE1
 73
     1
 44
1.0
  0
MTEXT
  5
10C
330
1F
100
AcDbEntity
  8
FORMAT
 62
     7
100
AcDbMText
 10
6.6666666667
 20
23.1680244036
 30
0.0
 40
1.8520833333
 41
0.0
 71
     1
 72
     1
  1
M
  7
SLDTEXTSTYLE1
 73
     1
 44
1.0
  0
MTEXT
  5
10D
330
1F
100
AcDbEntity
  8
FORMAT
 62
     7
100
AcDbMText
 10
344.0104166667
 20
587.6680314036
 30
0.0
 40
1.8520833333
 41
0.0
 71
     1
 72
     1
  1
7
  7
SLDTEXTSTYLE1
 73
     1
 44
1.0
  0
MTEXT
  5
10E
330
1F
100
AcDbEntity
  8
FORMAT
 62
     7
100
AcDbMText
 10
294.0104166667
 20
587.6680314036
 30
0.0
 40
1.8520833333
 41
0.0
 71
     1
 72
     1
  1
6
  7
SLDTEXTSTYLE1
 73
     1
 44
1.0
  0
MTEXT
  5
10F
330
1F
100
AcDbEntity
  8
FORMAT
 62
     7
100
AcDbMText
 10
244.0104166667
 20
587.6680314036
 30
0.0
 40
1.8520833333
 41
0.0
 71
     1
 72
     1
  1
5
  7
SLDTEXTSTYLE1
 73
     1
 44
1.0
  0
MTEXT
  5
110
330
1F
100
AcDbEntity
  8
FORMAT
 62
     7
100
AcDbMText
 10
194.0104166667
 20
587.6680314036
 30
0.0
 40
1.8520833333
 41
0.0
 71
     1
 72
     1
  1
4
  7
SLDTEXTSTYLE1
 73
     1
 44
1.0
  0
MTEXT
  5
111
330
1F
100
AcDbEntity
  8
FORMAT
 62
     7
100
AcDbMText
 10
144.0104166667
 20
587.6680314036
 30
0.0
 40
1.8520833333
 41
0.0
 71
     1
 72
     1
  1
3
  7
SLDTEXTSTYLE1
 73
     1
 44
1.0
  0
MTEXT
  5
112
330
1F
100
AcDbEntity
  8
FORMAT
 62
     7
100
AcDbMText
 10
94.0104166667
 20
587.6680314036
 30
0.0
 40
1.8520833333
 41
0.0
 71
     1
 72
     1
  1
2
  7
SLDTEXTSTYLE1
 73
     1
 44
1.0
  0
MTEXT
  5
113
330
1F
100
AcDbEntity
  8
FORMAT
 62
     7
100
AcDbMText
 10
44.4270833333
 20
587.6680314036
 30
0.0
 40
1.8520833333
 41
0.0
 71
     1
 72
     1
  1
1
  7
SLDTEXTSTYLE1
 73
     1
 44
1.0
  0
MTEXT
  5
114
330
1F
100
AcDbEntity
  8
FORMAT
 62
     7
100
AcDbMText
 10
444.0104166667
 20
587.6680314036
 30
0.0
 40
1.8520833333
 41
0.0
 71
     1
 72
     1
  1
9
  7
SLDTEXTSTYLE1
 73
     1
 44
1.0
  0
MTEXT
  5
115
330
1F
100
AcDbEntity
  8
FORMAT
 62
     7
100
AcDbMText
 10
493.3854166667
 20
587.6680314036
 30
0.0
 40
1.8520833333
 41
0.0
 71
     1
 72
     1
  1
10
  7
SLDTEXTSTYLE1
 73
     1
 44
1.0
  0
MTEXT
  5
116
330
1F
100
AcDbEntity
  8
FORMAT
 62
     7
100
AcDbMText
 10
543.59375
 20
587.6680314036
 30
0.0
 40
1.8520833333
 41
0.0
 71
     1
 72
     1
  1
11
  7
SLDTEXTSTYLE1
 73
     1
 44
1.0
  0
MTEXT
  5
117
330
1F
100
AcDbEntity
  8
FORMAT
 62
     7
100
AcDbMText
 10
593.1770833333
 20
587.6680314036
 30
0.0
 40
1.8520833333
 41
0.0
 71
     1
 72
     1
  1
12
  7
SLDTEXTSTYLE1
 73
     1
 44
1.0
  0
MTEXT
  5
118
330
1F
100
AcDbEntity
  8
FORMAT
 62
     7
100
AcDbMText
 10
643.1770833333
 20
587.6680314036
 30
0.0
 40
1.8520833333
 41
0.0
 71
     1
 72
     1
  1
13
  7
SLDTEXTSTYLE1
 73
     1
 44
1.0
  0
MTEXT
  5
119
330
1F
100
AcDbEntity
  8
FORMAT
 62
     7
100
AcDbMText
 10
693.1770833333
 20
587.6680314036
 30
0.0
 40
1.8520833333
 41
0.0
 71
     1
 72
     1
  1
14
  7
SLDTEXTSTYLE1
 73
     1
 44
1.0
  0
MTEXT
  5
11A
330
1F
100
AcDbEntity
  8
FORMAT
 62
     7
100
AcDbMText
 10
743.1770833333
 20
587.6680314036
 30
0.0
 40
1.8520833333
 41
0.0
 71
     1
 72
     1
  1
15
  7
SLDTEXTSTYLE1
 73
     1
 44
1.0
  0
MTEXT
  5
11B
330
1F
100
AcDbEntity
  8
FORMAT
 62
     7
100
AcDbMText
 10
793.1770833333
 20
587.6680314036
 30
0.0
 40
1.8520833333
 41
0.0
 71
     1
 72
     1
  1
16
  7
SLDTEXTSTYLE1
 73
     1
 44
1.0
  0
MTEXT
  5
11C
330
1F
100
AcDbEntity
  8
FORMAT
 62
     7
100
AcDbMText
 10
444.0104166667
 20
8.6680314036
 30
0.0
 40
1.8520833333
 41
0.0
 71
     1
 72
     1
  1
9
  7
SLDTEXTSTYLE1
 73
     1
 44
1.0
  0
MTEXT
  5
11D
330
1F
100
AcDbEntity
  8
FORMAT
 62
     7
100
AcDbMText
 10
44.4270833333
 20
8.6680314036
 30
0.0
 40
1.8520833333
 41
0.0
 71
     1
 72
     1
  1
1
  7
SLDTEXTSTYLE1
 73
     1
 44
1.0
  0
MTEXT
  5
11E
330
1F
100
AcDbEntity
  8
FORMAT
 62
     7
100
AcDbMText
 10
94.0104166667
 20
8.6680314036
 30
0.0
 40
1.8520833333
 41
0.0
 71
     1
 72
     1
  1
2
  7
SLDTEXTSTYLE1
 73
     1
 44
1.0
  0
MTEXT
  5
11F
330
1F
100
AcDbEntity
  8
FORMAT
 62
     7
100
AcDbMText
 10
144.0104166667
 20
8.6680314036
 30
0.0
 40
1.8520833333
 41
0.0
 71
     1
 72
     1
  1
3
  7
SLDTEXTSTYLE1
 73
     1
 44
1.0
  0
MTEXT
  5
120
330
1F
100
AcDbEntity
  8
FORMAT
 62
     7
100
AcDbMText
 10
194.0104166667
 20
8.6680314036
 30
0.0
 40
1.8520833333
 41
0.0
 71
     1
 72
     1
  1
4
  7
SLDTEXTSTYLE1
 73
     1
 44
1.0
  0
MTEXT
  5
121
330
1F
100
AcDbEntity
  8
FORMAT
 62
     7
100
AcDbMText
 10
244.0104166667
 20
8.6680314036
 30
0.0
 40
1.8520833333
 41
0.0
 71
     1
 72
     1
  1
5
  7
SLDTEXTSTYLE1
 73
     1
 44
1.0
  0
MTEXT
  5
122
330
1F
100
AcDbEntity
  8
FORMAT
 62
     7
100
AcDbMText
 10
294.0104166667
 20
8.6680314036
 30
0.0
 40
1.8520833333
 41
0.0
 71
     1
 72
     1
  1
6
  7
SLDTEXTSTYLE1
 73
     1
 44
1.0
  0
MTEXT
  5
123
330
1F
100
AcDbEntity
  8
FORMAT
 62
     7
100
AcDbMText
 10
344.0104166667
 20
8.6680314036
 30
0.0
 40
1.8520833333
 41
0.0
 71
     1
 72
     1
  1
7
  7
SLDTEXTSTYLE1
 73
     1
 44
1.0
  0
MTEXT
  5
124
330
1F
100
AcDbEntity
  8
FORMAT
 62
     7
100
AcDbMText
 10
394.0104166667
 20
8.6680314036
 30
0.0
 40
1.8520833333
 41
0.0
 71
     1
 72
     1
  1
8
  7
SLDTEXTSTYLE1
 73
     1
 44
1.0
  0
MTEXT
  5
125
330
1F
100
AcDbEntity
  8
FORMAT
 62
     7
100
AcDbMText
 10
493.3854166667
 20
8.6680314036
 30
0.0
 40
1.8520833333
 41
0.0
 71
     1
 72
     1
  1
10
  7
SLDTEXTSTYLE1
 73
     1
 44
1.0
  0
MTEXT
  5
126
330
1F
100
AcDbEntity
  8
FORMAT
 62
     7
100
AcDbMText
 10
543.59375
 20
8.6680314036
 30
0.0
 40
1.8520833333
 41
0.0
 71
     1
 72
     1
  1
11
  7
SLDTEXTSTYLE1
 73
     1
 44
1.0
  0
MTEXT
  5
127
330
1F
100
AcDbEntity
  8
FORMAT
 62
     7
100
AcDbMText
 10
593.1770833333
 20
8.6680314036
 30
0.0
 40
1.8520833333
 41
0.0
 71
     1
 72
     1
  1
12
  7
SLDTEXTSTYLE1
 73
     1
 44
1.0
  0
MTEXT
  5
128
330
1F
100
AcDbEntity
  8
FORMAT
 62
     7
100
AcDbMText
 10
832.6666516667
 20
123.1680244036
 30
0.0
 40
1.8520833333
 41
0.0
 71
     1
 72
     1
  1
K
  7
SLDTEXTSTYLE1
 73
     1
 44
1.0
  0
MTEXT
  5
129
330
1F
100
AcDbEntity
  8
FORMAT
 62
     7
100
AcDbMText
 10
832.6666516667
 20
273.1680244036
 30
0.0
 40
1.8520833333
 41
0.0
 71
     1
 72
     1
  1
G
  7
SLDTEXTSTYLE1
 73
     1
 44
1.0
  0
MTEXT
  5
12A
330
1F
100
AcDbEntity
  8
FORMAT
 62
     7
100
AcDbMText
 10
832.6666516667
 20
573.1680244036
 30
0.0
 40
1.8520833333
 41
0.0
 71
     1
 72
     1
  1
A
  7
SLDTEXTSTYLE1
 73
     1
 44
1.0
  0
MTEXT
  5
12B
330
1F
100
AcDbEntity
  8
FORMAT
 62
     7
100
AcDbMText
 10
832.6666516667
 20
523.1680244036
 30
0.0
 40
1.8520833333
 41
0.0
 71
     1
 72
     1
  1
B
  7
SLDTEXTSTYLE1
 73
     1
 44
1.0
  0
MTEXT
  5
12C
330
1F
100
AcDbEntity
  8
FORMAT
 62
     7
100
AcDbMText
 10
832.6666516667
 20
473.1680244036
 30
0.0
 40
1.8520833333
 41
0.0
 71
     1
 72
     1
  1
C
  7
SLDTEXTSTYLE1
 73
     1
 44
1.0
  0
MTEXT
  5
12D
330
1F
100
AcDbEntity
  8
FORMAT
 62
     7
100
AcDbMText
 10
832.6666516667
 20
423.1680244036
 30
0.0
 40
1.8520833333
 41
0.0
 71
     1
 72
     1
  1
D
  7
SLDTEXTSTYLE1
 73
     1
 44
1.0
  0
MTEXT
  5
12E
330
1F
100
AcDbEntity
  8
FORMAT
 62
     7
100
AcDbMText
 10
832.6666516667
 20
373.1680244036
 30
0.0
 40
1.8520833333
 41
0.0
 71
     1
 72
     1
  1
E
  7
SLDTEXTSTYLE1
 73
     1
 44
1.0
  0
MTEXT
  5
12F
330
1F
100
AcDbEntity
  8
FORMAT
 62
     7
100
AcDbMText
 10
832.6666516667
 20
323.1680244036
 30
0.0
 40
1.8520833333
 41
0.0
 71
     1
 72
     1
  1
F
  7
SLDTEXTSTYLE1
 73
     1
 44
1.0
  0
MTEXT
  5
130
330
1F
100
AcDbEntity
  8
FORMAT
 62
     7
100
AcDbMText
 10
832.6666516667
 20
223.1680244036
 30
0.0
 40
1.8520833333
 41
0.0
 71
     1
 72
     1
  1
H
  7
SLDTEXTSTYLE1
 73
     1
 44
1.0
  0
MTEXT
  5
131
330
1F
100
AcDbEntity
  8
FORMAT
 62
     7
100
AcDbMText
 10
832.6666516667
 20
173.1680244036
 30
0.0
 40
1.8520833333
 41
0.0
 71
     1
 72
     1
  1
J
  7
SLDTEXTSTYLE1
 73
     1
 44
1.0
  0
MTEXT
  5
132
330
1F
100
AcDbEntity
  8
FORMAT
 62
     7
100
AcDbMText
 10
695.1281860084
 20
8.6680314036
 30
0.0
 40
1.8520833333
 41
0.0
 71
     1
 72
     1
  1
14
  7
SLDTEXTSTYLE1
 73
     1
 44
1.0
  0
MTEXT
  5
133
330
1F
100
AcDbEntity
  8
FORMAT
 62
     7
100
AcDbMText
 10
643.8623635542
 20
8.6680314036
 30
0.0
 40
1.8520833333
 41
0.0
 71
     1
 72
     1
  1
13
  7
SLDTEXTSTYLE1
 73
     1
 44
1.0
  0
MTEXT
  5
134
330
1F
100
AcDbEntity
  8
FORMAT
 62
     7
100
AcDbMText
 10
832.1991444299
 20
28.1377183983
 30
0.0
 40
1.8520833333
 41
0.0
 71
     1
 72
     1
  1
M
  7
SLDTEXTSTYLE1
 73
     1
 44
1.0
  0
MTEXT
  5
135
330
1F
100
AcDbEntity
  8
FORMAT
 62
     7
100
AcDbMText
 10
801.7910128594
 20
8.6680314036
 30
0.0
 40
1.8520833333
 41
0.0
 71
     1
 72
     1
  1
16
  7
SLDTEXTSTYLE1
 73
     1
 44
1.0
  0
MTEXT
  5
136
330
1F
100
AcDbEntity
  8
FORMAT
 62
     7
100
AcDbMText
 10
745.1226959452
 20
8.6680314036
 30
0.0
 40
1.8520833333
 41
0.0
 71
     1
 72
     1
  1
15
  7
SLDTEXTSTYLE1
 73
     1
 44
1.0
  0
MTEXT
  5
138
330
1F
100
AcDbEntity
  8
FORMAT
100
AcDbMText
 10
772.916784884
 20
27.5917098154
 30
0.0
 40
1.5875
 41
0.0
 71
     1
 72
     1
  1
SAP 3D CAD NO
  7
SLDTEXTSTYLE3
 73
     1
 44
1.0
  0
MTEXT
  5
139
330
1F
100
AcDbEntity
  8
FORMAT
100
AcDbMText
 10
769.4139121256
 20
39.8370362906
 30
0.0
 40
3.175
 41
0.0
 71
     3
 72
     1
  1
TW FRONT PANEL
  7
SLDTEXTSTYLE0
 73
     1
 44
1.0
  0
MTEXT
  5
13A
330
1F
100
AcDbEntity
  8
FORMAT
100
AcDbMText
 10
811.6890439688
 20
39.8370362906
 30
0.0
 40
3.175
 41
0.0
 71
     2
 72
     1
  1
MCPLA01605A
  7
SLDTEXTSTYLE0
 73
     1
 44
1.0
  0
INSERT
  5
140
330
1F
100
AcDbEntity
  8
FORMAT
100
AcDbBlockReference
  2
SW_NOTE_1
 10
637.8149146936
 20
31.1217830896
 30
0.0
  0
MTEXT
  5
141
330
1F
100
AcDbEntity
  8
FORMAT
100
AcDbMText
 10
751.6715788297
 20
34.5727322508
 30
0.0
 40
1.5875
 41
0.0
 71
     1
 72
     1
  1
DRAWN BY
  7
SLDTEXTSTYLE0
 73
     1
 44
1.0
  0
MTEXT
  5
142
330
1F
100
AcDbEntity
  8
FORMAT
100
AcDbMText
 10
772.916784884
 20
41.2799928586
 30
0.0
 40
1.5875
 41
0.0
 71
     1
 72
     1
  1
SAP MATERIAL NO
  7
SLDTEXTSTYLE0
 73
     1
 44
1.0
  0
MTEXT
  5
143
330
1F
100
AcDbEntity
  8
FORMAT
100
AcDbMText
 10
769.8935938906
 20
24.9902622699
 30
0.0
 40
2.1166666667
 41
0.0
 71
     3
 72
     1
  1
28/07/2018
  7
SLDTEXTSTYLE0
 73
     1
 44
1.0
  0
MTEXT
  5
144
330
1F
100
AcDbEntity
  8
FORMAT
100
AcDbMText
 10
751.4496230069
 20
20.4908848056
 30
0.0
 40
1.5875
 41
0.0
 71
     1
 72
     1
  1
MASS
  7
SLDTEXTSTYLE0
 73
     1
 44
1.0
  0
MTEXT
  5
145
330
1F
100
AcDbEntity
  8
FORMAT
100
AcDbMText
 10
637.4999852271
 20
20.4908848056
 30
0.0
 40
1.5875
 41
0.0
 71
     1
 72
     1
  1
MATERIAL
  7
SLDTEXTSTYLE0
 73
     1
 44
1.0
  0
MTEXT
  5
146
330
1F
100
AcDbEntity
  8
FORMAT
100
AcDbMText
 10
751.6715788297
 20
27.5917098154
 30
0.0
 40
1.5875
 41
0.0
 71
     1
 72
     1
  1
DATE
  7
SLDTEXTSTYLE0
 73
     1
 44
1.0
  0
INSERT
  5
14C
330
1F
100
AcDbEntity
  8
FORMAT
100
AcDbBlockReference
  2
SW_NOTE_2
 10
793.3328501421
 20
16.7972140038
 30
0.0
  0
INSERT
  5
153
330
1F
100
AcDbEntity
  8
FORMAT
100
AcDbBlockReference
  2
SW_NOTE_3
 10
810.0062256483
 20
16.8219825277
 30
0.0
  0
INSERT
  5
159
330
1F
100
AcDbEntity
  8
FORMAT
100
AcDbBlockReference
  2
SW_NOTE_4
 10
775.272685406
 20
16.8219825277
 30
0.0
  0
MTEXT
  5
15A
330
1F
100
AcDbEntity
  8
FORMAT
100
AcDbMText
 10
772.916784884
 20
34.5727322508
 30
0.0
 40
1.5875
 41
0.0
 71
     1
 72
     1
  1
SAP 2D DRAWING NO
  7
SLDTEXTSTYLE0
 73
     1
 44
1.0
  0
MTEXT
  5
15B
330
1F
100
AcDbEntity
  8
FORMAT
100
AcDbMText
 10
677.6434969982
 20
41.2623807393
 30
0.0
 40
1.5875
 41
0.0
 71
     1
 72
     1
  1
PART NAME
  7
SLDTEXTSTYLE0
 73
     1
 44
1.0
  0
MTEXT
  5
15C
330
1F
100
AcDbEntity
  8
FORMAT
100
AcDbMText
 10
638.1154805213
 20
50.6356538528
 30
0.0
 40
1.5875
 41
0.0
 71
     1
 72
     1
  1
PROJECTION
  7
SLDTEXTSTYLE0
 73
     1
 44
1.0
  0
INSERT
  5
172
330
1F
100
AcDbEntity
  8
FORMAT
100
AcDbBlockReference
  2
SW_NOTE_5
 10
678.3297516305
 20
31.7195197254
 30
0.0
  0
MTEXT
  5
173
330
1F
100
AcDbEntity
  8
FORMAT
100
AcDbMText
 10
678.3297516305
 20
20.4908848056
 30
0.0
 40
1.5875
 41
0.0
 71
     1
 72
     1
  1
COLOR
  7
SLDTEXTSTYLE0
 73
     1
 44
1.0
  0
MTEXT
  5
174
330
1F
100
AcDbEntity
  8
FORMAT
100
AcDbMText
 10
706.0436670976
 20
20.4908848056
 30
0.0
 40
1.5875
 41
0.0
 71
     1
 72
     1
  1
FINISH
  7
SLDTEXTSTYLE0
 73
     1
 44
1.0
  0
MTEXT
  5
175
330
1F
100
AcDbEntity
  8
FORMAT
100
AcDbMText
 10
637.5571663625
 20
41.2623807393
 30
0.0
 40
1.5875
 41
0.0
 71
     1
 72
     1
  1
UNITS
  7
SLDTEXTSTYLE0
 73
     1
 44
1.0
  0
MTEXT
  5
176
330
1F
100
AcDbEntity
  8
FORMAT
100
AcDbMText
 10
637.5571663625
 20
38.2393864475
 30
0.0
 40
1.4
 41
0.0
 71
     1
 72
     1
  1
All dimensions in millimeters (mm)
  7
SLDTEXTSTYLE0
 73
     1
 44
1.0
  0
MTEXT
  5
177
330
1F
100
AcDbEntity
  8
FORMAT
100
AcDbMText
 10
657.6242104035
 20
50.6356538528
 30
0.0
 40
1.5875
 41
0.0
 71
     1
 72
     1
  1
EDGES
  7
SLDTEXTSTYLE0
 73
     1
 44
1.0
  0
MTEXT
  5
178
330
1F
100
AcDbEntity
  8
FORMAT
100
AcDbMText
 10
752.438203781
 20
31.3699090516
 30
0.0
 40
2.1166666667
 41
0.0
 71
     1
 72
     1
  1
C.ABEILLE
  7
SLDTEXTSTYLE0
 73
     1
 44
1.0
  0
MTEXT
  5
179
330
1F
100
AcDbEntity
  8
FORMAT
100
AcDbMText
 10
684.8822275356
 20
17.7631845356
 30
0.0
 40
2.1166666667
 41
0.0
 71
     1
 72
     1
  1
VOIR NOTES
  7
SLDTEXTSTYLE0
 73
     1
 44
1.0
  0
MTEXT
  5
17A
330
1F
100
AcDbEntity
  8
FORMAT
100
AcDbMText
 10
735.0092903051
 20
17.7631845356
 30
0.0
 40
2.1166666667
 41
0.0
 71
     1
 72
     1
  1
VOIR NOTES
  7
SLDTEXTSTYLE0
 73
     1
 44
1.0
  0
INSERT
  5
181
330
1F
100
AcDbEntity
  8
FORMAT
100
AcDbBlockReference
  2
SW_NOTE_6
 10
686.0714327327
 20
48.1976428026
 30
0.0
  0
INSERT
  5
187
330
1F
100
AcDbEntity
  8
FORMAT
100
AcDbBlockReference
  2
SW_NOTE_7
 10
671.5807799926
 20
49.4425045187
 30
0.0
  0
INSERT
  5
18D
330
1F
100
AcDbEntity
  8
FORMAT
100
AcDbBlockReference
  2
SW_NOTE_8
 10
661.6371034683
 20
46.0747929567
 30
0.0
  0
MTEXT
  5
18E
330
1F
100
AcDbEntity
  8
PLASTIQUE
100
AcDbMText
 10
673.601631565
 20
27.7842964282
 30
0.0
 40
2.1166666667
 41
0.0
 71
     3
 72
     1
  1
ISO 2768 mK
  7
SLDTEXTSTYLE0
 73
     1
 44
1.0
  0
INSERT
  5
194
330
1F
100
AcDbEntity
  8
RUBBER
100
AcDbBlockReference
  2
SW_NOTE_9
 10
651.4535834353
 20
25.0557697123
 30
0.0
  0
INSERT
  5
1AE
330
1F
100
AcDbEntity
  8
RUBBER
100
AcDbBlockReference
  2
SW_NOTE_10
 10
697.7921172637
 20
153.0799033956
 30
0.0
  0
INSERT
  5
1B7
330
1F
100
AcDbEntity
  8
RUBBER
 62
     7
100
AcDbBlockReference
  2
SW_NOTE_11
 10
707.9524745844
 20
76.6965342739
 30
0.0
  0
INSERT
  5
1BD
330
1F
100
AcDbEntity
  8
RUBBER
 62
     7
100
AcDbBlockReference
  2
SW_NOTE_12
 10
709.2020453711
 20
68.3120218981
 30
0.0
  0
MTEXT
  5
1BE
330
1F
100
AcDbEntity
  8
DIE-CASTING
100
AcDbMText
 10
673.5580239625
 20
27.2741034863
 30
0.0
 40
2.1166666667
 41
0.0
 71
     3
 72
     1
  1
NADCA : 2006
  7
SLDTEXTSTYLE0
 73
     1
 44
1.0
  0
INSERT
  5
1D7
330
1F
100
AcDbEntity
  8
DIE-CASTING
100
AcDbBlockReference
  2
SW_NOTE_13
 10
725.2393193864
 20
153.0799033956
 30
0.0
  0
INSERT
  5
1DD
330
1F
100
AcDbEntity
  8
DIE-CASTING
 62
     7
100
AcDbBlockReference
  2
SW_NOTE_14
 10
734.1081780369
 20
82.4547002461
 30
0.0
  0
INSERT
  5
1E6
330
1F
100
AcDbEntity
  8
DIE-CASTING
 62
     7
100
AcDbBlockReference
  2
SW_NOTE_15
 10
732.90533071
 20
90.3219951256
 30
0.0
  0
INSERT
  5
1ED
330
1F
100
AcDbEntity
  8
TÔLERIE-USINAGE
100
AcDbBlockReference
  2
SW_NOTE_16
 10
652.3022138785
 20
26.6334702006
 30
0.0
  0
INSERT
  5
204
330
1F
100
AcDbEntity
  8
TÔLERIE-USINAGE
100
AcDbBlockReference
  2
SW_NOTE_17
 10
713.0614917272
 20
146.0243525819
 30
0.0
  0
INSERT
  5
20A
330
1F
100
AcDbEntity
  8
TÔLERIE-USINAGE
 62
     7
100
AcDbBlockReference
  2
SW_NOTE_18
 10
720.3409690257
 20
82.4547002461
 30
0.0
  0
INSERT
  5
213
330
1F
100
AcDbEntity
  8
TÔLERIE-USINAGE
 62
     7
100
AcDbBlockReference
  2
SW_NOTE_19
 10
719.3082959055
 20
90.3219951256
 30
0.0
  0
MTEXT
  5
214
330
1F
100
AcDbEntity
  8
SHIELD
100
AcDbMText
 10
673.7778021853
 20
26.758561318
 30
0.0
 40
1.5875
 41
0.0
 71
     3
 72
     1
  1
ISO 2768 : 1989 mK
  7
SLDTEXTSTYLE0
 73
     1
 44
1.0
  0
INSERT
  5
237
330
1F
100
AcDbEntity
  8
SHIELD
100
AcDbBlockReference
  2
SW_NOTE_20
 10
710.4251298547
 20
196.1339756356
 30
0.0
  0
INSERT
  5
23D
330
1F
100
AcDbEntity
  8
SHIELD
 62
     7
100
AcDbBlockReference
  2
SW_NOTE_21
 10
720.3409690257
 20
68.3120218981
 30
0.0
  0
INSERT
  5
246
330
1F
100
AcDbEntity
  8
SHIELD
 62
     7
100
AcDbBlockReference
  2
SW_NOTE_22
 10
719.3082959055
 20
76.6965342739
 30
0.0
  0
INSERT
  5
253
330
1F
100
AcDbEntity
  8
ASSEMBLY
100
AcDbBlockReference
  2
SW_NOTE_23
 10
652.1757385472
 20
22.676694217
 30
0.0
  0
INSERT
  5
25D
330
1F
100
AcDbEntity
  8
ASSEMBLY
100
AcDbBlockReference
  2
SW_NOTE_24
 10
652.2180233861
 20
24.9738262631
 30
0.0
  0
INSERT
  5
268
330
1F
100
AcDbEntity
  8
ASSEMBLY
100
AcDbBlockReference
  2
SW_NOTE_25
 10
652.2180233861
 20
27.2128951285
 30
0.0
  0
MTEXT
  5
269
330
1F
100
AcDbEntity
  8
FORMAT
100
AcDbMText
 10
657.8727579033
 20
17.7631845356
 30
0.0
 40
2.1166666667
 41
0.0
 71
     1
 72
     1
  1
VOIR NOTES
  7
SLDTEXTSTYLE0
 73
     1
 44
1.0
  0
LINE
  5
26A
330
1F
100
AcDbEntity
  8
0
  6
Continuous
 62
     7
370
    15
100
AcDbLine
 10
584.6842166715
 20
234.7817911149
 30
0.0
 11
584.6842166715
 21
235.3817911149
 31
0.0
  0
LINE
  5
26B
330
1F
100
AcDbEntity
  8
0
  6
Continuous
 62
     7
370
    15
100
AcDbLine
 10
572.6842166715
 20
235.3817911149
 30
0.0
 11
572.6842166715
 21
234.7817911149
 31
0.0
  0
SPLINE
  5
26C
330
1F
100
AcDbEntity
  8
0
  6
Continuous
 62
     7
370
    15
100
AcDbSpline
210
0.0
220
0.0
230
1.0
 70
     8
 71
     3
 72
    16
 73
    12
 74
     0
 42
0.000000001
 43
0.00000001
 40
0.0
 40
0.0
 40
0.0
 40
0.0
 40
0.0078905468385886
 40
0.0078905468385886
 40
0.0118358202578829
 40
0.0118358202578829
 40
0.0157810936771772
 40
0.0157810936771772
 40
0.0236716405157658
 40
0.0236716405157658
 40
0.0315621873543544
 40
0.0315621873543544
 40
0.0315621873543544
 40
0.0315621873543544
 10
493.3389801480301
 20
289.6842548199796
 30
0.0
 10
493.33898014803
 20
287.0146917975162
 30
0.0
 10
493.54968090705
 20
284.3854821196621
 30
0.0
 10
494.1646388398551
 20
280.4989941562139
 30
0.0
 10
494.4197831652125
 20
279.2131132632505
 30
0.0
 10
495.0339425778279
 20
276.6612629631042
 30
0.0
 10
495.3933017242871
 20
275.3941048699031
 30
0.0
 10
496.6316056177754
 20
271.6310530189064
 30
0.0
 10
497.6468701750993
 20
269.2444184281588
 30
0.0
 10
500.0456429057668
 20
264.7080679578838
 30
0.0
 10
501.4294270974898
 20
262.5585074464431
 30
0.0
 10
503.0162558834812
 20
260.5396251673628
 30
0.0
  0
LINE
  5
26D
330
1F
100
AcDbEntity
  8
0
  6
Continuous
 62
     7
370
    15
100
AcDbLine
 10
494.1842166715
 20
289.68425482
 30
0.0
 11
493.338980148
 21
289.68425482
 31
0.0
  0
SPLINE
  5
26E
330
1F
100
AcDbEntity
  8
0
  6
Continuous
 62
     7
370
    15
100
AcDbSpline
210
0.0
220
0.0
230
1.0
 70
     8
 71
     3
 72
    16
 73
    12
 74
     0
 42
0.000000001
 43
0.00000001
 40
0.0
 40
0.0
 40
0.0
 40
0.0
 40
0.0078905468385886
 40
0.0078905468385886
 40
0.0118358202578829
 40
0.0118358202578829
 40
0.0157810936771772
 40
0.0157810936771772
 40
0.0236716405157658
 40
0.0236716405157658
 40
0.0315621873543544
 40
0.0315621873543544
 40
0.0315621873543544
 40
0.0315621873543544
 10
494.1842166715115
 20
289.6842548199796
 30
0.0
 10
494.1842166715115
 20
287.0146917975162
 30
0.0
 10
494.3949174305314
 20
284.3854821196621
 30
0.0
 10
495.0098753633365
 20
280.4989941562139
 30
0.0
 10
495.2650196886939
 20
279.2131132632505
 30
0.0
 10
495.8791791013093
 20
276.6612629631042
 30
0.0
 10
496.2385382477685
 20
275.3941048699031
 30
0.0
 10
497.4768421412568
 20
271.6310530189064
 30
0.0
 10
498.4921066985807
 20
269.2444184281588
 30
0.0
 10
500.8908794292483
 20
264.7080679578838
 30
0.0
 10
502.2746636209713
 20
262.5585074464431
 30
0.0
 10
503.8614924069627
 20
260.5396251673628
 30
0.0
  0
LINE
  5
26F
330
1F
100
AcDbEntity
  8
0
  6
Continuous
 62
     7
370
    15
100
AcDbLine
 10
503.861492407
 20
260.5396251674
 30
0.0
 11
503.0162558835
 21
260.5396251674
 31
0.0
  0
SPLINE
  5
270
330
1F
100
AcDbEntity
  8
0
  6
Continuous
 62
     7
370
    15
100
AcDbSpline
210
0.0
220
0.0
230
1.0
 70
     8
 71
     3
 72
    14
 73
    10
 74
     0
 42
0.000000001
 43
0.00000001
 40
0.0
 40
0.0
 40
0.0
 40
0.0
 40
0.007880999933868
 40
0.007880999933868
 40
0.0157619998677359
 40
0.0157619998677359
 40
0.0236429998016039
 40
0.0236429998016039
 40
0.0315239997354718
 40
0.0315239997354718
 40
0.0315239997354718
 40
0.0315239997354718
 10
503.0162558834812
 20
398.179232392318
 30
0.0
 10
501.4294595984971
 20
396.1603889452041
 30
0.0
 10
500.0452873920403
 20
394.0104884921737
 30
0.0
 10
497.6458857452827
 20
389.4722466165641
 30
0.0
 10
496.6297182803411
 20
387.0828470371409
 30
0.0
 10
494.9787244452042
 20
382.0640885729241
 30
0.0
 10
494.3690927100325
 20
379.5128342975871
 30
0.0
 10
493.5497109410809
 20
374.3327538877269
 30
0.0
 10
493.3389801480299
 20
371.7041046960239
 30
0.0
 10
493.3389801480301
 20
369.0346030894694
 30
0.0
  0
LINE
  5
271
330
1F
100
AcDbEntity
  8
0
  6
Continuous
 62
     7
370
    15
100
AcDbLine
 10
503.861492407
 20
398.1792323923
 30
0.0
 11
503.0162558835
 21
398.1792323923
 31
0.0
  0
SPLINE
  5
272
330
1F
100
AcDbEntity
  8
0
  6
Continuous
 62
     7
370
    15
100
AcDbSpline
210
0.0
220
0.0
230
1.0
 70
     8
 71
     3
 72
    14
 73
    10
 74
     0
 42
0.000000001
 43
0.00000001
 40
0.0
 40
0.0
 40
0.0
 40
0.0
 40
0.007880999933868
 40
0.007880999933868
 40
0.0157619998677359
 40
0.0157619998677359
 40
0.0236429998016039
 40
0.0236429998016039
 40
0.0315239997354718
 40
0.0315239997354718
 40
0.0315239997354718
 40
0.0315239997354718
 10
503.8614924069627
 20
398.179232392318
 30
0.0
 10
502.2746961219786
 20
396.1603889452041
 30
0.0
 10
500.8905239155217
 20
394.0104884921737
 30
0.0
 10
498.4911222687641
 20
389.4722466165641
 30
0.0
 10
497.4749548038225
 20
387.0828470371409
 30
0.0
 10
495.8239609686856
 20
382.0640885729241
 30
0.0
 10
495.2143292335139
 20
379.5128342975872
 30
0.0
 10
494.3949474645624
 20
374.3327538877269
 30
0.0
 10
494.1842166715113
 20
371.7041046960239
 30
0.0
 10
494.1842166715115
 20
369.0346030894695
 30
0.0
  0
LINE
  5
273
330
1F
100
AcDbEntity
  8
0
  6
Continuous
 62
     7
370
    15
100
AcDbLine
 10
494.1842166715
 20
369.0346030895
 30
0.0
 11
493.338980148
 21
369.0346030895
 31
0.0
  0
LINE
  5
274
330
1F
100
AcDbEntity
  8
0
  6
Continuous
 62
     7
370
    15
100
AcDbLine
 10
503.9460160593
 20
476.7817911149
 30
0.0
 11
653.4224172837
 21
476.7817911149
 31
0.0
  0
LINE
  5
275
330
1F
100
AcDbEntity
  8
0
  6
Continuous
 62
     7
370
    15
100
AcDbLine
 10
653.4224172837
 20
237.803470525
 30
0.0
 11
653.4224172837
 21
476.7817911149
 31
0.0
  0
ARC
  5
276
330
1F
100
AcDbEntity
  8
0
  6
Continuous
 62
     7
370
    15
100
AcDbCircle
 10
647.9812268363
 20
251.7817911149
 30
0.0
 40
15.00000000000003
100
AcDbArc
 50
270.0
 51
291.2689351942
  0
LINE
  5
277
330
1F
100
AcDbEntity
  8
0
  6
Continuous
 62
     7
370
    15
100
AcDbLine
 10
647.9812268363
 20
236.7817911149
 30
0.0
 11
590.6842166715
 21
236.7817911149
 31
0.0
  0
LINE
  5
278
330
1F
100
AcDbEntity
  8
0
  6
Continuous
 62
     7
370
    15
100
AcDbLine
 10
590.6842166715
 20
236.7817911149
 30
0.0
 11
590.6842166715
 21
239.3817911149
 31
0.0
  0
LINE
  5
279
330
1F
100
AcDbEntity
  8
0
  6
Continuous
 62
     7
370
    15
100
AcDbLine
 10
590.6842166715
 20
239.3817911149
 30
0.0
 11
588.6842166715
 21
239.3817911149
 31
0.0
  0
LINE
  5
27A
330
1F
100
AcDbEntity
  8
0
  6
Continuous
 62
     7
370
    15
100
AcDbLine
 10
588.6842166715
 20
239.3817911149
 30
0.0
 11
588.6842166715
 21
237.5817911149
 31
0.0
  0
LINE
  5
27B
330
1F
100
AcDbEntity
  8
0
  6
Continuous
 62
     7
370
    15
100
AcDbLine
 10
568.6842166715
 20
237.5817911149
 30
0.0
 11
588.6842166715
 21
237.5817911149
 31
0.0
  0
LINE
  5
27C
330
1F
100
AcDbEntity
  8
0
  6
Continuous
 62
     7
370
    15
100
AcDbLine
 10
568.6842166715
 20
237.5817911149
 30
0.0
 11
568.6842166715
 21
239.3817911149
 31
0.0
  0
LINE
  5
27D
330
1F
100
AcDbEntity
  8
0
  6
Continuous
 62
     7
370
    15
100
AcDbLine
 10
568.6842166715
 20
239.3817911149
 30
0.0
 11
566.6842166715
 21
239.3817911149
 31
0.0
  0
LINE
  5
27E
330
1F
100
AcDbEntity
  8
0
  6
Continuous
 62
     7
370
    15
100
AcDbLine
 10
566.6842166715
 20
239.3817911149
 30
0.0
 11
566.6842166715
 21
236.7817911149
 31
0.0
  0
LINE
  5
27F
330
1F
100
AcDbEntity
  8
0
  6
Continuous
 62
     7
370
    15
100
AcDbLine
 10
566.6842166715
 20
236.7817911149
 30
0.0
 11
509.3872065067
 21
236.7817911149
 31
0.0
  0
ARC
  5
280
330
1F
100
AcDbEntity
  8
0
  6
Continuous
 62
     7
370
    15
100
AcDbCircle
 10
509.3872065067
 20
251.7817911149
 30
0.0
 40
15.00000000000004
100
AcDbArc
 50
248.7310648058
 51
270.0
  0
LINE
  5
281
330
1F
100
AcDbEntity
  8
0
  6
Continuous
 62
     7
370
    15
100
AcDbLine
 10
503.9460160593
 20
237.803470525
 30
0.0
 11
503.9460160593
 21
260.4324591417
 31
0.0
  0
SPLINE
  5
282
330
1F
100
AcDbEntity
  8
0
  6
Continuous
 62
     7
370
    15
100
AcDbSpline
210
0.0
220
0.0
230
1.0
 70
     8
 71
     3
 72
    30
 73
    26
 74
     0
 42
0.000000001
 43
0.00000001
 40
0.2518650364928032
 40
0.2518650364928032
 40
0.2518650364928032
 40
0.2518650364928032
 40
0.2656249999999944
 40
0.2656249999999944
 40
0.2812499999999946
 40
0.2812499999999946
 40
0.3124999999999948
 40
0.3124999999999948
 40
0.343749999999995
 40
0.343749999999995
 40
0.3593749999999951
 40
0.3593749999999951
 40
0.3749999999999953
 40
0.3749999999999953
 40
0.4062499999999954
 40
0.4062499999999954
 40
0.4374999999999956
 40
0.4374999999999956
 40
0.4531249999999957
 40
0.4531249999999957
 40
0.4687499999999958
 40
0.4687499999999958
 40
0.4999999999999962
 40
0.4999999999999962
 40
0.5280004034485944
 40
0.5280004034485944
 40
0.5280004034485944
 40
0.5280004034485944
 10
503.9460160593108
 20
260.4324591416507
 30
0.0
 10
504.301840327361
 20
259.9828730810436
 30
0.0
 10
504.6680088877057
 20
259.5398089872848
 30
0.0
 10
505.4721806189487
 20
258.6087746440357
 30
0.0
 10
505.9143641830362
 20
258.1216060014332
 30
0.0
 10
507.2730445723203
 20
256.6984594839627
 30
0.0
 10
508.220753558575
 20
255.8009384175094
 30
0.0
 10
510.2026486475996
 20
254.1102926968928
 30
0.0
 10
511.2371668232686
 20
253.3168912201435
 30
0.0
 10
512.8579902873201
 20
252.2106744529599
 30
0.0
 10
513.4100184624009
 20
251.8558063489502
 30
0.0
 10
514.5383137811675
 20
251.1755364253227
 30
0.0
 10
515.1142968336354
 20
250.8504669350653
 30
0.0
 10
516.8596627664165
 20
249.9321698512958
 30
0.0
 10
518.051495880493
 20
249.3928012273318
 30
0.0
 10
520.4904903990144
 20
248.4580582433976
 30
0.0
 10
521.7383542766792
 20
248.0623269641891
 30
0.0
 10
523.653406451429
 20
247.5811047425659
 30
0.0
 10
524.3014138100918
 20
247.4390775548678
 30
0.0
 10
525.5985403583805
 20
247.196643937932
 30
0.0
 10
526.2475652004077
 20
247.0960497681243
 30
0.0
 10
528.1974352564234
 20
246.8555502917102
 30
0.0
 10
529.5008662157712
 20
246.7767467815234
 30
0.0
 10
531.9778997790623
 20
246.7867851017278
 30
0.0
 10
533.1500871557669
 20
246.8588895061424
 30
0.0
 10
534.3233836937006
 20
246.9980313540108
 30
0.0
  0
SPLINE
  5
283
330
1F
100
AcDbEntity
  8
0
  6
Continuous
 62
     7
370
    15
100
AcDbSpline
210
0.0
220
0.0
230
1.0
 70
     8
 71
     3
 72
    20
 73
    16
 74
     0
 42
0.000000001
 43
0.00000001
 40
0.3690981443130169
 40
0.3690981443130169
 40
0.3690981443130169
 40
0.3690981443130169
 40
0.37109375
 40
0.37109375
 40
0.375
 40
0.375
 40
0.40625
 40
0.40625
 40
0.421875
 40
0.421875
 40
0.4296875
 40
0.4296875
 40
0.43359375
 40
0.43359375
 40
0.4364525648607329
 40
0.4364525648607329
 40
0.4364525648607329
 40
0.4364525648607329
 10
534.32338429545
 20
246.9980262798325
 30
0.0
 10
534.3859383222388
 20
247.0054445944679
 30
0.0
 10
534.4484962373238
 20
247.0130538681213
 30
0.0
 10
534.6335181269088
 20
247.0361224772418
 30
0.0
 10
534.7576433044067
 20
247.0523479269396
 30
0.0
 10
535.8452005064221
 20
247.2009045423182
 30
0.0
 10
536.8054192138275
 20
247.3772064403025
 30
0.0
 10
538.23599906669
 20
247.7080366470843
 30
0.0
 10
538.7112343162698
 20
247.8293762759791
 30
0.0
 10
539.4216501385783
 20
248.0279800592725
 30
0.0
 10
539.6580492373375
 20
248.0969470436956
 30
0.0
 10
540.0120386224611
 20
248.2045461053179
 30
0.0
 10
540.129933540333
 20
248.2411038900233
 30
0.0
 10
540.3339347731057
 20
248.3056141899574
 30
0.0
 10
540.4212064312125
 20
248.3336129739833
 30
0.0
 10
540.5070868295754
 20
248.3615428941354
 30
0.0
  0
SPLINE
  5
284
330
1F
100
AcDbEntity
  8
0
  6
Continuous
 62
     7
370
    15
100
AcDbSpline
210
0.0
220
0.0
230
1.0
 70
     8
 71
     3
 72
    18
 73
    14
 74
     0
 42
0.000000001
 43
0.00000001
 40
0.4364525648607329
 40
0.4364525648607329
 40
0.4364525648607329
 40
0.4364525648607329
 40
0.4375
 40
0.4375
 40
0.46875
 40
0.46875
 40
0.484375
 40
0.484375
 40
0.4921875
 40
0.4921875
 40
0.49609375
 40
0.49609375
 40
0.4989104969965025
 40
0.4989104969965025
 40
0.4989104969965025
 40
0.4989104969965025
 10
540.5070868295754
 20
248.3615428941354
 30
0.0
 10
540.53855236736
 20
248.3717760785945
 30
0.0
 10
540.5698311423189
 20
248.3820000187614
 30
0.0
 10
541.5248233028236
 20
248.695744733653
 30
0.0
 10
542.4342845551853
 20
249.0400987982898
 30
0.0
 10
543.7766369654895
 20
249.617806458717
 30
0.0
 10
544.2204478575511
 20
249.8205717727713
 30
0.0
 10
544.880704328584
 20
250.140013884721
 30
0.0
 10
545.099879841085
 20
250.2490436121821
 30
0.0
 10
545.4272781430716
 20
250.4164117385909
 30
0.0
 10
545.5361834159396
 20
250.47283836993
 30
0.0
 10
545.7232273526611
 20
250.5710502975619
 30
0.0
 10
545.8023282527816
 20
250.6129895235659
 30
0.0
 10
545.8803185646184
 20
250.6547251945464
 30
0.0
  0
SPLINE
  5
285
330
1F
100
AcDbEntity
  8
0
  6
Continuous
 62
     7
370
    15
100
AcDbSpline
210
0.0
220
0.0
230
1.0
 70
     8
 71
     3
 72
    48
 73
    44
 74
     0
 42
0.000000001
 43
0.00000001
 40
0.4989104969965036
 40
0.4989104969965036
 40
0.4989104969965036
 40
0.4989104969965036
 40
0.5
 40
0.5
 40
0.53125
 40
0.53125
 40
0.546875
 40
0.546875
 40
0.5546875
 40
0.5546875
 40
0.55859375
 40
0.55859375
 40
0.560546875
 40
0.560546875
 40
0.5625
 40
0.5625
 40
0.59375
 40
0.59375
 40
0.609375
 40
0.609375
 40
0.6171875
 40
0.6171875
 40
0.62109375
 40
0.62109375
 40
0.623046875
 40
0.623046875
 40
0.625
 40
0.625
 40
0.65625
 40
0.65625
 40
0.671875
 40
0.671875
 40
0.6796875
 40
0.6796875
 40
0.68359375
 40
0.68359375
 40
0.685546875
 40
0.685546875
 40
0.6865234375
 40
0.6865234375
 40
0.6875
 40
0.6875
 40
0.6976227170748229
 40
0.6976227170748229
 40
0.6976227170748229
 40
0.6976227170748229
 10
545.8803185646185
 20
250.6547251945465
 30
0.0
 10
545.91048480926
 20
250.6708683337574
 30
0.0
 10
545.9404848985738
 20
250.6869810190618
 30
0.0
 10
546.8228699644321
 20
251.1626380617432
 30
0.0
 10
547.6588294618397
 20
251.6604506558816
 30
0.0
 10
548.8877210766933
 20
252.4644398752413
 30
0.0
 10
549.2931770097682
 20
252.7419813363866
 30
0.0
 10
549.8950990015662
 20
253.1726111101426
 30
0.0
 10
550.0946960141964
 20
253.3185406317342
 30
0.0
 10
550.3925260561882
 20
253.5410143096312
 30
0.0
 10
550.4915418240266
 20
253.6157687681818
 30
0.0
 10
550.6396741065457
 20
253.7287953048851
 30
0.0
 10
550.6889863058457
 20
253.7666199585991
 30
0.0
 10
550.7874802480328
 20
253.8425675489862
 30
0.0
 10
550.8382767760063
 20
253.8819487423052
 30
0.0
 10
551.645806179112
 20
254.5111837079194
 30
0.0
 10
552.3848580961867
 20
255.1349557358268
 30
0.0
 10
553.4619723371438
 20
256.1179401033879
 30
0.0
 10
553.8157664783536
 20
256.4534892801915
 30
0.0
 10
554.3385917815048
 20
256.9686446268219
 30
0.0
 10
554.5115558977778
 20
257.1423350059363
 30
0.0
 10
554.7690355950216
 20
257.405828469964
 30
0.0
 10
554.8545344145751
 20
257.4941526071992
 30
0.0
 10
554.982291024614
 20
257.6273782868912
 30
0.0
 10
555.024794624745
 20
257.6719100924283
 30
0.0
 10
555.10963795191
 20
257.7612201947824
 30
0.0
 10
555.1528850095995
 20
257.8069625871065
 30
0.0
 10
555.855842826705
 20
258.5538991852471
 30
0.0
 10
556.4937825820496
 20
259.2836895625761
 30
0.0
 10
557.4151908121693
 20
260.4185619677763
 30
0.0
 10
557.7164099883931
 20
260.8035505760441
 30
0.0
 10
558.1593634020045
 20
261.3910801982476
 30
0.0
 10
558.3055353147541
 20
261.5885978572823
 30
0.0
 10
558.5225743461978
 20
261.8873860232849
 30
0.0
 10
558.5945508837322
 20
261.9874006915275
 30
0.0
 10
558.7019609806133
 20
262.1380506132539
 30
0.0
 10
558.7376718946704
 20
262.1883719070566
 30
0.0
 10
558.7910995884009
 20
262.2640108276011
 30
0.0
 10
558.8088857067518
 20
262.2892499644227
 30
0.0
 10
558.8444117176688
 20
262.3397805646795
 30
0.0
 10
558.8628398173024
 20
262.3660554895553
 30
0.0
 10
559.0563808227289
 20
262.6426293943485
 30
0.0
 10
559.2303808138744
 20
262.8972080043049
 30
0.0
 10
559.4018683633443
 20
263.1541254847255
 30
0.0
  0
SPLINE
  5
286
330
1F
100
AcDbEntity
  8
0
  6
Continuous
 62
     7
370
    15
100
AcDbSpline
210
0.0
220
0.0
230
1.0
 70
     8
 71
     3
 72
    18
 73
    14
 74
     0
 42
0.000000001
 43
0.00000001
 40
0.7736746351383522
 40
0.7736746351383522
 40
0.7736746351383522
 40
0.7736746351383522
 40
0.8124999999999979
 40
0.8124999999999979
 40
0.843749999999998
 40
0.843749999999998
 40
0.8593749999999981
 40
0.8593749999999981
 40
0.8749999999999982
 40
0.8749999999999982
 40
0.9374999999999991
 40
0.9374999999999991
 40
1.0
 40
1.0
 40
1.0
 40
1.0
 10
559.4018683633443
 20
263.1541254847255
 30
0.0
 10
560.2911321651968
 20
264.4863678809522
 30
0.0
 10
561.1002647965453
 20
265.8625838818048
 30
0.0
 10
562.4273960532752
 20
268.4190233422484
 30
0.0
 10
562.9714295862515
 20
269.586403540649
 30
0.0
 10
563.7161328388472
 20
271.3763238124905
 30
0.0
 10
563.9525395421409
 20
271.9796446604568
 30
0.0
 10
564.4015056970313
 20
273.1994866238515
 30
0.0
 10
564.6144760110681
 20
273.8174218324477
 30
0.0
 10
565.6112811286064
 20
276.9149512756474
 30
0.0
 10
566.1973262496618
 20
279.4253453235204
 30
0.0
 10
566.9833971793341
 20
284.5064202366358
 30
0.0
 10
567.1842166715115
 20
287.0792165844098
 30
0.0
 10
567.1842166715115
 20
289.6842548199796
 30
0.0
  0
LINE
  5
287
330
1F
100
AcDbEntity
  8
0
  6
Continuous
 62
     7
370
    15
100
AcDbLine
 10
567.1842166715
 20
289.68425482
 30
0.0
 11
567.1842166715
 21
369.0346030895
 31
0.0
  0
SPLINE
  5
288
330
1F
100
AcDbEntity
  8
0
  6
Continuous
 62
     7
370
    15
100
AcDbSpline
210
0.0
220
0.0
230
1.0
 70
     8
 71
     3
 72
    30
 73
    26
 74
     0
 42
0.000000001
 43
0.00000001
 40
0.0
 40
0.0
 40
0.0
 40
0.0
 40
0.0625
 40
0.0625
 40
0.125
 40
0.125
 40
0.1562500000000001
 40
0.1562500000000001
 40
0.1718750000000002
 40
0.1718750000000002
 40
0.1875000000000003
 40
0.1875000000000003
 40
0.2500000000000008
 40
0.2500000000000008
 40
0.2656250000000009
 40
0.2656250000000009
 40
0.2812500000000009
 40
0.2812500000000009
 40
0.312500000000001
 40
0.312500000000001
 40
0.343750000000001
 40
0.343750000000001
 40
0.3593750000000009
 40
0.3593750000000009
 40
0.3731744148620582
 40
0.3731744148620582
 40
0.3731744148620582
 40
0.3731744148620582
 10
567.1842166715114
 20
369.034603089474
 30
0.0
 10
567.1842166715114
 20
371.6434449542384
 30
0.0
 10
566.9827780715917
 20
374.2372177103803
 30
0.0
 10
566.1789415682715
 20
379.3910718526488
 30
0.0
 10
565.5814118298882
 20
381.9131357777447
 30
0.0
 10
564.3865549798406
 20
385.6010274667892
 30
0.0
 10
563.9377867991458
 20
386.8154736181946
 30
0.0
 10
563.1863887357993
 20
388.6126726659856
 30
0.0
 10
562.9227941446836
 20
389.2078251379963
 30
0.0
 10
562.3686047715969
 20
390.3898335047589
 30
0.0
 10
562.0778828112637
 20
390.9767774058018
 30
0.0
 10
560.5672223692745
 20
393.8663255080446
 30
0.0
 10
559.1700128477922
 20
396.0531528699157
 30
0.0
 10
557.1656635647549
 20
398.6157479977172
 30
0.0
 10
556.7514644923377
 20
399.119957032339
 30
0.0
 10
555.8962527240741
 20
400.1100832654178
 30
0.0
 10
555.4540691599867
 20
400.5972519080203
 30
0.0
 10
554.0953887707026
 20
402.0203984254908
 30
0.0
 10
553.147679784448
 20
402.9179194919442
 30
0.0
 10
551.1657846954231
 20
404.6085652125609
 30
0.0
 10
550.1312665197543
 20
405.40196668931
 30
0.0
 10
548.5104430557027
 20
406.5081834564937
 30
0.0
 10
547.958414880622
 20
406.8630515605034
 30
0.0
 10
546.8960331351398
 20
407.5035809829351
 30
0.0
 10
546.3885677253986
 20
407.7922247359277
 30
0.0
 10
545.8760245945559
 20
408.0664278452862
 30
0.0
  0
SPLINE
  5
289
330
1F
100
AcDbEntity
  8
0
  6
Continuous
 62
     7
370
    15
100
AcDbSpline
210
0.0
220
0.0
230
1.0
 70
     8
 71
     3
 72
    28
 73
    24
 74
     0
 42
0.000000001
 43
0.00000001
 40
0.4998315495188231
 40
0.4998315495188231
 40
0.4998315495188231
 40
0.4998315495188231
 40
0.5
 40
0.5
 40
0.53125
 40
0.53125
 40
0.546875
 40
0.546875
 40
0.5546875
 40
0.5546875
 40
0.55859375
 40
0.55859375
 40
0.5625
 40
0.5625
 40
0.59375
 40
0.59375
 40
0.609375
 40
0.609375
 40
0.6171875
 40
0.6171875
 40
0.625
 40
0.625
 40
0.6332280687346442
 40
0.6332280687346442
 40
0.6332280687346442
 40
0.6332280687346442
 10
545.8760245356467
 20
408.0664277351725
 30
0.0
 10
545.8713697594371
 20
408.0689179726436
 30
0.0
 10
545.8667093937828
 20
408.071409829236
 30
0.0
 10
544.9963754720617
 20
408.5365142826905
 30
0.0
 10
544.1146784683461
 20
408.9589120517968
 30
0.0
 10
542.7680888777297
 20
409.5321891754156
 30
0.0
 10
542.3152183333505
 20
409.7132282949484
 30
0.0
 10
541.6299014955208
 20
409.9697070917373
 30
0.0
 10
541.4004607127008
 20
410.0526867102486
 30
0.0
 10
541.0547967831556
 20
410.1733861673879
 30
0.0
 10
540.939325014088
 20
410.2129909913298
 30
0.0
 10
540.7078805575144
 20
410.2909439823377
 30
0.0
 10
540.5935337611832
 20
410.3287644717899
 30
0.0
 10
539.5328924200843
 20
410.6729921179672
 30
0.0
 10
538.583194369093
 20
410.9344920389328
 30
0.0
 10
537.1482886709173
 20
411.2600216069268
 30
0.0
 10
536.6682603345772
 20
411.3574114106825
 30
0.0
 10
535.9456281746451
 20
411.4868160379522
 30
0.0
 10
535.704319178764
 20
411.5271709006482
 30
0.0
 10
535.2208379685277
 20
411.602320599919
 30
0.0
 10
534.979893503269
 20
411.6369534185583
 30
0.0
 10
534.4792602742915
 20
411.7030186776862
 30
0.0
 10
534.2225135825013
 20
411.7336904682086
 30
0.0
 10
533.96582185521
 20
411.7611456315749
 30
0.0
  0
SPLINE
  5
28A
330
1F
100
AcDbEntity
  8
0
  6
Continuous
 62
     7
370
    15
100
AcDbSpline
210
0.0
220
0.0
230
1.0
 70
     8
 71
     3
 72
    10
 73
     6
 74
     0
 42
0.000000001
 43
0.00000001
 40
0.4727960532567096
 40
0.4727960532567096
 40
0.4727960532567096
 40
0.4727960532567096
 40
0.4999999999999998
 40
0.4999999999999998
 40
0.513287335377486
 40
0.513287335377486
 40
0.513287335377486
 40
0.513287335377486
 10
533.96582185521
 20
411.7611456315749
 30
0.0
 10
532.8334275186504
 20
411.8823038115888
 30
0.0
 10
531.6984170602066
 20
411.9414256376077
 30
0.0
 10
530.0056308681113
 20
411.9345655247349
 30
0.0
 10
529.4497783382302
 20
411.9171455083241
 30
0.0
 10
528.893618286718
 20
411.8845911665662
 30
0.0
  0
SPLINE
  5
28B
330
1F
100
AcDbEntity
  8
0
  6
Continuous
 62
     7
370
    15
100
AcDbSpline
210
0.0
220
0.0
230
1.0
 70
     8
 71
     3
 72
    24
 73
    20
 74
     0
 42
0.000000001
 43
0.00000001
 40
0.6875
 40
0.6875
 40
0.6875
 40
0.6875
 40
0.71875
 40
0.71875
 40
0.734375
 40
0.734375
 40
0.7421875
 40
0.7421875
 40
0.74609375
 40
0.74609375
 40
0.748046875
 40
0.748046875
 40
0.75
 40
0.75
 40
0.78125
 40
0.78125
 40
0.796875
 40
0.796875
 40
0.8027557218990086
 40
0.8027557218990086
 40
0.8027557218990086
 40
0.8027557218990086
 10
528.8936182867064
 20
411.8845911665655
 30
0.0
 10
527.9186370062951
 20
411.8275387145782
 30
0.0
 10
526.946413541442
 20
411.7246969688077
 30
0.0
 10
525.4922150675371
 20
411.5017504094801
 30
0.0
 10
525.0081716968026
 20
411.4159875662601
 30
0.0
 10
524.283140821542
 20
411.2701723162625
 30
0.0
 10
524.0416362265954
 20
411.2187054020687
 30
0.0
 10
523.6796378793857
 20
411.137212284486
 30
0.0
 10
523.5590148545176
 20
411.1093324542431
 30
0.0
 10
523.378144953518
 20
411.0664395223059
 30
0.0
 10
523.3178657592351
 20
411.0519630138979
 30
0.0
 10
523.1973289161037
 20
411.0226522682244
 30
0.0
 10
523.1358694744212
 20
411.0075185525595
 30
0.0
 10
522.1321030583646
 20
410.7573869565444
 30
0.0
 10
521.2011857225581
 20
410.481039034081
 30
0.0
 10
519.8255157142771
 20
410.0051222257711
 30
0.0
 10
519.3704100440882
 20
409.836250802232
 30
0.0
 10
518.7487678202256
 20
409.5897382326031
 30
0.0
 10
518.579021008932
 20
409.5207688004893
 30
0.0
 10
518.4097950659799
 20
409.4503642930432
 30
0.0
  0
SPLINE
  5
28C
330
1F
100
AcDbEntity
  8
0
  6
Continuous
 62
     7
370
    15
100
AcDbSpline
210
0.0
220
0.0
230
1.0
 70
     8
 71
     3
 72
    34
 73
    30
 74
     0
 42
0.000000001
 43
0.00000001
 40
0.8027557218990086
 40
0.8027557218990086
 40
0.8027557218990086
 40
0.8027557218990086
 40
0.8125
 40
0.8125
 40
0.84375
 40
0.84375
 40
0.859375
 40
0.859375
 40
0.8671875
 40
0.8671875
 40
0.87109375
 40
0.87109375
 40
0.873046875
 40
0.873046875
 40
0.875
 40
0.875
 40
0.90625
 40
0.90625
 40
0.921875
 40
0.921875
 40
0.9296875
 40
0.9296875
 40
0.93359375
 40
0.93359375
 40
0.935546875
 40
0.935546875
 40
0.9375
 40
0.9375
 40
1.0
 40
1.0
 40
1.0
 40
1.0
 10
518.4097950659799
 20
409.4503642930432
 30
0.0
 10
518.1293899255314
 20
409.3337049590531
 30
0.0
 10
517.8504148838035
 20
409.2131054750605
 30
0.0
 10
516.6881419428511
 20
408.6915717547906
 30
0.0
 10
515.8179295432507
 20
408.2543338994035
 30
0.0
 10
514.5362959671728
 20
407.5389692450932
 30
0.0
 10
514.113032279034
 20
407.2905963817848
 30
0.0
 10
513.4840580026564
 20
406.9031601190149
 30
0.0
 10
513.2753867865023
 20
406.771535203457
 30
0.0
 10
512.9638602762288
 20
406.5703785881684
 30
0.0
 10
512.8602648251307
 20
406.5027065094134
 30
0.0
 10
512.7052417269728
 20
406.4002685807932
 30
0.0
 10
512.6536290406683
 20
406.3659676361718
 30
0.0
 10
512.5505270275561
 20
406.2970558100997
 30
0.0
 10
512.497348224957
 20
406.2613028180321
 30
0.0
 10
511.65179931339
 20
405.6896992508055
 30
0.0
 10
510.8750319863823
 20
405.1176979589005
 30
0.0
 10
509.738446115807
 20
404.2086638251526
 30
0.0
 10
509.3643450122713
 20
403.8971470812548
 30
0.0
 10
508.8103346369517
 20
403.4171139164357
 30
0.0
 10
508.6268547251757
 20
403.2549765200005
 30
0.0
 10
508.353420177508
 20
403.0085809131047
 30
0.0
 10
508.2625728816182
 20
402.9259174587655
 30
0.0
 10
508.1267482677823
 20
402.8011248991959
 30
0.0
 10
508.0815477848369
 20
402.759394482996
 30
0.0
 10
507.9912955956122
 20
402.6756678579092
 30
0.0
 10
507.9453994416189
 20
402.6328806764112
 30
0.0
 10
506.4890147239707
 20
401.2687222999732
 30
0.0
 10
505.1705978866121
 20
399.8336743936831
 30
0.0
 10
503.9460160593114
 20
398.2863988249216
 30
0.0
  0
LINE
  5
28D
330
1F
100
AcDbEntity
  8
0
  6
Continuous
 62
     7
370
    15
100
AcDbLine
 10
503.9460160593
 20
398.2863988249
 30
0.0
 11
503.9460160593
 21
476.7817911149
 31
0.0
  0
CIRCLE
  5
28E
330
1F
100
AcDbEntity
  8
0
  6
Continuous
 62
     7
370
    15
100
AcDbCircle
 10
634.6842166715
 20
456.8817911149
 30
0.0
 40
2.249999999999773
  0
CIRCLE
  5
28F
330
1F
100
AcDbEntity
  8
0
  6
Continuous
 62
     7
370
    15
100
AcDbCircle
 10
522.6842166715
 20
456.8817911149
 30
0.0
 40
2.249999999999886
  0
CIRCLE
  5
290
330
1F
100
AcDbEntity
  8
0
  6
Continuous
 62
     7
370
    15
100
AcDbCircle
 10
566.5696524549
 20
401.4343654728
 30
0.0
 40
2.499999999999886
  0
CIRCLE
  5
291
330
1F
100
AcDbEntity
  8
0
  6
Continuous
 62
     7
370
    15
100
AcDbCircle
 10
566.5696524549
 20
256.4343654728
 30
0.0
 40
2.5
  0
CIRCLE
  5
292
330
1F
100
AcDbEntity
  8
0
  6
Continuous
 62
     7
370
    15
100
AcDbCircle
 10
641.5696524549
 20
391.4343654728
 30
0.0
 40
2.500000000000114
  0
CIRCLE
  5
293
330
1F
100
AcDbEntity
  8
0
  6
Continuous
 62
     7
370
    15
100
AcDbCircle
 10
641.5696524549
 20
256.4343654728
 30
0.0
 40
2.500000000000114
  0
SPLINE
  5
294
330
1F
100
AcDbEntity
  8
0
  6
Continuous
 62
     7
370
    15
100
AcDbSpline
210
0.0
220
0.0
230
1.0
 70
     8
 71
     3
 72
     8
 73
     4
 74
     0
 42
0.000000001
 43
0.00000001
 40
0.0
 40
0.0
 40
0.0
 40
0.0
 40
1.0
 40
1.0
 40
1.0
 40
1.0
 10
653.4224172837124
 20
237.8034705249692
 30
0.0
 10
653.7423943132447
 20
237.875230485675
 30
0.0
 10
654.062179786004
 20
237.9469904463809
 30
0.0
 10
654.352177459542
 20
238.0187504070867
 30
0.0
  0
LINE
  5
295
330
1F
100
AcDbEntity
  8
0
  6
Continuous
 62
     7
370
    15
100
AcDbLine
 10
654.3521774595
 20
476.7817911149
 30
0.0
 11
653.4224172837
 21
476.7817911149
 31
0.0
  0
LINE
  5
296
330
1F
100
AcDbEntity
  8
0
  6
Continuous
 62
     7
370
    15
100
AcDbLine
 10
654.3521774595
 20
238.0187504071
 30
0.0
 11
654.3521774595
 21
476.7817911149
 31
0.0
  0
SPLINE
  5
297
330
1F
100
AcDbEntity
  8
0
  6
Continuous
 62
     7
370
    15
100
AcDbSpline
210
0.0
220
0.0
230
1.0
 70
     8
 71
     3
 72
     8
 73
     4
 74
     0
 42
0.000000001
 43
0.00000001
 40
0.0
 40
0.0
 40
0.0
 40
0.0
 40
1.0
 40
1.0
 40
1.0
 40
1.0
 10
503.0162558834812
 20
238.0187504070868
 30
0.0
 10
503.3062535570192
 20
237.946990446381
 30
0.0
 10
503.6260390297784
 20
237.875230485675
 30
0.0
 10
503.9460160593108
 20
237.8034705249692
 30
0.0
  0
LINE
  5
298
330
1F
100
AcDbEntity
  8
0
  6
Continuous
 62
     7
370
    15
100
AcDbLine
 10
503.0162558835
 20
238.0187504071
 30
0.0
 11
503.0162558835
 21
260.5396251674
 31
0.0
  0
SPLINE
  5
299
330
1F
100
AcDbEntity
  8
0
  6
Continuous
 62
     7
370
    15
100
AcDbSpline
210
0.0
220
0.0
230
1.0
 70
     8
 71
     3
 72
     8
 73
     4
 74
     0
 42
0.000000001
 43
0.00000001
 40
0.0
 40
0.0
 40
0.0
 40
0.0
 40
1.0
 40
1.0
 40
1.0
 40
1.0
 10
503.016255883481
 20
260.5396251673628
 30
0.0
 10
503.3071284150666
 20
260.505982458958
 30
0.0
 10
503.6254249103924
 20
260.4692835786372
 30
0.0
 10
503.9460160593108
 20
260.4324591416507
 30
0.0
  0
SPLINE
  5
29A
330
1F
100
AcDbEntity
  8
0
  6
Continuous
 62
     7
370
    15
100
AcDbSpline
210
0.0
220
0.0
230
1.0
 70
     8
 71
     3
 72
     8
 73
     4
 74
     0
 42
0.000000001
 43
0.00000001
 40
0.0
 40
0.0
 40
0.0
 40
0.0
 40
1.0
 40
1.0
 40
1.0
 40
1.0
 10
503.9460166288661
 20
398.2863988903427
 30
0.0
 10
503.6254241371174
 20
398.24957407992
 30
0.0
 10
503.3071308742645
 20
398.2128754271222
 30
0.0
 10
503.0162558834812
 20
398.179232392318
 30
0.0
  0
SPLINE
  5
29B
330
1F
100
AcDbEntity
  8
0
  6
Continuous
 62
     7
370
    15
100
AcDbSpline
210
0.0
220
0.0
230
1.0
 70
     8
 71
     3
 72
    14
 73
    10
 74
     0
 42
0.000000001
 43
0.00000001
 40
0.0
 40
0.0
 40
0.0
 40
0.0
 40
0.0000500584114329
 40
0.0000500584114329
 40
0.0000500584114329
 40
0.0000939207180431
 40
0.0000939207180431
 40
0.0000939207180431
 40
0.0001381502066462
 40
0.0001381502066462
 40
0.0001381502066462
 40
0.0001381502066462
 10
503.9460160593108
 20
398.2863988249208
 30
0.0
 10
503.9356607166151
 20
398.2733147104893
 30
0.0
 10
503.9253028401399
 20
398.2602072664689
 30
0.0
 10
503.915014986687
 20
398.2471695649693
 30
0.0
 10
503.9059984885428
 20
398.2357430402902
 30
0.0
 10
503.8970161868138
 20
398.224347895643
 30
0.0
 10
503.8881199618544
 20
398.2130570765634
 30
0.0
 10
503.8791503327244
 20
398.201673095135
 30
0.0
 10
503.8702477788416
 20
398.1903716452342
 30
0.0
 10
503.8614924069627
 20
398.179232392318
 30
0.0
  0
SPLINE
  5
29C
330
1F
100
AcDbEntity
  8
0
  6
Continuous
 62
     7
370
    15
100
AcDbSpline
210
0.0
220
0.0
230
1.0
 70
     8
 71
     3
 72
    14
 73
    10
 74
     0
 42
0.000000001
 43
0.00000001
 40
0.0
 40
0.0
 40
0.0
 40
0.0
 40
0.0000500747703944
 40
0.0000500747703944
 40
0.0000500747703944
 40
0.0000939342948903
 40
0.0000939342948903
 40
0.0000939342948903
 40
0.0001381249029725
 40
0.0001381249029725
 40
0.0001381249029725
 40
0.0001381249029725
 10
503.8614924069627
 20
260.5396251673628
 30
0.0
 10
503.8714038057638
 20
260.5270151444182
 30
0.0
 10
503.8815044465267
 20
260.5141952138172
 30
0.0
 10
503.8916814742165
 20
260.5012807300405
 30
0.0
 10
503.9005991466419
 20
260.4899643477556
 30
0.0
 10
503.9095975048211
 20
260.4785508593741
 30
0.0
 10
503.9186264112308
 20
260.4671121859502
 30
0.0
 10
503.9277237010343
 20
260.455586877969
 30
0.0
 10
503.9368703918536
 20
260.4440147464052
 30
0.0
 10
503.9460160593108
 20
260.4324591416507
 30
0.0
  0
LINE
  5
29D
330
1F
100
AcDbEntity
  8
0
  6
Continuous
 62
     7
370
    15
100
AcDbLine
 10
503.0162558835
 20
398.1792323923
 30
0.0
 11
503.0162558835
 21
476.7817911149
 31
0.0
  0
LINE
  5
29E
330
1F
100
AcDbEntity
  8
0
  6
Continuous
 62
     7
370
    15
100
AcDbLine
 10
503.9460160593
 20
476.7817911149
 30
0.0
 11
503.0162558835
 21
476.7817911149
 31
0.0
  0
LINE
  5
29F
330
1F
100
AcDbEntity
  8
0
  6
Continuous
 62
     7
370
    15
100
AcDbLine
 10
568.6842166715
 20
235.3817911149
 30
0.0
 11
588.6842166715
 21
235.3817911149
 31
0.0
  0
LINE
  5
2A0
330
1F
100
AcDbEntity
  8
0
  6
Continuous
 62
     7
370
    15
100
AcDbLine
 10
568.6842166715
 20
235.3817911149
 30
0.0
 11
568.6842166715
 21
237.5817911149
 31
0.0
  0
LINE
  5
2A1
330
1F
100
AcDbEntity
  8
0
  6
Continuous
 62
     7
370
    15
100
AcDbLine
 10
588.6842166715
 20
237.5817911149
 30
0.0
 11
588.6842166715
 21
235.3817911149
 31
0.0
  0
ARC
  5
2A2
330
1F
100
AcDbEntity
  8
0
  6
Continuous
 62
     7
370
    15
100
AcDbCircle
 10
508.8726388377
 20
250.1915329578
 30
0.0
 40
13.50828843089204
100
AcDbArc
 50
225.4158798688
 51
244.3075737979
  0
LINE
  5
2A3
330
1F
100
AcDbEntity
  8
0
  6
Continuous
 62
     7
370
    15
100
AcDbLine
 10
499.390418996
 20
240.5706513346
 30
0.0
 11
471.564060223
 21
267.8621978548
 31
0.0
  0
ARC
  5
2A4
330
1F
100
AcDbEntity
  8
0
  6
Continuous
 62
     7
370
    15
100
AcDbCircle
 10
482.7083408263
 20
278.9319224547
 30
0.0
 40
15.70776218566279
100
AcDbArc
 50
179.4841657038
 51
224.8077011214
  0
LINE
  5
2A5
330
1F
100
AcDbEntity
  8
0
  6
Continuous
 62
     7
370
    15
100
AcDbLine
 10
467.0012152258
 20
279.0733376351
 30
0.0
 11
467.0012152258
 21
461.7817911149
 31
0.0
  0
LWPOLYLINE
  5
2A6
330
1F
100
AcDbEntity
  8
0
  6
Continuous
 62
     7
370
    15
100
AcDbPolyline
 90
       13
 70
   128
 43
0.0
 10
480.5958320314
 20
476.7817911149
 10
478.821378465
 20
476.6534640355
 10
477.0772862912
 20
476.2706785092
 10
475.3933974105
 20
475.6399841026
 10
473.7985236286
 20
474.7721721717
 10
472.319953678
 20
473.6820912193
 10
470.9829863005
 20
472.3883928327
 10
469.8104973787
 20
470.91321255
 10
468.822548523
 20
469.2817911149
 10
468.0360438124
 20
467.5220426004
 10
467.4644405604
 20
465.6640767914
 10
467.1175190572
 20
463.7396839982
 10
467.0012152258
 20
461.7817911149
  0
LINE
  5
2A7
330
1F
100
AcDbEntity
  8
0
  6
Continuous
 62
     7
370
    15
100
AcDbLine
 10
480.5958320314
 20
476.7817911149
 30
0.0
 11
503.0162558835
 21
476.7817911149
 31
0.0
  0
LINE
  5
2A8
330
1F
100
AcDbEntity
  8
0
  6
Continuous
 62
     7
370
    15
100
AcDbLine
 10
493.338980148
 20
369.0346030895
 30
0.0
 11
493.338980148
 21
289.68425482
 31
0.0
  0
LWPOLYLINE
  5
2A9
330
1F
100
AcDbEntity
  8
0
  6
Continuous
 62
     7
370
    15
100
AcDbPolyline
 90
       21
 70
   128
 43
0.0
 10
494.951459047
 20
401.4343654728
 10
494.840564396
 20
402.2069079588
 10
494.518735584
 20
402.9038286035
 10
494.0174754575
 20
403.4569079588
 10
493.3858508502
 20
403.8120067636
 10
492.6856895794
 20
403.9343654728
 10
491.9855283086
 20
403.8120067636
 10
491.3539037013
 20
403.4569079588
 10
490.8526435748
 20
402.9038286035
 10
490.5308147628
 20
402.2069079588
 10
490.4199201118
 20
401.4343654728
 10
490.5308147628
 20
400.6618229869
 10
490.8526435748
 20
399.9649023421
 10
491.3539037013
 20
399.4118229869
 10
491.9855283086
 20
399.0567241821
 10
492.6856895794
 20
398.9343654728
 10
493.3858508502
 20
399.0567241821
 10
494.0174754575
 20
399.4118229869
 10
494.518735584
 20
399.9649023421
 10
494.840564396
 20
400.6618229869
 10
494.951459047
 20
401.4343654728
  0
LWPOLYLINE
  5
2AA
330
1F
100
AcDbEntity
  8
0
  6
Continuous
 62
     7
370
    15
100
AcDbPolyline
 90
       21
 70
   128
 43
0.0
 10
494.951459047
 20
256.4343654728
 10
494.840564396
 20
257.2069079588
 10
494.518735584
 20
257.9038286035
 10
494.0174754575
 20
258.4569079588
 10
493.3858508502
 20
258.8120067636
 10
492.6856895794
 20
258.9343654728
 10
491.9855283086
 20
258.8120067636
 10
491.3539037013
 20
258.4569079588
 10
490.8526435748
 20
257.9038286035
 10
490.5308147628
 20
257.2069079588
 10
490.4199201118
 20
256.4343654728
 10
490.5308147628
 20
255.6618229869
 10
490.8526435748
 20
254.9649023421
 10
491.3539037013
 20
254.4118229869
 10
491.9855283086
 20
254.0567241821
 10
492.6856895794
 20
253.9343654728
 10
493.3858508502
 20
254.0567241821
 10
494.0174754575
 20
254.4118229869
 10
494.518735584
 20
254.9649023421
 10
494.840564396
 20
255.6618229869
 10
494.951459047
 20
256.4343654728
  0
LINE
  5
2AB
330
1F
100
AcDbEntity
  8
0
  6
Continuous
 62
     7
370
    15
100
AcDbLine
 10
654.3521774595
 20
476.7817911149
 30
0.0
 11
676.7726013117
 21
476.7817911149
 31
0.0
  0
LWPOLYLINE
  5
2AC
330
1F
100
AcDbEntity
  8
0
  6
Continuous
 62
     7
370
    15
100
AcDbPolyline
 90
       13
 70
   128
 43
0.0
 10
690.3672181172
 20
461.7817911149
 10
690.2509142859
 20
463.7396839982
 10
689.9039927826
 20
465.6640767914
 10
689.3323895306
 20
467.5220426004
 10
688.54588482
 20
469.2817911149
 10
687.5579359643
 20
470.91321255
 10
686.3854470425
 20
472.3883928327
 10
685.048479665
 20
473.6820912193
 10
683.5699097144
 20
474.7721721717
 10
681.9750359325
 20
475.6399841026
 10
680.2911470518
 20
476.2706785092
 10
678.547054878
 20
476.6534640355
 10
676.7726013117
 20
476.7817911149
  0
LINE
  5
2AD
330
1F
100
AcDbEntity
  8
0
  6
Continuous
 62
     7
370
    15
100
AcDbLine
 10
690.3672181172
 20
461.7817911149
 30
0.0
 11
690.3672181172
 21
279.0733376351
 31
0.0
  0
ARC
  5
2AE
330
1F
100
AcDbEntity
  8
0
  6
Continuous
 62
     7
370
    15
100
AcDbCircle
 10
674.6600925168
 20
278.9319224547
 30
0.0
 40
15.70776218566274
100
AcDbArc
 50
315.1922988786
 51
0.5158342962
  0
LINE
  5
2AF
330
1F
100
AcDbEntity
  8
0
  6
Continuous
 62
     7
370
    15
100
AcDbLine
 10
685.80437312
 20
267.8621978548
 30
0.0
 11
657.978014347
 21
240.5706513346
 31
0.0
  0
ARC
  5
2B0
330
1F
100
AcDbEntity
  8
0
  6
Continuous
 62
     7
370
    15
100
AcDbCircle
 10
648.4957945053
 20
250.1915329578
 30
0.0
 40
13.50828843088985
100
AcDbArc
 50
295.6924262021
 51
314.5841201312
  0
ARC
  5
2B1
330
1F
100
AcDbEntity
  8
0
  6
Continuous
 62
     7
370
    15
100
AcDbCircle
 10
493.7555154114
 20
401.4343654728
 30
0.0
 40
2.53996748147024
100
AcDbArc
 50
104.7622910426
 51
255.2377089574
  0
ARC
  5
2B2
330
1F
100
AcDbEntity
  8
0
  6
Continuous
 62
     7
370
    15
100
AcDbCircle
 10
493.7555154114
 20
256.4343654728
 30
0.0
 40
2.539967481469942
100
AcDbArc
 50
104.7622910426
 51
255.2377089574
  0
LINE
  5
2B3
330
1F
100
AcDbEntity
  8
0
  6
Continuous
 62
     7
370
    15
100
AcDbLine
 10
494.1842166715
 20
369.0346030895
 30
0.0
 11
494.1842166715
 21
289.68425482
 31
0.0
  0
LINE
  5
2B4
330
1F
100
AcDbEntity
  8
0
  6
Continuous
 62
     7
370
    15
100
AcDbLine
 10
584.6842166715
 20
234.7817911149
 30
0.0
 11
572.6842166715
 21
234.7817911149
 31
0.0
  0
DIMENSION
  5
2B5
330
1F
100
AcDbEntity
  8
DESSIN
 62
     7
100
AcDbDimension
  2
_D
 10
415.0012152258
 20
476.7817911149
 30
0.0
 11
415.0012152258
 21
356.0817911149
 31
0.0
 70
   160
  1
<>
 71
     2
 42
-1.0
  3
SLDDIMSTYLE0
100
AcDbAlignedDimension
 13
568.6842166715
 23
235.3817911149
 33
0.0
 14
480.5958320314
 24
476.7817911149
 34
0.0
 50
90.0
100
AcDbRotatedDimension
  0
DIMENSION
  5
2C0
330
1F
100
AcDbEntity
  8
DESSIN
 62
     7
100
AcDbDimension
  2
_D_1
 10
537.8962465289
 20
235.3817911149
 30
0.0
 11
537.8962465289
 21
204.0764670902
 31
0.0
 70
   160
  1
(<>)
 71
     2
 42
-1.0
  3
SLDDIMSTYLE1
100
AcDbAlignedDimension
 13
572.6842166715
 23
234.7817911149
 33
0.0
 14
568.6842166715
 24
235.3817911149
 34
0.0
 50
90.0
100
AcDbRotatedDimension
  0
DIMENSION
  5
2CF
330
1F
100
AcDbEntity
  8
DESSIN
 62
     7
100
AcDbDimension
  2
_D_2
 10
690.3672181172
 20
518.3660014037
 30
0.0
 11
578.6842166715
 21
518.3660014037
 31
0.0
 70
   160
  1
(<>)
 71
     2
 42
-1.0
  3
SLDDIMSTYLE0
100
AcDbAlignedDimension
 13
467.0012152258
 23
461.7817911149
 33
0.0
 14
690.3672181172
 24
461.7817911149
 34
0.0
100
AcDbRotatedDimension
  0
LINE
  5
2DB
330
1F
100
AcDbEntity
  8
0
  6
Continuous
 62
     7
370
     0
100
AcDbLine
 10
578.6842166715
 20
505.8218191149
 30
0.0
 11
578.6842166715
 21
205.7417881149
 31
0.0
  0
LINE
  5
2DC
330
1F
100
AcDbEntity
  8
0
  6
Continuous
 62
     7
370
     0
100
AcDbLine
 10
566.6842166715
 20
503.8218191149
 30
0.0
 11
578.6842166715
 21
503.8218191149
 31
0.0
  0
SOLID
  5
2DD
330
1F
100
AcDbEntity
  8
0
  6
Continuous
 62
     7
370
     0
100
AcDbTrace
 10
578.6842166715
 20
503.8218191149
 30
0.0
 11
572.6842166715
 21
505.3218191149
 31
0.0
 12
572.6842166715
 22
502.3218191149
 32
0.0
 13
572.6842166715
 23
502.3218191149
 33
0.0
  0
LINE
  5
2DE
330
1F
100
AcDbEntity
  8
0
  6
Continuous
 62
     7
370
     0
100
AcDbLine
 10
566.6842166715
 20
207.7417881149
 30
0.0
 11
578.6842166715
 21
207.7417881149
 31
0.0
  0
SOLID
  5
2DF
330
1F
100
AcDbEntity
  8
0
  6
Continuous
 62
     7
370
     0
100
AcDbTrace
 10
578.6842166715
 20
207.7417881149
 30
0.0
 11
572.6842166715
 21
209.2417881149
 31
0.0
 12
572.6842166715
 22
206.2417881149
 32
0.0
 13
572.6842166715
 23
206.2417881149
 33
0.0
  0
MTEXT
  5
2E0
330
1F
100
AcDbEntity
  8
0
  6
Continuous
 62
     7
100
AcDbMText
 10
566.6842166715
 20
509.3330094673
 30
0.0
 40
3.5
 41
0.0
 71
     1
 72
     1
  1
A
  7
SLDTEXTSTYLE0
 73
     1
 44
1.0
  0
MTEXT
  5
2E1
330
1F
100
AcDbEntity
  8
0
  6
Continuous
 62
     7
100
AcDbMText
 10
566.6842166715
 20
213.2529784673
 30
0.0
 40
3.5
 41
0.0
 71
     1
 72
     1
  1
A
  7
SLDTEXTSTYLE0
 73
     1
 44
1.0
  0
CIRCLE
  5
2E2
330
1F
100
AcDbEntity
  8
0
  6
Continuous
 62
     7
370
    15
100
AcDbCircle
 10
300.4624311245
 20
431.9959623086
 30
0.0
 40
2.499999999999829
  0
CIRCLE
  5
2E3
330
1F
100
AcDbEntity
  8
0
  6
Continuous
 62
     7
370
    15
100
AcDbCircle
 10
300.4624311245
 20
286.9959623086
 30
0.0
 40
2.499999999999829
  0
CIRCLE
  5
2E4
330
1F
100
AcDbEntity
  8
0
  6
Continuous
 62
     7
370
    15
100
AcDbCircle
 10
213.8021129864
 20
258.4584323586
 30
0.0
 40
5.000000000000028
  0
ARC
  5
2E5
330
1F
100
AcDbEntity
  8
0
  6
Continuous
 62
     7
370
    15
100
AcDbCircle
 10
283.0991231512
 20
282.3433879507
 30
0.0
 40
15.0
100
AcDbArc
 50
270.0
 51
291.2689351942
  0
LINE
  5
2E6
330
1F
100
AcDbEntity
  8
0
  6
Continuous
 62
     7
370
    15
100
AcDbLine
 10
225.8021129864
 20
267.3433879507
 30
0.0
 11
283.0991231512
 21
267.3433879507
 31
0.0
  0
LINE
  5
2E7
330
1F
100
AcDbEntity
  8
0
  6
Continuous
 62
     7
370
    15
100
AcDbLine
 10
225.8021129864
 20
269.9433879507
 30
0.0
 11
225.8021129864
 21
267.3433879507
 31
0.0
  0
LINE
  5
2E8
330
1F
100
AcDbEntity
  8
0
  6
Continuous
 62
     7
370
    15
100
AcDbLine
 10
223.8021129864
 20
269.9433879507
 30
0.0
 11
225.8021129864
 21
269.9433879507
 31
0.0
  0
LINE
  5
2E9
330
1F
100
AcDbEntity
  8
0
  6
Continuous
 62
     7
370
    15
100
AcDbLine
 10
223.8021129864
 20
253.4584323586
 30
0.0
 11
223.8021129864
 21
269.9433879507
 31
0.0
  0
LINE
  5
2EA
330
1F
100
AcDbEntity
  8
0
  6
Continuous
 62
     7
370
    15
100
AcDbLine
 10
218.8021129864
 20
248.4584323586
 30
0.0
 11
223.8021129864
 21
253.4584323586
 31
0.0
  0
LINE
  5
2EB
330
1F
100
AcDbEntity
  8
0
  6
Continuous
 62
     7
370
    15
100
AcDbLine
 10
218.8021129864
 20
248.4584323586
 30
0.0
 11
208.8021129864
 21
248.4584323586
 31
0.0
  0
LINE
  5
2EC
330
1F
100
AcDbEntity
  8
0
  6
Continuous
 62
     7
370
    15
100
AcDbLine
 10
203.8021129864
 20
253.4584323586
 30
0.0
 11
208.8021129864
 21
248.4584323586
 31
0.0
  0
LINE
  5
2ED
330
1F
100
AcDbEntity
  8
0
  6
Continuous
 62
     7
370
    15
100
AcDbLine
 10
203.8021129864
 20
269.9433879507
 30
0.0
 11
203.8021129864
 21
253.4584323586
 31
0.0
  0
LINE
  5
2EE
330
1F
100
AcDbEntity
  8
0
  6
Continuous
 62
     7
370
    15
100
AcDbLine
 10
201.8021129864
 20
269.9433879507
 30
0.0
 11
203.8021129864
 21
269.9433879507
 31
0.0
  0
LINE
  5
2EF
330
1F
100
AcDbEntity
  8
0
  6
Continuous
 62
     7
370
    15
100
AcDbLine
 10
201.8021129864
 20
267.3433879507
 30
0.0
 11
201.8021129864
 21
269.9433879507
 31
0.0
  0
LINE
  5
2F0
330
1F
100
AcDbEntity
  8
0
  6
Continuous
 62
     7
370
    15
100
AcDbLine
 10
144.5051028216
 20
267.3433879507
 30
0.0
 11
201.8021129864
 21
267.3433879507
 31
0.0
  0
ARC
  5
2F1
330
1F
100
AcDbEntity
  8
0
  6
Continuous
 62
     7
370
    15
100
AcDbCircle
 10
144.5051028216
 20
282.3433879507
 30
0.0
 40
15.0
100
AcDbArc
 50
228.3664606634
 51
270.0
  0
LINE
  5
2F2
330
1F
100
AcDbEntity
  8
0
  6
Continuous
 62
     7
370
    15
100
AcDbLine
 10
103.836655404
 20
298.4237946907
 30
0.0
 11
134.5396452392
 21
271.1322481705
 31
0.0
  0
ARC
  5
2F3
330
1F
100
AcDbEntity
  8
0
  6
Continuous
 62
     7
370
    15
100
AcDbCircle
 10
113.8021129864
 20
309.6349344709
 30
0.0
 40
15.0
100
AcDbArc
 50
180.0
 51
228.3664606634
  0
LINE
  5
2F4
330
1F
100
AcDbEntity
  8
0
  6
Continuous
 62
     7
370
    15
100
AcDbLine
 10
98.8021129864
 20
492.3433879507
 30
0.0
 11
98.8021129864
 21
309.6349344709
 31
0.0
  0
ARC
  5
2F5
330
1F
100
AcDbEntity
  8
0
  6
Continuous
 62
     7
370
    15
100
AcDbCircle
 10
113.8021129864
 20
492.3433879507
 30
0.0
 40
15.0
100
AcDbArc
 50
90.0
 51
180.0
  0
LINE
  5
2F6
330
1F
100
AcDbEntity
  8
0
  6
Continuous
 62
     7
370
    15
100
AcDbLine
 10
313.8021129864
 20
507.3433879507
 30
0.0
 11
113.8021129864
 21
507.3433879507
 31
0.0
  0
ARC
  5
2F7
330
1F
100
AcDbEntity
  8
0
  6
Continuous
 62
     7
370
    15
100
AcDbCircle
 10
313.8021129864
 20
492.3433879507
 30
0.0
 40
15.00000000000006
100
AcDbArc
 50
0.0
 51
90.0
  0
LINE
  5
2F8
330
1F
100
AcDbEntity
  8
0
  6
Continuous
 62
     7
370
    15
100
AcDbLine
 10
328.8021129864
 20
309.6349344709
 30
0.0
 11
328.8021129864
 21
492.3433879507
 31
0.0
  0
ARC
  5
2F9
330
1F
100
AcDbEntity
  8
0
  6
Continuous
 62
     7
370
    15
100
AcDbCircle
 10
313.8021129864
 20
309.6349344709
 30
0.0
 40
15.00000000000006
100
AcDbArc
 50
311.6335393366
 51
0.0
  0
LINE
  5
2FA
330
1F
100
AcDbEntity
  8
0
  6
Continuous
 62
     7
370
    15
100
AcDbLine
 10
293.0645807336
 20
271.1322481705
 30
0.0
 11
323.7675705689
 21
298.4237946907
 31
0.0
  0
ARC
  5
2FB
330
1F
100
AcDbEntity
  8
0
  6
Continuous
 62
     7
370
    15
100
AcDbCircle
 10
283.0991231512
 20
282.3433879507
 30
0.0
 40
14.99999999999999
100
AcDbArc
 50
293.4315138829
 51
311.6335393366
  0
ARC
  5
2FC
330
1F
100
AcDbEntity
  8
0
  6
Continuous
 62
     7
370
    15
100
AcDbCircle
 10
294.5051028216
 20
254.602026653
 30
0.0
 40
15.00000000000002
100
AcDbArc
 50
111.2689351942
 51
113.4315138829
  0
CIRCLE
  5
2FD
330
1F
100
AcDbEntity
  8
0
  6
Continuous
 62
     7
370
    15
100
AcDbCircle
 10
157.8021129864
 20
487.4433879507
 30
0.0
 40
2.25
  0
CIRCLE
  5
2FE
330
1F
100
AcDbEntity
  8
0
  6
Continuous
 62
     7
370
    15
100
AcDbCircle
 10
269.8021129864
 20
487.4433879507
 30
0.0
 40
2.250000000000057
  0
CIRCLE
  5
2FF
330
1F
100
AcDbEntity
  8
0
  6
Continuous
 62
     7
370
    15
100
AcDbCircle
 10
225.916677203
 20
431.9959623086
 30
0.0
 40
2.5
  0
CIRCLE
  5
300
330
1F
100
AcDbEntity
  8
0
  6
Continuous
 62
     7
370
    15
100
AcDbCircle
 10
225.916677203
 20
286.9959623086
 30
0.0
 40
2.5
  0
CIRCLE
  5
301
330
1F
100
AcDbEntity
  8
0
  6
Continuous
 62
     7
370
    15
100
AcDbCircle
 10
150.916677203
 20
421.9959623086
 30
0.0
 40
2.5
  0
CIRCLE
  5
302
330
1F
100
AcDbEntity
  8
0
  6
Continuous
 62
     7
370
    15
100
AcDbCircle
 10
150.916677203
 20
286.9959623086
 30
0.0
 40
2.5
  0
LINE
  5
303
330
1F
100
AcDbEntity
  8
0
  6
Continuous
 62
     7
370
    15
100
AcDbLine
 10
299.7416047364
 20
399.5961999253
 30
0.0
 11
299.7416047364
 21
320.2458516558
 31
0.0
  0
SPLINE
  5
304
330
1F
100
AcDbEntity
  8
0
  6
Continuous
 62
     7
370
    15
100
AcDbSpline
210
0.0
220
0.0
230
1.0
 70
     8
 71
     3
 72
    14
 73
    10
 74
     0
 42
0.000000001
 43
0.00000001
 40
0.0
 40
0.0
 40
0.0
 40
0.0
 40
0.0078809999338681
 40
0.0078809999338681
 40
0.0157619998677362
 40
0.0157619998677362
 40
0.0236429998016043
 40
0.0236429998016043
 40
0.0315239997354724
 40
0.0315239997354724
 40
0.0315239997354724
 40
0.0315239997354724
 10
289.0639123742043
 20
428.7408292281342
 30
0.0
 10
290.8147483569473
 20
426.7219857810204
 30
0.0
 10
292.3420134055935
 20
424.5720853279899
 30
0.0
 10
294.9894602013482
 20
420.0338434523802
 30
0.0
 10
296.1106769441328
 20
417.6444438729568
 30
0.0
 10
297.9323470861661
 20
412.6256854087403
 30
0.0
 10
298.6050012814533
 20
410.0744311334033
 30
0.0
 10
299.5090890325148
 20
404.894350723543
 30
0.0
 10
299.7416047364129
 20
402.2657015318401
 30
0.0
 10
299.7416047364126
 20
399.5961999252856
 30
0.0
  0
LINE
  5
305
330
1F
100
AcDbEntity
  8
0
  6
Continuous
 62
     7
370
    15
100
AcDbLine
 10
289.0639123742
 20
428.7408292281
 30
0.0
 11
288.5403123762
 21
428.8479972053
 31
0.0
  0
SPLINE
  5
306
330
1F
100
AcDbEntity
  8
0
  6
Continuous
 62
     7
370
    15
100
AcDbSpline
210
0.0
220
0.0
230
1.0
 70
     8
 71
     3
 72
    50
 73
    46
 74
     0
 42
0.000000001
 43
0.00000001
 40
0.6875
 40
0.6875
 40
0.6875
 40
0.6875
 40
0.71875
 40
0.71875
 40
0.734375
 40
0.734375
 40
0.7421875
 40
0.7421875
 40
0.74609375
 40
0.74609375
 40
0.748046875
 40
0.748046875
 40
0.75
 40
0.75
 40
0.78125
 40
0.78125
 40
0.796875
 40
0.796875
 40
0.8125
 40
0.8125
 40
0.84375
 40
0.84375
 40
0.859375
 40
0.859375
 40
0.8671875
 40
0.8671875
 40
0.87109375
 40
0.87109375
 40
0.873046875
 40
0.873046875
 40
0.875
 40
0.875
 40
0.90625
 40
0.90625
 40
0.921875
 40
0.921875
 40
0.9296875
 40
0.9296875
 40
0.93359375
 40
0.93359375
 40
0.935546875
 40
0.935546875
 40
0.9375
 40
0.9375
 40
1.0
 40
1.0
 40
1.0
 40
1.0
 10
263.5927113711213
 20
442.4461880023869
 30
0.0
 10
264.5676926514771
 20
442.3891355504129
 30
0.0
 10
265.5399161163467
 20
442.2862938046444
 30
0.0
 10
266.9941145902957
 20
442.0633472453101
 30
0.0
 10
267.4781579610373
 20
441.9775844020889
 30
0.0
 10
268.2031888363188
 20
441.8317691520878
 30
0.0
 10
268.4446934312742
 20
441.7803022378926
 30
0.0
 10
268.8066917784996
 20
441.6988091203074
 30
0.0
 10
268.9273148033734
 20
441.6709292900636
 30
0.0
 10
269.1081847043822
 20
441.6280363581247
 30
0.0
 10
269.1684638986682
 20
441.6135598497164
 30
0.0
 10
269.289000741806
 20
441.5842491040418
 30
0.0
 10
269.3504601834949
 20
441.5691153883755
 30
0.0
 10
270.3542265995633
 20
441.3189837923625
 30
0.0
 10
271.2851439353754
 20
441.0426358699001
 30
0.0
 10
272.6608139436563
 20
440.5667190615902
 30
0.0
 10
273.1159196138437
 20
440.3978476380508
 30
0.0
 10
274.0192289557395
 20
440.0396398161
 30
0.0
 10
274.4691840923411
 20
439.849517502462
 30
0.0
 10
275.7981877150679
 20
439.253168590599
 30
0.0
 10
276.6684001146695
 20
438.8159307352079
 30
0.0
 10
277.9500336907473
 20
438.1005660808976
 30
0.0
 10
278.3732973788859
 20
437.8521932175902
 30
0.0
 10
279.0022716552626
 20
437.4647569548233
 30
0.0
 10
279.2109428714164
 20
437.3331320392666
 30
0.0
 10
279.5224693816892
 20
437.1319754239801
 30
0.0
 10
279.6260648327871
 20
437.0643033452261
 30
0.0
 10
279.7810879309446
 20
436.9618654166071
 30
0.0
 10
279.8327006172489
 20
436.9275644719861
 30
0.0
 10
279.935802630361
 20
436.858652645915
 30
0.0
 10
279.9889814329639
 20
436.8228996538451
 30
0.0
 10
280.8345303444575
 20
436.2512960866746
 30
0.0
 10
281.6112976714306
 20
435.6792947947961
 30
0.0
 10
282.7478835420059
 20
434.7702606610482
 30
0.0
 10
283.1219846455504
 20
434.4587439171439
 30
0.0
 10
283.6759950208959
 20
433.9787107523049
 30
0.0
 10
283.8594749326825
 20
433.8165733558614
 30
0.0
 10
284.1329094803697
 20
433.5701777489507
 30
0.0
 10
284.2237567762667
 20
433.4875142946061
 30
0.0
 10
284.359581390114
 20
433.3627217350279
 30
0.0
 10
284.4047818730633
 20
433.320991318825
 30
0.0
 10
284.495034062296
 20
433.2372646937318
 30
0.0
 10
284.5409302163001
 20
433.1944775122246
 30
0.0
 10
285.9973149338747
 20
431.8303191358796
 30
0.0
 10
287.3157317712333
 20
430.3952712295895
 30
0.0
 10
288.5403135986053
 20
428.8479956607379
 30
0.0
  0
SPLINE
  5
307
330
1F
100
AcDbEntity
  8
0
  6
Continuous
 62
     7
370
    15
100
AcDbSpline
210
0.0
220
0.0
230
1.0
 70
     8
 71
     3
 72
    10
 73
     6
 74
     0
 42
0.000000001
 43
0.00000001
 40
0.4727960531394662
 40
0.4727960531394662
 40
0.4727960531394662
 40
0.4727960531394662
 40
0.4999999999999998
 40
0.4999999999999998
 40
0.5132873353764045
 40
0.5132873353764045
 40
0.5132873353764045
 40
0.5132873353764045
 10
258.5205077880656
 20
442.3227424658247
 30
0.0
 10
259.6529021294831
 20
442.4439006468953
 30
0.0
 10
260.7879125928087
 20
442.5030224734438
 30
0.0
 10
262.4806987897601
 20
442.4961623605512
 30
0.0
 10
263.036551319596
 20
442.4787423441431
 30
0.0
 10
263.592711371063
 20
442.4461880023903
 30
0.0
  0
SPLINE
  5
308
330
1F
100
AcDbEntity
  8
0
  6
Continuous
 62
     7
370
    15
100
AcDbSpline
210
0.0
220
0.0
230
1.0
 70
     8
 71
     3
 72
    28
 73
    24
 74
     0
 42
0.000000001
 43
0.00000001
 40
0.4998315495188735
 40
0.4998315495188735
 40
0.4998315495188735
 40
0.4998315495188735
 40
0.5
 40
0.5
 40
0.53125
 40
0.53125
 40
0.546875
 40
0.546875
 40
0.5546875
 40
0.5546875
 40
0.55859375
 40
0.55859375
 40
0.5625
 40
0.5625
 40
0.59375
 40
0.59375
 40
0.609375
 40
0.609375
 40
0.6171875
 40
0.6171875
 40
0.625
 40
0.625
 40
0.6332280685784328
 40
0.6332280685784328
 40
0.6332280685784328
 40
0.6332280685784328
 10
246.6103051222738
 20
438.6280245709906
 30
0.0
 10
246.614959898482
 20
438.6305148084612
 30
0.0
 10
246.6196202641352
 20
438.6330066650528
 30
0.0
 10
247.4899541858848
 20
439.0981111185225
 30
0.0
 10
248.3716511896154
 20
439.5205088876369
 30
0.0
 10
249.7182407802317
 20
440.0937860112556
 30
0.0
 10
250.1711113246073
 20
440.2748251307864
 30
0.0
 10
250.8564281624258
 20
440.5313039275695
 30
0.0
 10
251.0858689452411
 20
440.6142835460782
 30
0.0
 10
251.4315328747779
 20
440.7349830032131
 30
0.0
 10
251.5470046438425
 20
440.7745878271534
 30
0.0
 10
251.7784491004096
 20
440.8525408181577
 30
0.0
 10
251.8927958967295
 20
440.8903613076055
 30
0.0
 10
252.9534372378654
 20
441.2345889537876
 30
0.0
 10
253.9031352888732
 20
441.4960888747556
 30
0.0
 10
255.3380409870489
 20
441.8216184427496
 30
0.0
 10
255.8180693233848
 20
441.9190082465046
 30
0.0
 10
256.5407014833046
 20
442.0484128737727
 30
0.0
 10
256.7820104791806
 20
442.0887677364681
 30
0.0
 10
257.2654916894044
 20
442.1639174357372
 30
0.0
 10
257.5064361546554
 20
442.1985502543755
 30
0.0
 10
258.0070693787417
 20
442.264615512858
 30
0.0
 10
258.2638160656515
 20
442.2952873028582
 30
0.0
 10
258.5205077880656
 20
442.3227424658246
 30
0.0
  0
SPLINE
  5
309
330
1F
100
AcDbEntity
  8
0
  6
Continuous
 62
     7
370
    15
100
AcDbSpline
210
0.0
220
0.0
230
1.0
 70
     8
 71
     3
 72
    30
 73
    26
 74
     0
 42
0.000000001
 43
0.00000001
 40
0.0
 40
0.0
 40
0.0
 40
0.0
 40
0.0625
 40
0.0625
 40
0.125
 40
0.125
 40
0.1562500000000001
 40
0.1562500000000001
 40
0.1718750000000002
 40
0.1718750000000002
 40
0.1875000000000003
 40
0.1875000000000003
 40
0.2500000000000008
 40
0.2500000000000008
 40
0.2656250000000009
 40
0.2656250000000009
 40
0.2812500000000009
 40
0.2812500000000009
 40
0.312500000000001
 40
0.312500000000001
 40
0.343750000000001
 40
0.343750000000001
 40
0.3593750000000009
 40
0.3593750000000009
 40
0.3731744148620913
 40
0.3731744148620913
 40
0.3731744148620913
 40
0.3731744148620913
 10
225.3021129864053
 20
399.5961999252902
 30
0.0
 10
225.3021129864053
 20
402.2050417900546
 30
0.0
 10
225.5035515863251
 20
404.7988145461965
 30
0.0
 10
226.3073880896452
 20
409.9526686884651
 30
0.0
 10
226.9049178280286
 20
412.4747326135609
 30
0.0
 10
228.0997746780762
 20
416.1626243026053
 30
0.0
 10
228.548542858771
 20
417.3770704540108
 30
0.0
 10
229.2999409221175
 20
419.1742695018018
 30
0.0
 10
229.5635355132331
 20
419.7694219738125
 30
0.0
 10
230.1177248863199
 20
420.9514303405751
 30
0.0
 10
230.4084468466531
 20
421.538374241618
 30
0.0
 10
231.9191072886422
 20
424.4279223438608
 30
0.0
 10
233.3163168101246
 20
426.6147497057318
 30
0.0
 10
235.3206660931619
 20
429.1773448335334
 30
0.0
 10
235.7348651655791
 20
429.6815538681552
 30
0.0
 10
236.5900769338427
 20
430.671680101234
 30
0.0
 10
237.0322604979301
 20
431.1588487438365
 30
0.0
 10
238.3909408872142
 20
432.581995261307
 30
0.0
 10
239.3386498734688
 20
433.4795163277604
 30
0.0
 10
241.3205449624937
 20
435.1701620483771
 30
0.0
 10
242.3550631381625
 20
435.9635635251262
 30
0.0
 10
243.9758866022141
 20
437.0697802923099
 30
0.0
 10
244.5279147772949
 20
437.4246483963196
 30
0.0
 10
245.5902965227781
 20
438.0651778187521
 30
0.0
 10
246.0977619325206
 20
438.3538215717454
 30
0.0
 10
246.6103050633645
 20
438.6280246811045
 30
0.0
  0
LINE
  5
30A
330
1F
100
AcDbEntity
  8
0
  6
Continuous
 62
     7
370
    15
100
AcDbLine
 10
225.3021129864
 20
320.2458516558
 30
0.0
 11
225.3021129864
 21
399.5961999253
 31
0.0
  0
SPLINE
  5
30B
330
1F
100
AcDbEntity
  8
0
  6
Continuous
 62
     7
370
    15
100
AcDbSpline
210
0.0
220
0.0
230
1.0
 70
     8
 71
     3
 72
    18
 73
    14
 74
     0
 42
0.000000001
 43
0.00000001
 40
0.7736746380878748
 40
0.7736746380878748
 40
0.7736746380878748
 40
0.7736746380878748
 40
0.8124999999999979
 40
0.8124999999999979
 40
0.843749999999998
 40
0.843749999999998
 40
0.8593749999999981
 40
0.8593749999999981
 40
0.8749999999999982
 40
0.8749999999999982
 40
0.9374999999999991
 40
0.9374999999999991
 40
1.0
 40
1.0
 40
1.0
 40
1.0
 10
233.0844610919031
 20
293.7157226241689
 30
0.0
 10
232.1951973697821
 20
295.0479649258678
 30
0.0
 10
231.3860648055116
 20
296.4241808252233
 30
0.0
 10
230.0589336046416
 20
298.9806201780647
 30
0.0
 10
229.5149000716653
 20
300.1480003764653
 30
0.0
 10
228.7701968190696
 20
301.9379206483067
 30
0.0
 10
228.5337901157758
 20
302.5412414962729
 30
0.0
 10
228.0848239608855
 20
303.7610834596678
 30
0.0
 10
227.8718536468487
 20
304.3790186682639
 30
0.0
 10
226.8750485293104
 20
307.4765481114636
 30
0.0
 10
226.289003408255
 20
309.9869421593366
 30
0.0
 10
225.5029324785827
 20
315.0680170724521
 30
0.0
 10
225.3021129864053
 20
317.640813420226
 30
0.0
 10
225.3021129864053
 20
320.2458516557958
 30
0.0
  0
SPLINE
  5
30C
330
1F
100
AcDbEntity
  8
0
  6
Continuous
 62
     7
370
    15
100
AcDbSpline
210
0.0
220
0.0
230
1.0
 70
     8
 71
     3
 72
    70
 73
    66
 74
     0
 42
0.000000001
 43
0.00000001
 40
0.369098148744061
 40
0.369098148744061
 40
0.369098148744061
 40
0.369098148744061
 40
0.37109375
 40
0.37109375
 40
0.375
 40
0.375
 40
0.40625
 40
0.40625
 40
0.421875
 40
0.421875
 40
0.4296875
 40
0.4296875
 40
0.43359375
 40
0.43359375
 40
0.4375
 40
0.4375
 40
0.46875
 40
0.46875
 40
0.484375
 40
0.484375
 40
0.4921875
 40
0.4921875
 40
0.49609375
 40
0.49609375
 40
0.5
 40
0.5
 40
0.53125
 40
0.53125
 40
0.546875
 40
0.546875
 40
0.5546875
 40
0.5546875
 40
0.55859375
 40
0.55859375
 40
0.560546875
 40
0.560546875
 40
0.5625
 40
0.5625
 40
0.59375
 40
0.59375
 40
0.609375
 40
0.609375
 40
0.6171875
 40
0.6171875
 40
0.62109375
 40
0.62109375
 40
0.623046875
 40
0.623046875
 40
0.625
 40
0.625
 40
0.65625
 40
0.65625
 40
0.671875
 40
0.671875
 40
0.6796875
 40
0.6796875
 40
0.68359375
 40
0.68359375
 40
0.685546875
 40
0.685546875
 40
0.6865234375
 40
0.6865234375
 40
0.6875
 40
0.6875
 40
0.6976227210619462
 40
0.6976227210619462
 40
0.6976227210619462
 40
0.6976227210619462
 10
258.162944945748
 20
277.559623165081
 30
0.0
 10
258.1003910578404
 20
277.567041464091
 30
0.0
 10
258.0378332816539
 20
277.574650721271
 30
0.0
 10
257.852811530992
 20
277.5977193130662
 30
0.0
 10
257.7286863534787
 20
277.6139447627632
 30
0.0
 10
256.6411291517453
 20
277.7625013780754
 30
0.0
 10
255.6809104444652
 20
277.9388032760303
 30
0.0
 10
254.2503305916027
 20
278.2696334828121
 30
0.0
 10
253.7750953419915
 20
278.3909731117142
 30
0.0
 10
253.0646795195891
 20
278.5895768950297
 30
0.0
 10
252.8282804207907
 20
278.6585438794621
 30
0.0
 10
252.4742910355967
 20
278.766142941101
 30
0.0
 10
252.3563961176993
 20
278.8027007258124
 30
0.0
 10
252.1208093695723
 20
278.8771991568988
 30
0.0
 10
252.0010298651633
 20
278.9158256693648
 30
0.0
 10
250.9615063552183
 20
279.2573415694051
 30
0.0
 10
250.0520451029192
 20
279.6016956340098
 30
0.0
 10
248.7096926926151
 20
280.179403294437
 30
0.0
 10
248.2658818005378
 20
280.3821686084994
 30
0.0
 10
247.605625329458
 20
280.701610720473
 30
0.0
 10
247.3864498169374
 20
280.8106404479443
 30
0.0
 10
247.0590515149156
 20
280.9780085743711
 30
0.0
 10
246.9501462420348
 20
281.0344352057167
 30
0.0
 10
246.732790685193
 20
281.1485629801479
 30
0.0
 10
246.6226998515043
 20
281.2071484752721
 30
0.0
 10
245.6634596935415
 20
281.7242348975254
 30
0.0
 10
244.8275001961624
 20
282.2220474916468
 30
0.0
 10
243.5986085813088
 20
283.0260367110066
 30
0.0
 10
243.1931526482267
 20
283.3035781721561
 30
0.0
 10
242.5912306564074
 20
283.7342079459248
 30
0.0
 10
242.3916336437682
 20
283.8801374675218
 30
0.0
 10
242.0938036017604
 20
284.1026111454283
 30
0.0
 10
241.9947878339163
 20
284.1773656039824
 30
0.0
 10
241.8466555513879
 20
284.2903921406913
 30
0.0
 10
241.7973433520847
 20
284.3282167944071
 30
0.0
 10
241.6988494098909
 20
284.4041643847982
 30
0.0
 10
241.6480528819062
 20
284.4435455781254
 30
0.0
 10
240.8405234788728
 20
285.0727805436727
 30
0.0
 10
240.1014715618321
 20
285.6965525715486
 30
0.0
 10
239.0243573208751
 20
286.6795369391095
 30
0.0
 10
238.6705631796567
 20
287.0150861159211
 30
0.0
 10
238.14773787648
 20
287.5302414625752
 30
0.0
 10
237.9747737601963
 20
287.7039318416993
 30
0.0
 10
237.7172940629335
 20
287.9674253057447
 30
0.0
 10
237.631795243373
 20
288.0557494429864
 30
0.0
 10
237.5040386333229
 20
288.1889751226887
 30
0.0
 10
237.461535033188
 20
288.2335069282295
 30
0.0
 10
237.3766917060151
 20
288.3228170305909
 30
0.0
 10
237.333444648315
 20
288.3685594229258
 30
0.0
 10
236.630486831249
 20
289.1154960210147
 30
0.0
 10
235.9925470759231
 20
289.8452863983193
 30
0.0
 10
235.0711388458034
 20
290.9801588035195
 30
0.0
 10
234.769919669575
 20
291.3651474117934
 30
0.0
 10
234.3269662559496
 20
291.952677034015
 30
0.0
 10
234.1807943431941
 20
292.1501946930575
 30
0.0
 10
233.96375531174
 20
292.4489828590737
 30
0.0
 10
233.8917787742019
 20
292.5489975273213
 30
0.0
 10
233.7843686773145
 20
292.6996474490558
 30
0.0
 10
233.7486577632554
 20
292.7499687428611
 30
0.0
 10
233.6952300695216
 20
292.8256076634099
 30
0.0
 10
233.6774439511695
 20
292.850846800233
 30
0.0
 10
233.6419179402503
 20
292.9013774004928
 30
0.0
 10
233.6234898406156
 20
292.9276523253698
 30
0.0
 10
233.4299487656501
 20
293.2042263295343
 30
0.0
 10
233.2559487069483
 20
293.4588050406996
 30
0.0
 10
233.0844610919031
 20
293.7157226241689
 30
0.0
  0
SPLINE
  5
30D
330
1F
100
AcDbEntity
  8
0
  6
Continuous
 62
     7
370
    15
100
AcDbSpline
210
0.0
220
0.0
230
1.0
 70
     8
 71
     3
 72
    30
 73
    26
 74
     0
 42
0.000000001
 43
0.00000001
 40
0.2518650364928033
 40
0.2518650364928033
 40
0.2518650364928033
 40
0.2518650364928033
 40
0.2656249999999944
 40
0.2656249999999944
 40
0.2812499999999946
 40
0.2812499999999946
 40
0.3124999999999948
 40
0.3124999999999948
 40
0.343749999999995
 40
0.343749999999995
 40
0.3593749999999951
 40
0.3593749999999951
 40
0.3749999999999953
 40
0.3749999999999953
 40
0.4062499999999954
 40
0.4062499999999954
 40
0.4374999999999956
 40
0.4374999999999956
 40
0.4531249999999957
 40
0.4531249999999957
 40
0.4687499999999958
 40
0.4687499999999958
 40
0.4999999999999962
 40
0.4999999999999962
 40
0.5280004067635662
 40
0.5280004067635662
 40
0.5280004067635662
 40
0.5280004067635662
 10
288.540313598606
 20
290.994055977467
 30
0.0
 10
288.1844893305557
 20
290.5444699168598
 30
0.0
 10
287.8183207702111
 20
290.101405823101
 30
0.0
 10
287.0141490389681
 20
289.1703714798519
 30
0.0
 10
286.5719654748806
 20
288.6832028372494
 30
0.0
 10
285.2132850855965
 20
287.2600563197789
 30
0.0
 10
284.2655760993418
 20
286.3625352533256
 30
0.0
 10
282.2836810103173
 20
284.671889532709
 30
0.0
 10
281.2491628346482
 20
283.8784880559597
 30
0.0
 10
279.6283393705967
 20
282.7722712887761
 30
0.0
 10
279.0763111955159
 20
282.4174031847664
 30
0.0
 10
277.9480158767492
 20
281.737133261139
 30
0.0
 10
277.3720328242813
 20
281.4120637708814
 30
0.0
 10
275.6266668915003
 20
280.493766687112
 30
0.0
 10
274.4348337774237
 20
279.954398063148
 30
0.0
 10
271.9958392589024
 20
279.0196550792138
 30
0.0
 10
270.7479753812376
 20
278.6239238000053
 30
0.0
 10
268.8329232064878
 20
278.1427015783821
 30
0.0
 10
268.1849158478249
 20
278.000674390684
 30
0.0
 10
266.8877892995363
 20
277.7582407737482
 30
0.0
 10
266.238764457509
 20
277.6576466039405
 30
0.0
 10
264.2888944014933
 20
277.4171471275264
 30
0.0
 10
262.9854634421456
 20
277.3383436173395
 30
0.0
 10
260.5084297402681
 20
277.3483819381057
 30
0.0
 10
259.3362422245991
 20
277.4204863590315
 30
0.0
 10
258.162945547496
 20
277.5596282392461
 30
0.0
  0
LINE
  5
30E
330
1F
100
AcDbEntity
  8
0
  6
Continuous
 62
     7
370
    15
100
AcDbLine
 10
288.5403135986
 20
290.9940559775
 30
0.0
 11
289.0639123742
 21
291.1012220032
 31
0.0
  0
SPLINE
  5
30F
330
1F
100
AcDbEntity
  8
0
  6
Continuous
 62
     7
370
    15
100
AcDbSpline
210
0.0
220
0.0
230
1.0
 70
     8
 71
     3
 72
    16
 73
    12
 74
     0
 42
0.000000001
 43
0.00000001
 40
0.0
 40
0.0
 40
0.0
 40
0.0
 40
0.0078905468385886
 40
0.0078905468385886
 40
0.0118358202578828
 40
0.0118358202578828
 40
0.0157810936771771
 40
0.0157810936771771
 40
0.0236716405157657
 40
0.0236716405157657
 40
0.0315621873543542
 40
0.0315621873543542
 40
0.0315621873543542
 40
0.0315621873543542
 10
299.7416047364126
 20
320.2458516557958
 30
0.0
 10
299.7416047364126
 20
317.5762886333324
 30
0.0
 10
299.5091221714015
 20
314.9470789554783
 30
0.0
 10
298.8305911672534
 20
311.0605909920301
 30
0.0
 10
298.5490705525055
 20
309.7747100990668
 30
0.0
 10
297.8714206179029
 20
307.2228597989205
 30
0.0
 10
297.4749116707225
 20
305.9557017057193
 30
0.0
 10
296.1085944976822
 20
302.1926498547226
 30
0.0
 10
294.9883740032259
 20
299.806015263975
 30
0.0
 10
292.3416211395978
 20
295.2696647937
 30
0.0
 10
290.8147842178412
 20
293.1201042822592
 30
0.0
 10
289.0639123742043
 20
291.101222003179
 30
0.0
  0
DIMENSION
  5
310
330
1F
100
AcDbEntity
  8
DESSIN
 62
     7
100
AcDbDimension
  2
_D_3
 10
328.8021129864
 20
559.3433879507
 30
0.0
 11
213.8021129864
 21
559.3433879507
 31
0.0
 70
   160
  1
(<>)
 71
     2
 42
-1.0
  3
SLDDIMSTYLE0
100
AcDbAlignedDimension
 13
98.8021129864
 23
492.3433879507
 33
0.0
 14
328.8021129864
 24
492.3433879507
 34
0.0
100
AcDbRotatedDimension
  0
DIMENSION
  5
31C
330
1F
100
AcDbEntity
  8
DESSIN
 62
     7
100
AcDbDimension
  2
_D_4
 10
40.8021129864
 20
248.4584323586
 30
0.0
 11
40.8021129864
 21
377.9009101546
 31
0.0
 70
   160
  1
(<>)
 71
     2
 42
-1.0
  3
SLDDIMSTYLE0
100
AcDbAlignedDimension
 13
113.8021129864
 23
507.3433879507
 33
0.0
 14
208.8021129864
 24
248.4584323586
 34
0.0
 50
90.0
100
AcDbRotatedDimension
  0
INSERT
  5
333
330
1F
100
AcDbEntity
  8
DESSIN
 62
     7
100
AcDbBlockReference
  2
SW_CENTERMARKSYMBOL_0
 10
157.8021129864
 20
487.4433879507
 30
0.0
  0
INSERT
  5
33F
330
1F
100
AcDbEntity
  8
DESSIN
 62
     7
100
AcDbBlockReference
  2
SW_CENTERMARKSYMBOL_1
 10
269.8021129864
 20
487.4433879507
 30
0.0
  0
INSERT
  5
34B
330
1F
100
AcDbEntity
  8
DESSIN
 62
     7
100
AcDbBlockReference
  2
SW_CENTERMARKSYMBOL_2
 10
225.916677203
 20
431.9959623086
 30
0.0
  0
INSERT
  5
357
330
1F
100
AcDbEntity
  8
DESSIN
 62
     7
100
AcDbBlockReference
  2
SW_CENTERMARKSYMBOL_3
 10
225.916677203
 20
286.9959623086
 30
0.0
  0
INSERT
  5
363
330
1F
100
AcDbEntity
  8
DESSIN
 62
     7
100
AcDbBlockReference
  2
SW_CENTERMARKSYMBOL_4
 10
150.916677203
 20
421.9959623086
 30
0.0
  0
INSERT
  5
36F
330
1F
100
AcDbEntity
  8
DESSIN
 62
     7
100
AcDbBlockReference
  2
SW_CENTERMARKSYMBOL_5
 10
150.916677203
 20
286.9959623086
 30
0.0
  0
INSERT
  5
37B
330
1F
100
AcDbEntity
  8
DESSIN
 62
     7
100
AcDbBlockReference
  2
SW_CENTERMARKSYMBOL_6
 10
213.8021129864
 20
258.4584323586
 30
0.0
  0
INSERT
  5
387
330
1F
100
AcDbEntity
  8
DESSIN
 62
     7
100
AcDbBlockReference
  2
SW_CENTERMARKSYMBOL_7
 10
300.4624311245
 20
431.9959623086
 30
0.0
  0
INSERT
  5
393
330
1F
100
AcDbEntity
  8
DESSIN
 62
     7
100
AcDbBlockReference
  2
SW_CENTERMARKSYMBOL_8
 10
300.4624311245
 20
286.9959623086
 30
0.0
  0
LINE
  5
394
330
1F
100
AcDbEntity
  8
0
  6
Continuous
 62
     7
370
    15
100
AcDbLine
 10
113.8021129864
 20
186.7056865169
 30
0.0
 11
113.8021129864
 21
184.7056865169
 31
0.0
  0
LINE
  5
395
330
1F
100
AcDbEntity
  8
0
  6
Continuous
 62
     7
370
    15
100
AcDbLine
 10
113.8021129864
 20
184.7056865169
 30
0.0
 11
98.8021129864
 21
184.7056865169
 31
0.0
  0
LINE
  5
396
330
1F
100
AcDbEntity
  8
0
  6
Continuous
 62
     7
370
    15
100
AcDbLine
 10
98.8021129864
 20
184.7056865169
 30
0.0
 11
98.8021129864
 21
186.7056865169
 31
0.0
  0
LINE
  5
397
330
1F
100
AcDbEntity
  8
0
  6
Continuous
 62
     7
370
    15
100
AcDbLine
 10
98.8021129864
 20
186.7056865169
 30
0.0
 11
113.8021129864
 21
186.7056865169
 31
0.0
  0
LINE
  5
398
330
1F
100
AcDbEntity
  8
0
  6
Continuous
 62
     7
370
    15
100
AcDbLine
 10
313.8021129864
 20
184.7056865169
 30
0.0
 11
313.8021129864
 21
186.7056865169
 31
0.0
  0
LINE
  5
399
330
1F
100
AcDbEntity
  8
0
  6
Continuous
 62
     7
370
    15
100
AcDbLine
 10
313.8021129864
 20
184.7056865169
 30
0.0
 11
113.8021129864
 21
184.7056865169
 31
0.0
  0
LINE
  5
39A
330
1F
100
AcDbEntity
  8
0
  6
Continuous
 62
     7
370
    15
100
AcDbLine
 10
313.8021129864
 20
186.7056865169
 30
0.0
 11
113.8021129864
 21
186.7056865169
 31
0.0
  0
LINE
  5
39B
330
1F
100
AcDbEntity
  8
0
  6
Continuous
 62
     7
370
    15
100
AcDbLine
 10
328.8021129864
 20
186.7056865169
 30
0.0
 11
328.8021129864
 21
184.7056865169
 31
0.0
  0
LINE
  5
39C
330
1F
100
AcDbEntity
  8
0
  6
Continuous
 62
     7
370
    15
100
AcDbLine
 10
328.8021129864
 20
184.7056865169
 30
0.0
 11
313.8021129864
 21
184.7056865169
 31
0.0
  0
LINE
  5
39D
330
1F
100
AcDbEntity
  8
0
  6
Continuous
 62
     7
370
    15
100
AcDbLine
 10
313.8021129864
 20
186.7056865169
 30
0.0
 11
328.8021129864
 21
186.7056865169
 31
0.0
  0
DIMENSION
  5
39E
330
1F
100
AcDbEntity
  8
DESSIN
 62
     7
100
AcDbDimension
  2
_D_5
 10
76.8021129864
 20
184.7056865169
 30
0.0
 11
76.8021129864
 21
220.7107115169
 31
0.0
 70
   160
  1
Ep. <>
 71
     2
 42
-1.0
  3
SLDDIMSTYLE2
100
AcDbAlignedDimension
 13
98.8021129864
 23
186.7056865169
 33
0.0
 14
98.8021129864
 24
184.7056865169
 34
0.0
 50
90.0
100
AcDbRotatedDimension
  0
LINE
  5
3AC
330
1F
100
AcDbEntity
  8
0
  6
Continuous
 62
     7
370
    15
100
AcDbLine
 10
467.0012152258
 20
163.2332597305
 30
0.0
 11
467.8464517493
 21
165.0458753046
 31
0.0
  0
LINE
  5
3AD
330
1F
100
AcDbEntity
  8
0
  6
Continuous
 62
     7
370
    15
100
AcDbLine
 10
467.8464517493
 20
165.0458753046
 30
0.0
 11
481.4410685549
 21
158.7066013785
 31
0.0
  0
LINE
  5
3AE
330
1F
100
AcDbEntity
  8
0
  6
Continuous
 62
     7
370
    15
100
AcDbLine
 10
481.4410685549
 20
158.7066013785
 30
0.0
 11
480.5958320314
 21
156.8939858044
 31
0.0
  0
LINE
  5
3AF
330
1F
100
AcDbEntity
  8
0
  6
Continuous
 62
     7
370
    15
100
AcDbLine
 10
480.5958320314
 20
156.8939858044
 30
0.0
 11
467.0012152258
 21
163.2332597305
 31
0.0
  0
LINE
  5
3B0
330
1F
100
AcDbEntity
  8
0
  6
Continuous
 62
     7
370
    15
100
AcDbLine
 10
676.7726013117
 20
156.8939858044
 30
0.0
 11
675.9273647882
 21
158.7066013785
 31
0.0
  0
LINE
  5
3B1
330
1F
100
AcDbEntity
  8
0
  6
Continuous
 62
     7
370
    15
100
AcDbLine
 10
689.5219815937
 20
165.0458753046
 30
0.0
 11
690.3672181172
 21
163.2332597305
 31
0.0
  0
LINE
  5
3B2
330
1F
100
AcDbEntity
  8
0
  6
Continuous
 62
     7
370
    15
100
AcDbLine
 10
675.9273647882
 20
158.7066013785
 30
0.0
 11
689.5219815937
 21
165.0458753046
 31
0.0
  0
LINE
  5
3B3
330
1F
100
AcDbEntity
  8
0
  6
Continuous
 62
     7
370
    15
100
AcDbLine
 10
690.3672181172
 20
163.2332597305
 30
0.0
 11
676.7726013117
 21
156.8939858044
 31
0.0
  0
LINE
  5
3B4
330
1F
100
AcDbEntity
  8
0
  6
Continuous
 62
     7
370
    15
100
AcDbLine
 10
654.3521774595
 20
146.4391704631
 30
0.0
 11
653.5069409361
 21
148.2517860371
 31
0.0
  0
LINE
  5
3B5
330
1F
100
AcDbEntity
  8
0
  6
Continuous
 62
     7
370
    15
100
AcDbLine
 10
653.5069409361
 20
148.2517860371
 30
0.0
 11
675.9273647882
 21
158.7066013785
 31
0.0
  0
LINE
  5
3B6
330
1F
100
AcDbEntity
  8
0
  6
Continuous
 62
     7
370
    15
100
AcDbLine
 10
654.3521774595
 20
146.4391704631
 30
0.0
 11
676.7726013117
 21
156.8939858044
 31
0.0
  0
LINE
  5
3B7
330
1F
100
AcDbEntity
  8
0
  6
Continuous
 62
     7
370
    15
100
AcDbLine
 10
503.0162558835
 20
146.4391704631
 30
0.0
 11
503.861492407
 21
148.2517860371
 31
0.0
  0
LINE
  5
3B8
330
1F
100
AcDbEntity
  8
0
  6
Continuous
 62
     7
370
    15
100
AcDbLine
 10
480.5958320314
 20
156.8939858044
 30
0.0
 11
503.0162558835
 21
146.4391704631
 31
0.0
  0
LINE
  5
3B9
330
1F
100
AcDbEntity
  8
0
  6
Continuous
 62
     7
370
    15
100
AcDbLine
 10
481.4410685549
 20
158.7066013785
 30
0.0
 11
503.861492407
 21
148.2517860371
 31
0.0
  0
LINE
  5
3BA
330
1F
100
AcDbEntity
  8
0
  6
Continuous
 62
     7
370
    15
100
AcDbLine
 10
653.4224172837
 20
146.2330475945
 30
0.0
 11
653.4224172837
 21
148.2330475945
 31
0.0
  0
LINE
  5
3BB
330
1F
100
AcDbEntity
  8
0
  6
Continuous
 62
     7
370
    15
100
AcDbLine
 10
503.9460160593
 20
146.2330475945
 30
0.0
 11
503.9460160593
 21
148.2330475945
 31
0.0
  0
LINE
  5
3BC
330
1F
100
AcDbEntity
  8
0
  6
Continuous
 62
     7
370
    15
100
AcDbLine
 10
503.9460160593
 20
146.2330475945
 30
0.0
 11
653.4224172837
 21
146.2330475945
 31
0.0
  0
LINE
  5
3BD
330
1F
100
AcDbEntity
  8
0
  6
Continuous
 62
     7
370
    15
100
AcDbLine
 10
503.9460160593
 20
148.2330475945
 30
0.0
 11
653.4224172837
 21
148.2330475945
 31
0.0
  0
ARC
  5
3BE
330
1F
100
AcDbEntity
  8
0
  6
Continuous
 62
     7
370
    15
100
AcDbCircle
 10
653.4224172837
 20
148.4330475945
 30
0.0
 40
2.200000000000017
100
AcDbArc
 50
270.0
 51
295.0
  0
ARC
  5
3BF
330
1F
100
AcDbEntity
  8
0
  6
Continuous
 62
     7
370
    15
100
AcDbCircle
 10
653.4224172837
 20
148.4330475945
 30
0.0
 40
0.2000000000000171
100
AcDbArc
 50
270.0
 51
295.0
  0
ARC
  5
3C0
330
1F
100
AcDbEntity
  8
0
  6
Continuous
 62
     7
370
    15
100
AcDbCircle
 10
503.9460160593
 20
148.4330475945
 30
0.0
 40
2.200000000000017
100
AcDbArc
 50
245.0
 51
270.0
  0
ARC
  5
3C1
330
1F
100
AcDbEntity
  8
0
  6
Continuous
 62
     7
370
    15
100
AcDbCircle
 10
503.9460160593
 20
148.4330475945
 30
0.0
 40
0.2000000000000171
100
AcDbArc
 50
245.0
 51
270.0
  0
LINE
  5
3C2
330
1F
100
AcDbEntity
  8
0
  6
Continuous
 62
     7
370
    15
100
AcDbLine
 10
588.6842166715
 20
148.4330475945
 30
0.0
 11
568.6842166715
 21
148.4330475945
 31
0.0
  0
LINE
  5
3C3
330
1F
100
AcDbEntity
  8
0
  6
Continuous
 62
     7
370
    15
100
AcDbLine
 10
588.6842166715
 20
148.2330475945
 30
0.0
 11
588.6842166715
 21
148.4330475945
 31
0.0
  0
LINE
  5
3C4
330
1F
100
AcDbEntity
  8
0
  6
Continuous
 62
     7
370
    15
100
AcDbLine
 10
568.6842166715
 20
148.4330475945
 30
0.0
 11
568.6842166715
 21
148.2330475945
 31
0.0
  0
LINE
  5
3C5
330
1F
100
AcDbEntity
  8
0
  6
Continuous
 62
     7
370
    15
100
AcDbLine
 10
588.6842166715
 20
161.2330475945
 30
0.0
 11
583.6842166715
 21
166.2330475945
 31
0.0
  0
LINE
  5
3C6
330
1F
100
AcDbEntity
  8
0
  6
Continuous
 62
     7
370
    15
100
AcDbLine
 10
588.6842166715
 20
161.2330475945
 30
0.0
 11
588.6842166715
 21
148.4330475945
 31
0.0
  0
LINE
  5
3C7
330
1F
100
AcDbEntity
  8
0
  6
Continuous
 62
     7
370
    15
100
AcDbLine
 10
568.6842166715
 20
148.4330475945
 30
0.0
 11
568.6842166715
 21
161.2330475945
 31
0.0
  0
LINE
  5
3C8
330
1F
100
AcDbEntity
  8
0
  6
Continuous
 62
     7
370
    15
100
AcDbLine
 10
573.6842166715
 20
166.2330475945
 30
0.0
 11
568.6842166715
 21
161.2330475945
 31
0.0
  0
LINE
  5
3C9
330
1F
100
AcDbEntity
  8
0
  6
Continuous
 62
     7
370
    15
100
AcDbLine
 10
573.6842166715
 20
166.2330475945
 30
0.0
 11
583.6842166715
 21
166.2330475945
 31
0.0
  0
CIRCLE
  5
3CA
330
1F
100
AcDbEntity
  8
0
  6
Continuous
 62
     7
370
    15
100
AcDbCircle
 10
578.6842166715
 20
156.2330475945
 30
0.0
 40
5.499999999999996
  0
CIRCLE
  5
3CB
330
1F
100
AcDbEntity
  8
0
  6
Continuous
 62
     7
370
    15
100
AcDbCircle
 10
578.6842166715
 20
156.2330475945
 30
0.0
 40
5.000000000000005
  0
CIRCLE
  5
3CC
330
1F
100
AcDbEntity
  8
0
  6
Continuous
 62
     7
370
    15
100
AcDbCircle
 10
578.6842166715
 20
156.2330475945
 30
0.0
 40
3.999999999999999
  0
CIRCLE
  5
3CD
330
1F
100
AcDbEntity
  8
0
  6
Continuous
 62
     7
370
    15
100
AcDbCircle
 10
578.6842166715
 20
156.2330475945
 30
0.0
 40
5.999999999999984
  0
LINE
  5
3CE
330
1F
100
AcDbEntity
  8
DESSIN
 62
     7
370
     0
100
AcDbLine
 10
503.0162558835
 20
146.4391704631
 30
0.0
 11
503.4582878015
 21
146.2330475945
 31
0.0
  0
LINE
  5
3CF
330
1F
100
AcDbEntity
  8
DESSIN
 62
     7
370
     0
100
AcDbLine
 10
503.4582878015
 20
146.2330475945
 30
0.0
 11
503.9460160593
 21
146.2330475945
 31
0.0
  0
LINE
  5
3D0
330
1F
100
AcDbEntity
  8
DESSIN
 62
     7
370
     0
100
AcDbLine
 10
653.4224172837
 20
146.2330475945
 30
0.0
 11
653.9101455415
 21
146.2330475945
 31
0.0
  0
LINE
  5
3D1
330
1F
100
AcDbEntity
  8
DESSIN
 62
     7
370
     0
100
AcDbLine
 10
653.9101455415
 20
146.2330475945
 30
0.0
 11
654.3521774595
 21
146.4391704631
 31
0.0
  0
DIMENSION
  5
3D2
330
1F
100
AcDbEntity
  8
DESSIN
 62
     7
100
AcDbDimension
  2
_D_6
 10
653.9101455415
 20
109.8039569684
 30
0.0
 11
578.6842166715
 21
109.8039569684
 31
0.0
 70
   160
  1
<>
 71
     2
 42
-1.0
  3
SLDDIMSTYLE0
100
AcDbAlignedDimension
 13
503.4582878015
 23
146.2330475945
 33
0.0
 14
653.9101455415
 24
146.2330475945
 34
0.0
100
AcDbRotatedDimension
  0
DIMENSION
  5
3DC
330
1F
100
AcDbEntity
  8
DESSIN
 62
     7
100
AcDbDimension
  2
_D_7
 10
489.3285117561
 20
115.93164508
 30
0.0
 11
471.0999754683
 21
124.4317511479
 31
0.0
 70
   160
  1
<>
 71
     2
 42
-1.0
  3
SLDDIMSTYLE0
100
AcDbAlignedDimension
 13
467.0012152258
 23
163.2332597305
 33
0.0
 14
503.4582878015
 24
146.2330475945
 34
0.0
 50
-25.0
100
AcDbRotatedDimension
  0
DIMENSION
  5
3E6
330
1F
100
AcDbEntity
  8
DESSIN
 62
     7
100
AcDbDimension
  2
_D_8
 10
707.0151200859
 20
127.5317187466
 30
0.0
 11
688.7865837981
 21
119.0316126786
 31
0.0
 70
   160
  1
<>
 71
     2
 42
-1.0
  3
SLDDIMSTYLE0
100
AcDbAlignedDimension
 13
653.9101455415
 23
146.2330475945
 33
0.0
 14
690.3672181172
 24
163.2332597305
 34
0.0
 50
25.0
100
AcDbRotatedDimension
  0
DIMENSION
  5
3F0
330
1F
100
AcDbEntity
  8
DESSIN
 62
     7
100
AcDbDimension
  2
_D_9
 10
503.861492407
 20
148.2517860371
 30
0.0
 11
438.9041053336
 21
162.6426623458
 31
0.0
 70
   162
  1
<>
 71
     1
 42
-1.0
  3
SLDDIMSTYLE3
100
AcDb2LineAngularDimension
 13
503.9460160593
 23
148.2330475945
 33
0.0
 14
653.4224172837
 24
148.2330475945
 34
0.0
 15
481.4410685549
 25
158.7066013785
 35
0.0
 16
438.9041053336
 26
162.6426623458
 36
0.0
  0
DIMENSION
  5
3FB
330
1F
100
AcDbEntity
  8
DESSIN
 62
     7
100
AcDbDimension
  2
_D_10
 10
653.5069409361
 20
148.2517860371
 30
0.0
 11
729.3160774322
 21
165.0484372732
 31
0.0
 70
   162
  1
<>
 71
     1
 42
-1.0
  3
SLDDIMSTYLE3
100
AcDb2LineAngularDimension
 13
653.4224172837
 23
148.2330475945
 33
0.0
 14
503.9460160593
 24
148.2330475945
 34
0.0
 15
675.9273647882
 25
158.7066013785
 35
0.0
 16
729.3160774322
 26
165.0484372732
 36
0.0
  0
DIMENSION
  5
405
330
1F
100
AcDbEntity
  8
DESSIN
 62
     7
100
AcDbDimension
  2
_D_11
 10
607.956839103
 20
146.2330475945
 30
0.0
 11
607.956839103
 21
188.2330475945
 31
0.0
 70
   160
  1
(<>)
 71
     2
 42
-1.0
  3
SLDDIMSTYLE2
100
AcDbAlignedDimension
 13
583.6842166715
 23
166.2330475945
 33
0.0
 14
653.4224172837
 24
146.2330475945
 34
0.0
 50
90.0
100
AcDbRotatedDimension
  0
INSERT
  5
41D
330
1F
100
AcDbEntity
  8
DESSIN
 62
     7
100
AcDbBlockReference
  2
SW_CENTERMARKSYMBOL_9
 10
578.6842166715
 20
156.2330475945
 30
0.0
  0
LINE
  5
41E
330
1F
100
AcDbEntity
  8
0
  6
Continuous
 62
     7
370
    15
100
AcDbLine
 10
763.8495886585
 20
237.3817911149
 30
0.0
 11
763.8495886585
 21
237.9817911149
 31
0.0
  0
LINE
  5
41F
330
1F
100
AcDbEntity
  8
0
  6
Continuous
 62
     7
370
    15
100
AcDbLine
 10
775.8495886585
 20
237.9817911149
 30
0.0
 11
775.8495886585
 21
237.3817911149
 31
0.0
  0
LINE
  5
420
330
1F
100
AcDbEntity
  8
0
  6
Continuous
 62
     7
370
    15
100
AcDbLine
 10
763.8495886585
 20
234.7817911149
 30
0.0
 11
763.8495886585
 21
235.3817911149
 31
0.0
  0
LINE
  5
421
330
1F
100
AcDbEntity
  8
0
  6
Continuous
 62
     7
370
    15
100
AcDbLine
 10
775.8495886585
 20
235.3817911149
 30
0.0
 11
775.8495886585
 21
234.7817911149
 31
0.0
  0
LINE
  5
422
330
1F
100
AcDbEntity
  8
0
  6
Continuous
 62
     7
370
    15
100
AcDbLine
 10
764.3495886585
 20
235.3817911149
 30
0.0
 11
764.3495886585
 21
237.3817911149
 31
0.0
  0
LINE
  5
423
330
1F
100
AcDbEntity
  8
0
  6
Continuous
 62
     7
370
    15
100
AcDbLine
 10
775.3495886585
 20
237.3817911149
 30
0.0
 11
775.3495886585
 21
235.3817911149
 31
0.0
  0
LINE
  5
424
330
1F
100
AcDbEntity
  8
0
  6
Continuous
 62
     7
370
    15
100
AcDbLine
 10
764.3495886585
 20
237.9817911149
 30
0.0
 11
764.3495886585
 21
246.3817911149
 31
0.0
  0
LINE
  5
425
330
1F
100
AcDbEntity
  8
0
  6
Continuous
 62
     7
370
    15
100
AcDbLine
 10
775.3495886585
 20
246.3817911149
 30
0.0
 11
775.3495886585
 21
237.9817911149
 31
0.0
  0
LINE
  5
426
330
1F
100
AcDbEntity
  8
0
  6
Continuous
 62
     7
370
    15
100
AcDbLine
 10
764.8495886585
 20
246.8817911149
 30
0.0
 11
764.3495886585
 21
246.3817911149
 31
0.0
  0
LINE
  5
427
330
1F
100
AcDbEntity
  8
0
  6
Continuous
 62
     7
370
    15
100
AcDbLine
 10
775.3495886585
 20
246.3817911149
 30
0.0
 11
774.8495886585
 21
246.8817911149
 31
0.0
  0
LINE
  5
428
330
1F
100
AcDbEntity
  8
0
  6
Continuous
 62
     7
370
    15
100
AcDbLine
 10
765.3495886585
 20
234.7817911149
 30
0.0
 11
765.8495886585
 21
235.2817911149
 31
0.0
  0
LINE
  5
429
330
1F
100
AcDbEntity
  8
0
  6
Continuous
 62
     7
370
    15
100
AcDbLine
 10
765.8495886585
 20
235.2817911149
 30
0.0
 11
773.8495886585
 21
235.2817911149
 31
0.0
  0
LINE
  5
42A
330
1F
100
AcDbEntity
  8
0
  6
Continuous
 62
     7
370
    15
100
AcDbLine
 10
773.8495886585
 20
235.2817911149
 30
0.0
 11
774.3495886585
 21
234.7817911149
 31
0.0
  0
LINE
  5
42B
330
1F
100
AcDbEntity
  8
0
  6
Continuous
 62
     7
370
    15
100
AcDbLine
 10
774.3495886585
 20
234.7817911149
 30
0.0
 11
765.3495886585
 21
234.7817911149
 31
0.0
  0
LINE
  5
42C
330
1F
100
AcDbEntity
  8
0
  6
Continuous
 62
     7
370
    15
100
AcDbLine
 10
765.8495886585
 20
246.8817911149
 30
0.0
 11
765.8495886585
 21
235.2817911149
 31
0.0
  0
LINE
  5
42D
330
1F
100
AcDbEntity
  8
0
  6
Continuous
 62
     7
370
    15
100
AcDbLine
 10
773.8495886585
 20
235.2817911149
 30
0.0
 11
773.8495886585
 21
246.8817911149
 31
0.0
  0
LINE
  5
42E
330
1F
100
AcDbEntity
  8
0
  6
Continuous
 62
     7
370
    15
100
AcDbLine
 10
765.8495886585
 20
246.8817911149
 30
0.0
 11
773.8495886585
 21
246.8817911149
 31
0.0
  0
LINE
  5
42F
330
1F
100
AcDbEntity
  8
0
  6
Continuous
 62
     7
370
    15
100
AcDbLine
 10
764.8495886585
 20
246.8817911149
 30
0.0
 11
765.8495886585
 21
246.8817911149
 31
0.0
  0
LINE
  5
430
330
1F
100
AcDbEntity
  8
0
  6
Continuous
 62
     7
370
    15
100
AcDbLine
 10
763.8495886585
 20
237.9817911149
 30
0.0
 11
764.3495886585
 21
237.9817911149
 31
0.0
  0
LINE
  5
431
330
1F
100
AcDbEntity
  8
0
  6
Continuous
 62
     7
370
    15
100
AcDbLine
 10
763.8495886585
 20
235.3817911149
 30
0.0
 11
764.3495886585
 21
235.3817911149
 31
0.0
  0
LINE
  5
432
330
1F
100
AcDbEntity
  8
0
  6
Continuous
 62
     7
370
    15
100
AcDbLine
 10
765.3495886585
 20
234.7817911149
 30
0.0
 11
763.8495886585
 21
234.7817911149
 31
0.0
  0
LINE
  5
433
330
1F
100
AcDbEntity
  8
0
  6
Continuous
 62
     7
370
    15
100
AcDbLine
 10
764.3495886585
 20
237.3817911149
 30
0.0
 11
763.8495886585
 21
237.3817911149
 31
0.0
  0
LINE
  5
434
330
1F
100
AcDbEntity
  8
0
  6
Continuous
 62
     7
370
    15
100
AcDbLine
 10
773.8495886585
 20
246.8817911149
 30
0.0
 11
774.8495886585
 21
246.8817911149
 31
0.0
  0
LINE
  5
435
330
1F
100
AcDbEntity
  8
0
  6
Continuous
 62
     7
370
    15
100
AcDbLine
 10
775.3495886585
 20
237.9817911149
 30
0.0
 11
775.8495886585
 21
237.9817911149
 31
0.0
  0
LINE
  5
436
330
1F
100
AcDbEntity
  8
0
  6
Continuous
 62
     7
370
    15
100
AcDbLine
 10
775.3495886585
 20
235.3817911149
 30
0.0
 11
775.8495886585
 21
235.3817911149
 31
0.0
  0
LINE
  5
437
330
1F
100
AcDbEntity
  8
0
  6
Continuous
 62
     7
370
    15
100
AcDbLine
 10
775.8495886585
 20
234.7817911149
 30
0.0
 11
774.3495886585
 21
234.7817911149
 31
0.0
  0
LINE
  5
438
330
1F
100
AcDbEntity
  8
0
  6
Continuous
 62
     7
370
    15
100
AcDbLine
 10
775.8495886585
 20
237.3817911149
 30
0.0
 11
775.3495886585
 21
237.3817911149
 31
0.0
  0
LINE
  5
439
330
1F
100
AcDbEntity
  8
0
  6
Continuous
 62
     7
370
    15
100
AcDbLine
 10
759.8495886585
 20
235.3817911149
 30
0.0
 11
759.8495886585
 21
237.3817911149
 31
0.0
  0
LINE
  5
43A
330
1F
100
AcDbEntity
  8
0
  6
Continuous
 62
     7
370
    15
100
AcDbLine
 10
764.3495886585
 20
237.3817911149
 30
0.0
 11
759.8495886585
 21
237.3817911149
 31
0.0
  0
LINE
  5
43B
330
1F
100
AcDbEntity
  8
0
  6
Continuous
 62
     7
370
    15
100
AcDbLine
 10
764.3495886585
 20
235.3817911149
 30
0.0
 11
759.8495886585
 21
235.3817911149
 31
0.0
  0
ARC
  5
43C
330
1F
100
AcDbEntity
  8
0
  6
Continuous
 62
     7
370
    15
100
AcDbCircle
 10
777.6495886585
 20
237.5817911149
 30
0.0
 40
2.200000000000045
100
AcDbArc
 50
270.0
 51
0.0
  0
ARC
  5
43D
330
1F
100
AcDbEntity
  8
0
  6
Continuous
 62
     7
370
    15
100
AcDbCircle
 10
777.6495886585
 20
237.5817911149
 30
0.0
 40
0.2000000000000455
100
AcDbArc
 50
270.0
 51
0.0
  0
LINE
  5
43E
330
1F
100
AcDbEntity
  8
0
  6
Continuous
 62
     7
370
    15
100
AcDbLine
 10
777.8495886585
 20
237.5817911149
 30
0.0
 11
777.8495886585
 21
476.7817911149
 31
0.0
  0
LINE
  5
43F
330
1F
100
AcDbEntity
  8
0
  6
Continuous
 62
     7
370
    15
100
AcDbLine
 10
779.8495886585
 20
476.7817911149
 30
0.0
 11
777.8495886585
 21
476.7817911149
 31
0.0
  0
LINE
  5
440
330
1F
100
AcDbEntity
  8
0
  6
Continuous
 62
     7
370
    15
100
AcDbLine
 10
779.8495886585
 20
237.5817911149
 30
0.0
 11
779.8495886585
 21
476.7817911149
 31
0.0
  0
LINE
  5
441
330
1F
100
AcDbEntity
  8
0
  6
Continuous
 62
     7
370
    15
100
AcDbLine
 10
777.6495886585
 20
237.3817911149
 30
0.0
 11
775.3495886585
 21
237.3817911149
 31
0.0
  0
LINE
  5
442
330
1F
100
AcDbEntity
  8
0
  6
Continuous
 62
     7
370
    15
100
AcDbLine
 10
777.6495886585
 20
235.3817911149
 30
0.0
 11
775.3495886585
 21
235.3817911149
 31
0.0
  0
LINE
  5
443
330
1F
100
AcDbEntity
  8
0
  6
Continuous
 62
     7
370
    15
100
AcDbLine
 10
779.6989788117
 20
236.7817911149
 30
0.0
 11
779.8495886585
 21
236.7817911149
 31
0.0
  0
LINE
  5
444
330
1F
100
AcDbEntity
  8
0
  6
Continuous
 62
     7
370
    15
100
AcDbLine
 10
777.8308502159
 20
476.7817911149
 30
0.0
 11
777.8495886585
 21
476.7817911149
 31
0.0
  0
LINE
  5
445
330
1F
100
AcDbEntity
  8
0
  6
Continuous
 62
     7
370
    15
100
AcDbLine
 10
777.8308502159
 20
238.0187504071
 30
0.0
 11
777.8308502159
 21
476.7817911149
 31
0.0
  0
LWPOLYLINE
  5
446
330
1F
100
AcDbEntity
  8
0
  6
Continuous
 62
     7
370
    15
100
AcDbPolyline
 90
       15
 70
   128
 43
0.0
 10
767.3760348746
 20
476.7817911149
 10
766.6662613906
 20
476.6874742633
 10
765.96541372
 20
476.4057097976
 10
765.2823054288
 20
475.9400410695
 10
764.6255270002
 20
475.2963241334
 10
764.0033378041
 20
474.4826541033
 10
763.4235622305
 20
473.5092633519
 10
762.8934912936
 20
472.3883928327
 10
762.4197909432
 20
471.1341381428
 10
762.0084182358
 20
469.7622722626
 10
761.6645464221
 20
468.2900472017
 10
761.3924998895
 20
466.7359770442
 10
761.1956997811
 20
465.1196051242
 10
761.0766209724
 20
463.4612582564
 10
761.0367609485
 20
461.7817911149
  0
LINE
  5
447
330
1F
100
AcDbEntity
  8
0
  6
Continuous
 62
     7
370
    15
100
AcDbLine
 10
777.8308502159
 20
476.7817911149
 30
0.0
 11
767.3760348746
 21
476.7817911149
 31
0.0
  0
ARC
  5
448
330
1F
100
AcDbEntity
  8
0
  6
Continuous
 62
     7
370
    15
100
AcDbCircle
 10
784.7941751296
 20
244.4683370814
 30
0.0
 40
9.49131508925406
100
AcDbArc
 50
204.246184476
 51
222.8065424965
  0
LINE
  5
449
330
1F
100
AcDbEntity
  8
0
  6
Continuous
 62
     7
370
    15
100
AcDbLine
 10
763.1644505137
 20
267.8621978548
 30
0.0
 11
773.1394914191
 21
246.8817911149
 31
0.0
  0
LINE
  5
44A
330
1F
100
AcDbEntity
  8
0
  6
Continuous
 62
     7
370
    15
100
AcDbLine
 10
775.3495886585
 20
242.2333150377
 30
0.0
 11
776.1400947081
 21
240.5706513346
 31
0.0
  0
ARC
  5
44B
330
1F
100
AcDbEntity
  8
0
  6
Continuous
 62
     7
370
    15
100
AcDbCircle
 10
788.2104293106
 20
278.4229819576
 30
0.0
 40
27.18144982814236
100
AcDbArc
 50
178.6289844
 51
202.8630063139
  0
LINE
  5
44C
330
1F
100
AcDbEntity
  8
0
  6
Continuous
 62
     7
370
    15
100
AcDbLine
 10
761.0367609485
 20
461.7817911149
 30
0.0
 11
761.0367609485
 21
279.0733376351
 31
0.0
  0
HATCH
  5
44D
330
1F
100
AcDbEntity
  8
0
  6
Continuous
 62
     7
370
     0
100
AcDbHatch
 10
0.0
 20
0.0
 30
0.0
210
0.0
220
0.0
230
1.0
  2
ANSI31
 70
     0
 71
     0
 91
        1
 92
        0
 93
        4
 72
     1
 10
759.8495886585137
 20
237.3817911148943
 11
759.8495886585137
 21
235.3817911148943
 72
     1
 10
759.8495886585137
 20
235.3817911148943
 11
764.3495886585138
 21
235.3817911148943
 72
     1
 10
764.3495886585138
 20
235.3817911148943
 11
764.3495886585138
 21
237.3817911148943
 72
     1
 10
764.3495886585138
 20
237.3817911148943
 11
759.8495886585137
 21
237.3817911148943
 97
        0
 75
     0
 76
     1
 52
0.0
 41
0.25
 77
     0
 78
     1
 53
45.0
 43
0.0
 44
0.0
 45
-0.561266007566822
 46
0.5612660075668221
 79
     0
 98
        1
 10
0.0
 20
0.0
  0
HATCH
  5
44E
330
1F
100
AcDbEntity
  8
0
  6
Continuous
 62
     7
370
     0
100
AcDbHatch
 10
0.0
 20
0.0
 30
0.0
210
0.0
220
0.0
230
1.0
  2
ANSI31
 70
     0
 71
     0
 91
        1
 92
        0
 93
        8
 72
     1
 10
779.8495886585137
 20
237.5817911148944
 11
779.8495886585137
 21
476.7817911148944
 72
     1
 10
779.8495886585137
 20
476.7817911148944
 11
777.8495886585137
 21
476.7817911148944
 72
     1
 10
777.8495886585137
 20
476.7817911148944
 11
777.8495886585137
 21
237.5817911148944
 72
     2
 10
777.6495886585136
 20
237.5817911148944
 40
0.2000000000000057
 50
0.0
 51
90.0
 73
     0
 72
     1
 10
777.6495886585136
 20
237.3817911148944
 11
775.3495886585138
 21
237.3817911148944
 72
     1
 10
775.3495886585138
 20
237.3817911148944
 11
775.3495886585138
 21
235.3817911148944
 72
     1
 10
775.3495886585138
 20
235.3817911148944
 11
777.6495886585136
 21
235.3817911148944
 72
     2
 10
777.6495886585136
 20
237.5817911148944
 40
2.200000000000006
 50
270.0000000000008
 51
360.0000000000008
 73
     1
 97
        0
 75
     0
 76
     1
 52
0.0
 41
0.25
 77
     0
 78
     1
 53
45.0
 43
0.0
 44
0.0
 45
-0.561266007566822
 46
0.5612660075668221
 79
     0
 98
        1
 10
0.0
 20
0.0
  0
HATCH
  5
44F
330
1F
100
AcDbEntity
  8
0
  6
Continuous
 62
     7
370
     0
100
AcDbHatch
 10
0.0
 20
0.0
 30
0.0
210
0.0
220
0.0
230
1.0
  2
ANSI31
 70
     0
 71
     0
 91
        1
 92
        0
 93
       12
 72
     1
 10
775.8495886585138
 20
235.3817911148944
 11
775.3495886585138
 21
235.3817911148944
 72
     1
 10
775.3495886585138
 20
235.3817911148944
 11
775.3495886585138
 21
237.3817911148944
 72
     1
 10
775.3495886585138
 20
237.3817911148944
 11
775.8495886585138
 21
237.3817911148944
 72
     1
 10
775.8495886585138
 20
237.3817911148944
 11
775.8495886585138
 21
237.9817911148944
 72
     1
 10
775.8495886585138
 20
237.9817911148944
 11
775.3495886585138
 21
237.9817911148944
 72
     1
 10
775.3495886585138
 20
237.9817911148944
 11
775.3495886585137
 21
246.3817911148944
 72
     1
 10
775.3495886585137
 20
246.3817911148944
 11
774.8495886585138
 21
246.8817911148944
 72
     1
 10
774.8495886585138
 20
246.8817911148944
 11
773.8495886585138
 21
246.8817911148944
 72
     1
 10
773.8495886585138
 20
246.8817911148944
 11
773.8495886585138
 21
235.2817911148944
 72
     1
 10
773.8495886585138
 20
235.2817911148944
 11
774.3495886585138
 21
234.7817911148944
 72
     1
 10
774.3495886585138
 20
234.7817911148944
 11
775.8495886585138
 21
234.7817911148944
 72
     1
 10
775.8495886585138
 20
234.7817911148944
 11
775.8495886585138
 21
235.3817911148944
 97
        0
 75
     0
 76
     1
 52
90.0
 41
0.125
 77
     0
 78
     1
 53
135.0000000000002
 43
0.0
 44
0.0
 45
-0.2806330037834101
 46
-0.280633003783412
 79
     0
 98
        1
 10
0.0
 20
0.0
  0
HATCH
  5
450
330
1F
100
AcDbEntity
  8
0
  6
Continuous
 62
     7
370
     0
100
AcDbHatch
 10
0.0
 20
0.0
 30
0.0
210
0.0
220
0.0
230
1.0
  2
ANSI31
 70
     0
 71
     0
 91
        1
 92
        0
 93
       12
 72
     1
 10
764.3495886585138
 20
235.3817911148943
 11
763.8495886585138
 21
235.3817911148943
 72
     1
 10
763.8495886585138
 20
235.3817911148943
 11
763.8495886585138
 21
234.7817911148943
 72
     1
 10
763.8495886585138
 20
234.7817911148943
 11
765.3495886585138
 21
234.7817911148943
 72
     1
 10
765.3495886585138
 20
234.7817911148943
 11
765.8495886585138
 21
235.2817911148943
 72
     1
 10
765.8495886585138
 20
235.2817911148943
 11
765.8495886585138
 21
246.8817911148943
 72
     1
 10
765.8495886585138
 20
246.8817911148943
 11
764.8495886585138
 21
246.8817911148944
 72
     1
 10
764.8495886585138
 20
246.8817911148944
 11
764.3495886585138
 21
246.3817911148943
 72
     1
 10
764.3495886585138
 20
246.3817911148943
 11
764.3495886585138
 21
237.9817911148943
 72
     1
 10
764.3495886585138
 20
237.9817911148943
 11
763.8495886585138
 21
237.9817911148943
 72
     1
 10
763.8495886585138
 20
237.9817911148943
 11
763.8495886585138
 21
237.3817911148943
 72
     1
 10
763.8495886585138
 20
237.3817911148943
 11
764.3495886585138
 21
237.3817911148943
 72
     1
 10
764.3495886585138
 20
237.3817911148943
 11
764.3495886585138
 21
235.3817911148943
 97
        0
 75
     0
 76
     1
 52
90.0
 41
0.125
 77
     0
 78
     1
 53
135.0000000000002
 43
0.0
 44
0.0
 45
-0.2806330037834101
 46
-0.280633003783412
 79
     0
 98
        1
 10
0.0
 20
0.0
  0
DIMENSION
  5
451
330
1F
100
AcDbEntity
  8
DESSIN
 62
     7
100
AcDbDimension
  2
_D_12
 10
777.8495886585
 20
218.7817911149
 30
0.0
 11
800.3438128832
 21
218.7817911149
 31
0.0
 70
   160
  1
<>
 71
     2
 42
-1.0
  3
SLDDIMSTYLE4
100
AcDbAlignedDimension
 13
769.8495886585
 23
233.2817911149
 33
0.0
 14
777.8495886585
 24
237.5817911149
 34
0.0
100
AcDbRotatedDimension
  0
DIMENSION
  5
45F
330
1F
100
AcDbEntity
  8
DESSIN
 62
     7
100
AcDbDimension
  2
_D_13
 10
743.8495886585
 20
246.8817911149
 30
0.0
 11
743.8495886585
 21
210.9921563806
 31
0.0
 70
   160
  1
<> MAX
 71
     2
 42
-1.0
  3
SLDDIMSTYLE5
100
AcDbAlignedDimension
 13
759.8495886585
 23
237.3817911149
 33
0.0
 14
764.8495886585
 24
246.8817911149
 34
0.0
 50
90.0
100
AcDbRotatedDimension
  0
DIMENSION
  5
46D
330
1F
100
AcDbEntity
  8
DESSIN
 62
     7
100
AcDbDimension
  2
_D_14
 10
779.8495886585
 20
476.7817911149
 30
0.0
 11
728.3441854761
 21
286.8871942973
 31
0.0
 70
   162
  1
<>
 71
     1
 42
-1.0
  3
SLDDIMSTYLE3
100
AcDb2LineAngularDimension
 13
759.8495886585
 23
235.3817911149
 33
0.0
 14
777.6495886585
 24
235.3817911149
 34
0.0
 15
779.8495886585
 25
237.5817911149
 35
0.0
 16
728.3441854761
 26
286.8871942973
 36
0.0
  0
MTEXT
  5
476
330
1F
100
AcDbEntity
  8
DESSIN
100
AcDbMText
 10
769.6248429904
 20
208.754636746
 30
0.0
 40
3.5
 41
0.0
 71
     2
 72
     1
  1
SECTION A-A
  7
SLDTEXTSTYLE0
 73
     1
 44
1.0
  0
INSERT
  5
47D
330
1F
100
AcDbEntity
  8
DESSIN
 62
     7
100
AcDbBlockReference
  2
SW_NOTE_26
 10
789.8017650539
 20
280.3526282313
 30
0.0
  0
LEADER
  5
47F
330
1F
100
AcDbEntity
  8
DESSIN
 62
     7
100
AcDbLeader
  3
SLDDIMSTYLE6
 76
     2
 10
765.5269501258
 20
246.8817911149
 30
0.0
 10
789.8017650539
 20
280.3526282313
 30
0.0
  0
LINE
  5
480
330
1F
100
AcDbEntity
  8
DESSIN
  6
CENTERX2
 62
     7
370
     0
100
AcDbLine
 10
769.8495886585
 20
233.2817911149
 30
0.0
 11
769.8495886585
 21
248.8817911149
 31
0.0
  0
ENDSEC
  0
SECTION
  2
OBJECTS
  0
DICTIONARY
  5
C
330
0
100
AcDbDictionary
281
     1
  3
ACAD_GROUP
350
D
  3
ACAD_LAYOUT
350
1A
  3
ACAD_MLINESTYLE
350
17
  3
ACAD_PLOTSETTINGS
350
19
  3
ACAD_PLOTSTYLENAME
350
E
  3
ACAD_SCALELIST
350
47
  0
DICTIONARY
  5
D
102
{ACAD_REACTORS
330
C
102
}
330
C
100
AcDbDictionary
281
     1
  0
DICTIONARY
  5
1A
102
{ACAD_REACTORS
330
C
102
}
330
C
100
AcDbDictionary
281
     1
  3
Layout1
350
1E
  3
Layout2
350
26
  3
Model
350
22
  0
DICTIONARY
  5
17
102
{ACAD_REACTORS
330
C
102
}
330
C
100
AcDbDictionary
281
     1
  3
Standard
350
18
  0
DICTIONARY
  5
19
102
{ACAD_REACTORS
330
C
102
}
330
C
100
AcDbDictionary
281
     1
  0
ACDBDICTIONARYWDFLT
  5
E
102
{ACAD_REACTORS
330
C
102
}
330
C
100
AcDbDictionary
281
     1
  3
Normal
350
F
100
AcDbDictionaryWithDefault
340
F
  0
DICTIONARY
  5
47
102
{ACAD_REACTORS
330
C
102
}
330
C
100
AcDbDictionary
281
     1
  3
A0
350
48
  3
A1
350
49
  3
A2
350
4A
  3
A3
350
4B
  3
A4
350
4C
  3
A5
350
4D
  3
A6
350
4E
  3
A7
350
4F
  3
A8
350
50
  3
A9
350
51
  3
B0
350
52
  3
B1
350
53
  3
B2
350
54
  3
B3
350
55
  3
B4
350
56
  3
B5
350
57
  3
B6
350
58
  3
B7
350
59
  3
B8
350
5A
  3
B9
350
5B
  3
C0
350
5C
  3
C1
350
5D
  3
C2
350
5E
  3
C3
350
5F
  3
C4
350
60
  3
C5
350
61
  3
C6
350
62
  3
C7
350
63
  3
C8
350
64
  3
C9
350
65
  3
D0
350
66
  3
D1
350
67
  3
D2
350
68
  0
LAYOUT
  5
1E
102
{ACAD_REACTORS
330
1A
102
}
330
1A
100
AcDbPlotSettings
  1

  2
none_device
  4

  6

 40
0.0
 41
0.0
 42
0.0
 43
0.0
 44
0.0
 45
0.0
 46
0.0
 47
0.0
 48
0.0
 49
0.0
140
0.0
141
0.0
142
1.0
143
1.0
 70
   688
 72
     1
 73
     0
 74
     5
  7

 75
    16
147
1.0
148
0.0
149
0.0
100
AcDbLayout
  1
Layout1
 70
     1
 71
     1
 10
0.0
 20
0.0
 11
420.0
 21
297.0
 12
0.0
 22
0.0
 32
0.0
 14
1.0000000000E+20
 24
1.0000000000E+20
 34
1.0000000000E+20
 15
-1.0000000000E+20
 25
-1.0000000000E+20
 35
-1.0000000000E+20
146
0.0
 13
0.0
 23
0.0
 33
0.0
 16
1.0
 26
0.0
 36
0.0
 17
0.0
 27
1.0
 37
0.0
 76
     0
330
1B
  0
LAYOUT
  5
26
102
{ACAD_REACTORS
330
1A
102
}
330
1A
100
AcDbPlotSettings
  1

  2
none_device
  4

  6

 40
0.0
 41
0.0
 42
0.0
 43
0.0
 44
0.0
 45
0.0
 46
0.0
 47
0.0
 48
0.0
 49
0.0
140
0.0
141
0.0
142
1.0
143
1.0
 70
   688
 72
     1
 73
     0
 74
     5
  7

 75
    16
147
1.0
148
0.0
149
0.0
100
AcDbLayout
  1
Layout2
 70
     1
 71
     2
 10
0.0
 20
0.0
 11
0.0
 21
0.0
 12
0.0
 22
0.0
 32
0.0
 14
0.0
 24
0.0
 34
0.0
 15
0.0
 25
0.0
 35
0.0
146
0.0
 13
0.0
 23
0.0
 33
0.0
 16
1.0
 26
0.0
 36
0.0
 17
0.0
 27
1.0
 37
0.0
 76
     0
330
23
  0
LAYOUT
  5
22
102
{ACAD_REACTORS
330
1A
102
}
330
1A
100
AcDbPlotSettings
  1

  2
none_device
  4
Letter_(8.50_x_11.00_Inches)
  6

 40
6.35
 41
6.35
 42
6.35000508
 43
6.35000508
 44
215.9
 45
279.4
 46
0.0
 47
0.0
 48
0.0
 49
0.0
140
0.0
141
0.0
142
1.0
143
1.0
 70
  1712
 72
     1
 73
     0
 74
     0
  7

 75
     0
147
1.0
148
0.0
149
0.0
100
AcDbLayout
  1
Model
 70
     1
 71
     0
 10
0.0
 20
0.0
 11
841.0
 21
594.0
 12
0.0
 22
0.0
 32
0.0
 14
0.0
 24
0.0
 34
0.0
 15
841.0
 25
594.0
 35
0.0
146
0.0
 13
0.0
 23
0.0
 33
0.0
 16
1.0
 26
0.0
 36
0.0
 17
0.0
 27
1.0
 37
0.0
 76
     0
330
1F
331
29
  0
MLINESTYLE
  5
18
102
{ACAD_REACTORS
330
17
102
}
330
17
100
AcDbMlineStyle
  2
Standard
 70
     0
  3

 62
   256
 51
90.0
 52
90.0
 71
     2
 49
0.5
 62
   256
  6
BYLAYER
 49
-0.5
 62
   256
  6
BYLAYER
  0
ACDBPLACEHOLDER
  5
F
102
{ACAD_REACTORS
330
E
102
}
330
E
  0
SCALE
  5
48
102
{ACAD_REACTORS
330
47
102
}
330
47
100
AcDbScale
 70
     0
300
1:1
140
1.0
141
1.0
290
     1
  0
SCALE
  5
49
102
{ACAD_REACTORS
330
47
102
}
330
47
100
AcDbScale
 70
     0
300
1:2
140
1.0
141
2.0
290
     0
  0
SCALE
  5
4A
102
{ACAD_REACTORS
330
47
102
}
330
47
100
AcDbScale
 70
     0
300
1:4
140
1.0
141
4.0
290
     0
  0
SCALE
  5
4B
102
{ACAD_REACTORS
330
47
102
}
330
47
100
AcDbScale
 70
     0
300
1:5
140
1.0
141
5.0
290
     0
  0
SCALE
  5
4C
102
{ACAD_REACTORS
330
47
102
}
330
47
100
AcDbScale
 70
     0
300
1:8
140
1.0
141
8.0
290
     0
  0
SCALE
  5
4D
102
{ACAD_REACTORS
330
47
102
}
330
47
100
AcDbScale
 70
     0
300
1:10
140
1.0
141
10.0
290
     0
  0
SCALE
  5
4E
102
{ACAD_REACTORS
330
47
102
}
330
47
100
AcDbScale
 70
     0
300
1:16
140
1.0
141
16.0
290
     0
  0
SCALE
  5
4F
102
{ACAD_REACTORS
330
47
102
}
330
47
100
AcDbScale
 70
     0
300
1:20
140
1.0
141
20.0
290
     0
  0
SCALE
  5
50
102
{ACAD_REACTORS
330
47
102
}
330
47
100
AcDbScale
 70
     0
300
1:30
140
1.0
141
30.0
290
     0
  0
SCALE
  5
51
102
{ACAD_REACTORS
330
47
102
}
330
47
100
AcDbScale
 70
     0
300
1:40
140
1.0
141
40.0
290
     0
  0
SCALE
  5
52
102
{ACAD_REACTORS
330
47
102
}
330
47
100
AcDbScale
 70
     0
300
1:50
140
1.0
141
50.0
290
     0
  0
SCALE
  5
53
102
{ACAD_REACTORS
330
47
102
}
330
47
100
AcDbScale
 70
     0
300
1:100
140
1.0
141
100.0
290
     0
  0
SCALE
  5
54
102
{ACAD_REACTORS
330
47
102
}
330
47
100
AcDbScale
 70
     0
300
2:1
140
2.0
141
1.0
290
     0
  0
SCALE
  5
55
102
{ACAD_REACTORS
330
47
102
}
330
47
100
AcDbScale
 70
     0
300
4:1
140
4.0
141
1.0
290
     0
  0
SCALE
  5
56
102
{ACAD_REACTORS
330
47
102
}
330
47
100
AcDbScale
 70
     0
300
8:1
140
8.0
141
1.0
290
     0
  0
SCALE
  5
57
102
{ACAD_REACTORS
330
47
102
}
330
47
100
AcDbScale
 70
     0
300
10:1
140
10.0
141
1.0
290
     0
  0
SCALE
  5
58
102
{ACAD_REACTORS
330
47
102
}
330
47
100
AcDbScale
 70
     0
300
100:1
140
100.0
141
1.0
290
     0
  0
SCALE
  5
59
102
{ACAD_REACTORS
330
47
102
}
330
47
100
AcDbScale
 70
     0
300
1/128" = 1'-0"
140
0.0078125
141
12.0
290
     0
  0
SCALE
  5
5A
102
{ACAD_REACTORS
330
47
102
}
330
47
100
AcDbScale
 70
     0
300
1/64" = 1'-0"
140
0.015625
141
12.0
290
     0
  0
SCALE
  5
5B
102
{ACAD_REACTORS
330
47
102
}
330
47
100
AcDbScale
 70
     0
300
1/32" = 1'-0"
140
0.03125
141
12.0
290
     0
  0
SCALE
  5
5C
102
{ACAD_REACTORS
330
47
102
}
330
47
100
AcDbScale
 70
     0
300
1/16" = 1'-0"
140
0.0625
141
12.0
290
     0
  0
SCALE
  5
5D
102
{ACAD_REACTORS
330
47
102
}
330
47
100
AcDbScale
 70
     0
300
3/32" = 1'-0"
140
0.09375
141
12.0
290
     0
  0
SCALE
  5
5E
102
{ACAD_REACTORS
330
47
102
}
330
47
100
AcDbScale
 70
     0
300
1/8" = 1'-0"
140
0.125
141
12.0
290
     0
  0
SCALE
  5
5F
102
{ACAD_REACTORS
330
47
102
}
330
47
100
AcDbScale
 70
     0
300
3/16" = 1'-0"
140
0.1875
141
12.0
290
     0
  0
SCALE
  5
60
102
{ACAD_REACTORS
330
47
102
}
330
47
100
AcDbScale
 70
     0
300
1/4" = 1'-0"
140
0.25
141
12.0
290
     0
  0
SCALE
  5
61
102
{ACAD_REACTORS
330
47
102
}
330
47
100
AcDbScale
 70
     0
300
3/8" = 1'-0"
140
0.375
141
12.0
290
     0
  0
SCALE
  5
62
102
{ACAD_REACTORS
330
47
102
}
330
47
100
AcDbScale
 70
     0
300
1/2" = 1'-0"
140
0.5
141
12.0
290
     0
  0
SCALE
  5
63
102
{ACAD_REACTORS
330
47
102
}
330
47
100
AcDbScale
 70
     0
300
3/4" = 1'-0"
140
0.75
141
12.0
290
     0
  0
SCALE
  5
64
102
{ACAD_REACTORS
330
47
102
}
330
47
100
AcDbScale
 70
     0
300
1" = 1'-0"
140
1.0
141
12.0
290
     0
  0
SCALE
  5
65
102
{ACAD_REACTORS
330
47
102
}
330
47
100
AcDbScale
 70
     0
300
1-1/2" = 1'-0"
140
1.5
141
12.0
290
     0
  0
SCALE
  5
66
102
{ACAD_REACTORS
330
47
102
}
330
47
100
AcDbScale
 70
     0
300
3" = 1'-0"
140
3.0
141
12.0
290
     0
  0
SCALE
  5
67
102
{ACAD_REACTORS
330
47
102
}
330
47
100
AcDbScale
 70
     0
300
6" = 1'-0"
140
6.0
141
12.0
290
     0
  0
SCALE
  5
68
102
{ACAD_REACTORS
330
47
102
}
330
47
100
AcDbScale
 70
     0
300
1'-0" = 1'-0"
140
12.0
141
12.0
290
     0
  0
ENDSEC
  0
EOF
