  0
SECTION
  2
HEADER
  9
$ACADVER
  1
AC1018
  9
$ACADMAINTVER
 70
     0
  9
$DWGCODEPAGE
  3
ANSI_1252
  9
$INSBASE
 10
0.0
 20
0.0
 30
0.0
  9
$EXTMIN
 10
602.2941204702711
 20
576.3498329088799
 30
0.0
  9
$EXTMAX
 10
721.6248926263585
 20
660.6248253812948
 30
0.0
  9
$LIMMIN
 10
0.0
 20
0.0
  9
$LIMMAX
 10
420.0
 20
297.0
  9
$ORTHOMODE
 70
     1
  9
$REGENMODE
 70
     1
  9
$FILLMODE
 70
     1
  9
$QTEXTMODE
 70
     0
  9
$MIRRTEXT
 70
     0
  9
$LTSCALE
 40
1.0
  9
$ATTMODE
 70
     1
  9
$TEXTSIZE
 40
2.5
  9
$TRACEWID
 40
1.0
  9
$TEXTSTYLE
  7
Standard
  9
$CLAYER
  8
0
  9
$CELTYPE
  6
ByLayer
  9
$CECOLOR
 62
   256
  9
$CELTSCALE
 40
1.0
  9
$DISPSILH
 70
     0
  9
$DIMSCALE
 40
1.0
  9
$DIMASZ
 40
2.5
  9
$DIMEXO
 40
0.625
  9
$DIMDLI
 40
3.75
  9
$DIMRND
 40
0.0
  9
$DIMDLE
 40
0.0
  9
$DIMEXE
 40
1.25
  9
$DIMTP
 40
0.0
  9
$DIMTM
 40
0.0
  9
$DIMTXT
 40
2.5
  9
$DIMCEN
 40
2.5
  9
$DIMTSZ
 40
0.0
  9
$DIMTOL
 70
     0
  9
$DIMLIM
 70
     0
  9
$DIMTIH
 70
     0
  9
$DIMTOH
 70
     0
  9
$DIMSE1
 70
     0
  9
$DIMSE2
 70
     0
  9
$DIMTAD
 70
     1
  9
$DIMZIN
 70
     8
  9
$DIMBLK
  1

  9
$DIMASO
 70
     1
  9
$DIMSHO
 70
     1
  9
$DIMPOST
  1

  9
$DIMAPOST
  1

  9
$DIMALT
 70
     0
  9
$DIMALTD
 70
     3
  9
$DIMALTF
 40
0.03937007874016
  9
$DIMLFAC
 40
1.0
  9
$DIMTOFL
 70
     1
  9
$DIMTVP
 40
0.0
  9
$DIMTIX
 70
     0
  9
$DIMSOXD
 70
     0
  9
$DIMSAH
 70
     0
  9
$DIMBLK1
  1

  9
$DIMBLK2
  1

  9
$DIMSTYLE
  2
ISO-25
  9
$DIMCLRD
 70
     0
  9
$DIMCLRE
 70
     0
  9
$DIMCLRT
 70
     0
  9
$DIMTFAC
 40
1.0
  9
$DIMGAP
 40
0.625
  9
$DIMJUST
 70
     0
  9
$DIMSD1
 70
     0
  9
$DIMSD2
 70
     0
  9
$DIMTOLJ
 70
     0
  9
$DIMTZIN
 70
     8
  9
$DIMALTZ
 70
     0
  9
$DIMALTTZ
 70
     0
  9
$DIMUPT
 70
     0
  9
$DIMDEC
 70
     2
  9
$DIMTDEC
 70
     2
  9
$DIMALTU
 70
     2
  9
$DIMALTTD
 70
     3
  9
$DIMTXSTY
  7
Standard
  9
$DIMAUNIT
 70
     0
  9
$DIMADEC
 70
     0
  9
$DIMALTRND
 40
0.0
  9
$DIMAZIN
 70
     0
  9
$DIMDSEP
 70
    44
  9
$DIMATFIT
 70
     3
  9
$DIMFRAC
 70
     0
  9
$DIMLDRBLK
  1

  9
$DIMLUNIT
 70
     2
  9
$DIMLWD
 70
    -2
  9
$DIMLWE
 70
    -2
  9
$DIMTMOVE
 70
     0
  9
$LUNITS
 70
     2
  9
$LUPREC
 70
     4
  9
$SKETCHINC
 40
1.0
  9
$FILLETRAD
 40
0.0
  9
$AUNITS
 70
     0
  9
$AUPREC
 70
     0
  9
$MENU
  1
.
  9
$ELEVATION
 40
0.0
  9
$PELEVATION
 40
0.0
  9
$THICKNESS
 40
0.0
  9
$LIMCHECK
 70
     0
  9
$CHAMFERA
 40
0.0
  9
$CHAMFERB
 40
0.0
  9
$CHAMFERC
 40
0.0
  9
$CHAMFERD
 40
0.0
  9
$SKPOLY
 70
     0
  9
$TDCREATE
 40
2458213.366827269
  9
$TDUCREATE
 40
2458213.283493935
  9
$TDUPDATE
 40
2458213.388656864
  9
$TDUUPDATE
 40
2458213.305323530
  9
$TDINDWG
 40
0.0218298264
  9
$TDUSRTIMER
 40
0.0218298032
  9
$USRTIMER
 70
     1
  9
$ANGBASE
 50
0.0
  9
$ANGDIR
 70
     0
  9
$PDMODE
 70
     0
  9
$PDSIZE
 40
0.0
  9
$PLINEWID
 40
0.0
  9
$SPLFRAME
 70
     0
  9
$SPLINETYPE
 70
     6
  9
$SPLINESEGS
 70
     8
  9
$HANDSEED
  5
38B
  9
$SURFTAB1
 70
     6
  9
$SURFTAB2
 70
     6
  9
$SURFTYPE
 70
     6
  9
$SURFU
 70
     6
  9
$SURFV
 70
     6
  9
$UCSBASE
  2

  9
$UCSNAME
  2

  9
$UCSORG
 10
0.0
 20
0.0
 30
0.0
  9
$UCSXDIR
 10
1.0
 20
0.0
 30
0.0
  9
$UCSYDIR
 10
0.0
 20
1.0
 30
0.0
  9
$UCSORTHOREF
  2

  9
$UCSORTHOVIEW
 70
     0
  9
$UCSORGTOP
 10
0.0
 20
0.0
 30
0.0
  9
$UCSORGBOTTOM
 10
0.0
 20
0.0
 30
0.0
  9
$UCSORGLEFT
 10
0.0
 20
0.0
 30
0.0
  9
$UCSORGRIGHT
 10
0.0
 20
0.0
 30
0.0
  9
$UCSORGFRONT
 10
0.0
 20
0.0
 30
0.0
  9
$UCSORGBACK
 10
0.0
 20
0.0
 30
0.0
  9
$PUCSBASE
  2

  9
$PUCSNAME
  2

  9
$PUCSORG
 10
0.0
 20
0.0
 30
0.0
  9
$PUCSXDIR
 10
1.0
 20
0.0
 30
0.0
  9
$PUCSYDIR
 10
0.0
 20
1.0
 30
0.0
  9
$PUCSORTHOREF
  2

  9
$PUCSORTHOVIEW
 70
     0
  9
$PUCSORGTOP
 10
0.0
 20
0.0
 30
0.0
  9
$PUCSORGBOTTOM
 10
0.0
 20
0.0
 30
0.0
  9
$PUCSORGLEFT
 10
0.0
 20
0.0
 30
0.0
  9
$PUCSORGRIGHT
 10
0.0
 20
0.0
 30
0.0
  9
$PUCSORGFRONT
 10
0.0
 20
0.0
 30
0.0
  9
$PUCSORGBACK
 10
0.0
 20
0.0
 30
0.0
  9
$USERI1
 70
     0
  9
$USERI2
 70
     0
  9
$USERI3
 70
     0
  9
$USERI4
 70
     0
  9
$USERI5
 70
     0
  9
$USERR1
 40
0.0
  9
$USERR2
 40
0.0
  9
$USERR3
 40
0.0
  9
$USERR4
 40
0.0
  9
$USERR5
 40
0.0
  9
$WORLDVIEW
 70
     1
  9
$SHADEDGE
 70
     3
  9
$SHADEDIF
 70
    70
  9
$TILEMODE
 70
     1
  9
$MAXACTVP
 70
    64
  9
$PINSBASE
 10
0.0
 20
0.0
 30
0.0
  9
$PLIMCHECK
 70
     0
  9
$PEXTMIN
 10
0.3540751732662102
 20
-0.5518078105173459
 30
0.0
  9
$PEXTMAX
 10
290.1621373749579
 20
203.3243917338452
 30
0.0
  9
$PLIMMIN
 10
-3.17498779296875
 20
-3.174999952316284
  9
$PLIMMAX
 10
293.8356628417969
 20
206.7983276844024
  9
$UNITMODE
 70
     0
  9
$VISRETAIN
 70
     1
  9
$PLINEGEN
 70
     0
  9
$PSLTSCALE
 70
     1
  9
$TREEDEPTH
 70
  3020
  9
$CMLSTYLE
  2
Standard
  9
$CMLJUST
 70
     0
  9
$CMLSCALE
 40
20.0
  9
$PROXYGRAPHICS
 70
     1
  9
$MEASUREMENT
 70
     1
  9
$CELWEIGHT
370
    -1
  9
$ENDCAPS
280
     0
  9
$JOINSTYLE
280
     0
  9
$LWDISPLAY
290
     0
  9
$INSUNITS
 70
     4
  9
$HYPERLINKBASE
  1

  9
$STYLESHEET
  1

  9
$XEDIT
290
     1
  9
$CEPSNTYPE
380
     0
  9
$PSTYLEMODE
290
     1
  9
$FINGERPRINTGUID
  2
{FDEAD578-A652-11D2-9A35-0060089B3A3F}
  9
$VERSIONGUID
  2
{14D3C060-D607-4BC2-9DBF-456F0311DB4A}
  9
$EXTNAMES
290
     1
  9
$PSVPSCALE
 40
0.0
  9
$OLESTARTUP
290
     0
  9
$SORTENTS
280
   127
  9
$INDEXCTL
280
     0
  9
$HIDETEXT
280
     1
  9
$XCLIPFRAME
290
     0
  9
$HALOGAP
280
     0
  9
$OBSCOLOR
 70
   257
  9
$OBSLTYPE
280
     0
  9
$INTERSECTIONDISPLAY
280
     0
  9
$INTERSECTIONCOLOR
 70
   257
  9
$DIMASSOC
280
     2
  9
$PROJECTNAME
  1

  0
ENDSEC
  0
SECTION
  2
CLASSES
  0
CLASS
  1
ACDBDICTIONARYWDFLT
  2
AcDbDictionaryWithDefault
  3
ObjectDBX Classes
 90
        0
 91
        1
280
     0
281
     0
  0
CLASS
  1
DICTIONARYVAR
  2
AcDbDictionaryVar
  3
ObjectDBX Classes
 90
        0
 91
        2
280
     0
281
     0
  0
CLASS
  1
SORTENTSTABLE
  2
AcDbSortentsTable
  3
ObjectDBX Classes
 90
        0
 91
        1
280
     0
281
     0
  0
CLASS
  1
DIMASSOC
  2
AcDbDimAssoc
  3
"AcDbDimAssoc|Product Desc:     AcDim ARX App For Dimension|Company:          Autodesk, Inc.|WEB Address:      www.autodesk.com"
 90
        0
 91
       13
280
     0
281
     0
  0
ENDSEC
  0
SECTION
  2
TABLES
  0
TABLE
  2
VPORT
  5
8
330
0
100
AcDbSymbolTable
 70
     6
  0
VPORT
  5
38A
330
8
100
AcDbSymbolTableRecord
100
AcDbViewportTableRecord
  2
*Active
 70
     0
 10
0.0
 20
0.0
 11
1.0
 21
1.0
 12
712.8105065211889
 22
618.52824263796
 13
0.0
 23
0.0
 14
10.0
 24
10.0
 15
10.0
 25
10.0
 16
0.0
 26
0.0
 36
1.0
 17
0.0
 27
0.0
 37
0.0
 40
211.8436847196633
 41
2.340490797546012
 42
50.0
 43
0.0
 44
0.0
 50
0.0
 51
0.0
 71
     0
 72
  1000
 73
     1
 74
     3
 75
     0
 76
     0
 77
     0
 78
     0
281
     0
 65
     1
110
0.0
120
0.0
130
0.0
111
1.0
121
0.0
131
0.0
112
0.0
122
1.0
132
0.0
 79
     0
146
0.0
  0
ENDTAB
  0
TABLE
  2
LTYPE
  5
5
330
0
100
AcDbSymbolTable
 70
     2
  0
LTYPE
  5
14
330
5
100
AcDbSymbolTableRecord
100
AcDbLinetypeTableRecord
  2
ByBlock
 70
     0
  3

 72
    65
 73
     0
 40
0.0
  0
LTYPE
  5
15
330
5
100
AcDbSymbolTableRecord
100
AcDbLinetypeTableRecord
  2
ByLayer
 70
     0
  3

 72
    65
 73
     0
 40
0.0
  0
LTYPE
  5
16
330
5
100
AcDbSymbolTableRecord
100
AcDbLinetypeTableRecord
  2
Continuous
 70
     0
  3
Solid line
 72
    65
 73
     0
 40
0.0
  0
LTYPE
  5
81
330
5
100
AcDbSymbolTableRecord
100
AcDbLinetypeTableRecord
  2
0
 70
     0
  3
0
 72
    65
 73
     0
 40
0.0
  0
ENDTAB
  0
TABLE
  2
LAYER
  5
2
102
{ACAD_XDICTIONARY
360
84
102
}
330
0
100
AcDbSymbolTable
 70
     3
  0
LAYER
  5
10
330
2
100
AcDbSymbolTableRecord
100
AcDbLayerTableRecord
  2
0
 70
     0
 62
     7
  6
Continuous
370
    -3
390
F
  0
LAYER
  5
82
330
2
100
AcDbSymbolTableRecord
100
AcDbLayerTableRecord
  2
CADRE
 70
     0
 62
   250
  6
Continuous
370
    -3
390
F
  0
LAYER
  5
8E
330
2
100
AcDbSymbolTableRecord
100
AcDbLayerTableRecord
  2
Defpoints
 70
     0
 62
     7
  6
Continuous
290
     0
370
    -3
390
F
  0
ENDTAB
  0
TABLE
  2
STYLE
  5
3
330
0
100
AcDbSymbolTable
 70
     1
  0
STYLE
  5
11
330
3
100
AcDbSymbolTableRecord
100
AcDbTextStyleTableRecord
  2
Standard
 70
     0
 40
0.0
 41
1.0
 50
0.0
 71
     0
 42
2.5
  3
txt
  4

  0
ENDTAB
  0
TABLE
  2
VIEW
  5
6
330
0
100
AcDbSymbolTable
 70
     0
  0
ENDTAB
  0
TABLE
  2
UCS
  5
7
330
0
100
AcDbSymbolTable
 70
     0
  0
ENDTAB
  0
TABLE
  2
APPID
  5
9
330
0
100
AcDbSymbolTable
 70
     1
  0
APPID
  5
12
330
9
100
AcDbSymbolTableRecord
100
AcDbRegAppTableRecord
  2
ACAD
 70
     0
  0
ENDTAB
  0
TABLE
  2
DIMSTYLE
  5
A
330
0
100
AcDbSymbolTable
 70
     2
100
AcDbDimStyleTable
 71
     1
340
27
  0
DIMSTYLE
105
27
102
{ACAD_REACTORS
330
8D
330
A6
330
CD
330
E5
330
11E
330
136
330
14E
330
15B
330
173
330
18B
330
21C
330
25B
330
2B4
102
}
330
A
100
AcDbSymbolTableRecord
100
AcDbDimStyleTableRecord
  2
ISO-25
 70
     0
 41
2.5
 42
0.625
 43
3.75
 44
1.25
 73
     0
 74
     0
 77
     1
 78
     8
140
2.5
141
2.5
143
0.03937007874016
147
0.625
171
     3
172
     1
271
     2
272
     2
274
     3
278
    44
283
     0
284
     8
340
11
  0
DIMSTYLE
105
83
330
A
100
AcDbSymbolTableRecord
100
AcDbDimStyleTableRecord
  2
Standard
 70
     0
340
11
  0
ENDTAB
  0
TABLE
  2
BLOCK_RECORD
  5
1
330
0
100
AcDbSymbolTable
 70
    16
  0
BLOCK_RECORD
  5
1F
330
1
100
AcDbSymbolTableRecord
100
AcDbBlockTableRecord
  2
*Model_Space
340
22
  0
BLOCK_RECORD
  5
50
330
1
100
AcDbSymbolTableRecord
100
AcDbBlockTableRecord
  2
*Paper_Space
340
51
  0
BLOCK_RECORD
  5
55
330
1
100
AcDbSymbolTableRecord
100
AcDbBlockTableRecord
  2
*Paper_Space0
340
56
  0
BLOCK_RECORD
  5
86
102
{ACAD_XDICTIONARY
360
88
102
}
330
1
100
AcDbSymbolTableRecord
100
AcDbBlockTableRecord
  2
A$C5C582DD4
340
0
  0
BLOCK_RECORD
  5
8F
330
1
100
AcDbSymbolTableRecord
100
AcDbBlockTableRecord
  2
*D2
340
0
  0
BLOCK_RECORD
  5
A7
330
1
100
AcDbSymbolTableRecord
100
AcDbBlockTableRecord
  2
*D3
340
0
  0
BLOCK_RECORD
  5
CE
330
1
100
AcDbSymbolTableRecord
100
AcDbBlockTableRecord
  2
*D4
340
0
  0
BLOCK_RECORD
  5
E6
330
1
100
AcDbSymbolTableRecord
100
AcDbBlockTableRecord
  2
*D5
340
0
  0
BLOCK_RECORD
  5
FE
330
1
100
AcDbSymbolTableRecord
100
AcDbBlockTableRecord
  2
*D6
340
0
  0
BLOCK_RECORD
  5
11F
330
1
100
AcDbSymbolTableRecord
100
AcDbBlockTableRecord
  2
*D7
340
0
  0
BLOCK_RECORD
  5
137
330
1
100
AcDbSymbolTableRecord
100
AcDbBlockTableRecord
  2
*D8
340
0
  0
BLOCK_RECORD
  5
14F
330
1
100
AcDbSymbolTableRecord
100
AcDbBlockTableRecord
  2
*D9
340
0
  0
BLOCK_RECORD
  5
15C
330
1
100
AcDbSymbolTableRecord
100
AcDbBlockTableRecord
  2
*D10
340
0
  0
BLOCK_RECORD
  5
174
330
1
100
AcDbSymbolTableRecord
100
AcDbBlockTableRecord
  2
*D11
340
0
  0
BLOCK_RECORD
  5
18C
330
1
100
AcDbSymbolTableRecord
100
AcDbBlockTableRecord
  2
*D12
340
0
  0
BLOCK_RECORD
  5
21D
330
1
100
AcDbSymbolTableRecord
100
AcDbBlockTableRecord
  2
*D13
340
0
  0
BLOCK_RECORD
  5
25C
330
1
100
AcDbSymbolTableRecord
100
AcDbBlockTableRecord
  2
*D14
340
0
  0
BLOCK_RECORD
  5
2B5
330
1
100
AcDbSymbolTableRecord
100
AcDbBlockTableRecord
  2
*D15
340
0
  0
ENDTAB
  0
ENDSEC
  0
SECTION
  2
BLOCKS
  0
BLOCK
  5
20
330
1F
100
AcDbEntity
  8
0
100
AcDbBlockBegin
  2
*Model_Space
 70
     0
 10
0.0
 20
0.0
 30
0.0
  3
*Model_Space
  1

  0
ENDBLK
  5
21
330
1F
100
AcDbEntity
  8
0
100
AcDbBlockEnd
  0
BLOCK
  5
52
330
50
100
AcDbEntity
 67
     1
  8
0
100
AcDbBlockBegin
  2
*Paper_Space
 70
     0
 10
0.0
 20
0.0
 30
0.0
  3
*Paper_Space
  1

  0
ENDBLK
  5
53
330
50
100
AcDbEntity
 67
     1
  8
0
100
AcDbBlockEnd
  0
BLOCK
  5
57
330
55
100
AcDbEntity
  8
0
100
AcDbBlockBegin
  2
*Paper_Space0
 70
     0
 10
0.0
 20
0.0
 30
0.0
  3
*Paper_Space0
  1

  0
ENDBLK
  5
58
330
55
100
AcDbEntity
  8
0
100
AcDbBlockEnd
  0
BLOCK
  5
8A
330
86
100
AcDbEntity
  8
0
100
AcDbBlockBegin
  2
A$C5C582DD4
 70
     0
 10
0.0
 20
0.0
 30
0.0
  3
A$C5C582DD4
  1

  0
LWPOLYLINE
  5
87
330
86
100
AcDbEntity
  8
CADRE
  6
Continuous
100
AcDbPolyline
 90
       17
 70
     1
 43
0.0
 10
0.0016442361802547
 20
14.50000328204623
 10
0.00196409486216
 20
0.0000032655589166
 10
65.00196391391273
 20
0.0048533675217186
 10
65.00196391391273
 20
11.00800588545826
 10
75.00196391391273
 20
11.00800588545826
 10
75.00196391391273
 20
28.00800588546554
 10
64.95452894913706
 20
28.00800588546554
 10
59.05444736614485
 20
36.53891854819085
 10
67.27904616399772
 20
42.22714978595468
 10
57.60905305980009
 20
56.20896774231368
 10
49.38445426194723
 20
50.52073650454985
 10
42.85468906640649
 20
59.96210706998681
 10
0.000007591063877
 20
30.32017459880445
 10
0.000135979501465
 20
24.50000319733954
 10
24.98033520389345
 20
24.50063951009361
 10
24.98033520389345
 20
14.50150335239596
 10
0.0016442361802547
 20
14.50000328204623
  0
ENDBLK
  5
8B
330
86
100
AcDbEntity
  8
0
100
AcDbBlockEnd
  0
BLOCK
  5
99
330
8F
100
AcDbEntity
  8
0
100
AcDbBlockBegin
  2
*D2
 70
     1
 10
0.0
 20
0.0
 30
0.0
  3
*D2
  1

  0
LINE
  5
379
330
8F
100
AcDbEntity
  8
0
 62
     0
370
    -2
100
AcDbLine
 10
613.95815729687
 20
611.0602683170512
 30
0.0
 11
604.585787136938
 21
611.0602683170512
 31
0.0
  0
LINE
  5
37A
330
8F
100
AcDbEntity
  8
0
 62
     0
370
    -2
100
AcDbLine
 10
613.9596655535488
 20
601.0602684017579
 30
0.0
 11
604.585787136938
 21
601.0602684017579
 31
0.0
  0
LINE
  5
37B
330
8F
100
AcDbEntity
  8
0
 62
     0
370
    -2
100
AcDbLine
 10
605.8357871369381
 20
608.5602683170511
 30
0.0
 11
605.8357871369381
 21
603.5602684017578
 31
0.0
  0
SOLID
  5
37C
330
8F
100
AcDbEntity
  8
0
 62
     0
100
AcDbTrace
 10
605.4191204702714
 20
608.5602683170511
 30
0.0
 11
606.2524538036046
 21
608.5602683170511
 31
0.0
 12
605.8357871369381
 22
611.0602683170512
 32
0.0
 13
605.8357871369381
 23
611.0602683170512
 33
0.0
  0
SOLID
  5
37D
330
8F
100
AcDbEntity
  8
0
 62
     0
100
AcDbTrace
 10
605.4191204702714
 20
603.5602684017578
 30
0.0
 11
606.2524538036046
 21
603.5602684017578
 31
0.0
 12
605.8357871369381
 22
601.0602684017579
 32
0.0
 13
605.8357871369381
 23
601.0602684017579
 33
0.0
  0
MTEXT
  5
37E
330
8F
100
AcDbEntity
  8
0
 62
     0
100
AcDbMText
 10
603.9607871369379
 20
606.0602683594046
 30
0.0
 40
2.5
 41
0.0
 71
     5
 72
     1
  1
10
 11
0.0000000000000001
 21
1.0
 31
0.0
 73
     1
 44
1.0
  0
POINT
  5
37F
330
8F
100
AcDbEntity
  8
Defpoints
 62
     0
100
AcDbPoint
 10
614.58315729687
 20
611.0602683170512
 30
0.0
  0
POINT
  5
380
330
8F
100
AcDbEntity
  8
Defpoints
 62
     0
100
AcDbPoint
 10
614.5846655535487
 20
601.0602684017579
 30
0.0
  0
POINT
  5
381
330
8F
100
AcDbEntity
  8
Defpoints
 62
     0
100
AcDbPoint
 10
605.8357871369381
 20
601.0602684017579
 30
0.0
  0
ENDBLK
  5
9A
330
8F
100
AcDbEntity
  8
0
100
AcDbBlockEnd
  0
BLOCK
  5
B3
330
A7
100
AcDbEntity
  8
0
100
AcDbBlockBegin
  2
*D3
 70
     1
 10
0.0
 20
0.0
 30
0.0
  3
*D3
  1

  0
LINE
  5
36E
330
A7
100
AcDbEntity
  8
0
 62
     0
370
    -2
100
AcDbLine
 10
613.9580395140781
 20
616.9085779032408
 30
0.0
 11
604.5857871369381
 21
616.9085779032408
 31
0.0
  0
LINE
  5
36F
330
A7
100
AcDbEntity
  8
0
 62
     0
370
    -2
100
AcDbLine
 10
613.95815729687
 20
611.0602683170512
 30
0.0
 11
604.5857871369381
 21
611.0602683170512
 31
0.0
  0
LINE
  5
370
330
A7
100
AcDbEntity
  8
0
 62
     0
370
    -2
100
AcDbLine
 10
605.8357871369381
 20
608.5602683170511
 30
0.0
 11
605.8357871369381
 21
606.0602683170511
 31
0.0
  0
LINE
  5
371
330
A7
100
AcDbEntity
  8
0
 62
     0
370
    -2
100
AcDbLine
 10
605.8357871369381
 20
619.4085779032408
 30
0.0
 11
605.8357871369381
 21
631.0752445699074
 31
0.0
  0
LINE
  5
372
330
A7
100
AcDbEntity
  8
0
 62
     0
370
    -2
100
AcDbLine
 10
605.8357871369381
 20
611.0602683170512
 30
0.0
 11
605.8357871369381
 21
616.9085779032408
 31
0.0
  0
SOLID
  5
373
330
A7
100
AcDbEntity
  8
0
 62
     0
100
AcDbTrace
 10
605.4191204702715
 20
608.5602683170511
 30
0.0
 11
606.2524538036048
 21
608.5602683170511
 31
0.0
 12
605.8357871369381
 22
611.0602683170512
 32
0.0
 13
605.8357871369381
 23
611.0602683170512
 33
0.0
  0
SOLID
  5
374
330
A7
100
AcDbEntity
  8
0
 62
     0
100
AcDbTrace
 10
605.4191204702715
 20
619.4085779032408
 30
0.0
 11
606.2524538036048
 21
619.4085779032408
 31
0.0
 12
605.8357871369381
 22
616.9085779032408
 32
0.0
 13
605.8357871369381
 23
616.9085779032408
 33
0.0
  0
MTEXT
  5
375
330
A7
100
AcDbEntity
  8
0
 62
     0
100
AcDbMText
 10
603.7524538036047
 20
626.4919112365743
 30
0.0
 40
2.5
 41
0.0
 71
     5
 72
     1
  1
5,85
 11
0.0000000000000001
 21
1.0
 31
0.0
 73
     1
 44
1.0
  0
POINT
  5
376
330
A7
100
AcDbEntity
  8
Defpoints
 62
     0
100
AcDbPoint
 10
614.5830395140781
 20
616.9085779032408
 30
0.0
  0
POINT
  5
377
330
A7
100
AcDbEntity
  8
Defpoints
 62
     0
100
AcDbPoint
 10
614.58315729687
 20
611.0602683170512
 30
0.0
  0
POINT
  5
378
330
A7
100
AcDbEntity
  8
Defpoints
 62
     0
100
AcDbPoint
 10
605.8357871369381
 20
611.0602683170512
 30
0.0
  0
ENDBLK
  5
B4
330
A7
100
AcDbEntity
  8
0
100
AcDbBlockEnd
  0
BLOCK
  5
D8
330
CE
100
AcDbEntity
  8
0
100
AcDbBlockBegin
  2
*D4
 70
     1
 10
0.0
 20
0.0
 30
0.0
  3
*D4
  1

  0
LINE
  5
365
330
CE
100
AcDbEntity
  8
0
 62
     0
370
    -2
100
AcDbLine
 10
613.9599854122307
 20
586.5602683852706
 30
0.0
 11
604.585787136938
 21
586.5602683852706
 31
0.0
  0
LINE
  5
366
330
CE
100
AcDbEntity
  8
0
 62
     0
370
    -2
100
AcDbLine
 10
613.9596655535488
 20
601.0602684017579
 30
0.0
 11
604.585787136938
 21
601.0602684017579
 31
0.0
  0
LINE
  5
367
330
CE
100
AcDbEntity
  8
0
 62
     0
370
    -2
100
AcDbLine
 10
605.8357871369381
 20
589.0602683852705
 30
0.0
 11
605.8357871369381
 21
598.5602684017578
 31
0.0
  0
SOLID
  5
368
330
CE
100
AcDbEntity
  8
0
 62
     0
100
AcDbTrace
 10
605.4191204702714
 20
589.0602683852705
 30
0.0
 11
606.2524538036046
 21
589.0602683852705
 31
0.0
 12
605.8357871369381
 22
586.5602683852706
 32
0.0
 13
605.8357871369381
 23
586.5602683852706
 33
0.0
  0
SOLID
  5
369
330
CE
100
AcDbEntity
  8
0
 62
     0
100
AcDbTrace
 10
605.4191204702714
 20
598.5602684017578
 30
0.0
 11
606.2524538036046
 21
598.5602684017578
 31
0.0
 12
605.8357871369381
 22
601.0602684017579
 32
0.0
 13
605.8357871369381
 23
601.0602684017579
 33
0.0
  0
MTEXT
  5
36A
330
CE
100
AcDbEntity
  8
0
 62
     0
100
AcDbMText
 10
603.7524538036045
 20
593.8102683935142
 30
0.0
 40
2.5
 41
0.0
 71
     5
 72
     1
  1
14,5
 11
0.0000000000000001
 21
1.0
 31
0.0
 73
     1
 44
1.0
  0
POINT
  5
36B
330
CE
100
AcDbEntity
  8
Defpoints
 62
     0
100
AcDbPoint
 10
614.5849854122307
 20
586.5602683852706
 30
0.0
  0
POINT
  5
36C
330
CE
100
AcDbEntity
  8
Defpoints
 62
     0
100
AcDbPoint
 10
614.5846655535487
 20
601.0602684017579
 30
0.0
  0
POINT
  5
36D
330
CE
100
AcDbEntity
  8
Defpoints
 62
     0
100
AcDbPoint
 10
605.8357871369381
 20
601.0602684017579
 30
0.0
  0
ENDBLK
  5
D9
330
CE
100
AcDbEntity
  8
0
100
AcDbBlockEnd
  0
BLOCK
  5
F0
330
E6
100
AcDbEntity
  8
0
100
AcDbBlockBegin
  2
*D5
 70
     1
 10
0.0
 20
0.0
 30
0.0
  3
*D5
  1

  0
LINE
  5
35C
330
E6
100
AcDbEntity
  8
0
 62
     0
370
    -2
100
AcDbLine
 10
614.5849854122307
 20
585.9352683852705
 30
0.0
 11
614.5849854122307
 21
576.3498329088799
 31
0.0
  0
LINE
  5
35D
330
E6
100
AcDbEntity
  8
0
 62
     0
370
    -2
100
AcDbLine
 10
679.5849852312812
 20
585.9401184872333
 30
0.0
 11
679.5849852312812
 21
576.3498329088799
 31
0.0
  0
LINE
  5
35E
330
E6
100
AcDbEntity
  8
0
 62
     0
370
    -2
100
AcDbLine
 10
617.0849854122307
 20
577.59983290888
 30
0.0
 11
677.0849852312813
 21
577.59983290888
 31
0.0
  0
SOLID
  5
35F
330
E6
100
AcDbEntity
  8
0
 62
     0
100
AcDbTrace
 10
617.0849854122307
 20
578.0164995755466
 30
0.0
 11
617.0849854122307
 21
577.1831662422133
 31
0.0
 12
614.5849854122307
 22
577.59983290888
 32
0.0
 13
614.5849854122307
 23
577.59983290888
 33
0.0
  0
SOLID
  5
360
330
E6
100
AcDbEntity
  8
0
 62
     0
100
AcDbTrace
 10
677.0849852312813
 20
578.0164995755466
 30
0.0
 11
677.0849852312813
 21
577.1831662422133
 31
0.0
 12
679.5849852312812
 22
577.59983290888
 32
0.0
 13
679.5849852312812
 23
577.59983290888
 33
0.0
  0
MTEXT
  5
361
330
E6
100
AcDbEntity
  8
0
 62
     0
100
AcDbMText
 10
647.084985321756
 20
579.4748329088799
 30
0.0
 40
2.5
 41
0.0
 71
     5
 72
     1
  1
65
 73
     1
 44
1.0
  0
POINT
  5
362
330
E6
100
AcDbEntity
  8
Defpoints
 62
     0
100
AcDbPoint
 10
614.5849854122307
 20
586.5602683852706
 30
0.0
  0
POINT
  5
363
330
E6
100
AcDbEntity
  8
Defpoints
 62
     0
100
AcDbPoint
 10
679.5849852312812
 20
586.5651184872333
 30
0.0
  0
POINT
  5
364
330
E6
100
AcDbEntity
  8
Defpoints
 62
     0
100
AcDbPoint
 10
679.5849852312812
 20
577.59983290888
 30
0.0
  0
ENDBLK
  5
F1
330
E6
100
AcDbEntity
  8
0
100
AcDbBlockEnd
  0
BLOCK
  5
108
330
FE
100
AcDbEntity
  8
0
100
AcDbBlockBegin
  2
*D6
 70
     1
 10
0.0
 20
0.0
 30
0.0
  3
*D6
  1

  0
LINE
  5
115
330
FE
100
AcDbEntity
  8
0
 62
     0
370
    -2
100
AcDbLine
 10
680.2099852312813
 20
597.5682710051699
 30
0.0
 11
703.5797518594381
 21
597.5682710051699
 31
0.0
  0
LINE
  5
116
330
FE
100
AcDbEntity
  8
0
 62
     0
370
    -2
100
AcDbLine
 10
701.7047518594381
 20
586.4877491657664
 30
0.0
 11
701.0797518594381
 21
586.4877491657664
 31
0.0
  0
LINE
  5
117
330
FE
100
AcDbEntity
  8
0
 62
     0
370
    -2
100
AcDbLine
 10
702.3297518594382
 20
595.0682710051698
 30
0.0
 11
702.3297518594382
 21
588.9877491657664
 31
0.0
  0
SOLID
  5
118
330
FE
100
AcDbEntity
  8
0
 62
     0
100
AcDbTrace
 10
701.9130851927715
 20
595.0682710051698
 30
0.0
 11
702.7464185261047
 21
595.0682710051698
 31
0.0
 12
702.3297518594382
 22
597.5682710051699
 32
0.0
 13
702.3297518594382
 23
597.5682710051699
 33
0.0
  0
SOLID
  5
119
330
FE
100
AcDbEntity
  8
0
 62
     0
100
AcDbTrace
 10
701.9130851927715
 20
588.9877491657664
 30
0.0
 11
702.7464185261047
 21
588.9877491657664
 31
0.0
 12
702.3297518594382
 22
586.4877491657664
 32
0.0
 13
702.3297518594382
 23
586.4877491657664
 33
0.0
  0
MTEXT
  5
11A
330
FE
100
AcDbEntity
  8
0
 62
     0
100
AcDbMText
 10
700.2464185261047
 20
592.0280100854682
 30
0.0
 40
2.5
 41
0.0
 71
     5
 72
     1
  1
11,08
 11
0.0000000000000001
 21
1.0
 31
0.0
 73
     1
 44
1.0
  0
POINT
  5
11B
330
FE
100
AcDbEntity
  8
Defpoints
 62
     0
100
AcDbPoint
 10
679.5849852312812
 20
597.5682710051699
 30
0.0
  0
POINT
  5
11C
330
FE
100
AcDbEntity
  8
Defpoints
 62
     0
100
AcDbPoint
 10
702.3297518594382
 20
586.4877491657664
 30
0.0
  0
POINT
  5
11D
330
FE
100
AcDbEntity
  8
Defpoints
 62
     0
100
AcDbPoint
 10
702.3297518594382
 20
586.4877491657664
 30
0.0
  0
ENDBLK
  5
109
330
FE
100
AcDbEntity
  8
0
100
AcDbBlockEnd
  0
BLOCK
  5
129
330
11F
100
AcDbEntity
  8
0
100
AcDbBlockBegin
  2
*D7
 70
     1
 10
0.0
 20
0.0
 30
0.0
  3
*D7
  1

  0
LINE
  5
353
330
11F
100
AcDbEntity
  8
0
 62
     0
370
    -2
100
AcDbLine
 10
680.2099852312813
 20
586.5651184872333
 30
0.0
 11
701.0041152682324
 21
586.5651184872333
 31
0.0
  0
LINE
  5
354
330
11F
100
AcDbEntity
  8
0
 62
     0
370
    -2
100
AcDbLine
 10
680.2099852312813
 20
597.5682710051699
 30
0.0
 11
701.0041152682324
 21
597.5682710051699
 31
0.0
  0
LINE
  5
355
330
11F
100
AcDbEntity
  8
0
 62
     0
370
    -2
100
AcDbLine
 10
699.7541152682324
 20
589.0651184872333
 30
0.0
 11
699.7541152682324
 21
595.0682710051698
 31
0.0
  0
SOLID
  5
356
330
11F
100
AcDbEntity
  8
0
 62
     0
100
AcDbTrace
 10
699.3374486015658
 20
589.0651184872333
 30
0.0
 11
700.1707819348991
 21
589.0651184872333
 31
0.0
 12
699.7541152682324
 22
586.5651184872333
 32
0.0
 13
699.7541152682324
 23
586.5651184872333
 33
0.0
  0
SOLID
  5
357
330
11F
100
AcDbEntity
  8
0
 62
     0
100
AcDbTrace
 10
699.3374486015658
 20
595.0682710051698
 30
0.0
 11
700.1707819348991
 21
595.0682710051698
 31
0.0
 12
699.7541152682324
 22
597.5682710051699
 32
0.0
 13
699.7541152682324
 23
597.5682710051699
 33
0.0
  0
MTEXT
  5
358
330
11F
100
AcDbEntity
  8
0
 62
     0
100
AcDbMText
 10
697.8791152682323
 20
592.0666947462017
 30
0.0
 40
2.5
 41
0.0
 71
     5
 72
     1
  1
11
 11
0.0000000000000001
 21
1.0
 31
0.0
 73
     1
 44
1.0
  0
POINT
  5
359
330
11F
100
AcDbEntity
  8
Defpoints
 62
     0
100
AcDbPoint
 10
679.5849852312812
 20
586.5651184872333
 30
0.0
  0
POINT
  5
35A
330
11F
100
AcDbEntity
  8
Defpoints
 62
     0
100
AcDbPoint
 10
679.5849852312812
 20
597.5682710051699
 30
0.0
  0
POINT
  5
35B
330
11F
100
AcDbEntity
  8
Defpoints
 62
     0
100
AcDbPoint
 10
699.7541152682324
 20
597.5682710051699
 30
0.0
  0
ENDBLK
  5
12A
330
11F
100
AcDbEntity
  8
0
100
AcDbBlockEnd
  0
BLOCK
  5
141
330
137
100
AcDbEntity
  8
0
100
AcDbBlockBegin
  2
*D8
 70
     1
 10
0.0
 20
0.0
 30
0.0
  3
*D8
  1

  0
LINE
  5
34A
330
137
100
AcDbEntity
  8
0
 62
     0
370
    -2
100
AcDbLine
 10
690.2099852312812
 20
614.5682710051771
 30
0.0
 11
701.0041152682324
 21
614.5682710051771
 31
0.0
  0
LINE
  5
34B
330
137
100
AcDbEntity
  8
0
 62
     0
370
    -2
100
AcDbLine
 10
690.2099852312812
 20
597.5682710051699
 30
0.0
 11
701.0041152682324
 21
597.5682710051699
 31
0.0
  0
LINE
  5
34C
330
137
100
AcDbEntity
  8
0
 62
     0
370
    -2
100
AcDbLine
 10
699.7541152682324
 20
612.0682710051771
 30
0.0
 11
699.7541152682324
 21
600.0682710051698
 31
0.0
  0
SOLID
  5
34D
330
137
100
AcDbEntity
  8
0
 62
     0
100
AcDbTrace
 10
699.3374486015658
 20
612.0682710051771
 30
0.0
 11
700.1707819348991
 21
612.0682710051771
 31
0.0
 12
699.7541152682324
 22
614.5682710051771
 32
0.0
 13
699.7541152682324
 23
614.5682710051771
 33
0.0
  0
SOLID
  5
34E
330
137
100
AcDbEntity
  8
0
 62
     0
100
AcDbTrace
 10
699.3374486015658
 20
600.0682710051698
 30
0.0
 11
700.1707819348991
 21
600.0682710051698
 31
0.0
 12
699.7541152682324
 22
597.5682710051699
 32
0.0
 13
699.7541152682324
 23
597.5682710051699
 33
0.0
  0
MTEXT
  5
34F
330
137
100
AcDbEntity
  8
0
 62
     0
100
AcDbMText
 10
697.8791152682323
 20
606.0682710051736
 30
0.0
 40
2.5
 41
0.0
 71
     5
 72
     1
  1
17
 11
0.0000000000000001
 21
1.0
 31
0.0
 73
     1
 44
1.0
  0
POINT
  5
350
330
137
100
AcDbEntity
  8
Defpoints
 62
     0
100
AcDbPoint
 10
689.5849852312813
 20
614.5682710051771
 30
0.0
  0
POINT
  5
351
330
137
100
AcDbEntity
  8
Defpoints
 62
     0
100
AcDbPoint
 10
689.5849852312813
 20
597.5682710051699
 30
0.0
  0
POINT
  5
352
330
137
100
AcDbEntity
  8
Defpoints
 62
     0
100
AcDbPoint
 10
699.7541152682324
 20
597.5682710051699
 30
0.0
  0
ENDBLK
  5
142
330
137
100
AcDbEntity
  8
0
100
AcDbBlockEnd
  0
BLOCK
  5
159
330
14F
100
AcDbEntity
  8
0
100
AcDbBlockBegin
  2
*D9
 70
     1
 10
0.0
 20
0.0
 30
0.0
  3
*D9
  1

  0
LINE
  5
341
330
14F
100
AcDbEntity
  8
0
 62
     0
370
    -2
100
AcDbLine
 10
679.5849852312812
 20
596.9432710051698
 30
0.0
 11
679.5849852312812
 21
590.3693442864821
 31
0.0
  0
LINE
  5
342
330
14F
100
AcDbEntity
  8
0
 62
     0
370
    -2
100
AcDbLine
 10
689.5849852312813
 20
596.9432710051698
 30
0.0
 11
689.5849852312813
 21
590.3693442864821
 31
0.0
  0
LINE
  5
343
330
14F
100
AcDbEntity
  8
0
 62
     0
370
    -2
100
AcDbLine
 10
682.0849852312813
 20
591.6193442864821
 30
0.0
 11
687.0849852312812
 21
591.6193442864821
 31
0.0
  0
SOLID
  5
344
330
14F
100
AcDbEntity
  8
0
 62
     0
100
AcDbTrace
 10
682.0849852312813
 20
592.0360109531487
 30
0.0
 11
682.0849852312813
 21
591.2026776198155
 31
0.0
 12
679.5849852312812
 22
591.6193442864821
 32
0.0
 13
679.5849852312812
 23
591.6193442864821
 33
0.0
  0
SOLID
  5
345
330
14F
100
AcDbEntity
  8
0
 62
     0
100
AcDbTrace
 10
687.0849852312812
 20
592.0360109531487
 30
0.0
 11
687.0849852312812
 21
591.2026776198155
 31
0.0
 12
689.5849852312813
 22
591.6193442864821
 32
0.0
 13
689.5849852312813
 23
591.6193442864821
 33
0.0
  0
MTEXT
  5
346
330
14F
100
AcDbEntity
  8
0
 62
     0
100
AcDbMText
 10
684.5849852312812
 20
593.4943442864821
 30
0.0
 40
2.5
 41
0.0
 71
     5
 72
     1
  1
10
 73
     1
 44
1.0
  0
POINT
  5
347
330
14F
100
AcDbEntity
  8
Defpoints
 62
     0
100
AcDbPoint
 10
679.5849852312812
 20
597.5682710051699
 30
0.0
  0
POINT
  5
348
330
14F
100
AcDbEntity
  8
Defpoints
 62
     0
100
AcDbPoint
 10
689.5849852312813
 20
597.5682710051699
 30
0.0
  0
POINT
  5
349
330
14F
100
AcDbEntity
  8
Defpoints
 62
     0
100
AcDbPoint
 10
689.5849852312813
 20
591.6193442864821
 30
0.0
  0
ENDBLK
  5
15A
330
14F
100
AcDbEntity
  8
0
100
AcDbBlockEnd
  0
BLOCK
  5
166
330
15C
100
AcDbEntity
  8
0
100
AcDbBlockBegin
  2
*D10
 70
     1
 10
0.0
 20
0.0
 30
0.0
  3
*D10
  1

  0
LINE
  5
338
330
15C
100
AcDbEntity
  8
0
 62
     0
370
    -2
100
AcDbLine
 10
672.7061118020349
 20
643.1247473143856
 30
0.0
 11
684.3337143156148
 21
651.1665367637704
 31
0.0
  0
LINE
  5
339
330
15C
100
AcDbEntity
  8
0
 62
     0
370
    -2
100
AcDbLine
 10
682.3761049062325
 20
629.1429293580266
 30
0.0
 11
694.0037074198123
 21
637.1847188074115
 31
0.0
  0
LINE
  5
33A
330
15C
100
AcDbEntity
  8
0
 62
     0
370
    -2
100
AcDbLine
 10
684.7276972753231
 20
648.3993581595854
 30
0.0
 11
691.5535747606391
 21
638.5298396021555
 31
0.0
  0
SOLID
  5
33B
330
15C
100
AcDbEntity
  8
0
 62
     0
100
AcDbTrace
 10
685.0703888919006
 20
648.6363677944923
 30
0.0
 11
684.3850056587457
 21
648.1623485246786
 31
0.0
 12
683.3056394658824
 22
650.45550785905
 32
0.0
 13
683.3056394658824
 23
650.45550785905
 33
0.0
  0
SOLID
  5
33C
330
15C
100
AcDbEntity
  8
0
 62
     0
100
AcDbTrace
 10
691.8962663772165
 20
638.7668492370623
 30
0.0
 11
691.2108831440616
 21
638.292829967249
 31
0.0
 12
692.97563257008
 22
636.473689902691
 32
0.0
 13
692.97563257008
 23
636.473689902691
 33
0.0
  0
MTEXT
  5
33D
330
15C
100
AcDbEntity
  8
0
 62
     0
100
AcDbMText
 10
689.6827482925796
 20
644.5311422379512
 30
0.0
 40
2.5
 41
0.0
 71
     5
 72
     1
  1
17
 11
0.5688231237763368
 21
-0.8224598797858353
 31
0.0
 73
     1
 44
1.0
  0
POINT
  5
33E
330
15C
100
AcDbEntity
  8
Defpoints
 62
     0
100
AcDbPoint
 10
672.1920743771686
 20
642.7692328620254
 30
0.0
  0
POINT
  5
33F
330
15C
100
AcDbEntity
  8
Defpoints
 62
     0
100
AcDbPoint
 10
681.8620674813662
 20
628.7874149056664
 30
0.0
  0
POINT
  5
340
330
15C
100
AcDbEntity
  8
Defpoints
 62
     0
100
AcDbPoint
 10
692.97563257008
 20
636.473689902691
 30
0.0
  0
ENDBLK
  5
167
330
15C
100
AcDbEntity
  8
0
100
AcDbBlockEnd
  0
BLOCK
  5
17E
330
174
100
AcDbEntity
  8
0
100
AcDbBlockBegin
  2
*D11
 70
     1
 10
0.0
 20
0.0
 30
0.0
  3
*D11
  1

  0
LINE
  5
32F
330
174
100
AcDbEntity
  8
0
 62
     0
370
    -2
100
AcDbLine
 10
657.940047080761
 20
646.8948046941628
 30
0.0
 11
677.792248392205
 21
660.6248253812948
 31
0.0
  0
LINE
  5
330
330
174
100
AcDbEntity
  8
0
 62
     0
370
    -2
100
AcDbLine
 10
664.4815130041823
 20
637.4365160766215
 30
0.0
 11
684.3337143156262
 21
651.1665367637534
 31
0.0
  0
LINE
  5
331
330
174
100
AcDbEntity
  8
0
 62
     0
370
    -2
100
AcDbLine
 10
678.1862313519117
 20
657.8576467771096
 30
0.0
 11
681.883581656454
 21
652.5116575584993
 31
0.0
  0
SOLID
  5
332
330
174
100
AcDbEntity
  8
0
 62
     0
100
AcDbTrace
 10
678.5289229684893
 20
658.0946564120161
 30
0.0
 11
677.8435397353341
 21
657.620637142203
 31
0.0
 12
676.7641735424722
 22
659.9137964765751
 32
0.0
 13
676.7641735424722
 23
659.9137964765751
 33
0.0
  0
SOLID
  5
333
330
174
100
AcDbEntity
  8
0
 62
     0
100
AcDbTrace
 10
682.2262732730316
 20
652.7486671934058
 30
0.0
 11
681.5408900398765
 21
652.2746479235927
 31
0.0
 12
683.3056394658934
 22
650.4555078590337
 32
0.0
 13
683.3056394658934
 23
650.4555078590337
 33
0.0
  0
MTEXT
  5
334
330
174
100
AcDbEntity
  8
0
 62
     0
100
AcDbMText
 10
681.7483645870707
 20
656.3697003423373
 30
0.0
 40
2.5
 41
0.0
 71
     5
 72
     1
  1
11,5
 11
0.5688231237757688
 21
-0.8224598797862279
 31
0.0
 73
     1
 44
1.0
  0
POINT
  5
335
330
174
100
AcDbEntity
  8
Defpoints
 62
     0
100
AcDbPoint
 10
657.4260096558946
 20
646.5392902418029
 30
0.0
  0
POINT
  5
336
330
174
100
AcDbEntity
  8
Defpoints
 62
     0
100
AcDbPoint
 10
663.9674755793159
 20
637.0810016242615
 30
0.0
  0
POINT
  5
337
330
174
100
AcDbEntity
  8
Defpoints
 62
     0
100
AcDbPoint
 10
683.3056394658934
 20
650.4555078590337
 30
0.0
  0
ENDBLK
  5
17F
330
174
100
AcDbEntity
  8
0
100
AcDbBlockEnd
  0
BLOCK
  5
197
330
18C
100
AcDbEntity
  8
0
100
AcDbBlockBegin
  2
*D12
 70
     1
 10
0.0
 20
0.0
 30
0.0
  3
*D12
  1

  0
LINE
  5
325
330
18C
100
AcDbEntity
  8
0
 62
     0
370
    -2
100
AcDbLine
 10
680.0515876913716
 20
614.9237854575373
 30
0.0
 11
699.9037890028062
 21
628.6538061446828
 31
0.0
  0
LINE
  5
326
330
18C
100
AcDbEntity
  8
0
 62
     0
370
    -2
100
AcDbLine
 10
674.1515061083795
 20
623.4546981202626
 30
0.0
 11
694.0037074198139
 21
637.1847188074081
 31
0.0
  0
LINE
  5
327
330
18C
100
AcDbEntity
  8
0
 62
     0
370
    -2
100
AcDbLine
 10
694.3976903795226
 20
634.4175402032231
 30
0.0
 11
697.4536563436331
 21
629.9989269394269
 31
0.0
  0
LINE
  5
328
330
18C
100
AcDbEntity
  8
0
 62
     0
370
    -2
100
AcDbLine
 10
698.875714153074
 20
627.9427772399623
 30
0.0
 11
706.223012835185
 21
617.3193371260618
 31
0.0
  0
SOLID
  5
329
330
18C
100
AcDbEntity
  8
0
 62
     0
100
AcDbTrace
 10
694.7403819960999
 20
634.6545498381299
 30
0.0
 11
694.0549987629451
 21
634.1805305683163
 31
0.0
 12
692.9756325700817
 22
636.4736899026876
 32
0.0
 13
692.9756325700817
 23
636.4736899026876
 33
0.0
  0
SOLID
  5
32A
330
18C
100
AcDbEntity
  8
0
 62
     0
100
AcDbTrace
 10
697.7963479602106
 20
630.2359365743337
 30
0.0
 11
697.1109647270557
 21
629.7619173045202
 31
0.0
 12
698.875714153074
 22
627.9427772399623
 32
0.0
 13
698.875714153074
 23
627.9427772399623
 33
0.0
  0
MTEXT
  5
32B
330
18C
100
AcDbEntity
  8
0
 62
     0
100
AcDbMText
 10
704.9738504817371
 20
622.7880305078139
 30
0.0
 40
2.5
 41
0.0
 71
     5
 72
     1
  1
10,37
 11
0.5688231237763293
 21
-0.8224598797858401
 31
0.0
 73
     1
 44
1.0
  0
POINT
  5
32C
330
18C
100
AcDbEntity
  8
Defpoints
 62
     0
100
AcDbPoint
 10
679.5375502665055
 20
614.5682710051771
 30
0.0
  0
POINT
  5
32D
330
18C
100
AcDbEntity
  8
Defpoints
 62
     0
100
AcDbPoint
 10
673.6374686835134
 20
623.0991836679025
 30
0.0
  0
POINT
  5
32E
330
18C
100
AcDbEntity
  8
Defpoints
 62
     0
100
AcDbPoint
 10
692.9756325700817
 20
636.4736899026876
 30
0.0
  0
ENDBLK
  5
198
330
18C
100
AcDbEntity
  8
0
100
AcDbBlockEnd
  0
BLOCK
  5
227
330
21D
100
AcDbEntity
  8
0
100
AcDbBlockBegin
  2
*D13
 70
     1
 10
0.0
 20
0.0
 30
0.0
  3
*D13
  1

  0
LINE
  5
31C
330
21D
100
AcDbEntity
  8
0
 62
     0
370
    -2
100
AcDbLine
 10
614.5846655535487
 20
600.4352684017578
 30
0.0
 11
614.5846655535487
 21
591.8892873022498
 31
0.0
  0
LINE
  5
31D
330
21D
100
AcDbEntity
  8
0
 62
     0
370
    -2
100
AcDbLine
 10
640.0849854122307
 20
600.4365830188037
 30
0.0
 11
640.0849854122307
 21
591.8892873022498
 31
0.0
  0
LINE
  5
31E
330
21D
100
AcDbEntity
  8
0
 62
     0
370
    -2
100
AcDbLine
 10
617.0846655535488
 20
593.1392873022498
 30
0.0
 11
637.5849854122307
 21
593.1392873022498
 31
0.0
  0
SOLID
  5
31F
330
21D
100
AcDbEntity
  8
0
 62
     0
100
AcDbTrace
 10
617.0846655535488
 20
593.5559539689164
 30
0.0
 11
617.0846655535488
 21
592.7226206355832
 31
0.0
 12
614.5846655535487
 22
593.1392873022498
 32
0.0
 13
614.5846655535487
 23
593.1392873022498
 33
0.0
  0
SOLID
  5
320
330
21D
100
AcDbEntity
  8
0
 62
     0
100
AcDbTrace
 10
637.5849854122307
 20
593.5559539689164
 30
0.0
 11
637.5849854122307
 21
592.7226206355832
 31
0.0
 12
640.0849854122307
 22
593.1392873022498
 32
0.0
 13
640.0849854122307
 23
593.1392873022498
 33
0.0
  0
MTEXT
  5
321
330
21D
100
AcDbEntity
  8
0
 62
     0
100
AcDbMText
 10
627.3348254828897
 20
595.0142873022498
 30
0.0
 40
2.5
 41
0.0
 71
     5
 72
     1
  1
25.5
 73
     1
 44
1.0
  0
POINT
  5
322
330
21D
100
AcDbEntity
  8
Defpoints
 62
     0
100
AcDbPoint
 10
614.5846655535487
 20
601.0602684017579
 30
0.0
  0
POINT
  5
323
330
21D
100
AcDbEntity
  8
Defpoints
 62
     0
100
AcDbPoint
 10
640.0849854122307
 20
601.0615830188037
 30
0.0
  0
POINT
  5
324
330
21D
100
AcDbEntity
  8
Defpoints
 62
     0
100
AcDbPoint
 10
640.0849854122307
 20
593.1392873022498
 30
0.0
  0
ENDBLK
  5
228
330
21D
100
AcDbEntity
  8
0
100
AcDbBlockEnd
  0
BLOCK
  5
266
330
25C
100
AcDbEntity
  8
0
100
AcDbBlockBegin
  2
*D14
 70
     1
 10
0.0
 20
0.0
 30
0.0
  3
*D14
  1

  0
POINT
  5
317
330
25C
100
AcDbEntity
  8
Defpoints
 62
     0
100
AcDbPoint
 10
685.1602862217447
 20
619.8240853506465
 30
0.0
  0
POINT
  5
318
330
25C
100
AcDbEntity
  8
Defpoints
 62
     0
100
AcDbPoint
 10
677.0270709292674
 20
635.7783238838457
 30
0.0
  0
POINT
  5
319
330
25C
100
AcDbEntity
  8
Defpoints
 62
     0
100
AcDbPoint
 10
689.5849852312813
 20
606.0682710051735
 30
0.0
  0
POINT
  5
31A
330
25C
100
AcDbEntity
  8
Defpoints
 62
     0
100
AcDbPoint
 10
689.5849852312813
 20
606.0682710051735
 30
0.0
  0
POINT
  5
31B
330
25C
100
AcDbEntity
  8
Defpoints
 62
     0
100
AcDbPoint
 10
677.0270709292674
 20
635.7783238838457
 30
0.0
  0
ENDBLK
  5
267
330
25C
100
AcDbEntity
  8
0
100
AcDbBlockEnd
  0
BLOCK
  5
2C1
330
2B5
100
AcDbEntity
  8
0
100
AcDbBlockBegin
  2
*D15
 70
     1
 10
0.0
 20
0.0
 30
0.0
  3
*D15
  1

  0
LINE
  5
30C
330
2B5
100
AcDbEntity
  8
0
 62
     0
370
    -2
100
AcDbLine
 10
700.3791152682325
 20
606.0682710051736
 30
0.0
 11
719.9213154233646
 21
606.0682710051736
 31
0.0
  0
LINE
  5
30D
330
2B5
100
AcDbEntity
  8
0
 62
     0
370
    -2
100
AcDbLine
 10
688.6546734428474
 20
643.8201133332309
 30
0.0
 11
704.6791529326315
 21
654.9028356693554
 31
0.0
  0
ARC
  5
30E
330
2B5
100
AcDbEntity
  8
0
 62
     0
370
    -2
100
AcDbCircle
 10
634.069382506194
 20
606.0682710051739
 30
0.0
 40
84.6019329171704
100
AcDbArc
 50
1.693160616462637
 51
32.97503868919116
  0
SOLID
  5
30F
330
2B5
100
AcDbEntity
  8
0
 62
     0
100
AcDbTrace
 10
719.0509989174463
 20
608.5741543934087
 30
0.0
 11
718.2177565486089
 21
608.5618418299632
 31
0.0
 12
718.6713154233646
 22
606.0682710051735
 32
0.0
 13
718.6713154233646
 23
606.0682710051735
 33
0.0
  0
SOLID
  5
310
330
2B5
100
AcDbEntity
  8
0
 62
     0
100
AcDbTrace
 10
704.6964448512063
 20
651.8829500278862
 30
0.0
 11
705.3887569405135
 21
652.3467909655397
 31
0.0
 12
703.6510780828993
 22
654.1918067646349
 32
0.0
 13
703.6510780828993
 23
654.1918067646349
 33
0.0
  0
MTEXT
  5
311
330
2B5
100
AcDbEntity
  8
0
 62
     0
100
AcDbMText
 10
716.6188485466589
 20
631.8334720172937
 30
0.0
 40
2.5
 41
0.0
 71
     5
 72
     1
  1
35°
 11
0.2979430484288632
 21
-0.9545836474049384
 31
0.0
 73
     1
 44
1.0
  0
POINT
  5
312
330
2B5
100
AcDbEntity
  8
Defpoints
 62
     0
100
AcDbPoint
 10
716.9563619266272
 20
623.0163002675424
 30
0.0
  0
POINT
  5
313
330
2B5
100
AcDbEntity
  8
Defpoints
 62
     0
100
AcDbPoint
 10
688.1406360179811
 20
643.4645988808706
 30
0.0
  0
POINT
  5
314
330
2B5
100
AcDbEntity
  8
Defpoints
 62
     0
100
AcDbPoint
 10
689.5849852312814
 20
606.0682710051737
 30
0.0
  0
POINT
  5
315
330
2B5
100
AcDbEntity
  8
Defpoints
 62
     0
100
AcDbPoint
 10
699.7541152682327
 20
606.0682710051736
 30
0.0
  0
POINT
  5
316
330
2B5
100
AcDbEntity
  8
Defpoints
 62
     0
100
AcDbPoint
 10
677.0270709292675
 20
635.7783238838457
 30
0.0
  0
ENDBLK
  5
2C2
330
2B5
100
AcDbEntity
  8
0
100
AcDbBlockEnd
  0
ENDSEC
  0
SECTION
  2
ENTITIES
  0
DIMENSION
  5
8D
330
1F
100
AcDbEntity
  8
0
 62
   252
100
AcDbDimension
  2
*D2
 10
605.8357871369381
 20
601.0602684017579
 30
0.0
 11
603.9607871369379
 21
606.0602683594046
 31
0.0
 70
    32
 71
     5
 42
9.999999915293301
  3
ISO-25
100
AcDbAlignedDimension
 13
614.58315729687
 23
611.0602683170512
 33
0.0
 14
614.5846655535487
 24
601.0602684017579
 34
0.0
 50
90.0
100
AcDbRotatedDimension
  0
DIMENSION
  5
A6
330
1F
100
AcDbEntity
  8
0
 62
   252
100
AcDbDimension
  2
*D3
 10
605.8357871369381
 20
611.0602683170512
 30
0.0
 11
605.8357871369381
 21
626.4919112365743
 31
0.0
 70
   160
 71
     5
 42
5.848309586189657
  3
ISO-25
100
AcDbAlignedDimension
 13
614.5830395140781
 23
616.9085779032408
 33
0.0
 14
614.58315729687
 24
611.0602683170512
 34
0.0
 50
90.0
100
AcDbRotatedDimension
  0
DIMENSION
  5
CD
330
1F
100
AcDbEntity
  8
0
 62
   252
100
AcDbDimension
  2
*D4
 10
605.8357871369381
 20
601.0602684017579
 30
0.0
 11
603.7524538036045
 21
593.8102683935142
 31
0.0
 70
    32
 71
     5
 42
14.50000001648732
  3
ISO-25
100
AcDbAlignedDimension
 13
614.5849854122307
 23
586.5602683852706
 33
0.0
 14
614.5846655535487
 24
601.0602684017579
 34
0.0
 50
90.0
100
AcDbRotatedDimension
  0
DIMENSION
  5
E5
330
1F
100
AcDbEntity
  8
0
 62
   252
100
AcDbDimension
  2
*D5
 10
679.5849852312812
 20
577.59983290888
 30
0.0
 11
647.084985321756
 21
579.4748329088799
 31
0.0
 70
    32
 71
     5
 42
64.99999981905057
  3
ISO-25
100
AcDbAlignedDimension
 13
614.5849854122307
 23
586.5602683852706
 33
0.0
 14
679.5849852312812
 24
586.5651184872333
 34
0.0
100
AcDbRotatedDimension
  0
DIMENSION
  5
11E
330
1F
100
AcDbEntity
  8
0
 62
   252
100
AcDbDimension
  2
*D7
 10
699.7541152682324
 20
597.5682710051699
 30
0.0
 11
697.8791152682323
 21
592.0666947462017
 31
0.0
 70
    32
 71
     5
 42
11.00315251793654
  3
ISO-25
100
AcDbAlignedDimension
 13
679.5849852312812
 23
586.5651184872333
 33
0.0
 14
679.5849852312812
 24
597.5682710051699
 34
0.0
 50
90.0
100
AcDbRotatedDimension
  0
DIMENSION
  5
136
330
1F
100
AcDbEntity
  8
0
 62
   252
100
AcDbDimension
  2
*D8
 10
699.7541152682324
 20
597.5682710051699
 30
0.0
 11
697.8791152682323
 21
606.0682710051736
 31
0.0
 70
    32
 71
     5
 42
17.00000000000727
  3
ISO-25
100
AcDbAlignedDimension
 13
689.5849852312813
 23
614.5682710051771
 33
0.0
 14
689.5849852312813
 24
597.5682710051699
 34
0.0
 50
90.0
100
AcDbRotatedDimension
  0
DIMENSION
  5
14E
330
1F
100
AcDbEntity
  8
0
 62
   252
100
AcDbDimension
  2
*D9
 10
689.5849852312813
 20
591.6193442864821
 30
0.0
 11
684.5849852312812
 21
593.4943442864821
 31
0.0
 70
    32
 71
     5
 42
10.0
  3
ISO-25
100
AcDbAlignedDimension
 13
679.5849852312812
 23
597.5682710051699
 33
0.0
 14
689.5849852312813
 24
597.5682710051699
 34
0.0
100
AcDbRotatedDimension
  0
DIMENSION
  5
15B
330
1F
100
AcDbEntity
  8
0
 62
   252
100
AcDbDimension
  2
*D10
 10
692.97563257008
 20
636.473689902691
 30
0.0
 11
689.6827482925796
 21
644.5311422379512
 31
0.0
 70
    33
 71
     5
 42
16.99999999999977
  3
ISO-25
100
AcDbAlignedDimension
 13
672.1920743771686
 23
642.7692328620253
 33
0.0
 14
681.8620674813662
 24
628.7874149056663
 34
0.0
  0
DIMENSION
  5
173
330
1F
100
AcDbEntity
  8
0
 62
   252
100
AcDbDimension
  2
*D11
 10
683.3056394658934
 20
650.4555078590337
 30
0.0
 11
681.7483645870707
 21
656.3697003423373
 31
0.0
 70
    33
 71
     5
 42
11.49999999999977
  3
ISO-25
100
AcDbAlignedDimension
 13
657.4260096558945
 23
646.5392902418029
 33
0.0
 14
663.9674755793158
 24
637.0810016242614
 34
0.0
  0
DIMENSION
  5
18B
330
1F
100
AcDbEntity
  8
0
 62
   252
100
AcDbDimension
  2
*D12
 10
692.9756325700817
 20
636.4736899026876
 30
0.0
 11
703.2603923988499
 21
621.6029823332798
 31
0.0
 70
   161
 71
     5
 42
10.37243623962138
  3
ISO-25
100
AcDbAlignedDimension
 13
679.5375502665056
 23
614.5682710051771
 33
0.0
 14
673.6374686835134
 24
623.0991836679025
 34
0.0
  0
LWPOLYLINE
  5
1AF
330
1F
100
AcDbEntity
  8
0
 62
   252
100
AcDbPolyline
 90
        2
 70
     0
 43
0.0
 10
663.9674755793158
 20
637.0810016242614
 10
672.1920743771744
 20
642.7692328620168
  0
LWPOLYLINE
  5
1B3
102
{ACAD_REACTORS
330
233
102
}
330
1F
100
AcDbEntity
  8
CADRE
  6
Continuous
 62
     0
100
AcDbPolyline
 90
       17
 70
     1
 43
0.0
 10
614.5846655535487
 20
601.0602684017579
 10
614.5849854122307
 20
586.5602683852706
 10
679.5849852312812
 20
586.5651184872333
 10
679.5849852312812
 20
597.5682710051699
 10
689.5849852312813
 20
597.5682710051699
 10
689.5849852312813
 20
614.5682710051771
 10
679.5375502665056
 20
614.5682710051771
 10
673.6374686835134
 20
623.0991836679025
 10
681.8620674813662
 20
628.7874149056663
 10
672.1920743771686
 20
642.7692328620253
 10
663.9674755793158
 20
637.0810016242614
 10
657.4260096558944
 20
646.5392902418029
 10
614.5830395140107
 20
616.9085779031943
 10
614.58315729687
 20
611.0602683170512
 10
640.0849854122307
 20
611.0608067671931
 10
640.0849854122307
 20
601.0615830188037
 10
614.5846655535487
 20
601.0602684017579
  0
DIMENSION
  5
21C
102
{ACAD_XDICTIONARY
360
229
102
}
102
{ACAD_REACTORS
330
233
102
}
330
1F
100
AcDbEntity
  8
0
 62
   252
100
AcDbDimension
  2
*D13
 10
640.0849854122307
 20
593.1392873022498
 30
0.0
 11
627.3348254828897
 21
595.0142873022498
 31
0.0
 70
    32
  1
25.5
 71
     5
 42
25.50031985868191
  3
ISO-25
100
AcDbAlignedDimension
 13
614.5846655535487
 23
601.0602684017579
 33
0.0
 14
640.0849854122307
 24
601.0615830188037
 34
0.0
100
AcDbRotatedDimension
  0
LWPOLYLINE
  5
247
330
1F
100
AcDbEntity
  8
0
 62
   252
100
AcDbPolyline
 90
        2
 70
     0
 43
0.0
 10
614.5849854122307
 20
586.5602683852706
 10
614.5849854122307
 20
635.5715360203856
  0
DIMENSION
  5
25B
330
1F
100
AcDbEntity
  8
0
 62
   252
100
AcDbDimension
  2
*D14
 10
677.0270709292674
 20
635.7783238838457
 30
0.0
 11
685.1602862217447
 21
619.8240853506465
 31
0.0
 70
    34
 71
     5
 42
-1.0
  3
ISO-25
100
AcDb2LineAngularDimension
 13
689.5849852312813
 23
606.0682710051735
 33
0.0
 14
689.5849852312813
 24
606.0682710051735
 34
0.0
 15
677.0270709292674
 25
635.7783238838457
 35
0.0
 16
685.1602862217447
 26
619.8240853506465
 36
0.0
  0
DIMENSION
  5
2B4
330
1F
100
AcDbEntity
  8
0
 62
   252
100
AcDbDimension
  2
*D15
 10
677.0270709292674
 20
635.7783238838457
 30
0.0
 11
716.618848546659
 21
631.8334720172937
 31
0.0
 70
    34
 71
     5
 42
0.605074223621277
  3
ISO-25
100
AcDb2LineAngularDimension
 13
689.5849852312813
 23
606.0682710051735
 33
0.0
 14
699.7541152682324
 24
606.0682710051735
 34
0.0
 15
688.1406360179811
 25
643.4645988808705
 35
0.0
 16
716.9563619266272
 26
623.0163002675424
 36
0.0
  0
VIEWPORT
  5
386
330
50
100
AcDbEntity
 67
     1
  8
0
100
AcDbViewport
 10
274.7192348124075
 20
52.2878692180256
 30
0.0
 40
1486.13377176947
 41
634.9667229316479
 68
     1
 69
     1
 12
274.7192348124075
 22
52.2878692180256
 13
0.0
 23
0.0
 14
10.0
 24
10.0
 15
10.0
 25
10.0
 16
0.0
 26
0.0
 36
1.0
 17
0.0
 27
0.0
 37
0.0
 42
50.0
 43
0.0
 44
0.0
 45
634.9667229316479
 50
0.0
 51
0.0
 72
  1000
 90
    32800
  1

281
     0
 71
     1
 74
     0
110
0.0
120
0.0
130
0.0
111
1.0
121
0.0
131
0.0
112
0.0
122
1.0
132
0.0
 79
     0
146
0.0
170
     0
  0
VIEWPORT
  5
388
330
50
100
AcDbEntity
 67
     1
  8
0
100
AcDbViewport
 10
145.258106274112
 20
101.3862919616639
 30
0.0
 40
289.8080622016916
 41
203.8761995443626
 68
     2
 69
     2
 12
661.9190877041213
 22
618.264970365433
 13
0.0
 23
0.0
 14
10.0
 24
10.0
 15
10.0
 25
10.0
 16
0.0
 26
0.0
 36
1.0
 17
0.0
 27
0.0
 37
0.0
 42
50.0
 43
0.0
 44
0.0
 45
106.8523213917618
 50
0.0
 51
0.0
 72
  1000
 90
    32864
  1

281
     0
 71
     1
 74
     0
110
0.0
120
0.0
130
0.0
111
1.0
121
0.0
131
0.0
112
0.0
122
1.0
132
0.0
 79
     0
146
0.0
170
     0
  0
ENDSEC
  0
SECTION
  2
OBJECTS
  0
DICTIONARY
  5
C
330
0
100
AcDbDictionary
281
     1
  3
ACAD_COLOR
350
6B
  3
ACAD_GROUP
350
D
  3
ACAD_LAYOUT
350
1A
  3
ACAD_MATERIAL
350
6A
  3
ACAD_MLINESTYLE
350
17
  3
ACAD_PLOTSETTINGS
350
19
  3
ACAD_PLOTSTYLENAME
350
E
  3
AcDbVariableDictionary
350
5E
  0
DICTIONARY
  5
84
330
2
100
AcDbDictionary
280
     1
281
     1
  3
ACAD_LAYERSTATES
360
85
  0
DICTIONARY
  5
88
330
86
100
AcDbDictionary
280
     1
281
     1
  3
ACAD_SORTENTS
360
89
  0
DICTIONARY
  5
229
330
21C
100
AcDbDictionary
280
     1
281
     1
  3
ACAD_DIMASSOC
360
233
  0
DICTIONARY
  5
6B
102
{ACAD_REACTORS
330
C
102
}
330
C
100
AcDbDictionary
281
     1
  0
DICTIONARY
  5
D
102
{ACAD_REACTORS
330
C
102
}
330
C
100
AcDbDictionary
281
     1
  0
DICTIONARY
  5
1A
102
{ACAD_REACTORS
330
C
102
}
330
C
100
AcDbDictionary
281
     1
  3
Layout1
350
51
  3
Layout2
350
56
  3
Model
350
22
  0
DICTIONARY
  5
6A
102
{ACAD_REACTORS
330
C
102
}
330
C
100
AcDbDictionary
281
     1
  0
DICTIONARY
  5
17
102
{ACAD_REACTORS
330
C
102
}
330
C
100
AcDbDictionary
281
     1
  3
Standard
350
18
  0
DICTIONARY
  5
19
102
{ACAD_REACTORS
330
C
102
}
330
C
100
AcDbDictionary
281
     1
  0
ACDBDICTIONARYWDFLT
  5
E
102
{ACAD_REACTORS
330
C
102
}
330
C
100
AcDbDictionary
281
     1
  3
Normal
350
F
100
AcDbDictionaryWithDefault
340
F
  0
DICTIONARY
  5
5E
102
{ACAD_REACTORS
330
C
102
}
330
C
100
AcDbDictionary
281
     1
  3
DIMASSOC
350
5F
  3
HIDETEXT
350
63
  0
DICTIONARY
  5
85
102
{ACAD_REACTORS
330
84
102
}
330
84
100
AcDbDictionary
281
     1
  0
SORTENTSTABLE
  5
89
102
{ACAD_REACTORS
330
88
102
}
330
88
100
AcDbSortentsTable
330
86
  0
DIMASSOC
  5
233
102
{ACAD_REACTORS
330
229
102
}
330
229
100
AcDbDimAssoc
330
21C
 90
        3
 70
     0
 71
     0
  1
AcDbOsnapPointRef
 72
     1
331
1B3
 73
     2
 91
       16
 40
0.9999999999999998
 10
0.0
 20
0.0
 30
2.000000000000000E+50
 75
     0
  1
AcDbOsnapPointRef
 72
     1
331
1B3
 73
     2
 91
       15
 40
1.0
 10
0.0
 20
0.0
 30
2.000000000000000E+50
 75
     0
  0
LAYOUT
  5
51
102
{ACAD_REACTORS
330
1A
102
}
330
1A
100
AcDbPlotSettings
  1

  2
doPDF 9
  4
A4
  6

 40
3.174999952316284
 41
3.174999952316284
 42
3.175003051757812
 43
3.17498779296875
 44
209.9733276367187
 45
297.0106506347656
 46
0.0
 47
0.0
 48
0.0
 49
0.0
140
0.0
141
0.0
142
1.0
143
1.0
 70
   688
 72
     1
 73
     1
 74
     5
  7

 75
    16
147
1.0
 76
     1
 77
     2
 78
   150
148
0.0
149
0.0
100
AcDbLayout
  1
Layout1
 70
     1
 71
     1
 10
-3.17498779296875
 20
-3.174999952316284
 11
293.8356628417969
 21
206.7983276844024
 12
0.0
 22
0.0
 32
0.0
 14
0.3540751732662102
 24
-0.5518078105173459
 34
0.0
 15
290.1621373749579
 25
203.3243917338452
 35
0.0
146
0.0
 13
0.0
 23
0.0
 33
0.0
 16
1.0
 26
0.0
 36
0.0
 17
0.0
 27
1.0
 37
0.0
 76
     0
330
50
331
386
  0
LAYOUT
  5
56
102
{ACAD_REACTORS
330
1A
102
}
330
1A
100
AcDbPlotSettings
  1

  2
None
  4

  6

 40
0.0
 41
0.0
 42
0.0
 43
0.0
 44
0.0
 45
0.0
 46
0.0
 47
0.0
 48
0.0
 49
0.0
140
0.0
141
0.0
142
1.0
143
1.0
 70
   688
 72
     0
 73
     0
 74
     5
  7

 75
    16
147
1.0
 76
     0
 77
     2
 78
   300
148
0.0
149
0.0
100
AcDbLayout
  1
Layout2
 70
     1
 71
     2
 10
0.0
 20
0.0
 11
12.0
 21
9.0
 12
0.0
 22
0.0
 32
0.0
 14
0.0
 24
0.0
 34
0.0
 15
0.0
 25
0.0
 35
0.0
146
0.0
 13
0.0
 23
0.0
 33
0.0
 16
1.0
 26
0.0
 36
0.0
 17
0.0
 27
1.0
 37
0.0
 76
     0
330
55
  0
LAYOUT
  5
22
102
{ACAD_REACTORS
330
1A
102
}
330
1A
100
AcDbPlotSettings
  1

  2
none_device
  4
ANSI_A_(8.50_x_11.00_Inches)
  6

 40
6.349999904632568
 41
19.04999923706055
 42
6.350006103515625
 43
19.04998779296875
 44
215.8999938964844
 45
279.3999938964844
 46
0.0
 47
0.0
 48
0.0
 49
0.0
140
0.0
141
0.0
142
1.0
143
78.436453180766
 70
 11952
 72
     0
 73
     1
 74
     0
  7

 75
     0
147
0.0127491741332998
 76
     0
 77
     2
 78
   300
148
0.0
149
0.0
100
AcDbLayout
  1
Model
 70
     1
 71
     0
 10
0.0
 20
0.0
 11
12.0
 21
9.0
 12
0.0
 22
0.0
 32
0.0
 14
0.0
 24
0.0
 34
0.0
 15
0.0
 25
0.0
 35
0.0
146
0.0
 13
0.0
 23
0.0
 33
0.0
 16
1.0
 26
0.0
 36
0.0
 17
0.0
 27
1.0
 37
0.0
 76
     0
330
1F
  0
MLINESTYLE
  5
18
102
{ACAD_REACTORS
330
17
102
}
330
17
100
AcDbMlineStyle
  2
STANDARD
 70
     0
  3

 62
   256
 51
90.0
 52
90.0
 71
     2
 49
0.5
 62
   256
  6
BYLAYER
 49
-0.5
 62
   256
  6
BYLAYER
  0
ACDBPLACEHOLDER
  5
F
102
{ACAD_REACTORS
330
E
102
}
330
E
  0
DICTIONARYVAR
  5
5F
102
{ACAD_REACTORS
330
5E
102
}
330
5E
100
DictionaryVariables
280
     0
  1
2
  0
DICTIONARYVAR
  5
63
102
{ACAD_REACTORS
330
5E
102
}
330
5E
100
DictionaryVariables
280
     0
  1
1
  0
ENDSEC
  0
EOF
