999
DXF file: roue_codeuse.dxf
999
Pro/ENGINEER 2016100 by Parametric Technology Corporation
  0
SECTION
  2
HEADER
  9
$EXTMAX
 10
420.0
 20
297.0
 30
0.0
  9
$EXTMIN
 10
0.0
 20
0.0
 30
0.0
  9
$LIMMIN
 10
0.0
 20
0.0
  9
$LIMMAX
 10
420.0
 20
297.0
  9
$VIEWCTR
 10
210.0
 20
148.5
  9
$VIEWSIZE
 40
297.0
  9
$CLAYER
  8
0
  9
$LTSCALE
 40
23.1
  9
$CELTYPE
  6
BYLAYER
  9
$DIMSCALE
 40
1.0
  9
$DIMASZ
 40
3.5
  9
$DIMEXO
 40
0.0
  9
$DIMDLI
 40
15.96
  9
$DIMEXE
 40
2.0
  9
$DIMCEN
 40
3.78
  9
$DIMLFAC
 40
1.0
  9
$DIMBLK
  1
_FILLED
  9
$DIMALT
 70
0
  9
$DIMALTF
 40
0.0393700787
  9
$DIMTXT
 40
3.5
  9
$AUNITS
 70
0
  9
$PDMODE
 70
3
  9
$PDSIZE
 40
1.5
  9
$TILEMODE
 70
1
  0
ENDSEC
  0
SECTION
  2
TABLES
  0
TABLE
  2
LTYPE
 70
6
  0
LTYPE
  2
BYBLOCK
 70
0
  3

 72
65
 73
0
 40
0.0
  0
LTYPE
  2
BYLAYER
 70
0
  3

 72
65
 73
0
 40
0.0
  0
LTYPE
  2
CONTINUOUS
 70
64
  3
Solid line
 72
65
 73
0
 40
0.0
  0
LTYPE
  2
CENTER
 70
64
  3
____ _ ____ _ ____ _ ____ _ ____ _ ____ _ ____
 72
65
 73
4
 40
0.6
 49
0.375
 49
-0.075
 49
0.075
 49
-0.075
  0
LTYPE
  2
HIDDEN
 70
64
  3
- - - - - - - - - - - - - - - - - - - -
 72
65
 73
2
 40
0.2
 49
0.1
 49
-0.1
  0
LTYPE
  2
PHANTOM
 70
64
  3
_____ _ _ _____ _ _ _____ _ _ _____
 72
65
 73
6
 40
0.8
 49
0.45
 49
-0.05
 49
0.1
 49
-0.05
 49
0.1
 49
-0.05
  0
LTYPE
  2
DOT
 70
64
  3
. . . . . . . . . . . . . . . . . . . .
 72
65
 73
2
 40
0.2
 49
0.1
 49
-0.1
  0
LTYPE
  2
DASHED
 70
64
  3
- - - - - - - - - - - - - - - - - - - -
 72
65
 73
2
 40
0.2
 49
0.1
 49
-0.1
  0
ENDTAB
  0
TABLE
  2
LAYER
 70
36
  0
LAYER
  2
0
 70
0
 62
7
  6
CONTINUOUS
  0
LAYER
  2
DEFAULT_1
 70
0
 62
7
  6
CENTER
  0
LAYER
  2
DEFAULT_2
 70
0
 62
8
  6
HIDDEN
  0
LAYER
  2
DEFAULT_3
 70
0
 62
7
  6
PHANTOM
  0
LAYER
  2
1_STD
 70
0
 62
7
  6
CONTINUOUS
  0
LAYER
  2
D_AXIS
 70
0
 62
7
  6
CONTINUOUS
  0
LAYER
  2
D_COPG
 70
0
 62
7
  6
CONTINUOUS
  0
LAYER
  2
D_COSM
 70
0
 62
7
  6
CONTINUOUS
  0
LAYER
  2
D_CRV
 70
0
 62
7
  6
CONTINUOUS
  0
LAYER
  2
D_CSYS
 70
0
 62
7
  6
CONTINUOUS
  0
LAYER
  2
D_DTM
 70
0
 62
7
  6
CONTINUOUS
  0
LAYER
  2
D_FANGLINIEN
 70
0
 62
7
  6
CONTINUOUS
  0
LAYER
  2
D_GEOMTOL
 70
0
 62
7
  6
CONTINUOUS
  0
LAYER
  2
D_NOTE
 70
0
 62
7
  6
CONTINUOUS
  0
LAYER
  2
D_PNT
 70
0
 62
7
  6
CONTINUOUS
  0
LAYER
  2
D_PUBG
 70
0
 62
7
  6
CONTINUOUS
  0
LAYER
  2
D_SURF
 70
0
 62
7
  6
CONTINUOUS
  0
LAYER
  2
D_THREAD
 70
0
 62
7
  6
CONTINUOUS
  0
LAYER
  2
D_XSEC_DTM
 70
0
 62
7
  6
CONTINUOUS
  0
LAYER
  2
INA_VORDRUCKE
 70
0
 62
7
  6
CONTINUOUS
  0
LAYER
  2
STANDARDTEXTE
 70
0
 62
7
  6
CONTINUOUS
  0
LAYER
  2
_DO_NOT_PLOT
 70
0
 62
7
  6
CONTINUOUS
  0
LAYER
  2
_DRW_FEATURES
 70
0
 62
7
  6
CONTINUOUS
  0
ENDTAB
  0
TABLE
  2
STYLE
 70
1
  0
STYLE
  2
STANDARD
 70
0
 40
0.0
 41
0.75
 50
0.0
 71
0
 42
0.2
  3
txt
  4

  0
STYLE
  2
TEXTSTYLE_1
 70
0
 40
0.0
 41
0.8
 50
0.0
 71
0
 42
0.2
  3
gdt
  4

  0
STYLE
  2
TEXTSTYLE_2
 70
0
 40
0.0
 41
0.7857142857
 50
0.0
 71
0
 42
0.2
  3
txt
  4

  0
STYLE
  2
TEXTSTYLE_3
 70
0
 40
0.0
 41
0.8333333333
 50
0.0
 71
0
 42
0.2
  3
txt
  4

  0
STYLE
  2
TEXTSTYLE_4
 70
0
 40
0.0
 41
0.9047619048
 50
0.0
 71
0
 42
0.2
  3
txt
  4

  0
STYLE
  2
TEXTSTYLE_5
 70
0
 40
0.0
 41
0.7142857143
 50
0.0
 71
0
 42
0.2
  3
txt
  4

  0
STYLE
  2
TEXTSTYLE_6
 70
0
 40
0.0
 41
0.5714285714
 50
0.0
 71
0
 42
0.2
  3
txt
  4

  0
STYLE
  2
TEXTSTYLE_7
 70
0
 40
0.0
 41
0.8571428571
 50
0.0
 71
0
 42
0.2
  3
txt
  4

  0
STYLE
  2
TEXTSTYLE_8
 70
0
 40
0.0
 41
0.75
 50
0.0
 71
0
 42
0.2
  3
gdt
  4

  0
STYLE
  2
TEXTSTYLE_9
 70
0
 40
0.0
 41
0.8
 50
0.0
 71
0
 42
0.2
  3
txt
  4

  0
STYLE
  2
TEXTSTYLE_10
 70
0
 40
0.0
 41
0.7
 50
0.0
 71
0
 42
0.2
  3
txt
  4

  0
STYLE
  2
TEXTSTYLE_11
 70
0
 40
0.0
 41
0.75
 50
0.0
 71
0
 42
0.2
  3
txt
  4

  0
STYLE
  2
TEXTSTYLE_12
 70
0
 40
0.0
 41
0.75
 50
0.0
 71
0
 42
0.2
  3
txt
  4

  0
STYLE
  2
TEXTSTYLE_13
 70
0
 40
0.0
 41
0.6
 50
0.0
 71
0
 42
0.2
  3
txt
  4

  0
STYLE
  2
TEXTSTYLE_14
 70
0
 40
0.0
 41
2.0
 50
0.0
 71
0
 42
0.2
  3
txt
  4

  0
STYLE
  2
TEXTSTYLE_15
 70
0
 40
0.0
 41
0.5
 50
0.0
 71
0
 42
0.2
  3
txt
  4

  0
STYLE
  2
TEXTSTYLE_16
 70
0
 40
0.0
 41
0.8
 50
0.0
 71
0
 42
0.2
  3
txt
  4

  0
STYLE
  2
TEXTSTYLE_17
 70
0
 40
0.0
 41
0.4
 50
0.0
 71
0
 42
0.2
  3
txt
  4

  0
STYLE
  2
TEXTSTYLE_18
 70
0
 40
0.0
 41
0.6
 50
0.0
 71
0
 42
0.2
  3
txt
  4

  0
STYLE
  2
TEXTSTYLE_19
 70
0
 40
0.0
 41
0.8
 50
0.0
 71
0
 42
0.2
  3
txt
  4

  0
STYLE
  2
TEXTSTYLE_20
 70
0
 40
0.0
 41
0.65
 50
0.0
 71
0
 42
0.2
  3
txt
  4

  0
STYLE
  2
TEXTSTYLE_21
 70
0
 40
0.0
 41
0.1
 50
0.0
 71
0
 42
0.2
  3
txt
  4

  0
STYLE
  2
TEXTSTYLE_22
 70
0
 40
0.0
 41
0.6
 50
0.0
 71
0
 42
0.2
  3
txt
  4

  0
ENDTAB
  0
ENDSEC
  0
SECTION
  2
BLOCKS
  0
BLOCK
  8
0
 62
2
  6
CONTINUOUS
  2
SYM_RH_ISO1302_V1_BL5
 70
64
 10
262.0700141737
 20
231.3286210858
  0
TEXT
  8
0
 62
4
  6
CONTINUOUS
 10
260.0375088694
 20
231.9745874821
  7
STANDARD
 40
2.5
  1
Ra 3,2
 41
0.7182539683
 72
0
  0
TEXT
  8
0
 62
4
  6
CONTINUOUS
 10
260.0375088694
 20
228.1745874821
  7
STANDARD
 40
2.5
  1
 
 41
0.7857142857
 72
0
  0
LINE
  8
0
 62
4
  6
CONTINUOUS
 10
251.3945876932
 20
231.0786210858
 11
253.4153136353
 21
227.5786210858
  0
LINE
  8
0
 62
4
  6
CONTINUOUS
 10
253.4153136353
 20
227.5786210858
 11
257.7454406543
 21
235.0786210858
  0
LINE
  8
0
 62
4
  6
CONTINUOUS
 10
251.3945876932
 20
231.0786210858
 11
255.4360395775
 21
231.0786210858
  0
LINE
  8
0
 62
4
  6
CONTINUOUS
 10
262.7454406543
 20
235.0786210858
 11
257.7454406543
 21
235.0786210858
  0
LINE
  8
0
 62
4
  6
CONTINUOUS
 10
272.7454406543
 20
235.0786210858
 11
267.9454406543
 21
235.0786210858
  0
LINE
  8
0
 62
4
  6
CONTINUOUS
 10
267.9454406543
 20
235.0786210858
 11
262.7454406543
 21
235.0786210858
  0
ENDBLK
  8
0
  6
BYBLOCK
 62
0
  0
BLOCK
  8
0
 62
2
  6
CONTINUOUS
  2
INA_STANDARDTEXT__BL4
 70
64
 10
201.8817325125
 20
139.0302732823
  0
TEXT
  8
0
 62
5
  6
CONTINUOUS
 10
-2.294738076
 20
26.6080306352
  7
TEXTSTYLE_21
 40
0.00000001
  1
memory<?xml version="1.0" encoding="UTF-8"?>  <VERSION No="2.0"><SYMBOLS newNorm="1"><LINE index="0"><SURFACE closed="1" long="1" rillen=" "><TEXT index="2">Ra 12.5</TEXT></SURFACE><CHARACTER>(</CHARACTER><SURFACE long="1" rillen=" "><TEXT index="2">Ra 3.2</TEXT></SURFACE><SURFACE closed="1" long="1" rillen=" "><TEXT index="2">Ra 0.8</TEXT></SURFACE><CHARACTER>)</CHARACTER></LINE><LINE index="1"><EDGE out="1" intext="1"><TEXT index="0">-0.3</TEXT><TEXT index="1">-0.1</TEXT></EDGE><EDGE in="1
 41
0.0999999999
 72
0
  0
TEXT
  8
0
 62
5
  6
CONTINUOUS
 10
-2.29473758
 20
26.6080306352
  7
TEXTSTYLE_21
 40
0.00000001
  1
" intext="1"><TEXT index="0">0.2</TEXT><TEXT index="1">0.5</TEXT></EDGE></LINE></SYMBOLS><TEXTCOLUMN><SGPATH><SGNODE id="756" /></SGPATH><SELECTION /></TEXTCOLUMN><LAYOUT width="c" height="35" sammel="0" newcol="0" sammelleft="0" miny="0.0"><LANG id="de" /></LAYOUT><ISO_BLOCK><LANG id="sym" rows="2" cols="1"><DOC veralign="0" row="0" col="0"><P align="0"><T size="3.5"> </T></P></DOC><DOC veralign="0" row="1" col="0" /></LANG></ISO_BLOCK></VERSION> 
 41
0.0999999999
 72
0
  0
TEXT
  8
0
 62
5
  6
CONTINUOUS
 10
0.3817325125
 20
-0.7197267177
  7
STANDARD
 40
3.5
  1
 
 41
0.7857142857
 72
0
  0
TEXT
  8
0
 62
4
  6
CONTINUOUS
 10
403.4531610839
 20
272.5302732823
  7
TEXTSTYLE_22
 40
8.0
  1
)
 41
0.4285714286
 72
0
  0
TEXT
  8
0
 62
4
  6
CONTINUOUS
 10
390.5065325125
 20
277.2802732823
  7
TEXTSTYLE_22
 40
2.25
  1
Ra 0.8
 41
0.7301587302
 72
0
  0
TEXT
  8
0
 62
4
  6
CONTINUOUS
 10
370.7170325125
 20
277.2802732823
  7
TEXTSTYLE_22
 40
2.25
  1
Ra 3.2
 41
0.7182539683
 72
0
  0
TEXT
  8
0
 62
4
  6
CONTINUOUS
 10
358.2684610839
 20
272.5302732823
  7
TEXTSTYLE_22
 40
8.0
  1
(
 41
0.4285714286
 72
0
  0
TEXT
  8
0
 62
4
  6
CONTINUOUS
 10
344.0723325125
 20
277.2802732823
  7
TEXTSTYLE_22
 40
2.25
  1
Ra 12.5
 41
0.6972789116
 72
0
  0
TEXT
  8
0
 62
4
  6
CONTINUOUS
 10
401.6457325125
 20
261.0302732823
  7
TEXTSTYLE_22
 40
2.25
  1
0.2
 41
0.6984126984
 72
0
  0
TEXT
  8
0
 62
4
  6
CONTINUOUS
 10
401.6457325125
 20
264.5302732823
  7
TEXTSTYLE_22
 40
2.25
  1
0.5
 41
0.6746031746
 72
0
  0
TEXT
  8
0
 62
4
  6
CONTINUOUS
 10
388.8532325125
 20
261.0302732823
  7
TEXTSTYLE_22
 40
2.25
  1
-0.3
 41
0.6845238095
 72
0
  0
TEXT
  8
0
 62
4
  6
CONTINUOUS
 10
388.8532325125
 20
264.5302732823
  7
TEXTSTYLE_22
 40
2.25
  1
-0.1
 41
0.6488095238
 72
0
  0
LINE
  8
0
 62
4
  6
CONTINUOUS
 10
390.1255325125
 20
280.5302732823
 11
385.5065325125
 21
272.5302732823
  0
LINE
  8
0
 62
4
  6
CONTINUOUS
 10
385.5065325125
 20
272.5302732823
 11
383.4855325125
 21
276.0302732823
  0
LINE
  8
0
 62
4
  6
CONTINUOUS
 10
383.4855325125
 20
276.0302732823
 11
387.5275325125
 21
276.0302732823
  0
LINE
  8
0
 62
4
  6
CONTINUOUS
 10
390.1255325125
 20
280.5302732823
 11
401.4545325125
 21
280.5302732823
  0
LINE
  8
0
 62
4
  6
CONTINUOUS
 10
370.3360325125
 20
280.5302732823
 11
365.7170325125
 21
272.5302732823
  0
LINE
  8
0
 62
4
  6
CONTINUOUS
 10
365.7170325125
 20
272.5302732823
 11
363.6960325125
 21
276.0302732823
  0
LINE
  8
0
 62
4
  6
CONTINUOUS
 10
370.3360325125
 20
280.5302732823
 11
381.4865325125
 21
280.5302732823
  0
LINE
  8
0
 62
4
  6
CONTINUOUS
 10
343.6913325125
 20
280.5302732823
 11
339.0723325125
 21
272.5302732823
  0
LINE
  8
0
 62
4
  6
CONTINUOUS
 10
339.0723325125
 20
272.5302732823
 11
337.0513325125
 21
276.0302732823
  0
LINE
  8
0
 62
4
  6
CONTINUOUS
 10
337.0513325125
 20
276.0302732823
 11
341.0933325125
 21
276.0302732823
  0
LINE
  8
0
 62
4
  6
CONTINUOUS
 10
343.6913325125
 20
280.5302732823
 11
356.2698325125
 21
280.5302732823
  0
LINE
  8
0
 62
4
  6
CONTINUOUS
 10
399.3457325125
 20
258.2092732823
 11
397.6957325125
 21
257.0302732823
  0
LINE
  8
0
 62
4
  6
CONTINUOUS
 10
397.6957325125
 20
257.0302732823
 11
398.8747325125
 21
258.6802732823
  0
LINE
  8
0
 62
4
  6
CONTINUOUS
 10
398.8747325125
 20
258.6802732823
 11
399.3457325125
 21
258.2092732823
  0
LINE
  8
0
 62
4
  6
CONTINUOUS
 10
398.9457325125
 20
258.6112732823
 11
398.1057325125
 21
257.4402732823
  0
LINE
  8
0
 62
4
  6
CONTINUOUS
 10
398.1057325125
 20
257.4402732823
 11
399.2767325125
 21
258.2802732823
  0
LINE
  8
0
 62
4
  6
CONTINUOUS
 10
399.0117325125
 20
258.5402732823
 11
398.5207325125
 21
257.8552732823
  0
LINE
  8
0
 62
4
  6
CONTINUOUS
 10
398.5207325125
 20
257.8552732823
 11
399.2057325125
 21
258.3462732823
  0
LINE
  8
0
 62
4
  6
CONTINUOUS
 10
399.0807325125
 20
258.4702732823
 11
398.9357325125
 21
258.2702732823
  0
LINE
  8
0
 62
4
  6
CONTINUOUS
 10
398.9357325125
 20
258.2702732823
 11
399.1357325125
 21
258.4152732823
  0
LINE
  8
0
 62
4
  6
CONTINUOUS
 10
400.9457325125
 20
263.8502732823
 11
400.9457325125
 21
260.2802732823
  0
LINE
  8
0
 62
4
  6
CONTINUOUS
 10
400.9457325125
 20
260.2802732823
 11
404.5157325125
 21
260.2802732823
  0
LINE
  8
0
 62
4
  6
CONTINUOUS
 10
399.9457325125
 20
257.0302732823
 11
397.6957325125
 21
257.0302732823
  0
LINE
  8
0
 62
4
  6
CONTINUOUS
 10
397.6957325125
 20
257.0302732823
 11
397.6957325125
 21
259.2802732823
  0
LINE
  8
0
 62
4
  6
CONTINUOUS
 10
397.6957325125
 20
257.0302732823
 11
400.4457325125
 21
259.7802732823
  0
LINE
  8
0
 62
4
  6
CONTINUOUS
 10
400.4457325125
 20
259.7802732823
 11
406.8817325125
 21
259.7802732823
  0
LINE
  8
0
 62
4
  6
CONTINUOUS
 10
386.5532325125
 20
258.2092732823
 11
384.9032325125
 21
257.0302732823
  0
LINE
  8
0
 62
4
  6
CONTINUOUS
 10
384.9032325125
 20
257.0302732823
 11
386.0822325125
 21
258.6802732823
  0
LINE
  8
0
 62
4
  6
CONTINUOUS
 10
386.0822325125
 20
258.6802732823
 11
386.5532325125
 21
258.2092732823
  0
LINE
  8
0
 62
4
  6
CONTINUOUS
 10
386.1532325125
 20
258.6112732823
 11
385.3132325125
 21
257.4402732823
  0
LINE
  8
0
 62
4
  6
CONTINUOUS
 10
385.3132325125
 20
257.4402732823
 11
386.4842325125
 21
258.2802732823
  0
LINE
  8
0
 62
4
  6
CONTINUOUS
 10
386.2192325125
 20
258.5402732823
 11
385.7282325125
 21
257.8552732823
  0
LINE
  8
0
 62
4
  6
CONTINUOUS
 10
385.7282325125
 20
257.8552732823
 11
386.4132325125
 21
258.3462732823
  0
LINE
  8
0
 62
4
  6
CONTINUOUS
 10
386.2882325125
 20
258.4702732823
 11
386.1432325125
 21
258.2702732823
  0
LINE
  8
0
 62
4
  6
CONTINUOUS
 10
386.1432325125
 20
258.2702732823
 11
386.3432325125
 21
258.4152732823
  0
LINE
  8
0
 62
4
  6
CONTINUOUS
 10
388.1532325125
 20
263.8502732823
 11
388.1532325125
 21
260.2802732823
  0
LINE
  8
0
 62
4
  6
CONTINUOUS
 10
388.1532325125
 20
260.2802732823
 11
391.7232325125
 21
260.2802732823
  0
LINE
  8
0
 62
4
  6
CONTINUOUS
 10
382.6532325125
 20
257.0302732823
 11
384.9032325125
 21
257.0302732823
  0
LINE
  8
0
 62
4
  6
CONTINUOUS
 10
384.9032325125
 20
257.0302732823
 11
384.9032325125
 21
254.7802732823
  0
LINE
  8
0
 62
4
  6
CONTINUOUS
 10
384.9032325125
 20
257.0302732823
 11
387.6532325125
 21
259.7802732823
  0
LINE
  8
0
 62
4
  6
CONTINUOUS
 10
387.6532325125
 20
259.7802732823
 11
395.6957325125
 21
259.7802732823
  0
LINE
  8
0
 62
7
  6
CONTINUOUS
 10
-3.1182674875
 20
-2.4697267177
 11
-2.1182674875
 21
-2.4697267177
  0
ENDBLK
  8
0
  6
BYBLOCK
 62
0
  0
BLOCK
  8
0
 62
2
  6
CONTINUOUS
  2
FORM-_UND_LAGETOLERIERUN_BL3
 70
64
 10
152.7760331588
 20
157.6927444314
  0
TEXT
  8
0
 62
5
  6
CONTINUOUS
 10
154.0260331588
 20
146.1144462629
  7
TEXTSTYLE_8
 40
2.5
  1
h
 50
90.0
 41
1.0
 72
0
  0
TEXT
  8
0
 62
5
  6
CONTINUOUS
 10
154.0260331588
 20
153.3019462629
  7
STANDARD
 40
2.5
  1
0.05
 50
90.0
 41
0.7023809524
 72
0
  0
TEXT
  8
0
 62
5
  6
CONTINUOUS
 10
154.0260331588
 20
162.8257557867
  7
STANDARD
 40
2.5
  1
A
 50
90.0
 41
0.8571428571
 72
0
  0
POLYLINE
  8
0
 62
2
  6
CONTINUOUS
 66
1
 70
0
  0
VERTEX
  8
0
 62
2
  6
CONTINUOUS
 10
155.2760331588
 20
144.8644462629
  0
VERTEX
  8
0
 62
2
  6
CONTINUOUS
 10
155.2760331588
 20
152.0519462629
  0
VERTEX
  8
0
 62
2
  6
CONTINUOUS
 10
150.2760331588
 20
152.0519462629
  0
VERTEX
  8
0
 62
2
  6
CONTINUOUS
 10
150.2760331588
 20
144.8644462629
  0
VERTEX
  8
0
 62
2
  6
CONTINUOUS
 10
155.2760331588
 20
144.8644462629
  0
SEQEND
  0
POLYLINE
  8
0
 62
2
  6
CONTINUOUS
 66
1
 70
0
  0
VERTEX
  8
0
 62
2
  6
CONTINUOUS
 10
155.2760331588
 20
152.0519462629
  0
VERTEX
  8
0
 62
2
  6
CONTINUOUS
 10
155.2760331588
 20
161.5757557867
  0
VERTEX
  8
0
 62
2
  6
CONTINUOUS
 10
150.2760331588
 20
161.5757557867
  0
VERTEX
  8
0
 62
2
  6
CONTINUOUS
 10
150.2760331588
 20
152.0519462629
  0
VERTEX
  8
0
 62
2
  6
CONTINUOUS
 10
155.2760331588
 20
152.0519462629
  0
SEQEND
  0
POLYLINE
  8
0
 62
2
  6
CONTINUOUS
 66
1
 70
0
  0
VERTEX
  8
0
 62
2
  6
CONTINUOUS
 10
155.2760331588
 20
161.5757557867
  0
VERTEX
  8
0
 62
2
  6
CONTINUOUS
 10
155.2760331588
 20
166.2186129295
  0
VERTEX
  8
0
 62
2
  6
CONTINUOUS
 10
150.2760331588
 20
166.2186129295
  0
VERTEX
  8
0
 62
2
  6
CONTINUOUS
 10
150.2760331588
 20
161.5757557867
  0
VERTEX
  8
0
 62
2
  6
CONTINUOUS
 10
155.2760331588
 20
161.5757557867
  0
SEQEND
  0
LINE
  8
0
 62
2
  6
CONTINUOUS
 10
152.7833756852
 20
166.2147744711
 11
152.7833756852
 21
170.5004887568
  0
LINE
  8
0
 62
7
  6
CONTINUOUS
 10
152.7833756852
 20
170.5210425999
 11
152.8167566362
 21
170.5210425999
  0
ENDBLK
  8
0
  6
BYBLOCK
 62
0
  0
BLOCK
  8
0
 62
2
  6
CONTINUOUS
  2
BZ_BEZUG_S102502_BL2
 70
64
 10
208.2980720011
 20
76.5978246866
  0
TEXT
  8
0
 62
5
  6
CONTINUOUS
 10
209.7980720011
 20
73.7860096422
  7
STANDARD
 40
3.5
  1
A
 50
180.0
 41
0.8571428571
 72
0
  0
POLYLINE
  8
0
 62
2
  6
CONTINUOUS
 66
1
 70
0
  0
VERTEX
  8
0
 62
2
  6
CONTINUOUS
 10
211.5480720011
 20
75.5360096422
  0
VERTEX
  8
0
 62
2
  6
CONTINUOUS
 10
205.0480720011
 20
75.5360096422
  0
VERTEX
  8
0
 62
2
  6
CONTINUOUS
 10
205.0480720011
 20
68.5360096422
  0
VERTEX
  8
0
 62
2
  6
CONTINUOUS
 10
211.5480720011
 20
68.5360096422
  0
VERTEX
  8
0
 62
2
  6
CONTINUOUS
 10
211.5480720011
 20
75.5360096422
  0
SEQEND
  0
LINE
  8
0
 62
2
  6
CONTINUOUS
 10
208.2993373021
 20
84.659639731
 11
210.2993373021
 21
84.659639731
  0
LINE
  8
0
 62
2
  6
CONTINUOUS
 10
208.2993373021
 20
84.659639731
 11
206.2993373021
 21
84.659639731
  0
LINE
  8
0
 62
2
  6
CONTINUOUS
 10
208.3014457808
 20
81.1967563025
 11
206.2993373021
 21
84.659639731
  0
LINE
  8
0
 62
2
  6
CONTINUOUS
 10
208.3014457808
 20
81.1967563025
 11
210.2993373021
 21
84.659639731
  0
LINE
  8
0
 62
2
  6
CONTINUOUS
 10
210.2972860628
 20
84.6560843815
 11
206.3013928711
 21
84.6560843815
  0
LINE
  8
0
 62
2
  6
CONTINUOUS
 10
210.2684388382
 20
84.6060843815
 11
206.3303009836
 21
84.6060843815
  0
LINE
  8
0
 62
2
  6
CONTINUOUS
 10
210.2395916136
 20
84.5560843815
 11
206.3592090962
 21
84.5560843815
  0
LINE
  8
0
 62
2
  6
CONTINUOUS
 10
210.210744389
 20
84.5060843815
 11
206.3881172087
 21
84.5060843815
  0
LINE
  8
0
 62
2
  6
CONTINUOUS
 10
210.1818971643
 20
84.4560843815
 11
206.4170253213
 21
84.4560843815
  0
LINE
  8
0
 62
2
  6
CONTINUOUS
 10
210.1530499397
 20
84.4060843815
 11
206.4459334339
 21
84.4060843815
  0
LINE
  8
0
 62
2
  6
CONTINUOUS
 10
210.1242027151
 20
84.3560843815
 11
206.4748415464
 21
84.3560843815
  0
LINE
  8
0
 62
2
  6
CONTINUOUS
 10
210.0953554905
 20
84.3060843815
 11
206.503749659
 21
84.3060843815
  0
LINE
  8
0
 62
2
  6
CONTINUOUS
 10
210.0665082659
 20
84.2560843815
 11
206.5326577715
 21
84.2560843815
  0
LINE
  8
0
 62
2
  6
CONTINUOUS
 10
210.0376610413
 20
84.2060843815
 11
206.5615658841
 21
84.2060843815
  0
LINE
  8
0
 62
2
  6
CONTINUOUS
 10
210.0088138167
 20
84.1560843815
 11
206.5904739967
 21
84.1560843815
  0
LINE
  8
0
 62
2
  6
CONTINUOUS
 10
209.9799665921
 20
84.1060843815
 11
206.6193821092
 21
84.1060843815
  0
LINE
  8
0
 62
2
  6
CONTINUOUS
 10
209.9511193675
 20
84.0560843815
 11
206.6482902218
 21
84.0560843815
  0
LINE
  8
0
 62
2
  6
CONTINUOUS
 10
209.9222721428
 20
84.0060843815
 11
206.6771983343
 21
84.0060843815
  0
LINE
  8
0
 62
2
  6
CONTINUOUS
 10
209.8934249182
 20
83.9560843815
 11
206.7061064469
 21
83.9560843815
  0
LINE
  8
0
 62
2
  6
CONTINUOUS
 10
209.8645776936
 20
83.9060843815
 11
206.7350145595
 21
83.9060843815
  0
LINE
  8
0
 62
2
  6
CONTINUOUS
 10
209.835730469
 20
83.8560843815
 11
206.763922672
 21
83.8560843815
  0
LINE
  8
0
 62
2
  6
CONTINUOUS
 10
209.8068832444
 20
83.8060843815
 11
206.7928307846
 21
83.8060843815
  0
LINE
  8
0
 62
2
  6
CONTINUOUS
 10
209.7780360198
 20
83.7560843815
 11
206.8217388971
 21
83.7560843815
  0
LINE
  8
0
 62
2
  6
CONTINUOUS
 10
209.7491887952
 20
83.7060843815
 11
206.8506470097
 21
83.7060843815
  0
LINE
  8
0
 62
2
  6
CONTINUOUS
 10
209.7203415706
 20
83.6560843815
 11
206.8795551223
 21
83.6560843815
  0
LINE
  8
0
 62
2
  6
CONTINUOUS
 10
209.691494346
 20
83.6060843815
 11
206.9084632348
 21
83.6060843815
  0
LINE
  8
0
 62
2
  6
CONTINUOUS
 10
209.6626471213
 20
83.5560843815
 11
206.9373713474
 21
83.5560843815
  0
LINE
  8
0
 62
2
  6
CONTINUOUS
 10
209.6337998967
 20
83.5060843815
 11
206.9662794599
 21
83.5060843815
  0
LINE
  8
0
 62
2
  6
CONTINUOUS
 10
209.6049526721
 20
83.4560843815
 11
206.9951875725
 21
83.4560843815
  0
LINE
  8
0
 62
2
  6
CONTINUOUS
 10
209.5761054475
 20
83.4060843815
 11
207.0240956851
 21
83.4060843815
  0
LINE
  8
0
 62
2
  6
CONTINUOUS
 10
209.5472582229
 20
83.3560843815
 11
207.0530037976
 21
83.3560843815
  0
LINE
  8
0
 62
2
  6
CONTINUOUS
 10
209.5184109983
 20
83.3060843815
 11
207.0819119102
 21
83.3060843815
  0
LINE
  8
0
 62
2
  6
CONTINUOUS
 10
209.4895637737
 20
83.2560843815
 11
207.1108200227
 21
83.2560843815
  0
LINE
  8
0
 62
2
  6
CONTINUOUS
 10
209.4607165491
 20
83.2060843815
 11
207.1397281353
 21
83.2060843815
  0
LINE
  8
0
 62
2
  6
CONTINUOUS
 10
209.4318693244
 20
83.1560843815
 11
207.1686362479
 21
83.1560843815
  0
LINE
  8
0
 62
2
  6
CONTINUOUS
 10
209.4030220998
 20
83.1060843815
 11
207.1975443604
 21
83.1060843815
  0
LINE
  8
0
 62
2
  6
CONTINUOUS
 10
209.3741748752
 20
83.0560843815
 11
207.226452473
 21
83.0560843815
  0
LINE
  8
0
 62
2
  6
CONTINUOUS
 10
209.3453276506
 20
83.0060843815
 11
207.2553605855
 21
83.0060843815
  0
LINE
  8
0
 62
2
  6
CONTINUOUS
 10
209.316480426
 20
82.9560843815
 11
207.2842686981
 21
82.9560843815
  0
LINE
  8
0
 62
2
  6
CONTINUOUS
 10
209.2876332014
 20
82.9060843815
 11
207.3131768107
 21
82.9060843815
  0
LINE
  8
0
 62
2
  6
CONTINUOUS
 10
209.2587859768
 20
82.8560843815
 11
207.3420849232
 21
82.8560843815
  0
LINE
  8
0
 62
2
  6
CONTINUOUS
 10
209.2299387522
 20
82.8060843815
 11
207.3709930358
 21
82.8060843815
  0
LINE
  8
0
 62
2
  6
CONTINUOUS
 10
209.2010915276
 20
82.7560843815
 11
207.3999011483
 21
82.7560843815
  0
LINE
  8
0
 62
2
  6
CONTINUOUS
 10
209.1722443029
 20
82.7060843815
 11
207.4288092609
 21
82.7060843815
  0
LINE
  8
0
 62
2
  6
CONTINUOUS
 10
209.1433970783
 20
82.6560843815
 11
207.4577173735
 21
82.6560843815
  0
LINE
  8
0
 62
2
  6
CONTINUOUS
 10
209.1145498537
 20
82.6060843815
 11
207.486625486
 21
82.6060843815
  0
LINE
  8
0
 62
2
  6
CONTINUOUS
 10
209.0857026291
 20
82.5560843815
 11
207.5155335986
 21
82.5560843815
  0
LINE
  8
0
 62
2
  6
CONTINUOUS
 10
209.0568554045
 20
82.5060843815
 11
207.5444417112
 21
82.5060843815
  0
LINE
  8
0
 62
2
  6
CONTINUOUS
 10
209.0280081799
 20
82.4560843815
 11
207.5733498237
 21
82.4560843815
  0
LINE
  8
0
 62
2
  6
CONTINUOUS
 10
208.9991609553
 20
82.4060843815
 11
207.6022579363
 21
82.4060843815
  0
LINE
  8
0
 62
2
  6
CONTINUOUS
 10
208.9703137307
 20
82.3560843815
 11
207.6311660488
 21
82.3560843815
  0
LINE
  8
0
 62
2
  6
CONTINUOUS
 10
208.9414665061
 20
82.3060843815
 11
207.6600741614
 21
82.3060843815
  0
LINE
  8
0
 62
2
  6
CONTINUOUS
 10
208.9126192814
 20
82.2560843815
 11
207.688982274
 21
82.2560843815
  0
LINE
  8
0
 62
2
  6
CONTINUOUS
 10
208.8837720568
 20
82.2060843815
 11
207.7178903865
 21
82.2060843815
  0
LINE
  8
0
 62
2
  6
CONTINUOUS
 10
208.8549248322
 20
82.1560843815
 11
207.7467984991
 21
82.1560843815
  0
LINE
  8
0
 62
2
  6
CONTINUOUS
 10
208.8260776076
 20
82.1060843815
 11
207.7757066116
 21
82.1060843815
  0
LINE
  8
0
 62
2
  6
CONTINUOUS
 10
208.797230383
 20
82.0560843815
 11
207.8046147242
 21
82.0560843815
  0
LINE
  8
0
 62
2
  6
CONTINUOUS
 10
208.7683831584
 20
82.0060843815
 11
207.8335228368
 21
82.0060843815
  0
LINE
  8
0
 62
2
  6
CONTINUOUS
 10
208.7395359338
 20
81.9560843815
 11
207.8624309493
 21
81.9560843815
  0
LINE
  8
0
 62
2
  6
CONTINUOUS
 10
208.7106887092
 20
81.9060843815
 11
207.8913390619
 21
81.9060843815
  0
LINE
  8
0
 62
2
  6
CONTINUOUS
 10
208.6818414846
 20
81.8560843815
 11
207.9202471744
 21
81.8560843815
  0
LINE
  8
0
 62
2
  6
CONTINUOUS
 10
208.6529942599
 20
81.8060843815
 11
207.949155287
 21
81.8060843815
  0
LINE
  8
0
 62
2
  6
CONTINUOUS
 10
208.6241470353
 20
81.7560843815
 11
207.9780633996
 21
81.7560843815
  0
LINE
  8
0
 62
2
  6
CONTINUOUS
 10
208.5952998107
 20
81.7060843815
 11
208.0069715121
 21
81.7060843815
  0
LINE
  8
0
 62
2
  6
CONTINUOUS
 10
208.5664525861
 20
81.6560843815
 11
208.0358796247
 21
81.6560843815
  0
LINE
  8
0
 62
2
  6
CONTINUOUS
 10
208.5376053615
 20
81.6060843815
 11
208.0647877372
 21
81.6060843815
  0
LINE
  8
0
 62
2
  6
CONTINUOUS
 10
208.5087581369
 20
81.5560843815
 11
208.0936958498
 21
81.5560843815
  0
LINE
  8
0
 62
2
  6
CONTINUOUS
 10
208.4799109123
 20
81.5060843815
 11
208.1226039624
 21
81.5060843815
  0
LINE
  8
0
 62
2
  6
CONTINUOUS
 10
208.4510636877
 20
81.4560843815
 11
208.1515120749
 21
81.4560843815
  0
LINE
  8
0
 62
2
  6
CONTINUOUS
 10
208.4222164631
 20
81.4060843815
 11
208.1804201875
 21
81.4060843815
  0
LINE
  8
0
 62
2
  6
CONTINUOUS
 10
208.3933692384
 20
81.3560843815
 11
208.2093283
 21
81.3560843815
  0
LINE
  8
0
 62
2
  6
CONTINUOUS
 10
208.3645220138
 20
81.3060843815
 11
208.2382364126
 21
81.3060843815
  0
LINE
  8
0
 62
2
  6
CONTINUOUS
 10
208.3356747892
 20
81.2560843815
 11
208.2671445252
 21
81.2560843815
  0
LINE
  8
0
 62
2
  6
CONTINUOUS
 10
208.3068275646
 20
81.2060843815
 11
208.2960526377
 21
81.2060843815
  0
LINE
  8
0
 62
2
  6
CONTINUOUS
 10
208.2993373021
 20
75.5361421427
 11
208.2993373021
 21
84.659639731
  0
ENDBLK
  8
0
  6
BYBLOCK
 62
0
  0
BLOCK
  8
0
 62
2
  6
CONTINUOUS
  2
SYM_RH_ISO1302_V1_BL1
 70
64
 10
194.26301899
 20
88.4095343372
  0
TEXT
  8
0
 62
4
  6
CONTINUOUS
 10
192.2305136857
 20
89.0555007334
  7
STANDARD
 40
2.5
  1
Ra 0,8
 41
0.7301587302
 72
0
  0
TEXT
  8
0
 62
4
  6
CONTINUOUS
 10
192.2305136857
 20
85.2555007334
  7
STANDARD
 40
2.5
  1
 
 41
0.7857142857
 72
0
  0
LINE
  8
0
 62
4
  6
CONTINUOUS
 10
183.5875925094
 20
88.1595343372
 11
185.6083184516
 21
84.6595343372
  0
LINE
  8
0
 62
4
  6
CONTINUOUS
 10
185.6083184516
 20
84.6595343372
 11
189.9384454705
 21
92.1595343372
  0
LINE
  8
0
 62
4
  6
CONTINUOUS
 10
183.5875925094
 20
88.1595343372
 11
187.6290443938
 21
88.1595343372
  0
LINE
  8
0
 62
4
  6
CONTINUOUS
 10
194.9384454705
 20
92.1595343372
 11
189.9384454705
 21
92.1595343372
  0
LINE
  8
0
 62
4
  6
CONTINUOUS
 10
204.9384454705
 20
92.1595343372
 11
200.1384454705
 21
92.1595343372
  0
LINE
  8
0
 62
4
  6
CONTINUOUS
 10
200.1384454705
 20
92.1595343372
 11
194.9384454705
 21
92.1595343372
  0
ENDBLK
  8
0
  6
BYBLOCK
 62
0
  0
BLOCK
  8
0
 62
2
  6
CONTINUOUS
  2
LINIEN_SRF_BL0
 70
64
 10
316.3999935624
 20
37.6250019
  0
LINE
  8
0
 62
7
  6
CONTINUOUS
 10
410.0
 20
65.2500038
 11
222.7999871247
 21
65.2500038
  0
LINE
  8
0
 62
7
  6
CONTINUOUS
 10
222.7999871247
 20
65.2500038
 11
222.7999871247
 21
10.0
  0
LINE
  8
0
 62
7
  6
CONTINUOUS
 10
222.7999871247
 20
10.0
 11
410.0
 21
10.0
  0
LINE
  8
0
 62
7
  6
CONTINUOUS
 10
410.0
 20
10.0
 11
410.0
 21
65.2500038
  0
LINE
  8
0
 62
7
  6
CONTINUOUS
 10
277.39999088
 20
65.2500038
 11
277.39999088
 21
10.0
  0
LINE
  8
0
 62
7
  6
CONTINUOUS
 10
321.59999392
 20
65.2500038
 11
321.59999392
 21
10.0
  0
LINE
  8
0
 62
7
  6
CONTINUOUS
 10
222.7999871247
 20
48.2500026308
 11
410.0
 21
48.2500026308
  0
LINE
  8
0
 62
7
  6
CONTINUOUS
 10
396.9999991059
 20
27.0000011692
 11
396.9999991059
 21
14.2500002923
  0
LINE
  8
0
 62
7
  6
CONTINUOUS
 10
277.39999088
 20
27.0000011692
 11
410.0
 21
27.0000011692
  0
ENDBLK
  8
0
  6
BYBLOCK
 62
0
  0
BLOCK
  8
0
  2
_FILLED
 70
64
 10
0.0
 20
0.0
  0
SOLID
  8
0
  6
BYBLOCK
 62
0
 10
0.0
 20
0.0
 11
-1.0
 21
0.2
 12
-1.0
 22
-0.2
 13
-1.0
 23
-0.2
  0
ENDBLK
  8
0
  6
BYBLOCK
 62
0
  0
BLOCK
  8
0
 62
2
  6
CONTINUOUS
  2
*D0
 70
65
 10
0.0
 20
0.0
  0
TEXT
  8
0
 62
5
  6
CONTINUOUS
 10
268.9299533669
 20
199.3770277746
  7
STANDARD
 40
3.5
  1
R
 50
64.3025486434
 41
0.7857142857
 72
2
 11
270.1224056231
 21
201.8550426286
  0
TEXT
  8
0
 62
5
  6
CONTINUOUS
 10
270.1224056231
 20
201.8550426286
  7
STANDARD
 40
3.5
  1
1,5
 50
64.3025486434
 41
0.6031746032
 72
2
 11
272.8686593041
 21
207.5619859287
  0
LINE
  8
0
 62
2
  6
CONTINUOUS
 10
277.7483653191
 20
215.6845199238
 11
269.7184126387
 21
198.9976111476
  0
INSERT
  8
0
 62
2
  6
CONTINUOUS
  2
_FILLED
 10
277.7483653191
 20
215.6845199238
 41
3.5
 42
3.5
 43
3.5
 50
64.3025486434
  0
ENDBLK
  8
0
  6
BYBLOCK
 62
0
  0
BLOCK
  8
0
 62
2
  6
CONTINUOUS
  2
*D1
 70
65
 10
0.0
 20
0.0
  0
TEXT
  8
0
 62
5
  6
CONTINUOUS
 10
154.1608306431
 20
253.8728537981
  7
STANDARD
 40
3.5
  1
4
 41
0.7857142857
 72
2
 11
156.9108306431
 21
253.8728537981
  0
LINE
  8
0
 62
2
  6
CONTINUOUS
 10
162.7991675338
 20
232.9978537981
 11
162.7991675338
 21
254.9978537981
  0
LINE
  8
0
 62
2
  6
CONTINUOUS
 10
166.7991675338
 20
232.9978537981
 11
166.7991675338
 21
254.9978537981
  0
LINE
  8
0
 62
2
  6
CONTINUOUS
 10
162.7991675338
 20
252.9978537981
 11
154.1608306431
 21
252.9978537981
  0
LINE
  8
0
 62
2
  6
CONTINUOUS
 10
154.1608306431
 20
252.9978537981
 11
164.7991675338
 21
252.9978537981
  0
LINE
  8
0
 62
2
  6
CONTINUOUS
 10
166.7991675338
 20
252.9978537981
 11
173.7991675338
 21
252.9978537981
  0
LINE
  8
0
 62
2
  6
CONTINUOUS
 10
173.7991675338
 20
252.9978537981
 11
164.7991675338
 21
252.9978537981
  0
INSERT
  8
0
 62
2
  6
CONTINUOUS
  2
_FILLED
 10
162.7991675338
 20
252.9978537981
 41
3.5
 42
3.5
 43
3.5
  0
INSERT
  8
0
 62
2
  6
CONTINUOUS
  2
_FILLED
 10
166.7991675338
 20
252.9978537981
 41
3.5
 42
3.5
 43
3.5
 50
180.0
  0
ENDBLK
  8
0
  6
BYBLOCK
 62
0
  0
BLOCK
  8
0
 62
2
  6
CONTINUOUS
  2
*D2
 70
65
 10
0.0
 20
0.0
  0
TEXT
  8
0
 62
5
  6
CONTINUOUS
 10
139.9241675338
 20
199.0395204648
  7
TEXTSTYLE_8
 40
3.5
  1
n
 50
90.0
 41
1.0
 72
1
 11
139.9241675338
 21
201.3728537981
  0
TEXT
  8
0
 62
5
  6
CONTINUOUS
 10
139.9241675338
 20
203.7061871315
  7
STANDARD
 40
3.5
  1
58
 50
90.0
 41
0.75
 72
1
 11
139.9241675338
 21
206.3311871315
  0
LINE
  8
0
 62
2
  6
CONTINUOUS
 10
166.2991675334
 20
174.9978537981
 11
154.4976874185
 21
174.9978537981
  0
LINE
  8
0
 62
2
  6
CONTINUOUS
 10
151.0925798462
 20
174.9978537981
 11
138.7991675338
 21
174.9978537981
  0
LINE
  8
0
 62
2
  6
CONTINUOUS
 10
166.2991675334
 20
232.9978537981
 11
138.7991675338
 21
232.9978537981
  0
LINE
  8
0
 62
2
  6
CONTINUOUS
 10
140.7991675338
 20
174.9978537981
 11
140.7991675338
 21
203.9978537981
  0
LINE
  8
0
 62
2
  6
CONTINUOUS
 10
140.7991675338
 20
232.9978537981
 11
140.7991675338
 21
203.9978537981
  0
INSERT
  8
0
 62
2
  6
CONTINUOUS
  2
_FILLED
 10
140.7991675338
 20
174.9978537981
 41
3.5
 42
3.5
 43
3.5
 50
270.0
  0
INSERT
  8
0
 62
2
  6
CONTINUOUS
  2
_FILLED
 10
140.7991675338
 20
232.9978537981
 41
3.5
 42
3.5
 43
3.5
 50
90.0
  0
ENDBLK
  8
0
  6
BYBLOCK
 62
0
  0
BLOCK
  8
0
 62
2
  6
CONTINUOUS
  2
*D3
 70
65
 10
0.0
 20
0.0
  0
TEXT
  8
0
 62
5
  6
CONTINUOUS
 10
204.6241675338
 20
96.5301441041
  7
TEXTSTYLE_8
 40
3.5
  1
n
 50
90.0
 41
1.0
 72
0
  0
TEXT
  8
0
 62
5
  6
CONTINUOUS
 10
204.6241675338
 20
101.1968107707
  7
STANDARD
 40
3.5
  1
4 H7
 50
90.0
 41
0.7857142857
 72
0
  0
TEXT
  8
0
 62
5
  6
CONTINUOUS
 10
207.2491675338
 20
112.1968107707
  7
STANDARD
 40
8.75
  1
(
 50
90.0
 41
0.4285714286
 72
0
  0
TEXT
  8
0
 62
5
  6
CONTINUOUS
 10
201.9991675338
 20
115.9468107707
  7
TEXTSTYLE_9
 40
3.5
  1
+0,012
 50
90.0
 41
0.6944444444
 72
0
  0
TEXT
  8
0
 62
5
  6
CONTINUOUS
 10
207.2491675338
 20
115.9468107707
  7
TEXTSTYLE_9
 40
3.5
  1
 0
 50
90.0
 41
0.7857142857
 72
0
  0
TEXT
  8
0
 62
5
  6
CONTINUOUS
 10
207.2491675338
 20
130.5301441041
  7
STANDARD
 40
8.75
  1
)
 50
90.0
 41
0.4285714286
 72
0
  0
LINE
  8
0
 62
2
  6
CONTINUOUS
 10
178.2991675338
 20
84.6595343372
 11
210.2991675338
 21
84.6595343372
  0
LINE
  8
0
 62
2
  6
CONTINUOUS
 10
178.2991675338
 20
88.6595343372
 11
186.0207374245
 21
88.6595343372
  0
LINE
  8
0
 62
2
  6
CONTINUOUS
 10
203.3237209969
 20
88.6595343372
 11
210.2991675338
 21
88.6595343372
  0
LINE
  8
0
 62
2
  6
CONTINUOUS
 10
208.2991675338
 20
84.6595343372
 11
208.2991675338
 21
77.6595343372
  0
LINE
  8
0
 62
2
  6
CONTINUOUS
 10
208.2991675338
 20
77.6595343372
 11
208.2991675338
 21
86.6595343372
  0
LINE
  8
0
 62
2
  6
CONTINUOUS
 10
208.2991675338
 20
88.6595343372
 11
208.2991675338
 21
134.2801441041
  0
LINE
  8
0
 62
2
  6
CONTINUOUS
 10
208.2991675338
 20
134.2801441041
 11
208.2991675338
 21
86.6595343372
  0
INSERT
  8
0
 62
2
  6
CONTINUOUS
  2
_FILLED
 10
208.2991675338
 20
84.6595343372
 41
3.5
 42
3.5
 43
3.5
 50
90.0
  0
INSERT
  8
0
 62
2
  6
CONTINUOUS
  2
_FILLED
 10
208.2991675338
 20
88.6595343372
 41
3.5
 42
3.5
 43
3.5
 50
270.0
  0
ENDBLK
  8
0
  6
BYBLOCK
 62
0
  0
BLOCK
  8
0
 62
2
  6
CONTINUOUS
  2
*D4
 70
65
 10
0.0
 20
0.0
  0
TEXT
  8
0
 62
5
  6
CONTINUOUS
 10
187.4241675338
 20
198.9145204648
  7
TEXTSTYLE_8
 40
3.5
  1
n
 50
90.0
 41
1.0
 72
1
 11
187.4241675338
 21
201.2478537981
  0
TEXT
  8
0
 62
5
  6
CONTINUOUS
 10
187.4241675338
 20
203.5811871315
  7
STANDARD
 40
3.5
  1
20
 50
90.0
 41
0.7857142857
 72
1
 11
187.4241675338
 21
206.3311871315
  0
LINE
  8
0
 62
2
  6
CONTINUOUS
 10
178.2991675338
 20
193.9978537981
 11
190.2991675338
 21
193.9978537981
  0
LINE
  8
0
 62
2
  6
CONTINUOUS
 10
178.2991675338
 20
213.9978537981
 11
190.2991675338
 21
213.9978537981
  0
LINE
  8
0
 62
2
  6
CONTINUOUS
 10
188.2991675338
 20
193.9978537981
 11
188.2991675338
 21
203.9978537981
  0
LINE
  8
0
 62
2
  6
CONTINUOUS
 10
188.2991675338
 20
213.9978537981
 11
188.2991675338
 21
203.9978537981
  0
INSERT
  8
0
 62
2
  6
CONTINUOUS
  2
_FILLED
 10
188.2991675338
 20
193.9978537981
 41
3.5
 42
3.5
 43
3.5
 50
270.0
  0
INSERT
  8
0
 62
2
  6
CONTINUOUS
  2
_FILLED
 10
188.2991675338
 20
213.9978537981
 41
3.5
 42
3.5
 43
3.5
 50
90.0
  0
ENDBLK
  8
0
  6
BYBLOCK
 62
0
  0
BLOCK
  8
0
 62
2
  6
CONTINUOUS
  2
*D5
 70
65
 10
0.0
 20
0.0
  0
TEXT
  8
0
 62
5
  6
CONTINUOUS
 10
166.1325008672
 20
263.8728537981
  7
STANDARD
 40
3.5
  1
15,5
 41
0.630952381
 72
1
 11
170.5491675338
 21
263.8728537981
  0
LINE
  8
0
 62
2
  6
CONTINUOUS
 10
162.7991675338
 20
205.9978537981
 11
162.7991675338
 21
264.9978537981
  0
LINE
  8
0
 62
2
  6
CONTINUOUS
 10
178.2991675338
 20
205.9978537981
 11
178.2991675338
 21
264.9978537981
  0
LINE
  8
0
 62
2
  6
CONTINUOUS
 10
162.7991675338
 20
262.9978537981
 11
170.5491675338
 21
262.9978537981
  0
LINE
  8
0
 62
2
  6
CONTINUOUS
 10
178.2991675338
 20
262.9978537981
 11
170.5491675338
 21
262.9978537981
  0
INSERT
  8
0
 62
2
  6
CONTINUOUS
  2
_FILLED
 10
162.7991675338
 20
262.9978537981
 41
3.5
 42
3.5
 43
3.5
 50
180.0
  0
INSERT
  8
0
 62
2
  6
CONTINUOUS
  2
_FILLED
 10
178.2991675338
 20
262.9978537981
 41
3.5
 42
3.5
 43
3.5
  0
ENDBLK
  8
0
  6
BYBLOCK
 62
0
  0
BLOCK
  8
0
 62
2
  6
CONTINUOUS
  2
*D6
 70
65
 10
0.0
 20
0.0
  0
TEXT
  8
0
 62
5
  6
CONTINUOUS
 10
180.8145358502
 20
48.5345343392
  7
STANDARD
 40
3.5
  1
M
 41
0.8571428571
 72
0
  0
TEXT
  8
0
 62
5
  6
CONTINUOUS
 10
183.8145358502
 20
48.5345343392
  7
STANDARD
 40
3.5
  1
4
 41
0.7857142857
 72
0
  0
LINE
  8
0
 62
2
  6
CONTINUOUS
 10
171.2991675338
 20
82.4068575249
 11
171.2991675338
 21
45.6595343392
  0
LINE
  8
0
 62
2
  6
CONTINUOUS
 10
175.2991675338
 20
81.7139462835
 11
175.2991675338
 21
45.6595343392
  0
LINE
  8
0
 62
2
  6
CONTINUOUS
 10
171.2991675338
 20
47.6595343392
 11
164.2991675338
 21
47.6595343392
  0
LINE
  8
0
 62
2
  6
CONTINUOUS
 10
164.2991675338
 20
47.6595343392
 11
173.2991675338
 21
47.6595343392
  0
LINE
  8
0
 62
2
  6
CONTINUOUS
 10
175.2991675338
 20
47.6595343392
 11
186.5645358502
 21
47.6595343392
  0
LINE
  8
0
 62
2
  6
CONTINUOUS
 10
186.5645358502
 20
47.6595343392
 11
173.2991675338
 21
47.6595343392
  0
INSERT
  8
0
 62
2
  6
CONTINUOUS
  2
_FILLED
 10
171.2991675338
 20
47.6595343392
 41
3.5
 42
3.5
 43
3.5
  0
INSERT
  8
0
 62
2
  6
CONTINUOUS
  2
_FILLED
 10
175.2991675338
 20
47.6595343392
 41
3.5
 42
3.5
 43
3.5
 50
180.0
  0
ENDBLK
  8
0
  6
BYBLOCK
 62
0
  0
BLOCK
  8
0
 62
2
  6
CONTINUOUS
  2
*D7
 70
65
 10
0.0
 20
0.0
  0
TEXT
  8
0
 62
5
  6
CONTINUOUS
 10
174.5491675338
 20
243.8728537981
  7
STANDARD
 40
3.5
  1
5
 41
0.7142857143
 72
1
 11
175.7991675338
 21
243.8728537981
  0
LINE
  8
0
 62
2
  6
CONTINUOUS
 10
178.2991675338
 20
203.9978537981
 11
178.2991675338
 21
244.9978537981
  0
LINE
  8
0
 62
2
  6
CONTINUOUS
 10
173.2991675338
 20
203.9978537981
 11
173.2991675338
 21
244.9978537981
  0
LINE
  8
0
 62
2
  6
CONTINUOUS
 10
178.2991675338
 20
242.9978537981
 11
185.2991675338
 21
242.9978537981
  0
LINE
  8
0
 62
2
  6
CONTINUOUS
 10
185.2991675338
 20
242.9978537981
 11
175.7991675338
 21
242.9978537981
  0
LINE
  8
0
 62
2
  6
CONTINUOUS
 10
173.2991675338
 20
242.9978537981
 11
166.2991675338
 21
242.9978537981
  0
LINE
  8
0
 62
2
  6
CONTINUOUS
 10
166.2991675338
 20
242.9978537981
 11
175.7991675338
 21
242.9978537981
  0
INSERT
  8
0
 62
2
  6
CONTINUOUS
  2
_FILLED
 10
178.2991675338
 20
242.9978537981
 41
3.5
 42
3.5
 43
3.5
 50
180.0
  0
INSERT
  8
0
 62
2
  6
CONTINUOUS
  2
_FILLED
 10
173.2991675338
 20
242.9978537981
 41
3.5
 42
3.5
 43
3.5
  0
ENDBLK
  8
0
  6
BYBLOCK
 62
0
  0
BLOCK
  8
0
 62
2
  6
CONTINUOUS
  2
*D8
 70
65
 10
0.0
 20
0.0
  0
TEXT
  8
0
 62
5
  6
CONTINUOUS
 10
149.1241675338
 20
194.4978537981
  7
TEXTSTYLE_8
 40
3.5
  1
n
 50
90.0
 41
1.0
 72
1
 11
149.1241675338
 21
196.8311871315
  0
TEXT
  8
0
 62
5
  6
CONTINUOUS
 10
149.1241675338
 20
199.1645204648
  7
STANDARD
 40
3.5
  1
57
 50
90.0
 41
0.75
 72
1
 11
149.1241675338
 21
201.7895204648
  0
TEXT
  8
0
 62
5
  6
CONTINUOUS
 10
146.4991675338
 20
204.4145204648
  7
TEXTSTYLE_9
 40
3.5
  1
+0,1
 50
90.0
 41
0.6488095238
 72
1
 11
146.4991675338
 21
208.9561871315
  0
TEXT
  8
0
 62
5
  6
CONTINUOUS
 10
151.7491675338
 20
204.4145204648
  7
TEXTSTYLE_9
 40
3.5
  1
 0
 50
90.0
 41
0.7857142857
 72
1
 11
151.7491675338
 21
207.1645204648
  0
LINE
  8
0
 62
2
  6
CONTINUOUS
 10
164.7991675338
 20
175.4978537981
 11
150.7991675338
 21
175.4978537981
  0
LINE
  8
0
 62
2
  6
CONTINUOUS
 10
164.7991675338
 20
232.4978537981
 11
150.7991675338
 21
232.4978537981
  0
LINE
  8
0
 62
2
  6
CONTINUOUS
 10
152.7991675338
 20
175.4978537981
 11
152.7991675338
 21
203.9978537981
  0
LINE
  8
0
 62
2
  6
CONTINUOUS
 10
152.7991675338
 20
232.4978537981
 11
152.7991675338
 21
203.9978537981
  0
INSERT
  8
0
 62
2
  6
CONTINUOUS
  2
_FILLED
 10
152.7991675338
 20
175.4978537981
 41
3.5
 42
3.5
 43
3.5
 50
270.0
  0
INSERT
  8
0
 62
2
  6
CONTINUOUS
  2
_FILLED
 10
152.7991675338
 20
232.4978537981
 41
3.5
 42
3.5
 43
3.5
 50
90.0
  0
ENDBLK
  8
0
  6
BYBLOCK
 62
0
  0
ENDSEC
  0
SECTION
  2
ENTITIES
  0
TEXT
  8
0
 62
5
  6
CONTINUOUS
 10
411.380005
 20
77.510002
  7
TEXTSTYLE_2
 40
3.493164
  1
E
 41
0.7142857143
 51
0.000018724
 72
0
  0
TEXT
  8
0
 62
5
  6
CONTINUOUS
 10
411.380005
 20
123.68
  7
TEXTSTYLE_3
 40
3.493164
  1
D
 41
0.9047619048
 51
0.000018724
 72
0
  0
TEXT
  8
0
 62
5
  6
CONTINUOUS
 10
411.380005
 20
169.85
  7
TEXTSTYLE_4
 40
3.493164
  1
C
 41
0.8333333333
 51
0.000018724
 72
0
  0
TEXT
  8
0
 62
5
  6
CONTINUOUS
 10
411.380005
 20
216.019997
  7
TEXTSTYLE_5
 40
3.493164
  1
B
 41
0.7857142857
 51
0.000018724
 72
0
  0
TEXT
  8
0
 62
5
  6
CONTINUOUS
 10
411.380005
 20
262.190002
  7
TEXTSTYLE_5
 40
3.493164
  1
A
 41
0.8571428571
 51
0.000018724
 72
0
  0
TEXT
  8
0
 62
5
  6
CONTINUOUS
 10
385.009995
 20
287.770004
  7
TEXTSTYLE_6
 40
3.493164
  1
8
 41
0.7857142857
 51
0.000018724
 72
0
  0
TEXT
  8
0
 62
5
  6
CONTINUOUS
 10
336.879997
 20
287.770004
  7
TEXTSTYLE_2
 40
3.493164
  1
7
 41
0.7857142857
 51
0.000018724
 72
0
  0
TEXT
  8
0
 62
5
  6
CONTINUOUS
 10
288.75
 20
287.770004
  7
TEXTSTYLE_5
 40
3.493164
  1
6
 41
0.7857142857
 51
0.000018724
 72
0
  0
TEXT
  8
0
 62
5
  6
CONTINUOUS
 10
240.629999
 20
287.770004
  7
TEXTSTYLE_2
 40
3.493164
  1
5
 41
0.7142857143
 51
0.000018724
 72
0
  0
TEXT
  8
0
 62
5
  6
CONTINUOUS
 10
192.5
 20
287.770004
  7
TEXTSTYLE_5
 40
3.493164
  1
4
 41
0.7857142857
 51
0.000018724
 72
0
  0
TEXT
  8
0
 62
5
  6
CONTINUOUS
 10
144.370003
 20
287.770004
  7
TEXTSTYLE_2
 40
3.493164
  1
3
 41
0.7142857143
 51
0.000018724
 72
0
  0
TEXT
  8
0
 62
5
  6
CONTINUOUS
 10
96.239998
 20
287.770004
  7
TEXTSTYLE_2
 40
3.493164
  1
2
 41
0.7857142857
 51
0.000018724
 72
0
  0
TEXT
  8
0
 62
5
  6
CONTINUOUS
 10
48.110001
 20
287.770004
  7
TEXTSTYLE_2
 40
3.493164
  1
1
 41
0.5714285714
 51
0.000018724
 72
0
  0
TEXT
  8
0
 62
5
  6
CONTINUOUS
 10
21.380005
 20
262.190002
  7
TEXTSTYLE_5
 40
3.493164
  1
A
 41
0.8571428571
 51
0.000018724
 72
0
  0
TEXT
  8
0
 62
5
  6
CONTINUOUS
 10
21.380005
 20
216.019997
  7
TEXTSTYLE_5
 40
3.493164
  1
B
 41
0.7857142857
 51
0.000018724
 72
0
  0
TEXT
  8
0
 62
5
  6
CONTINUOUS
 10
21.380005
 20
169.85
  7
TEXTSTYLE_4
 40
3.493164
  1
C
 41
0.8333333333
 51
0.000018724
 72
0
  0
TEXT
  8
0
 62
5
  6
CONTINUOUS
 10
21.380005
 20
123.68
  7
TEXTSTYLE_3
 40
3.493164
  1
D
 41
0.9047619048
 51
0.000018724
 72
0
  0
TEXT
  8
0
 62
5
  6
CONTINUOUS
 10
21.380005
 20
77.510002
  7
TEXTSTYLE_2
 40
3.493164
  1
E
 41
0.7142857143
 51
0.000018724
 72
0
  0
TEXT
  8
0
 62
5
  6
CONTINUOUS
 10
21.380005
 20
31.339996
  7
TEXTSTYLE_7
 40
3.493164
  1
F
 41
0.7142857143
 51
0.000018724
 72
0
  0
TEXT
  8
0
 62
5
  6
CONTINUOUS
 10
48.110001
 20
5.770004
  7
TEXTSTYLE_2
 40
3.493164
  1
1
 41
0.5714285714
 51
0.000018724
 72
0
  0
TEXT
  8
0
 62
5
  6
CONTINUOUS
 10
96.239998
 20
5.770004
  7
TEXTSTYLE_2
 40
3.493164
  1
2
 41
0.7857142857
 51
0.000018724
 72
0
  0
TEXT
  8
0
 62
5
  6
CONTINUOUS
 10
144.370003
 20
5.770004
  7
TEXTSTYLE_2
 40
3.493164
  1
3
 41
0.7142857143
 51
0.000018724
 72
0
  0
TEXT
  8
0
 62
5
  6
CONTINUOUS
 10
192.5
 20
5.770004
  7
TEXTSTYLE_5
 40
3.493164
  1
4
 41
0.7857142857
 51
0.000018724
 72
0
  0
INSERT
  8
0
 62
2
  6
CONTINUOUS
  2
LINIEN_SRF_BL0
 10
316.3999935624
 20
37.6250019
  0
TEXT
  8
0
 62
7
  6
CONTINUOUS
 10
200.2634532481
 20
216.3535660191
  7
STANDARD
 40
5.0
  1
A
 41
0.8571428571
 72
0
  0
LINE
  8
0
 62
7
  6
CONTINUOUS
 10
198.2991675338
 20
203.9978537981
 11
198.2991675338
 21
223.8535660191
  0
SOLID
  8
0
 62
7
  6
CONTINUOUS
 10
196.7991675338
 20
210.9978537981
 11
198.2991675338
 21
203.9978537981
 12
199.7991675338
 22
210.9978537981
 13
199.7991675338
 23
210.9978537981
  0
TEXT
  8
0
 62
7
  6
CONTINUOUS
 10
120.512908376
 20
216.3535660191
  7
STANDARD
 40
5.0
  1
A
 41
0.8571428571
 72
0
  0
LINE
  8
0
 62
7
  6
CONTINUOUS
 10
126.762908376
 20
203.9978537981
 11
126.762908376
 21
223.8535660191
  0
SOLID
  8
0
 62
7
  6
CONTINUOUS
 10
125.262908376
 20
210.9978537981
 11
126.762908376
 21
203.9978537981
 12
128.262908376
 22
210.9978537981
 13
128.262908376
 23
210.9978537981
  0
DIMENSION
  8
0
 62
2
  6
CONTINUOUS
  2
*D0
 10
279.0492223258
 20
218.3878088554
 11
269.322387792
 21
204.2283401056
 70
132
 15
277.7483653191
 25
215.6845199238
  0
DIMENSION
  8
0
 62
2
  6
CONTINUOUS
  2
*D1
 10
166.7991675338
 20
252.9978537981
 11
155.0358325195
 21
252.9978537981
 70
128
 13
162.7991675338
 23
232.9978537981
 14
166.7991675338
 24
232.9978537981
  0
DIMENSION
  8
0
 62
2
  6
CONTINUOUS
  2
*D2
 10
140.7991675338
 20
232.9978537981
 11
140.7991675338
 21
203.9978537981
 70
128
 13
166.2991675334
 23
174.9978537981
 14
166.2991675334
 24
232.9978537981
 50
90.0
  0
DIMENSION
  8
0
 62
2
  6
CONTINUOUS
  2
*D3
 10
208.2991675338
 20
88.6595343372
 11
208.2991675338
 21
115.4051441041
 70
128
 13
178.2991675338
 23
84.6595343372
 14
178.2991675338
 24
88.6595343372
 50
90.0
  0
INSERT
  8
0
 62
2
  6
CONTINUOUS
  2
SYM_RH_ISO1302_V1_BL1
 10
194.26301899
 20
88.4095343372
  0
INSERT
  8
0
 62
2
  6
CONTINUOUS
  2
BZ_BEZUG_S102502_BL2
 10
208.2980720011
 20
76.5978246866
  0
DIMENSION
  8
0
 62
2
  6
CONTINUOUS
  2
*D4
 10
188.2991675338
 20
213.9978537981
 11
188.2991675338
 21
203.9978537981
 70
128
 13
178.2991675338
 23
193.9978537981
 14
178.2991675338
 24
213.9978537981
 50
90.0
  0
DIMENSION
  8
0
 62
2
  6
CONTINUOUS
  2
*D5
 10
178.2991675338
 20
262.9978537981
 11
170.0491662598
 21
262.9978537981
 70
128
 13
162.7991675338
 23
205.9978537981
 14
178.2991675338
 24
205.9978537981
  0
DIMENSION
  8
0
 62
2
  6
CONTINUOUS
  2
*D6
 10
175.2991675338
 20
47.6595343392
 11
183.6895358502
 21
47.6595343392
 70
128
 13
171.2991675338
 23
82.4068575249
 14
175.2991675338
 24
81.7139462835
  0
DIMENSION
  8
0
 62
2
  6
CONTINUOUS
  2
*D7
 10
173.2991675338
 20
242.9978537981
 11
175.2991662598
 21
242.9978537981
 70
128
 13
178.2991675338
 23
203.9978537981
 14
173.2991675338
 24
203.9978537981
 50
180.0
  0
DIMENSION
  8
0
 62
2
  6
CONTINUOUS
  2
*D8
 10
152.7991675338
 20
232.4978537981
 11
152.7991675338
 21
203.9978537981
 70
128
 13
164.7991675338
 23
175.4978537981
 14
164.7991675338
 24
232.4978537981
 50
90.0
  0
LINE
  8
0
 62
2
  6
CONTINUOUS
 10
152.7991675338
 20
175.4978537981
 11
152.7991675338
 21
170.5424711714
  0
LINE
  8
0
 62
2
  6
CONTINUOUS
 10
152.7991675338
 20
170.5424711714
 11
152.7991254918
 21
170.5424711714
  0
SOLID
  8
0
 62
2
  6
CONTINUOUS
 10
153.4991675338
 20
171.9978537981
 11
152.7991675338
 21
175.4978537981
 12
152.0991675338
 22
171.9978537981
 13
152.0991675338
 23
171.9978537981
  0
INSERT
  8
0
 62
2
  6
CONTINUOUS
  2
FORM-_UND_LAGETOLERIERUN_BL3
 10
152.7760331588
 20
157.6927444314
  0
LINE
  8
0
 62
2
  6
CONTINUOUS
 10
222.8
 20
75.75
 11
410.0
 21
75.75
  0
LINE
  8
0
 62
2
  6
CONTINUOUS
 10
222.8
 20
75.75
 11
222.8
 21
10.0
  0
LINE
  8
0
 62
2
  6
CONTINUOUS
 10
222.8
 20
65.25
 11
410.0
 21
65.25
  0
LINE
  8
0
 62
2
  6
CONTINUOUS
 10
321.6
 20
58.875
 11
410.0
 21
58.875
  0
LINE
  8
0
 62
2
  6
CONTINUOUS
 10
222.8
 20
48.25
 11
410.0
 21
48.25
  0
LINE
  8
0
 62
2
  6
CONTINUOUS
 10
222.8
 20
44.0
 11
321.6
 21
44.0
  0
LINE
  8
0
 62
2
  6
CONTINUOUS
 10
222.8
 20
39.75
 11
321.6
 21
39.75
  0
LINE
  8
0
 62
2
  6
CONTINUOUS
 10
222.8
 20
35.5
 11
321.6
 21
35.5
  0
LINE
  8
0
 62
2
  6
CONTINUOUS
 10
222.8
 20
31.25
 11
321.6
 21
31.25
  0
LINE
  8
0
 62
2
  6
CONTINUOUS
 10
222.8
 20
27.0
 11
410.0
 21
27.0
  0
LINE
  8
0
 62
2
  6
CONTINUOUS
 10
222.8
 20
22.75
 11
277.4
 21
22.75
  0
LINE
  8
0
 62
2
  6
CONTINUOUS
 10
222.8
 20
18.5
 11
277.4
 21
18.5
  0
LINE
  8
0
 62
2
  6
CONTINUOUS
 10
397.0
 20
18.5
 11
410.0
 21
18.5
  0
LINE
  8
0
 62
2
  6
CONTINUOUS
 10
222.8
 20
14.25
 11
410.0
 21
14.25
  0
LINE
  8
0
 62
2
  6
CONTINUOUS
 10
222.8
 20
10.0
 11
410.0
 21
10.0
  0
LINE
  8
0
 62
2
  6
CONTINUOUS
 10
230.6
 20
48.25
 11
230.6
 21
10.0
  0
LINE
  8
0
 62
2
  6
CONTINUOUS
 10
256.6
 20
48.25
 11
256.6
 21
10.0
  0
LINE
  8
0
 62
2
  6
CONTINUOUS
 10
269.6
 20
48.25
 11
269.6
 21
10.0
  0
LINE
  8
0
 62
2
  6
CONTINUOUS
 10
277.4
 20
65.25
 11
277.4
 21
10.0
  0
LINE
  8
0
 62
2
  6
CONTINUOUS
 10
287.8
 20
48.25
 11
287.8
 21
31.25
  0
LINE
  8
0
 62
2
  6
CONTINUOUS
 10
303.4
 20
75.75
 11
303.4
 21
27.0
  0
LINE
  8
0
 62
2
  6
CONTINUOUS
 10
321.6
 20
75.75
 11
321.6
 21
10.0
  0
LINE
  8
0
 62
2
  6
CONTINUOUS
 10
365.8
 20
14.25
 11
365.8
 21
10.0
  0
LINE
  8
0
 62
2
  6
CONTINUOUS
 10
373.6
 20
65.25
 11
373.6
 21
58.875
  0
LINE
  8
0
 62
2
  6
CONTINUOUS
 10
397.0
 20
27.0
 11
397.0
 21
14.25
  0
LINE
  8
0
 62
2
  6
CONTINUOUS
 10
410.0
 20
75.75
 11
410.0
 21
10.0
  0
TEXT
  8
0
 62
5
  6
CONTINUOUS
 10
224.025
 20
72.0
  7
TEXTSTYLE_10
 40
2.0
  1
Dateiname des Zeichnungsobjektes:          
 41
0.7148394241
 72
0
  0
TEXT
  8
0
 62
5
  6
CONTINUOUS
 10
224.025
 20
67.75
  7
TEXTSTYLE_10
 40
3.0
  1
ROUE_CODEUSE
 41
0.7817460317
 72
0
  0
TEXT
  8
0
 62
5
  6
CONTINUOUS
 10
304.625
 20
72.0
  7
TEXTSTYLE_10
 40
2.0
  1
Dateityp:
 41
0.6322751323
 72
0
  0
TEXT
  8
0
 62
5
  6
CONTINUOUS
 10
304.625
 20
67.75
  7
TEXTSTYLE_10
 40
3.0
  1
PART
 41
0.8214285714
 72
0
  0
TEXT
  8
0
 62
5
  6
CONTINUOUS
 10
322.825
 20
72.0
  7
TEXTSTYLE_10
 40
2.0
  1
Dateiname der Zeichnung:                      
 41
0.7396480331
 72
0
  0
TEXT
  8
0
 62
5
  6
CONTINUOUS
 10
322.825
 20
67.75
  7
TEXTSTYLE_10
 40
3.0
  1
ROUE_CODEUSE
 41
0.7817460317
 72
0
  0
TEXT
  8
0
 62
5
  6
CONTINUOUS
 10
283.36875
 20
61.125
  7
TEXTSTYLE_12
 40
2.5
  1
Tolerierung
 41
0.5113636364
 72
1
 11
290.4
 21
61.125
  0
TEXT
  8
0
 62
5
  6
CONTINUOUS
 10
284.384375
 20
57.375
  7
TEXTSTYLE_12
 40
2.5
  1
ISO 8015
 41
0.6015625
 72
1
 11
290.4
 21
57.375
  0
TEXT
  8
0
 62
5
  6
CONTINUOUS
 10
281.49375
 20
53.625
  7
TEXTSTYLE_12
 40
2.5
  1
Allg. Toleranz
 41
0.5089285714
 72
1
 11
290.4
 21
53.625
  0
TEXT
  8
0
 62
5
  6
CONTINUOUS
 10
277.68515625
 20
49.875
  7
TEXTSTYLE_12
 40
2.5
  1
DIN ISO 2768 m-K
 41
0.6357421875
 72
1
 11
290.4
 21
49.875
  0
TEXT
  8
0
 62
5
  6
CONTINUOUS
 10
322.825
 20
60.3125
  7
TEXTSTYLE_13
 40
3.5
  1
Maßstab 
 41
0.7089285714
 72
0
  0
TEXT
  8
0
 62
5
  6
CONTINUOUS
 10
342.675
 20
60.3125
  7
TEXTSTYLE_14
 40
3.5
  1
1:1
 41
0.7361111111
 72
0
  0
TEXT
  8
0
 62
5
  6
CONTINUOUS
 10
374.825
 20
60.3125
  7
TEXTSTYLE_15
 40
3.5
  1
Gew.:
 41
0.7238095238
 72
0
  0
TEXT
  8
0
 62
5
  6
CONTINUOUS
 10
387.4916666667
 20
60.3125
  7
TEXTSTYLE_16
 40
3.5
  1
37
 41
0.7333333333
 72
0
  0
TEXT
  8
0
 62
5
  6
CONTINUOUS
 10
392.625
 20
60.3125
  7
TEXTSTYLE_15
 40
3.5
  1
g
 41
0.7142857143
 72
0
  0
TEXT
  8
0
 62
5
  6
CONTINUOUS
 10
322.825
 20
54.4375
  7
TEXTSTYLE_17
 40
2.5
  1
Werkstoff: 
 41
0.7012987013
 72
0
  0
TEXT
  8
0
 62
5
  6
CONTINUOUS
 10
342.1107142857
 20
54.4375
  7
TEXTSTYLE_18
 40
3.5
  1
Rd Ø60 AlMgSi
 41
0.5115384615
 72
0
  0
TEXT
  8
0
 62
5
  6
CONTINUOUS
 10
322.825
 20
49.1875
  7
TEXTSTYLE_17
 40
2.5
  1
Halbzeug: 
 41
0.6714285714
 72
0
  0
TEXT
  8
0
 62
5
  6
CONTINUOUS
 10
339.6107142857
 20
49.1875
  7
TEXTSTYLE_18
 40
3.5
  1
30
 41
0.55
 72
0
  0
TEXT
  8
0
 62
5
  6
CONTINUOUS
 10
289.025
 20
44.875
  7
TEXTSTYLE_19
 40
2.5
  1
 Datum
 41
0.7698412698
 72
0
  0
TEXT
  8
0
 62
5
  6
CONTINUOUS
 10
304.625
 20
44.875
  7
TEXTSTYLE_19
 40
2.5
  1
  Name
 41
0.7857142857
 72
0
  0
TEXT
  8
0
 62
5
  6
CONTINUOUS
 10
322.8535714286
 20
44.0
  7
TEXTSTYLE_17
 40
2.5
  1
Benennung:                                   
 41
0.7634920635
 72
1
 11
365.8
 21
44.0
  0
TEXT
  8
0
 62
5
  6
CONTINUOUS
 10
356.925
 20
37.125
  7
TEXTSTYLE_18
 40
5.0
  1
Einzelteil
 41
0.355
 72
1
 11
365.8
 21
37.125
  0
TEXT
  8
0
 62
5
  6
CONTINUOUS
 10
278.625
 20
40.625
  7
TEXTSTYLE_11
 40
2.5
  1
Bear.
 41
0.6857142857
 72
0
  0
TEXT
  8
0
 62
5
  6
CONTINUOUS
 10
289.025
 20
40.875
  7
TEXTSTYLE_17
 40
2.0
  1
13.02.208
 41
0.7063492063
 72
0
  0
TEXT
  8
0
 62
5
  6
CONTINUOUS
 10
304.625
 20
40.875
  7
TEXTSTYLE_17
 40
2.0
  1
wolffced
 41
0.6785714286
 72
0
  0
TEXT
  8
0
 62
5
  6
CONTINUOUS
 10
278.625
 20
36.375
  7
TEXTSTYLE_11
 40
2.5
  1
Gepr.
 41
0.6857142857
 72
0
  0
TEXT
  8
0
 62
5
  6
CONTINUOUS
 10
289.025
 20
36.625
  7
TEXTSTYLE_17
 40
2.0
  1
.
 41
0.5714285714
 72
0
  0
TEXT
  8
0
 62
5
  6
CONTINUOUS
 10
304.625
 20
36.625
  7
TEXTSTYLE_17
 40
2.0
  1
.
 41
0.5714285714
 72
0
  0
TEXT
  8
0
 62
5
  6
CONTINUOUS
 10
278.625
 20
32.125
  7
TEXTSTYLE_11
 40
2.5
  1
Norm
 41
0.7678571429
 72
0
  0
TEXT
  8
0
 62
5
  6
CONTINUOUS
 10
292.4583333333
 20
18.875
  7
TEXTSTYLE_10
 40
3.5
  1
COGIP
 41
0.8047619048
 72
1
 11
299.5
 21
18.875
  0
TEXT
  8
0
 62
5
  6
CONTINUOUS
 10
322.7523809524
 20
22.75
  7
TEXTSTYLE_17
 40
2.5
  1
Zeichnungsnummer:                      
 41
0.7496947497
 72
1
 11
359.3
 21
22.75
  0
TEXT
  8
0
 62
5
  6
CONTINUOUS
 10
342.8
 20
15.875
  7
TEXTSTYLE_18
 40
5.0
  1
RP2018-BR-0001
 41
0.4714285714
 72
1
 11
359.3
 21
15.875
  0
TEXT
  8
0
 62
5
  6
CONTINUOUS
 10
398.225
 20
21.0
  7
TEXTSTYLE_17
 40
2.5
  1
Blatt
 41
0.6285714286
 72
0
  0
TEXT
  8
0
 62
5
  6
CONTINUOUS
 10
406.0821428571
 20
21.0
  7
TEXTSTYLE_18
 40
3.5
  1
1
 41
0.25
 72
0
  0
TEXT
  8
0
 62
5
  6
CONTINUOUS
 10
398.225
 20
14.775
  7
TEXTSTYLE_12
 40
3.2
  1
 
 41
0.75
 72
0
  0
TEXT
  8
0
 62
5
  6
CONTINUOUS
 10
400.625
 20
14.775
  7
TEXTSTYLE_12
 40
3.2
  1
1
 41
0.3125
 72
0
  0
TEXT
  8
0
 62
5
  6
CONTINUOUS
 10
401.625
 20
14.775
  7
TEXTSTYLE_13
 40
2.5
  1
 Bl.
 41
0.6607142857
 72
0
  0
TEXT
  8
0
 62
5
  6
CONTINUOUS
 10
224.025
 20
10.875
  7
TEXTSTYLE_20
 40
2.5
  1
Zust.
 41
0.6714285714
 72
0
  0
TEXT
  8
0
 62
5
  6
CONTINUOUS
 10
231.825
 20
10.875
  7
TEXTSTYLE_11
 40
2.5
  1
   Änderung
 41
0.7305194805
 72
0
  0
TEXT
  8
0
 62
5
  6
CONTINUOUS
 10
257.825
 20
10.875
  7
TEXTSTYLE_11
 40
2.5
  1
 Datum
 41
0.7698412698
 72
0
  0
TEXT
  8
0
 62
5
  6
CONTINUOUS
 10
270.825
 20
10.875
  7
TEXTSTYLE_11
 40
2.5
  1
Nam.
 41
0.75
 72
0
  0
TEXT
  8
0
 62
5
  6
CONTINUOUS
 10
278.625
 20
10.875
  7
TEXTSTYLE_11
 40
2.5
  1
(Urspr.)
 41
0.6160714286
 72
0
  0
TEXT
  8
0
 62
5
  6
CONTINUOUS
 10
322.825
 20
10.875
  7
TEXTSTYLE_11
 40
2.5
  1
(Ers.f.:)
 41
0.5555555556
 72
0
  0
TEXT
  8
0
 62
5
  6
CONTINUOUS
 10
367.025
 20
10.875
  7
TEXTSTYLE_11
 40
2.5
  1
(Ers.d.:)
 41
0.5714285714
 72
0
  0
TEXT
  8
0
 62
5
  6
CONTINUOUS
 10
118.0144193729
 20
244.2890379759
  7
STANDARD
 40
5.0
  1
Detail z
 41
0.6517857143
 72
2
 11
144.0858479444
 21
244.2890379759
  0
LINE
  8
0
 62
2
  6
CONTINUOUS
 10
160.859126705
 20
236.9474643794
 11
149.0858479444
 21
246.7890379759
  0
LINE
  8
0
 62
2
  6
CONTINUOUS
 10
149.0858479444
 20
246.7890379759
 11
144.0858479444
 21
246.7890379759
  0
SOLID
  8
0
 62
2
  6
CONTINUOUS
 10
157.7248276928
 20
238.6551440046
 11
160.859126705
 21
236.9474643794
 12
158.6227274727
 22
239.7292836535
 13
158.6227274727
 23
239.7292836535
  0
TEXT
  8
0
 62
5
  6
CONTINUOUS
 10
164.2657927159
 20
124.1901253574
  7
STANDARD
 40
5.0
  1
A-A
 41
0.8095238095
 72
0
  0
TEXT
  8
0
 62
5
  6
CONTINUOUS
 10
262.9835039523
 20
250.4143364145
  7
STANDARD
 40
5.0
  1
Detail z
 41
0.6517857143
 72
0
  0
TEXT
  8
0
 62
5
  6
CONTINUOUS
 10
262.9835039523
 20
244.7893364145
  7
STANDARD
 40
3.5
  1
2:1
 41
0.5634920635
 72
0
  0
INSERT
  8
0
 62
2
  6
CONTINUOUS
  2
INA_STANDARDTEXT__BL4
 10
201.8817325125
 20
139.0302732823
  0
LINE
  8
0
 62
2
  6
CONTINUOUS
 10
281.6709016664
 20
216.9294544968
 11
271.3834652774
 21
227.5786210858
  0
LINE
  8
0
 62
2
  6
CONTINUOUS
 10
271.3834652774
 20
227.5786210858
 11
248.4153136353
 21
227.5786210858
  0
SOLID
  8
0
 62
2
  6
CONTINUOUS
 10
278.7356987643
 20
218.9603616643
 11
281.6709016664
 21
216.9294544968
 12
279.7426017442
 22
219.9330622292
 13
279.7426017442
 23
219.9330622292
  0
INSERT
  8
0
 62
2
  6
CONTINUOUS
  2
SYM_RH_ISO1302_V1_BL5
 10
262.0700141737
 20
231.3286210858
  0
LINE
  8
0
 62
2
  6
CONTINUOUS
 10
0.0
 20
297.0
 11
0.0
 21
0.0
  0
LINE
  8
0
 62
7
  6
CONTINUOUS
 10
20.0
 20
292.0
 11
20.0
 21
5.0
  0
LINE
  8
0
 62
2
  6
CONTINUOUS
 10
25.0
 20
287.0
 11
25.0
 21
10.0
  0
LINE
  8
0
 62
2
  6
CONTINUOUS
 10
0.0
 20
0.0
 11
420.0
 21
0.0
  0
LINE
  8
0
 62
2
  6
CONTINUOUS
 10
73.110001
 20
10.0
 11
73.110001
 21
5.0
  0
LINE
  8
0
 62
2
  6
CONTINUOUS
 10
73.110001
 20
287.0
 11
73.110001
 21
292.0
  0
LINE
  8
0
 62
7
  6
CONTINUOUS
 10
415.0
 20
5.0
 11
20.0
 21
5.0
  0
LINE
  8
0
 62
2
  6
CONTINUOUS
 10
25.0
 20
10.0
 11
410.0
 21
10.0
  0
LINE
  8
0
 62
2
  6
CONTINUOUS
 10
121.239998
 20
10.0
 11
121.239998
 21
5.0
  0
LINE
  8
0
 62
2
  6
CONTINUOUS
 10
121.239998
 20
287.0
 11
121.239998
 21
292.0
  0
LINE
  8
0
 62
2
  6
CONTINUOUS
 10
25.0
 20
56.18
 11
20.0
 21
56.18
  0
LINE
  8
0
 62
2
  6
CONTINUOUS
 10
125.0
 20
5.0
 11
125.0
 21
2.0
  0
LINE
  8
0
 62
2
  6
CONTINUOUS
 10
125.0
 20
292.0
 11
125.0
 21
295.0
  0
LINE
  8
0
 62
2
  6
CONTINUOUS
 10
3.5
 20
148.5
 11
0.0
 21
147.33
  0
LINE
  8
0
 62
2
  6
CONTINUOUS
 10
0.0
 20
149.67
 11
3.5
 21
148.5
  0
LINE
  8
0
 62
2
  6
CONTINUOUS
 10
25.0
 20
102.34
 11
20.0
 21
102.34
  0
LINE
  8
0
 62
2
  6
CONTINUOUS
 10
410.0
 20
102.34
 11
415.0
 21
102.34
  0
LINE
  8
0
 62
2
  6
CONTINUOUS
 10
169.369999
 20
10.0
 11
169.369999
 21
5.0
  0
LINE
  8
0
 62
2
  6
CONTINUOUS
 10
169.369999
 20
287.0
 11
169.369999
 21
292.0
  0
LINE
  8
0
 62
2
  6
CONTINUOUS
 10
25.0
 20
148.5
 11
20.0
 21
148.5
  0
LINE
  8
0
 62
2
  6
CONTINUOUS
 10
410.0
 20
148.5
 11
415.0
 21
148.5
  0
LINE
  8
0
 62
2
  6
CONTINUOUS
 10
217.5
 20
10.0
 11
217.5
 21
5.0
  0
LINE
  8
0
 62
2
  6
CONTINUOUS
 10
217.5
 20
287.0
 11
217.5
 21
292.0
  0
LINE
  8
0
 62
2
  6
CONTINUOUS
 10
230.0
 20
5.0
 11
230.0
 21
2.0
  0
LINE
  8
0
 62
2
  6
CONTINUOUS
 10
230.0
 20
292.0
 11
230.0
 21
295.0
  0
LINE
  8
0
 62
2
  6
CONTINUOUS
 10
265.630001
 20
287.0
 11
265.630001
 21
292.0
  0
LINE
  8
0
 62
2
  6
CONTINUOUS
 10
25.0
 20
194.66
 11
20.0
 21
194.66
  0
LINE
  8
0
 62
2
  6
CONTINUOUS
 10
410.0
 20
194.66
 11
415.0
 21
194.66
  0
LINE
  8
0
 62
2
  6
CONTINUOUS
 10
313.760002
 20
287.0
 11
313.760002
 21
292.0
  0
LINE
  8
0
 62
2
  6
CONTINUOUS
 10
25.0
 20
240.82
 11
20.0
 21
240.82
  0
LINE
  8
0
 62
2
  6
CONTINUOUS
 10
410.0
 20
240.82
 11
415.0
 21
240.82
  0
LINE
  8
0
 62
2
  6
CONTINUOUS
 10
410.0
 20
287.0
 11
25.0
 21
287.0
  0
LINE
  8
0
 62
7
  6
CONTINUOUS
 10
415.0
 20
292.0
 11
20.0
 21
292.0
  0
LINE
  8
0
 62
2
  6
CONTINUOUS
 10
420.0
 20
297.0
 11
0.0
 21
297.0
  0
LINE
  8
0
 62
2
  6
CONTINUOUS
 10
361.889999
 20
287.0
 11
361.889999
 21
292.0
  0
LINE
  8
0
 62
2
  6
CONTINUOUS
 10
410.0
 20
10.0
 11
410.0
 21
287.0
  0
LINE
  8
0
 62
7
  6
CONTINUOUS
 10
415.0
 20
5.0
 11
415.0
 21
292.0
  0
LINE
  8
0
 62
2
  6
CONTINUOUS
 10
420.0
 20
0.0
 11
420.0
 21
297.0
  0
LINE
  8
D_AXIS
 62
7
  6
CONTINUOUS
 10
166.7991675338
 20
174.9978537981
 11
166.2991675334
 21
174.9978537981
  0
LINE
  8
D_AXIS
 62
7
  6
CONTINUOUS
 10
163.2991675342
 20
174.9978537981
 11
162.7991675338
 21
174.9978537981
  0
LINE
  8
D_AXIS
 62
7
  6
CENTER
 10
164.7991675338
 20
175.4978537981
 11
160.0220331441
 21
175.4978537981
  0
LINE
  8
D_AXIS
 62
7
  6
CENTER
 10
164.7991675338
 20
175.4978537981
 11
169.6036210215
 21
175.4978537981
  0
LINE
  8
D_AXIS
 62
7
  6
CONTINUOUS
 10
178.2991675338
 20
193.9978537981
 11
166.7991675338
 21
193.9978537981
  0
LINE
  8
D_AXIS
 62
7
  6
CONTINUOUS
 10
162.7991675338
 20
232.9978537981
 11
162.7991675338
 21
174.9978537981
  0
LINE
  8
D_AXIS
 62
7
  6
CONTINUOUS
 10
163.2991675342
 20
232.9978537981
 11
163.2991675342
 21
174.9978537981
  0
LINE
  8
D_AXIS
 62
7
  6
CENTER
 10
164.7991675338
 20
232.4978537981
 11
164.7991675338
 21
229.2632372641
  0
LINE
  8
D_AXIS
 62
7
  6
CENTER
 10
164.7991675338
 20
175.4978537981
 11
164.7991675338
 21
170.6496511433
  0
LINE
  8
D_AXIS
 62
7
  6
CENTER
 10
164.7991675338
 20
175.4978537981
 11
164.7991675338
 21
179.7530451711
  0
LINE
  8
D_AXIS
 62
7
  6
CENTER
 10
164.7991675338
 20
232.4978537981
 11
164.7991675338
 21
236.3830123597
  0
LINE
  8
D_AXIS
 62
7
  6
CONTINUOUS
 10
166.2991675334
 20
232.9978537981
 11
166.2991675334
 21
174.9978537981
  0
LINE
  8
D_AXIS
 62
7
  6
CONTINUOUS
 10
166.7991675338
 20
232.9978537981
 11
166.7991675338
 21
174.9978537981
  0
LINE
  8
0
 62
7
  6
CENTER
 10
198.2991675338
 20
203.9978537981
 11
190.8937011033
 21
203.9978537981
  0
LINE
  8
D_AXIS
 62
7
  6
CENTER
 10
173.2991675338
 20
203.9978537981
 11
169.5991675338
 21
203.9978537981
  0
LINE
  8
0
 62
7
  6
CENTER
 10
180.8650174669
 20
203.9978537981
 11
155.1071352851
 21
203.9978537981
  0
LINE
  8
0
 62
7
  6
CENTER
 10
129.3492531033
 20
203.9978537981
 11
126.762908376
 21
203.9978537981
  0
LINE
  8
D_AXIS
 62
7
  6
CENTER
 10
173.2991675338
 20
203.9978537981
 11
176.9991675338
 21
203.9978537981
  0
LINE
  8
D_COSM
 62
7
  6
CONTINUOUS
 10
172.4777389368
 20
201.7478537981
 11
172.4777389368
 21
203.7478537981
  0
POLYLINE
  8
0
 62
2
  6
CONTINUOUS
 66
1
 70
0
  0
VERTEX
  8
0
 62
2
  6
CONTINUOUS
 10
171.2991675338
 20
203.9978537981
  0
VERTEX
  8
0
 62
2
  6
CONTINUOUS
 10
171.3001007874
 20
204.0589335535
  0
VERTEX
  8
0
 62
2
  6
CONTINUOUS
 10
171.3029002963
 20
204.1199831192
  0
VERTEX
  8
0
 62
2
  6
CONTINUOUS
 10
171.3075656829
 20
204.1809441243
  0
VERTEX
  8
0
 62
2
  6
CONTINUOUS
 10
171.3140958418
 20
204.2417590276
  0
VERTEX
  8
0
 62
2
  6
CONTINUOUS
 10
171.3224867563
 20
204.3023736076
  0
VERTEX
  8
0
 62
2
  6
CONTINUOUS
 10
171.3327336821
 20
204.3627344728
  0
VERTEX
  8
0
 62
2
  6
CONTINUOUS
 10
171.3448313594
 20
204.4227885467
  0
VERTEX
  8
0
 62
2
  6
CONTINUOUS
 10
171.3587724675
 20
204.4824840143
  0
VERTEX
  8
0
 62
2
  6
CONTINUOUS
 10
171.3745491705
 20
204.5417693757
  0
VERTEX
  8
0
 62
2
  6
CONTINUOUS
 10
171.3921528976
 20
204.6005927326
  0
VERTEX
  8
0
 62
2
  6
CONTINUOUS
 10
171.4115721392
 20
204.6589005929
  0
VERTEX
  8
0
 62
2
  6
CONTINUOUS
 10
171.4327946508
 20
204.7166390661
  0
VERTEX
  8
0
 62
2
  6
CONTINUOUS
 10
171.4558071212
 20
204.7737538183
  0
VERTEX
  8
0
 62
2
  6
CONTINUOUS
 10
171.4805919716
 20
204.8301887415
  0
VERTEX
  8
0
 62
2
  6
CONTINUOUS
 10
171.5071305566
 20
204.8858872841
  0
VERTEX
  8
0
 62
2
  6
CONTINUOUS
 10
171.535403177
 20
204.9407929602
  0
VERTEX
  8
0
 62
2
  6
CONTINUOUS
 10
171.5653859198
 20
204.994849546
  0
VERTEX
  8
0
 62
2
  6
CONTINUOUS
 10
171.5970538185
 20
205.048000883
  0
VERTEX
  8
0
 62
2
  6
CONTINUOUS
 10
171.6303802769
 20
205.1001905612
  0
VERTEX
  8
0
 62
2
  6
CONTINUOUS
 10
171.665332182
 20
205.1513611625
  0
VERTEX
  8
0
 62
2
  6
CONTINUOUS
 10
171.7018747911
 20
205.201455017
  0
VERTEX
  8
0
 62
2
  6
CONTINUOUS
 10
171.7399727333
 20
205.2504156757
  0
VERTEX
  8
0
 62
2
  6
CONTINUOUS
 10
171.7795881246
 20
205.2981915724
  0
VERTEX
  8
0
 62
2
  6
CONTINUOUS
 10
171.8206824528
 20
205.3447323618
  0
VERTEX
  8
0
 62
2
  6
CONTINUOUS
 10
171.8632150196
 20
205.3899875043
  0
VERTEX
  8
0
 62
2
  6
CONTINUOUS
 10
171.9071363828
 20
205.4339056827
  0
VERTEX
  8
0
 62
2
  6
CONTINUOUS
 10
171.952394914
 20
205.4764353855
  0
VERTEX
  8
0
 62
2
  6
CONTINUOUS
 10
171.9989395246
 20
205.5175274184
  0
VERTEX
  8
0
 62
2
  6
CONTINUOUS
 10
172.0467212833
 20
205.5571418556
  0
VERTEX
  8
0
 62
2
  6
CONTINUOUS
 10
172.0956917986
 20
205.5952410883
  0
VERTEX
  8
0
 62
2
  6
CONTINUOUS
 10
172.1458003656
 20
205.6317875203
  0
VERTEX
  8
0
 62
2
  6
CONTINUOUS
 10
172.1969870263
 20
205.6667436046
  0
VERTEX
  8
0
 62
2
  6
CONTINUOUS
 10
172.2491895098
 20
205.7000718068
  0
VERTEX
  8
0
 62
2
  6
CONTINUOUS
 10
172.3023474536
 20
205.731737166
  0
VERTEX
  8
0
 62
2
  6
CONTINUOUS
 10
172.3564081302
 20
205.7617150169
  0
VERTEX
  8
0
 62
2
  6
CONTINUOUS
 10
172.4113207208
 20
205.789983268
  0
VERTEX
  8
0
 62
2
  6
CONTINUOUS
 10
172.4670323022
 20
205.816519936
  0
VERTEX
  8
0
 62
2
  6
CONTINUOUS
 10
172.5234815336
 20
205.8413034718
  0
VERTEX
  8
0
 62
2
  6
CONTINUOUS
 10
172.5806049701
 20
205.8643124347
  0
VERTEX
  8
0
 62
2
  6
CONTINUOUS
 10
172.6383416912
 20
205.8855273038
  0
VERTEX
  8
0
 62
2
  6
CONTINUOUS
 10
172.6966408753
 20
205.9049362372
  0
VERTEX
  8
0
 62
2
  6
CONTINUOUS
 10
172.7554542253
 20
205.9225293131
  0
VERTEX
  8
0
 62
2
  6
CONTINUOUS
 10
172.8147318672
 20
205.9382967735
  0
VERTEX
  8
0
 62
2
  6
CONTINUOUS
 10
172.8744176202
 20
205.9522295168
  0
VERTEX
  8
0
 62
2
  6
CONTINUOUS
 10
172.9344537261
 20
205.9643186054
  0
VERTEX
  8
0
 62
2
  6
CONTINUOUS
 10
172.9947842375
 20
205.9745560809
  0
VERTEX
  8
0
 62
2
  6
CONTINUOUS
 10
173.0553604485
 20
205.9829379013
  0
VERTEX
  8
0
 62
2
  6
CONTINUOUS
 10
173.1161354637
 20
205.9894610037
  0
VERTEX
  8
0
 62
2
  6
CONTINUOUS
 10
173.1770617556
 20
205.9941225632
  0
VERTEX
  8
0
 62
2
  6
CONTINUOUS
 10
173.2380892684
 20
205.9969207064
  0
VERTEX
  8
0
 62
2
  6
CONTINUOUS
 10
173.2991673141
 20
205.9978537981
  0
VERTEX
  8
0
 62
2
  6
CONTINUOUS
 10
173.3602452392
 20
205.9969207465
  0
VERTEX
  8
0
 62
2
  6
CONTINUOUS
 10
173.4212725275
 20
205.9941226341
  0
VERTEX
  8
0
 62
2
  6
CONTINUOUS
 10
173.4821986972
 20
205.989461087
  0
VERTEX
  8
0
 62
2
  6
CONTINUOUS
 10
173.5429738308
 20
205.9829379753
  0
VERTEX
  8
0
 62
2
  6
CONTINUOUS
 10
173.6035502682
 20
205.9745561447
  0
VERTEX
  8
0
 62
2
  6
CONTINUOUS
 10
173.6638809134
 20
205.9643186849
  0
VERTEX
  8
0
 62
2
  6
CONTINUOUS
 10
173.7239169255
 20
205.9522296528
  0
VERTEX
  8
0
 62
2
  6
CONTINUOUS
 10
173.7836024814
 20
205.9382969755
  0
VERTEX
  8
0
 62
2
  6
CONTINUOUS
 10
173.8428800131
 20
205.9225295474
  0
VERTEX
  8
0
 62
2
  6
CONTINUOUS
 10
173.901693468
 20
205.9049364439
  0
VERTEX
  8
0
 62
2
  6
CONTINUOUS
 10
173.959992856
 20
205.8855274637
  0
VERTEX
  8
0
 62
2
  6
CONTINUOUS
 10
174.0177297026
 20
205.8643125868
  0
VERTEX
  8
0
 62
2
  6
CONTINUOUS
 10
174.0748530656
 20
205.841303691
  0
VERTEX
  8
0
 62
2
  6
CONTINUOUS
 10
174.1313021318
 20
205.8165202481
  0
VERTEX
  8
0
 62
2
  6
CONTINUOUS
 10
174.1870136204
 20
205.7899836278
  0
VERTEX
  8
0
 62
2
  6
CONTINUOUS
 10
174.2419263024
 20
205.7617153342
  0
VERTEX
  8
0
 62
2
  6
CONTINUOUS
 10
174.2959871565
 20
205.7317374068
  0
VERTEX
  8
0
 62
2
  6
CONTINUOUS
 10
174.3491452133
 20
205.7000720193
  0
VERTEX
  8
0
 62
2
  6
CONTINUOUS
 10
174.4013476428
 20
205.6667438904
  0
VERTEX
  8
0
 62
2
  6
CONTINUOUS
 10
174.4525341708
 20
205.631787918
  0
VERTEX
  8
0
 62
2
  6
CONTINUOUS
 10
174.5026426626
 20
205.5952415451
  0
VERTEX
  8
0
 62
2
  6
CONTINUOUS
 10
174.5516132537
 20
205.5571422588
  0
VERTEX
  8
0
 62
2
  6
CONTINUOUS
 10
174.5993951608
 20
205.5175277223
  0
VERTEX
  8
0
 62
2
  6
CONTINUOUS
 10
174.6459398711
 20
205.4764356428
  0
VERTEX
  8
0
 62
2
  6
CONTINUOUS
 10
174.6911983701
 20
205.4339060113
  0
VERTEX
  8
0
 62
2
  6
CONTINUOUS
 10
174.7351196364
 20
205.3899879526
  0
VERTEX
  8
0
 62
2
  6
CONTINUOUS
 10
174.7776521471
 20
205.3447328752
  0
VERTEX
  8
0
 62
2
  6
CONTINUOUS
 10
174.8187465329
 20
205.2981920276
  0
VERTEX
  8
0
 62
2
  6
CONTINUOUS
 10
174.8583620395
 20
205.2504160185
  0
VERTEX
  8
0
 62
2
  6
CONTINUOUS
 10
174.8964600659
 20
205.2014552965
  0
VERTEX
  8
0
 62
2
  6
CONTINUOUS
 10
174.9330026664
 20
205.1513614973
  0
VERTEX
  8
0
 62
2
  6
CONTINUOUS
 10
174.9679545147
 20
205.1001910037
  0
VERTEX
  8
0
 62
2
  6
CONTINUOUS
 10
175.0012809394
 20
205.0480013852
  0
VERTEX
  8
0
 62
2
  6
CONTINUOUS
 10
175.0329488773
 20
204.9948499917
  0
VERTEX
  8
0
 62
2
  6
CONTINUOUS
 10
175.0629316991
 20
204.9407932935
  0
VERTEX
  8
0
 62
2
  6
CONTINUOUS
 10
175.0912043837
 20
204.8858875412
  0
VERTEX
  8
0
 62
2
  6
CONTINUOUS
 10
175.1177429788
 20
204.830189022
  0
VERTEX
  8
0
 62
2
  6
CONTINUOUS
 10
175.1425278083
 20
204.7737541713
  0
VERTEX
  8
0
 62
2
  6
CONTINUOUS
 10
175.1655402647
 20
204.7166394611
  0
VERTEX
  8
0
 62
2
  6
CONTINUOUS
 10
175.1867627971
 20
204.6589009439
  0
VERTEX
  8
0
 62
2
  6
CONTINUOUS
 10
175.2061820801
 20
204.6005929927
  0
VERTEX
  8
0
 62
2
  6
CONTINUOUS
 10
175.2237858448
 20
204.5417695609
  0
VERTEX
  8
0
 62
2
  6
CONTINUOUS
 10
175.2395625632
 20
204.4824841856
  0
VERTEX
  8
0
 62
2
  6
CONTINUOUS
 10
175.2535036719
 20
204.4227887381
  0
VERTEX
  8
0
 62
2
  6
CONTINUOUS
 10
175.2656013483
 20
204.3627346734
  0
VERTEX
  8
0
 62
2
  6
CONTINUOUS
 10
175.2758482821
 20
204.3023737739
  0
VERTEX
  8
0
 62
2
  6
CONTINUOUS
 10
175.2842392099
 20
204.2417591329
  0
VERTEX
  8
0
 62
2
  6
CONTINUOUS
 10
175.2907693804
 20
204.1809441707
  0
VERTEX
  8
0
 62
2
  6
CONTINUOUS
 10
175.295434772
 20
204.1199831316
  0
VERTEX
  8
0
 62
2
  6
CONTINUOUS
 10
175.298234281
 20
204.0589335535
  0
VERTEX
  8
0
 62
2
  6
CONTINUOUS
 10
175.2991675338
 20
203.9978537981
  0
SEQEND
  0
POLYLINE
  8
0
 62
2
  6
CONTINUOUS
 66
1
 70
0
  0
VERTEX
  8
0
 62
2
  6
CONTINUOUS
 10
171.3664319013
 20
203.483526248
  0
VERTEX
  8
0
 62
2
  6
CONTINUOUS
 10
171.3600172288
 20
203.5082665905
  0
VERTEX
  8
0
 62
2
  6
CONTINUOUS
 10
171.3539211253
 20
203.5330788706
  0
VERTEX
  8
0
 62
2
  6
CONTINUOUS
 10
171.3481441567
 20
203.557959366
  0
VERTEX
  8
0
 62
2
  6
CONTINUOUS
 10
171.342686889
 20
203.5829043546
  0
VERTEX
  8
0
 62
2
  6
CONTINUOUS
 10
171.3375498879
 20
203.6079101143
  0
VERTEX
  8
0
 62
2
  6
CONTINUOUS
 10
171.3327337193
 20
203.6329729229
  0
VERTEX
  8
0
 62
2
  6
CONTINUOUS
 10
171.328115215
 20
203.658807383
  0
VERTEX
  8
0
 62
2
  6
CONTINUOUS
 10
171.323837111
 20
203.6846940555
  0
VERTEX
  8
0
 62
2
  6
CONTINUOUS
 10
171.3198997815
 20
203.7106287354
  0
VERTEX
  8
0
 62
2
  6
CONTINUOUS
 10
171.3163036003
 20
203.7366072174
  0
VERTEX
  8
0
 62
2
  6
CONTINUOUS
 10
171.3130489415
 20
203.7626252965
  0
VERTEX
  8
0
 62
2
  6
CONTINUOUS
 10
171.3101361791
 20
203.7886787676
  0
VERTEX
  8
0
 62
2
  6
CONTINUOUS
 10
171.3075656872
 20
203.8147634255
  0
VERTEX
  8
0
 62
2
  6
CONTINUOUS
 10
171.3053377823
 20
203.8408750004
  0
VERTEX
  8
0
 62
2
  6
CONTINUOUS
 10
171.3034525512
 20
203.8670089628
  0
VERTEX
  8
0
 62
2
  6
CONTINUOUS
 10
171.3019100234
 20
203.8931607189
  0
VERTEX
  8
0
 62
2
  6
CONTINUOUS
 10
171.3007102284
 20
203.9193256746
  0
VERTEX
  8
0
 62
2
  6
CONTINUOUS
 10
171.2998531955
 20
203.9454992357
  0
VERTEX
  8
0
 62
2
  6
CONTINUOUS
 10
171.2993389541
 20
203.9716768082
  0
VERTEX
  8
0
 62
2
  6
CONTINUOUS
 10
171.2991675338
 20
203.9978537981
  0
SEQEND
  0
LINE
  8
D_AXIS
 62
7
  6
CENTER
 10
173.2991675338
 20
203.9978537981
 11
173.2991675338
 21
200.2978537981
  0
LINE
  8
D_AXIS
 62
7
  6
CENTER
 10
173.2991675338
 20
203.9978537981
 11
173.2991675338
 21
207.6978537981
  0
LINE
  8
D_COSM
 62
7
  6
CONTINUOUS
 10
173.0491675338
 20
202.3192823355
 11
172.4777389368
 21
201.7478537981
  0
POLYLINE
  8
0
 62
2
  6
CONTINUOUS
 66
1
 70
0
  0
VERTEX
  8
0
 62
2
  6
CONTINUOUS
 10
175.2991675338
 20
203.9978537981
  0
VERTEX
  8
0
 62
2
  6
CONTINUOUS
 10
175.2982342803
 20
203.9367740428
  0
VERTEX
  8
0
 62
2
  6
CONTINUOUS
 10
175.2954347713
 20
203.875724477
  0
VERTEX
  8
0
 62
2
  6
CONTINUOUS
 10
175.2907693847
 20
203.8147634719
  0
VERTEX
  8
0
 62
2
  6
CONTINUOUS
 10
175.2842392258
 20
203.7539485686
  0
VERTEX
  8
0
 62
2
  6
CONTINUOUS
 10
175.2758483113
 20
203.6933339886
  0
VERTEX
  8
0
 62
2
  6
CONTINUOUS
 10
175.2656013856
 20
203.6329731235
  0
VERTEX
  8
0
 62
2
  6
CONTINUOUS
 10
175.2535037083
 20
203.5729190495
  0
VERTEX
  8
0
 62
2
  6
CONTINUOUS
 10
175.2395626001
 20
203.5132235819
  0
VERTEX
  8
0
 62
2
  6
CONTINUOUS
 10
175.2237858971
 20
203.4539382205
  0
VERTEX
  8
0
 62
2
  6
CONTINUOUS
 10
175.20618217
 20
203.3951148637
  0
VERTEX
  8
0
 62
2
  6
CONTINUOUS
 10
175.1867629285
 20
203.3368070034
  0
VERTEX
  8
0
 62
2
  6
CONTINUOUS
 10
175.1655404169
 20
203.2790685302
  0
VERTEX
  8
0
 62
2
  6
CONTINUOUS
 10
175.1425279465
 20
203.2219537779
  0
VERTEX
  8
0
 62
2
  6
CONTINUOUS
 10
175.117743096
 20
203.1655188548
  0
VERTEX
  8
0
 62
2
  6
CONTINUOUS
 10
175.0912045111
 20
203.1098203122
  0
VERTEX
  8
0
 62
2
  6
CONTINUOUS
 10
175.0629318906
 20
203.054914636
  0
VERTEX
  8
0
 62
2
  6
CONTINUOUS
 10
175.0329491478
 20
203.0008580503
  0
VERTEX
  8
0
 62
2
  6
CONTINUOUS
 10
175.0012812492
 20
202.9477067132
  0
VERTEX
  8
0
 62
2
  6
CONTINUOUS
 10
174.9679547907
 20
202.895517035
  0
VERTEX
  8
0
 62
2
  6
CONTINUOUS
 10
174.9330028856
 20
202.8443464338
  0
VERTEX
  8
0
 62
2
  6
CONTINUOUS
 10
174.8964602765
 20
202.7942525792
  0
VERTEX
  8
0
 62
2
  6
CONTINUOUS
 10
174.8583623343
 20
202.7452919206
  0
VERTEX
  8
0
 62
2
  6
CONTINUOUS
 10
174.818746943
 20
202.6975160239
  0
VERTEX
  8
0
 62
2
  6
CONTINUOUS
 10
174.7776526148
 20
202.6509752345
  0
VERTEX
  8
0
 62
2
  6
CONTINUOUS
 10
174.735120048
 20
202.605720092
  0
VERTEX
  8
0
 62
2
  6
CONTINUOUS
 10
174.6911986849
 20
202.5618019136
  0
VERTEX
  8
0
 62
2
  6
CONTINUOUS
 10
174.6459401536
 20
202.5192722107
  0
VERTEX
  8
0
 62
2
  6
CONTINUOUS
 10
174.5993955431
 20
202.4781801778
  0
VERTEX
  8
0
 62
2
  6
CONTINUOUS
 10
174.5516137843
 20
202.4385657407
  0
VERTEX
  8
0
 62
2
  6
CONTINUOUS
 10
174.502643269
 20
202.400466508
  0
VERTEX
  8
0
 62
2
  6
CONTINUOUS
 10
174.4525347021
 20
202.363920076
  0
VERTEX
  8
0
 62
2
  6
CONTINUOUS
 10
174.4013480413
 20
202.3289639916
  0
VERTEX
  8
0
 62
2
  6
CONTINUOUS
 10
174.3491455579
 20
202.2956357895
  0
VERTEX
  8
0
 62
2
  6
CONTINUOUS
 10
174.295987614
 20
202.2639704302
  0
VERTEX
  8
0
 62
2
  6
CONTINUOUS
 10
174.2419269374
 20
202.2339925793
  0
VERTEX
  8
0
 62
2
  6
CONTINUOUS
 10
174.1870143468
 20
202.2057243283
  0
VERTEX
  8
0
 62
2
  6
CONTINUOUS
 10
174.1313027655
 20
202.1791876603
  0
VERTEX
  8
0
 62
2
  6
CONTINUOUS
 10
174.074853534
 20
202.1544041245
  0
VERTEX
  8
0
 62
2
  6
CONTINUOUS
 10
174.0177300976
 20
202.1313951616
  0
VERTEX
  8
0
 62
2
  6
CONTINUOUS
 10
173.9599933764
 20
202.1101802925
  0
VERTEX
  8
0
 62
2
  6
CONTINUOUS
 10
173.9016941923
 20
202.090771359
  0
VERTEX
  8
0
 62
2
  6
CONTINUOUS
 10
173.8428808424
 20
202.0731782831
  0
VERTEX
  8
0
 62
2
  6
CONTINUOUS
 10
173.7836032004
 20
202.0574108227
  0
VERTEX
  8
0
 62
2
  6
CONTINUOUS
 10
173.7239174475
 20
202.0434780794
  0
VERTEX
  8
0
 62
2
  6
CONTINUOUS
 10
173.6638813416
 20
202.0313889908
  0
VERTEX
  8
0
 62
2
  6
CONTINUOUS
 10
173.6035508302
 20
202.0211515153
  0
VERTEX
  8
0
 62
2
  6
CONTINUOUS
 10
173.5429746191
 20
202.0127696949
  0
VERTEX
  8
0
 62
2
  6
CONTINUOUS
 10
173.4821996039
 20
202.0062465925
  0
VERTEX
  8
0
 62
2
  6
CONTINUOUS
 10
173.421273312
 20
202.0015850331
  0
VERTEX
  8
0
 62
2
  6
CONTINUOUS
 10
173.3602457992
 20
201.9987868898
  0
VERTEX
  8
0
 62
2
  6
CONTINUOUS
 10
173.2991677535
 20
201.9978537981
  0
VERTEX
  8
0
 62
2
  6
CONTINUOUS
 10
173.2380898284
 20
201.9987868497
  0
VERTEX
  8
0
 62
2
  6
CONTINUOUS
 10
173.1770625401
 20
202.0015849622
  0
VERTEX
  8
0
 62
2
  6
CONTINUOUS
 10
173.1161363704
 20
202.0062465092
  0
VERTEX
  8
0
 62
2
  6
CONTINUOUS
 10
173.0553612368
 20
202.0127696209
  0
VERTEX
  8
0
 62
2
  6
CONTINUOUS
 10
172.9947847995
 20
202.0211514515
  0
VERTEX
  8
0
 62
2
  6
CONTINUOUS
 10
172.9344541542
 20
202.0313889114
  0
VERTEX
  8
0
 62
2
  6
CONTINUOUS
 10
172.8844013616
 20
202.0413348337
  0
VERTEX
  8
0
 62
2
  6
CONTINUOUS
 10
172.8345852784
 20
202.0525620946
  0
VERTEX
  8
0
 62
2
  6
CONTINUOUS
 10
172.7850392193
 20
202.0650655469
  0
SEQEND
  0
LINE
  8
D_AXIS
 62
7
  6
CONTINUOUS
 10
178.2991675338
 20
213.9978537981
 11
178.2991675338
 21
193.9978537981
  0
LINE
  8
D_AXIS
 62
7
  6
CONTINUOUS
 10
178.2991675338
 20
213.9978537981
 11
166.7991675338
 21
213.9978537981
  0
LINE
  8
D_AXIS
 62
7
  6
CENTER
 10
164.7991675338
 20
232.4978537981
 11
159.4303434614
 21
232.4978537981
  0
LINE
  8
D_AXIS
 62
7
  6
CENTER
 10
164.7991675338
 20
232.4978537981
 11
169.0473531054
 21
232.4978537981
  0
LINE
  8
D_AXIS
 62
7
  6
CONTINUOUS
 10
166.7991675338
 20
232.9978537981
 11
166.2991675334
 21
232.9978537981
  0
LINE
  8
D_AXIS
 62
7
  6
CONTINUOUS
 10
163.2991675342
 20
232.9978537981
 11
162.7991675338
 21
232.9978537981
  0
LINE
  8
0
 62
7
  6
CONTINUOUS
 10
166.7991675338
 20
57.6595343392
 11
166.2991675334
 21
57.6595343392
  0
LINE
  8
0
 62
7
  6
CONTINUOUS
 10
163.2991675342
 20
57.6595343392
 11
162.7991675338
 21
57.6595343392
  0
LINE
  8
0
 62
2
  6
CONTINUOUS
 10
162.7991675338
 20
115.5975343392
 11
162.8611675338
 21
115.6595343392
  0
LINE
  8
0
 62
2
  6
CONTINUOUS
 10
162.7991675338
 20
110.82830357
 11
166.7991675338
 21
114.82830357
  0
LINE
  8
0
 62
2
  6
CONTINUOUS
 10
162.7991675338
 20
106.0590728008
 11
166.7991675338
 21
110.0590728008
  0
LINE
  8
0
 62
2
  6
CONTINUOUS
 10
162.7991675338
 20
101.2898420315
 11
166.7991675338
 21
105.2898420315
  0
LINE
  8
0
 62
2
  6
CONTINUOUS
 10
162.7991675338
 20
96.5206112623
 11
166.7991675338
 21
100.5206112623
  0
LINE
  8
0
 62
7
  6
CONTINUOUS
 10
178.2991675338
 20
76.6595343392
 11
174.9991675338
 21
76.6595343392
  0
LINE
  8
0
 62
7
  6
CONTINUOUS
 10
171.5991675338
 20
76.6595343392
 11
166.7991675338
 21
76.6595343392
  0
LINE
  8
0
 62
7
  6
CONTINUOUS
 10
162.7991675338
 20
57.6595343392
 11
162.7991675338
 21
115.6595343392
  0
LINE
  8
0
 62
2
  6
CONTINUOUS
 10
162.7991675338
 20
91.7513804931
 11
167.70732138
 21
96.6595343392
  0
POLYLINE
  8
0
 62
7
  6
CONTINUOUS
 66
1
 70
0
  0
VERTEX
  8
0
 62
7
  6
CONTINUOUS
 10
174.8782980635
 20
76.6793713531
  0
VERTEX
  8
0
 62
7
  6
CONTINUOUS
 10
174.8112687025
 20
76.689757514
  0
VERTEX
  8
0
 62
7
  6
CONTINUOUS
 10
174.7302902566
 20
76.7017176986
  0
VERTEX
  8
0
 62
7
  6
CONTINUOUS
 10
174.6361733161
 20
76.7148078743
  0
VERTEX
  8
0
 62
7
  6
CONTINUOUS
 10
174.529637416
 20
76.7285698276
  0
VERTEX
  8
0
 62
7
  6
CONTINUOUS
 10
174.4119007972
 20
76.7424694854
  0
VERTEX
  8
0
 62
7
  6
CONTINUOUS
 10
174.283883095
 20
76.7560165432
  0
VERTEX
  8
0
 62
7
  6
CONTINUOUS
 10
174.1472494295
 20
76.7686676986
  0
VERTEX
  8
0
 62
7
  6
CONTINUOUS
 10
174.0030299968
 20
76.7799886833
  0
VERTEX
  8
0
 62
7
  6
CONTINUOUS
 10
173.852887964
 20
76.7895492169
  0
VERTEX
  8
0
 62
7
  6
CONTINUOUS
 10
173.6978917349
 20
76.7970305502
  0
VERTEX
  8
0
 62
7
  6
CONTINUOUS
 10
173.5397901487
 20
76.8021564301
  0
VERTEX
  8
0
 62
7
  6
CONTINUOUS
 10
173.3795188444
 20
76.8047661363
  0
VERTEX
  8
0
 62
7
  6
CONTINUOUS
 10
173.2188026229
 20
76.8047660254
  0
VERTEX
  8
0
 62
7
  6
CONTINUOUS
 10
173.0585317031
 20
76.8021561075
  0
VERTEX
  8
0
 62
7
  6
CONTINUOUS
 10
172.9004296404
 20
76.7970299966
  0
VERTEX
  8
0
 62
7
  6
CONTINUOUS
 10
172.7454349742
 20
76.7895485364
  0
VERTEX
  8
0
 62
7
  6
CONTINUOUS
 10
172.5952913294
 20
76.7799877043
  0
VERTEX
  8
0
 62
7
  6
CONTINUOUS
 10
172.4510845317
 20
76.7686676038
  0
VERTEX
  8
0
 62
7
  6
CONTINUOUS
 10
172.314451366
 20
76.7560164829
  0
VERTEX
  8
0
 62
7
  6
CONTINUOUS
 10
172.1864240068
 20
76.7424683338
  0
VERTEX
  8
0
 62
7
  6
CONTINUOUS
 10
172.0686841649
 20
76.7285681566
  0
VERTEX
  8
0
 62
7
  6
CONTINUOUS
 10
171.9621516671
 20
76.7148065185
  0
VERTEX
  8
0
 62
7
  6
CONTINUOUS
 10
171.8680347499
 20
76.7017162527
  0
VERTEX
  8
0
 62
7
  6
CONTINUOUS
 10
171.7870592086
 20
76.6897564286
  0
VERTEX
  8
0
 62
7
  6
CONTINUOUS
 10
171.72003057
 20
76.679370335
  0
VERTEX
  8
0
 62
7
  6
CONTINUOUS
 10
171.6673920346
 20
76.6709062412
  0
VERTEX
  8
0
 62
7
  6
CONTINUOUS
 10
171.5991675338
 20
76.6595343392
  0
SEQEND
  0
LINE
  8
0
 62
7
  6
CONTINUOUS
 10
174.968766385
 20
76.6646576354
 11
174.8782980635
 21
76.6793713531
  0
LINE
  8
0
 62
7
  6
CONTINUOUS
 10
174.9991675338
 20
76.6595343392
 11
174.968766385
 21
76.6646576354
  0
LINE
  8
0
 62
7
  6
CONTINUOUS
 10
163.2991675342
 20
57.6595343392
 11
163.2991675342
 21
58.1595343392
  0
LINE
  8
0
 62
7
  6
CONTINUOUS
 10
163.2991675342
 20
115.1595343392
 11
163.2991675342
 21
115.6595343392
  0
LINE
  8
0
 62
7
  6
CONTINUOUS
 10
166.2991675334
 20
57.6595343392
 11
166.2991675334
 21
58.1595343392
  0
LINE
  8
0
 62
7
  6
CONTINUOUS
 10
166.2991675334
 20
115.1595343392
 11
166.2991675334
 21
115.6595343392
  0
LINE
  8
0
 62
7
  6
CONTINUOUS
 10
166.7991675338
 20
57.6595343392
 11
166.7991675338
 21
76.6595343392
  0
LINE
  8
0
 62
7
  6
CONTINUOUS
 10
166.7991675338
 20
96.6595343392
 11
166.7991675338
 21
115.6595343392
  0
LINE
  8
0
 62
2
  6
CONTINUOUS
 10
164.4765521492
 20
88.6595343392
 11
172.4765521492
 21
96.6595343392
  0
LINE
  8
0
 62
2
  6
CONTINUOUS
 10
162.7991675338
 20
82.2129189546
 11
165.2457829184
 21
84.6595343392
  0
LINE
  8
0
 62
2
  6
CONTINUOUS
 10
169.2457829184
 20
88.6595343392
 11
177.2457829184
 21
96.6595343392
  0
LINE
  8
0
 62
7
  6
CONTINUOUS
 10
178.2991675338
 20
84.6595343392
 11
174.9991675338
 21
84.6595343392
  0
LINE
  8
0
 62
7
  6
CONTINUOUS
 10
171.5991675338
 20
84.6595343392
 11
162.7991675338
 21
84.6595343392
  0
LINE
  8
1_STD
 62
7
  6
CENTER
 10
160.7991675338
 20
86.6595343392
 11
180.2991675338
 21
86.6595343392
  0
LINE
  8
0
 62
2
  6
CONTINUOUS
 10
171.2991675338
 20
76.6595343392
 11
171.2991675338
 21
84.6595343392
  0
LINE
  8
0
 62
7
  6
CONTINUOUS
 10
171.5991675338
 20
76.6595343392
 11
171.5991675338
 21
84.6595343392
  0
LINE
  8
0
 62
2
  6
CONTINUOUS
 10
162.7991675338
 20
77.4436881854
 11
170.0150136877
 21
84.6595343392
  0
LINE
  8
0
 62
2
  6
CONTINUOUS
 10
174.0150136877
 20
88.6595343392
 11
178.2991675338
 21
92.9436881854
  0
LINE
  8
0
 62
2
  6
CONTINUOUS
 10
173.2921314017
 20
86.6524982071
 11
171.2991675338
 21
84.6595343392
  0
LINE
  8
0
 62
7
  6
CONTINUOUS
 10
171.5991675339
 20
84.6595343392
 11
171.6460992451
 21
84.6992703858
  0
POLYLINE
  8
0
 62
7
  6
CONTINUOUS
 66
1
 70
0
  0
VERTEX
  8
0
 62
7
  6
CONTINUOUS
 10
171.6460992451
 20
84.6992703858
  0
VERTEX
  8
0
 62
7
  6
CONTINUOUS
 10
171.7328422452
 20
84.7718439753
  0
VERTEX
  8
0
 62
7
  6
CONTINUOUS
 10
171.7947734733
 20
84.82290659
  0
VERTEX
  8
0
 62
7
  6
CONTINUOUS
 10
171.8703743789
 20
84.884301994
  0
VERTEX
  8
0
 62
7
  6
CONTINUOUS
 10
171.9605216019
 20
84.9560165286
  0
VERTEX
  8
0
 62
7
  6
CONTINUOUS
 10
172.0657304604
 20
85.0373854515
  0
VERTEX
  8
0
 62
7
  6
CONTINUOUS
 10
172.1862495586
 20
85.127024496
  0
VERTEX
  8
0
 62
7
  6
CONTINUOUS
 10
172.3196223408
 20
85.2209556013
  0
VERTEX
  8
0
 62
7
  6
CONTINUOUS
 10
172.459987567
 20
85.3126033771
  0
VERTEX
  8
0
 62
7
  6
CONTINUOUS
 10
172.6009442887
 20
85.3956056625
  0
VERTEX
  8
0
 62
7
  6
CONTINUOUS
 10
172.7351709498
 20
85.4645062447
  0
VERTEX
  8
0
 62
7
  6
CONTINUOUS
 10
172.8603666043
 20
85.5182428533
  0
VERTEX
  8
0
 62
7
  6
CONTINUOUS
 10
172.9773076706
 20
85.5579020178
  0
VERTEX
  8
0
 62
7
  6
CONTINUOUS
 10
173.08840759
 20
85.585095065
  0
VERTEX
  8
0
 62
7
  6
CONTINUOUS
 10
173.1951992171
 20
85.6008514732
  0
VERTEX
  8
0
 62
7
  6
CONTINUOUS
 10
173.299229782
 20
85.6059689621
  0
VERTEX
  8
0
 62
7
  6
CONTINUOUS
 10
173.4033078358
 20
85.6008345695
  0
VERTEX
  8
0
 62
7
  6
CONTINUOUS
 10
173.510152806
 20
85.5850508423
  0
VERTEX
  8
0
 62
7
  6
CONTINUOUS
 10
173.6212412779
 20
85.5578395101
  0
VERTEX
  8
0
 62
7
  6
CONTINUOUS
 10
173.7381441345
 20
85.5181753002
  0
VERTEX
  8
0
 62
7
  6
CONTINUOUS
 10
173.8633040087
 20
85.4644402164
  0
VERTEX
  8
0
 62
7
  6
CONTINUOUS
 10
173.9974320318
 20
85.3955828729
  0
VERTEX
  8
0
 62
7
  6
CONTINUOUS
 10
174.1382285114
 20
85.3126775079
  0
VERTEX
  8
0
 62
7
  6
CONTINUOUS
 10
174.2785327774
 20
85.221078125
  0
VERTEX
  8
0
 62
7
  6
CONTINUOUS
 10
174.4119985447
 20
85.1270876489
  0
VERTEX
  8
0
 62
7
  6
CONTINUOUS
 10
174.5325833751
 20
85.0374015958
  0
VERTEX
  8
0
 62
7
  6
CONTINUOUS
 10
174.6377787097
 20
84.9560438402
  0
VERTEX
  8
0
 62
7
  6
CONTINUOUS
 10
174.7279122307
 20
84.8843409951
  0
VERTEX
  8
0
 62
7
  6
CONTINUOUS
 10
174.803513109
 20
84.8229463045
  0
VERTEX
  8
0
 62
7
  6
CONTINUOUS
 10
174.8654505518
 20
84.7718790496
  0
SEQEND
  0
LINE
  8
0
 62
7
  6
CONTINUOUS
 10
178.2991675338
 20
88.6595343392
 11
162.7991675338
 21
88.6595343392
  0
LINE
  8
0
 62
7
  6
CONTINUOUS
 10
174.8654505518
 20
84.7718790496
 11
174.9522206328
 21
84.6992831951
  0
LINE
  8
0
 62
7
  6
CONTINUOUS
 10
174.9522206328
 20
84.6992831951
 11
174.9991675338
 21
84.6595343392
  0
POLYLINE
  8
0
 62
2
  6
CONTINUOUS
 66
1
 70
0
  0
VERTEX
  8
0
 62
2
  6
CONTINUOUS
 10
173.3077944985
 20
86.6509073746
  0
VERTEX
  8
0
 62
2
  6
CONTINUOUS
 10
173.3064367468
 20
86.6521580345
  0
VERTEX
  8
0
 62
2
  6
CONTINUOUS
 10
173.3050279329
 20
86.6536739402
  0
VERTEX
  8
0
 62
2
  6
CONTINUOUS
 10
173.3034224408
 20
86.655679104
  0
VERTEX
  8
0
 62
2
  6
CONTINUOUS
 10
173.3014033932
 20
86.6572984799
  0
VERTEX
  8
0
 62
2
  6
CONTINUOUS
 10
173.2988715827
 20
86.6576142477
  0
VERTEX
  8
0
 62
2
  6
CONTINUOUS
 10
173.2962697454
 20
86.6566365508
  0
VERTEX
  8
0
 62
2
  6
CONTINUOUS
 10
173.2940464185
 20
86.6546986369
  0
VERTEX
  8
0
 62
2
  6
CONTINUOUS
 10
173.2921314017
 20
86.6524982071
  0
SEQEND
  0
POLYLINE
  8
0
 62
2
  6
CONTINUOUS
 66
1
 70
0
  0
VERTEX
  8
0
 62
2
  6
CONTINUOUS
 10
175.2991675338
 20
84.6595343392
  0
VERTEX
  8
0
 62
2
  6
CONTINUOUS
 10
175.297857825
 20
84.6608329533
  0
VERTEX
  8
0
 62
2
  6
CONTINUOUS
 10
173.3077944985
 20
86.6509073746
  0
SEQEND
  0
LINE
  8
D_AXIS
 62
7
  6
CENTER
 10
173.2991675338
 20
87.6059689669
 11
173.2991675338
 21
74.6595343392
  0
LINE
  8
0
 62
7
  6
CONTINUOUS
 10
174.9991675338
 20
76.6595343392
 11
174.9991675338
 21
84.6595343392
  0
LINE
  8
0
 62
2
  6
CONTINUOUS
 10
175.2991675338
 20
76.6595343392
 11
175.2991675338
 21
84.6595343392
  0
LINE
  8
0
 62
2
  6
CONTINUOUS
 10
162.7991675338
 20
72.6744574162
 11
171.5991675338
 21
81.4744574162
  0
LINE
  8
0
 62
7
  6
CONTINUOUS
 10
178.2991675338
 20
76.6595343392
 11
178.2991675338
 21
96.6595343392
  0
LINE
  8
0
 62
2
  6
CONTINUOUS
 10
162.7991675338
 20
67.9052266469
 11
166.7991675338
 21
71.9052266469
  0
LINE
  8
0
 62
2
  6
CONTINUOUS
 10
171.5534752261
 20
76.6595343392
 11
171.5991675338
 21
76.7052266469
  0
LINE
  8
0
 62
2
  6
CONTINUOUS
 10
174.9991675338
 20
80.1052266469
 11
178.2991675338
 21
83.4052266469
  0
LINE
  8
0
 62
7
  6
CONTINUOUS
 10
178.2991675338
 20
96.6595343392
 11
166.7991675338
 21
96.6595343392
  0
LINE
  8
0
 62
2
  6
CONTINUOUS
 10
162.7991675338
 20
63.1359958777
 11
166.7991675338
 21
67.1359958777
  0
LINE
  8
0
 62
2
  6
CONTINUOUS
 10
176.3227059954
 20
76.6595343392
 11
178.2991675338
 21
78.6359958777
  0
LINE
  8
0
 62
2
  6
CONTINUOUS
 10
162.7991675338
 20
58.3667651085
 11
166.7991675338
 21
62.3667651085
  0
LINE
  8
0
 62
7
  6
CONTINUOUS
 10
166.7991675338
 20
115.6595343392
 11
166.2991675334
 21
115.6595343392
  0
LINE
  8
0
 62
7
  6
CONTINUOUS
 10
163.2991675342
 20
115.6595343392
 11
162.7991675338
 21
115.6595343392
  0
POLYLINE
  8
D_AXIS
 62
7
  6
CONTINUOUS
 66
1
 70
0
  0
VERTEX
  8
D_AXIS
 62
7
  6
CONTINUOUS
 10
48.4813561007
 20
19.7513676805
  0
VERTEX
  8
D_AXIS
 62
7
  6
CONTINUOUS
 10
48.5929281779
 20
19.7527817586
  0
VERTEX
  8
D_AXIS
 62
7
  6
CONTINUOUS
 10
49.1837832365
 20
19.8075215233
  0
VERTEX
  8
D_AXIS
 62
7
  6
CONTINUOUS
 10
49.7727129206
 20
19.9415943533
  0
VERTEX
  8
D_AXIS
 62
7
  6
CONTINUOUS
 10
50.3581030149
 20
20.1546327642
  0
VERTEX
  8
D_AXIS
 62
7
  6
CONTINUOUS
 10
50.9383490056
 20
20.4460528325
  0
VERTEX
  8
D_AXIS
 62
7
  6
CONTINUOUS
 10
51.5118604791
 20
20.815055796
  0
VERTEX
  8
D_AXIS
 62
7
  6
CONTINUOUS
 10
52.07706548
 20
21.2606302434
  0
VERTEX
  8
D_AXIS
 62
7
  6
CONTINUOUS
 10
52.6324148209
 20
21.781554886
  0
VERTEX
  8
D_AXIS
 62
7
  6
CONTINUOUS
 10
53.1763863278
 20
22.3764019055
  0
VERTEX
  8
D_AXIS
 62
7
  6
CONTINUOUS
 10
53.7074890126
 20
23.0435408677
  0
VERTEX
  8
D_AXIS
 62
7
  6
CONTINUOUS
 10
54.2242671597
 20
23.781143191
  0
VERTEX
  8
D_AXIS
 62
7
  6
CONTINUOUS
 10
54.7253043162
 20
24.5871871587
  0
VERTEX
  8
D_AXIS
 62
7
  6
CONTINUOUS
 10
55.2092271741
 20
25.4594634603
  0
VERTEX
  8
D_AXIS
 62
7
  6
CONTINUOUS
 10
55.6747093344
 20
26.3955812471
  0
VERTEX
  8
D_AXIS
 62
7
  6
CONTINUOUS
 10
56.1204749429
 20
27.3929746854
  0
VERTEX
  8
D_AXIS
 62
7
  6
CONTINUOUS
 10
56.5453021871
 20
28.448909989
  0
VERTEX
  8
D_AXIS
 62
7
  6
CONTINUOUS
 10
56.9480266449
 20
29.5604929127
  0
VERTEX
  8
D_AXIS
 62
7
  6
CONTINUOUS
 10
57.3275444767
 20
30.724676685
  0
SEQEND
  0
POLYLINE
  8
D_AXIS
 62
7
  6
CONTINUOUS
 66
1
 70
0
  0
VERTEX
  8
D_AXIS
 62
7
  6
CONTINUOUS
 10
45.257642622
 20
19.7513676805
  0
VERTEX
  8
D_AXIS
 62
7
  6
CONTINUOUS
 10
45.3692146992
 20
19.7527817586
  0
VERTEX
  8
D_AXIS
 62
7
  6
CONTINUOUS
 10
45.9600697579
 20
19.8075215233
  0
VERTEX
  8
D_AXIS
 62
7
  6
CONTINUOUS
 10
46.548999442
 20
19.9415943533
  0
VERTEX
  8
D_AXIS
 62
7
  6
CONTINUOUS
 10
46.6462351798
 20
19.9769809225
  0
SEQEND
  0
LINE
  8
D_AXIS
 62
7
  6
CONTINUOUS
 10
48.4813303444
 20
19.7513657648
 11
48.020799847
 21
19.7513657648
  0
LINE
  8
D_AXIS
 62
7
  6
CONTINUOUS
 10
45.2576168657
 20
19.7513657648
 11
44.7970863684
 21
19.7513657648
  0
POLYLINE
  8
D_AXIS
 62
7
  6
CONTINUOUS
 66
1
 70
0
  0
VERTEX
  8
D_AXIS
 62
7
  6
CONTINUOUS
 10
35.950872236
 20
66.7780548447
  0
VERTEX
  8
D_AXIS
 62
7
  6
CONTINUOUS
 10
36.3303900678
 20
67.9422386169
  0
VERTEX
  8
D_AXIS
 62
7
  6
CONTINUOUS
 10
36.7331145257
 20
69.0538215406
  0
VERTEX
  8
D_AXIS
 62
7
  6
CONTINUOUS
 10
37.1579417698
 20
70.1097568442
  0
VERTEX
  8
D_AXIS
 62
7
  6
CONTINUOUS
 10
37.6037073783
 20
71.1071502825
  0
VERTEX
  8
D_AXIS
 62
7
  6
CONTINUOUS
 10
38.0691895386
 20
72.0432680694
  0
VERTEX
  8
D_AXIS
 62
7
  6
CONTINUOUS
 10
38.5531123965
 20
72.915544371
  0
VERTEX
  8
D_AXIS
 62
7
  6
CONTINUOUS
 10
39.054149553
 20
73.7215883387
  0
VERTEX
  8
D_AXIS
 62
7
  6
CONTINUOUS
 10
39.5709277002
 20
74.459190662
  0
VERTEX
  8
D_AXIS
 62
7
  6
CONTINUOUS
 10
40.1020303849
 20
75.1263296242
  0
VERTEX
  8
D_AXIS
 62
7
  6
CONTINUOUS
 10
40.6460018918
 20
75.7211766437
  0
VERTEX
  8
D_AXIS
 62
7
  6
CONTINUOUS
 10
41.2013512327
 20
76.2421012863
  0
VERTEX
  8
D_AXIS
 62
7
  6
CONTINUOUS
 10
41.7665562337
 20
76.6876757336
  0
VERTEX
  8
D_AXIS
 62
7
  6
CONTINUOUS
 10
42.3400677071
 20
77.0566786972
  0
VERTEX
  8
D_AXIS
 62
7
  6
CONTINUOUS
 10
42.9203136979
 20
77.3480987655
  0
VERTEX
  8
D_AXIS
 62
7
  6
CONTINUOUS
 10
43.5057037921
 20
77.5611371764
  0
VERTEX
  8
D_AXIS
 62
7
  6
CONTINUOUS
 10
44.0946334762
 20
77.6952100063
  0
VERTEX
  8
D_AXIS
 62
7
  6
CONTINUOUS
 10
44.6854885348
 20
77.7499497711
  0
VERTEX
  8
D_AXIS
 62
7
  6
CONTINUOUS
 10
44.797060612
 20
77.7513638491
  0
SEQEND
  0
POLYLINE
  8
D_AXIS
 62
7
  6
CONTINUOUS
 66
1
 70
0
  0
VERTEX
  8
D_AXIS
 62
7
  6
CONTINUOUS
 10
35.950872236
 20
66.7780548447
  0
VERTEX
  8
D_AXIS
 62
7
  6
CONTINUOUS
 10
35.5956012623
 20
65.5644611707
  0
VERTEX
  8
D_AXIS
 62
7
  6
CONTINUOUS
 10
35.2655509196
 20
64.3047839708
  0
VERTEX
  8
D_AXIS
 62
7
  6
CONTINUOUS
 10
34.961625853
 20
63.0024759328
  0
VERTEX
  8
D_AXIS
 62
7
  6
CONTINUOUS
 10
34.6846591001
 20
61.6611065924
  0
VERTEX
  8
D_AXIS
 62
7
  6
CONTINUOUS
 10
34.4354098075
 20
60.2843525497
  0
VERTEX
  8
D_AXIS
 62
7
  6
CONTINUOUS
 10
34.21456115
 20
58.8759873919
  0
VERTEX
  8
D_AXIS
 62
7
  6
CONTINUOUS
 10
34.0227184586
 20
57.4398713499
  0
VERTEX
  8
D_AXIS
 62
7
  6
CONTINUOUS
 10
33.8604075607
 20
55.9799407181
  0
VERTEX
  8
D_AXIS
 62
7
  6
CONTINUOUS
 10
33.7280733392
 20
54.5001970648
  0
VERTEX
  8
D_AXIS
 62
7
  6
CONTINUOUS
 10
33.626078513
 20
53.0046962645
  0
VERTEX
  8
D_AXIS
 62
7
  6
CONTINUOUS
 10
33.5547026429
 20
51.4975373809
  0
VERTEX
  8
D_AXIS
 62
7
  6
CONTINUOUS
 10
33.5141413651
 20
49.9828514319
  0
VERTEX
  8
D_AXIS
 62
7
  6
CONTINUOUS
 10
33.5045058553
 20
48.4647900662
  0
VERTEX
  8
D_AXIS
 62
7
  6
CONTINUOUS
 10
33.5258225238
 20
46.9475141845
  0
VERTEX
  8
D_AXIS
 62
7
  6
CONTINUOUS
 10
33.578032943
 20
45.4351825347
  0
VERTEX
  8
D_AXIS
 62
7
  6
CONTINUOUS
 10
33.6609940078
 20
43.9319403126
  0
VERTEX
  8
D_AXIS
 62
7
  6
CONTINUOUS
 10
33.7744783277
 20
42.4419078007
  0
VERTEX
  8
D_AXIS
 62
7
  6
CONTINUOUS
 10
33.9181748501
 20
40.9691690745
  0
VERTEX
  8
D_AXIS
 62
7
  6
CONTINUOUS
 10
34.0916897128
 20
39.5177608085
  0
VERTEX
  8
D_AXIS
 62
7
  6
CONTINUOUS
 10
34.2945473235
 20
38.0916612118
  0
VERTEX
  8
D_AXIS
 62
7
  6
CONTINUOUS
 10
34.5261916638
 20
36.6947791244
  0
VERTEX
  8
D_AXIS
 62
7
  6
CONTINUOUS
 10
34.7859878126
 20
35.3309433029
  0
VERTEX
  8
D_AXIS
 62
7
  6
CONTINUOUS
 10
35.0732236866
 20
34.0038919265
  0
VERTEX
  8
D_AXIS
 62
7
  6
CONTINUOUS
 10
35.3871119923
 20
32.7172623509
  0
VERTEX
  8
D_AXIS
 62
7
  6
CONTINUOUS
 10
35.7267923837
 20
31.4745811382
  0
VERTEX
  8
D_AXIS
 62
7
  6
CONTINUOUS
 10
36.0913338205
 20
30.2792543912
  0
VERTEX
  8
D_AXIS
 62
7
  6
CONTINUOUS
 10
36.4797371198
 20
29.1345584176
  0
VERTEX
  8
D_AXIS
 62
7
  6
CONTINUOUS
 10
36.8909376954
 20
28.0436307493
  0
VERTEX
  8
D_AXIS
 62
7
  6
CONTINUOUS
 10
37.3238084748
 20
27.0094615434
  0
VERTEX
  8
D_AXIS
 62
7
  6
CONTINUOUS
 10
37.7771629896
 20
26.0348853856
  0
VERTEX
  8
D_AXIS
 62
7
  6
CONTINUOUS
 10
38.2497586263
 20
25.1225735216
  0
VERTEX
  8
D_AXIS
 62
7
  6
CONTINUOUS
 10
38.7403000333
 20
24.2750265347
  0
VERTEX
  8
D_AXIS
 62
7
  6
CONTINUOUS
 10
39.2474426707
 20
23.4945674923
  0
VERTEX
  8
D_AXIS
 62
7
  6
CONTINUOUS
 10
39.7697964957
 20
22.7833355784
  0
VERTEX
  8
D_AXIS
 62
7
  6
CONTINUOUS
 10
40.3059297727
 20
22.1432802302
  0
VERTEX
  8
D_AXIS
 62
7
  6
CONTINUOUS
 10
40.8543729979
 20
21.5761557949
  0
VERTEX
  8
D_AXIS
 62
7
  6
CONTINUOUS
 10
41.4136229263
 20
21.0835167213
  0
VERTEX
  8
D_AXIS
 62
7
  6
CONTINUOUS
 10
41.9821466928
 20
20.6667132987
  0
VERTEX
  8
D_AXIS
 62
7
  6
CONTINUOUS
 10
42.5583860133
 20
20.3268879564
  0
VERTEX
  8
D_AXIS
 62
7
  6
CONTINUOUS
 10
43.1407614559
 20
20.0649721319
  0
VERTEX
  8
D_AXIS
 62
7
  6
CONTINUOUS
 10
43.7276767699
 20
19.8816837185
  0
VERTEX
  8
D_AXIS
 62
7
  6
CONTINUOUS
 10
44.3175232613
 20
19.7775250969
  0
VERTEX
  8
D_AXIS
 62
7
  6
CONTINUOUS
 10
44.7971121247
 20
19.7513676805
  0
SEQEND
  0
POLYLINE
  8
D_AXIS
 62
7
  6
CONTINUOUS
 66
1
 70
0
  0
VERTEX
  8
D_AXIS
 62
7
  6
CONTINUOUS
 10
36.4114027334
 20
66.7780548447
  0
VERTEX
  8
D_AXIS
 62
7
  6
CONTINUOUS
 10
36.0561317596
 20
65.5644611707
  0
VERTEX
  8
D_AXIS
 62
7
  6
CONTINUOUS
 10
35.7260814169
 20
64.3047839708
  0
VERTEX
  8
D_AXIS
 62
7
  6
CONTINUOUS
 10
35.4221563504
 20
63.0024759328
  0
VERTEX
  8
D_AXIS
 62
7
  6
CONTINUOUS
 10
35.1451895975
 20
61.6611065924
  0
VERTEX
  8
D_AXIS
 62
7
  6
CONTINUOUS
 10
34.8959403048
 20
60.2843525497
  0
VERTEX
  8
D_AXIS
 62
7
  6
CONTINUOUS
 10
34.6750916473
 20
58.8759873919
  0
VERTEX
  8
D_AXIS
 62
7
  6
CONTINUOUS
 10
34.4832489559
 20
57.4398713499
  0
VERTEX
  8
D_AXIS
 62
7
  6
CONTINUOUS
 10
34.320938058
 20
55.9799407181
  0
VERTEX
  8
D_AXIS
 62
7
  6
CONTINUOUS
 10
34.1886038365
 20
54.5001970648
  0
VERTEX
  8
D_AXIS
 62
7
  6
CONTINUOUS
 10
34.0866090104
 20
53.0046962645
  0
VERTEX
  8
D_AXIS
 62
7
  6
CONTINUOUS
 10
34.0152331403
 20
51.4975373809
  0
VERTEX
  8
D_AXIS
 62
7
  6
CONTINUOUS
 10
33.9746718625
 20
49.9828514319
  0
VERTEX
  8
D_AXIS
 62
7
  6
CONTINUOUS
 10
33.9650363527
 20
48.4647900662
  0
VERTEX
  8
D_AXIS
 62
7
  6
CONTINUOUS
 10
33.9863530211
 20
46.9475141845
  0
VERTEX
  8
D_AXIS
 62
7
  6
CONTINUOUS
 10
34.0385634403
 20
45.4351825347
  0
VERTEX
  8
D_AXIS
 62
7
  6
CONTINUOUS
 10
34.1215245052
 20
43.9319403126
  0
VERTEX
  8
D_AXIS
 62
7
  6
CONTINUOUS
 10
34.2350088251
 20
42.4419078007
  0
VERTEX
  8
D_AXIS
 62
7
  6
CONTINUOUS
 10
34.3787053474
 20
40.9691690745
  0
VERTEX
  8
D_AXIS
 62
7
  6
CONTINUOUS
 10
34.5522202101
 20
39.5177608085
  0
VERTEX
  8
D_AXIS
 62
7
  6
CONTINUOUS
 10
34.7550778209
 20
38.0916612118
  0
VERTEX
  8
D_AXIS
 62
7
  6
CONTINUOUS
 10
34.9867221612
 20
36.6947791244
  0
VERTEX
  8
D_AXIS
 62
7
  6
CONTINUOUS
 10
35.2465183099
 20
35.3309433029
  0
VERTEX
  8
D_AXIS
 62
7
  6
CONTINUOUS
 10
35.5337541839
 20
34.0038919265
  0
VERTEX
  8
D_AXIS
 62
7
  6
CONTINUOUS
 10
35.8476424896
 20
32.7172623509
  0
VERTEX
  8
D_AXIS
 62
7
  6
CONTINUOUS
 10
36.1873228811
 20
31.4745811382
  0
VERTEX
  8
D_AXIS
 62
7
  6
CONTINUOUS
 10
36.5518643178
 20
30.2792543912
  0
VERTEX
  8
D_AXIS
 62
7
  6
CONTINUOUS
 10
36.9402676172
 20
29.1345584176
  0
VERTEX
  8
D_AXIS
 62
7
  6
CONTINUOUS
 10
37.3514681927
 20
28.0436307493
  0
VERTEX
  8
D_AXIS
 62
7
  6
CONTINUOUS
 10
37.7843389722
 20
27.0094615434
  0
VERTEX
  8
D_AXIS
 62
7
  6
CONTINUOUS
 10
38.2376934869
 20
26.0348853856
  0
VERTEX
  8
D_AXIS
 62
7
  6
CONTINUOUS
 10
38.7102891237
 20
25.1225735216
  0
VERTEX
  8
D_AXIS
 62
7
  6
CONTINUOUS
 10
39.2008305307
 20
24.2750265347
  0
VERTEX
  8
D_AXIS
 62
7
  6
CONTINUOUS
 10
39.707973168
 20
23.4945674923
  0
VERTEX
  8
D_AXIS
 62
7
  6
CONTINUOUS
 10
40.230326993
 20
22.7833355784
  0
VERTEX
  8
D_AXIS
 62
7
  6
CONTINUOUS
 10
40.7664602701
 20
22.1432802302
  0
VERTEX
  8
D_AXIS
 62
7
  6
CONTINUOUS
 10
41.3149034952
 20
21.5761557949
  0
VERTEX
  8
D_AXIS
 62
7
  6
CONTINUOUS
 10
41.8741534236
 20
21.0835167213
  0
VERTEX
  8
D_AXIS
 62
7
  6
CONTINUOUS
 10
42.4426771901
 20
20.6667132987
  0
VERTEX
  8
D_AXIS
 62
7
  6
CONTINUOUS
 10
43.0189165107
 20
20.3268879564
  0
VERTEX
  8
D_AXIS
 62
7
  6
CONTINUOUS
 10
43.6012919532
 20
20.0649721319
  0
VERTEX
  8
D_AXIS
 62
7
  6
CONTINUOUS
 10
44.1882072673
 20
19.8816837185
  0
VERTEX
  8
D_AXIS
 62
7
  6
CONTINUOUS
 10
44.7780537587
 20
19.7775250969
  0
VERTEX
  8
D_AXIS
 62
7
  6
CONTINUOUS
 10
45.257642622
 20
19.7513676805
  0
SEQEND
  0
POLYLINE
  8
D_AXIS
 62
9
  6
CONTINUOUS
 66
1
 70
0
  0
VERTEX
  8
D_AXIS
 62
9
  6
CONTINUOUS
 10
36.5639135123
 20
66.4672705529
  0
VERTEX
  8
D_AXIS
 62
9
  6
CONTINUOUS
 10
36.2147674924
 20
65.2745995148
  0
VERTEX
  8
D_AXIS
 62
9
  6
CONTINUOUS
 10
35.890407294
 20
64.0366394414
  0
VERTEX
  8
D_AXIS
 62
9
  6
CONTINUOUS
 10
35.5917219659
 20
62.7567834953
  0
VERTEX
  8
D_AXIS
 62
9
  6
CONTINUOUS
 10
35.3195301839
 20
61.4385396728
  0
VERTEX
  8
D_AXIS
 62
9
  6
CONTINUOUS
 10
35.0745780068
 20
60.0855211884
  0
VERTEX
  8
D_AXIS
 62
9
  6
CONTINUOUS
 10
34.8575368313
 20
58.7014365718
  0
VERTEX
  8
D_AXIS
 62
9
  6
CONTINUOUS
 10
34.6690015522
 20
57.2900795028
  0
VERTEX
  8
D_AXIS
 62
9
  6
CONTINUOUS
 10
34.5094889318
 20
55.855318413
  0
VERTEX
  8
D_AXIS
 62
9
  6
CONTINUOUS
 10
34.3794361829
 20
54.4010858827
  0
VERTEX
  8
D_AXIS
 62
9
  6
CONTINUOUS
 10
34.2791997712
 20
52.9313678623
  0
VERTEX
  8
D_AXIS
 62
9
  6
CONTINUOUS
 10
34.2090544376
 20
51.4501927467
  0
VERTEX
  8
D_AXIS
 62
9
  6
CONTINUOUS
 10
34.1691924456
 20
49.9616203339
  0
VERTEX
  8
D_AXIS
 62
9
  6
CONTINUOUS
 10
34.1597230542
 20
48.4697306975
  0
VERTEX
  8
D_AXIS
 62
9
  6
CONTINUOUS
 10
34.1806722184
 20
46.9786130033
  0
VERTEX
  8
D_AXIS
 62
9
  6
CONTINUOUS
 10
34.2319825179
 20
45.4923543011
  0
VERTEX
  8
D_AXIS
 62
9
  6
CONTINUOUS
 10
34.3135133147
 20
44.0150283228
  0
VERTEX
  8
D_AXIS
 62
9
  6
CONTINUOUS
 10
34.4250411387
 20
42.5506843162
  0
VERTEX
  8
D_AXIS
 62
9
  6
CONTINUOUS
 10
34.5662602998
 20
41.1033359465
  0
VERTEX
  8
D_AXIS
 62
9
  6
CONTINUOUS
 10
34.736783726
 20
39.6769502949
  0
VERTEX
  8
D_AXIS
 62
9
  6
CONTINUOUS
 10
34.9361440247
 20
38.2754369853
  0
VERTEX
  8
D_AXIS
 62
9
  6
CONTINUOUS
 10
35.1637947629
 20
36.9026374684
  0
VERTEX
  8
D_AXIS
 62
9
  6
CONTINUOUS
 10
35.4191119659
 20
35.5623144921
  0
VERTEX
  8
D_AXIS
 62
9
  6
CONTINUOUS
 10
35.701395827
 20
34.2581417886
  0
VERTEX
  8
D_AXIS
 62
9
  6
CONTINUOUS
 10
36.0098726257
 20
32.9936940046
  0
VERTEX
  8
D_AXIS
 62
9
  6
CONTINUOUS
 10
36.3436968485
 20
31.7724369036
  0
VERTEX
  8
D_AXIS
 62
9
  6
CONTINUOUS
 10
36.7019535066
 20
30.5977178664
  0
VERTEX
  8
D_AXIS
 62
9
  6
CONTINUOUS
 10
37.0836606431
 20
29.4727567163
  0
VERTEX
  8
D_AXIS
 62
9
  6
CONTINUOUS
 10
37.4877720256
 20
28.4006368935
  0
VERTEX
  8
D_AXIS
 62
9
  6
CONTINUOUS
 10
37.9131800126
 20
27.384297004
  0
VERTEX
  8
D_AXIS
 62
9
  6
CONTINUOUS
 10
38.3587185906
 20
26.4265227648
  0
VERTEX
  8
D_AXIS
 62
9
  6
CONTINUOUS
 10
38.8231665692
 20
25.5299393684
  0
VERTEX
  8
D_AXIS
 62
9
  6
CONTINUOUS
 10
39.3052509289
 20
24.6970042877
  0
VERTEX
  8
D_AXIS
 62
9
  6
CONTINUOUS
 10
39.8036503098
 20
23.9300005398
  0
VERTEX
  8
D_AXIS
 62
9
  6
CONTINUOUS
 10
40.3169986339
 20
23.2310304287
  0
VERTEX
  8
D_AXIS
 62
9
  6
CONTINUOUS
 10
40.8438888492
 20
22.6020097828
  0
VERTEX
  8
D_AXIS
 62
9
  6
CONTINUOUS
 10
41.3828767862
 20
22.0446627041
  0
VERTEX
  8
D_AXIS
 62
9
  6
CONTINUOUS
 10
41.9324851164
 20
21.5605168421
  0
VERTEX
  8
D_AXIS
 62
9
  6
CONTINUOUS
 10
42.4912074016
 20
21.150899207
  0
VERTEX
  8
D_AXIS
 62
9
  6
CONTINUOUS
 10
43.0575122229
 20
20.8169325322
  0
VERTEX
  8
D_AXIS
 62
9
  6
CONTINUOUS
 10
43.6298473781
 20
20.5595321972
  0
VERTEX
  8
D_AXIS
 62
9
  6
CONTINUOUS
 10
44.2066441362
 20
20.3794037184
  0
VERTEX
  8
D_AXIS
 62
9
  6
CONTINUOUS
 10
44.7863215376
 20
20.2770408155
  0
VERTEX
  8
D_AXIS
 62
9
  6
CONTINUOUS
 10
45.3672907268
 20
20.2527240581
  0
VERTEX
  8
D_AXIS
 62
9
  6
CONTINUOUS
 10
45.8479828314
 20
20.2972577764
  0
SEQEND
  0
POLYLINE
  8
D_AXIS
 62
7
  6
CONTINUOUS
 66
1
 70
0
  0
VERTEX
  8
D_AXIS
 62
7
  6
CONTINUOUS
 10
36.4114027334
 20
66.7780548447
  0
VERTEX
  8
D_AXIS
 62
7
  6
CONTINUOUS
 10
36.7909205652
 20
67.9422386169
  0
VERTEX
  8
D_AXIS
 62
7
  6
CONTINUOUS
 10
37.193645023
 20
69.0538215406
  0
VERTEX
  8
D_AXIS
 62
7
  6
CONTINUOUS
 10
37.6184722672
 20
70.1097568442
  0
VERTEX
  8
D_AXIS
 62
7
  6
CONTINUOUS
 10
38.0642378757
 20
71.1071502825
  0
VERTEX
  8
D_AXIS
 62
7
  6
CONTINUOUS
 10
38.529720036
 20
72.0432680694
  0
VERTEX
  8
D_AXIS
 62
7
  6
CONTINUOUS
 10
39.0136428938
 20
72.915544371
  0
VERTEX
  8
D_AXIS
 62
7
  6
CONTINUOUS
 10
39.5146800504
 20
73.7215883387
  0
VERTEX
  8
D_AXIS
 62
7
  6
CONTINUOUS
 10
40.0314581975
 20
74.459190662
  0
VERTEX
  8
D_AXIS
 62
7
  6
CONTINUOUS
 10
40.5625608823
 20
75.1263296242
  0
VERTEX
  8
D_AXIS
 62
7
  6
CONTINUOUS
 10
41.1065323892
 20
75.7211766437
  0
VERTEX
  8
D_AXIS
 62
7
  6
CONTINUOUS
 10
41.6618817301
 20
76.2421012863
  0
VERTEX
  8
D_AXIS
 62
7
  6
CONTINUOUS
 10
42.227086731
 20
76.6876757336
  0
VERTEX
  8
D_AXIS
 62
7
  6
CONTINUOUS
 10
42.8005982044
 20
77.0566786972
  0
VERTEX
  8
D_AXIS
 62
7
  6
CONTINUOUS
 10
43.3808441952
 20
77.3480987655
  0
VERTEX
  8
D_AXIS
 62
7
  6
CONTINUOUS
 10
43.9662342894
 20
77.5611371764
  0
VERTEX
  8
D_AXIS
 62
7
  6
CONTINUOUS
 10
44.5551639735
 20
77.6952100063
  0
VERTEX
  8
D_AXIS
 62
7
  6
CONTINUOUS
 10
45.1460190322
 20
77.7499497711
  0
VERTEX
  8
D_AXIS
 62
7
  6
CONTINUOUS
 10
45.2575911094
 20
77.7513638491
  0
SEQEND
  0
POLYLINE
  8
D_AXIS
 62
9
  6
CONTINUOUS
 66
1
 70
0
  0
VERTEX
  8
D_AXIS
 62
9
  6
CONTINUOUS
 10
36.5639135123
 20
66.4672705529
  0
VERTEX
  8
D_AXIS
 62
9
  6
CONTINUOUS
 10
36.9368883689
 20
67.6113835275
  0
VERTEX
  8
D_AXIS
 62
9
  6
CONTINUOUS
 10
37.3326697639
 20
68.7038025044
  0
VERTEX
  8
D_AXIS
 62
9
  6
CONTINUOUS
 10
37.750172888
 20
69.741533239
  0
VERTEX
  8
D_AXIS
 62
9
  6
CONTINUOUS
 10
38.1882533942
 20
70.7217313835
  0
VERTEX
  8
D_AXIS
 62
9
  6
CONTINUOUS
 10
38.6457105344
 20
71.6417102831
  0
VERTEX
  8
D_AXIS
 62
9
  6
CONTINUOUS
 10
39.1212904502
 20
72.4989483394
  0
VERTEX
  8
D_AXIS
 62
9
  6
CONTINUOUS
 10
39.6136896102
 20
73.2910959226
  0
VERTEX
  8
D_AXIS
 62
9
  6
CONTINUOUS
 10
40.1215583825
 20
74.0159818111
  0
VERTEX
  8
D_AXIS
 62
9
  6
CONTINUOUS
 10
40.643504734
 20
74.6716191431
  0
VERTEX
  8
D_AXIS
 62
9
  6
CONTINUOUS
 10
41.1780980462
 20
75.2562108624
  0
VERTEX
  8
D_AXIS
 62
9
  6
CONTINUOUS
 10
41.723873036
 20
75.7681546436
  0
VERTEX
  8
D_AXIS
 62
9
  6
CONTINUOUS
 10
42.2793337719
 20
76.2060472843
  0
VERTEX
  8
D_AXIS
 62
9
  6
CONTINUOUS
 10
42.8429577748
 20
76.5686885514
  0
VERTEX
  8
D_AXIS
 62
9
  6
CONTINUOUS
 10
43.4132001904
 20
76.8550844703
  0
VERTEX
  8
D_AXIS
 62
9
  6
CONTINUOUS
 10
43.9884980239
 20
77.0644500496
  0
VERTEX
  8
D_AXIS
 62
9
  6
CONTINUOUS
 10
44.567274424
 20
77.196211433
  0
VERTEX
  8
D_AXIS
 62
9
  6
CONTINUOUS
 10
45.1479430047
 20
77.2500074716
  0
VERTEX
  8
D_AXIS
 62
9
  6
CONTINUOUS
 10
45.7289121938
 20
77.2256907141
  0
VERTEX
  8
D_AXIS
 62
9
  6
CONTINUOUS
 10
45.8557163663
 20
77.2032988748
  0
SEQEND
  0
POLYLINE
  8
D_AXIS
 62
7
  6
CONTINUOUS
 66
1
 70
0
  0
VERTEX
  8
D_AXIS
 62
7
  6
CONTINUOUS
 10
39.1745857147
 20
66.7780548447
  0
VERTEX
  8
D_AXIS
 62
7
  6
CONTINUOUS
 10
38.8193147409
 20
65.5644611707
  0
VERTEX
  8
D_AXIS
 62
7
  6
CONTINUOUS
 10
38.4892643983
 20
64.3047839708
  0
VERTEX
  8
D_AXIS
 62
7
  6
CONTINUOUS
 10
38.1853393317
 20
63.0024759328
  0
VERTEX
  8
D_AXIS
 62
7
  6
CONTINUOUS
 10
37.9083725788
 20
61.6611065924
  0
VERTEX
  8
D_AXIS
 62
7
  6
CONTINUOUS
 10
37.6591232861
 20
60.2843525497
  0
VERTEX
  8
D_AXIS
 62
7
  6
CONTINUOUS
 10
37.4382746287
 20
58.8759873919
  0
VERTEX
  8
D_AXIS
 62
7
  6
CONTINUOUS
 10
37.2464319372
 20
57.4398713499
  0
VERTEX
  8
D_AXIS
 62
7
  6
CONTINUOUS
 10
37.0841210394
 20
55.9799407181
  0
VERTEX
  8
D_AXIS
 62
7
  6
CONTINUOUS
 10
36.9517868179
 20
54.5001970648
  0
VERTEX
  8
D_AXIS
 62
7
  6
CONTINUOUS
 10
36.8497919917
 20
53.0046962645
  0
VERTEX
  8
D_AXIS
 62
7
  6
CONTINUOUS
 10
36.7784161216
 20
51.4975373809
  0
VERTEX
  8
D_AXIS
 62
7
  6
CONTINUOUS
 10
36.7378548438
 20
49.9828514319
  0
VERTEX
  8
D_AXIS
 62
7
  6
CONTINUOUS
 10
36.728219334
 20
48.4647900662
  0
VERTEX
  8
D_AXIS
 62
7
  6
CONTINUOUS
 10
36.7495360025
 20
46.9475141845
  0
VERTEX
  8
D_AXIS
 62
7
  6
CONTINUOUS
 10
36.8017464217
 20
45.4351825347
  0
VERTEX
  8
D_AXIS
 62
7
  6
CONTINUOUS
 10
36.8847074865
 20
43.9319403126
  0
VERTEX
  8
D_AXIS
 62
7
  6
CONTINUOUS
 10
36.9981918064
 20
42.4419078007
  0
VERTEX
  8
D_AXIS
 62
7
  6
CONTINUOUS
 10
37.1418883288
 20
40.9691690745
  0
VERTEX
  8
D_AXIS
 62
7
  6
CONTINUOUS
 10
37.3154031914
 20
39.5177608085
  0
VERTEX
  8
D_AXIS
 62
7
  6
CONTINUOUS
 10
37.5182608022
 20
38.0916612118
  0
VERTEX
  8
D_AXIS
 62
7
  6
CONTINUOUS
 10
37.7499051425
 20
36.6947791244
  0
VERTEX
  8
D_AXIS
 62
7
  6
CONTINUOUS
 10
38.0097012912
 20
35.3309433029
  0
VERTEX
  8
D_AXIS
 62
7
  6
CONTINUOUS
 10
38.2969371652
 20
34.0038919265
  0
VERTEX
  8
D_AXIS
 62
7
  6
CONTINUOUS
 10
38.610825471
 20
32.7172623509
  0
VERTEX
  8
D_AXIS
 62
7
  6
CONTINUOUS
 10
38.9505058624
 20
31.4745811382
  0
VERTEX
  8
D_AXIS
 62
7
  6
CONTINUOUS
 10
39.3150472991
 20
30.2792543912
  0
VERTEX
  8
D_AXIS
 62
7
  6
CONTINUOUS
 10
39.7034505985
 20
29.1345584176
  0
VERTEX
  8
D_AXIS
 62
7
  6
CONTINUOUS
 10
40.114651174
 20
28.0436307493
  0
VERTEX
  8
D_AXIS
 62
7
  6
CONTINUOUS
 10
40.5475219535
 20
27.0094615434
  0
VERTEX
  8
D_AXIS
 62
7
  6
CONTINUOUS
 10
41.0008764682
 20
26.0348853856
  0
VERTEX
  8
D_AXIS
 62
7
  6
CONTINUOUS
 10
41.473472105
 20
25.1225735216
  0
VERTEX
  8
D_AXIS
 62
7
  6
CONTINUOUS
 10
41.964013512
 20
24.2750265347
  0
VERTEX
  8
D_AXIS
 62
7
  6
CONTINUOUS
 10
42.4711561494
 20
23.4945674923
  0
VERTEX
  8
D_AXIS
 62
7
  6
CONTINUOUS
 10
42.9935099743
 20
22.7833355784
  0
VERTEX
  8
D_AXIS
 62
7
  6
CONTINUOUS
 10
43.5296432514
 20
22.1432802302
  0
VERTEX
  8
D_AXIS
 62
7
  6
CONTINUOUS
 10
44.0780864765
 20
21.5761557949
  0
VERTEX
  8
D_AXIS
 62
7
  6
CONTINUOUS
 10
44.6373364049
 20
21.0835167213
  0
VERTEX
  8
D_AXIS
 62
7
  6
CONTINUOUS
 10
45.2058601715
 20
20.6667132987
  0
VERTEX
  8
D_AXIS
 62
7
  6
CONTINUOUS
 10
45.782099492
 20
20.3268879564
  0
VERTEX
  8
D_AXIS
 62
7
  6
CONTINUOUS
 10
46.3644749346
 20
20.0649721319
  0
VERTEX
  8
D_AXIS
 62
7
  6
CONTINUOUS
 10
46.9513902486
 20
19.8816837185
  0
VERTEX
  8
D_AXIS
 62
7
  6
CONTINUOUS
 10
47.54123674
 20
19.7775250969
  0
VERTEX
  8
D_AXIS
 62
7
  6
CONTINUOUS
 10
48.0208256034
 20
19.7513676805
  0
SEQEND
  0
POLYLINE
  8
D_AXIS
 62
7
  6
CONTINUOUS
 66
1
 70
0
  0
VERTEX
  8
D_AXIS
 62
7
  6
CONTINUOUS
 10
39.635116212
 20
66.7780548447
  0
VERTEX
  8
D_AXIS
 62
7
  6
CONTINUOUS
 10
39.2798452383
 20
65.5644611707
  0
VERTEX
  8
D_AXIS
 62
7
  6
CONTINUOUS
 10
38.9497948956
 20
64.3047839708
  0
VERTEX
  8
D_AXIS
 62
7
  6
CONTINUOUS
 10
38.6458698291
 20
63.0024759328
  0
VERTEX
  8
D_AXIS
 62
7
  6
CONTINUOUS
 10
38.3689030761
 20
61.6611065924
  0
VERTEX
  8
D_AXIS
 62
7
  6
CONTINUOUS
 10
38.1196537835
 20
60.2843525497
  0
VERTEX
  8
D_AXIS
 62
7
  6
CONTINUOUS
 10
37.898805126
 20
58.8759873919
  0
VERTEX
  8
D_AXIS
 62
7
  6
CONTINUOUS
 10
37.7069624346
 20
57.4398713499
  0
VERTEX
  8
D_AXIS
 62
7
  6
CONTINUOUS
 10
37.5446515367
 20
55.9799407181
  0
VERTEX
  8
D_AXIS
 62
7
  6
CONTINUOUS
 10
37.4123173152
 20
54.5001970648
  0
VERTEX
  8
D_AXIS
 62
7
  6
CONTINUOUS
 10
37.310322489
 20
53.0046962645
  0
VERTEX
  8
D_AXIS
 62
7
  6
CONTINUOUS
 10
37.2389466189
 20
51.4975373809
  0
VERTEX
  8
D_AXIS
 62
7
  6
CONTINUOUS
 10
37.1983853411
 20
49.9828514319
  0
VERTEX
  8
D_AXIS
 62
7
  6
CONTINUOUS
 10
37.1887498314
 20
48.4647900662
  0
VERTEX
  8
D_AXIS
 62
7
  6
CONTINUOUS
 10
37.2100664998
 20
46.9475141845
  0
VERTEX
  8
D_AXIS
 62
7
  6
CONTINUOUS
 10
37.262276919
 20
45.4351825347
  0
VERTEX
  8
D_AXIS
 62
7
  6
CONTINUOUS
 10
37.3452379838
 20
43.9319403126
  0
VERTEX
  8
D_AXIS
 62
7
  6
CONTINUOUS
 10
37.4587223037
 20
42.4419078007
  0
VERTEX
  8
D_AXIS
 62
7
  6
CONTINUOUS
 10
37.6024188261
 20
40.9691690745
  0
VERTEX
  8
D_AXIS
 62
7
  6
CONTINUOUS
 10
37.7759336888
 20
39.5177608085
  0
VERTEX
  8
D_AXIS
 62
7
  6
CONTINUOUS
 10
37.9787912995
 20
38.0916612118
  0
VERTEX
  8
D_AXIS
 62
7
  6
CONTINUOUS
 10
38.2104356398
 20
36.6947791244
  0
VERTEX
  8
D_AXIS
 62
7
  6
CONTINUOUS
 10
38.4702317886
 20
35.3309433029
  0
VERTEX
  8
D_AXIS
 62
7
  6
CONTINUOUS
 10
38.7574676626
 20
34.0038919265
  0
VERTEX
  8
D_AXIS
 62
7
  6
CONTINUOUS
 10
39.0713559683
 20
32.7172623509
  0
VERTEX
  8
D_AXIS
 62
7
  6
CONTINUOUS
 10
39.4110363597
 20
31.4745811382
  0
VERTEX
  8
D_AXIS
 62
7
  6
CONTINUOUS
 10
39.7755777965
 20
30.2792543912
  0
VERTEX
  8
D_AXIS
 62
7
  6
CONTINUOUS
 10
40.1639810959
 20
29.1345584176
  0
VERTEX
  8
D_AXIS
 62
7
  6
CONTINUOUS
 10
40.5751816714
 20
28.0436307493
  0
VERTEX
  8
D_AXIS
 62
7
  6
CONTINUOUS
 10
41.0080524509
 20
27.0094615434
  0
VERTEX
  8
D_AXIS
 62
7
  6
CONTINUOUS
 10
41.4614069656
 20
26.0348853856
  0
VERTEX
  8
D_AXIS
 62
7
  6
CONTINUOUS
 10
41.9340026024
 20
25.1225735216
  0
VERTEX
  8
D_AXIS
 62
7
  6
CONTINUOUS
 10
42.4245440094
 20
24.2750265347
  0
VERTEX
  8
D_AXIS
 62
7
  6
CONTINUOUS
 10
42.9316866467
 20
23.4945674923
  0
VERTEX
  8
D_AXIS
 62
7
  6
CONTINUOUS
 10
43.4540404717
 20
22.7833355784
  0
VERTEX
  8
D_AXIS
 62
7
  6
CONTINUOUS
 10
43.9901737487
 20
22.1432802302
  0
VERTEX
  8
D_AXIS
 62
7
  6
CONTINUOUS
 10
44.5386169739
 20
21.5761557949
  0
VERTEX
  8
D_AXIS
 62
7
  6
CONTINUOUS
 10
45.0978669023
 20
21.0835167213
  0
VERTEX
  8
D_AXIS
 62
7
  6
CONTINUOUS
 10
45.6663906688
 20
20.6667132987
  0
VERTEX
  8
D_AXIS
 62
7
  6
CONTINUOUS
 10
46.2426299893
 20
20.3268879564
  0
VERTEX
  8
D_AXIS
 62
7
  6
CONTINUOUS
 10
46.8250054319
 20
20.0649721319
  0
VERTEX
  8
D_AXIS
 62
7
  6
CONTINUOUS
 10
47.4119207459
 20
19.8816837185
  0
VERTEX
  8
D_AXIS
 62
7
  6
CONTINUOUS
 10
48.0017672373
 20
19.7775250969
  0
VERTEX
  8
D_AXIS
 62
7
  6
CONTINUOUS
 10
48.4813561007
 20
19.7513676805
  0
SEQEND
  0
POLYLINE
  8
D_AXIS
 62
7
  6
CONTINUOUS
 66
1
 70
0
  0
VERTEX
  8
D_AXIS
 62
7
  6
CONTINUOUS
 10
39.1745857147
 20
66.7780548447
  0
VERTEX
  8
D_AXIS
 62
7
  6
CONTINUOUS
 10
39.5541035465
 20
67.9422386169
  0
VERTEX
  8
D_AXIS
 62
7
  6
CONTINUOUS
 10
39.9568280043
 20
69.0538215406
  0
VERTEX
  8
D_AXIS
 62
7
  6
CONTINUOUS
 10
40.3816552485
 20
70.1097568442
  0
VERTEX
  8
D_AXIS
 62
7
  6
CONTINUOUS
 10
40.827420857
 20
71.1071502825
  0
VERTEX
  8
D_AXIS
 62
7
  6
CONTINUOUS
 10
41.2929030173
 20
72.0432680694
  0
VERTEX
  8
D_AXIS
 62
7
  6
CONTINUOUS
 10
41.7768258752
 20
72.915544371
  0
VERTEX
  8
D_AXIS
 62
7
  6
CONTINUOUS
 10
42.2778630317
 20
73.7215883387
  0
VERTEX
  8
D_AXIS
 62
7
  6
CONTINUOUS
 10
42.7946411788
 20
74.459190662
  0
VERTEX
  8
D_AXIS
 62
7
  6
CONTINUOUS
 10
43.3257438636
 20
75.1263296242
  0
VERTEX
  8
D_AXIS
 62
7
  6
CONTINUOUS
 10
43.8697153705
 20
75.7211766437
  0
VERTEX
  8
D_AXIS
 62
7
  6
CONTINUOUS
 10
44.4250647114
 20
76.2421012863
  0
VERTEX
  8
D_AXIS
 62
7
  6
CONTINUOUS
 10
44.9902697124
 20
76.6876757336
  0
VERTEX
  8
D_AXIS
 62
7
  6
CONTINUOUS
 10
45.5637811858
 20
77.0566786972
  0
VERTEX
  8
D_AXIS
 62
7
  6
CONTINUOUS
 10
46.1440271766
 20
77.3480987655
  0
VERTEX
  8
D_AXIS
 62
7
  6
CONTINUOUS
 10
46.7294172708
 20
77.5611371764
  0
VERTEX
  8
D_AXIS
 62
7
  6
CONTINUOUS
 10
47.3183469549
 20
77.6952100063
  0
VERTEX
  8
D_AXIS
 62
7
  6
CONTINUOUS
 10
47.9092020135
 20
77.7499497711
  0
VERTEX
  8
D_AXIS
 62
7
  6
CONTINUOUS
 10
48.0207740907
 20
77.7513638491
  0
SEQEND
  0
POLYLINE
  8
D_AXIS
 62
7
  6
CONTINUOUS
 66
1
 70
0
  0
VERTEX
  8
D_AXIS
 62
7
  6
CONTINUOUS
 10
39.635116212
 20
66.7780548447
  0
VERTEX
  8
D_AXIS
 62
7
  6
CONTINUOUS
 10
40.0146340438
 20
67.9422386169
  0
VERTEX
  8
D_AXIS
 62
7
  6
CONTINUOUS
 10
40.4173585017
 20
69.0538215406
  0
VERTEX
  8
D_AXIS
 62
7
  6
CONTINUOUS
 10
40.8421857458
 20
70.1097568442
  0
VERTEX
  8
D_AXIS
 62
7
  6
CONTINUOUS
 10
41.2879513543
 20
71.1071502825
  0
VERTEX
  8
D_AXIS
 62
7
  6
CONTINUOUS
 10
41.7534335146
 20
72.0432680694
  0
VERTEX
  8
D_AXIS
 62
7
  6
CONTINUOUS
 10
42.2373563725
 20
72.915544371
  0
VERTEX
  8
D_AXIS
 62
7
  6
CONTINUOUS
 10
42.738393529
 20
73.7215883387
  0
VERTEX
  8
D_AXIS
 62
7
  6
CONTINUOUS
 10
43.2551716762
 20
74.459190662
  0
VERTEX
  8
D_AXIS
 62
7
  6
CONTINUOUS
 10
43.786274361
 20
75.1263296242
  0
VERTEX
  8
D_AXIS
 62
7
  6
CONTINUOUS
 10
44.3302458678
 20
75.7211766437
  0
VERTEX
  8
D_AXIS
 62
7
  6
CONTINUOUS
 10
44.8855952087
 20
76.2421012863
  0
VERTEX
  8
D_AXIS
 62
7
  6
CONTINUOUS
 10
45.4508002097
 20
76.6876757336
  0
VERTEX
  8
D_AXIS
 62
7
  6
CONTINUOUS
 10
46.0243116831
 20
77.0566786972
  0
VERTEX
  8
D_AXIS
 62
7
  6
CONTINUOUS
 10
46.6045576739
 20
77.3480987655
  0
VERTEX
  8
D_AXIS
 62
7
  6
CONTINUOUS
 10
47.1899477681
 20
77.5611371764
  0
VERTEX
  8
D_AXIS
 62
7
  6
CONTINUOUS
 10
47.7788774522
 20
77.6952100063
  0
VERTEX
  8
D_AXIS
 62
7
  6
CONTINUOUS
 10
48.3697325109
 20
77.7499497711
  0
VERTEX
  8
D_AXIS
 62
7
  6
CONTINUOUS
 10
48.4813045881
 20
77.7513638491
  0
SEQEND
  0
POLYLINE
  8
D_AXIS
 62
7
  6
CONTINUOUS
 66
1
 70
0
  0
VERTEX
  8
D_AXIS
 62
7
  6
CONTINUOUS
 10
59.0735381579
 20
38.7513745597
  0
VERTEX
  8
D_AXIS
 62
7
  6
CONTINUOUS
 10
59.213933461
 20
38.7578674067
  0
VERTEX
  8
D_AXIS
 62
7
  6
CONTINUOUS
 10
59.5188361121
 20
38.8169618298
  0
VERTEX
  8
D_AXIS
 62
7
  6
CONTINUOUS
 10
59.8209933138
 20
38.9373051567
  0
VERTEX
  8
D_AXIS
 62
7
  6
CONTINUOUS
 10
60.1185421667
 20
39.1181554308
  0
VERTEX
  8
D_AXIS
 62
7
  6
CONTINUOUS
 10
60.409648183
 20
39.3583976499
  0
VERTEX
  8
D_AXIS
 62
7
  6
CONTINUOUS
 10
60.6925165973
 20
39.6565506409
  0
VERTEX
  8
D_AXIS
 62
7
  6
CONTINUOUS
 10
60.9654034318
 20
40.0107761915
  0
VERTEX
  8
D_AXIS
 62
7
  6
CONTINUOUS
 10
61.2266262485
 20
40.4188903834
  0
VERTEX
  8
D_AXIS
 62
7
  6
CONTINUOUS
 10
61.4745745217
 20
40.8783770568
  0
VERTEX
  8
D_AXIS
 62
7
  6
CONTINUOUS
 10
61.707719568
 20
41.3864033236
  0
VERTEX
  8
D_AXIS
 62
7
  6
CONTINUOUS
 10
61.9246239706
 20
41.939837033
  0
VERTEX
  8
D_AXIS
 62
7
  6
CONTINUOUS
 10
62.1239504417
 20
42.5352660821
  0
SEQEND
  0
LINE
  8
D_AXIS
 62
7
  6
CONTINUOUS
 10
59.0735317754
 20
38.7513657648
 11
48.4813303444
 21
38.7513657648
  0
POLYLINE
  8
D_AXIS
 62
7
  6
CONTINUOUS
 66
1
 70
0
  0
VERTEX
  8
D_AXIS
 62
7
  6
CONTINUOUS
 10
45.430911678
 20
54.9674654475
  0
VERTEX
  8
D_AXIS
 62
7
  6
CONTINUOUS
 10
45.2503920524
 20
54.3337120768
  0
VERTEX
  8
D_AXIS
 62
7
  6
CONTINUOUS
 10
45.0897922356
 20
53.6655416848
  0
VERTEX
  8
D_AXIS
 62
7
  6
CONTINUOUS
 10
44.9501023792
 20
52.9670737641
  0
VERTEX
  8
D_AXIS
 62
7
  6
CONTINUOUS
 10
44.8321837174
 20
52.2426146017
  0
VERTEX
  8
D_AXIS
 62
7
  6
CONTINUOUS
 10
44.736763258
 20
51.4966307293
  0
VERTEX
  8
D_AXIS
 62
7
  6
CONTINUOUS
 10
44.6644292998
 20
50.7337213855
  0
VERTEX
  8
D_AXIS
 62
7
  6
CONTINUOUS
 10
44.6156278059
 20
49.9585901601
  0
VERTEX
  8
D_AXIS
 62
7
  6
CONTINUOUS
 10
44.5906596536
 20
49.1760159948
  0
VERTEX
  8
D_AXIS
 62
7
  6
CONTINUOUS
 10
44.5896787799
 20
48.3908237197
  0
VERTEX
  8
D_AXIS
 62
7
  6
CONTINUOUS
 10
44.6126912322
 20
47.6078543062
  0
VERTEX
  8
D_AXIS
 62
7
  6
CONTINUOUS
 10
44.659555131
 20
46.831935021
  0
VERTEX
  8
D_AXIS
 62
7
  6
CONTINUOUS
 10
44.729981545
 20
46.0678496647
  0
VERTEX
  8
D_AXIS
 62
7
  6
CONTINUOUS
 10
44.8235362717
 20
45.3203090775
  0
VERTEX
  8
D_AXIS
 62
7
  6
CONTINUOUS
 10
44.9396425152
 20
44.5939220957
  0
VERTEX
  8
D_AXIS
 62
7
  6
CONTINUOUS
 10
45.0775844419
 20
43.8931671366
  0
VERTEX
  8
D_AXIS
 62
7
  6
CONTINUOUS
 10
45.236511594
 20
43.2223645876
  0
VERTEX
  8
D_AXIS
 62
7
  6
CONTINUOUS
 10
45.4154441327
 20
42.5856501694
  0
VERTEX
  8
D_AXIS
 62
7
  6
CONTINUOUS
 10
45.6132788794
 20
41.9869494382
  0
VERTEX
  8
D_AXIS
 62
7
  6
CONTINUOUS
 10
45.8287961171
 20
41.429953583
  0
VERTEX
  8
D_AXIS
 62
7
  6
CONTINUOUS
 10
46.0606671103
 20
40.9180966686
  0
VERTEX
  8
D_AXIS
 62
7
  6
CONTINUOUS
 10
46.3074622974
 20
40.4545344629
  0
VERTEX
  8
D_AXIS
 62
7
  6
CONTINUOUS
 10
46.5676601038
 20
40.0421249812
  0
VERTEX
  8
D_AXIS
 62
7
  6
CONTINUOUS
 10
46.8396563236
 20
39.683410865
  0
VERTEX
  8
D_AXIS
 62
7
  6
CONTINUOUS
 10
47.1217740097
 20
39.3806037062
  0
VERTEX
  8
D_AXIS
 62
7
  6
CONTINUOUS
 10
47.4122738127
 20
39.1355704116
  0
VERTEX
  8
D_AXIS
 62
7
  6
CONTINUOUS
 10
47.7093647047
 20
38.9498216929
  0
VERTEX
  8
D_AXIS
 62
7
  6
CONTINUOUS
 10
48.0112150216
 20
38.8245027528
  0
VERTEX
  8
D_AXIS
 62
7
  6
CONTINUOUS
 10
48.3159637557
 20
38.7603862242
  0
VERTEX
  8
D_AXIS
 62
7
  6
CONTINUOUS
 10
48.4813367269
 20
38.7513745597
  0
SEQEND
  0
POLYLINE
  8
D_AXIS
 62
7
  6
CONTINUOUS
 66
1
 70
0
  0
VERTEX
  8
D_AXIS
 62
7
  6
CONTINUOUS
 10
45.430911678
 20
54.9674654475
  0
VERTEX
  8
D_AXIS
 62
7
  6
CONTINUOUS
 10
45.6302381492
 20
55.5628944966
  0
VERTEX
  8
D_AXIS
 62
7
  6
CONTINUOUS
 10
45.8471425518
 20
56.116328206
  0
VERTEX
  8
D_AXIS
 62
7
  6
CONTINUOUS
 10
46.0802875981
 20
56.6243544728
  0
VERTEX
  8
D_AXIS
 62
7
  6
CONTINUOUS
 10
46.3282358713
 20
57.0838411463
  0
VERTEX
  8
D_AXIS
 62
7
  6
CONTINUOUS
 10
46.589458688
 20
57.4919553381
  0
VERTEX
  8
D_AXIS
 62
7
  6
CONTINUOUS
 10
46.8623455225
 20
57.8461808887
  0
VERTEX
  8
D_AXIS
 62
7
  6
CONTINUOUS
 10
47.1452139368
 20
58.1443338798
  0
VERTEX
  8
D_AXIS
 62
7
  6
CONTINUOUS
 10
47.4363199531
 20
58.3845760989
  0
VERTEX
  8
D_AXIS
 62
7
  6
CONTINUOUS
 10
47.733868806
 20
58.5654263729
  0
VERTEX
  8
D_AXIS
 62
7
  6
CONTINUOUS
 10
48.0360260077
 20
58.6857696998
  0
VERTEX
  8
D_AXIS
 62
7
  6
CONTINUOUS
 10
48.3409286588
 20
58.7448641229
  0
VERTEX
  8
D_AXIS
 62
7
  6
CONTINUOUS
 10
48.4813239619
 20
58.7513569699
  0
SEQEND
  0
POLYLINE
  8
D_AXIS
 62
7
  6
CONTINUOUS
 66
1
 70
0
  0
VERTEX
  8
D_AXIS
 62
7
  6
CONTINUOUS
 10
59.0735376232
 20
46.7513755335
  0
VERTEX
  8
D_AXIS
 62
7
  6
CONTINUOUS
 10
59.1157136327
 20
46.7543012334
  0
VERTEX
  8
D_AXIS
 62
7
  6
CONTINUOUS
 10
59.2091466793
 20
46.7819186348
  0
VERTEX
  8
D_AXIS
 62
7
  6
CONTINUOUS
 10
59.3006021553
 20
46.8382550102
  0
VERTEX
  8
D_AXIS
 62
7
  6
CONTINUOUS
 10
59.3887464339
 20
46.9224888484
  0
VERTEX
  8
D_AXIS
 62
7
  6
CONTINUOUS
 10
59.4722941729
 20
47.0333918303
  0
VERTEX
  8
D_AXIS
 62
7
  6
CONTINUOUS
 10
59.5500270582
 20
47.1693467407
  0
VERTEX
  8
D_AXIS
 62
7
  6
CONTINUOUS
 10
59.6208115693
 20
47.3283710509
  0
VERTEX
  8
D_AXIS
 62
7
  6
CONTINUOUS
 10
59.6836155087
 20
47.5081458283
  0
SEQEND
  0
LINE
  8
D_COSM
 62
7
  6
CONTINUOUS
 10
51.9773219312
 20
39.5194742399
 11
51.367238198
 21
40.7626941765
  0
POLYLINE
  8
0
 62
2
  6
CONTINUOUS
 66
1
 70
0
  0
VERTEX
  8
0
 62
2
  6
CONTINUOUS
 10
50.2054415833
 20
40.9180966686
  0
VERTEX
  8
0
 62
2
  6
CONTINUOUS
 10
50.1877154291
 20
40.9562137783
  0
VERTEX
  8
0
 62
2
  6
CONTINUOUS
 10
50.1718063548
 20
40.9945999184
  0
VERTEX
  8
0
 62
2
  6
CONTINUOUS
 10
50.1577323382
 20
41.0332204873
  0
VERTEX
  8
0
 62
2
  6
CONTINUOUS
 10
50.1455100869
 20
41.0720402779
  0
VERTEX
  8
0
 62
2
  6
CONTINUOUS
 10
50.1351512278
 20
41.1110216593
  0
VERTEX
  8
0
 62
2
  6
CONTINUOUS
 10
50.126666118
 20
41.1501263952
  0
VERTEX
  8
0
 62
2
  6
CONTINUOUS
 10
50.1200644528
 20
41.1893161514
  0
VERTEX
  8
0
 62
2
  6
CONTINUOUS
 10
50.1153532818
 20
41.2285522038
  0
VERTEX
  8
0
 62
2
  6
CONTINUOUS
 10
50.112538993
 20
41.2677957305
  0
VERTEX
  8
0
 62
2
  6
CONTINUOUS
 10
50.1116272603
 20
41.3070071471
  0
VERTEX
  8
0
 62
2
  6
CONTINUOUS
 10
50.1126208994
 20
41.3461438171
  0
VERTEX
  8
0
 62
2
  6
CONTINUOUS
 10
50.1155220121
 20
41.3851623415
  0
VERTEX
  8
0
 62
2
  6
CONTINUOUS
 10
50.1203317081
 20
41.424018578
  0
VERTEX
  8
0
 62
2
  6
CONTINUOUS
 10
50.12704713
 20
41.4626654121
  0
VERTEX
  8
0
 62
2
  6
CONTINUOUS
 10
50.1356644288
 20
41.5010549864
  0
VERTEX
  8
0
 62
2
  6
CONTINUOUS
 10
50.1461786349
 20
41.5391390628
  0
VERTEX
  8
0
 62
2
  6
CONTINUOUS
 10
50.1585802968
 20
41.576867882
  0
VERTEX
  8
0
 62
2
  6
CONTINUOUS
 10
50.1728588426
 20
41.6141913043
  0
VERTEX
  8
0
 62
2
  6
CONTINUOUS
 10
50.1890021526
 20
41.6510586321
  0
VERTEX
  8
0
 62
2
  6
CONTINUOUS
 10
50.2069919155
 20
41.6874169363
  0
VERTEX
  8
0
 62
2
  6
CONTINUOUS
 10
50.2268082722
 20
41.7232127299
  0
VERTEX
  8
0
 62
2
  6
CONTINUOUS
 10
50.2484303585
 20
41.7583931102
  0
VERTEX
  8
0
 62
2
  6
CONTINUOUS
 10
50.2718332903
 20
41.7929075119
  0
VERTEX
  8
0
 62
2
  6
CONTINUOUS
 10
50.2969911786
 20
41.8267059538
  0
VERTEX
  8
0
 62
2
  6
CONTINUOUS
 10
50.3238761119
 20
41.8597381136
  0
VERTEX
  8
0
 62
2
  6
CONTINUOUS
 10
50.3524520899
 20
41.8919523044
  0
VERTEX
  8
0
 62
2
  6
CONTINUOUS
 10
50.3826810902
 20
41.9232964982
  0
VERTEX
  8
0
 62
2
  6
CONTINUOUS
 10
50.4145249404
 20
41.9537203023
  0
VERTEX
  8
0
 62
2
  6
CONTINUOUS
 10
50.4479448696
 20
41.9831798655
  0
VERTEX
  8
0
 62
2
  6
CONTINUOUS
 10
50.4829019568
 20
42.0116329721
  0
VERTEX
  8
0
 62
2
  6
CONTINUOUS
 10
50.5193551613
 20
42.0390374603
  0
VERTEX
  8
0
 62
2
  6
CONTINUOUS
 10
50.5572549619
 20
42.0653513847
  0
VERTEX
  8
0
 62
2
  6
CONTINUOUS
 10
50.5965497175
 20
42.0905328541
  0
VERTEX
  8
0
 62
2
  6
CONTINUOUS
 10
50.6371889157
 20
42.1145420814
  0
VERTEX
  8
0
 62
2
  6
CONTINUOUS
 10
50.6791265593
 20
42.1373476969
  0
VERTEX
  8
0
 62
2
  6
CONTINUOUS
 10
50.7223177798
 20
42.1589204354
  0
VERTEX
  8
0
 62
2
  6
CONTINUOUS
 10
50.7667158222
 20
42.1792313732
  0
VERTEX
  8
0
 62
2
  6
CONTINUOUS
 10
50.8122663851
 20
42.1982529538
  0
VERTEX
  8
0
 62
2
  6
CONTINUOUS
 10
50.8589132808
 20
42.215957962
  0
VERTEX
  8
0
 62
2
  6
CONTINUOUS
 10
50.9066022499
 20
42.232320988
  0
VERTEX
  8
0
 62
2
  6
CONTINUOUS
 10
50.9552867484
 20
42.2473238414
  0
VERTEX
  8
0
 62
2
  6
CONTINUOUS
 10
51.0049221609
 20
42.2609501372
  0
VERTEX
  8
0
 62
2
  6
CONTINUOUS
 10
51.0554624959
 20
42.2731840012
  0
VERTEX
  8
0
 62
2
  6
CONTINUOUS
 10
51.1068562583
 20
42.2840116032
  0
VERTEX
  8
0
 62
2
  6
CONTINUOUS
 10
51.1590505766
 20
42.2934196245
  0
VERTEX
  8
0
 62
2
  6
CONTINUOUS
 10
51.2119941231
 20
42.3013959192
  0
VERTEX
  8
0
 62
2
  6
CONTINUOUS
 10
51.265641743
 20
42.3079330353
  0
VERTEX
  8
0
 62
2
  6
CONTINUOUS
 10
51.3199498253
 20
42.313024694
  0
VERTEX
  8
0
 62
2
  6
CONTINUOUS
 10
51.3748742488
 20
42.3166652328
  0
VERTEX
  8
0
 62
2
  6
CONTINUOUS
 10
51.4303688523
 20
42.3188514549
  0
VERTEX
  8
0
 62
2
  6
CONTINUOUS
 10
51.4863869647
 20
42.3195807799
  0
VERTEX
  8
0
 62
2
  6
CONTINUOUS
 10
51.5428819419
 20
42.3188514862
  0
VERTEX
  8
0
 62
2
  6
CONTINUOUS
 10
51.5998072469
 20
42.3166652882
  0
VERTEX
  8
0
 62
2
  6
CONTINUOUS
 10
51.6571163697
 20
42.3130247591
  0
VERTEX
  8
0
 62
2
  6
CONTINUOUS
 10
51.7147633907
 20
42.3079330932
  0
VERTEX
  8
0
 62
2
  6
CONTINUOUS
 10
51.7727047521
 20
42.3013959691
  0
VERTEX
  8
0
 62
2
  6
CONTINUOUS
 10
51.8308974865
 20
42.2934196863
  0
VERTEX
  8
0
 62
2
  6
CONTINUOUS
 10
51.8892968979
 20
42.2840117088
  0
VERTEX
  8
0
 62
2
  6
CONTINUOUS
 10
51.9478513749
 20
42.2731841577
  0
VERTEX
  8
0
 62
2
  6
CONTINUOUS
 10
52.0065075776
 20
42.2609503188
  0
VERTEX
  8
0
 62
2
  6
CONTINUOUS
 10
52.0652136341
 20
42.2473240017
  0
VERTEX
  8
0
 62
2
  6
CONTINUOUS
 10
52.1239235442
 20
42.2323211119
  0
VERTEX
  8
0
 62
2
  6
CONTINUOUS
 10
52.182592776
 20
42.2159580792
  0
VERTEX
  8
0
 62
2
  6
CONTINUOUS
 10
52.2411741334
 20
42.1982531218
  0
VERTEX
  8
0
 62
2
  6
CONTINUOUS
 10
52.2996097643
 20
42.1792316119
  0
VERTEX
  8
0
 62
2
  6
CONTINUOUS
 10
52.357839153
 20
42.1589207104
  0
VERTEX
  8
0
 62
2
  6
CONTINUOUS
 10
52.4158037183
 20
42.1373479393
  0
VERTEX
  8
0
 62
2
  6
CONTINUOUS
 10
52.4734526192
 20
42.114542265
  0
VERTEX
  8
0
 62
2
  6
CONTINUOUS
 10
52.5307369492
 20
42.0905330149
  0
VERTEX
  8
0
 62
2
  6
CONTINUOUS
 10
52.5876054667
 20
42.0653515993
  0
VERTEX
  8
0
 62
2
  6
CONTINUOUS
 10
52.6439975872
 20
42.0390377581
  0
VERTEX
  8
0
 62
2
  6
CONTINUOUS
 10
52.6998503907
 20
42.011633314
  0
VERTEX
  8
0
 62
2
  6
CONTINUOUS
 10
52.7551030504
 20
41.9831801672
  0
VERTEX
  8
0
 62
2
  6
CONTINUOUS
 10
52.8097031126
 20
41.953720529
  0
VERTEX
  8
0
 62
2
  6
CONTINUOUS
 10
52.8636002166
 20
41.9232966883
  0
VERTEX
  8
0
 62
2
  6
CONTINUOUS
 10
52.9167429022
 20
41.8919525448
  0
VERTEX
  8
0
 62
2
  6
CONTINUOUS
 10
52.969075311
 20
41.8597384403
  0
VERTEX
  8
0
 62
2
  6
CONTINUOUS
 10
53.0205404847
 20
41.8267063276
  0
VERTEX
  8
0
 62
2
  6
CONTINUOUS
 10
53.0710834308
 20
41.7929078431
  0
VERTEX
  8
0
 62
2
  6
CONTINUOUS
 10
53.1206570188
 20
41.7583933587
  0
VERTEX
  8
0
 62
2
  6
CONTINUOUS
 10
53.1692160837
 20
41.7232129302
  0
VERTEX
  8
0
 62
2
  6
CONTINUOUS
 10
53.2167156468
 20
41.6874171734
  0
VERTEX
  8
0
 62
2
  6
CONTINUOUS
 10
53.2631114741
 20
41.6510589442
  0
VERTEX
  8
0
 62
2
  6
CONTINUOUS
 10
53.308359518
 20
41.614191658
  0
VERTEX
  8
0
 62
2
  6
CONTINUOUS
 10
53.3524171564
 20
41.5768681955
  0
VERTEX
  8
0
 62
2
  6
CONTINUOUS
 10
53.3952474682
 20
41.5391392961
  0
VERTEX
  8
0
 62
2
  6
CONTINUOUS
 10
53.4368149577
 20
41.5010551641
  0
VERTEX
  8
0
 62
2
  6
CONTINUOUS
 10
53.4770849718
 20
41.4626656036
  0
VERTEX
  8
0
 62
2
  6
CONTINUOUS
 10
53.5160262274
 20
41.4240188177
  0
VERTEX
  8
0
 62
2
  6
CONTINUOUS
 10
53.553608284
 20
41.3851626094
  0
VERTEX
  8
0
 62
2
  6
CONTINUOUS
 10
53.5898016583
 20
41.3461440546
  0
VERTEX
  8
0
 62
2
  6
CONTINUOUS
 10
53.6245806951
 20
41.3070073221
  0
VERTEX
  8
0
 62
2
  6
CONTINUOUS
 10
53.6579206964
 20
41.2677958536
  0
VERTEX
  8
0
 62
2
  6
CONTINUOUS
 10
53.6897976144
 20
41.2285523159
  0
VERTEX
  8
0
 62
2
  6
CONTINUOUS
 10
53.7201900015
 20
41.189316276
  0
VERTEX
  8
0
 62
2
  6
CONTINUOUS
 10
53.7490770606
 20
41.1501265256
  0
VERTEX
  8
0
 62
2
  6
CONTINUOUS
 10
53.7764382751
 20
41.1110217672
  0
VERTEX
  8
0
 62
2
  6
CONTINUOUS
 10
53.8022542525
 20
41.0720403458
  0
VERTEX
  8
0
 62
2
  6
CONTINUOUS
 10
53.8265058812
 20
41.0332205168
  0
VERTEX
  8
0
 62
2
  6
CONTINUOUS
 10
53.8491741237
 20
40.9945999258
  0
VERTEX
  8
0
 62
2
  6
CONTINUOUS
 10
53.8702402388
 20
40.956213778
  0
VERTEX
  8
0
 62
2
  6
CONTINUOUS
 10
53.8896855593
 20
40.9180966686
  0
SEQEND
  0
POLYLINE
  8
D_AXIS
 62
7
  6
CONTINUOUS
 66
1
 70
0
  0
VERTEX
  8
D_AXIS
 62
7
  6
CONTINUOUS
 10
50.4817598815
 20
40.9180966686
  0
VERTEX
  8
D_AXIS
 62
7
  6
CONTINUOUS
 10
50.4400782538
 20
41.0189580034
  0
VERTEX
  8
D_AXIS
 62
7
  6
CONTINUOUS
 10
50.4133690385
 20
41.1210637491
  0
VERTEX
  8
D_AXIS
 62
7
  6
CONTINUOUS
 10
50.4019166982
 20
41.22337832
  0
VERTEX
  8
D_AXIS
 62
7
  6
CONTINUOUS
 10
50.4058475472
 20
41.3249770697
  0
VERTEX
  8
D_AXIS
 62
7
  6
CONTINUOUS
 10
50.4251598824
 20
41.4246910414
  0
VERTEX
  8
D_AXIS
 62
7
  6
CONTINUOUS
 10
50.4312458931
 20
41.4455596914
  0
SEQEND
  0
POLYLINE
  8
0
 62
2
  6
CONTINUOUS
 66
1
 70
0
  0
VERTEX
  8
0
 62
2
  6
CONTINUOUS
 10
53.8896855593
 20
40.9180966686
  0
VERTEX
  8
0
 62
2
  6
CONTINUOUS
 10
53.9075040034
 20
40.8802782087
  0
VERTEX
  8
0
 62
2
  6
CONTINUOUS
 10
53.9236832391
 20
40.8427663116
  0
VERTEX
  8
0
 62
2
  6
CONTINUOUS
 10
53.9382063288
 20
40.8055989436
  0
VERTEX
  8
0
 62
2
  6
CONTINUOUS
 10
53.9510569115
 20
40.7688124339
  0
VERTEX
  8
0
 62
2
  6
CONTINUOUS
 10
53.9622209336
 20
40.7324365611
  0
VERTEX
  8
0
 62
2
  6
CONTINUOUS
 10
53.9716849184
 20
40.696499466
  0
VERTEX
  8
0
 62
2
  6
CONTINUOUS
 10
53.9794358695
 20
40.6610288002
  0
VERTEX
  8
0
 62
2
  6
CONTINUOUS
 10
53.9854627104
 20
40.6260502571
  0
VERTEX
  8
0
 62
2
  6
CONTINUOUS
 10
53.9897548448
 20
40.5915890407
  0
VERTEX
  8
0
 62
2
  6
CONTINUOUS
 10
53.9923020724
 20
40.5576700873
  0
VERTEX
  8
0
 62
2
  6
CONTINUOUS
 10
53.9930957767
 20
40.5243172629
  0
VERTEX
  8
0
 62
2
  6
CONTINUOUS
 10
53.9921277374
 20
40.4915541663
  0
VERTEX
  8
0
 62
2
  6
CONTINUOUS
 10
53.989390437
 20
40.4594042042
  0
VERTEX
  8
0
 62
2
  6
CONTINUOUS
 10
53.9848791696
 20
40.4278900167
  0
VERTEX
  8
0
 62
2
  6
CONTINUOUS
 10
53.9785899323
 20
40.3970340523
  0
VERTEX
  8
0
 62
2
  6
CONTINUOUS
 10
53.9705195824
 20
40.3668582975
  0
VERTEX
  8
0
 62
2
  6
CONTINUOUS
 10
53.9606684182
 20
40.3373828916
  0
VERTEX
  8
0
 62
2
  6
CONTINUOUS
 10
53.9490375978
 20
40.308627512
  0
VERTEX
  8
0
 62
2
  6
CONTINUOUS
 10
53.9356295795
 20
40.2806115915
  0
VERTEX
  8
0
 62
2
  6
CONTINUOUS
 10
53.920452021
 20
40.253353584
  0
VERTEX
  8
0
 62
2
  6
CONTINUOUS
 10
53.9035138798
 20
40.2268716989
  0
VERTEX
  8
0
 62
2
  6
CONTINUOUS
 10
53.8848250105
 20
40.2011832123
  0
VERTEX
  8
0
 62
2
  6
CONTINUOUS
 10
53.8643988563
 20
40.1763016668
  0
VERTEX
  8
0
 62
2
  6
CONTINUOUS
 10
53.8422497576
 20
40.1522396714
  0
VERTEX
  8
0
 62
2
  6
CONTINUOUS
 10
53.8183939407
 20
40.1290097358
  0
VERTEX
  8
0
 62
2
  6
CONTINUOUS
 10
53.7928551762
 20
40.1066239716
  0
VERTEX
  8
0
 62
2
  6
CONTINUOUS
 10
53.7656591207
 20
40.085094391
  0
VERTEX
  8
0
 62
2
  6
CONTINUOUS
 10
53.7368317013
 20
40.0644317605
  0
VERTEX
  8
0
 62
2
  6
CONTINUOUS
 10
53.7063999257
 20
40.0446418657
  0
VERTEX
  8
0
 62
2
  6
CONTINUOUS
 10
53.6743910721
 20
40.0257292466
  0
VERTEX
  8
0
 62
2
  6
CONTINUOUS
 10
53.6408345673
 20
40.0076984819
  0
VERTEX
  8
0
 62
2
  6
CONTINUOUS
 10
53.6057684331
 20
39.9905543054
  0
VERTEX
  8
0
 62
2
  6
CONTINUOUS
 10
53.5692328401
 20
39.9743014894
  0
VERTEX
  8
0
 62
2
  6
CONTINUOUS
 10
53.5312671417
 20
39.9589437107
  0
VERTEX
  8
0
 62
2
  6
CONTINUOUS
 10
53.4919074234
 20
39.9444802644
  0
VERTEX
  8
0
 62
2
  6
CONTINUOUS
 10
53.4511889534
 20
39.9309093496
  0
VERTEX
  8
0
 62
2
  6
CONTINUOUS
 10
53.4091490563
 20
39.9182293728
  0
VERTEX
  8
0
 62
2
  6
CONTINUOUS
 10
53.3658332809
 20
39.9064395675
  0
VERTEX
  8
0
 62
2
  6
CONTINUOUS
 10
53.3212892322
 20
39.8955393743
  0
VERTEX
  8
0
 62
2
  6
CONTINUOUS
 10
53.2755629643
 20
39.8855276521
  0
VERTEX
  8
0
 62
2
  6
CONTINUOUS
 10
53.2286943286
 20
39.8764009325
  0
VERTEX
  8
0
 62
2
  6
CONTINUOUS
 10
53.1807216253
 20
39.8681551656
  0
VERTEX
  8
0
 62
2
  6
CONTINUOUS
 10
53.1316847837
 20
39.8607866084
  0
VERTEX
  8
0
 62
2
  6
CONTINUOUS
 10
53.0816302483
 20
39.8542927462
  0
VERTEX
  8
0
 62
2
  6
CONTINUOUS
 10
53.0306060922
 20
39.8486713715
  0
VERTEX
  8
0
 62
2
  6
CONTINUOUS
 10
52.9786591943
 20
39.8439202326
  0
VERTEX
  8
0
 62
2
  6
CONTINUOUS
 10
52.9258316563
 20
39.8400369025
  0
VERTEX
  8
0
 62
2
  6
CONTINUOUS
 10
52.8721643853
 20
39.8370189103
  0
VERTEX
  8
0
 62
2
  6
CONTINUOUS
 10
52.8176990884
 20
39.8348641054
  0
VERTEX
  8
0
 62
2
  6
CONTINUOUS
 10
52.7624806705
 20
39.83357162
  0
VERTEX
  8
0
 62
2
  6
CONTINUOUS
 10
52.706554836
 20
39.8331409068
  0
VERTEX
  8
0
 62
2
  6
CONTINUOUS
 10
52.6499675848
 20
39.8335716015
  0
VERTEX
  8
0
 62
2
  6
CONTINUOUS
 10
52.5927660973
 20
39.8348640726
  0
VERTEX
  8
0
 62
2
  6
CONTINUOUS
 10
52.5349978492
 20
39.8370188717
  0
VERTEX
  8
0
 62
2
  6
CONTINUOUS
 10
52.4767100159
 20
39.8400368684
  0
VERTEX
  8
0
 62
2
  6
CONTINUOUS
 10
52.4179485716
 20
39.8439202032
  0
VERTEX
  8
0
 62
2
  6
CONTINUOUS
 10
52.35875919
 20
39.8486713346
  0
VERTEX
  8
0
 62
2
  6
CONTINUOUS
 10
52.2991896217
 20
39.8542926828
  0
VERTEX
  8
0
 62
2
  6
CONTINUOUS
 10
52.239295924
 20
39.8607865139
  0
VERTEX
  8
0
 62
2
  6
CONTINUOUS
 10
52.1791362308
 20
39.868155056
  0
VERTEX
  8
0
 62
2
  6
CONTINUOUS
 10
52.1187674626
 20
39.8764008358
  0
VERTEX
  8
0
 62
2
  6
CONTINUOUS
 10
52.0582416852
 20
39.8855275771
  0
VERTEX
  8
0
 62
2
  6
CONTINUOUS
 10
51.997609751
 20
39.8955393024
  0
VERTEX
  8
0
 62
2
  6
CONTINUOUS
 10
51.9369255523
 20
39.9064394629
  0
VERTEX
  8
0
 62
2
  6
CONTINUOUS
 10
51.8762551418
 20
39.9182292234
  0
VERTEX
  8
0
 62
2
  6
CONTINUOUS
 10
51.8156676119
 20
39.9309091773
  0
VERTEX
  8
0
 62
2
  6
CONTINUOUS
 10
51.7552302923
 20
39.9444801124
  0
VERTEX
  8
0
 62
2
  6
CONTINUOUS
 10
51.6950034592
 20
39.9589435951
  0
VERTEX
  8
0
 62
2
  6
CONTINUOUS
 10
51.6350456261
 20
39.974301386
  0
VERTEX
  8
0
 62
2
  6
CONTINUOUS
 10
51.5754179511
 20
39.9905541647
  0
VERTEX
  8
0
 62
2
  6
CONTINUOUS
 10
51.5161921727
 20
40.0076982853
  0
VERTEX
  8
0
 62
2
  6
CONTINUOUS
 10
51.457442674
 20
40.0257290205
  0
VERTEX
  8
0
 62
2
  6
CONTINUOUS
 10
51.3992417764
 20
40.044641666
  0
VERTEX
  8
0
 62
2
  6
CONTINUOUS
 10
51.3416535525
 20
40.0644316094
  0
VERTEX
  8
0
 62
2
  6
CONTINUOUS
 10
51.284740013
 20
40.0850942611
  0
VERTEX
  8
0
 62
2
  6
CONTINUOUS
 10
51.2285643862
 20
40.1066238034
  0
VERTEX
  8
0
 62
2
  6
CONTINUOUS
 10
51.1731947713
 20
40.1290095051
  0
VERTEX
  8
0
 62
2
  6
CONTINUOUS
 10
51.1187004852
 20
40.1522394069
  0
VERTEX
  8
0
 62
2
  6
CONTINUOUS
 10
51.0651487456
 20
40.176301432
  0
VERTEX
  8
0
 62
2
  6
CONTINUOUS
 10
51.0125983719
 20
40.2011830346
  0
VERTEX
  8
0
 62
2
  6
CONTINUOUS
 10
50.9611060846
 20
40.2268715517
  0
VERTEX
  8
0
 62
2
  6
CONTINUOUS
 10
50.9107283077
 20
40.2533534048
  0
VERTEX
  8
0
 62
2
  6
CONTINUOUS
 10
50.8615202809
 20
40.2806113534
  0
VERTEX
  8
0
 62
2
  6
CONTINUOUS
 10
50.813536948
 20
40.3086272414
  0
VERTEX
  8
0
 62
2
  6
CONTINUOUS
 10
50.766831581
 20
40.3373826509
  0
VERTEX
  8
0
 62
2
  6
CONTINUOUS
 10
50.7214507653
 20
40.3668581164
  0
VERTEX
  8
0
 62
2
  6
CONTINUOUS
 10
50.6774394145
 20
40.3970339104
  0
VERTEX
  8
0
 62
2
  6
CONTINUOUS
 10
50.6348413384
 20
40.4278898594
  0
VERTEX
  8
0
 62
2
  6
CONTINUOUS
 10
50.5936959302
 20
40.459404005
  0
VERTEX
  8
0
 62
2
  6
CONTINUOUS
 10
50.5540414793
 20
40.491553943
  0
VERTEX
  8
0
 62
2
  6
CONTINUOUS
 10
50.5159150298
 20
40.524317064
  0
VERTEX
  8
0
 62
2
  6
CONTINUOUS
 10
50.4793486458
 20
40.5576699389
  0
VERTEX
  8
0
 62
2
  6
CONTINUOUS
 10
50.4443731463
 20
40.5915889335
  0
VERTEX
  8
0
 62
2
  6
CONTINUOUS
 10
50.4110183813
 20
40.6260501564
  0
VERTEX
  8
0
 62
2
  6
CONTINUOUS
 10
50.3793103243
 20
40.6610286869
  0
VERTEX
  8
0
 62
2
  6
CONTINUOUS
 10
50.3492739794
 20
40.6964993471
  0
VERTEX
  8
0
 62
2
  6
CONTINUOUS
 10
50.3209338891
 20
40.7324364622
  0
VERTEX
  8
0
 62
2
  6
CONTINUOUS
 10
50.2943127474
 20
40.768812371
  0
VERTEX
  8
0
 62
2
  6
CONTINUOUS
 10
50.2694327862
 20
40.8055989155
  0
VERTEX
  8
0
 62
2
  6
CONTINUOUS
 10
50.2463154701
 20
40.8427663036
  0
VERTEX
  8
0
 62
2
  6
CONTINUOUS
 10
50.2249791934
 20
40.8802782083
  0
VERTEX
  8
0
 62
2
  6
CONTINUOUS
 10
50.2054415833
 20
40.9180966686
  0
SEQEND
  0
POLYLINE
  8
D_AXIS
 62
7
  6
CONTINUOUS
 66
1
 70
0
  0
VERTEX
  8
D_AXIS
 62
7
  6
CONTINUOUS
 10
53.6133672611
 20
40.9180966686
  0
VERTEX
  8
D_AXIS
 62
7
  6
CONTINUOUS
 10
53.6556734974
 20
40.8192567443
  0
VERTEX
  8
D_AXIS
 62
7
  6
CONTINUOUS
 10
53.6842384325
 20
40.7231561623
  0
VERTEX
  8
D_AXIS
 62
7
  6
CONTINUOUS
 10
53.6987162667
 20
40.6306320891
  0
VERTEX
  8
D_AXIS
 62
7
  6
CONTINUOUS
 10
53.6988833738
 20
40.5422942815
  0
VERTEX
  8
D_AXIS
 62
7
  6
CONTINUOUS
 10
53.6845993916
 20
40.4588519336
  0
VERTEX
  8
D_AXIS
 62
7
  6
CONTINUOUS
 10
53.6796872897
 20
40.4417820111
  0
SEQEND
  0
POLYLINE
  8
D_AXIS
 62
7
  6
CONTINUOUS
 66
1
 70
0
  0
VERTEX
  8
D_AXIS
 62
7
  6
CONTINUOUS
 10
50.4312458931
 20
41.4455596914
  0
VERTEX
  8
D_AXIS
 62
7
  6
CONTINUOUS
 10
50.4597341488
 20
41.521495201
  0
VERTEX
  8
D_AXIS
 62
7
  6
CONTINUOUS
 10
50.5091980725
 20
41.6140597072
  0
VERTEX
  8
D_AXIS
 62
7
  6
CONTINUOUS
 10
50.5731212116
 20
41.7013268475
  0
VERTEX
  8
D_AXIS
 62
7
  6
CONTINUOUS
 10
50.6506943092
 20
41.7819759421
  0
VERTEX
  8
D_AXIS
 62
7
  6
CONTINUOUS
 10
50.7412170233
 20
41.8550747025
  0
VERTEX
  8
D_AXIS
 62
7
  6
CONTINUOUS
 10
50.8434095955
 20
41.9194303662
  0
VERTEX
  8
D_AXIS
 62
7
  6
CONTINUOUS
 10
50.956386328
 20
41.9743572474
  0
VERTEX
  8
D_AXIS
 62
7
  6
CONTINUOUS
 10
51.0787335113
 20
42.0190507127
  0
VERTEX
  8
D_AXIS
 62
7
  6
CONTINUOUS
 10
51.2094915987
 20
42.0530610575
  0
VERTEX
  8
D_AXIS
 62
7
  6
CONTINUOUS
 10
51.3471094232
 20
42.0759142942
  0
VERTEX
  8
D_AXIS
 62
7
  6
CONTINUOUS
 10
51.4907195742
 20
42.087416554
  0
VERTEX
  8
D_AXIS
 62
7
  6
CONTINUOUS
 10
51.6387492708
 20
42.0874160379
  0
VERTEX
  8
D_AXIS
 62
7
  6
CONTINUOUS
 10
51.7903785999
 20
42.07591278
  0
VERTEX
  8
D_AXIS
 62
7
  6
CONTINUOUS
 10
51.9440043284
 20
42.0530584269
  0
VERTEX
  8
D_AXIS
 62
7
  6
CONTINUOUS
 10
52.098767288
 20
42.0190473838
  0
VERTEX
  8
D_AXIS
 62
7
  6
CONTINUOUS
 10
52.2530024185
 20
41.9743523704
  0
VERTEX
  8
D_AXIS
 62
7
  6
CONTINUOUS
 10
52.4056895307
 20
41.9194296234
  0
VERTEX
  8
D_AXIS
 62
7
  6
CONTINUOUS
 10
52.5551921357
 20
41.8550743568
  0
VERTEX
  8
D_AXIS
 62
7
  6
CONTINUOUS
 10
52.7004964538
 20
41.7819694408
  0
VERTEX
  8
D_AXIS
 62
7
  6
CONTINUOUS
 10
52.8398122139
 20
41.7013167417
  0
VERTEX
  8
D_AXIS
 62
7
  6
CONTINUOUS
 10
52.972138033
 20
41.6140506604
  0
VERTEX
  8
D_AXIS
 62
7
  6
CONTINUOUS
 10
53.0960497843
 20
41.5214843077
  0
VERTEX
  8
D_AXIS
 62
7
  6
CONTINUOUS
 10
53.2106447369
 20
41.4246815322
  0
VERTEX
  8
D_AXIS
 62
7
  6
CONTINUOUS
 10
53.3148089133
 20
41.3249662405
  0
VERTEX
  8
D_AXIS
 62
7
  6
CONTINUOUS
 10
53.4078464003
 20
41.2233691742
  0
VERTEX
  8
D_AXIS
 62
7
  6
CONTINUOUS
 10
53.4889807973
 20
41.1210540843
  0
VERTEX
  8
D_AXIS
 62
7
  6
CONTINUOUS
 10
53.5576793647
 20
41.0189498074
  0
VERTEX
  8
D_AXIS
 62
7
  6
CONTINUOUS
 10
53.6133672611
 20
40.9180966686
  0
SEQEND
  0
POLYLINE
  8
D_AXIS
 62
7
  6
CONTINUOUS
 66
1
 70
0
  0
VERTEX
  8
D_AXIS
 62
7
  6
CONTINUOUS
 10
59.0735259276
 20
50.7513559962
  0
VERTEX
  8
D_AXIS
 62
7
  6
CONTINUOUS
 10
59.1253980713
 20
50.7469259999
  0
VERTEX
  8
D_AXIS
 62
7
  6
CONTINUOUS
 10
59.218689897
 20
50.7163219417
  0
VERTEX
  8
D_AXIS
 62
7
  6
CONTINUOUS
 10
59.3098649905
 20
50.6570643977
  0
VERTEX
  8
D_AXIS
 62
7
  6
CONTINUOUS
 10
59.3975938135
 20
50.5700174763
  0
VERTEX
  8
D_AXIS
 62
7
  6
CONTINUOUS
 10
59.4805970823
 20
50.4564505178
  0
VERTEX
  8
D_AXIS
 62
7
  6
CONTINUOUS
 10
59.5576644222
 20
50.3180195841
  0
VERTEX
  8
D_AXIS
 62
7
  6
CONTINUOUS
 10
59.627672018
 20
50.1567433099
  0
VERTEX
  8
D_AXIS
 62
7
  6
CONTINUOUS
 10
59.6895990013
 20
49.9749734664
  0
VERTEX
  8
D_AXIS
 62
7
  6
CONTINUOUS
 10
59.7425423371
 20
49.7753606673
  0
VERTEX
  8
D_AXIS
 62
7
  6
CONTINUOUS
 10
59.7857299925
 20
49.5608157167
  0
VERTEX
  8
D_AXIS
 62
7
  6
CONTINUOUS
 10
59.8185321941
 20
49.3344671631
  0
VERTEX
  8
D_AXIS
 62
7
  6
CONTINUOUS
 10
59.840470612
 20
49.0996156781
  0
VERTEX
  8
D_AXIS
 62
7
  6
CONTINUOUS
 10
59.8512253347
 20
48.8596859252
  0
VERTEX
  8
D_AXIS
 62
7
  6
CONTINUOUS
 10
59.8506395341
 20
48.6181766203
  0
VERTEX
  8
D_AXIS
 62
7
  6
CONTINUOUS
 10
59.8387217525
 20
48.3786095132
  0
VERTEX
  8
D_AXIS
 62
7
  6
CONTINUOUS
 10
59.8156457779
 20
48.1444780315
  0
VERTEX
  8
D_AXIS
 62
7
  6
CONTINUOUS
 10
59.7817481101
 20
47.9191963396
  0
VERTEX
  8
D_AXIS
 62
7
  6
CONTINUOUS
 10
59.7375230534
 20
47.7060495519
  0
VERTEX
  8
D_AXIS
 62
7
  6
CONTINUOUS
 10
59.6836155087
 20
47.5081458283
  0
SEQEND
  0
POLYLINE
  8
D_AXIS
 62
7
  6
CONTINUOUS
 66
1
 70
0
  0
VERTEX
  8
D_AXIS
 62
7
  6
CONTINUOUS
 10
56.0231131091
 20
54.9674654475
  0
VERTEX
  8
D_AXIS
 62
7
  6
CONTINUOUS
 10
55.8425934834
 20
54.3337120768
  0
VERTEX
  8
D_AXIS
 62
7
  6
CONTINUOUS
 10
55.6819936667
 20
53.6655416848
  0
VERTEX
  8
D_AXIS
 62
7
  6
CONTINUOUS
 10
55.5423038102
 20
52.9670737641
  0
VERTEX
  8
D_AXIS
 62
7
  6
CONTINUOUS
 10
55.4243851484
 20
52.2426146017
  0
VERTEX
  8
D_AXIS
 62
7
  6
CONTINUOUS
 10
55.328964689
 20
51.4966307293
  0
VERTEX
  8
D_AXIS
 62
7
  6
CONTINUOUS
 10
55.2566307309
 20
50.7337213855
  0
VERTEX
  8
D_AXIS
 62
7
  6
CONTINUOUS
 10
55.2078292369
 20
49.9585901601
  0
VERTEX
  8
D_AXIS
 62
7
  6
CONTINUOUS
 10
55.1828610846
 20
49.1760159948
  0
VERTEX
  8
D_AXIS
 62
7
  6
CONTINUOUS
 10
55.1818802109
 20
48.3908237197
  0
VERTEX
  8
D_AXIS
 62
7
  6
CONTINUOUS
 10
55.2048926632
 20
47.6078543062
  0
VERTEX
  8
D_AXIS
 62
7
  6
CONTINUOUS
 10
55.2517565621
 20
46.831935021
  0
VERTEX
  8
D_AXIS
 62
7
  6
CONTINUOUS
 10
55.322182976
 20
46.0678496647
  0
VERTEX
  8
D_AXIS
 62
7
  6
CONTINUOUS
 10
55.4157377027
 20
45.3203090775
  0
VERTEX
  8
D_AXIS
 62
7
  6
CONTINUOUS
 10
55.5318439463
 20
44.5939220957
  0
VERTEX
  8
D_AXIS
 62
7
  6
CONTINUOUS
 10
55.669785873
 20
43.8931671366
  0
VERTEX
  8
D_AXIS
 62
7
  6
CONTINUOUS
 10
55.828713025
 20
43.2223645876
  0
VERTEX
  8
D_AXIS
 62
7
  6
CONTINUOUS
 10
56.0076455637
 20
42.5856501694
  0
VERTEX
  8
D_AXIS
 62
7
  6
CONTINUOUS
 10
56.2054803104
 20
41.9869494382
  0
VERTEX
  8
D_AXIS
 62
7
  6
CONTINUOUS
 10
56.4209975481
 20
41.429953583
  0
VERTEX
  8
D_AXIS
 62
7
  6
CONTINUOUS
 10
56.6528685413
 20
40.9180966686
  0
VERTEX
  8
D_AXIS
 62
7
  6
CONTINUOUS
 10
56.8996637284
 20
40.4545344629
  0
VERTEX
  8
D_AXIS
 62
7
  6
CONTINUOUS
 10
57.1598615348
 20
40.0421249812
  0
VERTEX
  8
D_AXIS
 62
7
  6
CONTINUOUS
 10
57.4318577547
 20
39.683410865
  0
VERTEX
  8
D_AXIS
 62
7
  6
CONTINUOUS
 10
57.7139754408
 20
39.3806037062
  0
VERTEX
  8
D_AXIS
 62
7
  6
CONTINUOUS
 10
58.0044752437
 20
39.1355704116
  0
VERTEX
  8
D_AXIS
 62
7
  6
CONTINUOUS
 10
58.3015661357
 20
38.9498216929
  0
VERTEX
  8
D_AXIS
 62
7
  6
CONTINUOUS
 10
58.6034164526
 20
38.8245027528
  0
VERTEX
  8
D_AXIS
 62
7
  6
CONTINUOUS
 10
58.9081651868
 20
38.7603862242
  0
VERTEX
  8
D_AXIS
 62
7
  6
CONTINUOUS
 10
59.0735381579
 20
38.7513745597
  0
SEQEND
  0
POLYLINE
  8
D_AXIS
 62
7
  6
CONTINUOUS
 66
1
 70
0
  0
VERTEX
  8
D_AXIS
 62
7
  6
CONTINUOUS
 10
56.0231131091
 20
54.9674654475
  0
VERTEX
  8
D_AXIS
 62
7
  6
CONTINUOUS
 10
56.2224395802
 20
55.5628944966
  0
VERTEX
  8
D_AXIS
 62
7
  6
CONTINUOUS
 10
56.4393439828
 20
56.116328206
  0
VERTEX
  8
D_AXIS
 62
7
  6
CONTINUOUS
 10
56.6724890291
 20
56.6243544728
  0
VERTEX
  8
D_AXIS
 62
7
  6
CONTINUOUS
 10
56.9204373024
 20
57.0838411463
  0
VERTEX
  8
D_AXIS
 62
7
  6
CONTINUOUS
 10
57.181660119
 20
57.4919553381
  0
VERTEX
  8
D_AXIS
 62
7
  6
CONTINUOUS
 10
57.4545469535
 20
57.8461808887
  0
VERTEX
  8
D_AXIS
 62
7
  6
CONTINUOUS
 10
57.7374153679
 20
58.1443338798
  0
VERTEX
  8
D_AXIS
 62
7
  6
CONTINUOUS
 10
58.0285213841
 20
58.3845760989
  0
VERTEX
  8
D_AXIS
 62
7
  6
CONTINUOUS
 10
58.326070237
 20
58.5654263729
  0
VERTEX
  8
D_AXIS
 62
7
  6
CONTINUOUS
 10
58.6282274388
 20
58.6857696998
  0
VERTEX
  8
D_AXIS
 62
7
  6
CONTINUOUS
 10
58.9331300899
 20
58.7448641229
  0
VERTEX
  8
D_AXIS
 62
7
  6
CONTINUOUS
 10
59.0735253929
 20
58.7513569699
  0
SEQEND
  0
POLYLINE
  8
D_AXIS
 62
7
  6
CONTINUOUS
 66
1
 70
0
  0
VERTEX
  8
D_AXIS
 62
7
  6
CONTINUOUS
 10
53.6796872897
 20
40.4417820111
  0
VERTEX
  8
D_AXIS
 62
7
  6
CONTINUOUS
 10
53.6558155205
 20
40.3807852748
  0
VERTEX
  8
D_AXIS
 62
7
  6
CONTINUOUS
 10
53.6126889985
 20
40.3087284509
  0
VERTEX
  8
D_AXIS
 62
7
  6
CONTINUOUS
 10
53.5554285939
 20
40.2430215918
  0
VERTEX
  8
D_AXIS
 62
7
  6
CONTINUOUS
 10
53.4845845536
 20
40.1841481576
  0
VERTEX
  8
D_AXIS
 62
7
  6
CONTINUOUS
 10
53.4006170682
 20
40.1322705395
  0
VERTEX
  8
D_AXIS
 62
7
  6
CONTINUOUS
 10
53.304549347
 20
40.087735378
  0
VERTEX
  8
D_AXIS
 62
7
  6
CONTINUOUS
 10
53.1970564552
 20
40.0505462464
  0
VERTEX
  8
D_AXIS
 62
7
  6
CONTINUOUS
 10
53.0793380164
 20
40.0208309099
  0
VERTEX
  8
D_AXIS
 62
7
  6
CONTINUOUS
 10
52.9522020188
 20
39.9985412586
  0
VERTEX
  8
D_AXIS
 62
7
  6
CONTINUOUS
 10
52.8170659574
 20
39.9837185142
  0
VERTEX
  8
D_AXIS
 62
7
  6
CONTINUOUS
 10
52.6747193553
 20
39.9763047458
  0
VERTEX
  8
D_AXIS
 62
7
  6
CONTINUOUS
 10
52.5266896894
 20
39.976305059
  0
VERTEX
  8
D_AXIS
 62
7
  6
CONTINUOUS
 10
52.3737969206
 20
39.9837194361
  0
VERTEX
  8
D_AXIS
 62
7
  6
CONTINUOUS
 10
52.2176896475
 20
39.9985428786
  0
VERTEX
  8
D_AXIS
 62
7
  6
CONTINUOUS
 10
52.0593048255
 20
40.0208329744
  0
VERTEX
  8
D_AXIS
 62
7
  6
CONTINUOUS
 10
51.9004411353
 20
40.0505493649
  0
VERTEX
  8
D_AXIS
 62
7
  6
CONTINUOUS
 10
51.742277803
 20
40.0877356996
  0
VERTEX
  8
D_AXIS
 62
7
  6
CONTINUOUS
 10
51.5866501762
 20
40.1322707601
  0
VERTEX
  8
D_AXIS
 62
7
  6
CONTINUOUS
 10
51.4347816995
 20
40.1841527792
  0
VERTEX
  8
D_AXIS
 62
7
  6
CONTINUOUS
 10
51.2887358261
 20
40.2430290771
  0
VERTEX
  8
D_AXIS
 62
7
  6
CONTINUOUS
 10
51.1497477151
 20
40.3087353713
  0
VERTEX
  8
D_AXIS
 62
7
  6
CONTINUOUS
 10
51.0194984814
 20
40.380793897
  0
VERTEX
  8
D_AXIS
 62
7
  6
CONTINUOUS
 10
50.8991134773
 20
40.4588597419
  0
VERTEX
  8
D_AXIS
 62
7
  6
CONTINUOUS
 10
50.7899212075
 20
40.5423035162
  0
VERTEX
  8
D_AXIS
 62
7
  6
CONTINUOUS
 10
50.6927860813
 20
40.6306401958
  0
VERTEX
  8
D_AXIS
 62
7
  6
CONTINUOUS
 10
50.6086263655
 20
40.7231650756
  0
VERTEX
  8
D_AXIS
 62
7
  6
CONTINUOUS
 10
50.5380722635
 20
40.8192646138
  0
VERTEX
  8
D_AXIS
 62
7
  6
CONTINUOUS
 10
50.4817598815
 20
40.9180966686
  0
SEQEND
  0
POLYLINE
  8
D_AXIS
 62
7
  6
CONTINUOUS
 66
1
 70
0
  0
VERTEX
  8
D_AXIS
 62
7
  6
CONTINUOUS
 10
58.4634480421
 20
49.9945857014
  0
VERTEX
  8
D_AXIS
 62
7
  6
CONTINUOUS
 10
58.4095404974
 20
49.7966819778
  0
VERTEX
  8
D_AXIS
 62
7
  6
CONTINUOUS
 10
58.3653154407
 20
49.58353519
  0
VERTEX
  8
D_AXIS
 62
7
  6
CONTINUOUS
 10
58.3314177729
 20
49.3582534981
  0
VERTEX
  8
D_AXIS
 62
7
  6
CONTINUOUS
 10
58.3083417983
 20
49.1241220165
  0
VERTEX
  8
D_AXIS
 62
7
  6
CONTINUOUS
 10
58.2964240167
 20
48.8845549093
  0
VERTEX
  8
D_AXIS
 62
7
  6
CONTINUOUS
 10
58.2958382161
 20
48.6430456045
  0
VERTEX
  8
D_AXIS
 62
7
  6
CONTINUOUS
 10
58.3065929388
 20
48.4031158515
  0
VERTEX
  8
D_AXIS
 62
7
  6
CONTINUOUS
 10
58.3285313567
 20
48.1682643665
  0
VERTEX
  8
D_AXIS
 62
7
  6
CONTINUOUS
 10
58.3613335583
 20
47.9419158129
  0
VERTEX
  8
D_AXIS
 62
7
  6
CONTINUOUS
 10
58.4045212137
 20
47.7273708623
  0
VERTEX
  8
D_AXIS
 62
7
  6
CONTINUOUS
 10
58.4574645495
 20
47.5277580633
  0
VERTEX
  8
D_AXIS
 62
7
  6
CONTINUOUS
 10
58.5193915328
 20
47.3459882198
  0
VERTEX
  8
D_AXIS
 62
7
  6
CONTINUOUS
 10
58.5893991286
 20
47.1847119456
  0
VERTEX
  8
D_AXIS
 62
7
  6
CONTINUOUS
 10
58.6664664686
 20
47.0462810118
  0
VERTEX
  8
D_AXIS
 62
7
  6
CONTINUOUS
 10
58.7494697373
 20
46.9327140533
  0
VERTEX
  8
D_AXIS
 62
7
  6
CONTINUOUS
 10
58.8371985603
 20
46.845667132
  0
VERTEX
  8
D_AXIS
 62
7
  6
CONTINUOUS
 10
58.9283736538
 20
46.786409588
  0
VERTEX
  8
D_AXIS
 62
7
  6
CONTINUOUS
 10
59.0216654796
 20
46.7558055298
  0
VERTEX
  8
D_AXIS
 62
7
  6
CONTINUOUS
 10
59.0735376232
 20
46.7513755335
  0
SEQEND
  0
POLYLINE
  8
D_AXIS
 62
7
  6
CONTINUOUS
 66
1
 70
0
  0
VERTEX
  8
D_AXIS
 62
7
  6
CONTINUOUS
 10
58.4634480421
 20
49.9945857014
  0
VERTEX
  8
D_AXIS
 62
7
  6
CONTINUOUS
 10
58.5262519815
 20
50.1743604788
  0
VERTEX
  8
D_AXIS
 62
7
  6
CONTINUOUS
 10
58.5970364926
 20
50.3333847889
  0
VERTEX
  8
D_AXIS
 62
7
  6
CONTINUOUS
 10
58.6747693779
 20
50.4693396993
  0
VERTEX
  8
D_AXIS
 62
7
  6
CONTINUOUS
 10
58.758317117
 20
50.5802426812
  0
VERTEX
  8
D_AXIS
 62
7
  6
CONTINUOUS
 10
58.8464613955
 20
50.6644765194
  0
VERTEX
  8
D_AXIS
 62
7
  6
CONTINUOUS
 10
58.9379168715
 20
50.7208128948
  0
VERTEX
  8
D_AXIS
 62
7
  6
CONTINUOUS
 10
59.0313499181
 20
50.7484302963
  0
VERTEX
  8
D_AXIS
 62
7
  6
CONTINUOUS
 10
59.0735259276
 20
50.7513559962
  0
SEQEND
  0
LINE
  8
D_COSM
 62
7
  6
CONTINUOUS
 10
52.3293328951
 20
39.8746799149
 11
51.9773219312
 21
39.5194742399
  0
LINE
  8
D_AXIS
 62
7
  6
CONTINUOUS
 10
59.0735317754
 20
58.7513657648
 11
48.4813303444
 21
58.7513657648
  0
POLYLINE
  8
D_AXIS
 62
7
  6
CONTINUOUS
 66
1
 70
0
  0
VERTEX
  8
D_AXIS
 62
7
  6
CONTINUOUS
 10
59.0735253929
 20
58.7513569699
  0
VERTEX
  8
D_AXIS
 62
7
  6
CONTINUOUS
 10
59.238898364
 20
58.7423453055
  0
VERTEX
  8
D_AXIS
 62
7
  6
CONTINUOUS
 10
59.5436470982
 20
58.6782287769
  0
VERTEX
  8
D_AXIS
 62
7
  6
CONTINUOUS
 10
59.8454974151
 20
58.5529098367
  0
VERTEX
  8
D_AXIS
 62
7
  6
CONTINUOUS
 10
60.1425883071
 20
58.367161118
  0
VERTEX
  8
D_AXIS
 62
7
  6
CONTINUOUS
 10
60.4330881101
 20
58.1221278234
  0
VERTEX
  8
D_AXIS
 62
7
  6
CONTINUOUS
 10
60.7152057962
 20
57.8193206646
  0
VERTEX
  8
D_AXIS
 62
7
  6
CONTINUOUS
 10
60.987202016
 20
57.4606065485
  0
VERTEX
  8
D_AXIS
 62
7
  6
CONTINUOUS
 10
61.2473998224
 20
57.0481970668
  0
VERTEX
  8
D_AXIS
 62
7
  6
CONTINUOUS
 10
61.4941950095
 20
56.5846348611
  0
VERTEX
  8
D_AXIS
 62
7
  6
CONTINUOUS
 10
61.7260660027
 20
56.0727779466
  0
VERTEX
  8
D_AXIS
 62
7
  6
CONTINUOUS
 10
61.9415832404
 20
55.5157820915
  0
VERTEX
  8
D_AXIS
 62
7
  6
CONTINUOUS
 10
62.1394179871
 20
54.9170813602
  0
VERTEX
  8
D_AXIS
 62
7
  6
CONTINUOUS
 10
62.3183505258
 20
54.280366942
  0
VERTEX
  8
D_AXIS
 62
7
  6
CONTINUOUS
 10
62.4772776778
 20
53.609564393
  0
VERTEX
  8
D_AXIS
 62
7
  6
CONTINUOUS
 10
62.6152196046
 20
52.9088094339
  0
VERTEX
  8
D_AXIS
 62
7
  6
CONTINUOUS
 10
62.7313258481
 20
52.1824224522
  0
VERTEX
  8
D_AXIS
 62
7
  6
CONTINUOUS
 10
62.8248805748
 20
51.434881865
  0
VERTEX
  8
D_AXIS
 62
7
  6
CONTINUOUS
 10
62.8953069887
 20
50.6707965086
  0
VERTEX
  8
D_AXIS
 62
7
  6
CONTINUOUS
 10
62.9421708876
 20
49.8948772235
  0
VERTEX
  8
D_AXIS
 62
7
  6
CONTINUOUS
 10
62.9651833399
 20
49.11190781
  0
VERTEX
  8
D_AXIS
 62
7
  6
CONTINUOUS
 10
62.9642024662
 20
48.3267155348
  0
VERTEX
  8
D_AXIS
 62
7
  6
CONTINUOUS
 10
62.9392343139
 20
47.5441413696
  0
VERTEX
  8
D_AXIS
 62
7
  6
CONTINUOUS
 10
62.89043282
 20
46.7690101441
  0
VERTEX
  8
D_AXIS
 62
7
  6
CONTINUOUS
 10
62.8180988618
 20
46.0061008003
  0
VERTEX
  8
D_AXIS
 62
7
  6
CONTINUOUS
 10
62.7226784024
 20
45.2601169279
  0
VERTEX
  8
D_AXIS
 62
7
  6
CONTINUOUS
 10
62.6047597406
 20
44.5356577655
  0
VERTEX
  8
D_AXIS
 62
7
  6
CONTINUOUS
 10
62.4650698841
 20
43.8371898448
  0
VERTEX
  8
D_AXIS
 62
7
  6
CONTINUOUS
 10
62.3044700674
 20
43.1690194528
  0
VERTEX
  8
D_AXIS
 62
7
  6
CONTINUOUS
 10
62.1239504417
 20
42.5352660821
  0
SEQEND
  0
POLYLINE
  8
D_AXIS
 62
7
  6
CONTINUOUS
 66
1
 70
0
  0
VERTEX
  8
D_AXIS
 62
7
  6
CONTINUOUS
 10
59.0805475452
 20
38.7516987221
  0
VERTEX
  8
D_AXIS
 62
7
  6
CONTINUOUS
 10
59.0638555628
 20
38.6267441378
  0
VERTEX
  8
D_AXIS
 62
7
  6
CONTINUOUS
 10
58.8430069053
 20
37.21837898
  0
VERTEX
  8
D_AXIS
 62
7
  6
CONTINUOUS
 10
58.5937576126
 20
35.8416249373
  0
VERTEX
  8
D_AXIS
 62
7
  6
CONTINUOUS
 10
58.3167908597
 20
34.5002555968
  0
VERTEX
  8
D_AXIS
 62
7
  6
CONTINUOUS
 10
58.0128657932
 20
33.1979475588
  0
VERTEX
  8
D_AXIS
 62
7
  6
CONTINUOUS
 10
57.6828154505
 20
31.938270359
  0
VERTEX
  8
D_AXIS
 62
7
  6
CONTINUOUS
 10
57.3275444767
 20
30.724676685
  0
SEQEND
  0
LINE
  8
D_AXIS
 62
7
  6
CONTINUOUS
 10
48.4813303444
 20
77.7513657648
 11
48.020799847
 21
77.7513657648
  0
LINE
  8
D_AXIS
 62
7
  6
CONTINUOUS
 10
45.2576168657
 20
77.7513657648
 11
44.7970863684
 21
77.7513657648
  0
POLYLINE
  8
D_AXIS
 62
7
  6
CONTINUOUS
 66
1
 70
0
  0
VERTEX
  8
D_AXIS
 62
7
  6
CONTINUOUS
 10
45.2575911094
 20
77.7513638491
  0
VERTEX
  8
D_AXIS
 62
7
  6
CONTINUOUS
 10
45.7371799727
 20
77.7252064328
  0
VERTEX
  8
D_AXIS
 62
7
  6
CONTINUOUS
 10
46.3270264641
 20
77.6210478111
  0
VERTEX
  8
D_AXIS
 62
7
  6
CONTINUOUS
 10
46.6321815329
 20
77.5257506072
  0
SEQEND
  0
POLYLINE
  8
D_AXIS
 62
7
  6
CONTINUOUS
 66
1
 70
0
  0
VERTEX
  8
D_AXIS
 62
7
  6
CONTINUOUS
 10
48.4813045881
 20
77.7513638491
  0
VERTEX
  8
D_AXIS
 62
7
  6
CONTINUOUS
 10
48.9608934514
 20
77.7252064328
  0
VERTEX
  8
D_AXIS
 62
7
  6
CONTINUOUS
 10
49.5507399428
 20
77.6210478111
  0
VERTEX
  8
D_AXIS
 62
7
  6
CONTINUOUS
 10
50.1376552569
 20
77.4377593977
  0
VERTEX
  8
D_AXIS
 62
7
  6
CONTINUOUS
 10
50.7200306994
 20
77.1758435733
  0
VERTEX
  8
D_AXIS
 62
7
  6
CONTINUOUS
 10
51.2962700199
 20
76.836018231
  0
VERTEX
  8
D_AXIS
 62
7
  6
CONTINUOUS
 10
51.8647937865
 20
76.4192148084
  0
VERTEX
  8
D_AXIS
 62
7
  6
CONTINUOUS
 10
52.4240437149
 20
75.9265757347
  0
VERTEX
  8
D_AXIS
 62
7
  6
CONTINUOUS
 10
52.97248694
 20
75.3594512995
  0
VERTEX
  8
D_AXIS
 62
7
  6
CONTINUOUS
 10
53.5086202171
 20
74.7193959513
  0
VERTEX
  8
D_AXIS
 62
7
  6
CONTINUOUS
 10
54.0309740421
 20
74.0081640374
  0
VERTEX
  8
D_AXIS
 62
7
  6
CONTINUOUS
 10
54.5381166794
 20
73.227704995
  0
VERTEX
  8
D_AXIS
 62
7
  6
CONTINUOUS
 10
55.0286580864
 20
72.3801580081
  0
VERTEX
  8
D_AXIS
 62
7
  6
CONTINUOUS
 10
55.5012537232
 20
71.467846144
  0
VERTEX
  8
D_AXIS
 62
7
  6
CONTINUOUS
 10
55.9546082379
 20
70.4932699863
  0
VERTEX
  8
D_AXIS
 62
7
  6
CONTINUOUS
 10
56.3874790174
 20
69.4591007803
  0
VERTEX
  8
D_AXIS
 62
7
  6
CONTINUOUS
 10
56.7986795929
 20
68.3681731121
  0
VERTEX
  8
D_AXIS
 62
7
  6
CONTINUOUS
 10
57.1870828923
 20
67.2234771384
  0
VERTEX
  8
D_AXIS
 62
7
  6
CONTINUOUS
 10
57.551624329
 20
66.0281503915
  0
VERTEX
  8
D_AXIS
 62
7
  6
CONTINUOUS
 10
57.8913047204
 20
64.7854691788
  0
VERTEX
  8
D_AXIS
 62
7
  6
CONTINUOUS
 10
58.2051930262
 20
63.4988396031
  0
VERTEX
  8
D_AXIS
 62
7
  6
CONTINUOUS
 10
58.4924289002
 20
62.1717882268
  0
VERTEX
  8
D_AXIS
 62
7
  6
CONTINUOUS
 10
58.7522250489
 20
60.8079524053
  0
VERTEX
  8
D_AXIS
 62
7
  6
CONTINUOUS
 10
58.9838693892
 20
59.4110703179
  0
VERTEX
  8
D_AXIS
 62
7
  6
CONTINUOUS
 10
59.0776271564
 20
58.7519483183
  0
SEQEND
  0
LINE
  8
D_AXIS
 62
7
  6
CONTINUOUS
 10
275.0492223258
 20
219.3878088554
 11
275.0492223258
 21
209.5389497473
  0
LINE
  8
0
 62
2
  6
CONTINUOUS
 10
275.0492223258
 20
209.5389497473
 11
276.155282424
 21
209.0573478968
  0
LINE
  8
D_AXIS
 62
7
  6
CONTINUOUS
 10
276.0492223266
 20
219.3878088554
 11
276.0492223266
 21
209.1035286959
  0
LINE
  8
0
 62
2
  6
CONTINUOUS
 10
276.155282424
 20
209.0573478968
 11
279.9982914531
 21
208.928001557
  0
LINE
  8
D_AXIS
 62
7
  6
CONTINUOUS
 10
282.0492223251
 20
219.3878088554
 11
282.0492223251
 21
209.5328101606
  0
LINE
  8
D_AXIS
 62
7
  6
CONTINUOUS
 10
283.0492223258
 20
219.3878088554
 11
283.0492223258
 21
209.8277048411
  0
LINE
  8
0
 62
2
  6
CONTINUOUS
 10
279.9982914531
 20
208.928001557
 11
283.0492223258
 21
209.8277048411
  0
LINE
  8
D_AXIS
 62
7
  6
CONTINUOUS
 10
283.0492223258
 20
219.3878088554
 11
282.0492223251
 21
219.3878088554
  0
LINE
  8
D_AXIS
 62
7
  6
CONTINUOUS
 10
276.0492223266
 20
219.3878088554
 11
275.0492223258
 21
219.3878088554
  0
LINE
  8
D_AXIS
 62
7
  6
CENTER
 10
81.3039802289
 20
203.9978537981
 11
81.3039802289
 21
172.9978537981
  0
LINE
  8
1_STD
 62
7
  6
CENTER
 10
81.3039802289
 20
200.258367846
 11
81.3039802289
 21
234.9978537981
  0
LINE
  8
D_AXIS
 62
7
  6
CENTER
 10
81.3039802289
 20
203.9978537981
 11
81.3039802289
 21
234.9978537981
  0
LINE
  8
1_STD
 62
7
  6
CENTER
 10
112.3039802289
 20
203.9978537981
 11
50.3039802289
 21
203.9978537981
  0
LINE
  8
D_AXIS
 62
7
  6
CENTER
 10
81.3039802289
 20
203.9978537981
 11
50.3039802289
 21
203.9978537981
  0
LINE
  8
D_AXIS
 62
7
  6
CENTER
 10
81.3039802289
 20
203.9978537981
 11
112.3039802289
 21
203.9978537981
  0
CIRCLE
  8
D_AXIS
 62
7
  6
CONTINUOUS
 10
173.2991675338
 20
203.9978537981
 40
1.7
  0
ARC
  8
D_AXIS
 62
7
  6
CONTINUOUS
 10
164.7991675338
 20
232.4978537981
 40
1.5
 50
180.0
 51
359.9987284771
  0
ARC
  8
D_AXIS
 62
7
  6
CONTINUOUS
 10
164.7991675338
 20
175.4978537981
 40
1.5
 50
0.0012715229
 51
180.0
  0
CIRCLE
  8
D_AXIS
 62
7
  6
CONTINUOUS
 10
81.3039802289
 20
203.9978537981
 40
29.0
  0
CIRCLE
  8
D_AXIS
 62
7
  6
CONTINUOUS
 10
81.3039802289
 20
203.9978537981
 40
10.0
  0
CIRCLE
  8
D_AXIS
 62
7
  6
CONTINUOUS
 10
81.3039802289
 20
203.9978537981
 40
2.0
  0
ARC
  8
0
 62
7
  6
CONTINUOUS
 10
164.7991675338
 20
58.1595343392
 40
1.5
 50
0.0
 51
180.0
  0
ARC
  8
0
 62
7
  6
CONTINUOUS
 10
164.7991675338
 20
115.1595343392
 40
1.5
 50
180.0
 51
360.0
  0
CIRCLE
  8
0
 62
2
  6
CONTINUOUS
 10
165.1706944539
 20
233.3433187391
 40
5.6195624607
  0
ARC
  8
D_AXIS
 62
7
  6
CONTINUOUS
 10
279.0492223258
 20
218.3878088554
 40
3.0
 50
179.9987284771
 51
359.9987284771
  0
ENDSEC
  0
EOF
