  0
SECTION
  2
HEADER
  9
$ACADVER
  1
AC1015
  9
$ACADMAINTVER
 70
     6
  9
$DWGCODEPAGE
  3
ANSI_1252
  9
$INSBASE
 10
0.0
 20
0.0
 30
0.0
  9
$EXTMIN
 10
0.0
 20
0.0
 30
0.0
  9
$EXTMAX
 10
420.0
 20
297.0
 30
0.0
  9
$LIMMIN
 10
0.0
 20
0.0
  9
$LIMMAX
 10
420.0
 20
297.0
  9
$ORTHOMODE
 70
     0
  9
$REGENMODE
 70
     1
  9
$FILLMODE
 70
     1
  9
$QTEXTMODE
 70
     0
  9
$MIRRTEXT
 70
     1
  9
$LTSCALE
 40
1.0
  9
$ATTMODE
 70
     1
  9
$TEXTSIZE
 40
3.5
  9
$TRACEWID
 40
1.0
  9
$TEXTSTYLE
  7
Standard
  9
$CLAYER
  8
0
  9
$CELTYPE
  6
ByLayer
  9
$CECOLOR
 62
   256
  9
$CELTSCALE
 40
1.0
  9
$DISPSILH
 70
     0
  9
$DIMSCALE
 40
1.0
  9
$DIMASZ
 40
3.302
  9
$DIMEXO
 40
1.0
  9
$DIMDLI
 40
3.75
  9
$DIMRND
 40
0.0
  9
$DIMDLE
 40
0.0
  9
$DIMEXE
 40
1.0
  9
$DIMTP
 40
0.0
  9
$DIMTM
 40
0.0
  9
$DIMTXT
 40
3.5
  9
$DIMCEN
 40
2.5
  9
$DIMTSZ
 40
0.0
  9
$DIMTOL
 70
     0
  9
$DIMLIM
 70
     0
  9
$DIMTIH
 70
     1
  9
$DIMTOH
 70
     1
  9
$DIMSE1
 70
     0
  9
$DIMSE2
 70
     0
  9
$DIMTAD
 70
     1
  9
$DIMZIN
 70
     0
  9
$DIMBLK
  1

  9
$DIMASO
 70
     1
  9
$DIMSHO
 70
     1
  9
$DIMPOST
  1

  9
$DIMAPOST
  1

  9
$DIMALT
 70
     0
  9
$DIMALTD
 70
     3
  9
$DIMALTF
 40
0.0393700787
  9
$DIMLFAC
 40
1.0
  9
$DIMTOFL
 70
     1
  9
$DIMTVP
 40
0.0
  9
$DIMTIX
 70
     0
  9
$DIMSOXD
 70
     0
  9
$DIMSAH
 70
     0
  9
$DIMBLK1
  1

  9
$DIMBLK2
  1

  9
$DIMSTYLE
  2
ISO-25
  9
$DIMCLRD
 70
     0
  9
$DIMCLRE
 70
     0
  9
$DIMCLRT
 70
     0
  9
$DIMTFAC
 40
1.0
  9
$DIMGAP
 40
1.524
  9
$DIMJUST
 70
     0
  9
$DIMSD1
 70
     0
  9
$DIMSD2
 70
     0
  9
$DIMTOLJ
 70
     0
  9
$DIMTZIN
 70
     0
  9
$DIMALTZ
 70
     0
  9
$DIMALTTZ
 70
     0
  9
$DIMUPT
 70
     0
  9
$DIMDEC
 70
     2
  9
$DIMTDEC
 70
     2
  9
$DIMALTU
 70
     2
  9
$DIMALTTD
 70
     3
  9
$DIMTXSTY
  7
Standard
  9
$DIMAUNIT
 70
     0
  9
$DIMADEC
 70
     2
  9
$DIMALTRND
 40
0.0
  9
$DIMAZIN
 70
     0
  9
$DIMDSEP
 70
    44
  9
$DIMATFIT
 70
     3
  9
$DIMFRAC
 70
     0
  9
$DIMLDRBLK
  1

  9
$DIMLUNIT
 70
     2
  9
$DIMLWD
 70
    -2
  9
$DIMLWE
 70
    -2
  9
$DIMTMOVE
 70
     0
  9
$LUNITS
 70
     2
  9
$LUPREC
 70
     2
  9
$SKETCHINC
 40
1.0
  9
$FILLETRAD
 40
10.0
  9
$AUNITS
 70
     0
  9
$AUPREC
 70
     2
  9
$MENU
  1
.
  9
$ELEVATION
 40
0.0
  9
$PELEVATION
 40
0.0
  9
$THICKNESS
 40
0.0
  9
$LIMCHECK
 70
     0
  9
$CHAMFERA
 40
0.0
  9
$CHAMFERB
 40
0.0
  9
$CHAMFERC
 40
0.0
  9
$CHAMFERD
 40
0.0
  9
$SKPOLY
 70
     0
  9
$TDCREATE
 40
2458087.002044363
  9
$TDUCREATE
 40
2458086.960377697
  9
$TDUPDATE
 40
2458087.002048576
  9
$TDUUPDATE
 40
2458086.96038191
  9
$TDINDWG
 40
0.0000000116
  9
$TDUSRTIMER
 40
0.0000000116
  9
$USRTIMER
 70
     1
  9
$ANGBASE
 50
0.0
  9
$ANGDIR
 70
     0
  9
$PDMODE
 70
     0
  9
$PDSIZE
 40
-1.0
  9
$PLINEWID
 40
0.0
  9
$SPLFRAME
 70
     0
  9
$SPLINETYPE
 70
     6
  9
$SPLINESEGS
 70
     8
  9
$HANDSEED
  5
1EF
  9
$SURFTAB1
 70
     6
  9
$SURFTAB2
 70
     6
  9
$SURFTYPE
 70
     6
  9
$SURFU
 70
     6
  9
$SURFV
 70
     6
  9
$UCSBASE
  2

  9
$UCSNAME
  2

  9
$UCSORG
 10
0.0
 20
0.0
 30
0.0
  9
$UCSXDIR
 10
1.0
 20
0.0
 30
0.0
  9
$UCSYDIR
 10
0.0
 20
1.0
 30
0.0
  9
$UCSORTHOREF
  2

  9
$UCSORTHOVIEW
 70
     0
  9
$UCSORGTOP
 10
0.0
 20
0.0
 30
0.0
  9
$UCSORGBOTTOM
 10
0.0
 20
0.0
 30
0.0
  9
$UCSORGLEFT
 10
0.0
 20
0.0
 30
0.0
  9
$UCSORGRIGHT
 10
0.0
 20
0.0
 30
0.0
  9
$UCSORGFRONT
 10
0.0
 20
0.0
 30
0.0
  9
$UCSORGBACK
 10
0.0
 20
0.0
 30
0.0
  9
$PUCSBASE
  2

  9
$PUCSNAME
  2

  9
$PUCSORG
 10
0.0
 20
0.0
 30
0.0
  9
$PUCSXDIR
 10
1.0
 20
0.0
 30
0.0
  9
$PUCSYDIR
 10
0.0
 20
1.0
 30
0.0
  9
$PUCSORTHOREF
  2

  9
$PUCSORTHOVIEW
 70
     0
  9
$PUCSORGTOP
 10
0.0
 20
0.0
 30
0.0
  9
$PUCSORGBOTTOM
 10
0.0
 20
0.0
 30
0.0
  9
$PUCSORGLEFT
 10
0.0
 20
0.0
 30
0.0
  9
$PUCSORGRIGHT
 10
0.0
 20
0.0
 30
0.0
  9
$PUCSORGFRONT
 10
0.0
 20
0.0
 30
0.0
  9
$PUCSORGBACK
 10
0.0
 20
0.0
 30
0.0
  9
$USERI1
 70
     0
  9
$USERI2
 70
     0
  9
$USERI3
 70
     0
  9
$USERI4
 70
     0
  9
$USERI5
 70
     0
  9
$USERR1
 40
0.0
  9
$USERR2
 40
0.0
  9
$USERR3
 40
0.0
  9
$USERR4
 40
0.0
  9
$USERR5
 40
0.0
  9
$WORLDVIEW
 70
     1
  9
$SHADEDGE
 70
     3
  9
$SHADEDIF
 70
    70
  9
$TILEMODE
 70
     1
  9
$MAXACTVP
 70
    64
  9
$PINSBASE
 10
0.0
 20
0.0
 30
0.0
  9
$PLIMCHECK
 70
     0
  9
$PEXTMIN
 10
1.0000000000E+20
 20
1.0000000000E+20
 30
1.0000000000E+20
  9
$PEXTMAX
 10
-1.0000000000E+20
 20
-1.0000000000E+20
 30
-1.0000000000E+20
  9
$PLIMMIN
 10
0.0
 20
0.0
  9
$PLIMMAX
 10
420.0
 20
297.0
  9
$UNITMODE
 70
     0
  9
$VISRETAIN
 70
     1
  9
$PLINEGEN
 70
     0
  9
$PSLTSCALE
 70
     1
  9
$TREEDEPTH
 70
  3020
  9
$CMLSTYLE
  2
Standard
  9
$CMLJUST
 70
     0
  9
$CMLSCALE
 40
20.0
  9
$PROXYGRAPHICS
 70
     1
  9
$MEASUREMENT
 70
     1
  9
$CELWEIGHT
370
    -1
  9
$ENDCAPS
280
     0
  9
$JOINSTYLE
280
     0
  9
$LWDISPLAY
290
     1
  9
$INSUNITS
 70
     4
  9
$HYPERLINKBASE
  1

  9
$STYLESHEET
  1

  9
$XEDIT
290
     1
  9
$CEPSNTYPE
380
     0
  9
$PSTYLEMODE
290
     1
  9
$FINGERPRINTGUID
  2
{2E163FC4-3B3F-495C-A070-BF135FE23B67}
  9
$VERSIONGUID
  2
{FAEB1C32-E019-11D5-929B-00C0DF256EC4}
  9
$EXTNAMES
290
     1
  9
$PSVPSCALE
 40
0.0
  9
$OLESTARTUP
290
     0
  0
ENDSEC
  0
SECTION
  2
CLASSES
  0
CLASS
  1
ACDBDICTIONARYWDFLT
  2
AcDbDictionaryWithDefault
  3
ObjectDBX Classes
 90
        0
280
     0
281
     0
  0
CLASS
  1
VISUALSTYLE
  2
AcDbVisualStyle
  3
ObjectDBX Classes
 90
     4095
280
     0
281
     0
  0
CLASS
  1
MATERIAL
  2
AcDbMaterial
  3
ObjectDBX Classes
 90
     1153
280
     0
281
     0
  0
CLASS
  1
SCALE
  2
AcDbScale
  3
ObjectDBX Classes
 90
     1153
280
     0
281
     0
  0
CLASS
  1
TABLESTYLE
  2
AcDbTableStyle
  3
ObjectDBX Classes
 90
     4095
280
     0
281
     0
  0
CLASS
  1
MLEADERSTYLE
  2
AcDbMLeaderStyle
  3
ACDB_MLEADERSTYLE_CLASS
 90
     4095
280
     0
281
     0
  0
CLASS
  1
SUN
  2
AcDbSun
  3
SCENEOE
 90
     1153
280
     0
281
     0
  0
CLASS
  1
ACDBPLACEHOLDER
  2
AcDbPlaceHolder
  3
ObjectDBX Classes
 90
        0
280
     0
281
     0
  0
CLASS
  1
LAYOUT
  2
AcDbLayout
  3
ObjectDBX Classes
 90
        0
280
     0
281
     0
  0
ENDSEC
  0
SECTION
  2
TABLES
  0
TABLE
  2
VPORT
  5
8
330
0
100
AcDbSymbolTable
 70
     1
  0
VPORT
  5
29
330
8
100
AcDbSymbolTableRecord
100
AcDbViewportTableRecord
  2
*Active
 70
     0
 10
0.0
 20
0.0
 11
1.0
 21
1.0
 12
210.0
 22
148.5
 13
0.0
 23
0.0
 14
10.0
 24
10.0
 15
10.0
 25
10.0
 16
0.0
 26
0.0
 36
1.0
 17
0.0
 27
0.0
 37
0.0
 40
297.0
 41
1.4141414141
 42
50.0
 43
0.0
 44
0.0
 50
0.0
 51
0.0
 71
     0
 72
  2000
 73
     1
 74
     3
 75
     0
 76
     0
 77
     0
 78
     0
281
     0
 65
     1
110
0.0
120
0.0
130
0.0
111
1.0
121
0.0
131
0.0
112
0.0
122
1.0
132
0.0
 79
     0
146
0.0
  0
ENDTAB
  0
TABLE
  2
LTYPE
  5
5
330
0
100
AcDbSymbolTable
 70
     6
  0
LTYPE
  5
14
330
5
100
AcDbSymbolTableRecord
100
AcDbLinetypeTableRecord
  2
ByBlock
 70
     0
  3

 72
    65
 73
     0
 40
0.0
  0
LTYPE
  5
15
330
5
100
AcDbSymbolTableRecord
100
AcDbLinetypeTableRecord
  2
ByLayer
 70
     0
  3

 72
    65
 73
     0
 40
0.0
  0
LTYPE
  5
16
330
5
100
AcDbSymbolTableRecord
100
AcDbLinetypeTableRecord
  2
Continuous
 70
     0
  3
Solid line
 72
    65
 73
     0
 40
0.0
  0
LTYPE
  5
6E
330
5
100
AcDbSymbolTableRecord
100
AcDbLinetypeTableRecord
  2
HIDDEN
 70
     0
  3
Hidden __ __ __ __ __ __ __ __ __ __ __ __ __ __
 72
    65
 73
     2
 40
1.905
 49
1.27
 74
     0
 49
-0.635
 74
     0
  0
LTYPE
  5
6F
330
5
100
AcDbSymbolTableRecord
100
AcDbLinetypeTableRecord
  2
PHANTOM
 70
     0
  3
Phantom ______  __  __  ______  __  __  ______
 72
    65
 73
     6
 40
12.7
 49
6.35
 74
     0
 49
-1.27
 74
     0
 49
1.27
 74
     0
 49
-1.27
 74
     0
 49
1.27
 74
     0
 49
-1.27
 74
     0
  0
LTYPE
  5
70
330
5
100
AcDbSymbolTableRecord
100
AcDbLinetypeTableRecord
  2
CENTER
 70
     0
  3
Center ____ _ ____ _ ____ _ ____ _ ____ _ ____
 72
    65
 73
     4
 40
10.16
 49
6.35
 74
     0
 49
-1.27
 74
     0
 49
1.27
 74
     0
 49
-1.27
 74
     0
  0
LTYPE
  5
71
330
5
100
AcDbSymbolTableRecord
100
AcDbLinetypeTableRecord
  2
CENTERX2
 70
     0
  3
Center (2x) ________  __  ________  __  _____
 72
    65
 73
     4
 40
20.32
 49
12.7
 74
     0
 49
-2.54
 74
     0
 49
2.54
 74
     0
 49
-2.54
 74
     0
  0
LTYPE
  5
72
330
5
100
AcDbSymbolTableRecord
100
AcDbLinetypeTableRecord
  2
DOT2
 70
     0
  3
Dot (.5x) ........................................
 72
    65
 73
     2
 40
0.635
 49
0.0
 74
     0
 49
-0.635
 74
     0
  0
ENDTAB
  0
TABLE
  2
LAYER
  5
2
330
0
100
AcDbSymbolTable
 70
     2
  0
LAYER
  5
10
330
2
100
AcDbSymbolTableRecord
100
AcDbLayerTableRecord
  2
0
 70
     0
 62
     7
  6
Continuous
370
    -3
390
F
  0
LAYER
  5
73
330
2
100
AcDbSymbolTableRecord
100
AcDbLayerTableRecord
  2
FORMAT
 70
     0
 62
     7
  6
Continuous
370
    -3
390
F
  0
ENDTAB
  0
TABLE
  2
STYLE
  5
3
330
0
100
AcDbSymbolTable
 70
     5
  0
STYLE
  5
11
330
3
100
AcDbSymbolTableRecord
100
AcDbTextStyleTableRecord
  2
Standard
 70
     0
 40
0.0
 41
1.0
 50
0.0
 71
     0
 42
3.5
  3
txt
  4

  0
STYLE
  5
B1
330
3
100
AcDbSymbolTableRecord
100
AcDbTextStyleTableRecord
  2
SLDTEXTSTYLE0
 70
     0
 40
0.0
 41
0.75
 50
0.0
 71
     0
 42
3.5
  3
TXT
  4

  0
STYLE
  5
ED
330
3
100
AcDbSymbolTableRecord
100
AcDbTextStyleTableRecord
  2
SLDTEXTSTYLE1
 70
     0
 40
0.0
 41
0.7
 50
0.0
 71
     0
 42
3.5
  3
TXT
  4

  0
STYLE
  5
FC
330
3
100
AcDbSymbolTableRecord
100
AcDbTextStyleTableRecord
  2
SLDTEXTSTYLE2
 70
     0
 40
0.0
 41
0.6785714286
 50
0.0
 71
     0
 42
3.5
  3
TXT
  4

  0
STYLE
  5
1D7
330
3
100
AcDbSymbolTableRecord
100
AcDbTextStyleTableRecord
  2
SLDTEXTSTYLE3
 70
     0
 40
0.0
 41
0.6923076923
 50
0.0
 71
     0
 42
3.5
  3
TXT
  4

  0
ENDTAB
  0
TABLE
  2
VIEW
  5
6
330
0
100
AcDbSymbolTable
 70
     0
  0
ENDTAB
  0
TABLE
  2
UCS
  5
7
330
0
100
AcDbSymbolTable
 70
     0
  0
ENDTAB
  0
TABLE
  2
APPID
  5
9
330
0
100
AcDbSymbolTable
 70
     1
  0
APPID
  5
12
330
9
100
AcDbSymbolTableRecord
100
AcDbRegAppTableRecord
  2
ACAD
 70
     0
  0
ENDTAB
  0
TABLE
  2
DIMSTYLE
  5
A
330
0
100
AcDbSymbolTable
 70
     5
100
AcDbDimStyleTable
  0
DIMSTYLE
105
27
330
A
100
AcDbSymbolTableRecord
100
AcDbDimStyleTableRecord
  2
ISO-25
 70
     0
 41
2.5
 42
0.625
 43
3.75
 44
1.25
 73
     0
 74
     0
 77
     1
 78
     8
140
2.5
141
2.5
143
0.0393700787
147
0.625
171
     3
172
     1
178
     0
271
     2
272
     2
274
     3
278
    44
283
     0
284
     8
340
11
  0
DIMSTYLE
105
135
102
{ACAD_REACTORS
330
134
330
142
330
165
330
182
330
18E
330
19A
102
}
330
A
100
AcDbSymbolTableRecord
100
AcDbDimStyleTableRecord
  2
SLDDIMSTYLE0
 70
     0
 41
3.302
 44
0.0
 45
0.000000001
 73
     0
 74
     0
 77
     1
 78
    12
 79
     3
140
3.5
147
0.875
172
     1
173
     1
178
     0
271
     2
272
     2
276
     2
284
    12
289
     0
340
B1
  0
DIMSTYLE
105
150
102
{ACAD_REACTORS
330
14F
330
15A
102
}
330
A
100
AcDbSymbolTableRecord
100
AcDbDimStyleTableRecord
  2
SLDDIMSTYLE1
 70
     0
 41
3.302
 44
0.0
 45
0.000000001
 73
     0
 74
     0
 77
     1
 78
    12
 79
     3
140
3.5
147
0.875
173
     1
178
     0
271
     2
272
     2
276
     2
284
    12
340
B1
  0
DIMSTYLE
105
1BE
102
{ACAD_REACTORS
330
1BD
102
}
330
A
100
AcDbSymbolTableRecord
100
AcDbDimStyleTableRecord
  2
SLDDIMSTYLE2
 70
     0
 41
3.302
 44
0.0
 45
0.000000001
 73
     0
 74
     0
 77
     1
 78
    12
 79
     3
140
3.5
141
0.0
144
0.2
147
0.875
173
     1
178
     0
271
     2
272
     2
276
     2
279
     1
284
    12
340
B1
  0
DIMSTYLE
105
1C7
102
{ACAD_REACTORS
330
1C6
102
}
330
A
100
AcDbSymbolTableRecord
100
AcDbDimStyleTableRecord
  2
SLDDIMSTYLE3
 70
     0
 41
3.302
 44
0.0
 45
0.000000001
 73
     0
 74
     0
 77
     1
 78
     8
 79
     2
140
3.5
144
0.2
147
0.875
172
     1
173
     1
178
     0
271
     2
272
     2
276
     2
284
    12
289
     0
340
B1
  0
ENDTAB
  0
TABLE
  2
BLOCK_RECORD
  5
1
330
0
100
AcDbSymbolTable
 70
    17
  0
BLOCK_RECORD
  5
1F
330
1
100
AcDbSymbolTableRecord
100
AcDbBlockTableRecord
  2
*Model_Space
340
22
  0
BLOCK_RECORD
  5
1B
330
1
100
AcDbSymbolTableRecord
100
AcDbBlockTableRecord
  2
*Paper_Space
340
1E
  0
BLOCK_RECORD
  5
23
330
1
100
AcDbSymbolTableRecord
100
AcDbBlockTableRecord
  2
*Paper_Space0
340
26
  0
BLOCK_RECORD
  5
D3
330
1
100
AcDbSymbolTableRecord
100
AcDbBlockTableRecord
  2
SW_NOTE_0
340
0
102
{BLKREFS
331
DC
102
}
  0
BLOCK_RECORD
  5
DE
330
1
100
AcDbSymbolTableRecord
100
AcDbBlockTableRecord
  2
SW_NOTE_1
340
0
102
{BLKREFS
331
E3
102
}
  0
BLOCK_RECORD
  5
F5
330
1
100
AcDbSymbolTableRecord
100
AcDbBlockTableRecord
  2
SW_SFSYMBOL_0
340
0
102
{BLKREFS
331
FE
102
}
  0
BLOCK_RECORD
  5
102
330
1
100
AcDbSymbolTableRecord
100
AcDbBlockTableRecord
  2
SW_CENTERMARKSYMBOL_0
340
0
102
{BLKREFS
331
10D
102
}
  0
BLOCK_RECORD
  5
136
330
1
100
AcDbSymbolTableRecord
100
AcDbBlockTableRecord
  2
_D
340
0
  0
BLOCK_RECORD
  5
143
330
1
100
AcDbSymbolTableRecord
100
AcDbBlockTableRecord
  2
_D_1
340
0
  0
BLOCK_RECORD
  5
151
330
1
100
AcDbSymbolTableRecord
100
AcDbBlockTableRecord
  2
_D_2
340
0
  0
BLOCK_RECORD
  5
15B
330
1
100
AcDbSymbolTableRecord
100
AcDbBlockTableRecord
  2
_D_3
340
0
  0
BLOCK_RECORD
  5
166
330
1
100
AcDbSymbolTableRecord
100
AcDbBlockTableRecord
  2
_D_4
340
0
  0
BLOCK_RECORD
  5
183
330
1
100
AcDbSymbolTableRecord
100
AcDbBlockTableRecord
  2
_D_5
340
0
  0
BLOCK_RECORD
  5
18F
330
1
100
AcDbSymbolTableRecord
100
AcDbBlockTableRecord
  2
_D_6
340
0
  0
BLOCK_RECORD
  5
19B
330
1
100
AcDbSymbolTableRecord
100
AcDbBlockTableRecord
  2
_D_7
340
0
  0
BLOCK_RECORD
  5
1A6
330
1
100
AcDbSymbolTableRecord
100
AcDbBlockTableRecord
  2
SW_CENTERMARKSYMBOL_1
340
0
102
{BLKREFS
331
1B1
102
}
  0
BLOCK_RECORD
  5
1BF
330
1
100
AcDbSymbolTableRecord
100
AcDbBlockTableRecord
  2
_D_8
340
0
  0
BLOCK_RECORD
  5
1C8
330
1
100
AcDbSymbolTableRecord
100
AcDbBlockTableRecord
  2
_D_9
340
0
  0
BLOCK_RECORD
  5
1D3
330
1
100
AcDbSymbolTableRecord
100
AcDbBlockTableRecord
  2
SW_NOTE_2
340
0
102
{BLKREFS
331
1D9
102
}
  0
ENDTAB
  0
ENDSEC
  0
SECTION
  2
BLOCKS
  0
BLOCK
  5
20
330
1F
100
AcDbEntity
  8
0
100
AcDbBlockBegin
  2
*Model_Space
 70
     0
 10
0.0
 20
0.0
 30
0.0
  3
*Model_Space
  1

  0
ENDBLK
  5
21
330
1F
100
AcDbEntity
  8
0
100
AcDbBlockEnd
  0
BLOCK
  5
1C
330
1B
100
AcDbEntity
 67
     1
  8
0
100
AcDbBlockBegin
  2
*Paper_Space
 70
     0
 10
0.0
 20
0.0
 30
0.0
  3
*Paper_Space
  1

  0
ENDBLK
  5
1D
330
1B
100
AcDbEntity
 67
     1
  8
0
100
AcDbBlockEnd
  0
BLOCK
  5
24
330
23
100
AcDbEntity
  8
0
100
AcDbBlockBegin
  2
*Paper_Space0
 70
     0
 10
0.0
 20
0.0
 30
0.0
  3
*Paper_Space0
  1

  0
ENDBLK
  5
25
330
23
100
AcDbEntity
  8
0
100
AcDbBlockEnd
  0
BLOCK
  5
D4
330
D3
100
AcDbEntity
  8
0
100
AcDbBlockBegin
  2
SW_NOTE_0
 70
     0
 10
0.0
 20
0.0
 30
0.0
  3
SW_NOTE_0
  1

  0
MTEXT
  5
D6
330
D3
100
AcDbEntity
  8
0
  6
Continuous
 62
     0
370
     0
100
AcDbMText
 10
0.0
 20
1.9336016097
 30
0.0
 40
1.5
 41
0.0
 71
     1
 72
     1
  1
SAUF INDICATION CONTRAIRE:
  7
SLDTEXTSTYLE0
 73
     1
 44
1.0
  0
MTEXT
  5
D7
330
D3
100
AcDbEntity
  8
0
  6
Continuous
 62
     0
370
     0
100
AcDbMText
 10
0.0
 20
-0.5663983345
 30
0.0
 40
1.5
 41
0.0
 71
     1
 72
     1
  1
LES COTES SONT EN MILLIMETRES
  7
SLDTEXTSTYLE0
 73
     1
 44
1.0
  0
MTEXT
  5
D8
330
D3
100
AcDbEntity
  8
0
  6
Continuous
 62
     0
370
     0
100
AcDbMText
 10
0.0
 20
-3.0663982786
 30
0.0
 40
1.5
 41
0.0
 71
     1
 72
     1
  1
ETAT DE SURFACE:
  7
SLDTEXTSTYLE0
 73
     1
 44
1.0
  0
MTEXT
  5
D9
330
D3
100
AcDbEntity
  8
0
  6
Continuous
 62
     0
370
     0
100
AcDbMText
 10
0.0
 20
-5.5663982227
 30
0.0
 40
1.5
 41
0.0
 71
     1
 72
     1
  1
TOLERANCES:
  7
SLDTEXTSTYLE0
 73
     1
 44
1.0
  0
MTEXT
  5
DA
330
D3
100
AcDbEntity
  8
0
  6
Continuous
 62
     0
370
     0
100
AcDbMText
 10
1.6875
 20
-8.0663981668
 30
0.0
 40
1.5
 41
0.0
 71
     1
 72
     1
  1
LINEAIRES:
  7
SLDTEXTSTYLE0
 73
     1
 44
1.0
  0
MTEXT
  5
DB
330
D3
100
AcDbEntity
  8
0
  6
Continuous
 62
     0
370
     0
100
AcDbMText
 10
1.6875
 20
-10.5663981109
 30
0.0
 40
1.5
 41
0.0
 71
     1
 72
     1
  1
ANGULAIRES:
  7
SLDTEXTSTYLE0
 73
     1
 44
1.0
  0
ENDBLK
  5
D5
330
D3
100
AcDbEntity
  8
0
100
AcDbBlockEnd
  0
BLOCK
  5
DF
330
DE
100
AcDbEntity
  8
0
100
AcDbBlockBegin
  2
SW_NOTE_1
 70
     0
 10
0.0
 20
0.0
 30
0.0
  3
SW_NOTE_1
  1

  0
MTEXT
  5
E1
330
DE
100
AcDbEntity
  8
0
  6
Continuous
 62
     0
370
     0
100
AcDbMText
 10
0.0
 20
1.9336016097
 30
0.0
 40
1.5
 41
0.0
 71
     1
 72
     1
  1
CASSER LES
  7
SLDTEXTSTYLE0
 73
     1
 44
1.0
  0
MTEXT
  5
E2
330
DE
100
AcDbEntity
  8
0
  6
Continuous
 62
     0
370
     0
100
AcDbMText
 10
0.0
 20
-0.5663983345
 30
0.0
 40
1.5
 41
0.0
 71
     1
 72
     1
  1
ANGLES VIFS
  7
SLDTEXTSTYLE0
 73
     1
 44
1.0
  0
ENDBLK
  5
E0
330
DE
100
AcDbEntity
  8
0
100
AcDbBlockEnd
  0
BLOCK
  5
F6
330
F5
100
AcDbEntity
  8
0
100
AcDbBlockBegin
  2
SW_SFSYMBOL_0
 70
     0
 10
0.0
 20
0.0
 30
0.0
  3
SW_SFSYMBOL_0
  1

  0
LINE
  5
F8
330
F5
100
AcDbEntity
  8
0
  6
Continuous
 62
     0
370
     0
100
AcDbLine
 10
-6.545
 20
-4.9997498254
 30
0.0
 11
-9.49445
 21
0.0000001746
 31
0.0
  0
LINE
  5
F9
330
F5
100
AcDbEntity
  8
0
  6
Continuous
 62
     0
370
     0
100
AcDbLine
 10
-3.59555
 20
0.0000001746
 30
0.0
 11
-9.49445
 21
0.0000001746
 31
0.0
  0
LINE
  5
FA
330
F5
100
AcDbEntity
  8
0
  6
Continuous
 62
     0
370
     0
100
AcDbLine
 10
-6.545
 20
-4.9997498254
 30
0.0
 11
-0.6461
 21
4.9997501746
 31
0.0
  0
LINE
  5
FB
330
F5
100
AcDbEntity
  8
0
  6
Continuous
 62
     0
370
     0
100
AcDbLine
 10
-0.6461
 20
4.9997501746
 30
0.0
 11
15.074155282
 21
4.9997501746
 31
0.0
  0
MTEXT
  5
FD
330
F5
100
AcDbEntity
  8
0
  6
Continuous
 62
     0
370
     0
100
AcDbMText
 10
0.0
 20
4.5117370892
 30
0.0
 40
3.5
 41
0.0
 71
     1
 72
     1
  1
Ra  1,6
  7
SLDTEXTSTYLE2
 73
     1
 44
1.0
  0
ENDBLK
  5
F7
330
F5
100
AcDbEntity
  8
0
100
AcDbBlockEnd
  0
BLOCK
  5
103
330
102
100
AcDbEntity
  8
0
100
AcDbBlockBegin
  2
SW_CENTERMARKSYMBOL_0
 70
     0
 10
0.0
 20
0.0
 30
0.0
  3
SW_CENTERMARKSYMBOL_0
  1

  0
LINE
  5
105
330
102
100
AcDbEntity
  8
0
  6
Continuous
 62
     0
370
     0
100
AcDbLine
 10
0.0
 20
0.0
 30
0.0
 11
0.0
 21
2.5
 31
0.0
  0
LINE
  5
106
330
102
100
AcDbEntity
  8
0
  6
Continuous
 62
     0
370
     0
100
AcDbLine
 10
0.0
 20
0.0
 30
0.0
 11
-2.5
 21
0.0
 31
0.0
  0
LINE
  5
107
330
102
100
AcDbEntity
  8
0
  6
Continuous
 62
     0
370
     0
100
AcDbLine
 10
0.0
 20
0.0
 30
0.0
 11
0.0
 21
-2.5
 31
0.0
  0
LINE
  5
108
330
102
100
AcDbEntity
  8
0
  6
Continuous
 62
     0
370
     0
100
AcDbLine
 10
0.0
 20
0.0
 30
0.0
 11
2.5
 21
0.0
 31
0.0
  0
LINE
  5
109
330
102
100
AcDbEntity
  8
0
  6
Continuous
 62
     0
370
     0
100
AcDbLine
 10
0.0
 20
5.0
 30
0.0
 11
0.0
 21
31.5
 31
0.0
  0
LINE
  5
10A
330
102
100
AcDbEntity
  8
0
  6
Continuous
 62
     0
370
     0
100
AcDbLine
 10
-5.0
 20
0.0
 30
0.0
 11
-31.5
 21
0.0
 31
0.0
  0
LINE
  5
10B
330
102
100
AcDbEntity
  8
0
  6
Continuous
 62
     0
370
     0
100
AcDbLine
 10
0.0
 20
-5.0
 30
0.0
 11
0.0
 21
-31.5
 31
0.0
  0
LINE
  5
10C
330
102
100
AcDbEntity
  8
0
  6
Continuous
 62
     0
370
     0
100
AcDbLine
 10
5.0
 20
0.0
 30
0.0
 11
31.5
 21
0.0
 31
0.0
  0
ENDBLK
  5
104
330
102
100
AcDbEntity
  8
0
100
AcDbBlockEnd
  0
BLOCK
  5
137
330
136
100
AcDbEntity
  8
0
100
AcDbBlockBegin
  2
_D
 70
     0
 10
0.0
 20
0.0
 30
0.0
  3
_D
  1

  0
SOLID
  5
139
330
136
100
AcDbEntity
  8
0
  6
Continuous
 62
     7
370
     0
100
AcDbTrace
 10
100.0281254946
 20
194.1581266228
 30
0.0
 11
100.5361254946
 21
197.4601266228
 31
0.0
 12
99.5201254946
 22
197.4601266228
 32
0.0
 13
99.5201254946
 23
197.4601266228
 33
0.0
  0
SOLID
  5
13A
330
136
100
AcDbEntity
  8
0
  6
Continuous
 62
     7
370
     0
100
AcDbTrace
 10
100.0281254946
 20
174.1581266228
 30
0.0
 11
99.5201254946
 21
170.8561266228
 31
0.0
 12
100.5361254946
 22
170.8561266228
 32
0.0
 13
100.5361254946
 23
170.8561266228
 33
0.0
  0
LINE
  5
13B
330
136
100
AcDbEntity
  8
0
  6
Continuous
 62
     7
370
     0
100
AcDbLine
 10
117.3782973023
 20
194.1581266228
 30
0.0
 11
99.0281254946
 21
194.1581266228
 31
0.0
  0
LINE
  5
13C
330
136
100
AcDbEntity
  8
0
  6
Continuous
 62
     7
370
     0
100
AcDbLine
 10
117.3808598032
 20
174.1581266228
 30
0.0
 11
99.0281254946
 21
174.1581266228
 31
0.0
  0
LINE
  5
13D
330
136
100
AcDbEntity
  8
0
  6
Continuous
 62
     7
370
     0
100
AcDbLine
 10
100.0281254946
 20
194.1581266228
 30
0.0
 11
100.0281254946
 21
200.5081266228
 31
0.0
  0
LINE
  5
13E
330
136
100
AcDbEntity
  8
0
  6
Continuous
 62
     7
370
     0
100
AcDbLine
 10
100.0281254946
 20
194.1581266228
 30
0.0
 11
100.0281254946
 21
174.1581266228
 31
0.0
  0
LINE
  5
13F
330
136
100
AcDbEntity
  8
0
  6
Continuous
 62
     7
370
     0
100
AcDbLine
 10
100.0281254946
 20
174.1581266228
 30
0.0
 11
100.0281254946
 21
167.8081266228
 31
0.0
  0
MTEXT
  5
140
330
136
100
AcDbEntity
  8
0
  6
Continuous
 62
     7
370
     0
100
AcDbMText
 10
95.5163884054
 20
177.4921215818
 30
0.0
 40
3.5
 41
0.0
 71
     1
 72
     1
  1
%%c
  7
SLDTEXTSTYLE0
 11
-7.044195017643634E-15
 21
1.0
 31
0.0
 73
     1
 44
1.0
  0
MTEXT
  5
141
330
136
100
AcDbEntity
  8
0
  6
Continuous
 62
     7
370
     0
100
AcDbMText
 10
95.4629162287
 20
182.7705589802
 30
0.0
 40
3.5
 41
0.0
 71
     1
 72
     1
  1
20
  7
SLDTEXTSTYLE0
 11
-7.044195017643634E-15
 21
1.0
 31
0.0
 73
     1
 44
1.0
  0
ENDBLK
  5
138
330
136
100
AcDbEntity
  8
0
100
AcDbBlockEnd
  0
BLOCK
  5
144
330
143
100
AcDbEntity
  8
0
100
AcDbBlockBegin
  2
_D_1
 70
     0
 10
0.0
 20
0.0
 30
0.0
  3
_D_1
  1

  0
SOLID
  5
146
330
143
100
AcDbEntity
  8
0
  6
Continuous
 62
     7
370
     0
100
AcDbTrace
 10
141.6839964504
 20
182.1581266228
 30
0.0
 11
141.1759964504
 21
178.8561266228
 31
0.0
 12
142.1919964504
 22
178.8561266228
 32
0.0
 13
142.1919964504
 23
178.8561266228
 33
0.0
  0
SOLID
  5
147
330
143
100
AcDbEntity
  8
0
  6
Continuous
 62
     7
370
     0
100
AcDbTrace
 10
141.6839964504
 20
186.1581266228
 30
0.0
 11
142.1919964504
 21
189.4601266228
 31
0.0
 12
141.1759964504
 22
189.4601266228
 32
0.0
 13
141.1759964504
 23
189.4601266228
 33
0.0
  0
LINE
  5
148
330
143
100
AcDbEntity
  8
0
  6
Continuous
 62
     7
370
     0
100
AcDbLine
 10
134.8782973023
 20
182.1581266228
 30
0.0
 11
142.6839964504
 21
182.1581266228
 31
0.0
  0
LINE
  5
149
330
143
100
AcDbEntity
  8
0
  6
Continuous
 62
     7
370
     0
100
AcDbLine
 10
122.7282973023
 20
186.1581266228
 30
0.0
 11
142.6839964504
 21
186.1581266228
 31
0.0
  0
LINE
  5
14A
330
143
100
AcDbEntity
  8
0
  6
Continuous
 62
     7
370
     0
100
AcDbLine
 10
141.6839964504
 20
182.1581266228
 30
0.0
 11
141.6839964504
 21
169.7266039259
 31
0.0
  0
LINE
  5
14B
330
143
100
AcDbEntity
  8
0
  6
Continuous
 62
     7
370
     0
100
AcDbLine
 10
141.6839964504
 20
182.1581266228
 30
0.0
 11
141.6839964504
 21
186.1581266228
 31
0.0
  0
LINE
  5
14C
330
143
100
AcDbEntity
  8
0
  6
Continuous
 62
     7
370
     0
100
AcDbLine
 10
141.6839964504
 20
186.1581266228
 30
0.0
 11
141.6839964504
 21
192.5081266228
 31
0.0
  0
MTEXT
  5
14D
330
143
100
AcDbEntity
  8
0
  6
Continuous
 62
     7
370
     0
100
AcDbMText
 10
137.1722593612
 20
169.7266039259
 30
0.0
 40
3.5
 41
0.0
 71
     1
 72
     1
  1
%%c
  7
SLDTEXTSTYLE0
 11
-1.608122649676637E-16
 21
1.0
 31
0.0
 73
     1
 44
1.0
  0
MTEXT
  5
14E
330
143
100
AcDbEntity
  8
0
  6
Continuous
 62
     7
370
     0
100
AcDbMText
 10
137.1187871846
 20
175.0050413243
 30
0.0
 40
3.5
 41
0.0
 71
     1
 72
     1
  1
4
  7
SLDTEXTSTYLE0
 11
-1.608122649676637E-16
 21
1.0
 31
0.0
 73
     1
 44
1.0
  0
ENDBLK
  5
145
330
143
100
AcDbEntity
  8
0
100
AcDbBlockEnd
  0
BLOCK
  5
152
330
151
100
AcDbEntity
  8
0
100
AcDbBlockBegin
  2
_D_2
 70
     0
 10
0.0
 20
0.0
 30
0.0
  3
_D_2
  1

  0
SOLID
  5
154
330
151
100
AcDbEntity
  8
0
  6
Continuous
 62
     7
370
     0
100
AcDbTrace
 10
149.8782973023
 20
155.6581266228
 30
0.0
 11
150.3862973023
 21
158.9601266228
 31
0.0
 12
149.3702973023
 22
158.9601266228
 32
0.0
 13
149.3702973023
 23
158.9601266228
 33
0.0
  0
SOLID
  5
155
330
151
100
AcDbEntity
  8
0
  6
Continuous
 62
     7
370
     0
100
AcDbTrace
 10
149.8782973023
 20
212.6581266228
 30
0.0
 11
149.3702973023
 21
209.3561266228
 31
0.0
 12
150.3862973023
 22
209.3561266228
 32
0.0
 13
150.3862973023
 23
209.3561266228
 33
0.0
  0
LINE
  5
156
330
151
100
AcDbEntity
  8
0
  6
Continuous
 62
     7
370
     0
100
AcDbLine
 10
132.8782973023
 20
155.6581266228
 30
0.0
 11
150.8782973023
 21
155.6581266228
 31
0.0
  0
LINE
  5
157
330
151
100
AcDbEntity
  8
0
  6
Continuous
 62
     7
370
     0
100
AcDbLine
 10
132.8782973023
 20
212.6581266228
 30
0.0
 11
150.8782973023
 21
212.6581266228
 31
0.0
  0
LINE
  5
158
330
151
100
AcDbEntity
  8
0
  6
Continuous
 62
     7
370
     0
100
AcDbLine
 10
149.8782973023
 20
155.6581266228
 30
0.0
 11
149.8782973023
 21
212.6581266228
 31
0.0
  0
MTEXT
  5
159
330
151
100
AcDbEntity
  8
0
  6
Continuous
 62
     7
370
     0
100
AcDbMText
 10
145.3665603878
 20
180.0969000186
 30
0.0
 40
3.5
 41
0.0
 71
     1
 72
     1
  1
57
  7
SLDTEXTSTYLE0
 11
6.123233995736766E-17
 21
1.0
 31
0.0
 73
     1
 44
1.0
  0
ENDBLK
  5
153
330
151
100
AcDbEntity
  8
0
100
AcDbBlockEnd
  0
BLOCK
  5
15C
330
15B
100
AcDbEntity
  8
0
100
AcDbBlockBegin
  2
_D_3
 70
     0
 10
0.0
 20
0.0
 30
0.0
  3
_D_3
  1

  0
SOLID
  5
15E
330
15B
100
AcDbEntity
  8
0
  6
Continuous
 62
     7
370
     0
100
AcDbTrace
 10
159.0275535706
 20
155.1581266228
 30
0.0
 11
159.5355535706
 21
158.4601266228
 31
0.0
 12
158.5195535706
 22
158.4601266228
 32
0.0
 13
158.5195535706
 23
158.4601266228
 33
0.0
  0
SOLID
  5
15F
330
15B
100
AcDbEntity
  8
0
  6
Continuous
 62
     7
370
     0
100
AcDbTrace
 10
159.0275535706
 20
213.1581266228
 30
0.0
 11
158.5195535706
 21
209.8561266228
 31
0.0
 12
159.5355535706
 22
209.8561266228
 32
0.0
 13
159.5355535706
 23
209.8561266228
 33
0.0
  0
LINE
  5
160
330
15B
100
AcDbEntity
  8
0
  6
Continuous
 62
     7
370
     0
100
AcDbLine
 10
134.8782973023
 20
155.1581266228
 30
0.0
 11
160.0275535706
 21
155.1581266228
 31
0.0
  0
LINE
  5
161
330
15B
100
AcDbEntity
  8
0
  6
Continuous
 62
     7
370
     0
100
AcDbLine
 10
134.8782973023
 20
213.1581266228
 30
0.0
 11
160.0275535706
 21
213.1581266228
 31
0.0
  0
LINE
  5
162
330
15B
100
AcDbEntity
  8
0
  6
Continuous
 62
     7
370
     0
100
AcDbLine
 10
159.0275535706
 20
155.1581266228
 30
0.0
 11
159.0275535706
 21
213.1581266228
 31
0.0
  0
MTEXT
  5
163
330
15B
100
AcDbEntity
  8
0
  6
Continuous
 62
     7
370
     0
100
AcDbMText
 10
154.5158164814
 20
174.5010826001
 30
0.0
 40
3.5
 41
0.0
 71
     1
 72
     1
  1
%%c
  7
SLDTEXTSTYLE0
 11
6.123233995736766E-17
 21
1.0
 31
0.0
 73
     1
 44
1.0
  0
MTEXT
  5
164
330
15B
100
AcDbEntity
  8
0
  6
Continuous
 62
     7
370
     0
100
AcDbMText
 10
154.4623443048
 20
179.7795199984
 30
0.0
 40
3.5
 41
0.0
 71
     1
 72
     1
  1
58
  7
SLDTEXTSTYLE0
 11
6.123233995736766E-17
 21
1.0
 31
0.0
 73
     1
 44
1.0
  0
ENDBLK
  5
15D
330
15B
100
AcDbEntity
  8
0
100
AcDbBlockEnd
  0
BLOCK
  5
167
330
166
100
AcDbEntity
  8
0
100
AcDbBlockBegin
  2
_D_4
 70
     0
 10
0.0
 20
0.0
 30
0.0
  3
_D_4
  1

  0
SOLID
  5
169
330
166
100
AcDbEntity
  8
0
  6
Continuous
 62
     7
370
     0
100
AcDbTrace
 10
121.3782973023
 20
216.3163709662
 30
0.0
 11
118.0762973023
 21
216.8243709662
 31
0.0
 12
118.0762973023
 22
215.8083709662
 32
0.0
 13
118.0762973023
 23
215.8083709662
 33
0.0
  0
SOLID
  5
16A
330
166
100
AcDbEntity
  8
0
  6
Continuous
 62
     7
370
     0
100
AcDbTrace
 10
125.3782973023
 20
216.3163709662
 30
0.0
 11
128.6802973023
 21
215.8083709662
 31
0.0
 12
128.6802973023
 22
216.8243709662
 32
0.0
 13
128.6802973023
 23
216.8243709662
 33
0.0
  0
LINE
  5
16B
330
166
100
AcDbEntity
  8
0
  6
Continuous
 62
     7
370
     0
100
AcDbLine
 10
121.3782973023
 20
195.1581266228
 30
0.0
 11
121.3782973023
 21
217.3163709662
 31
0.0
  0
LINE
  5
16C
330
166
100
AcDbEntity
  8
0
  6
Continuous
 62
     7
370
     0
100
AcDbLine
 10
125.3782973023
 20
195.1581266228
 30
0.0
 11
125.3782973023
 21
217.3163709662
 31
0.0
  0
LINE
  5
16D
330
166
100
AcDbEntity
  8
0
  6
Continuous
 62
     7
370
     0
100
AcDbLine
 10
121.3782973023
 20
216.3163709662
 30
0.0
 11
107.8030506318
 21
216.3163709662
 31
0.0
  0
LINE
  5
16E
330
166
100
AcDbEntity
  8
0
  6
Continuous
 62
     7
370
     0
100
AcDbLine
 10
121.3782973023
 20
216.3163709662
 30
0.0
 11
125.3782973023
 21
216.3163709662
 31
0.0
  0
LINE
  5
16F
330
166
100
AcDbEntity
  8
0
  6
Continuous
 62
     7
370
     0
100
AcDbLine
 10
125.3782973023
 20
216.3163709662
 30
0.0
 11
131.7282973023
 21
216.3163709662
 31
0.0
  0
MTEXT
  5
170
330
166
100
AcDbEntity
  8
0
  6
Continuous
 62
     7
370
     0
100
AcDbMText
 10
107.8030506318
 20
220.8281078808
 30
0.0
 40
3.5
 41
0.0
 71
     1
 72
     1
  1
M4
  7
SLDTEXTSTYLE0
 73
     1
 44
1.0
  0
ENDBLK
  5
168
330
166
100
AcDbEntity
  8
0
100
AcDbBlockEnd
  0
BLOCK
  5
184
330
183
100
AcDbEntity
  8
0
100
AcDbBlockBegin
  2
_D_5
 70
     0
 10
0.0
 20
0.0
 30
0.0
  3
_D_5
  1

  0
SOLID
  5
186
330
183
100
AcDbEntity
  8
0
  6
Continuous
 62
     7
370
     0
100
AcDbTrace
 10
261.9525787081
 20
104.629442488
 30
0.0
 11
262.4605787081
 21
107.931442488
 31
0.0
 12
261.4445787081
 22
107.931442488
 32
0.0
 13
261.4445787081
 23
107.931442488
 33
0.0
  0
SOLID
  5
187
330
183
100
AcDbEntity
  8
0
  6
Continuous
 62
     7
370
     0
100
AcDbTrace
 10
261.9525787081
 20
99.629442488
 30
0.0
 11
261.4445787081
 21
96.327442488
 31
0.0
 12
262.4605787081
 22
96.327442488
 32
0.0
 13
262.4605787081
 23
96.327442488
 33
0.0
  0
LINE
  5
188
330
183
100
AcDbEntity
  8
0
  6
Continuous
 62
     7
370
     0
100
AcDbLine
 10
231.9177417515
 20
104.629442488
 30
0.0
 11
262.9525787081
 21
104.629442488
 31
0.0
  0
LINE
  5
189
330
183
100
AcDbEntity
  8
0
  6
Continuous
 62
     7
370
     0
100
AcDbLine
 10
237.7677417515
 20
99.629442488
 30
0.0
 11
262.9525787081
 21
99.629442488
 31
0.0
  0
LINE
  5
18A
330
183
100
AcDbEntity
  8
0
  6
Continuous
 62
     7
370
     0
100
AcDbLine
 10
261.9525787081
 20
104.629442488
 30
0.0
 11
261.9525787081
 21
110.979442488
 31
0.0
  0
LINE
  5
18B
330
183
100
AcDbEntity
  8
0
  6
Continuous
 62
     7
370
     0
100
AcDbLine
 10
261.9525787081
 20
104.629442488
 30
0.0
 11
261.9525787081
 21
99.629442488
 31
0.0
  0
LINE
  5
18C
330
183
100
AcDbEntity
  8
0
  6
Continuous
 62
     7
370
     0
100
AcDbLine
 10
261.9525787081
 20
99.629442488
 30
0.0
 11
261.9525787081
 21
93.279442488
 31
0.0
  0
MTEXT
  5
18D
330
183
100
AcDbEntity
  8
0
  6
Continuous
 62
     7
370
     0
100
AcDbMText
 10
257.4408417936
 20
100.9214095569
 30
0.0
 40
3.5
 41
0.0
 71
     1
 72
     1
  1
5
  7
SLDTEXTSTYLE0
 11
-3.491481338843133E-15
 21
1.0
 31
0.0
 73
     1
 44
1.0
  0
ENDBLK
  5
185
330
183
100
AcDbEntity
  8
0
100
AcDbBlockEnd
  0
BLOCK
  5
190
330
18F
100
AcDbEntity
  8
0
100
AcDbBlockBegin
  2
_D_6
 70
     0
 10
0.0
 20
0.0
 30
0.0
  3
_D_6
  1

  0
SOLID
  5
192
330
18F
100
AcDbEntity
  8
0
  6
Continuous
 62
     7
370
     0
100
AcDbTrace
 10
193.66549721
 20
115.129442488
 30
0.0
 11
194.17349721
 21
118.431442488
 31
0.0
 12
193.15749721
 22
118.431442488
 32
0.0
 13
193.15749721
 23
118.431442488
 33
0.0
  0
SOLID
  5
193
330
18F
100
AcDbEntity
  8
0
  6
Continuous
 62
     7
370
     0
100
AcDbTrace
 10
193.66549721
 20
111.129442488
 30
0.0
 11
193.15749721
 21
107.827442488
 31
0.0
 12
194.17349721
 22
107.827442488
 32
0.0
 13
194.17349721
 23
107.827442488
 33
0.0
  0
LINE
  5
194
330
18F
100
AcDbEntity
  8
0
  6
Continuous
 62
     7
370
     0
100
AcDbLine
 10
196.7677417515
 20
115.129442488
 30
0.0
 11
192.66549721
 21
115.129442488
 31
0.0
  0
LINE
  5
195
330
18F
100
AcDbEntity
  8
0
  6
Continuous
 62
     7
370
     0
100
AcDbLine
 10
196.7677417515
 20
111.129442488
 30
0.0
 11
192.66549721
 21
111.129442488
 31
0.0
  0
LINE
  5
196
330
18F
100
AcDbEntity
  8
0
  6
Continuous
 62
     7
370
     0
100
AcDbLine
 10
193.66549721
 20
115.129442488
 30
0.0
 11
193.66549721
 21
121.479442488
 31
0.0
  0
LINE
  5
197
330
18F
100
AcDbEntity
  8
0
  6
Continuous
 62
     7
370
     0
100
AcDbLine
 10
193.66549721
 20
115.129442488
 30
0.0
 11
193.66549721
 21
111.129442488
 31
0.0
  0
LINE
  5
198
330
18F
100
AcDbEntity
  8
0
  6
Continuous
 62
     7
370
     0
100
AcDbLine
 10
193.66549721
 20
111.129442488
 30
0.0
 11
193.66549721
 21
104.779442488
 31
0.0
  0
MTEXT
  5
199
330
18F
100
AcDbEntity
  8
0
  6
Continuous
 62
     7
370
     0
100
AcDbMText
 10
189.1537602954
 20
112.0028937352
 30
0.0
 40
3.5
 41
0.0
 71
     1
 72
     1
  1
4
  7
SLDTEXTSTYLE0
 11
-3.491481338843133E-15
 21
1.0
 31
0.0
 73
     1
 44
1.0
  0
ENDBLK
  5
191
330
18F
100
AcDbEntity
  8
0
100
AcDbBlockEnd
  0
BLOCK
  5
19C
330
19B
100
AcDbEntity
  8
0
100
AcDbBlockBegin
  2
_D_7
 70
     0
 10
0.0
 20
0.0
 30
0.0
  3
_D_7
  1

  0
SOLID
  5
19E
330
19B
100
AcDbEntity
  8
0
  6
Continuous
 62
     7
370
     0
100
AcDbTrace
 10
186.1224971255
 20
115.129442488
 30
0.0
 11
186.6304971255
 21
118.431442488
 31
0.0
 12
185.6144971255
 22
118.431442488
 32
0.0
 13
185.6144971255
 23
118.431442488
 33
0.0
  0
SOLID
  5
19F
330
19B
100
AcDbEntity
  8
0
  6
Continuous
 62
     7
370
     0
100
AcDbTrace
 10
186.1224971255
 20
99.629442488
 30
0.0
 11
185.6144971255
 21
96.327442488
 31
0.0
 12
186.6304971255
 22
96.327442488
 32
0.0
 13
186.6304971255
 23
96.327442488
 33
0.0
  0
LINE
  5
1A0
330
19B
100
AcDbEntity
  8
0
  6
Continuous
 62
     7
370
     0
100
AcDbLine
 10
196.7677417515
 20
115.129442488
 30
0.0
 11
185.1224971255
 21
115.129442488
 31
0.0
  0
LINE
  5
1A1
330
19B
100
AcDbEntity
  8
0
  6
Continuous
 62
     7
370
     0
100
AcDbLine
 10
215.7677417515
 20
99.629442488
 30
0.0
 11
185.1224971255
 21
99.629442488
 31
0.0
  0
LINE
  5
1A2
330
19B
100
AcDbEntity
  8
0
  6
Continuous
 62
     7
370
     0
100
AcDbLine
 10
186.1224971255
 20
115.129442488
 30
0.0
 11
186.1224971255
 21
121.479442488
 31
0.0
  0
LINE
  5
1A3
330
19B
100
AcDbEntity
  8
0
  6
Continuous
 62
     7
370
     0
100
AcDbLine
 10
186.1224971255
 20
115.129442488
 30
0.0
 11
186.1224971255
 21
99.629442488
 31
0.0
  0
LINE
  5
1A4
330
19B
100
AcDbEntity
  8
0
  6
Continuous
 62
     7
370
     0
100
AcDbLine
 10
186.1224971255
 20
99.629442488
 30
0.0
 11
186.1224971255
 21
93.279442488
 31
0.0
  0
MTEXT
  5
1A5
330
19B
100
AcDbEntity
  8
0
  6
Continuous
 62
     7
370
     0
100
AcDbMText
 10
181.6107602109
 20
101.5763958812
 30
0.0
 40
3.5
 41
0.0
 71
     1
 72
     1
  1
15,50
  7
SLDTEXTSTYLE0
 11
-3.491481338843133E-15
 21
1.0
 31
0.0
 73
     1
 44
1.0
  0
ENDBLK
  5
19D
330
19B
100
AcDbEntity
  8
0
100
AcDbBlockEnd
  0
BLOCK
  5
1A7
330
1A6
100
AcDbEntity
  8
0
100
AcDbBlockBegin
  2
SW_CENTERMARKSYMBOL_1
 70
     0
 10
0.0
 20
0.0
 30
0.0
  3
SW_CENTERMARKSYMBOL_1
  1

  0
LINE
  5
1A9
330
1A6
100
AcDbEntity
  8
0
  6
Continuous
 62
     0
370
     0
100
AcDbLine
 10
0.0
 20
0.0
 30
0.0
 11
0.0
 21
2.5
 31
0.0
  0
LINE
  5
1AA
330
1A6
100
AcDbEntity
  8
0
  6
Continuous
 62
     0
370
     0
100
AcDbLine
 10
0.0
 20
0.0
 30
0.0
 11
-2.5
 21
0.0
 31
0.0
  0
LINE
  5
1AB
330
1A6
100
AcDbEntity
  8
0
  6
Continuous
 62
     0
370
     0
100
AcDbLine
 10
0.0
 20
0.0
 30
0.0
 11
0.0
 21
-2.5
 31
0.0
  0
LINE
  5
1AC
330
1A6
100
AcDbEntity
  8
0
  6
Continuous
 62
     0
370
     0
100
AcDbLine
 10
0.0
 20
0.0
 30
0.0
 11
2.5
 21
0.0
 31
0.0
  0
LINE
  5
1AD
330
1A6
100
AcDbEntity
  8
0
  6
Continuous
 62
     0
370
     0
100
AcDbLine
 10
0.0
 20
2.5
 30
0.0
 11
0.0
 21
4.15
 31
0.0
  0
LINE
  5
1AE
330
1A6
100
AcDbEntity
  8
0
  6
Continuous
 62
     0
370
     0
100
AcDbLine
 10
-2.5
 20
0.0
 30
0.0
 11
-4.15
 21
0.0
 31
0.0
  0
LINE
  5
1AF
330
1A6
100
AcDbEntity
  8
0
  6
Continuous
 62
     0
370
     0
100
AcDbLine
 10
0.0
 20
-2.5
 30
0.0
 11
0.0
 21
-4.15
 31
0.0
  0
LINE
  5
1B0
330
1A6
100
AcDbEntity
  8
0
  6
Continuous
 62
     0
370
     0
100
AcDbLine
 10
2.5
 20
0.0
 30
0.0
 11
4.15
 21
0.0
 31
0.0
  0
ENDBLK
  5
1A8
330
1A6
100
AcDbEntity
  8
0
100
AcDbBlockEnd
  0
BLOCK
  5
1C0
330
1BF
100
AcDbEntity
  8
0
100
AcDbBlockBegin
  2
_D_8
 70
     0
 10
0.0
 20
0.0
 30
0.0
  3
_D_8
  1

  0
SOLID
  5
1C2
330
1BF
100
AcDbEntity
  8
0
  6
Continuous
 62
     7
370
     0
100
AcDbTrace
 10
334.0748366678
 20
144.9943338409
 30
0.0
 11
330.9623779951
 21
146.2083639111
 31
0.0
 12
330.7413959474
 22
145.2166870814
 32
0.0
 13
330.7413959474
 23
145.2166870814
 33
0.0
  0
LINE
  5
1C3
330
1BF
100
AcDbEntity
  8
0
  6
Continuous
 62
     7
370
     0
100
AcDbLine
 10
334.0748366678
 20
144.9943338409
 30
0.0
 11
357.488862028
 21
139.7768283835
 31
0.0
  0
LINE
  5
1C4
330
1BF
100
AcDbEntity
  8
0
  6
Continuous
 62
     7
370
     0
100
AcDbLine
 10
334.0748366678
 20
144.9943338409
 30
0.0
 11
327.8768564822
 21
146.3754716396
 31
0.0
  0
MTEXT
  5
1C5
330
1BF
100
AcDbEntity
  8
0
  6
Continuous
 62
     7
370
     0
100
AcDbMText
 10
346.8442172332
 20
146.727400972
 30
0.0
 40
3.5
 41
0.0
 71
     1
 72
     1
  1
R1,50
  7
SLDTEXTSTYLE0
 11
0.976836138482295
 21
-0.2139886879136338
 31
0.0
 73
     1
 44
1.0
  0
ENDBLK
  5
1C1
330
1BF
100
AcDbEntity
  8
0
100
AcDbBlockEnd
  0
BLOCK
  5
1C9
330
1C8
100
AcDbEntity
  8
0
100
AcDbBlockBegin
  2
_D_9
 70
     0
 10
0.0
 20
0.0
 30
0.0
  3
_D_9
  1

  0
SOLID
  5
1CB
330
1C8
100
AcDbEntity
  8
0
  6
Continuous
 62
     7
370
     0
100
AcDbTrace
 10
352.278296622
 20
153.3894186816
 30
0.0
 11
352.786296622
 21
156.6914186816
 31
0.0
 12
351.770296622
 22
156.6914186816
 32
0.0
 13
351.770296622
 23
156.6914186816
 33
0.0
  0
SOLID
  5
1CC
330
1C8
100
AcDbEntity
  8
0
  6
Continuous
 62
     7
370
     0
100
AcDbTrace
 10
352.278296622
 20
150.8894186816
 30
0.0
 11
351.770296622
 21
147.5874186816
 31
0.0
 12
352.786296622
 22
147.5874186816
 32
0.0
 13
352.786296622
 23
147.5874186816
 33
0.0
  0
LINE
  5
1CD
330
1C8
100
AcDbEntity
  8
0
  6
Continuous
 62
     7
370
     0
100
AcDbLine
 10
344.9011035341
 20
153.3894186816
 30
0.0
 11
353.278296622
 21
153.3894186816
 31
0.0
  0
LINE
  5
1CE
330
1C8
100
AcDbEntity
  8
0
  6
Continuous
 62
     7
370
     0
100
AcDbLine
 10
344.9011035341
 20
150.8894186816
 30
0.0
 11
353.278296622
 21
150.8894186816
 31
0.0
  0
LINE
  5
1CF
330
1C8
100
AcDbEntity
  8
0
  6
Continuous
 62
     7
370
     0
100
AcDbLine
 10
352.278296622
 20
153.3894186816
 30
0.0
 11
352.278296622
 21
164.0320266118
 31
0.0
  0
LINE
  5
1D0
330
1C8
100
AcDbEntity
  8
0
  6
Continuous
 62
     7
370
     0
100
AcDbLine
 10
352.278296622
 20
153.3894186816
 30
0.0
 11
352.278296622
 21
150.8894186816
 31
0.0
  0
LINE
  5
1D1
330
1C8
100
AcDbEntity
  8
0
  6
Continuous
 62
     7
370
     0
100
AcDbLine
 10
352.278296622
 20
150.8894186816
 30
0.0
 11
352.278296622
 21
144.5394186816
 31
0.0
  0
MTEXT
  5
1D2
330
1C8
100
AcDbEntity
  8
0
  6
Continuous
 62
     7
370
     0
100
AcDbMText
 10
347.7665597074
 20
154.9806375509
 30
0.0
 40
3.5
 41
0.0
 71
     1
 72
     1
  1
0,50
  7
SLDTEXTSTYLE0
 11
-3.491481338843133E-15
 21
1.0
 31
0.0
 73
     1
 44
1.0
  0
ENDBLK
  5
1CA
330
1C8
100
AcDbEntity
  8
0
100
AcDbBlockEnd
  0
BLOCK
  5
1D4
330
1D3
100
AcDbEntity
  8
0
100
AcDbBlockBegin
  2
SW_NOTE_2
 70
     0
 10
0.0
 20
0.0
 30
0.0
  3
SW_NOTE_2
  1

  0
MTEXT
  5
1D6
330
1D3
100
AcDbEntity
  8
0
  6
Continuous
 62
     0
370
     0
100
AcDbMText
 10
8.9140625
 20
4.5117370892
 30
0.0
 40
3.5
 41
0.0
 71
     2
 72
     1
  1
DÉTAIL Z
  7
SLDTEXTSTYLE0
 73
     1
 44
1.0
  0
MTEXT
  5
1D8
330
1D3
100
AcDbEntity
  8
0
  6
Continuous
 62
     0
370
     0
100
AcDbMText
 10
8.8897564709
 20
-0.0139574413
 30
0.0
 40
3.5
 41
0.0
 71
     2
 72
     1
  1
ECHELLE 5 : 1
  7
SLDTEXTSTYLE3
 73
     1
 44
1.0
  0
ENDBLK
  5
1D5
330
1D3
100
AcDbEntity
  8
0
100
AcDbBlockEnd
  0
ENDSEC
  0
SECTION
  2
ENTITIES
  0
LINE
  5
74
330
1F
100
AcDbEntity
  8
0
  6
Continuous
 62
     7
370
    40
100
AcDbLine
 10
230.0
 20
14.25
 30
0.0
 11
410.0
 21
14.25
 31
0.0
  0
LINE
  5
75
330
1F
100
AcDbEntity
  8
0
  6
Continuous
 62
     7
370
    40
100
AcDbLine
 10
410.0
 20
48.25
 30
0.0
 11
230.0
 21
48.25
 31
0.0
  0
LINE
  5
76
330
1F
100
AcDbEntity
  8
0
  6
Continuous
 62
     7
370
    40
100
AcDbLine
 10
230.0
 20
65.25
 30
0.0
 11
410.0
 21
65.25
 31
0.0
  0
LINE
  5
77
330
1F
100
AcDbEntity
  8
0
  6
Continuous
 62
     7
370
    40
100
AcDbLine
 10
256.9909524338
 20
48.25
 30
0.0
 11
256.9909524338
 21
10.0
 31
0.0
  0
LINE
  5
78
330
1F
100
AcDbEntity
  8
0
  6
Continuous
 62
     7
370
    40
100
AcDbLine
 10
328.8
 20
31.25
 30
0.0
 11
230.0
 21
31.25
 31
0.0
  0
LINE
  5
79
330
1F
100
AcDbEntity
  8
0
  6
Continuous
 62
     7
370
    40
100
AcDbLine
 10
328.8
 20
35.5
 30
0.0
 11
230.0
 21
35.5
 31
0.0
  0
LINE
  5
7A
330
1F
100
AcDbEntity
  8
0
  6
Continuous
 62
     7
370
    40
100
AcDbLine
 10
328.8
 20
39.75
 30
0.0
 11
230.0
 21
39.75
 31
0.0
  0
LINE
  5
7B
330
1F
100
AcDbEntity
  8
0
  6
Continuous
 62
     7
370
    40
100
AcDbLine
 10
328.8
 20
44.0
 30
0.0
 11
230.0
 21
44.0
 31
0.0
  0
LINE
  5
7C
330
1F
100
AcDbEntity
  8
0
  6
Continuous
 62
     7
370
    40
100
AcDbLine
 10
284.6
 20
10.0
 30
0.0
 11
284.6
 21
48.25
 31
0.0
  0
LINE
  5
7D
330
1F
100
AcDbEntity
  8
0
  6
Continuous
 62
     7
370
    40
100
AcDbLine
 10
230.0
 20
65.25
 30
0.0
 11
230.0
 21
10.0
 31
0.0
  0
LINE
  5
7E
330
1F
100
AcDbEntity
  8
0
  6
Continuous
 62
     7
370
    40
100
AcDbLine
 10
237.8
 20
48.25
 30
0.0
 11
237.8
 21
10.0
 31
0.0
  0
LINE
  5
7F
330
1F
100
AcDbEntity
  8
0
  6
Continuous
 62
     7
370
    40
100
AcDbLine
 10
263.8
 20
48.25
 30
0.0
 11
263.8
 21
65.25
 31
0.0
  0
LINE
  5
80
330
1F
100
AcDbEntity
  8
0
  6
Continuous
 62
     7
370
    40
100
AcDbLine
 10
274.3989261635
 20
48.25
 30
0.0
 11
274.3989261635
 21
10.0
 31
0.0
  0
LINE
  5
81
330
1F
100
AcDbEntity
  8
0
  6
Continuous
 62
     7
370
    40
100
AcDbLine
 10
295.0
 20
31.25
 30
0.0
 11
295.0
 21
48.25
 31
0.0
  0
LINE
  5
82
330
1F
100
AcDbEntity
  8
0
  6
Continuous
 62
     7
370
    40
100
AcDbLine
 10
284.6
 20
18.5
 30
0.0
 11
230.0
 21
18.5
 31
0.0
  0
LINE
  5
83
330
1F
100
AcDbEntity
  8
0
  6
Continuous
 62
     7
370
    40
100
AcDbLine
 10
310.6
 20
65.25
 30
0.0
 11
310.6
 21
27.0
 31
0.0
  0
LINE
  5
84
330
1F
100
AcDbEntity
  8
0
  6
Continuous
 62
     7
370
    40
100
AcDbLine
 10
284.6
 20
22.749928
 30
0.0
 11
230.0
 21
22.749928
 31
0.0
  0
LINE
  5
85
330
1F
100
AcDbEntity
  8
0
  6
Continuous
 62
     7
370
    40
100
AcDbLine
 10
284.6
 20
27.0
 30
0.0
 11
230.0
 21
27.0
 31
0.0
  0
LINE
  5
86
330
1F
100
AcDbEntity
  8
0
  6
Continuous
 62
     7
370
    40
100
AcDbLine
 10
284.6
 20
27.0
 30
0.0
 11
410.0
 21
27.0
 31
0.0
  0
LINE
  5
87
330
1F
100
AcDbEntity
  8
0
  6
Continuous
 62
     7
370
    40
100
AcDbLine
 10
328.8
 20
65.25
 30
0.0
 11
328.8
 21
10.0
 31
0.0
  0
LINE
  5
88
330
1F
100
AcDbEntity
  8
0
  6
Continuous
 62
     7
370
    40
100
AcDbLine
 10
373.0
 20
10.0
 30
0.0
 11
373.0
 21
14.25
 31
0.0
  0
LINE
  5
89
330
1F
100
AcDbEntity
  8
0
  6
Continuous
 62
     7
370
    40
100
AcDbLine
 10
380.8
 20
58.875
 30
0.0
 11
380.8
 21
65.25
 31
0.0
  0
LINE
  5
8A
330
1F
100
AcDbEntity
  8
0
  6
Continuous
 62
     7
370
    40
100
AcDbLine
 10
397.0
 20
14.25
 30
0.0
 11
397.0
 21
27.0
 31
0.0
  0
LINE
  5
8B
330
1F
100
AcDbEntity
  8
0
  6
Continuous
 62
     7
370
    40
100
AcDbLine
 10
410.0
 20
58.875
 30
0.0
 11
328.8
 21
58.875
 31
0.0
  0
LINE
  5
8C
330
1F
100
AcDbEntity
  8
0
  6
Continuous
 62
     7
370
    40
100
AcDbLine
 10
410.0
 20
18.5
 30
0.0
 11
397.0
 21
18.5
 31
0.0
  0
LINE
  5
8D
330
1F
100
AcDbEntity
  8
0
  6
Continuous
 62
     7
370
    60
100
AcDbLine
 10
20.0
 20
10.0
 30
0.0
 11
20.0
 21
287.0
 31
0.0
  0
LINE
  5
8E
330
1F
100
AcDbEntity
  8
0
  6
Continuous
 62
     7
370
    60
100
AcDbLine
 10
20.0
 20
287.0
 30
0.0
 11
410.0
 21
287.0
 31
0.0
  0
LINE
  5
8F
330
1F
100
AcDbEntity
  8
0
  6
Continuous
 62
     7
370
    60
100
AcDbLine
 10
410.0
 20
287.0
 30
0.0
 11
410.0
 21
10.0
 31
0.0
  0
LINE
  5
90
330
1F
100
AcDbEntity
  8
0
  6
Continuous
 62
     7
370
    60
100
AcDbLine
 10
410.0
 20
10.0
 30
0.0
 11
20.0
 21
10.0
 31
0.0
  0
LINE
  5
91
330
1F
100
AcDbEntity
  8
0
  6
Continuous
 62
     7
370
    60
100
AcDbLine
 10
15.0
 20
5.0
 30
0.0
 11
15.0
 21
292.0
 31
0.0
  0
LINE
  5
92
330
1F
100
AcDbEntity
  8
0
  6
Continuous
 62
     7
370
    60
100
AcDbLine
 10
15.0
 20
292.0
 30
0.0
 11
415.0
 21
292.0
 31
0.0
  0
LINE
  5
93
330
1F
100
AcDbEntity
  8
0
  6
Continuous
 62
     7
370
    60
100
AcDbLine
 10
415.0
 20
292.0
 30
0.0
 11
415.0
 21
5.0
 31
0.0
  0
LINE
  5
94
330
1F
100
AcDbEntity
  8
0
  6
Continuous
 62
     7
370
    60
100
AcDbLine
 10
415.0
 20
5.0
 30
0.0
 11
15.0
 21
5.0
 31
0.0
  0
LINE
  5
95
330
1F
100
AcDbEntity
  8
0
  6
Continuous
 62
     7
370
    30
100
AcDbLine
 10
15.0
 20
148.5
 30
0.0
 11
25.0
 21
148.5
 31
0.0
  0
LINE
  5
96
330
1F
100
AcDbEntity
  8
0
  6
Continuous
 62
     7
370
    30
100
AcDbLine
 10
215.0
 20
292.0
 30
0.0
 11
215.0
 21
282.0
 31
0.0
  0
LINE
  5
97
330
1F
100
AcDbEntity
  8
0
  6
Continuous
 62
     7
370
    30
100
AcDbLine
 10
415.0
 20
148.5
 30
0.0
 11
405.0
 21
148.5
 31
0.0
  0
LINE
  5
98
330
1F
100
AcDbEntity
  8
0
  6
Continuous
 62
     7
370
    30
100
AcDbLine
 10
215.0
 20
5.0
 30
0.0
 11
215.0
 21
15.0
 31
0.0
  0
LINE
  5
99
330
1F
100
AcDbEntity
  8
0
  6
Continuous
 62
     7
370
    30
100
AcDbLine
 10
20.0
 20
48.5
 30
0.0
 11
15.0
 21
48.5
 31
0.0
  0
LINE
  5
9A
330
1F
100
AcDbEntity
  8
0
  6
Continuous
 62
     7
370
    30
100
AcDbLine
 10
410.0
 20
48.5
 30
0.0
 11
415.0
 21
48.5
 31
0.0
  0
LINE
  5
9B
330
1F
100
AcDbEntity
  8
0
  6
Continuous
 62
     7
370
    30
100
AcDbLine
 10
20.0
 20
98.5
 30
0.0
 11
15.0
 21
98.5
 31
0.0
  0
LINE
  5
9C
330
1F
100
AcDbEntity
  8
0
  6
Continuous
 62
     7
370
    30
100
AcDbLine
 10
410.0
 20
98.5
 30
0.0
 11
415.0
 21
98.5
 31
0.0
  0
LINE
  5
9D
330
1F
100
AcDbEntity
  8
0
  6
Continuous
 62
     7
370
    30
100
AcDbLine
 10
20.0
 20
148.5
 30
0.0
 11
15.0
 21
148.5
 31
0.0
  0
LINE
  5
9E
330
1F
100
AcDbEntity
  8
0
  6
Continuous
 62
     7
370
    30
100
AcDbLine
 10
410.0
 20
148.5
 30
0.0
 11
415.0
 21
148.5
 31
0.0
  0
LINE
  5
9F
330
1F
100
AcDbEntity
  8
0
  6
Continuous
 62
     7
370
    30
100
AcDbLine
 10
20.0
 20
198.5
 30
0.0
 11
15.0
 21
198.5
 31
0.0
  0
LINE
  5
A0
330
1F
100
AcDbEntity
  8
0
  6
Continuous
 62
     7
370
    30
100
AcDbLine
 10
410.0
 20
198.5
 30
0.0
 11
415.0
 21
198.5
 31
0.0
  0
LINE
  5
A1
330
1F
100
AcDbEntity
  8
0
  6
Continuous
 62
     7
370
    30
100
AcDbLine
 10
20.0
 20
248.5
 30
0.0
 11
15.0
 21
248.5
 31
0.0
  0
LINE
  5
A2
330
1F
100
AcDbEntity
  8
0
  6
Continuous
 62
     7
370
    30
100
AcDbLine
 10
410.0
 20
248.5
 30
0.0
 11
415.0
 21
248.5
 31
0.0
  0
LINE
  5
A3
330
1F
100
AcDbEntity
  8
0
  6
Continuous
 62
     7
370
    30
100
AcDbLine
 10
65.0
 20
287.0
 30
0.0
 11
65.0
 21
292.0
 31
0.0
  0
LINE
  5
A4
330
1F
100
AcDbEntity
  8
0
  6
Continuous
 62
     7
370
    30
100
AcDbLine
 10
65.0
 20
10.0
 30
0.0
 11
65.0
 21
5.0
 31
0.0
  0
LINE
  5
A5
330
1F
100
AcDbEntity
  8
0
  6
Continuous
 62
     7
370
    30
100
AcDbLine
 10
115.0
 20
287.0
 30
0.0
 11
115.0
 21
292.0
 31
0.0
  0
LINE
  5
A6
330
1F
100
AcDbEntity
  8
0
  6
Continuous
 62
     7
370
    30
100
AcDbLine
 10
115.0
 20
10.0
 30
0.0
 11
115.0
 21
5.0
 31
0.0
  0
LINE
  5
A7
330
1F
100
AcDbEntity
  8
0
  6
Continuous
 62
     7
370
    30
100
AcDbLine
 10
165.0
 20
287.0
 30
0.0
 11
165.0
 21
292.0
 31
0.0
  0
LINE
  5
A8
330
1F
100
AcDbEntity
  8
0
  6
Continuous
 62
     7
370
    30
100
AcDbLine
 10
165.0
 20
10.0
 30
0.0
 11
165.0
 21
5.0
 31
0.0
  0
LINE
  5
A9
330
1F
100
AcDbEntity
  8
0
  6
Continuous
 62
     7
370
    30
100
AcDbLine
 10
215.0
 20
287.0
 30
0.0
 11
215.0
 21
292.0
 31
0.0
  0
LINE
  5
AA
330
1F
100
AcDbEntity
  8
0
  6
Continuous
 62
     7
370
    30
100
AcDbLine
 10
215.0
 20
10.0
 30
0.0
 11
215.0
 21
5.0
 31
0.0
  0
LINE
  5
AB
330
1F
100
AcDbEntity
  8
0
  6
Continuous
 62
     7
370
    30
100
AcDbLine
 10
265.0
 20
287.0
 30
0.0
 11
265.0
 21
292.0
 31
0.0
  0
LINE
  5
AC
330
1F
100
AcDbEntity
  8
0
  6
Continuous
 62
     7
370
    30
100
AcDbLine
 10
265.0
 20
10.0
 30
0.0
 11
265.0
 21
5.0
 31
0.0
  0
LINE
  5
AD
330
1F
100
AcDbEntity
  8
0
  6
Continuous
 62
     7
370
    30
100
AcDbLine
 10
315.0
 20
287.0
 30
0.0
 11
315.0
 21
292.0
 31
0.0
  0
LINE
  5
AE
330
1F
100
AcDbEntity
  8
0
  6
Continuous
 62
     7
370
    30
100
AcDbLine
 10
315.0
 20
10.0
 30
0.0
 11
315.0
 21
5.0
 31
0.0
  0
LINE
  5
AF
330
1F
100
AcDbEntity
  8
0
  6
Continuous
 62
     7
370
    30
100
AcDbLine
 10
365.0
 20
287.0
 30
0.0
 11
365.0
 21
292.0
 31
0.0
  0
LINE
  5
B0
330
1F
100
AcDbEntity
  8
0
  6
Continuous
 62
     7
370
    30
100
AcDbLine
 10
365.0
 20
10.0
 30
0.0
 11
365.0
 21
5.0
 31
0.0
  0
MTEXT
  5
B2
330
1F
100
AcDbEntity
  8
0
  6
Continuous
 62
     7
370
     0
100
AcDbMText
 10
17.3396881428
 20
31.2433351429
 30
0.0
 40
3.96875
 41
0.0
 71
     2
 72
     1
  1
A
  7
SLDTEXTSTYLE0
 73
     1
 44
1.0
  0
MTEXT
  5
B3
330
1F
100
AcDbEntity
  8
0
  6
Continuous
 62
     7
370
     0
100
AcDbMText
 10
412.3396881428
 20
31.2433351429
 30
0.0
 40
3.96875
 41
0.0
 71
     2
 72
     1
  1
A
  7
SLDTEXTSTYLE0
 73
     1
 44
1.0
  0
MTEXT
  5
B4
330
1F
100
AcDbEntity
  8
0
  6
Continuous
 62
     7
370
     0
100
AcDbMText
 10
17.4706018241
 20
75.4933351429
 30
0.0
 40
3.96875
 41
0.0
 71
     2
 72
     1
  1
B
  7
SLDTEXTSTYLE0
 73
     1
 44
1.0
  0
MTEXT
  5
B5
330
1F
100
AcDbEntity
  8
0
  6
Continuous
 62
     7
370
     0
100
AcDbMText
 10
412.4706018241
 20
75.4933351429
 30
0.0
 40
3.96875
 41
0.0
 71
     2
 72
     1
  1
B
  7
SLDTEXTSTYLE0
 73
     1
 44
1.0
  0
MTEXT
  5
B6
330
1F
100
AcDbEntity
  8
0
  6
Continuous
 62
     7
370
     0
100
AcDbMText
 10
17.458658902
 20
125.4933351429
 30
0.0
 40
3.96875
 41
0.0
 71
     2
 72
     1
  1
C
  7
SLDTEXTSTYLE0
 73
     1
 44
1.0
  0
MTEXT
  5
B7
330
1F
100
AcDbEntity
  8
0
  6
Continuous
 62
     7
370
     0
100
AcDbMText
 10
412.458658902
 20
125.4933351429
 30
0.0
 40
3.96875
 41
0.0
 71
     2
 72
     1
  1
C
  7
SLDTEXTSTYLE0
 73
     1
 44
1.0
  0
MTEXT
  5
B8
330
1F
100
AcDbEntity
  8
0
  6
Continuous
 62
     7
370
     0
100
AcDbMText
 10
17.4526872821
 20
175.4933351429
 30
0.0
 40
3.96875
 41
0.0
 71
     2
 72
     1
  1
D
  7
SLDTEXTSTYLE0
 73
     1
 44
1.0
  0
MTEXT
  5
B9
330
1F
100
AcDbEntity
  8
0
  6
Continuous
 62
     7
370
     0
100
AcDbMText
 10
412.4526872821
 20
175.4933351429
 30
0.0
 40
3.96875
 41
0.0
 71
     2
 72
     1
  1
D
  7
SLDTEXTSTYLE0
 73
     1
 44
1.0
  0
MTEXT
  5
BA
330
1F
100
AcDbEntity
  8
0
  6
Continuous
 62
     7
370
     0
100
AcDbMText
 10
17.5078089051
 20
225.4933351429
 30
0.0
 40
3.96875
 41
0.0
 71
     2
 72
     1
  1
E
  7
SLDTEXTSTYLE0
 73
     1
 44
1.0
  0
MTEXT
  5
BB
330
1F
100
AcDbEntity
  8
0
  6
Continuous
 62
     7
370
     0
100
AcDbMText
 10
412.5078089051
 20
225.4933351429
 30
0.0
 40
3.96875
 41
0.0
 71
     2
 72
     1
  1
E
  7
SLDTEXTSTYLE0
 73
     1
 44
1.0
  0
MTEXT
  5
BC
330
1F
100
AcDbEntity
  8
0
  6
Continuous
 62
     7
370
     0
100
AcDbMText
 10
17.4577402091
 20
269.7433351429
 30
0.0
 40
3.96875
 41
0.0
 71
     2
 72
     1
  1
F
  7
SLDTEXTSTYLE0
 73
     1
 44
1.0
  0
MTEXT
  5
BD
330
1F
100
AcDbEntity
  8
0
  6
Continuous
 62
     7
370
     0
100
AcDbMText
 10
412.4577402091
 20
269.7433351429
 30
0.0
 40
3.96875
 41
0.0
 71
     2
 72
     1
  1
F
  7
SLDTEXTSTYLE0
 73
     1
 44
1.0
  0
MTEXT
  5
BE
330
1F
100
AcDbEntity
  8
0
  6
Continuous
 62
     7
370
     0
100
AcDbMText
 10
42.4600369465
 20
9.4933351429
 30
0.0
 40
3.96875
 41
0.0
 71
     2
 72
     1
  1
8
  7
SLDTEXTSTYLE0
 73
     1
 44
1.0
  0
MTEXT
  5
BF
330
1F
100
AcDbEntity
  8
0
  6
Continuous
 62
     7
370
     0
100
AcDbMText
 10
42.4600369465
 20
291.4229126077
 30
0.0
 40
3.96875
 41
0.0
 71
     2
 72
     1
  1
8
  7
SLDTEXTSTYLE0
 73
     1
 44
1.0
  0
MTEXT
  5
C0
330
1F
100
AcDbEntity
  8
0
  6
Continuous
 62
     7
370
     0
100
AcDbMText
 10
89.9600369465
 20
9.4933351429
 30
0.0
 40
3.96875
 41
0.0
 71
     2
 72
     1
  1
7
  7
SLDTEXTSTYLE0
 73
     1
 44
1.0
  0
MTEXT
  5
C1
330
1F
100
AcDbEntity
  8
0
  6
Continuous
 62
     7
370
     0
100
AcDbMText
 10
89.9600369465
 20
291.4229126077
 30
0.0
 40
3.96875
 41
0.0
 71
     2
 72
     1
  1
7
  7
SLDTEXTSTYLE0
 73
     1
 44
1.0
  0
MTEXT
  5
C2
330
1F
100
AcDbEntity
  8
0
  6
Continuous
 62
     7
370
     0
100
AcDbMText
 10
139.9600369465
 20
9.4933351429
 30
0.0
 40
3.96875
 41
0.0
 71
     2
 72
     1
  1
6
  7
SLDTEXTSTYLE0
 73
     1
 44
1.0
  0
MTEXT
  5
C3
330
1F
100
AcDbEntity
  8
0
  6
Continuous
 62
     7
370
     0
100
AcDbMText
 10
139.9600369465
 20
291.4229126077
 30
0.0
 40
3.96875
 41
0.0
 71
     2
 72
     1
  1
6
  7
SLDTEXTSTYLE0
 73
     1
 44
1.0
  0
MTEXT
  5
C4
330
1F
100
AcDbEntity
  8
0
  6
Continuous
 62
     7
370
     0
100
AcDbMText
 10
189.9600369465
 20
9.4933351429
 30
0.0
 40
3.96875
 41
0.0
 71
     2
 72
     1
  1
5
  7
SLDTEXTSTYLE0
 73
     1
 44
1.0
  0
MTEXT
  5
C5
330
1F
100
AcDbEntity
  8
0
  6
Continuous
 62
     7
370
     0
100
AcDbMText
 10
189.9600369465
 20
291.4229126077
 30
0.0
 40
3.96875
 41
0.0
 71
     2
 72
     1
  1
5
  7
SLDTEXTSTYLE0
 73
     1
 44
1.0
  0
MTEXT
  5
C6
330
1F
100
AcDbEntity
  8
0
  6
Continuous
 62
     7
370
     0
100
AcDbMText
 10
239.9600369465
 20
9.4933351429
 30
0.0
 40
3.96875
 41
0.0
 71
     2
 72
     1
  1
4
  7
SLDTEXTSTYLE0
 73
     1
 44
1.0
  0
MTEXT
  5
C7
330
1F
100
AcDbEntity
  8
0
  6
Continuous
 62
     7
370
     0
100
AcDbMText
 10
239.9600369465
 20
291.4229126077
 30
0.0
 40
3.96875
 41
0.0
 71
     2
 72
     1
  1
4
  7
SLDTEXTSTYLE0
 73
     1
 44
1.0
  0
MTEXT
  5
C8
330
1F
100
AcDbEntity
  8
0
  6
Continuous
 62
     7
370
     0
100
AcDbMText
 10
289.9600369465
 20
9.4933351429
 30
0.0
 40
3.96875
 41
0.0
 71
     2
 72
     1
  1
3
  7
SLDTEXTSTYLE0
 73
     1
 44
1.0
  0
MTEXT
  5
C9
330
1F
100
AcDbEntity
  8
0
  6
Continuous
 62
     7
370
     0
100
AcDbMText
 10
289.9600369465
 20
291.4229126077
 30
0.0
 40
3.96875
 41
0.0
 71
     2
 72
     1
  1
3
  7
SLDTEXTSTYLE0
 73
     1
 44
1.0
  0
MTEXT
  5
CA
330
1F
100
AcDbEntity
  8
0
  6
Continuous
 62
     7
370
     0
100
AcDbMText
 10
339.9600369465
 20
9.4933351429
 30
0.0
 40
3.96875
 41
0.0
 71
     2
 72
     1
  1
2
  7
SLDTEXTSTYLE0
 73
     1
 44
1.0
  0
MTEXT
  5
CB
330
1F
100
AcDbEntity
  8
0
  6
Continuous
 62
     7
370
     0
100
AcDbMText
 10
339.9600369465
 20
291.4229126077
 30
0.0
 40
3.96875
 41
0.0
 71
     2
 72
     1
  1
2
  7
SLDTEXTSTYLE0
 73
     1
 44
1.0
  0
MTEXT
  5
CC
330
1F
100
AcDbEntity
  8
0
  6
Continuous
 62
     7
370
     0
100
AcDbMText
 10
387.4600369465
 20
9.4933351429
 30
0.0
 40
3.96875
 41
0.0
 71
     2
 72
     1
  1
1
  7
SLDTEXTSTYLE0
 73
     1
 44
1.0
  0
MTEXT
  5
CD
330
1F
100
AcDbEntity
  8
0
  6
Continuous
 62
     7
370
     0
100
AcDbMText
 10
387.4600369465
 20
291.4229126077
 30
0.0
 40
3.96875
 41
0.0
 71
     2
 72
     1
  1
1
  7
SLDTEXTSTYLE0
 73
     1
 44
1.0
  0
MTEXT
  5
CE
330
1F
100
AcDbEntity
  8
0
  6
Continuous
 62
     7
370
     0
100
AcDbMText
 10
230.2121492441
 20
42.4297148859
 30
0.0
 40
1.5
 41
0.0
 71
     1
 72
     1
  1
AUTEUR
  7
SLDTEXTSTYLE0
 73
     1
 44
1.0
  0
MTEXT
  5
CF
330
1F
100
AcDbEntity
  8
0
  6
Continuous
 62
     7
370
     0
100
AcDbMText
 10
230.4104688676
 20
38.15440716
 30
0.0
 40
1.5
 41
0.0
 71
     1
 72
     1
  1
VERIF.
  7
SLDTEXTSTYLE0
 73
     1
 44
1.0
  0
MTEXT
  5
D0
330
1F
100
AcDbEntity
  8
0
  6
Continuous
 62
     7
370
     0
100
AcDbMText
 10
230.4017224083
 20
34.0642960031
 30
0.0
 40
1.5
 41
0.0
 71
     1
 72
     1
  1
APPR.
  7
SLDTEXTSTYLE0
 73
     1
 44
1.0
  0
MTEXT
  5
D1
330
1F
100
AcDbEntity
  8
0
  6
Continuous
 62
     7
370
     0
100
AcDbMText
 10
230.4551864991
 20
29.7337046506
 30
0.0
 40
1.5
 41
0.0
 71
     1
 72
     1
  1
FAB.
  7
SLDTEXTSTYLE0
 73
     1
 44
1.0
  0
MTEXT
  5
D2
330
1F
100
AcDbEntity
  8
0
  6
Continuous
 62
     7
370
     0
100
AcDbMText
 10
230.6690428622
 20
25.3496492073
 30
0.0
 40
1.5
 41
0.0
 71
     1
 72
     1
  1
QUAL.
  7
SLDTEXTSTYLE0
 73
     1
 44
1.0
  0
INSERT
  5
DC
330
1F
100
AcDbEntity
  8
0
  6
Continuous
 62
     7
370
     0
100
AcDbBlockReference
  2
SW_NOTE_0
 10
230.5936687456
 20
61.9873698743
 30
0.0
  0
MTEXT
  5
DD
330
1F
100
AcDbEntity
  8
0
  6
Continuous
 62
     7
370
     0
100
AcDbMText
 10
264.3712921668
 20
63.9192719951
 30
0.0
 40
1.5
 41
0.0
 71
     1
 72
     1
  1
FINITION:
  7
SLDTEXTSTYLE0
 73
     1
 44
1.0
  0
INSERT
  5
E3
330
1F
100
AcDbEntity
  8
0
  6
Continuous
 62
     7
370
     0
100
AcDbBlockReference
  2
SW_NOTE_1
 10
311.3092156863
 20
62.069489643
 30
0.0
  0
MTEXT
  5
E4
330
1F
100
AcDbEntity
  8
0
  6
Continuous
 62
     7
370
     0
100
AcDbMText
 10
244.3222392177
 20
46.5014826335
 30
0.0
 40
1.5
 41
0.0
 71
     1
 72
     1
  1
NOM
  7
SLDTEXTSTYLE0
 73
     1
 44
1.0
  0
MTEXT
  5
E5
330
1F
100
AcDbEntity
  8
0
  6
Continuous
 62
     7
370
     0
100
AcDbMText
 10
260.0335875632
 20
46.5617563795
 30
0.0
 40
1.5
 41
0.0
 71
     1
 72
     1
  1
SIGNATURE
  7
SLDTEXTSTYLE0
 73
     1
 44
1.0
  0
MTEXT
  5
E6
330
1F
100
AcDbEntity
  8
0
  6
Continuous
 62
     7
370
     0
100
AcDbMText
 10
277.2147019657
 20
46.5761792212
 30
0.0
 40
1.5
 41
0.0
 71
     1
 72
     1
  1
DATE
  7
SLDTEXTSTYLE0
 73
     1
 44
1.0
  0
MTEXT
  5
E7
330
1F
100
AcDbEntity
  8
0
  6
Continuous
 62
     7
370
     0
100
AcDbMText
 10
285.6458623088
 20
25.9860562892
 30
0.0
 40
1.5
 41
0.0
 71
     1
 72
     1
  1
MATERIAU:
  7
SLDTEXTSTYLE0
 73
     1
 44
1.0
  0
MTEXT
  5
E8
330
1F
100
AcDbEntity
  8
0
  6
Continuous
 62
     7
370
     0
100
AcDbMText
 10
342.6146405229
 20
62.5329935751
 30
0.0
 40
1.5
 41
0.0
 71
     1
 72
     1
  1
NE PAS CHANGER L'ECHELLE
  7
SLDTEXTSTYLE0
 73
     1
 44
1.0
  0
MTEXT
  5
E9
330
1F
100
AcDbEntity
  8
0
  6
Continuous
 62
     7
370
     0
100
AcDbMText
 10
383.3275816993
 20
62.3349086805
 30
0.0
 40
1.5
 41
0.0
 71
     1
 72
     1
  1
REVISION
  7
SLDTEXTSTYLE0
 73
     1
 44
1.0
  0
MTEXT
  5
EA
330
1F
100
AcDbEntity
  8
0
  6
Continuous
 62
     7
370
     0
100
AcDbMText
 10
330.0282962789
 20
46.5761792212
 30
0.0
 40
1.5
 41
0.0
 71
     1
 72
     1
  1
TITRE:
  7
SLDTEXTSTYLE0
 73
     1
 44
1.0
  0
MTEXT
  5
EB
330
1F
100
AcDbEntity
  8
0
  6
Continuous
 62
     7
370
     0
100
AcDbMText
 10
329.6307371314
 20
25.9860562892
 30
0.0
 40
1.5
 41
0.0
 71
     1
 72
     1
  1
No. DE PLAN
  7
SLDTEXTSTYLE0
 73
     1
 44
1.0
  0
MTEXT
  5
EC
330
1F
100
AcDbEntity
  8
0
  6
Continuous
 62
     7
370
     0
100
AcDbMText
 10
330.0739661175
 20
12.9000872745
 30
0.0
 40
1.5
 41
0.0
 71
     1
 72
     1
  1
ECHELLE:1:1
  7
SLDTEXTSTYLE0
 73
     1
 44
1.0
  0
MTEXT
  5
EE
330
1F
100
AcDbEntity
  8
0
  6
Continuous
 62
     7
370
     0
100
AcDbMText
 10
374.4782944278
 20
12.9000872745
 30
0.0
 40
1.5
 41
0.0
 71
     1
 72
     1
  1
FEUILLE 1 SUR 1
  7
SLDTEXTSTYLE1
 73
     1
 44
1.0
  0
MTEXT
  5
EF
330
1F
100
AcDbEntity
  8
0
  6
Continuous
 62
     7
370
     0
100
AcDbMText
 10
400.8711564346
 20
24.406388569
 30
0.0
 40
2.9104166667
 41
0.0
 71
     1
 72
     1
  1
A3
  7
SLDTEXTSTYLE0
 73
     1
 44
1.0
  0
MTEXT
  5
F0
330
1F
100
AcDbEntity
  8
0
  6
Continuous
 62
     7
370
     0
100
AcDbMText
 10
306.8901547473
 20
21.4855656914
 30
0.0
 40
2.38125
 41
0.0
 71
     2
 72
     1
  1
Alu 7075 Ø60x20
  7
SLDTEXTSTYLE0
 73
     1
 44
1.0
  0
MTEXT
  5
F1
330
1F
100
AcDbEntity
  8
0
  6
Continuous
 62
     7
370
     0
100
AcDbMText
 10
285.6178111281
 20
12.9493119036
 30
0.0
 40
1.4986
 41
0.0
 71
     1
 72
     1
  1
MASSE:
  7
SLDTEXTSTYLE0
 73
     1
 44
1.0
  0
MTEXT
  5
F2
330
1F
100
AcDbEntity
  8
0
  6
Continuous
 62
     7
370
     0
100
AcDbMText
 10
247.2192027357
 20
42.3833655079
 30
0.0
 40
1.4986
 41
0.0
 71
     2
 72
     1
  1
Jojo
  7
SLDTEXTSTYLE0
 73
     1
 44
1.0
  0
MTEXT
  5
F3
330
1F
100
AcDbEntity
  8
0
  6
Continuous
 62
     7
370
     0
100
AcDbMText
 10
279.674190403
 20
42.5803981638
 30
0.0
 40
1.4986
 41
0.0
 71
     2
 72
     1
  1
28.11.17
  7
SLDTEXTSTYLE0
 73
     1
 44
1.0
  0
MTEXT
  5
F4
330
1F
100
AcDbEntity
  8
0
  6
Continuous
 62
     7
370
     0
100
AcDbMText
 10
370.2430880785
 20
44.0716913567
 30
0.0
 40
6.35
 41
0.0
 71
     2
 72
     1
  1
Roue codeuse
  7
SLDTEXTSTYLE0
 73
     1
 44
1.0
  0
INSERT
  5
FE
330
1F
100
AcDbEntity
  8
0
  6
Continuous
 62
     7
370
     0
100
AcDbBlockReference
  2
SW_SFSYMBOL_0
 10
385.4426981195
 20
272.4456123106
 30
0.0
  0
CIRCLE
  5
FF
330
1F
100
AcDbEntity
  8
0
  6
Continuous
 62
     7
370
    15
100
AcDbCircle
 10
226.7677417515
 20
184.1581266228
 30
0.0
 40
2.0
  0
CIRCLE
  5
100
330
1F
100
AcDbEntity
  8
0
  6
Continuous
 62
     7
370
    15
100
AcDbCircle
 10
226.7677417515
 20
184.1581266228
 30
0.0
 40
10.0
  0
CIRCLE
  5
101
330
1F
100
AcDbEntity
  8
0
  6
Continuous
 62
     7
370
    15
100
AcDbCircle
 10
226.7677417515
 20
184.1581266228
 30
0.0
 40
29.0
  0
INSERT
  5
10D
330
1F
100
AcDbEntity
  8
0
  6
Continuous
 62
     7
370
     0
100
AcDbBlockReference
  2
SW_CENTERMARKSYMBOL_0
 10
226.7677417515
 20
184.1581266228
 30
0.0
  0
LINE
  5
10E
330
1F
100
AcDbEntity
  8
0
  6
PHANTOM
 62
     7
370
    30
100
AcDbLine
 10
226.7677417515
 20
220.1249005242
 30
0.0
 11
226.7677417515
 21
148.1913527214
 31
0.0
  0
LINE
  5
10F
330
1F
100
AcDbEntity
  8
0
  6
Continuous
 62
     7
370
    30
100
AcDbLine
 10
239.4677417515
 20
218.1249005242
 30
0.0
 11
226.7677417515
 21
218.1249005242
 31
0.0
  0
SOLID
  5
110
330
1F
100
AcDbEntity
  8
0
  6
Continuous
 62
     7
370
    30
100
AcDbTrace
 10
226.7677417515
 20
218.1249005242
 30
0.0
 11
233.1177417515
 21
217.1089005242
 31
0.0
 12
233.1177417515
 22
219.1409005242
 32
0.0
 13
233.1177417515
 23
219.1409005242
 33
0.0
  0
LINE
  5
111
330
1F
100
AcDbEntity
  8
0
  6
Continuous
 62
     7
370
    30
100
AcDbLine
 10
239.4677417515
 20
150.1913527214
 30
0.0
 11
226.7677417515
 21
150.1913527214
 31
0.0
  0
SOLID
  5
112
330
1F
100
AcDbEntity
  8
0
  6
Continuous
 62
     7
370
    30
100
AcDbTrace
 10
226.7677417515
 20
150.1913527214
 30
0.0
 11
233.1177417515
 21
149.1753527214
 31
0.0
 12
233.1177417515
 22
151.2073527214
 32
0.0
 13
233.1177417515
 23
151.2073527214
 33
0.0
  0
MTEXT
  5
113
330
1F
100
AcDbEntity
  8
0
  6
Continuous
 62
     7
100
AcDbMText
 10
236.0185706277
 20
223.6846755564
 30
0.0
 40
3.5
 41
0.0
 71
     1
 72
     1
  1
A
  7
SLDTEXTSTYLE0
 73
     1
 44
1.0
  0
MTEXT
  5
114
330
1F
100
AcDbEntity
  8
0
  6
Continuous
 62
     7
100
AcDbMText
 10
236.0185706277
 20
148.3399476357
 30
0.0
 40
3.5
 41
0.0
 71
     1
 72
     1
  1
A
  7
SLDTEXTSTYLE0
 73
     1
 44
1.0
  0
LINE
  5
115
330
1F
100
AcDbEntity
  8
0
  6
Continuous
 62
     7
370
    15
100
AcDbLine
 10
118.3782973023
 20
182.1581266228
 30
0.0
 11
118.3782973023
 21
186.1581266228
 31
0.0
  0
LINE
  5
116
330
1F
100
AcDbEntity
  8
0
  6
Continuous
 62
     7
370
    15
100
AcDbLine
 10
118.3782973023
 20
186.1581266228
 30
0.0
 11
121.7282973023
 21
186.1581266228
 31
0.0
  0
SPLINE
  5
117
330
1F
100
AcDbEntity
  8
0
  6
Continuous
 62
     7
370
    15
100
AcDbSpline
210
0.0
220
0.0
230
1.0
 70
     8
 71
     3
 72
    32
 73
    28
 74
     0
 42
0.000000001
 43
0.00000001
 40
0.0
 40
0.0
 40
0.0
 40
0.0
 40
0.0624999999999998
 40
0.0624999999999998
 40
0.1249999999999996
 40
0.1249999999999996
 40
0.2499999999999988
 40
0.2499999999999988
 40
0.374999999999998
 40
0.374999999999998
 40
0.4374999999999976
 40
0.4374999999999976
 40
0.4999999999999972
 40
0.4999999999999972
 40
0.6249999999999973
 40
0.6249999999999973
 40
0.6874999999999978
 40
0.6874999999999978
 40
0.7499999999999982
 40
0.7499999999999982
 40
0.8124999999999987
 40
0.8124999999999987
 40
0.8749999999999991
 40
0.8749999999999991
 40
0.9374999999999996
 40
0.9374999999999996
 40
1.0
 40
1.0
 40
1.0
 40
1.0
 10
125.0282973023473
 20
186.1581266228264
 30
0.0
 10
125.0282973023473
 20
186.1581266228264
 30
0.0
 10
125.0159503948967
 20
186.1479070165818
 30
0.0
 10
124.9689572545797
 20
186.1094127237026
 30
0.0
 10
124.934074275702
 20
186.0809487053713
 30
0.0
 10
124.8017872751923
 20
185.9750016278832
 30
0.0
 10
124.6774232310083
 20
185.8770855150766
 30
0.0
 10
124.385897812104
 20
185.6688715655578
 30
0.0
 10
124.2153901757448
 20
185.5546776164552
 30
0.0
 10
123.9270832585478
 20
185.4118006536259
 30
0.0
 10
123.8233075987593
 20
185.3683697908646
 30
0.0
 10
123.6059956756439
 20
185.3063865720854
 30
0.0
 10
123.4906674614474
 20
185.2879741319742
 30
0.0
 10
123.1411727434682
 20
185.2892505866378
 30
0.0
 10
122.9211365562025
 20
185.365931123854
 30
0.0
 10
122.6332248925795
 20
185.5093138182285
 30
0.0
 10
122.5422337031757
 20
185.5624923028205
 30
0.0
 10
122.373915294339
 20
185.6687635213881
 30
0.0
 10
122.295744736072
 20
185.7223594296997
 30
0.0
 10
122.1500278404001
 20
185.826524083416
 30
0.0
 10
122.0821351083538
 20
185.8774488259126
 30
0.0
 10
121.9624701954915
 20
185.9693689592891
 30
0.0
 10
121.9100439302237
 20
186.0108468018407
 30
0.0
 10
121.8219126992716
 20
186.0814407234521
 30
0.0
 10
121.7874480605549
 20
186.1095673351857
 30
0.0
 10
121.7406055832826
 20
186.1479391040504
 30
0.0
 10
121.7282973023473
 20
186.1581266228264
 30
0.0
 10
121.7282973023473
 20
186.1581266228264
 30
0.0
  0
LINE
  5
118
330
1F
100
AcDbEntity
  8
0
  6
Continuous
 62
     7
370
    15
100
AcDbLine
 10
125.0282973023
 20
186.1581266228
 30
0.0
 11
133.8782973023
 21
186.1581266228
 31
0.0
  0
LINE
  5
119
330
1F
100
AcDbEntity
  8
0
  6
Continuous
 62
     7
370
    15
100
AcDbLine
 10
133.8782973023
 20
182.1581266228
 30
0.0
 11
133.8782973023
 21
186.1581266228
 31
0.0
  0
LINE
  5
11A
330
1F
100
AcDbEntity
  8
0
  6
Continuous
 62
     7
370
    15
100
AcDbLine
 10
133.8782973023
 20
182.1581266228
 30
0.0
 11
118.3782973023
 21
182.1581266228
 31
0.0
  0
LINE
  5
11B
330
1F
100
AcDbEntity
  8
0
  6
Continuous
 62
     7
370
    15
100
AcDbLine
 10
121.7282973023
 20
186.1581266228
 30
0.0
 11
121.7282973023
 21
194.1581266228
 31
0.0
  0
SPLINE
  5
11C
330
1F
100
AcDbEntity
  8
0
  6
Continuous
 62
     7
370
    15
100
AcDbSpline
210
0.0
220
0.0
230
1.0
 70
     8
 71
     3
 72
    30
 73
    26
 74
     0
 42
0.000000001
 43
0.00000001
 40
0.0
 40
0.0
 40
0.0
 40
0.0
 40
0.0624999999999995
 40
0.0624999999999995
 40
0.1249999999999989
 40
0.1249999999999989
 40
0.1874999999999984
 40
0.1874999999999984
 40
0.2499999999999978
 40
0.2499999999999978
 40
0.3749999999999975
 40
0.3749999999999975
 40
0.4999999999999971
 40
0.4999999999999971
 40
0.5624999999999974
 40
0.5624999999999974
 40
0.6249999999999978
 40
0.6249999999999978
 40
0.6874999999999982
 40
0.6874999999999982
 40
0.7499999999999986
 40
0.7499999999999986
 40
0.8749999999999992
 40
0.8749999999999992
 40
1.0
 40
1.0
 40
1.0
 40
1.0
 10
121.7282973023473
 20
194.1581266228264
 30
0.0
 10
121.7282973023473
 20
194.1581266228264
 30
0.0
 10
121.7389937443316
 20
194.1563457857139
 30
0.0
 10
121.781007798474
 20
194.1495431406676
 30
0.0
 10
121.812876161807
 20
194.1444357830673
 30
0.0
 10
121.8956443290061
 20
194.1317963153727
 30
0.0
 10
121.946306528453
 20
194.1242981248512
 30
0.0
 10
122.0661622858336
 20
194.1077836587656
 30
0.0
 10
122.1356394754894
 20
194.0987510963736
 30
0.0
 10
122.3633844402454
 20
194.0719963978135
 30
0.0
 10
122.5471736717859
 20
194.054037163573
 30
0.0
 10
122.9440738857245
 20
194.0286295946473
 30
0.0
 10
123.1610703998179
 20
194.0210369954002
 30
0.0
 10
123.4886290180837
 20
194.0210750389978
 30
0.0
 10
123.5959532142556
 20
194.0228996361296
 30
0.0
 10
123.8070403132691
 20
194.0298130581535
 30
0.0
 10
123.9119125890307
 20
194.0349845501525
 30
0.0
 10
124.1115491162025
 20
194.0477795724968
 30
0.0
 10
124.2062043711021
 20
194.0553472774983
 30
0.0
 10
124.3853383944759
 20
194.0719391252901
 30
0.0
 10
124.4699894219472
 20
194.0810098186678
 30
0.0
 10
124.6976808639831
 20
194.1077773664443
 30
0.0
 10
124.820440001471
 20
194.1256073302162
 30
0.0
 10
124.984898664787
 20
194.1507270864367
 30
0.0
 10
125.0282973023473
 20
194.1581266228264
 30
0.0
 10
125.0282973023473
 20
194.1581266228264
 30
0.0
  0
LINE
  5
11D
330
1F
100
AcDbEntity
  8
0
  6
Continuous
 62
     7
370
    15
100
AcDbLine
 10
125.0282973023
 20
194.1581266228
 30
0.0
 11
125.0282973023
 21
186.1581266228
 31
0.0
  0
LINE
  5
11E
330
1F
100
AcDbEntity
  8
0
  6
Continuous
 62
     7
370
    15
100
AcDbLine
 10
129.8782973023
 20
194.1581266228
 30
0.0
 11
125.0282973023
 21
194.1581266228
 31
0.0
  0
LINE
  5
11F
330
1F
100
AcDbEntity
  8
0
  6
Continuous
 62
     7
370
    15
100
AcDbLine
 10
121.7282973023
 20
194.1581266228
 30
0.0
 11
118.3782973023
 21
194.1581266228
 31
0.0
  0
LINE
  5
120
330
1F
100
AcDbEntity
  8
0
  6
Continuous
 62
     7
370
    15
100
AcDbLine
 10
118.3782973023
 20
174.1581266228
 30
0.0
 11
129.8782973023
 21
174.1581266228
 31
0.0
  0
LINE
  5
121
330
1F
100
AcDbEntity
  8
0
  6
Continuous
 62
     7
370
    15
100
AcDbLine
 10
133.3782973023
 20
155.1581266228
 30
0.0
 11
133.8782973023
 21
155.1581266228
 31
0.0
  0
LINE
  5
122
330
1F
100
AcDbEntity
  8
0
  6
Continuous
 62
     7
370
    15
100
AcDbLine
 10
133.3782973023
 20
155.6581266228
 30
0.0
 11
133.3782973023
 21
155.1581266228
 31
0.0
  0
ARC
  5
123
330
1F
100
AcDbEntity
  8
0
  6
Continuous
 62
     7
370
    15
100
AcDbCircle
 10
131.8782973023
 20
155.6581266228
 30
0.0
 40
1.500000000000028
100
AcDbArc
 50
0.0
 51
180.0
  0
LINE
  5
124
330
1F
100
AcDbEntity
  8
0
  6
Continuous
 62
     7
370
    15
100
AcDbLine
 10
130.3782973023
 20
155.1581266228
 30
0.0
 11
130.3782973023
 21
155.6581266228
 31
0.0
  0
LINE
  5
125
330
1F
100
AcDbEntity
  8
0
  6
Continuous
 62
     7
370
    15
100
AcDbLine
 10
129.8782973023
 20
155.1581266228
 30
0.0
 11
130.3782973023
 21
155.1581266228
 31
0.0
  0
LINE
  5
126
330
1F
100
AcDbEntity
  8
0
  6
Continuous
 62
     7
370
    15
100
AcDbLine
 10
129.8782973023
 20
174.1581266228
 30
0.0
 11
129.8782973023
 21
155.1581266228
 31
0.0
  0
LINE
  5
127
330
1F
100
AcDbEntity
  8
0
  6
Continuous
 62
     7
370
    15
100
AcDbLine
 10
118.3782973023
 20
182.1581266228
 30
0.0
 11
118.3782973023
 21
174.1581266228
 31
0.0
  0
LINE
  5
128
330
1F
100
AcDbEntity
  8
0
  6
Continuous
 62
     7
370
    15
100
AcDbLine
 10
133.8782973023
 20
155.1581266228
 30
0.0
 11
133.8782973023
 21
182.1581266228
 31
0.0
  0
LINE
  5
129
330
1F
100
AcDbEntity
  8
0
  6
Continuous
 62
     7
370
    15
100
AcDbLine
 10
130.3782973023
 20
212.6581266228
 30
0.0
 11
130.3782973023
 21
213.1581266228
 31
0.0
  0
ARC
  5
12A
330
1F
100
AcDbEntity
  8
0
  6
Continuous
 62
     7
370
    15
100
AcDbCircle
 10
131.8782973023
 20
212.6581266228
 30
0.0
 40
1.500000000000028
100
AcDbArc
 50
180.0
 51
0.0
  0
LINE
  5
12B
330
1F
100
AcDbEntity
  8
0
  6
Continuous
 62
     7
370
    15
100
AcDbLine
 10
133.3782973023
 20
213.1581266228
 30
0.0
 11
133.3782973023
 21
212.6581266228
 31
0.0
  0
LINE
  5
12C
330
1F
100
AcDbEntity
  8
0
  6
Continuous
 62
     7
370
    15
100
AcDbLine
 10
133.8782973023
 20
213.1581266228
 30
0.0
 11
133.3782973023
 21
213.1581266228
 31
0.0
  0
LINE
  5
12D
330
1F
100
AcDbEntity
  8
0
  6
Continuous
 62
     7
370
    15
100
AcDbLine
 10
133.8782973023
 20
186.1581266228
 30
0.0
 11
133.8782973023
 21
213.1581266228
 31
0.0
  0
LINE
  5
12E
330
1F
100
AcDbEntity
  8
0
  6
Continuous
 62
     7
370
    15
100
AcDbLine
 10
129.8782973023
 20
213.1581266228
 30
0.0
 11
129.8782973023
 21
194.1581266228
 31
0.0
  0
LINE
  5
12F
330
1F
100
AcDbEntity
  8
0
  6
Continuous
 62
     7
370
    15
100
AcDbLine
 10
130.3782973023
 20
213.1581266228
 30
0.0
 11
129.8782973023
 21
213.1581266228
 31
0.0
  0
LINE
  5
130
330
1F
100
AcDbEntity
  8
0
  6
Continuous
 62
     7
370
    15
100
AcDbLine
 10
118.3782973023
 20
194.1581266228
 30
0.0
 11
118.3782973023
 21
186.1581266228
 31
0.0
  0
HATCH
  5
131
330
1F
100
AcDbEntity
  8
0
  6
Continuous
 62
     7
370
     0
100
AcDbHatch
 10
0.0
 20
0.0
 30
0.0
210
0.0
220
0.0
230
1.0
  2
ANSI31
 70
     0
 71
     0
 91
        1
 92
        0
 93
        4
 72
     1
 10
118.3782973023473
 20
194.1581266228264
 11
118.3782973023473
 21
186.1581266228264
 72
     1
 10
118.3782973023473
 20
186.1581266228264
 11
121.7282973023473
 21
186.1581266228264
 72
     1
 10
121.7282973023473
 20
186.1581266228264
 11
121.7282973023473
 21
194.1581266228264
 72
     1
 10
121.7282973023473
 20
194.1581266228264
 11
118.3782973023473
 21
194.1581266228264
 97
        0
 75
     0
 76
     1
 52
0.0
 41
1.0
 77
     0
 78
     1
 53
45.0
 43
0.0
 44
0.0
 45
-2.245064030267288
 46
2.245064030267288
 79
     0
 98
        1
 10
0.0
 20
0.0
  0
HATCH
  5
132
330
1F
100
AcDbEntity
  8
0
  6
Continuous
 62
     7
370
     0
100
AcDbHatch
 10
0.0
 20
0.0
 30
0.0
210
0.0
220
0.0
230
1.0
  2
ANSI31
 70
     0
 71
     0
 91
        1
 92
        0
 93
       10
 72
     1
 10
130.3782973023472
 20
213.1581266228264
 11
129.8782973023472
 21
213.1581266228264
 72
     1
 10
129.8782973023472
 20
213.1581266228264
 11
129.8782973023472
 21
194.1581266228264
 72
     1
 10
129.8782973023472
 20
194.1581266228264
 11
125.0282973023473
 21
194.1581266228264
 72
     1
 10
125.0282973023473
 20
194.1581266228264
 11
125.0282973023473
 21
186.1581266228264
 72
     1
 10
125.0282973023473
 20
186.1581266228264
 11
133.8782973023473
 21
186.1581266228264
 72
     1
 10
133.8782973023473
 20
186.1581266228264
 11
133.8782973023473
 21
213.1581266228264
 72
     1
 10
133.8782973023473
 20
213.1581266228264
 11
133.3782973023473
 21
213.1581266228264
 72
     1
 10
133.3782973023473
 20
213.1581266228264
 11
133.3782973023473
 21
212.6581266228264
 72
     2
 10
131.8782973023473
 20
212.6581266228264
 40
1.5
 50
0.0
 51
180.0
 73
     0
 72
     1
 10
130.3782973023472
 20
212.6581266228264
 11
130.3782973023472
 21
213.1581266228264
 97
        0
 75
     0
 76
     1
 52
0.0
 41
1.0
 77
     0
 78
     1
 53
45.0
 43
0.0
 44
0.0
 45
-2.245064030267288
 46
2.245064030267288
 79
     0
 98
        1
 10
0.0
 20
0.0
  0
HATCH
  5
133
330
1F
100
AcDbEntity
  8
0
  6
Continuous
 62
     7
370
     0
100
AcDbHatch
 10
0.0
 20
0.0
 30
0.0
210
0.0
220
0.0
230
1.0
  2
ANSI31
 70
     0
 71
     0
 91
        1
 92
        0
 93
       10
 72
     1
 10
133.8782973023473
 20
155.1581266228264
 11
133.8782973023473
 21
182.1581266228264
 72
     1
 10
133.8782973023473
 20
182.1581266228264
 11
118.3782973023473
 21
182.1581266228264
 72
     1
 10
118.3782973023473
 20
182.1581266228264
 11
118.3782973023473
 21
174.1581266228263
 72
     1
 10
118.3782973023473
 20
174.1581266228263
 11
129.8782973023472
 21
174.1581266228263
 72
     1
 10
129.8782973023472
 20
174.1581266228263
 11
129.8782973023472
 21
155.1581266228264
 72
     1
 10
129.8782973023472
 20
155.1581266228264
 11
130.3782973023472
 21
155.1581266228264
 72
     1
 10
130.3782973023472
 20
155.1581266228264
 11
130.3782973023472
 21
155.6581266228264
 72
     2
 10
131.8782973023473
 20
155.6581266228264
 40
1.5
 50
180.0
 51
360.0000000000008
 73
     0
 72
     1
 10
133.3782973023473
 20
155.6581266228264
 11
133.3782973023473
 21
155.1581266228264
 72
     1
 10
133.3782973023473
 20
155.1581266228264
 11
133.8782973023473
 21
155.1581266228264
 97
        0
 75
     0
 76
     1
 52
0.0
 41
1.0
 77
     0
 78
     1
 53
45.0
 43
0.0
 44
0.0
 45
-2.245064030267288
 46
2.245064030267288
 79
     0
 98
        1
 10
0.0
 20
0.0
  0
DIMENSION
  5
134
330
1F
100
AcDbEntity
  8
0
  6
Continuous
 62
     7
370
     0
100
AcDbDimension
  2
_D
 10
100.0281254946
 20
174.1581266228
 30
0.0
 11
100.0281254946
 21
182.7174517074
 31
0.0
 70
   160
  1
%%c<>
 71
     2
 42
-1.0
  3
SLDDIMSTYLE0
100
AcDbAlignedDimension
 13
118.3782973023
 23
194.1581266228
 33
0.0
 14
118.3782973023
 24
174.1581266228
 34
0.0
 50
90.0
100
AcDbRotatedDimension
  0
DIMENSION
  5
142
330
1F
100
AcDbEntity
  8
0
  6
Continuous
 62
     7
370
     0
100
AcDbDimension
  2
_D_1
 10
141.6839964504
 20
186.1581266228
 30
0.0
 11
141.6839964504
 21
173.6588783383
 31
0.0
 70
   160
  1
%%c<>
 71
     2
 42
-1.0
  3
SLDDIMSTYLE0
100
AcDbAlignedDimension
 13
133.8782973023
 23
182.1581266228
 33
0.0
 14
121.7282973023
 24
186.1581266228
 34
0.0
 50
90.0
100
AcDbRotatedDimension
  0
DIMENSION
  5
14F
330
1F
100
AcDbEntity
  8
0
  6
Continuous
 62
     7
370
     0
100
AcDbDimension
  2
_D_2
 10
149.8782973023
 20
212.6581266228
 30
0.0
 11
149.8782973023
 21
182.6830112121
 31
0.0
 70
   160
  1
<>
 71
     2
 42
-1.0
  3
SLDDIMSTYLE1
100
AcDbAlignedDimension
 13
131.8782973023
 23
155.6581266228
 33
0.0
 14
131.8782973023
 24
212.6581266228
 34
0.0
 50
90.0
100
AcDbRotatedDimension
  0
DIMENSION
  5
15A
330
1F
100
AcDbEntity
  8
0
  6
Continuous
 62
     7
370
     0
100
AcDbDimension
  2
_D_3
 10
159.0275535706
 20
213.1581266228
 30
0.0
 11
159.0275535706
 21
179.7264127256
 31
0.0
 70
   160
  1
%%c<>
 71
     2
 42
-1.0
  3
SLDDIMSTYLE1
100
AcDbAlignedDimension
 13
133.8782973023
 23
155.1581266228
 33
0.0
 14
133.8782973023
 24
213.1581266228
 34
0.0
 50
90.0
100
AcDbRotatedDimension
  0
DIMENSION
  5
165
330
1F
100
AcDbEntity
  8
0
  6
Continuous
 62
     7
370
     0
100
AcDbDimension
  2
_D_4
 10
125.3782973023
 20
216.3163709662
 30
0.0
 11
111.2398563122
 21
216.3163709662
 31
0.0
 70
   160
  1
<>
 71
     2
 42
-1.0
  3
SLDDIMSTYLE0
100
AcDbAlignedDimension
 13
121.3782973023
 23
194.1581266228
 33
0.0
 14
125.3782973023
 24
194.1581266228
 34
0.0
100
AcDbRotatedDimension
  0
MTEXT
  5
171
330
1F
100
AcDbEntity
  8
0
  6
Continuous
 62
     7
370
     0
100
AcDbMText
 10
125.8038181248
 20
147.5930766168
 30
0.0
 40
3.5
 41
0.0
 71
     2
 72
     1
  1
COUPE A-A
  7
SLDTEXTSTYLE0
 73
     1
 44
1.0
  0
LINE
  5
172
330
1F
100
AcDbEntity
  8
0
  6
Continuous
 62
     7
370
     0
100
AcDbLine
 10
125.3782973023
 20
194.1581266228
 30
0.0
 11
125.3782973023
 21
186.1581266228
 31
0.0
  0
LINE
  5
173
330
1F
100
AcDbEntity
  8
0
  6
Continuous
 62
     7
370
     0
100
AcDbLine
 10
121.3782973023
 20
194.1581266228
 30
0.0
 11
121.3782973023
 21
186.1581266228
 31
0.0
  0
LINE
  5
174
330
1F
100
AcDbEntity
  8
0
  6
Continuous
 62
     7
370
    15
100
AcDbLine
 10
197.7677417515
 20
115.129442488
 30
0.0
 11
197.7677417515
 21
114.629442488
 31
0.0
  0
LINE
  5
175
330
1F
100
AcDbEntity
  8
0
  6
Continuous
 62
     7
370
    15
100
AcDbLine
 10
255.7677417515
 20
114.629442488
 30
0.0
 11
255.7677417515
 21
115.129442488
 31
0.0
  0
LINE
  5
176
330
1F
100
AcDbEntity
  8
0
  6
Continuous
 62
     7
370
    15
100
AcDbLine
 10
197.7677417515
 20
111.629442488
 30
0.0
 11
197.7677417515
 21
111.129442488
 31
0.0
  0
LINE
  5
177
330
1F
100
AcDbEntity
  8
0
  6
Continuous
 62
     7
370
    15
100
AcDbLine
 10
255.7677417515
 20
111.129442488
 30
0.0
 11
255.7677417515
 21
111.629442488
 31
0.0
  0
ARC
  5
178
330
1F
100
AcDbEntity
  8
0
  6
Continuous
 62
     7
370
    15
100
AcDbCircle
 10
198.2677417515
 20
113.129442488
 30
0.0
 40
1.5
100
AcDbArc
 50
270.0
 51
90.0
  0
ARC
  5
179
330
1F
100
AcDbEntity
  8
0
  6
Continuous
 62
     7
370
    15
100
AcDbCircle
 10
255.2677417515
 20
113.129442488
 30
0.0
 40
1.5
100
AcDbArc
 50
90.0
 51
270.0
  0
LINE
  5
17A
330
1F
100
AcDbEntity
  8
0
  6
Continuous
 62
     7
370
    15
100
AcDbLine
 10
216.7677417515
 20
111.129442488
 30
0.0
 11
216.7677417515
 21
99.629442488
 31
0.0
  0
LINE
  5
17B
330
1F
100
AcDbEntity
  8
0
  6
Continuous
 62
     7
370
    15
100
AcDbLine
 10
236.7677417515
 20
99.629442488
 30
0.0
 11
236.7677417515
 21
111.129442488
 31
0.0
  0
LINE
  5
17C
330
1F
100
AcDbEntity
  8
0
  6
Continuous
 62
     7
370
    15
100
AcDbLine
 10
197.7677417515
 20
114.629442488
 30
0.0
 11
255.7677417515
 21
114.629442488
 31
0.0
  0
LINE
  5
17D
330
1F
100
AcDbEntity
  8
0
  6
Continuous
 62
     7
370
    15
100
AcDbLine
 10
197.7677417515
 20
115.129442488
 30
0.0
 11
255.7677417515
 21
115.129442488
 31
0.0
  0
LINE
  5
17E
330
1F
100
AcDbEntity
  8
0
  6
Continuous
 62
     7
370
    15
100
AcDbLine
 10
197.7677417515
 20
111.129442488
 30
0.0
 11
255.7677417515
 21
111.129442488
 31
0.0
  0
LINE
  5
17F
330
1F
100
AcDbEntity
  8
0
  6
Continuous
 62
     7
370
    15
100
AcDbLine
 10
197.7677417515
 20
111.629442488
 30
0.0
 11
255.7677417515
 21
111.629442488
 31
0.0
  0
LINE
  5
180
330
1F
100
AcDbEntity
  8
0
  6
Continuous
 62
     7
370
    15
100
AcDbLine
 10
216.7677417515
 20
99.629442488
 30
0.0
 11
236.7677417515
 21
99.629442488
 31
0.0
  0
SPLINE
  5
181
330
1F
100
AcDbEntity
  8
0
  6
Continuous
 62
     7
370
    15
100
AcDbSpline
210
0.0
220
0.0
230
1.0
 70
    11
 71
     3
 72
    54
 73
    50
 74
     0
 42
0.000000001
 43
0.00000001
 40
0.0
 40
0.0
 40
0.0
 40
0.0
 40
0.03125
 40
0.03125
 40
0.0625000000000001
 40
0.0625000000000001
 40
0.0937500000000001
 40
0.0937500000000001
 40
0.1250000000000002
 40
0.1250000000000002
 40
0.1875000000000007
 40
0.1875000000000007
 40
0.2500000000000011
 40
0.2500000000000011
 40
0.2812500000000013
 40
0.2812500000000013
 40
0.3125000000000016
 40
0.3125000000000016
 40
0.3750000000000019
 40
0.3750000000000019
 40
0.4062500000000021
 40
0.4062500000000021
 40
0.4375000000000023
 40
0.4375000000000023
 40
0.4687500000000026
 40
0.4687500000000026
 40
0.5000000000000028
 40
0.5000000000000028
 40
0.5625000000000027
 40
0.5625000000000027
 40
0.6250000000000026
 40
0.6250000000000026
 40
0.6562500000000022
 40
0.6562500000000022
 40
0.687500000000002
 40
0.687500000000002
 40
0.7500000000000016
 40
0.7500000000000016
 40
0.7812500000000012
 40
0.7812500000000012
 40
0.8125000000000009
 40
0.8125000000000009
 40
0.8437500000000007
 40
0.8437500000000007
 40
0.8750000000000003
 40
0.8750000000000003
 40
0.9375000000000002
 40
0.9375000000000002
 40
1.0
 40
1.0
 40
1.0
 40
1.0
 10
225.1177417515077
 20
104.6294424880109
 30
0.0
 10
225.1177417515078
 20
104.738649669279
 30
0.0
 10
225.1284764763251
 20
104.8459939152115
 30
0.0
 10
225.1705014917914
 20
105.0571207733883
 30
0.0
 10
225.20231530747
 20
105.1620112191973
 30
0.0
 10
225.28519614182
 20
105.3617319938252
 30
0.0
 10
225.335886605988
 20
105.4564273804917
 30
0.0
 10
225.4556151027891
 20
105.63564168691
 30
0.0
 10
225.5251776428589
 20
105.7203479149058
 30
0.0
 10
225.7530870665566
 20
105.9482058209977
 30
0.0
 10
225.9368736101875
 20
106.0710823197418
 30
0.0
 10
226.3337874696791
 20
106.2357895719179
 30
0.0
 10
226.5511737597753
 20
106.2793186474802
 30
0.0
 10
226.8746073666514
 20
106.2795040018512
 30
0.0
 10
226.9841428701985
 20
106.2687488632419
 30
0.0
 10
227.1958993476942
 20
106.2265761420522
 30
0.0
 10
227.2988432476683
 20
106.1953749802891
 30
0.0
 10
227.5988397144416
 20
106.0711878380621
 30
0.0
 10
227.7804324579344
 20
105.9501147076877
 30
0.0
 10
228.0109767418805
 20
105.7197044534991
 30
0.0
 10
228.0791110712062
 20
105.6365888727278
 30
0.0
 10
228.1985982104992
 20
105.4581059460306
 30
0.0
 10
228.2503656127316
 20
105.3615613645752
 30
0.0
 10
228.3331704655876
 20
105.1619877954038
 30
0.0
 10
228.3644630057576
 20
105.0591472566642
 30
0.0
 10
228.4068531605645
 20
104.8473386574966
 30
0.0
 10
228.4176994666236
 20
104.7378603812183
 30
0.0
 10
228.4178259425434
 20
104.4145430523555
 30
0.0
 10
228.3745318429831
 20
104.1970696004654
 30
0.0
 10
228.2100918918109
 20
103.7997758171631
 30
0.0
 10
228.087511827239
 20
103.6160456088213
 30
0.0
 10
227.8595814731046
 20
103.3876886499938
 30
0.0
 10
227.7748471703345
 20
103.3180252340212
 30
0.0
 10
227.5960112598741
 20
103.1983428547908
 30
0.0
 10
227.5013801937067
 20
103.1475526485139
 30
0.0
 10
227.201472047562
 20
103.0228095270051
 30
0.0
 10
226.987131661439
 20
102.9796189370686
 30
0.0
 10
226.6600434249087
 20
102.9793550688407
 30
0.0
 10
226.5527456191926
 20
102.9899692119053
 30
0.0
 10
226.3414818650101
 20
103.0318197324337
 30
0.0
 10
226.2364053539344
 20
103.0636048955969
 30
0.0
 10
226.0368164573867
 20
103.1462317991277
 30
0.0
 10
225.9420582991037
 20
103.1968268902836
 30
0.0
 10
225.7625323559709
 20
103.3165469531149
 30
0.0
 10
225.6778750659911
 20
103.3859717716494
 30
0.0
 10
225.4499325760768
 20
103.6135713171721
 30
0.0
 10
225.3268439709623
 20
103.7972829840316
 30
0.0
 10
225.1617708910208
 20
104.1940880929368
 30
0.0
 10
225.1177417515077
 20
104.4110281254746
 30
0.0
 10
225.1177417515078
 20
104.6294424880109
 30
0.0
  0
DIMENSION
  5
182
330
1F
100
AcDbEntity
  8
0
  6
Continuous
 62
     7
370
     0
100
AcDbDimension
  2
_D_5
 10
261.9525787081
 20
99.629442488
 30
0.0
 11
261.9525787081
 21
102.2144651536
 31
0.0
 70
   160
  1
<>
 71
     2
 42
-1.0
  3
SLDDIMSTYLE0
100
AcDbAlignedDimension
 13
230.9177417515
 23
104.629442488
 33
0.0
 14
236.7677417515
 24
99.629442488
 34
0.0
 50
90.0
100
AcDbRotatedDimension
  0
DIMENSION
  5
18E
330
1F
100
AcDbEntity
  8
0
  6
Continuous
 62
     7
370
     0
100
AcDbDimension
  2
_D_6
 10
193.66549721
 20
111.129442488
 30
0.0
 11
193.66549721
 21
113.295949332
 31
0.0
 70
   160
  1
<>
 71
     2
 42
-1.0
  3
SLDDIMSTYLE0
100
AcDbAlignedDimension
 13
197.7677417515
 23
115.129442488
 33
0.0
 14
197.7677417515
 24
111.129442488
 34
0.0
 50
90.0
100
AcDbRotatedDimension
  0
DIMENSION
  5
19A
330
1F
100
AcDbEntity
  8
0
  6
Continuous
 62
     7
370
     0
100
AcDbDimension
  2
_D_7
 10
186.1224971255
 20
99.629442488
 30
0.0
 11
186.1224971255
 21
107.3951461248
 31
0.0
 70
   160
  1
<>
 71
     2
 42
-1.0
  3
SLDDIMSTYLE0
100
AcDbAlignedDimension
 13
197.7677417515
 23
115.129442488
 33
0.0
 14
216.7677417515
 24
99.629442488
 34
0.0
 50
90.0
100
AcDbRotatedDimension
  0
INSERT
  5
1B1
330
1F
100
AcDbEntity
  8
0
  6
Continuous
 62
     7
370
     0
100
AcDbBlockReference
  2
SW_CENTERMARKSYMBOL_1
 10
226.7677417515
 20
104.629442488
 30
0.0
  0
CIRCLE
  5
1B2
330
1F
100
AcDbEntity
  8
0
  6
Continuous
 62
     7
370
     0
100
AcDbCircle
 10
253.9314078297
 20
112.4481116952
 30
0.0
 40
6.236861013190804
  0
MTEXT
  5
1B3
330
1F
100
AcDbEntity
  8
0
  6
Continuous
 62
     7
370
     0
100
AcDbMText
 10
259.7077651405
 20
122.0210170501
 30
0.0
 40
3.5
 41
0.0
 71
     1
 72
     1
  1
Z
  7
SLDTEXTSTYLE0
 73
     1
 44
1.0
  0
ARC
  5
1B4
330
1F
100
AcDbEntity
  8
0
  6
Continuous
 62
     7
370
     0
100
AcDbCircle
 10
226.7677417515
 20
104.629442488
 30
0.0
 40
1.999999999999992
100
AcDbArc
 50
255.0
 51
195.0
  0
LINE
  5
1B5
330
1F
100
AcDbEntity
  8
0
  6
Continuous
 62
     7
370
    15
100
AcDbLine
 10
343.9011035341
 20
150.8894176385
 30
0.0
 11
343.9011035341
 21
153.3894180483
 31
0.0
  0
LINE
  5
1B6
330
1F
100
AcDbEntity
  8
0
  6
Continuous
 62
     7
370
    15
100
AcDbLine
 10
343.9011035341
 20
133.3894182625
 30
0.0
 11
343.9011035341
 21
135.8894198364
 31
0.0
  0
ARC
  5
1B7
330
1F
100
AcDbEntity
  8
0
  6
Continuous
 62
     7
370
    15
100
AcDbCircle
 10
341.4011101092
 20
143.3894187375
 30
0.0
 40
7.499998901039723
100
AcDbArc
 50
90.000017787
 51
269.999982213
  0
ARC
  5
1B8
330
1F
100
AcDbEntity
  8
0
  6
Continuous
 62
     7
370
     0
100
AcDbCircle
 10
334.7193926336
 20
139.9827727509
 30
0.0
 40
31.18425881032246
100
AcDbArc
 50
154.5377024444
 51
192.206292354
  0
LINE
  5
1B9
330
1F
100
AcDbEntity
  8
0
  6
Continuous
 62
     7
370
    15
100
AcDbLine
 10
305.5046202468
 20
150.8894176385
 30
0.0
 11
343.9011035341
 21
150.8894176385
 31
0.0
  0
LINE
  5
1BA
330
1F
100
AcDbEntity
  8
0
  6
Continuous
 62
     7
370
    15
100
AcDbLine
 10
306.5641114342
 20
153.3894180483
 30
0.0
 11
343.9011035341
 21
153.3894180483
 31
0.0
  0
LINE
  5
1BB
330
1F
100
AcDbEntity
  8
0
  6
Continuous
 62
     7
370
    15
100
AcDbLine
 10
304.2401263344
 20
133.3894182625
 30
0.0
 11
343.9011035341
 21
133.3894182625
 31
0.0
  0
LINE
  5
1BC
330
1F
100
AcDbEntity
  8
0
  6
Continuous
 62
     7
370
    15
100
AcDbLine
 10
303.8049565482
 20
135.8894198364
 30
0.0
 11
343.9011035341
 21
135.8894198364
 31
0.0
  0
DIMENSION
  5
1BD
330
1F
100
AcDbEntity
  8
0
  6
Continuous
 62
     7
370
     0
100
AcDbDimension
  2
_D_8
 10
341.4011077064
 20
143.3894186816
 30
0.0
 11
352.0325895423
 21
141.0604662086
 31
0.0
 70
   164
  1
<>
 71
     1
 42
-1.0
  3
SLDDIMSTYLE2
100
AcDbRadialDimension
 15
334.0748366678
 25
144.9943338409
 35
0.0
 40
0.0
  0
DIMENSION
  5
1C6
330
1F
100
AcDbEntity
  8
0
  6
Continuous
 62
     7
370
     0
100
AcDbDimension
  2
_D_9
 10
352.278296622
 20
150.8894186816
 30
0.0
 11
352.278296622
 21
159.5063320813
 31
0.0
 70
   160
  1
<>
 71
     2
 42
-1.0
  3
SLDDIMSTYLE3
100
AcDbAlignedDimension
 13
343.9011035341
 23
153.3894186816
 33
0.0
 14
343.9011035341
 24
150.8894186816
 34
0.0
 50
90.0
100
AcDbRotatedDimension
  0
INSERT
  5
1D9
330
1F
100
AcDbEntity
  8
0
  6
Continuous
 62
     7
370
     0
100
AcDbBlockReference
  2
SW_NOTE_2
 10
314.6400686207
 20
124.3955952185
 30
0.0
  0
LINE
  5
1DA
330
1F
100
AcDbEntity
  8
0
  6
Continuous
 62
     7
370
    15
100
AcDbLine
 10
48.8880998186
 20
39.6497010165
 30
0.0
 11
49.2416532092
 21
39.4455989886
 31
0.0
  0
LINE
  5
1DB
330
1F
100
AcDbEntity
  8
0
  6
Continuous
 62
     7
370
    15
100
AcDbLine
 10
78.2392964556
 20
89.6764330066
 30
0.0
 11
77.885743065
 21
89.8805350346
 31
0.0
  0
LINE
  5
1DC
330
1F
100
AcDbEntity
  8
0
  6
Continuous
 62
     7
370
    15
100
AcDbLine
 10
46.4132260844
 20
41.0784152122
 30
0.0
 11
46.766779475
 21
40.8743131843
 31
0.0
  0
LINE
  5
1DD
330
1F
100
AcDbEntity
  8
0
  6
Continuous
 62
     7
370
    15
100
AcDbLine
 10
75.7644227215
 20
91.1051472023
 30
0.0
 11
75.4108693309
 21
91.3092492303
 31
0.0
  0
LINE
  5
1DE
330
1F
100
AcDbEntity
  8
0
  6
Continuous
 62
     7
370
    15
100
AcDbLine
 10
58.7408811692
 20
55.9005273738
 30
0.0
 11
66.8726091528
 21
51.2061807308
 31
0.0
  0
LINE
  5
1DF
330
1F
100
AcDbEntity
  8
0
  6
Continuous
 62
     7
370
    15
100
AcDbLine
 10
76.8717964792
 20
68.5271579784
 30
0.0
 11
68.7400684956
 21
73.2215046214
 31
0.0
  0
LWPOLYLINE
  5
1E0
330
1F
100
AcDbEntity
  8
0
  6
Continuous
 62
     7
370
    15
100
AcDbPolyline
 90
      142
 70
   128
 43
0.0
 10
43.234378178
 20
52.7230983762
 10
43.2547346564
 20
53.7897052665
 10
43.3157636756
 20
54.8776975972
 10
43.4173440683
 20
55.9849152603
 10
43.5592741559
 20
57.1091599775
 10
43.7412721493
 20
58.2481996651
 10
43.9629767085
 20
59.3997728652
 10
44.2239476595
 20
60.5615932357
 10
44.5236668687
 20
61.73135409
 10
44.8615392713
 20
62.9067329761
 10
45.236894053
 20
64.0853962879
 10
45.6489859815
 20
65.2650038987
 10
46.0969968865
 20
66.4432138067
 10
46.5800372838
 20
67.6176867851
 10
47.0971481414
 20
68.7860910266
 10
47.6473027835
 20
69.9461067728
 10
48.2294089292
 20
71.0954309196
 10
48.8423108604
 20
72.2317815905
 10
49.4847917171
 20
73.3529026664
 10
50.1555759131
 20
74.4565682651
 10
50.8533316684
 20
75.5405871607
 10
51.5766736535
 20
76.6028071342
 10
52.32416574
 20
77.6411192459
 10
53.0943238514
 20
78.6534620234
 10
53.8856189102
 20
79.6378255538
 10
54.6964798732
 20
80.5922554744
 10
55.525296851
 20
81.5148568529
 10
56.3704243042
 20
82.4037979498
 10
57.2301843106
 20
83.2573138546
 10
58.1028698962
 20
84.0737099907
 10
58.9867484246
 20
84.8513654791
 10
59.8800650367
 20
85.5887363567
 10
60.7810461351
 20
86.2843586419
 10
61.6879029053
 20
86.9368512412
 10
62.598834867
 20
87.5449186908
 10
63.5120334492
 20
88.107353729
 10
64.4256855806
 20
88.6230396933
 10
65.3379772895
 20
89.0909527368
 10
66.2470973052
 20
89.5101638615
 10
67.1512406539
 20
89.8798407625
 10
68.0486122429
 20
90.1992494806
 10
68.9374304238
 20
90.4677558592
 10
69.8159305304
 20
90.684826804
 10
70.6823683821
 20
90.8500313405
 10
71.5350237467
 20
90.9630414704
 10
72.3722037559
 20
91.0236328227
 10
73.1922462664
 20
91.0316850988
 10
73.9935231596
 20
90.9871823116
 10
74.7744435744
 20
90.8902128173
 10
75.5334570656
 20
90.7409691399
 10
76.2690566822
 20
90.5397475888
 10
76.9797819592
 20
90.2869476709
 10
77.6642218175
 20
89.9830712969
 10
78.3210173649
 20
89.6287217854
 10
78.9488645947
 20
89.2246026643
 10
79.5465169745
 20
88.7715162749
 10
80.1127879207
 20
88.2703621783
 10
80.6465531547
 20
87.7221353694
 10
81.1467529351
 20
87.1279243019
 10
81.6123941615
 20
86.4889087269
 10
82.0425523464
 20
85.8063573506
 10
82.4363734505
 20
85.0816253156
 10
82.7930755785
 20
84.3161515103
 10
83.1119505313
 20
83.511455712
 10
83.3923652122
 20
82.6691355698
 10
83.6337628839
 20
81.7908634324
 10
83.8356642735
 20
80.8783830278
 10
83.9976685246
 20
79.9335060013
 10
84.1194539927
 20
78.9581083189
 10
84.200778884
 20
77.9541265423
 10
84.2414817355
 20
76.9235539845
 10
84.2414817355
 20
75.8684367518
 10
84.200778884
 20
74.7908696819
 10
84.1194539927
 20
73.6929921845
 10
83.9976685246
 20
72.5769839935
 10
83.8356642735
 20
71.4450608402
 10
83.6337628839
 20
70.299470053
 10
83.3923652122
 20
69.1424860965
 10
83.1119505313
 20
67.9764060551
 10
82.7930755785
 20
66.803545073
 10
82.4363734505
 20
65.6262317569
 10
82.0425523464
 20
64.4468035536
 10
81.6123941615
 20
63.2676021085
 10
81.1467529351
 20
62.0909686169
 10
80.6465531547
 20
60.9192391758
 10
80.1127879207
 20
59.7547401455
 10
79.5465169745
 20
58.599783531
 10
78.9488645947
 20
57.4566623917
 10
78.3210173649
 20
56.3276462889
 10
77.6642218175
 20
55.2149767796
 10
76.9797819592
 20
54.120862966
 10
76.2690566822
 20
53.0474771099
 10
75.5334570656
 20
51.9969503195
 10
74.7744435744
 20
50.9713683185
 10
73.9935231596
 20
49.972767305
 10
73.1922462664
 20
49.003129909
 10
72.3722037559
 20
48.0643812557
 10
71.5350237467
 20
47.1583851437
 10
70.6823683821
 20
46.2869403444
 10
69.8159305304
 20
45.4517770308
 10
68.9374304238
 20
44.6545533423
 10
68.0486122429
 20
43.8968520927
 10
67.1512406539
 20
43.1801776279
 10
66.2470973052
 20
42.5059528385
 10
65.3379772895
 20
41.8755163355
 10
64.4256855806
 20
41.2901197922
 10
63.5120334492
 20
40.7509254593
 10
62.598834867
 20
40.2590038571
 10
61.6879029053
 20
39.8153316506
 10
60.7810461351
 20
39.4207897098
 10
59.8800650367
 20
39.0761613612
 10
58.9867484246
 20
38.7821308324
 10
58.1028698962
 20
38.539281894
 10
57.2301843106
 20
38.3480966999
 10
56.3704243042
 20
38.2089548307
 10
55.525296851
 20
38.1221325397
 10
54.6964798732
 20
38.0878022046
 10
53.8856189102
 20
38.1060319849
 10
53.0943238514
 20
38.1767856872
 10
52.32416574
 20
38.2999228365
 10
51.5766736535
 20
38.4751989554
 10
50.8533316684
 20
38.7022660495
 10
50.1555759131
 20
38.980673298
 10
49.4847917171
 20
39.3098679491
 10
48.8423108604
 20
39.6891964173
 10
48.2294089292
 20
40.117905581
 10
47.6473027835
 20
40.5951442779
 10
47.0971481414
 20
41.1199649947
 10
46.5800372838
 20
41.6913257485
 10
46.0969968865
 20
42.3080921553
 10
45.6489859815
 20
42.9690396826
 10
45.236894053
 20
43.6728560802
 10
44.8615392713
 20
44.4181439858
 10
44.5236668687
 20
45.2034236993
 10
44.2239476595
 20
46.0271361205
 10
43.9629767085
 20
46.8876458446
 10
43.7412721493
 20
47.7832444092
 10
43.5592741559
 20
48.7121536863
 10
43.4173440683
 20
49.6725294125
 10
43.3157636756
 20
50.6624648506
 10
43.2547346564
 20
51.6799945755
 10
43.234378178
 20
52.7230983762
  0
LWPOLYLINE
  5
1E1
330
1F
100
AcDbEntity
  8
0
  6
Continuous
 62
     7
370
    15
100
AcDbPolyline
 90
       54
 70
   128
 43
0.0
 10
42.8808247874
 20
52.9272004041
 10
42.9011812658
 20
53.9938072944
 10
42.962210285
 20
55.0817996251
 10
43.0637906777
 20
56.1890172882
 10
43.2057207653
 20
57.3132620055
 10
43.3877187587
 20
58.452301693
 10
43.6094233179
 20
59.6038748931
 10
43.8703942689
 20
60.7656952637
 10
44.1701134781
 20
61.935456118
 10
44.5079858807
 20
63.110835004
 10
44.8833406624
 20
64.2894983159
 10
45.2954325909
 20
65.4691059267
 10
45.7434434959
 20
66.6473158346
 10
46.2264838932
 20
67.821788813
 10
46.7435947508
 20
68.9901930546
 10
47.2937493929
 20
70.1502088007
 10
47.8758555386
 20
71.2995329476
 10
48.4887574698
 20
72.4358836185
 10
49.1312383265
 20
73.5570046944
 10
49.8020225225
 20
74.6606702931
 10
50.4997782778
 20
75.7446891887
 10
51.2231202629
 20
76.8069091621
 10
51.9706123494
 20
77.8452212739
 10
52.7407704608
 20
78.8575640514
 10
53.5320655196
 20
79.8419275818
 10
54.3429264826
 20
80.7963575024
 10
55.1717434604
 20
81.7189588809
 10
56.0168709136
 20
82.6078999777
 10
56.87663092
 20
83.4614158826
 10
57.7493165056
 20
84.2778120187
 10
58.633195034
 20
85.055467507
 10
59.5265116461
 20
85.7928383846
 10
60.4274927445
 20
86.4884606699
 10
61.3343495147
 20
87.1409532691
 10
62.2452814764
 20
87.7490207187
 10
63.1584800586
 20
88.311455757
 10
64.07213219
 20
88.8271417212
 10
64.9844238989
 20
89.2950547647
 10
65.8935439146
 20
89.7142658894
 10
66.7976872633
 20
90.0839427905
 10
67.6950588523
 20
90.4033515085
 10
68.5838770332
 20
90.6718578872
 10
69.4623771398
 20
90.8889288319
 10
70.3288149915
 20
91.0541333684
 10
71.1814703561
 20
91.1671434984
 10
72.0186503653
 20
91.2277348507
 10
72.8386928758
 20
91.2357871267
 10
73.639969769
 20
91.1912843395
 10
74.4208901838
 20
91.0943148453
 10
75.179903675
 20
90.9450711678
 10
75.9155032916
 20
90.7438496168
 10
76.6262285686
 20
90.4910496989
 10
77.3106684269
 20
90.1871733249
 10
77.885743065
 20
89.8805350346
  0
LWPOLYLINE
  5
1E2
330
1F
100
AcDbEntity
  8
0
  6
Continuous
 62
     7
370
    15
100
AcDbPolyline
 90
       19
 70
   128
 43
0.0
 10
48.8880998186
 20
39.6497010165
 10
48.4887574698
 20
39.8932984452
 10
47.8758555386
 20
40.322007609
 10
47.2937493929
 20
40.7992463058
 10
46.7435947508
 20
41.3240670227
 10
46.2264838932
 20
41.8954277764
 10
45.7434434959
 20
42.5121941832
 10
45.2954325909
 20
43.1731417105
 10
44.8833406624
 20
43.8769581082
 10
44.5079858807
 20
44.6222460138
 10
44.1701134781
 20
45.4075257273
 10
43.8703942689
 20
46.2312381485
 10
43.6094233179
 20
47.0917478726
 10
43.3877187587
 20
47.9873464372
 10
43.2057207653
 20
48.9162557143
 10
43.0637906777
 20
49.8766314404
 10
42.962210285
 20
50.8665668786
 10
42.9011812658
 20
51.8840966035
 10
42.8808247874
 20
52.9272004041
  0
LWPOLYLINE
  5
1E3
330
1F
100
AcDbEntity
  8
0
  6
Continuous
 62
     7
370
    15
100
AcDbPolyline
 90
       33
 70
   128
 43
0.0
 10
56.6694070205
 20
60.4789754385
 10
56.6896582386
 20
61.1082057935
 10
56.7502958955
 20
61.7572135326
 10
56.8509726644
 20
62.4222811984
 10
56.9911118778
 20
63.0995993434
 10
57.169910831
 20
63.7852883507
 10
57.3863453798
 20
64.4754206557
 10
57.6391758066
 20
65.166043243
 10
57.9269539218
 20
65.8532002891
 10
58.2480313582
 20
66.5329558205
 10
58.6005690135
 20
67.2014162593
 10
58.9825475838
 20
67.8547527244
 10
59.3917791305
 20
68.4892229639
 10
59.8259196124
 20
69.1011927896
 10
60.2824823122
 20
69.6871568938
 10
60.7588520799
 20
70.2437589271
 10
61.2523003127
 20
70.7678107236
 10
61.7600005838
 20
71.256310562
 10
62.2790448321
 20
71.7064603594
 10
62.8064600191
 20
72.1156816986
 10
63.3392251583
 20
72.4816305968
 10
63.8742886194
 20
72.8022109319
 10
64.4085856072
 20
73.0755864487
 10
64.939055717
 20
73.3001912771
 10
65.462660464
 20
73.4747389008
 10
65.9764006876
 20
73.598229527
 10
66.4773337305
 20
73.6699558125
 10
66.9625902934
 20
73.6895069156
 10
67.4293908708
 20
73.6567708495
 10
67.8750616712
 20
73.5719351232
 10
68.2970499326
 20
73.4354856682
 10
68.6929385444
 20
73.2482040546
 10
68.7400684956
 20
73.2215046214
  0
ARC
  5
1E4
330
1F
100
AcDbEntity
  8
0
  6
Continuous
 62
     7
370
    15
100
AcDbCircle
 10
61.7206408761
 20
60.0065237401
 30
0.0
 40
5.073280405369642
100
AcDbArc
 50
174.6565603125
 51
234.0312592941
  0
LWPOLYLINE
  5
1E5
330
1F
100
AcDbEntity
  8
0
  6
Continuous
 62
     7
370
    15
100
AcDbPolyline
 90
       56
 70
   128
 43
0.0
 10
40.7595044438
 20
54.1518125719
 10
40.7798609222
 20
55.2184194622
 10
40.8408899415
 20
56.3064117929
 10
40.9424703341
 20
57.4136294559
 10
41.0844004217
 20
58.5378741732
 10
41.2663984152
 20
59.6769138608
 10
41.4881029744
 20
60.8284870609
 10
41.7490739254
 20
61.9903074314
 10
42.0487931346
 20
63.1600682857
 10
42.3866655372
 20
64.3354471717
 10
42.7620203188
 20
65.5141104836
 10
43.1741122473
 20
66.6937180944
 10
43.6221231523
 20
67.8719280023
 10
44.1051635496
 20
69.0464009808
 10
44.6222744072
 20
70.2148052223
 10
45.1724290494
 20
71.3748209684
 10
45.754535195
 20
72.5241451153
 10
46.3674371262
 20
73.6604957862
 10
47.0099179829
 20
74.7816168621
 10
47.6807021789
 20
75.8852824608
 10
48.3784579342
 20
76.9693013564
 10
49.1017999194
 20
78.0315213298
 10
49.8492920058
 20
79.0698334416
 10
50.6194501173
 20
80.0821762191
 10
51.410745176
 20
81.0665397495
 10
52.221606139
 20
82.0209696701
 10
53.0504231168
 20
82.9435710486
 10
53.8955505701
 20
83.8325121454
 10
54.7553105765
 20
84.6860280503
 10
55.6279961621
 20
85.5024241864
 10
56.5118746904
 20
86.2800796747
 10
57.4051913025
 20
87.0174505524
 10
58.3061724009
 20
87.7130728376
 10
59.2130291711
 20
88.3655654369
 10
60.1239611328
 20
88.9736328864
 10
61.037159715
 20
89.5360679247
 10
61.9508118465
 20
90.051753889
 10
62.8631035554
 20
90.5196669325
 10
63.772223571
 20
90.9388780572
 10
64.6763669198
 20
91.3085549582
 10
65.5737385087
 20
91.6279636763
 10
66.4625566896
 20
91.8964700549
 10
67.3410567962
 20
92.1135409997
 10
68.2074946479
 20
92.2787455362
 10
69.0601500125
 20
92.3917556661
 10
69.8973300218
 20
92.4523470184
 10
70.7173725323
 20
92.4603992945
 10
71.5186494254
 20
92.4158965073
 10
72.2995698402
 20
92.318927013
 10
73.0585833314
 20
92.1696833356
 10
73.794182948
 20
91.9684617845
 10
74.5049082251
 20
91.7156618666
 10
75.1893480833
 20
91.4117854926
 10
75.8461436307
 20
91.0574359811
 10
76.4739908606
 20
90.65331686
 10
76.7862472344
 20
90.4255684951
  0
LWPOLYLINE
  5
1E6
330
1F
100
AcDbEntity
  8
0
  6
Continuous
 62
     7
370
    15
100
AcDbPolyline
 90
       21
 70
   128
 43
0.0
 10
47.8662753056
 20
40.3292797237
 10
47.6807021789
 20
40.4093874937
 10
47.0099179829
 20
40.7385821448
 10
46.3674371262
 20
41.117910613
 10
45.754535195
 20
41.5466197767
 10
45.1724290494
 20
42.0238584736
 10
44.6222744072
 20
42.5486791904
 10
44.1051635496
 20
43.1200399441
 10
43.6221231523
 20
43.736806351
 10
43.1741122473
 20
44.3977538783
 10
42.7620203188
 20
45.1015702759
 10
42.3866655372
 20
45.8468581815
 10
42.0487931346
 20
46.632137895
 10
41.7490739254
 20
47.4558503162
 10
41.4881029744
 20
48.3163600403
 10
41.2663984152
 20
49.2119586049
 10
41.0844004217
 20
50.140867882
 10
40.9424703341
 20
51.1012436082
 10
40.8408899415
 20
52.0911790463
 10
40.7798609222
 20
53.1087087712
 10
40.7595044438
 20
54.1518125719
  0
LWPOLYLINE
  5
1E7
330
1F
100
AcDbEntity
  8
0
  6
Continuous
 62
     7
370
    15
100
AcDbPolyline
 90
       54
 70
   128
 43
0.0
 10
40.4059510532
 20
54.3559145998
 10
40.4263075316
 20
55.4225214901
 10
40.4873365509
 20
56.5105138208
 10
40.5889169435
 20
57.6177314839
 10
40.7308470311
 20
58.7419762011
 10
40.9128450246
 20
59.8810158887
 10
41.1345495838
 20
61.0325890888
 10
41.3955205348
 20
62.1944094594
 10
41.695239744
 20
63.3641703137
 10
42.0331121466
 20
64.5395491997
 10
42.4084669282
 20
65.7182125116
 10
42.8205588567
 20
66.8978201223
 10
43.2685697617
 20
68.0760300303
 10
43.751610159
 20
69.2505030087
 10
44.2687210166
 20
70.4189072503
 10
44.8188756588
 20
71.5789229964
 10
45.4009818044
 20
72.7282471433
 10
46.0138837356
 20
73.8645978142
 10
46.6563645923
 20
74.98571889
 10
47.3271487883
 20
76.0893844887
 10
48.0249045436
 20
77.1734033844
 10
48.7482465288
 20
78.2356233578
 10
49.4957386153
 20
79.2739354696
 10
50.2658967267
 20
80.2862782471
 10
51.0571917854
 20
81.2706417775
 10
51.8680527484
 20
82.225071698
 10
52.6968697262
 20
83.1476730766
 10
53.5419971795
 20
84.0366141734
 10
54.4017571859
 20
84.8901300783
 10
55.2744427715
 20
85.7065262144
 10
56.1583212998
 20
86.4841817027
 10
57.0516379119
 20
87.2215525803
 10
57.9526190103
 20
87.9171748656
 10
58.8594757805
 20
88.5696674648
 10
59.7704077422
 20
89.1777349144
 10
60.6836063244
 20
89.7401699527
 10
61.5972584559
 20
90.2558559169
 10
62.5095501648
 20
90.7237689604
 10
63.4186701804
 20
91.1429800851
 10
64.3228135292
 20
91.5126569861
 10
65.2201851181
 20
91.8320657042
 10
66.109003299
 20
92.1005720829
 10
66.9875034056
 20
92.3176430276
 10
67.8539412573
 20
92.4828475641
 10
68.7065966219
 20
92.5958576941
 10
69.5437766312
 20
92.6564490464
 10
70.3638191417
 20
92.6645013224
 10
71.1650960348
 20
92.6199985352
 10
71.9460164496
 20
92.523029041
 10
72.7050299408
 20
92.3737853635
 10
73.4406295574
 20
92.1725638125
 10
74.1513548345
 20
91.9197638945
 10
74.8357946927
 20
91.6158875206
 10
75.4108693309
 20
91.3092492303
  0
LWPOLYLINE
  5
1E8
330
1F
100
AcDbEntity
  8
0
  6
Continuous
 62
     7
370
    15
100
AcDbPolyline
 90
       19
 70
   128
 43
0.0
 10
46.4132260844
 20
41.0784152122
 10
46.0138837356
 20
41.3220126409
 10
45.4009818044
 20
41.7507218046
 10
44.8188756588
 20
42.2279605015
 10
44.2687210166
 20
42.7527812183
 10
43.751610159
 20
43.3241419721
 10
43.2685697617
 20
43.9409083789
 10
42.8205588567
 20
44.6018559062
 10
42.4084669282
 20
45.3056723038
 10
42.0331121466
 20
46.0509602095
 10
41.695239744
 20
46.836239923
 10
41.3955205348
 20
47.6599523442
 10
41.1345495838
 20
48.5204620683
 10
40.9128450246
 20
49.4160606329
 10
40.7308470311
 20
50.34496991
 10
40.5889169435
 20
51.3053456361
 10
40.4873365509
 20
52.2952810743
 10
40.4263075316
 20
53.3128107992
 10
40.4059510532
 20
54.3559145998
  0
LWPOLYLINE
  5
1E9
330
1F
100
AcDbEntity
  8
0
  6
Continuous
 62
     7
370
    15
100
AcDbPolyline
 90
       84
 70
   128
 43
0.0
 10
64.8011350042
 20
55.7846287955
 10
64.8213862222
 20
56.4138591505
 10
64.8820238792
 20
57.0628668897
 10
64.9827006481
 20
57.7279345554
 10
65.1228398615
 20
58.4052527004
 10
65.3016388147
 20
59.0909417077
 10
65.5180733634
 20
59.7810740127
 10
65.7709037903
 20
60.4716966
 10
66.0586819054
 20
61.1588536461
 10
66.3797593418
 20
61.8386091776
 10
66.7322969971
 20
62.5070696163
 10
67.1142755674
 20
63.1604060815
 10
67.5235071142
 20
63.7948763209
 10
67.9576475961
 20
64.4068461466
 10
68.4142102958
 20
64.9928102508
 10
68.8905800635
 20
65.5494122842
 10
69.3840282963
 20
66.0734640806
 10
69.8917285675
 20
66.561963919
 10
70.4107728158
 20
67.0121137164
 10
70.9381880027
 20
67.4213350556
 10
71.470953142
 20
67.7872839539
 10
72.006016603
 20
68.1078642889
 10
72.5403135908
 20
68.3812398057
 10
73.0707837006
 20
68.6058446341
 10
73.5943884476
 20
68.7803922578
 10
74.1081286713
 20
68.903882884
 10
74.6090617141
 20
68.9756091695
 10
75.0943182771
 20
68.9951602727
 10
75.5611188545
 20
68.9624242065
 10
76.0067896548
 20
68.8775884802
 10
76.4287779162
 20
68.7411390252
 10
76.8246665281
 20
68.5538574116
 10
77.1921878763
 20
68.3168163715
 10
77.5292368318
 20
68.0313736546
 10
77.8338828088
 20
67.6991642508
 10
78.1043808227
 20
67.3220910255
 10
78.3391814853
 20
66.9023138201
 10
78.5369398798
 20
66.4422370803
 10
78.6965232639
 20
65.9444960841
 10
78.8170175586
 20
65.4119418467
 10
78.8977325832
 20
64.8476247907
 10
78.9382060096
 20
64.2547772731
 10
78.9382060096
 20
63.6367950706
 10
78.8977325832
 20
62.9972179295
 10
78.8170175586
 20
62.3397092896
 10
78.6965232639
 20
61.668035301
 10
78.5369398798
 20
60.9860432513
 10
78.3391814853
 20
60.2976395294
 10
78.1043808227
 20
59.6067672493
 10
77.8338828088
 20
58.9173836649
 10
77.5292368318
 20
58.233437503
 10
77.1921878763
 20
57.5588463452
 10
76.8246665281
 20
56.8974741886
 10
76.4287779162
 20
56.2531093131
 10
76.0067896548
 20
55.6294425822
 10
75.5611188545
 20
55.0300463026
 10
75.0943182771
 20
54.4583537618
 10
74.6090617141
 20
53.9176395629
 10
74.1081286713
 20
53.411000868
 10
73.5943884476
 20
52.9413396575
 10
73.0707837006
 20
52.5113461084
 10
72.5403135908
 20
52.1234831847
 10
72.006016603
 20
51.7799725302
 10
71.470953142
 20
51.4827817428
 10
70.9381880027
 20
51.2336131044
 10
70.4107728158
 20
51.0338938303
 10
69.8917285675
 20
50.8847678946
 10
69.3840282963
 20
50.7870894771
 10
68.8905800635
 20
50.7414180709
 10
68.4142102958
 20
50.7480152776
 10
67.9576475961
 20
50.8068433091
 10
67.5235071142
 20
50.9175652038
 10
67.1142755674
 20
51.0795467566
 10
66.7322969971
 20
51.2918601519
 10
66.3797593418
 20
51.5532892777
 10
66.0586819054
 20
51.8623366918
 10
65.7709037903
 20
52.2172321986
 10
65.5180733634
 20
52.6159429886
 10
65.3016388147
 20
53.0561852826
 10
65.1228398615
 20
53.5354374127
 10
64.9827006481
 20
54.0509542659
 10
64.8820238792
 20
54.5997830085
 10
64.8213862222
 20
55.1787799992
 10
64.8011350042
 20
55.7846287955
  0
SPLINE
  5
1EA
330
1F
100
AcDbEntity
  8
0
  6
Continuous
 62
     7
370
    15
100
AcDbSpline
210
0.0
220
0.0
230
1.0
 70
    11
 71
     3
 72
    54
 73
    50
 74
     0
 42
0.000000001
 43
0.00000001
 40
0.0
 40
0.0
 40
0.0
 40
0.0
 40
0.03125
 40
0.03125
 40
0.0625000000000001
 40
0.0625000000000001
 40
0.0937500000000001
 40
0.0937500000000001
 40
0.1250000000000002
 40
0.1250000000000002
 40
0.1875000000000007
 40
0.1875000000000007
 40
0.2500000000000011
 40
0.2500000000000011
 40
0.2812500000000013
 40
0.2812500000000013
 40
0.3125000000000016
 40
0.3125000000000016
 40
0.3750000000000019
 40
0.3750000000000019
 40
0.4062500000000021
 40
0.4062500000000021
 40
0.4375000000000023
 40
0.4375000000000023
 40
0.4687500000000026
 40
0.4687500000000026
 40
0.5000000000000028
 40
0.5000000000000028
 40
0.5625000000000027
 40
0.5625000000000027
 40
0.6250000000000026
 40
0.6250000000000026
 40
0.6562500000000022
 40
0.6562500000000022
 40
0.687500000000002
 40
0.687500000000002
 40
0.7500000000000016
 40
0.7500000000000016
 40
0.7812500000000012
 40
0.7812500000000012
 40
0.8125000000000009
 40
0.8125000000000009
 40
0.8437500000000007
 40
0.8437500000000007
 40
0.8750000000000003
 40
0.8750000000000003
 40
0.9375000000000002
 40
0.9375000000000002
 40
1.0
 40
1.0
 40
1.0
 40
1.0
 10
67.16994272113895
 20
69.28764244021777
 30
0.0
 10
67.09272158270998
 20
69.33222125454607
 30
0.0
 10
67.02440833520234
 20
69.38190181150136
 30
0.0
 10
66.90483527551055
 20
69.49086666023432
 30
0.0
 10
66.8531622947991
 20
69.5508840421011
 30
0.0
 10
66.77054398071516
 20
69.67667872612168
 30
0.0
 10
66.73942780161089
 20
69.7422004792963
 30
0.0
 10
66.6973649822462
 20
69.87777121792152
 30
0.0
 10
66.68665677782157
 20
69.94815005370515
 30
0.0
 10
66.68669320626991
 20
70.15605539213773
 30
0.0
 10
66.72976311205178
 20
70.29580368406532
 30
0.0
 10
66.8939579787209
 20
70.54559702726812
 30
0.0
 10
67.01689359407604
 20
70.65816327553905
 30
0.0
 10
67.2454646254291
 20
70.79029082073843
 30
0.0
 10
67.3305229542112
 20
70.82915119679394
 30
0.0
 10
67.5100780125429
 20
70.89280061612497
 30
0.0
 10
67.60493289535998
 20
70.91800182825425
 30
0.0
 10
67.90487600175224
 20
70.9742776359899
 30
0.0
 10
68.11889309359748
 20
70.98459092942265
 30
0.0
 10
68.44483717333124
 20
70.9625376455801
 30
0.0
 10
68.55178701041466
 20
70.94916077117536
 30
0.0
 10
68.76248366466695
 20
70.91157348861549
 30
0.0
 10
68.86735607406379
 20
70.88699356729983
 30
0.0
 10
69.06702777114023
 20
70.82890182754558
 30
0.0
 10
69.16187418081851
 20
70.7955508084374
 30
0.0
 10
69.34161984352305
 20
70.72071860411394
 30
0.0
 10
69.42670217163727
 20
70.67896096378506
 30
0.0
 10
69.65541147933185
 20
70.54701586997446
 30
0.0
 10
69.77857488050702
 20
70.44669042472847
 30
0.0
 10
69.94322740423138
 20
70.2381012641794
 30
0.0
 10
69.9864670855617
 20
70.12769999742734
 30
0.0
 10
69.986768740633
 20
69.9633261588586
 30
0.0
 10
69.97611201438005
 20
69.90769248740199
 30
0.0
 10
69.93428415131618
 20
69.79929359487744
 30
0.0
 10
69.90328398199449
 20
69.74606546355209
 30
0.0
 10
69.77942360524781
 20
69.58827008938705
 30
0.0
 10
69.65840242376561
 20
69.48916516622359
 30
0.0
 10
69.42730269668192
 20
69.35557426010314
 30
0.0
 10
69.34392635811626
 20
69.31466455219714
 30
0.0
 10
69.16494753805303
 20
69.23997552911611
 30
0.0
 10
69.06817172011418
 20
69.20589724123838
 30
0.0
 10
68.86861501412068
 20
69.147846638699
 30
0.0
 10
68.76583474577494
 20
69.12370222446914
 30
0.0
 10
68.55423586571472
 20
69.0858130820211
 30
0.0
 10
68.44528336192475
 20
69.07222072567654
 30
0.0
 10
68.12316649955174
 20
69.05023248502978
 30
0.0
 10
67.90622594676903
 20
69.060305139259
 30
0.0
 10
67.50891806923468
 20
69.13412237490142
 30
0.0
 10
67.32438499799689
 20
69.19848481156117
 30
0.0
 10
67.16994272113897
 20
69.28764244021778
 30
0.0
  0
LWPOLYLINE
  5
1EB
330
1F
100
AcDbEntity
  8
0
  6
Continuous
 62
     7
370
    15
100
AcDbPolyline
 90
       38
 70
   128
 43
0.0
 10
70.4579892537
 20
59.0502612428
 10
70.4783314283
 20
59.3379966643
 10
70.538772745
 20
59.6409410366
 10
70.6375744171
 20
59.9503792016
 10
70.7718941003
 20
60.2574091868
 10
70.9378676619
 20
60.5531982984
 10
71.1307203448
 20
60.8292372222
 10
71.3449041283
 20
61.077584821
 10
71.5742573351
 20
61.2910965866
 10
71.8121818909
 20
61.4636301741
 10
72.0518331394
 20
61.5902221064
 10
72.2863167505
 20
61.6672305642
 10
72.5088870578
 20
61.6924401542
 10
72.7131411186
 20
61.6651256425
 10
72.8932029155
 20
61.5860728178
 10
73.0438923985
 20
61.457555886
 10
73.1608745056
 20
61.2832720452
 10
73.2407838743
 20
61.0682351242
 10
73.2813216578
 20
60.8186313437
 10
73.2813216578
 20
60.54164135
 10
73.2407838743
 20
60.2452336409
 10
73.1608745056
 20
59.9379353266
 10
73.0438923985
 20
59.62858682
 10
72.8932029155
 20
59.3260875144
 10
72.7131411186
 20
59.0391397641
 10
72.5088870578
 20
58.7759985335
 10
72.2863167505
 20
58.5442339167
 10
72.0518331394
 20
58.3505133596
 10
71.8121818909
 20
58.20040985
 10
71.5742573351
 20
58.0982415927
 10
71.3449041283
 20
58.0469477822
 10
71.1307203448
 20
58.0480040483
 10
70.9378676619
 20
58.101380004
 10
70.7718941003
 20
58.2055401202
 10
70.6375744171
 20
58.3574879002
 10
70.538772745
 20
58.5528520828
 10
70.4783314283
 20
58.7860123962
 10
70.4579892537
 20
59.0502612428
  0
LWPOLYLINE
  5
1EC
330
1F
100
AcDbEntity
  8
0
  6
Continuous
 62
     8
370
    15
100
AcDbPolyline
 90
       53
 70
   128
 43
0.0
 10
41.1130578344
 20
54.3559145998
 10
41.1333501045
 20
55.4116970805
 10
41.1941860488
 20
56.4887823121
 10
41.2954431519
 20
57.5850011883
 10
41.4369174954
 20
58.6981460702
 10
41.6183241689
 20
59.8259752322
 10
41.8392978433
 20
60.9662173763
 10
42.0993935073
 20
62.1165762067
 10
42.3980873626
 20
63.2747350538
 10
42.7347778796
 20
64.4383615398
 10
43.1087870085
 20
65.6051122758
 10
43.5193615446
 20
66.7726375811
 10
43.9656746454
 20
67.9385862152
 10
44.4468274958
 20
69.1006101125
 10
44.9618511179
 20
70.2563691117
 10
45.5097083228
 20
71.4035356679
 10
46.0892957988
 20
72.5397995404
 10
46.6994463341
 20
73.6628724449
 10
47.3389311665
 20
74.7704926621
 10
48.0064624588
 20
75.8604295923
 10
48.7006958917
 20
76.9304882474
 10
49.4202333716
 20
77.9785136719
 10
50.1636258456
 20
79.002395282
 10
50.9293762203
 20
80.0000711163
 10
51.7159423764
 20
80.9695319885
 10
52.5217402742
 20
81.9088255335
 10
53.3451471441
 20
82.816060139
 10
54.1845047541
 20
83.6894087553
 10
55.0381227498
 20
84.5271125745
 10
55.9042820582
 20
85.3274845726
 10
56.7812383496
 20
86.0889129068
 10
57.6672255507
 20
86.809864162
 10
58.5604594014
 20
87.4888864381
 10
59.4591410474
 20
88.1246122747
 10
60.3614606636
 20
88.7157614046
 10
61.2656010982
 20
89.261143332
 10
62.1697415329
 20
89.7596597304
 10
63.072061149
 20
90.2103066541
 10
63.9707427951
 20
90.6121765602
 10
64.8639766457
 20
90.964460136
 10
65.7499638469
 20
91.2664479295
 10
66.6269201383
 20
91.5175317773
 10
67.4930794466
 20
91.7172060301
 10
68.3466974423
 20
91.8650685704
 10
69.1860550524
 20
91.9608216228
 10
70.0094619223
 20
92.0042723533
 10
70.8152598201
 20
91.995333258
 10
71.6018259761
 20
91.934022339
 10
72.3675763509
 20
91.8204630684
 10
73.1109688249
 20
91.6548841394
 10
73.8305063047
 20
91.4376190059
 10
74.5247397377
 20
91.169105211
 10
74.8666228422
 20
91.013548567
  0
LWPOLYLINE
  5
1ED
330
1F
100
AcDbEntity
  8
0
  6
Continuous
 62
     8
370
    15
100
AcDbPolyline
 90
       18
 70
   128
 43
0.0
 10
46.3971290236
 20
41.6975953212
 10
46.0892957988
 20
41.9174717178
 10
45.5097083228
 20
42.3845581342
 10
44.9618511179
 20
42.8991822258
 10
44.4468274958
 20
43.460307608
 10
43.9656746454
 20
44.066804249
 10
43.5193615446
 20
44.7174507453
 10
43.1087870085
 20
45.4109367815
 10
42.7347778796
 20
46.1458657689
 10
42.3980873626
 20
46.9207576583
 10
42.0993935073
 20
47.7340519208
 10
41.8392978433
 20
48.5841106897
 10
41.6183241689
 20
49.4692220599
 10
41.4369174954
 20
50.3876035349
 10
41.2954431519
 20
51.3374056167
 10
41.1941860488
 20
52.3167155301
 10
41.1333501045
 20
53.3235610755
 10
41.1130578344
 20
54.3559145998
  0
LWPOLYLINE
  5
1EE
330
1F
100
AcDbEntity
  8
0
  6
Continuous
 62
     7
370
     0
100
AcDbPolyline
 90
       17
 70
   128
 43
0.0
 10
66.9224553477
 20
69.2566896412
 10
66.4889098451
 20
69.6312608668
 10
66.3366689101
 20
70.073097753
 10
66.4889098451
 20
70.5149346393
 10
66.9224553477
 20
70.8895058649
 10
67.5713020454
 20
71.1397863562
 10
68.3366689101
 20
71.2276731772
 10
69.1020357748
 20
71.1397863562
 10
69.7508824725
 20
70.8895058649
 10
70.1844279751
 20
70.5149346393
 10
70.3366689101
 20
70.073097753
 10
70.1844279751
 20
69.6312608668
 10
69.7508824725
 20
69.2566896412
 10
69.1020357748
 20
69.0064091499
 10
68.3366689101
 20
68.9185223289
 10
67.5713020454
 20
69.0064091499
 10
66.9224553477
 20
69.2566896412
  0
ENDSEC
  0
SECTION
  2
OBJECTS
  0
DICTIONARY
  5
C
330
0
100
AcDbDictionary
281
     1
  3
ACAD_GROUP
350
D
  3
ACAD_LAYOUT
350
1A
  3
ACAD_MLINESTYLE
350
17
  3
ACAD_PLOTSETTINGS
350
19
  3
ACAD_PLOTSTYLENAME
350
E
  3
ACAD_SCALELIST
350
47
  0
DICTIONARY
  5
D
102
{ACAD_REACTORS
330
C
102
}
330
C
100
AcDbDictionary
281
     1
  0
DICTIONARY
  5
1A
102
{ACAD_REACTORS
330
C
102
}
330
C
100
AcDbDictionary
281
     1
  3
Layout1
350
1E
  3
Layout2
350
26
  3
Model
350
22
  0
DICTIONARY
  5
17
102
{ACAD_REACTORS
330
C
102
}
330
C
100
AcDbDictionary
281
     1
  3
Standard
350
18
  0
DICTIONARY
  5
19
102
{ACAD_REACTORS
330
C
102
}
330
C
100
AcDbDictionary
281
     1
  0
ACDBDICTIONARYWDFLT
  5
E
102
{ACAD_REACTORS
330
C
102
}
330
C
100
AcDbDictionary
281
     1
  3
Normal
350
F
100
AcDbDictionaryWithDefault
340
F
  0
DICTIONARY
  5
47
102
{ACAD_REACTORS
330
C
102
}
330
C
100
AcDbDictionary
281
     1
  3
A0
350
48
  3
A1
350
49
  3
A2
350
4A
  3
A3
350
4B
  3
A4
350
4C
  3
A5
350
4D
  3
A6
350
4E
  3
A7
350
4F
  3
A8
350
50
  3
A9
350
51
  3
B0
350
52
  3
B1
350
53
  3
B2
350
54
  3
B3
350
55
  3
B4
350
56
  3
B5
350
57
  3
B6
350
58
  3
B7
350
59
  3
B8
350
5A
  3
B9
350
5B
  3
C0
350
5C
  3
C1
350
5D
  3
C2
350
5E
  3
C3
350
5F
  3
C4
350
60
  3
C5
350
61
  3
C6
350
62
  3
C7
350
63
  3
C8
350
64
  3
C9
350
65
  3
D0
350
66
  3
D1
350
67
  3
D2
350
68
  0
LAYOUT
  5
1E
102
{ACAD_REACTORS
330
1A
102
}
330
1A
100
AcDbPlotSettings
  1

  2
none_device
  4

  6

 40
0.0
 41
0.0
 42
0.0
 43
0.0
 44
0.0
 45
0.0
 46
0.0
 47
0.0
 48
0.0
 49
0.0
140
0.0
141
0.0
142
1.0
143
1.0
 70
   688
 72
     1
 73
     0
 74
     5
  7

 75
    16
147
1.0
148
0.0
149
0.0
100
AcDbLayout
  1
Layout1
 70
     1
 71
     1
 10
0.0
 20
0.0
 11
420.0
 21
297.0
 12
0.0
 22
0.0
 32
0.0
 14
1.0000000000E+20
 24
1.0000000000E+20
 34
1.0000000000E+20
 15
-1.0000000000E+20
 25
-1.0000000000E+20
 35
-1.0000000000E+20
146
0.0
 13
0.0
 23
0.0
 33
0.0
 16
1.0
 26
0.0
 36
0.0
 17
0.0
 27
1.0
 37
0.0
 76
     0
330
1B
  0
LAYOUT
  5
26
102
{ACAD_REACTORS
330
1A
102
}
330
1A
100
AcDbPlotSettings
  1

  2
none_device
  4

  6

 40
0.0
 41
0.0
 42
0.0
 43
0.0
 44
0.0
 45
0.0
 46
0.0
 47
0.0
 48
0.0
 49
0.0
140
0.0
141
0.0
142
1.0
143
1.0
 70
   688
 72
     1
 73
     0
 74
     5
  7

 75
    16
147
1.0
148
0.0
149
0.0
100
AcDbLayout
  1
Layout2
 70
     1
 71
     2
 10
0.0
 20
0.0
 11
0.0
 21
0.0
 12
0.0
 22
0.0
 32
0.0
 14
0.0
 24
0.0
 34
0.0
 15
0.0
 25
0.0
 35
0.0
146
0.0
 13
0.0
 23
0.0
 33
0.0
 16
1.0
 26
0.0
 36
0.0
 17
0.0
 27
1.0
 37
0.0
 76
     0
330
23
  0
LAYOUT
  5
22
102
{ACAD_REACTORS
330
1A
102
}
330
1A
100
AcDbPlotSettings
  1

  2
none_device
  4
Letter_(8.50_x_11.00_Inches)
  6

 40
6.35
 41
6.35
 42
6.35000508
 43
6.35000508
 44
215.9
 45
279.4
 46
0.0
 47
0.0
 48
0.0
 49
0.0
140
0.0
141
0.0
142
1.0
143
1.0
 70
  1712
 72
     1
 73
     0
 74
     0
  7

 75
     0
147
1.0
148
0.0
149
0.0
100
AcDbLayout
  1
Model
 70
     1
 71
     0
 10
0.0
 20
0.0
 11
420.0
 21
297.0
 12
0.0
 22
0.0
 32
0.0
 14
0.0
 24
0.0
 34
0.0
 15
420.0
 25
297.0
 35
0.0
146
0.0
 13
0.0
 23
0.0
 33
0.0
 16
1.0
 26
0.0
 36
0.0
 17
0.0
 27
1.0
 37
0.0
 76
     0
330
1F
331
29
  0
MLINESTYLE
  5
18
102
{ACAD_REACTORS
330
17
102
}
330
17
100
AcDbMlineStyle
  2
Standard
 70
     0
  3

 62
   256
 51
90.0
 52
90.0
 71
     2
 49
0.5
 62
   256
  6
BYLAYER
 49
-0.5
 62
   256
  6
BYLAYER
  0
ACDBPLACEHOLDER
  5
F
102
{ACAD_REACTORS
330
E
102
}
330
E
  0
SCALE
  5
48
102
{ACAD_REACTORS
330
47
102
}
330
47
100
AcDbScale
 70
     0
300
1:1
140
1.0
141
1.0
290
     1
  0
SCALE
  5
49
102
{ACAD_REACTORS
330
47
102
}
330
47
100
AcDbScale
 70
     0
300
1:2
140
1.0
141
2.0
290
     0
  0
SCALE
  5
4A
102
{ACAD_REACTORS
330
47
102
}
330
47
100
AcDbScale
 70
     0
300
1:4
140
1.0
141
4.0
290
     0
  0
SCALE
  5
4B
102
{ACAD_REACTORS
330
47
102
}
330
47
100
AcDbScale
 70
     0
300
1:5
140
1.0
141
5.0
290
     0
  0
SCALE
  5
4C
102
{ACAD_REACTORS
330
47
102
}
330
47
100
AcDbScale
 70
     0
300
1:8
140
1.0
141
8.0
290
     0
  0
SCALE
  5
4D
102
{ACAD_REACTORS
330
47
102
}
330
47
100
AcDbScale
 70
     0
300
1:10
140
1.0
141
10.0
290
     0
  0
SCALE
  5
4E
102
{ACAD_REACTORS
330
47
102
}
330
47
100
AcDbScale
 70
     0
300
1:16
140
1.0
141
16.0
290
     0
  0
SCALE
  5
4F
102
{ACAD_REACTORS
330
47
102
}
330
47
100
AcDbScale
 70
     0
300
1:20
140
1.0
141
20.0
290
     0
  0
SCALE
  5
50
102
{ACAD_REACTORS
330
47
102
}
330
47
100
AcDbScale
 70
     0
300
1:30
140
1.0
141
30.0
290
     0
  0
SCALE
  5
51
102
{ACAD_REACTORS
330
47
102
}
330
47
100
AcDbScale
 70
     0
300
1:40
140
1.0
141
40.0
290
     0
  0
SCALE
  5
52
102
{ACAD_REACTORS
330
47
102
}
330
47
100
AcDbScale
 70
     0
300
1:50
140
1.0
141
50.0
290
     0
  0
SCALE
  5
53
102
{ACAD_REACTORS
330
47
102
}
330
47
100
AcDbScale
 70
     0
300
1:100
140
1.0
141
100.0
290
     0
  0
SCALE
  5
54
102
{ACAD_REACTORS
330
47
102
}
330
47
100
AcDbScale
 70
     0
300
2:1
140
2.0
141
1.0
290
     0
  0
SCALE
  5
55
102
{ACAD_REACTORS
330
47
102
}
330
47
100
AcDbScale
 70
     0
300
4:1
140
4.0
141
1.0
290
     0
  0
SCALE
  5
56
102
{ACAD_REACTORS
330
47
102
}
330
47
100
AcDbScale
 70
     0
300
8:1
140
8.0
141
1.0
290
     0
  0
SCALE
  5
57
102
{ACAD_REACTORS
330
47
102
}
330
47
100
AcDbScale
 70
     0
300
10:1
140
10.0
141
1.0
290
     0
  0
SCALE
  5
58
102
{ACAD_REACTORS
330
47
102
}
330
47
100
AcDbScale
 70
     0
300
100:1
140
100.0
141
1.0
290
     0
  0
SCALE
  5
59
102
{ACAD_REACTORS
330
47
102
}
330
47
100
AcDbScale
 70
     0
300
1/128" = 1'-0"
140
0.0078125
141
12.0
290
     0
  0
SCALE
  5
5A
102
{ACAD_REACTORS
330
47
102
}
330
47
100
AcDbScale
 70
     0
300
1/64" = 1'-0"
140
0.015625
141
12.0
290
     0
  0
SCALE
  5
5B
102
{ACAD_REACTORS
330
47
102
}
330
47
100
AcDbScale
 70
     0
300
1/32" = 1'-0"
140
0.03125
141
12.0
290
     0
  0
SCALE
  5
5C
102
{ACAD_REACTORS
330
47
102
}
330
47
100
AcDbScale
 70
     0
300
1/16" = 1'-0"
140
0.0625
141
12.0
290
     0
  0
SCALE
  5
5D
102
{ACAD_REACTORS
330
47
102
}
330
47
100
AcDbScale
 70
     0
300
3/32" = 1'-0"
140
0.09375
141
12.0
290
     0
  0
SCALE
  5
5E
102
{ACAD_REACTORS
330
47
102
}
330
47
100
AcDbScale
 70
     0
300
1/8" = 1'-0"
140
0.125
141
12.0
290
     0
  0
SCALE
  5
5F
102
{ACAD_REACTORS
330
47
102
}
330
47
100
AcDbScale
 70
     0
300
3/16" = 1'-0"
140
0.1875
141
12.0
290
     0
  0
SCALE
  5
60
102
{ACAD_REACTORS
330
47
102
}
330
47
100
AcDbScale
 70
     0
300
1/4" = 1'-0"
140
0.25
141
12.0
290
     0
  0
SCALE
  5
61
102
{ACAD_REACTORS
330
47
102
}
330
47
100
AcDbScale
 70
     0
300
3/8" = 1'-0"
140
0.375
141
12.0
290
     0
  0
SCALE
  5
62
102
{ACAD_REACTORS
330
47
102
}
330
47
100
AcDbScale
 70
     0
300
1/2" = 1'-0"
140
0.5
141
12.0
290
     0
  0
SCALE
  5
63
102
{ACAD_REACTORS
330
47
102
}
330
47
100
AcDbScale
 70
     0
300
3/4" = 1'-0"
140
0.75
141
12.0
290
     0
  0
SCALE
  5
64
102
{ACAD_REACTORS
330
47
102
}
330
47
100
AcDbScale
 70
     0
300
1" = 1'-0"
140
1.0
141
12.0
290
     0
  0
SCALE
  5
65
102
{ACAD_REACTORS
330
47
102
}
330
47
100
AcDbScale
 70
     0
300
1-1/2" = 1'-0"
140
1.5
141
12.0
290
     0
  0
SCALE
  5
66
102
{ACAD_REACTORS
330
47
102
}
330
47
100
AcDbScale
 70
     0
300
3" = 1'-0"
140
3.0
141
12.0
290
     0
  0
SCALE
  5
67
102
{ACAD_REACTORS
330
47
102
}
330
47
100
AcDbScale
 70
     0
300
6" = 1'-0"
140
6.0
141
12.0
290
     0
  0
SCALE
  5
68
102
{ACAD_REACTORS
330
47
102
}
330
47
100
AcDbScale
 70
     0
300
1'-0" = 1'-0"
140
12.0
141
12.0
290
     0
  0
ENDSEC
  0
EOF
