  0
SECTION
  2
HEADER
  9
$ACADVER
  1
AC1015
  9
$ACADMAINTVER
 70
    20
  9
$DWGCODEPAGE
  3
ANSI_1252
  9
$INSBASE
 10
0.0
 20
0.0
 30
0.0
  9
$EXTMIN
 10
936.1933042181235
 20
-2227.566118297639
 30
0.0
  9
$EXTMAX
 10
1254.315675423353
 20
-1756.226930500299
 30
0.0
  9
$LIMMIN
 10
0.0
 20
0.0
  9
$LIMMAX
 10
12.0
 20
9.0
  9
$ORTHOMODE
 70
     0
  9
$REGENMODE
 70
     1
  9
$FILLMODE
 70
     1
  9
$QTEXTMODE
 70
     0
  9
$MIRRTEXT
 70
     0
  9
$LTSCALE
 40
1.0
  9
$ATTMODE
 70
     1
  9
$TEXTSIZE
 40
0.2
  9
$TRACEWID
 40
0.05
  9
$TEXTSTYLE
  7
Standard
  9
$CLAYER
  8
0
  9
$CELTYPE
  6
ByLayer
  9
$CECOLOR
 62
   256
  9
$CELTSCALE
 40
1.0
  9
$DISPSILH
 70
     0
  9
$DIMSCALE
 40
1.0
  9
$DIMASZ
 40
0.18
  9
$DIMEXO
 40
0.0625
  9
$DIMDLI
 40
0.38
  9
$DIMRND
 40
0.0
  9
$DIMDLE
 40
0.0
  9
$DIMEXE
 40
0.18
  9
$DIMTP
 40
0.0
  9
$DIMTM
 40
0.0
  9
$DIMTXT
 40
0.18
  9
$DIMCEN
 40
0.09
  9
$DIMTSZ
 40
0.0
  9
$DIMTOL
 70
     0
  9
$DIMLIM
 70
     0
  9
$DIMTIH
 70
     1
  9
$DIMTOH
 70
     1
  9
$DIMSE1
 70
     0
  9
$DIMSE2
 70
     0
  9
$DIMTAD
 70
     0
  9
$DIMZIN
 70
     0
  9
$DIMBLK
  1

  9
$DIMASO
 70
     1
  9
$DIMSHO
 70
     1
  9
$DIMPOST
  1

  9
$DIMAPOST
  1

  9
$DIMALT
 70
     0
  9
$DIMALTD
 70
     2
  9
$DIMALTF
 40
25.4
  9
$DIMLFAC
 40
1.0
  9
$DIMTOFL
 70
     0
  9
$DIMTVP
 40
0.0
  9
$DIMTIX
 70
     0
  9
$DIMSOXD
 70
     0
  9
$DIMSAH
 70
     0
  9
$DIMBLK1
  1

  9
$DIMBLK2
  1

  9
$DIMSTYLE
  2
Standard
  9
$DIMCLRD
 70
     0
  9
$DIMCLRE
 70
     0
  9
$DIMCLRT
 70
     0
  9
$DIMTFAC
 40
1.0
  9
$DIMGAP
 40
0.09
  9
$DIMJUST
 70
     0
  9
$DIMSD1
 70
     0
  9
$DIMSD2
 70
     0
  9
$DIMTOLJ
 70
     1
  9
$DIMTZIN
 70
     0
  9
$DIMALTZ
 70
     0
  9
$DIMALTTZ
 70
     0
  9
$DIMUPT
 70
     0
  9
$DIMDEC
 70
     4
  9
$DIMTDEC
 70
     4
  9
$DIMALTU
 70
     2
  9
$DIMALTTD
 70
     2
  9
$DIMTXSTY
  7
Standard
  9
$DIMAUNIT
 70
     0
  9
$DIMADEC
 70
     0
  9
$DIMALTRND
 40
0.0
  9
$DIMAZIN
 70
     0
  9
$DIMDSEP
 70
    46
  9
$DIMATFIT
 70
     3
  9
$DIMFRAC
 70
     0
  9
$DIMLDRBLK
  1

  9
$DIMLUNIT
 70
     2
  9
$DIMLWD
 70
    -2
  9
$DIMLWE
 70
    -2
  9
$DIMTMOVE
 70
     0
  9
$LUNITS
 70
     2
  9
$LUPREC
 70
     4
  9
$SKETCHINC
 40
0.1
  9
$FILLETRAD
 40
0.0
  9
$AUNITS
 70
     0
  9
$AUPREC
 70
     0
  9
$MENU
  1
.
  9
$ELEVATION
 40
0.0
  9
$PELEVATION
 40
0.0
  9
$THICKNESS
 40
0.0
  9
$LIMCHECK
 70
     0
  9
$CHAMFERA
 40
0.0
  9
$CHAMFERB
 40
0.0
  9
$CHAMFERC
 40
0.0
  9
$CHAMFERD
 40
0.0
  9
$SKPOLY
 70
     0
  9
$TDCREATE
 40
2458054.420078056
  9
$TDUCREATE
 40
2458054.378411389
  9
$TDUPDATE
 40
2458122.526382361
  9
$TDUUPDATE
 40
2458122.484715695
  9
$TDINDWG
 40
0.5092473611
  9
$TDUSRTIMER
 40
0.5092420023
  9
$USRTIMER
 70
     1
  9
$ANGBASE
 50
0.0
  9
$ANGDIR
 70
     0
  9
$PDMODE
 70
     0
  9
$PDSIZE
 40
0.0
  9
$PLINEWID
 40
0.0
  9
$SPLFRAME
 70
     0
  9
$SPLINETYPE
 70
     6
  9
$SPLINESEGS
 70
     8
  9
$HANDSEED
  5
2176
  9
$SURFTAB1
 70
     6
  9
$SURFTAB2
 70
     6
  9
$SURFTYPE
 70
     6
  9
$SURFU
 70
     6
  9
$SURFV
 70
     6
  9
$UCSBASE
  2

  9
$UCSNAME
  2

  9
$UCSORG
 10
0.0
 20
0.0
 30
0.0
  9
$UCSXDIR
 10
1.0
 20
0.0
 30
0.0
  9
$UCSYDIR
 10
0.0
 20
1.0
 30
0.0
  9
$UCSORTHOREF
  2

  9
$UCSORTHOVIEW
 70
     0
  9
$UCSORGTOP
 10
0.0
 20
0.0
 30
0.0
  9
$UCSORGBOTTOM
 10
0.0
 20
0.0
 30
0.0
  9
$UCSORGLEFT
 10
0.0
 20
0.0
 30
0.0
  9
$UCSORGRIGHT
 10
0.0
 20
0.0
 30
0.0
  9
$UCSORGFRONT
 10
0.0
 20
0.0
 30
0.0
  9
$UCSORGBACK
 10
0.0
 20
0.0
 30
0.0
  9
$PUCSBASE
  2

  9
$PUCSNAME
  2

  9
$PUCSORG
 10
0.0
 20
0.0
 30
0.0
  9
$PUCSXDIR
 10
1.0
 20
0.0
 30
0.0
  9
$PUCSYDIR
 10
0.0
 20
1.0
 30
0.0
  9
$PUCSORTHOREF
  2

  9
$PUCSORTHOVIEW
 70
     0
  9
$PUCSORGTOP
 10
0.0
 20
0.0
 30
0.0
  9
$PUCSORGBOTTOM
 10
0.0
 20
0.0
 30
0.0
  9
$PUCSORGLEFT
 10
0.0
 20
0.0
 30
0.0
  9
$PUCSORGRIGHT
 10
0.0
 20
0.0
 30
0.0
  9
$PUCSORGFRONT
 10
0.0
 20
0.0
 30
0.0
  9
$PUCSORGBACK
 10
0.0
 20
0.0
 30
0.0
  9
$USERI1
 70
     0
  9
$USERI2
 70
     0
  9
$USERI3
 70
     0
  9
$USERI4
 70
     0
  9
$USERI5
 70
     0
  9
$USERR1
 40
0.0
  9
$USERR2
 40
0.0
  9
$USERR3
 40
0.0
  9
$USERR4
 40
0.0
  9
$USERR5
 40
0.0
  9
$WORLDVIEW
 70
     1
  9
$SHADEDGE
 70
     3
  9
$SHADEDIF
 70
    70
  9
$TILEMODE
 70
     1
  9
$MAXACTVP
 70
    64
  9
$PINSBASE
 10
0.0
 20
0.0
 30
0.0
  9
$PLIMCHECK
 70
     0
  9
$PEXTMIN
 10
1.049999952316283
 20
0.7999999523162842
 30
0.0
  9
$PEXTMAX
 10
9.449999570846559
 20
7.199999570846557
 30
0.0
  9
$PLIMMIN
 10
-0.2500002402958907
 20
-0.2499999962453767
  9
$PLIMMAX
 10
10.74999951940822
 20
8.249999763458731
  9
$UNITMODE
 70
     0
  9
$VISRETAIN
 70
     1
  9
$PLINEGEN
 70
     0
  9
$PSLTSCALE
 70
     1
  9
$TREEDEPTH
 70
  3020
  9
$CMLSTYLE
  2
Standard
  9
$CMLJUST
 70
     0
  9
$CMLSCALE
 40
1.0
  9
$PROXYGRAPHICS
 70
     1
  9
$MEASUREMENT
 70
     0
  9
$CELWEIGHT
370
    -1
  9
$ENDCAPS
280
     0
  9
$JOINSTYLE
280
     0
  9
$LWDISPLAY
290
     0
  9
$INSUNITS
 70
     1
  9
$HYPERLINKBASE
  1

  9
$STYLESHEET
  1

  9
$XEDIT
290
     1
  9
$CEPSNTYPE
380
     0
  9
$PSTYLEMODE
290
     1
  9
$FINGERPRINTGUID
  2
{998C5D5B-B615-4DE9-B764-6678AD7D1412}
  9
$VERSIONGUID
  2
{52B54CC6-5295-4178-93D3-B6E95BB9E0A4}
  9
$EXTNAMES
290
     1
  9
$PSVPSCALE
 40
0.0
  9
$OLESTARTUP
290
     0
  0
ENDSEC
  0
SECTION
  2
CLASSES
  0
CLASS
  1
ACDBDICTIONARYWDFLT
  2
AcDbDictionaryWithDefault
  3
ObjectDBX Classes
 90
        0
280
     0
281
     0
  0
CLASS
  1
DICTIONARYVAR
  2
AcDbDictionaryVar
  3
ObjectDBX Classes
 90
        0
280
     0
281
     0
  0
CLASS
  1
TABLESTYLE
  2
AcDbTableStyle
  3
ObjectDBX Classes
 90
     4095
280
     0
281
     0
  0
CLASS
  1
MATERIAL
  2
AcDbMaterial
  3
ObjectDBX Classes
 90
     1153
280
     0
281
     0
  0
CLASS
  1
VISUALSTYLE
  2
AcDbVisualStyle
  3
ObjectDBX Classes
 90
     4095
280
     0
281
     0
  0
CLASS
  1
SCALE
  2
AcDbScale
  3
ObjectDBX Classes
 90
     1153
280
     0
281
     0
  0
CLASS
  1
MLEADERSTYLE
  2
AcDbMLeaderStyle
  3
ACDB_MLEADERSTYLE_CLASS
 90
     4095
280
     0
281
     0
  0
CLASS
  1
CELLSTYLEMAP
  2
AcDbCellStyleMap
  3
ObjectDBX Classes
 90
     1152
280
     0
281
     0
  0
CLASS
  1
EXACXREFPANELOBJECT
  2
ExAcXREFPanelObject
  3
EXAC_ESW
 90
    33793
280
     0
281
     0
  0
CLASS
  1
NPOCOLLECTION
  2
AcDbImpNonPersistentObjectsCollection
  3
ObjectDBX Classes
 90
    33921
280
     0
281
     0
  0
CLASS
  1
LAYER_INDEX
  2
AcDbLayerIndex
  3
ObjectDBX Classes
 90
    32768
280
     0
281
     0
  0
CLASS
  1
SPATIAL_INDEX
  2
AcDbSpatialIndex
  3
ObjectDBX Classes
 90
    32768
280
     0
281
     0
  0
CLASS
  1
IDBUFFER
  2
AcDbIdBuffer
  3
ObjectDBX Classes
 90
    32768
280
     0
281
     0
  0
CLASS
  1
ACDBSECTIONVIEWSTYLE
  2
AcDbSectionViewStyle
  3
ObjectDBX Classes
 90
     1025
280
     0
281
     0
  0
CLASS
  1
ACDBDETAILVIEWSTYLE
  2
AcDbDetailViewStyle
  3
ObjectDBX Classes
 90
     1025
280
     0
281
     0
  0
CLASS
  1
RAPIDRTRENDERSETTINGS
  2
AcDbRapidRTRenderSettings
  3
ObjectDBX Classes
 90
     1024
280
     0
281
     0
  0
CLASS
  1
DIMASSOC
  2
AcDbDimAssoc
  3
"AcDbDimAssoc|Product Desc:     AcDim ARX App For Dimension|Company:          Autodesk, Inc.|WEB Address:      www.autodesk.com"
 90
        0
280
     0
281
     0
  0
CLASS
  1
SORTENTSTABLE
  2
AcDbSortentsTable
  3
ObjectDBX Classes
 90
        0
280
     0
281
     0
  0
CLASS
  1
MENTALRAYRENDERSETTINGS
  2
AcDbMentalRayRenderSettings
  3
SCENEOE
 90
     1024
280
     0
281
     0
  0
CLASS
  1
ACDBPLACEHOLDER
  2
AcDbPlaceHolder
  3
ObjectDBX Classes
 90
        0
280
     0
281
     0
  0
CLASS
  1
LAYOUT
  2
AcDbLayout
  3
ObjectDBX Classes
 90
        0
280
     0
281
     0
  0
ENDSEC
  0
SECTION
  2
TABLES
  0
TABLE
  2
VPORT
  5
8
330
0
100
AcDbSymbolTable
 70
     1
  0
VPORT
  5
94
330
8
100
AcDbSymbolTableRecord
100
AcDbViewportTableRecord
  2
*Active
 70
     0
 10
0.0
 20
0.0
 11
1.0
 21
1.0
 12
937.5475412740744
 22
-1916.91921928471
 13
0.0
 23
0.0
 14
0.5
 24
0.5
 15
0.5
 25
0.5
 16
0.0
 26
0.0
 36
1.0
 17
0.0
 27
0.0
 37
0.0
 40
326.6799251409097
 41
2.108967082860385
 42
50.0
 43
0.0
 44
0.0
 50
0.0
 51
0.0
 71
     0
 72
  1000
 73
     1
 74
     3
 75
     1
 76
     0
 77
     0
 78
     0
281
     0
 65
     1
110
0.0
120
0.0
130
0.0
111
1.0
121
0.0
131
0.0
112
0.0
122
1.0
132
0.0
 79
     0
146
0.0
1001
ACAD_NAV_VCDISPLAY
1070
     3
  0
ENDTAB
  0
TABLE
  2
LTYPE
  5
5
330
0
100
AcDbSymbolTable
 70
     4
  0
LTYPE
  5
14
330
5
100
AcDbSymbolTableRecord
100
AcDbLinetypeTableRecord
  2
ByBlock
 70
     0
  3

 72
    65
 73
     0
 40
0.0
  0
LTYPE
  5
15
330
5
100
AcDbSymbolTableRecord
100
AcDbLinetypeTableRecord
  2
ByLayer
 70
     0
  3

 72
    65
 73
     0
 40
0.0
  0
LTYPE
  5
16
330
5
100
AcDbSymbolTableRecord
100
AcDbLinetypeTableRecord
  2
Continuous
 70
     0
  3
Solid line
 72
    65
 73
     0
 40
0.0
  0
LTYPE
  5
250
330
5
100
AcDbSymbolTableRecord
100
AcDbLinetypeTableRecord
  2
ACAD_ISO08W100
 70
     0
  3
ISO long-dash short-dash ____ __ ____ __ ____ _
 72
    65
 73
     4
 40
36.0
 49
24.0
 74
     0
 49
-3.0
 74
     0
 49
6.0
 74
     0
 49
-3.0
 74
     0
  0
ENDTAB
  0
TABLE
  2
LAYER
  5
2
102
{ACAD_XDICTIONARY
360
18E
102
}
330
0
100
AcDbSymbolTable
 70
     5
  0
LAYER
  5
10
102
{ACAD_XDICTIONARY
360
E6
102
}
330
2
100
AcDbSymbolTableRecord
100
AcDbLayerTableRecord
  2
0
 70
     0
 62
     7
  6
Continuous
370
     5
390
F
  0
LAYER
  5
248
330
2
100
AcDbSymbolTableRecord
100
AcDbLayerTableRecord
  2
coupe
 70
     0
 62
     7
  6
ACAD_ISO08W100
370
     5
390
F
1001
AcAecLayerStandard
1000

1000

1001
AcCmTransparency
1071
        0
  0
LAYER
  5
263
330
2
100
AcDbSymbolTableRecord
100
AcDbLayerTableRecord
  2
usinage
 70
     0
 62
     7
  6
Continuous
370
    30
390
F
1001
AcAecLayerStandard
1000

1000

1001
AcCmTransparency
1071
        0
  0
LAYER
  5
26D
330
2
100
AcDbSymbolTableRecord
100
AcDbLayerTableRecord
  2
cotes
 70
     0
 62
     7
  6
Continuous
370
    -3
390
F
1001
AcAecLayerStandard
1000

1000

1001
AcCmTransparency
1071
        0
  0
LAYER
  5
2AB
330
2
100
AcDbSymbolTableRecord
100
AcDbLayerTableRecord
  2
Defpoints
 70
     0
 62
     7
  6
Continuous
290
     0
370
    -3
390
F
  0
ENDTAB
  0
TABLE
  2
STYLE
  5
3
330
0
100
AcDbSymbolTable
 70
     3
  0
STYLE
  5
11
330
3
100
AcDbSymbolTableRecord
100
AcDbTextStyleTableRecord
  2
Standard
 70
     0
 40
0.0
 41
1.0
 50
0.0
 71
     0
 42
0.2
  3
arial.ttf
  4

1001
ACAD
1000
Arial
1071
       34
  0
STYLE
  5
DC
330
3
100
AcDbSymbolTableRecord
100
AcDbTextStyleTableRecord
  2
Annotative
 70
     0
 40
0.0
 41
1.0
 50
0.0
 71
     0
 42
0.2
  3
arial.ttf
  4

1001
AcadAnnotative
1000
AnnotativeData
1002
{
1070
     1
1070
     1
1002
}
1001
ACAD
1000
Arial
1071
       34
  0
STYLE
  5
24F
330
3
100
AcDbSymbolTableRecord
100
AcDbTextStyleTableRecord
  2

 70
     1
 40
0.0
 41
1.0
 50
0.0
 71
     0
 42
0.2
  3
ltypeshp.shx
  4

  0
ENDTAB
  0
TABLE
  2
VIEW
  5
6
330
0
100
AcDbSymbolTable
 70
     0
  0
ENDTAB
  0
TABLE
  2
UCS
  5
7
330
0
100
AcDbSymbolTable
 70
     0
  0
ENDTAB
  0
TABLE
  2
APPID
  5
9
330
0
100
AcDbSymbolTable
 70
    16
  0
APPID
  5
12
330
9
100
AcDbSymbolTableRecord
100
AcDbRegAppTableRecord
  2
ACAD
 70
     0
  0
APPID
  5
DD
330
9
100
AcDbSymbolTableRecord
100
AcDbRegAppTableRecord
  2
AcadAnnoPO
 70
     0
  0
APPID
  5
DE
330
9
100
AcDbSymbolTableRecord
100
AcDbRegAppTableRecord
  2
AcadAnnotative
 70
     0
  0
APPID
  5
DF
330
9
100
AcDbSymbolTableRecord
100
AcDbRegAppTableRecord
  2
ACAD_DSTYLE_DIMJAG
 70
     0
  0
APPID
  5
E0
330
9
100
AcDbSymbolTableRecord
100
AcDbRegAppTableRecord
  2
ACAD_DSTYLE_DIMTALN
 70
     0
  0
APPID
  5
107
330
9
100
AcDbSymbolTableRecord
100
AcDbRegAppTableRecord
  2
ACAD_MLEADERVER
 70
     0
  0
APPID
  5
1A6
330
9
100
AcDbSymbolTableRecord
100
AcDbRegAppTableRecord
  2
ACAD_NAV_VCDISPLAY
 70
     0
  0
APPID
  5
20C
330
9
100
AcDbSymbolTableRecord
100
AcDbRegAppTableRecord
  2
ACAD_EXEMPT_FROM_CAD_STANDARDS
 70
     0
  0
APPID
  5
249
330
9
100
AcDbSymbolTableRecord
100
AcDbRegAppTableRecord
  2
AcAecLayerStandard
 70
     0
  0
APPID
  5
24A
330
9
100
AcDbSymbolTableRecord
100
AcDbRegAppTableRecord
  2
AcCmTransparency
 70
     0
  0
APPID
  5
2A9
330
9
100
AcDbSymbolTableRecord
100
AcDbRegAppTableRecord
  2
ACAD_DSTYLE_DIMBREAK
 70
     0
  0
APPID
  5
2C5
330
9
100
AcDbSymbolTableRecord
100
AcDbRegAppTableRecord
  2
AcadAnnoMonitorAlertIconDisabled
 70
     0
  0
APPID
  5
425
330
9
100
AcDbSymbolTableRecord
100
AcDbRegAppTableRecord
  2
GradientColor1ACI
 70
     0
  0
APPID
  5
426
330
9
100
AcDbSymbolTableRecord
100
AcDbRegAppTableRecord
  2
GradientColor2ACI
 70
     0
  0
APPID
  5
44C
330
9
100
AcDbSymbolTableRecord
100
AcDbRegAppTableRecord
  2
ACAD_PSEXT
 70
     0
  0
APPID
  5
4D5
330
9
100
AcDbSymbolTableRecord
100
AcDbRegAppTableRecord
  2
ACAD_DSTYLE_DIMRADIAL_EXTENSION
 70
     0
  0
ENDTAB
  0
TABLE
  2
DIMSTYLE
  5
A
330
0
100
AcDbSymbolTable
 70
     3
100
AcDbDimStyleTable
 71
     2
340
27
340
E1
  0
DIMSTYLE
105
27
102
{ACAD_REACTORS
330
1D2F
330
1D49
330
1D63
330
1D82
330
1D98
330
1F8E
330
1FC6
330
2026
330
2068
330
20A8
102
}
330
A
100
AcDbSymbolTableRecord
100
AcDbDimStyleTableRecord
  2
Standard
 70
     0
340
11
  0
DIMSTYLE
105
E1
330
A
100
AcDbSymbolTableRecord
100
AcDbDimStyleTableRecord
  2
Annotative
 70
     0
 40
0.0
340
11
1001
AcadAnnotative
1000
AnnotativeData
1002
{
1070
     1
1070
     1
1002
}
1001
ACAD_DSTYLE_DIMJAG
1070
   388
1040
1.5
1001
ACAD_DSTYLE_DIMTALN
1070
   392
1070
     0
  0
ENDTAB
  0
TABLE
  2
BLOCK_RECORD
  5
1
330
0
100
AcDbSymbolTable
 70
    55
  0
BLOCK_RECORD
  5
1F
102
{ACAD_XDICTIONARY
360
15D
102
}
330
1
100
AcDbSymbolTableRecord
100
AcDbBlockTableRecord
  2
*Model_Space
340
22
  0
BLOCK_RECORD
  5
58
330
1
100
AcDbSymbolTableRecord
100
AcDbBlockTableRecord
  2
*Paper_Space
340
59
  0
BLOCK_RECORD
  5
5D
330
1
100
AcDbSymbolTableRecord
100
AcDbBlockTableRecord
  2
*Paper_Space0
340
5E
  0
BLOCK_RECORD
  5
D03
330
1
100
AcDbSymbolTableRecord
100
AcDbBlockTableRecord
  2
*D1
340
0
  0
BLOCK_RECORD
  5
D37
330
1
100
AcDbSymbolTableRecord
100
AcDbBlockTableRecord
  2
*D2
340
0
  0
BLOCK_RECORD
  5
D45
330
1
100
AcDbSymbolTableRecord
100
AcDbBlockTableRecord
  2
*D3
340
0
  0
BLOCK_RECORD
  5
D5F
330
1
100
AcDbSymbolTableRecord
100
AcDbBlockTableRecord
  2
*D4
340
0
  0
BLOCK_RECORD
  5
D73
330
1
100
AcDbSymbolTableRecord
100
AcDbBlockTableRecord
  2
*D5
340
0
  0
BLOCK_RECORD
  5
E13
330
1
100
AcDbSymbolTableRecord
100
AcDbBlockTableRecord
  2
*D6
340
0
  0
BLOCK_RECORD
  5
E27
330
1
100
AcDbSymbolTableRecord
100
AcDbBlockTableRecord
  2
*D7
340
0
  0
BLOCK_RECORD
  5
E3B
330
1
100
AcDbSymbolTableRecord
100
AcDbBlockTableRecord
  2
*D8
340
0
  0
BLOCK_RECORD
  5
103E
330
1
100
AcDbSymbolTableRecord
100
AcDbBlockTableRecord
  2
*D9
340
0
  0
BLOCK_RECORD
  5
105A
330
1
100
AcDbSymbolTableRecord
100
AcDbBlockTableRecord
  2
*D10
340
0
  0
BLOCK_RECORD
  5
12E4
330
1
100
AcDbSymbolTableRecord
100
AcDbBlockTableRecord
  2
*D11
340
0
  0
BLOCK_RECORD
  5
1306
330
1
100
AcDbSymbolTableRecord
100
AcDbBlockTableRecord
  2
*D12
340
0
  0
BLOCK_RECORD
  5
1314
330
1
100
AcDbSymbolTableRecord
100
AcDbBlockTableRecord
  2
*D13
340
0
  0
BLOCK_RECORD
  5
1404
330
1
100
AcDbSymbolTableRecord
100
AcDbBlockTableRecord
  2
*D14
340
0
  0
BLOCK_RECORD
  5
1813
330
1
100
AcDbSymbolTableRecord
100
AcDbBlockTableRecord
  2
*D15
340
0
  0
BLOCK_RECORD
  5
1820
330
1
100
AcDbSymbolTableRecord
100
AcDbBlockTableRecord
  2
*D16
340
0
  0
BLOCK_RECORD
  5
182D
330
1
100
AcDbSymbolTableRecord
100
AcDbBlockTableRecord
  2
*D17
340
0
  0
BLOCK_RECORD
  5
1837
330
1
100
AcDbSymbolTableRecord
100
AcDbBlockTableRecord
  2
*D18
340
0
  0
BLOCK_RECORD
  5
1841
330
1
100
AcDbSymbolTableRecord
100
AcDbBlockTableRecord
  2
*D19
340
0
  0
BLOCK_RECORD
  5
1855
330
1
100
AcDbSymbolTableRecord
100
AcDbBlockTableRecord
  2
*D20
340
0
  0
BLOCK_RECORD
  5
18E0
330
1
100
AcDbSymbolTableRecord
100
AcDbBlockTableRecord
  2
*D21
340
0
  0
BLOCK_RECORD
  5
18ED
330
1
100
AcDbSymbolTableRecord
100
AcDbBlockTableRecord
  2
*D22
340
0
  0
BLOCK_RECORD
  5
18FA
330
1
100
AcDbSymbolTableRecord
100
AcDbBlockTableRecord
  2
*D23
340
0
  0
BLOCK_RECORD
  5
1904
330
1
100
AcDbSymbolTableRecord
100
AcDbBlockTableRecord
  2
*D24
340
0
  0
BLOCK_RECORD
  5
1918
330
1
100
AcDbSymbolTableRecord
100
AcDbBlockTableRecord
  2
*D25
340
0
  0
BLOCK_RECORD
  5
193A
330
1
100
AcDbSymbolTableRecord
100
AcDbBlockTableRecord
  2
*D26
340
0
  0
BLOCK_RECORD
  5
1957
330
1
100
AcDbSymbolTableRecord
100
AcDbBlockTableRecord
  2
*D27
340
0
  0
BLOCK_RECORD
  5
196F
330
1
100
AcDbSymbolTableRecord
100
AcDbBlockTableRecord
  2
*D28
340
0
  0
BLOCK_RECORD
  5
19B6
330
1
100
AcDbSymbolTableRecord
100
AcDbBlockTableRecord
  2
*D29
340
0
  0
BLOCK_RECORD
  5
19C3
330
1
100
AcDbSymbolTableRecord
100
AcDbBlockTableRecord
  2
*D30
340
0
  0
BLOCK_RECORD
  5
19D0
330
1
100
AcDbSymbolTableRecord
100
AcDbBlockTableRecord
  2
*D31
340
0
  0
BLOCK_RECORD
  5
19DD
330
1
100
AcDbSymbolTableRecord
100
AcDbBlockTableRecord
  2
*D32
340
0
  0
BLOCK_RECORD
  5
19EA
330
1
100
AcDbSymbolTableRecord
100
AcDbBlockTableRecord
  2
*D33
340
0
  0
BLOCK_RECORD
  5
19F7
330
1
100
AcDbSymbolTableRecord
100
AcDbBlockTableRecord
  2
*D34
340
0
  0
BLOCK_RECORD
  5
1A04
330
1
100
AcDbSymbolTableRecord
100
AcDbBlockTableRecord
  2
*D35
340
0
  0
BLOCK_RECORD
  5
1A11
330
1
100
AcDbSymbolTableRecord
100
AcDbBlockTableRecord
  2
*D36
340
0
  0
BLOCK_RECORD
  5
1A1E
330
1
100
AcDbSymbolTableRecord
100
AcDbBlockTableRecord
  2
*D37
340
0
  0
BLOCK_RECORD
  5
1A28
330
1
100
AcDbSymbolTableRecord
100
AcDbBlockTableRecord
  2
*D38
340
0
  0
BLOCK_RECORD
  5
1A32
330
1
100
AcDbSymbolTableRecord
100
AcDbBlockTableRecord
  2
*D39
340
0
  0
BLOCK_RECORD
  5
1A46
330
1
100
AcDbSymbolTableRecord
100
AcDbBlockTableRecord
  2
*D40
340
0
  0
BLOCK_RECORD
  5
1A6E
330
1
100
AcDbSymbolTableRecord
100
AcDbBlockTableRecord
  2
*D41
340
0
  0
BLOCK_RECORD
  5
1A78
330
1
100
AcDbSymbolTableRecord
100
AcDbBlockTableRecord
  2
*D42
340
0
  0
BLOCK_RECORD
  5
1BEE
330
1
100
AcDbSymbolTableRecord
100
AcDbBlockTableRecord
  2
*D43
340
0
  0
BLOCK_RECORD
  5
1D30
330
1
100
AcDbSymbolTableRecord
100
AcDbBlockTableRecord
  2
*D44
340
0
  0
BLOCK_RECORD
  5
1D4A
330
1
100
AcDbSymbolTableRecord
100
AcDbBlockTableRecord
  2
*D45
340
0
  0
BLOCK_RECORD
  5
1D64
330
1
100
AcDbSymbolTableRecord
100
AcDbBlockTableRecord
  2
*D46
340
0
  0
BLOCK_RECORD
  5
1D83
330
1
100
AcDbSymbolTableRecord
100
AcDbBlockTableRecord
  2
*D47
340
0
  0
BLOCK_RECORD
  5
1D99
330
1
100
AcDbSymbolTableRecord
100
AcDbBlockTableRecord
  2
*D48
340
0
  0
BLOCK_RECORD
  5
1F91
330
1
100
AcDbSymbolTableRecord
100
AcDbBlockTableRecord
  2
*D50
340
0
  0
BLOCK_RECORD
  5
1FC9
330
1
100
AcDbSymbolTableRecord
100
AcDbBlockTableRecord
  2
*D51
340
0
  0
BLOCK_RECORD
  5
2029
330
1
100
AcDbSymbolTableRecord
100
AcDbBlockTableRecord
  2
*D52
340
0
  0
BLOCK_RECORD
  5
2069
330
1
100
AcDbSymbolTableRecord
100
AcDbBlockTableRecord
  2
*D53
340
0
  0
BLOCK_RECORD
  5
20A9
330
1
100
AcDbSymbolTableRecord
100
AcDbBlockTableRecord
  2
*D54
340
0
  0
ENDTAB
  0
ENDSEC
  0
SECTION
  2
BLOCKS
  0
BLOCK
  5
20
330
1F
100
AcDbEntity
  8
0
100
AcDbBlockBegin
  2
*Model_Space
 70
     0
 10
0.0
 20
0.0
 30
0.0
  3
*Model_Space
  1

  0
ENDBLK
  5
21
330
1F
100
AcDbEntity
  8
0
100
AcDbBlockEnd
  0
BLOCK
  5
5A
330
58
100
AcDbEntity
 67
     1
  8
0
100
AcDbBlockBegin
  2
*Paper_Space
 70
     0
 10
0.0
 20
0.0
 30
0.0
  3
*Paper_Space
  1

  0
ENDBLK
  5
5B
330
58
100
AcDbEntity
 67
     1
  8
0
100
AcDbBlockEnd
  0
BLOCK
  5
5F
330
5D
100
AcDbEntity
 67
     1
  8
0
100
AcDbBlockBegin
  2
*Paper_Space0
 70
     0
 10
0.0
 20
0.0
 30
0.0
  3
*Paper_Space0
  1

  0
ENDBLK
  5
60
330
5D
100
AcDbEntity
 67
     1
  8
0
100
AcDbBlockEnd
  0
BLOCK
  5
D04
330
D03
100
AcDbEntity
  8
0
100
AcDbBlockBegin
  2
*D1
 70
     1
 10
0.0
 20
0.0
 30
0.0
  3
*D1
  1

  0
LINE
  5
175C
330
D03
100
AcDbEntity
  8
cotes
 62
     0
370
    -2
100
AcDbLine
 10
-231.858065900114
 20
-364.2889828358701
 30
0.0
 11
-246.9233739623206
 21
-364.2889828358701
 31
0.0
  0
LINE
  5
175D
330
D03
100
AcDbEntity
  8
cotes
 62
     0
370
    -2
100
AcDbLine
 10
-231.8580659001139
 20
-464.2889828358701
 30
0.0
 11
-246.9233739623206
 21
-464.2889828358701
 31
0.0
  0
LINE
  5
175E
330
D03
100
AcDbEntity
  8
cotes
 62
     0
370
    -3
100
AcDbLine
 10
-246.7433739623206
 20
-374.2889828358701
 30
0.0
 11
-246.7433739623206
 21
-411.6461178972616
 31
0.0
  0
LINE
  5
175F
330
D03
100
AcDbEntity
  8
cotes
 62
     0
370
    -3
100
AcDbLine
 10
-246.7433739623206
 20
-454.28898283587
 30
0.0
 11
-246.7433739623206
 21
-416.9318477744785
 31
0.0
  0
SOLID
  5
1760
330
D03
100
AcDbEntity
  8
cotes
 62
     0
100
AcDbTrace
 10
-248.4100406289872
 20
-374.2889828358701
 30
0.0
 11
-245.0767072956539
 21
-374.2889828358701
 31
0.0
 12
-246.7433739623206
 22
-364.2889828358701
 32
0.0
 13
-246.7433739623206
 23
-364.2889828358701
 33
0.0
  0
SOLID
  5
1761
330
D03
100
AcDbEntity
  8
cotes
 62
     0
100
AcDbTrace
 10
-248.4100406289873
 20
-454.28898283587
 30
0.0
 11
-245.0767072956539
 21
-454.28898283587
 31
0.0
 12
-246.7433739623206
 22
-464.2889828358701
 32
0.0
 13
-246.7433739623206
 23
-464.2889828358701
 33
0.0
  0
MTEXT
  5
1762
330
D03
100
AcDbEntity
  8
cotes
 62
     0
100
AcDbMText
 10
-246.7433739623206
 20
-414.2889828358701
 30
0.0
 40
5.0
 41
0.0
 71
     5
 72
     1
  1
\A1;100.0
 73
     1
 44
1.0
1001
ACAD
1000
MTEXTBEGIN
1070
    73
1070
     1
1070
    44
1040
1.0
1070
    74
1070
     0
1000
MTEXTEND
  0
POINT
  5
1763
330
D03
100
AcDbEntity
  8
Defpoints
 62
     0
100
AcDbPoint
 10
-231.795565900114
 20
-364.2889828358701
 30
0.0
  0
POINT
  5
1764
330
D03
100
AcDbEntity
  8
Defpoints
 62
     0
100
AcDbPoint
 10
-231.7955659001139
 20
-464.2889828358701
 30
0.0
  0
POINT
  5
1765
330
D03
100
AcDbEntity
  8
Defpoints
 62
     0
100
AcDbPoint
 10
-246.7433739623206
 20
-464.2889828358701
 30
0.0
  0
ENDBLK
  5
D05
330
D03
100
AcDbEntity
  8
0
100
AcDbBlockEnd
  0
BLOCK
  5
D38
330
D37
100
AcDbEntity
  8
0
100
AcDbBlockBegin
  2
*D2
 70
     1
 10
0.0
 20
0.0
 30
0.0
  3
*D2
  1

  0
LINE
  5
17E7
330
D37
100
AcDbEntity
  8
cotes
 62
     0
370
    -2
100
AcDbLine
 10
-231.615565900114
 20
-423.4131789096893
 30
0.0
 11
-231.615565900114
 21
-521.5510943946036
 31
0.0
  0
LINE
  5
17E8
330
D37
100
AcDbEntity
  8
cotes
 62
     0
370
    -2
100
AcDbLine
 10
268.384434099886
 20
-423.4131789096893
 30
0.0
 11
268.384434099886
 21
-521.5510943946036
 31
0.0
  0
LINE
  5
17E9
330
D37
100
AcDbEntity
  8
cotes
 62
     0
370
    -3
100
AcDbLine
 10
-221.6155659001139
 20
-521.3710943946038
 30
0.0
 11
9.866739693337589
 21
-521.3710943946038
 31
0.0
  0
LINE
  5
17EA
330
D37
100
AcDbEntity
  8
cotes
 62
     0
370
    -3
100
AcDbLine
 10
258.384434099886
 20
-521.3710943946038
 30
0.0
 11
26.90212850643446
 21
-521.3710943946038
 31
0.0
  0
SOLID
  5
17EB
330
D37
100
AcDbEntity
  8
cotes
 62
     0
100
AcDbTrace
 10
-221.6155659001139
 20
-519.7044277279371
 30
0.0
 11
-221.6155659001139
 21
-523.0377610612703
 31
0.0
 12
-231.615565900114
 22
-521.3710943946038
 32
0.0
 13
-231.615565900114
 23
-521.3710943946038
 33
0.0
  0
SOLID
  5
17EC
330
D37
100
AcDbEntity
  8
cotes
 62
     0
100
AcDbTrace
 10
258.384434099886
 20
-519.7044277279371
 30
0.0
 11
258.384434099886
 21
-523.0377610612703
 31
0.0
 12
268.384434099886
 22
-521.3710943946038
 32
0.0
 13
268.384434099886
 23
-521.3710943946038
 33
0.0
  0
MTEXT
  5
17ED
330
D37
100
AcDbEntity
  8
cotes
 62
     0
100
AcDbMText
 10
18.38443409988602
 20
-521.3710943946038
 30
0.0
 40
5.0
 41
0.0
 71
     5
 72
     1
  1
\A1;500.0
 73
     1
 44
1.0
1001
ACAD
1000
MTEXTBEGIN
1070
    73
1070
     1
1070
    44
1040
1.0
1070
    74
1070
     0
1000
MTEXTEND
  0
POINT
  5
17EE
330
D37
100
AcDbEntity
  8
Defpoints
 62
     0
100
AcDbPoint
 10
-231.615565900114
 20
-423.3506789096892
 30
0.0
  0
POINT
  5
17EF
330
D37
100
AcDbEntity
  8
Defpoints
 62
     0
100
AcDbPoint
 10
268.384434099886
 20
-423.3506789096893
 30
0.0
  0
POINT
  5
17F0
330
D37
100
AcDbEntity
  8
Defpoints
 62
     0
100
AcDbPoint
 10
268.384434099886
 20
-521.3710943946038
 30
0.0
  0
ENDBLK
  5
D39
330
D37
100
AcDbEntity
  8
0
100
AcDbBlockEnd
  0
BLOCK
  5
D46
330
D45
100
AcDbEntity
  8
0
100
AcDbBlockBegin
  2
*D3
 70
     1
 10
0.0
 20
0.0
 30
0.0
  3
*D3
  1

  0
LINE
  5
1770
330
D45
100
AcDbEntity
  8
cotes
 62
     0
370
    -2
100
AcDbLine
 10
18.26693409988603
 20
-278.334220665797
 30
0.0
 11
18.38443409988604
 21
-278.334220665797
 31
0.0
  0
LINE
  5
1771
330
D45
100
AcDbEntity
  8
cotes
 62
     0
370
    -2
100
AcDbLine
 10
18.14193409988602
 20
-350.834220665797
 30
0.0
 11
18.02443409988602
 21
-350.834220665797
 31
0.0
  0
LINE
  5
1772
330
D45
100
AcDbEntity
  8
cotes
 62
     0
370
    -3
100
AcDbLine
 10
18.20443409988604
 20
-288.334220665797
 30
0.0
 11
18.20443409988603
 21
-311.9413557271885
 31
0.0
  0
LINE
  5
1773
330
D45
100
AcDbEntity
  8
cotes
 62
     0
370
    -3
100
AcDbLine
 10
18.20443409988603
 20
-340.834220665797
 30
0.0
 11
18.20443409988603
 21
-317.2270856044054
 31
0.0
  0
SOLID
  5
1774
330
D45
100
AcDbEntity
  8
cotes
 62
     0
100
AcDbTrace
 10
16.53776743321937
 20
-288.334220665797
 30
0.0
 11
19.87110076655271
 21
-288.334220665797
 31
0.0
 12
18.20443409988604
 22
-278.334220665797
 32
0.0
 13
18.20443409988604
 23
-278.334220665797
 33
0.0
  0
SOLID
  5
1775
330
D45
100
AcDbEntity
  8
cotes
 62
     0
100
AcDbTrace
 10
16.53776743321936
 20
-340.834220665797
 30
0.0
 11
19.8711007665527
 21
-340.834220665797
 31
0.0
 12
18.20443409988602
 22
-350.834220665797
 32
0.0
 13
18.20443409988602
 23
-350.834220665797
 33
0.0
  0
MTEXT
  5
1776
330
D45
100
AcDbEntity
  8
cotes
 62
     0
100
AcDbMText
 10
18.20443409988608
 20
-314.584220665797
 30
0.0
 40
5.0
 41
0.0
 71
     5
 72
     1
  1
\A1;72.5
 73
     1
 44
1.0
1001
ACAD
1000
MTEXTBEGIN
1070
    73
1070
     1
1070
    44
1040
1.0
1070
    74
1070
     0
1000
MTEXTEND
  0
POINT
  5
1777
330
D45
100
AcDbEntity
  8
Defpoints
 62
     0
100
AcDbPoint
 10
18.20443409988603
 20
-278.334220665797
 30
0.0
  0
POINT
  5
1778
330
D45
100
AcDbEntity
  8
Defpoints
 62
     0
100
AcDbPoint
 10
18.20443409988602
 20
-350.834220665797
 30
0.0
  0
POINT
  5
1779
330
D45
100
AcDbEntity
  8
Defpoints
 62
     0
100
AcDbPoint
 10
18.20443409988602
 20
-350.834220665797
 30
0.0
  0
ENDBLK
  5
D47
330
D45
100
AcDbEntity
  8
0
100
AcDbBlockEnd
  0
BLOCK
  5
D60
330
D5F
100
AcDbEntity
  8
0
100
AcDbBlockBegin
  2
*D4
 70
     1
 10
0.0
 20
0.0
 30
0.0
  3
*D4
  1

  0
LINE
  5
177A
330
D5F
100
AcDbEntity
  8
cotes
 62
     0
370
    -2
100
AcDbLine
 10
-197.5455659001139
 20
-384.2889828358701
 30
0.0
 11
-202.5455659001139
 21
-384.2889828358701
 31
0.0
  0
MTEXT
  5
177B
102
{ACAD_XDICTIONARY
360
2152
102
}
330
D5F
100
AcDbEntity
  8
cotes
 62
     0
370
    30
100
AcDbMText
 10
-190.1653203339474
 20
-384.2889828358701
 30
0.0
 40
5.0
 41
0.0
 71
     5
 72
     1
  1
\A1;\U+22058.5
 73
     1
 44
1.0
1001
ACAD
1000
MTEXTBEGIN
1070
    73
1070
     1
1070
    44
1040
1.0
1070
    74
1070
     0
1000
MTEXTEND
  0
SOLID
  5
177C
330
D5F
100
AcDbEntity
  8
cotes
 62
     0
100
AcDbTrace
 10
-202.5455659001139
 20
-383.4556495025367
 30
0.0
 11
-202.5455659001139
 21
-385.1223161692033
 31
0.0
 12
-207.5455659001139
 22
-384.2889828358701
 32
0.0
 13
-207.5455659001139
 23
-384.2889828358701
 33
0.0
  0
LINE
  5
177D
330
D5F
100
AcDbEntity
  8
cotes
 62
     0
370
    -2
100
AcDbLine
 10
-211.8855659001139
 20
-384.2889828358701
 30
0.0
 11
-211.7055659001139
 21
-384.2889828358701
 31
0.0
  0
LINE
  5
177E
330
D5F
100
AcDbEntity
  8
cotes
 62
     0
370
    -2
100
AcDbLine
 10
-211.7955659001139
 20
-384.37898283587
 30
0.0
 11
-211.7955659001139
 21
-384.1989828358702
 31
0.0
  0
POINT
  5
177F
330
D5F
100
AcDbEntity
  8
Defpoints
 62
     0
100
AcDbPoint
 10
-207.5455659001139
 20
-384.2889828358701
 30
0.0
  0
POINT
  5
1780
330
D5F
100
AcDbEntity
  8
Defpoints
 62
     0
100
AcDbPoint
 10
-216.0455659001139
 20
-384.2889828358701
 30
0.0
  0
ENDBLK
  5
D61
330
D5F
100
AcDbEntity
  8
0
100
AcDbBlockEnd
  0
BLOCK
  5
D74
330
D73
100
AcDbEntity
  8
0
100
AcDbBlockBegin
  2
*D5
 70
     1
 10
0.0
 20
0.0
 30
0.0
  3
*D5
  1

  0
LINE
  5
1781
330
D73
100
AcDbEntity
  8
cotes
 62
     0
370
    -2
100
AcDbLine
 10
-197.5455659001139
 20
-444.28898283587
 30
0.0
 11
-202.5455659001139
 21
-444.28898283587
 31
0.0
  0
MTEXT
  5
1782
102
{ACAD_XDICTIONARY
360
2154
102
}
330
D73
100
AcDbEntity
  8
cotes
 62
     0
100
AcDbMText
 10
-190.1653203339474
 20
-444.28898283587
 30
0.0
 40
5.0
 41
0.0
 71
     5
 72
     1
  1
\A1;\U+22058.5
 73
     1
 44
1.0
1001
ACAD
1000
MTEXTBEGIN
1070
    73
1070
     1
1070
    44
1040
1.0
1070
    74
1070
     0
1000
MTEXTEND
  0
SOLID
  5
1783
330
D73
100
AcDbEntity
  8
cotes
 62
     0
100
AcDbTrace
 10
-202.5455659001139
 20
-443.4556495025367
 30
0.0
 11
-202.5455659001139
 21
-445.1223161692033
 31
0.0
 12
-207.5455659001139
 22
-444.28898283587
 32
0.0
 13
-207.5455659001139
 23
-444.28898283587
 33
0.0
  0
LINE
  5
1784
330
D73
100
AcDbEntity
  8
cotes
 62
     0
370
    -2
100
AcDbLine
 10
-211.8855659001139
 20
-444.28898283587
 30
0.0
 11
-211.7055659001139
 21
-444.28898283587
 31
0.0
  0
LINE
  5
1785
330
D73
100
AcDbEntity
  8
cotes
 62
     0
370
    -2
100
AcDbLine
 10
-211.7955659001139
 20
-444.37898283587
 30
0.0
 11
-211.7955659001139
 21
-444.1989828358701
 31
0.0
  0
POINT
  5
1786
330
D73
100
AcDbEntity
  8
Defpoints
 62
     0
100
AcDbPoint
 10
-207.5455659001139
 20
-444.28898283587
 30
0.0
  0
POINT
  5
1787
330
D73
100
AcDbEntity
  8
Defpoints
 62
     0
100
AcDbPoint
 10
-216.0455659001139
 20
-444.28898283587
 30
0.0
  0
ENDBLK
  5
D75
330
D73
100
AcDbEntity
  8
0
100
AcDbBlockEnd
  0
BLOCK
  5
E14
330
E13
100
AcDbEntity
  8
0
100
AcDbBlockBegin
  2
*D6
 70
     1
 10
0.0
 20
0.0
 30
0.0
  3
*D6
  1

  0
LINE
  5
1788
330
E13
100
AcDbEntity
  8
cotes
 62
     0
370
    -2
100
AcDbLine
 10
-47.31080753613865
 20
-299.5689790297723
 30
0.0
 11
-42.31080753613867
 21
-299.5689790297723
 31
0.0
  0
MTEXT
  5
1789
102
{ACAD_XDICTIONARY
360
2156
102
}
330
E13
100
AcDbEntity
  8
cotes
 62
     0
100
AcDbMText
 10
-54.69105310230512
 20
-299.5689790297723
 30
0.0
 40
5.0
 41
0.0
 71
     5
 72
     1
  1
\A1;\U+22058.5
 73
     1
 44
1.0
1001
ACAD
1000
MTEXTBEGIN
1070
    73
1070
     1
1070
    44
1040
1.0
1070
    74
1070
     0
1000
MTEXTEND
  0
SOLID
  5
178A
330
E13
100
AcDbEntity
  8
cotes
 62
     0
100
AcDbTrace
 10
-42.31080753613867
 20
-298.735645696439
 30
0.0
 11
-42.31080753613867
 21
-300.4023123631057
 31
0.0
 12
-37.31080753613869
 22
-299.5689790297723
 32
0.0
 13
-37.31080753613869
 23
-299.5689790297723
 33
0.0
  0
LINE
  5
178B
330
E13
100
AcDbEntity
  8
cotes
 62
     0
370
    -2
100
AcDbLine
 10
-33.1508075361387
 20
-299.5689790297723
 30
0.0
 11
-32.97080753613868
 21
-299.5689790297723
 31
0.0
  0
LINE
  5
178C
330
E13
100
AcDbEntity
  8
cotes
 62
     0
370
    -2
100
AcDbLine
 10
-33.06080753613868
 20
-299.6589790297722
 30
0.0
 11
-33.06080753613868
 21
-299.4789790297723
 31
0.0
  0
POINT
  5
178D
330
E13
100
AcDbEntity
  8
Defpoints
 62
     0
100
AcDbPoint
 10
-37.31080753613869
 20
-299.5689790297723
 30
0.0
  0
POINT
  5
178E
330
E13
100
AcDbEntity
  8
Defpoints
 62
     0
100
AcDbPoint
 10
-28.81080753613869
 20
-299.5689790297723
 30
0.0
  0
ENDBLK
  5
E15
330
E13
100
AcDbEntity
  8
0
100
AcDbBlockEnd
  0
BLOCK
  5
E28
330
E27
100
AcDbEntity
  8
0
100
AcDbBlockBegin
  2
*D7
 70
     1
 10
0.0
 20
0.0
 30
0.0
  3
*D7
  1

  0
LINE
  5
178F
330
E27
100
AcDbEntity
  8
cotes
 62
     0
370
    -2
100
AcDbLine
 10
-47.31080753613865
 20
-402.0994623018215
 30
0.0
 11
-42.31080753613865
 21
-402.0994623018215
 31
0.0
  0
MTEXT
  5
1790
102
{ACAD_XDICTIONARY
360
2158
102
}
330
E27
100
AcDbEntity
  8
cotes
 62
     0
100
AcDbMText
 10
-54.6910531023051
 20
-402.0994623018215
 30
0.0
 40
5.0
 41
0.0
 71
     5
 72
     1
  1
\A1;\U+22058.5
 73
     1
 44
1.0
1001
ACAD
1000
MTEXTBEGIN
1070
    73
1070
     1
1070
    44
1040
1.0
1070
    74
1070
     0
1000
MTEXTEND
  0
SOLID
  5
1791
330
E27
100
AcDbEntity
  8
cotes
 62
     0
100
AcDbTrace
 10
-42.31080753613865
 20
-401.2661289684883
 30
0.0
 11
-42.31080753613865
 21
-402.932795635155
 31
0.0
 12
-37.31080753613865
 22
-402.0994623018215
 32
0.0
 13
-37.31080753613865
 23
-402.0994623018215
 33
0.0
  0
LINE
  5
1792
330
E27
100
AcDbEntity
  8
cotes
 62
     0
370
    -2
100
AcDbLine
 10
-33.15080753613866
 20
-402.0994623018215
 30
0.0
 11
-32.97080753613865
 21
-402.0994623018215
 31
0.0
  0
LINE
  5
1793
330
E27
100
AcDbEntity
  8
cotes
 62
     0
370
    -2
100
AcDbLine
 10
-33.06080753613866
 20
-402.1894623018217
 30
0.0
 11
-33.06080753613866
 21
-402.0094623018215
 31
0.0
  0
POINT
  5
1794
330
E27
100
AcDbEntity
  8
Defpoints
 62
     0
100
AcDbPoint
 10
-37.31080753613865
 20
-402.0994623018215
 30
0.0
  0
POINT
  5
1795
330
E27
100
AcDbEntity
  8
Defpoints
 62
     0
100
AcDbPoint
 10
-28.81080753613866
 20
-402.0994623018215
 30
0.0
  0
ENDBLK
  5
E29
330
E27
100
AcDbEntity
  8
0
100
AcDbBlockEnd
  0
BLOCK
  5
E3C
330
E3B
100
AcDbEntity
  8
0
100
AcDbBlockBegin
  2
*D8
 70
     1
 10
0.0
 20
0.0
 30
0.0
  3
*D8
  1

  0
LINE
  5
1796
330
E3B
100
AcDbEntity
  8
cotes
 62
     0
370
    -2
100
AcDbLine
 10
83.70443409988601
 20
-350.834220665797
 30
0.0
 11
78.70443409988602
 21
-350.834220665797
 31
0.0
  0
MTEXT
  5
1797
102
{ACAD_XDICTIONARY
360
215A
102
}
330
E3B
100
AcDbEntity
  8
cotes
 62
     0
100
AcDbMText
 10
94.94211486386964
 20
-350.834220665797
 30
0.0
 40
5.0
 41
0.0
 71
     5
 72
     1
  1
\A1;\U+2205111.0
 73
     1
 44
1.0
1001
ACAD
1000
MTEXTBEGIN
1070
    73
1070
     1
1070
    44
1040
1.0
1070
    74
1070
     0
1000
MTEXTEND
  0
SOLID
  5
1798
330
E3B
100
AcDbEntity
  8
cotes
 62
     0
100
AcDbTrace
 10
78.70443409988602
 20
-350.0008873324637
 30
0.0
 11
78.70443409988602
 21
-351.6675539991303
 31
0.0
 12
73.70443409988602
 22
-350.834220665797
 32
0.0
 13
73.70443409988602
 23
-350.834220665797
 33
0.0
  0
LINE
  5
1799
330
E3B
100
AcDbEntity
  8
cotes
 62
     0
370
    -2
100
AcDbLine
 10
18.11443409988603
 20
-350.834220665797
 30
0.0
 11
18.29443409988603
 21
-350.834220665797
 31
0.0
  0
LINE
  5
179A
330
E3B
100
AcDbEntity
  8
cotes
 62
     0
370
    -2
100
AcDbLine
 10
18.20443409988603
 20
-350.9242206657969
 30
0.0
 11
18.20443409988603
 21
-350.744220665797
 31
0.0
  0
POINT
  5
179B
330
E3B
100
AcDbEntity
  8
Defpoints
 62
     0
100
AcDbPoint
 10
73.70443409988602
 20
-350.834220665797
 30
0.0
  0
POINT
  5
179C
330
E3B
100
AcDbEntity
  8
Defpoints
 62
     0
100
AcDbPoint
 10
-37.29556590011397
 20
-350.834220665797
 30
0.0
  0
ENDBLK
  5
E3D
330
E3B
100
AcDbEntity
  8
0
100
AcDbBlockEnd
  0
BLOCK
  5
103F
330
103E
100
AcDbEntity
  8
0
100
AcDbBlockBegin
  2
*D9
 70
     1
 10
0.0
 20
0.0
 30
0.0
  3
*D9
  1

  0
LINE
  5
179D
330
103E
100
AcDbEntity
  8
cotes
 62
     0
370
    -2
100
AcDbLine
 10
-211.8580659001139
 20
-384.2889828358701
 30
0.0
 11
-211.9755659001139
 21
-384.2889828358701
 31
0.0
  0
LINE
  5
179E
330
103E
100
AcDbEntity
  8
cotes
 62
     0
370
    -2
100
AcDbLine
 10
-211.733065900114
 20
-444.28898283587
 30
0.0
 11
-211.6155659001139
 21
-444.28898283587
 31
0.0
  0
LINE
  5
179F
330
103E
100
AcDbEntity
  8
cotes
 62
     0
370
    -2
100
AcDbLine
 10
-211.7955659001139
 20
-389.2889828358701
 30
0.0
 11
-211.7955659001139
 21
-411.6461178972616
 31
0.0
  0
LINE
  5
17A0
330
103E
100
AcDbEntity
  8
cotes
 62
     0
370
    -2
100
AcDbLine
 10
-211.7955659001139
 20
-439.2889828358701
 30
0.0
 11
-211.7955659001139
 21
-416.9318477744785
 31
0.0
  0
SOLID
  5
17A1
330
103E
100
AcDbEntity
  8
cotes
 62
     0
100
AcDbTrace
 10
-212.6288992334472
 20
-389.2889828358701
 30
0.0
 11
-210.9622325667806
 21
-389.2889828358701
 31
0.0
 12
-211.7955659001139
 22
-384.2889828358701
 32
0.0
 13
-211.7955659001139
 23
-384.2889828358701
 33
0.0
  0
SOLID
  5
17A2
330
103E
100
AcDbEntity
  8
cotes
 62
     0
100
AcDbTrace
 10
-212.6288992334472
 20
-439.2889828358701
 30
0.0
 11
-210.9622325667806
 21
-439.2889828358701
 31
0.0
 12
-211.7955659001139
 22
-444.28898283587
 32
0.0
 13
-211.7955659001139
 23
-444.28898283587
 33
0.0
  0
MTEXT
  5
17A3
330
103E
100
AcDbEntity
  8
cotes
 62
     0
100
AcDbMText
 10
-211.7955659001139
 20
-414.2889828358701
 30
0.0
 40
5.0
 41
0.0
 71
     5
 72
     1
  1
\A1;60.0
 73
     1
 44
1.0
1001
ACAD
1000
MTEXTBEGIN
1070
    73
1070
     1
1070
    44
1040
1.0
1070
    74
1070
     0
1000
MTEXTEND
  0
POINT
  5
17A4
330
103E
100
AcDbEntity
  8
Defpoints
 62
     0
100
AcDbPoint
 10
-211.7955659001139
 20
-384.2889828358701
 30
0.0
  0
POINT
  5
17A5
330
103E
100
AcDbEntity
  8
Defpoints
 62
     0
100
AcDbPoint
 10
-211.795565900114
 20
-444.28898283587
 30
0.0
  0
POINT
  5
17A6
330
103E
100
AcDbEntity
  8
Defpoints
 62
     0
100
AcDbPoint
 10
-211.7955659001139
 20
-444.28898283587
 30
0.0
  0
ENDBLK
  5
1040
330
103E
100
AcDbEntity
  8
0
100
AcDbBlockEnd
  0
BLOCK
  5
105B
330
105A
100
AcDbEntity
  8
0
100
AcDbBlockBegin
  2
*D10
 70
     1
 10
0.0
 20
0.0
 30
0.0
  3
*D10
  1

  0
LINE
  5
17A7
330
105A
100
AcDbEntity
  8
cotes
 62
     0
370
    -2
100
AcDbLine
 10
-211.733065900114
 20
-444.28898283587
 30
0.0
 11
-211.6155659001139
 21
-444.28898283587
 31
0.0
  0
LINE
  5
17A8
330
105A
100
AcDbEntity
  8
cotes
 62
     0
370
    -2
100
AcDbLine
 10
-211.8580659001139
 20
-464.2889828358701
 30
0.0
 11
-211.975565900114
 21
-464.2889828358701
 31
0.0
  0
LINE
  5
17A9
330
105A
100
AcDbEntity
  8
cotes
 62
     0
370
    -2
100
AcDbLine
 10
-211.795565900114
 20
-449.28898283587
 30
0.0
 11
-211.795565900114
 21
-451.6461178972615
 31
0.0
  0
LINE
  5
17AA
330
105A
100
AcDbEntity
  8
cotes
 62
     0
370
    -2
100
AcDbLine
 10
-211.795565900114
 20
-459.28898283587
 30
0.0
 11
-211.795565900114
 21
-456.9318477744785
 31
0.0
  0
SOLID
  5
17AB
330
105A
100
AcDbEntity
  8
cotes
 62
     0
100
AcDbTrace
 10
-212.6288992334473
 20
-449.28898283587
 30
0.0
 11
-210.9622325667806
 21
-449.28898283587
 31
0.0
 12
-211.795565900114
 22
-444.28898283587
 32
0.0
 13
-211.795565900114
 23
-444.28898283587
 33
0.0
  0
SOLID
  5
17AC
330
105A
100
AcDbEntity
  8
cotes
 62
     0
100
AcDbTrace
 10
-212.6288992334473
 20
-459.28898283587
 30
0.0
 11
-210.9622325667806
 21
-459.28898283587
 31
0.0
 12
-211.795565900114
 22
-464.2889828358701
 32
0.0
 13
-211.795565900114
 23
-464.2889828358701
 33
0.0
  0
MTEXT
  5
17AD
330
105A
100
AcDbEntity
  8
cotes
 62
     0
100
AcDbMText
 10
-211.7955659001139
 20
-454.2889828358701
 30
0.0
 40
5.0
 41
0.0
 71
     5
 72
     1
  1
\A1;20.0
 73
     1
 44
1.0
1001
ACAD
1000
MTEXTBEGIN
1070
    73
1070
     1
1070
    44
1040
1.0
1070
    74
1070
     0
1000
MTEXTEND
  0
POINT
  5
17AE
330
105A
100
AcDbEntity
  8
Defpoints
 62
     0
100
AcDbPoint
 10
-211.795565900114
 20
-444.28898283587
 30
0.0
  0
POINT
  5
17AF
330
105A
100
AcDbEntity
  8
Defpoints
 62
     0
100
AcDbPoint
 10
-211.7955659001139
 20
-464.2889828358701
 30
0.0
  0
POINT
  5
17B0
330
105A
100
AcDbEntity
  8
Defpoints
 62
     0
100
AcDbPoint
 10
-211.795565900114
 20
-464.2889828358701
 30
0.0
  0
ENDBLK
  5
105C
330
105A
100
AcDbEntity
  8
0
100
AcDbBlockEnd
  0
BLOCK
  5
12E5
330
12E4
100
AcDbEntity
  8
0
100
AcDbBlockBegin
  2
*D11
 70
     1
 10
0.0
 20
0.0
 30
0.0
  3
*D11
  1

  0
LINE
  5
17B1
330
12E4
100
AcDbEntity
  8
cotes
 62
     0
370
    -2
100
AcDbLine
 10
18.26693409988602
 20
-350.8506789096894
 30
0.0
 11
18.38443409988603
 21
-350.8506789096894
 31
0.0
  0
LINE
  5
17B2
330
12E4
100
AcDbEntity
  8
cotes
 62
     0
370
    -2
100
AcDbLine
 10
18.17693409988585
 20
-423.3506789096893
 30
0.0
 11
18.38443409988602
 21
-423.3506789096893
 31
0.0
  0
LINE
  5
17B3
330
12E4
100
AcDbEntity
  8
cotes
 62
     0
370
    -3
100
AcDbLine
 10
18.20443409988603
 20
-360.8506789096893
 30
0.0
 11
18.20443409988603
 21
-384.4578139710808
 31
0.0
  0
LINE
  5
17B4
330
12E4
100
AcDbEntity
  8
cotes
 62
     0
370
    -3
100
AcDbLine
 10
18.20443409988602
 20
-413.3506789096893
 30
0.0
 11
18.20443409988603
 21
-389.7435438482978
 31
0.0
  0
SOLID
  5
17B5
330
12E4
100
AcDbEntity
  8
cotes
 62
     0
100
AcDbTrace
 10
16.53776743321936
 20
-360.8506789096893
 30
0.0
 11
19.8711007665527
 21
-360.8506789096893
 31
0.0
 12
18.20443409988603
 22
-350.8506789096894
 32
0.0
 13
18.20443409988603
 23
-350.8506789096894
 33
0.0
  0
SOLID
  5
17B6
330
12E4
100
AcDbEntity
  8
cotes
 62
     0
100
AcDbTrace
 10
16.53776743321935
 20
-413.3506789096893
 30
0.0
 11
19.87110076655269
 21
-413.3506789096893
 31
0.0
 12
18.20443409988602
 22
-423.3506789096893
 32
0.0
 13
18.20443409988602
 23
-423.3506789096893
 33
0.0
  0
MTEXT
  5
17B7
330
12E4
100
AcDbEntity
  8
cotes
 62
     0
100
AcDbMText
 10
18.20443409988609
 20
-387.1006789096893
 30
0.0
 40
5.0
 41
0.0
 71
     5
 72
     1
  1
\A1;72.5
 73
     1
 44
1.0
1001
ACAD
1000
MTEXTBEGIN
1070
    73
1070
     1
1070
    44
1040
1.0
1070
    74
1070
     0
1000
MTEXTEND
  0
POINT
  5
17B8
330
12E4
100
AcDbEntity
  8
Defpoints
 62
     0
100
AcDbPoint
 10
18.20443409988602
 20
-350.8506789096894
 30
0.0
  0
POINT
  5
17B9
330
12E4
100
AcDbEntity
  8
Defpoints
 62
     0
100
AcDbPoint
 10
18.11443409988585
 20
-423.3506789096893
 30
0.0
  0
POINT
  5
17BA
330
12E4
100
AcDbEntity
  8
Defpoints
 62
     0
100
AcDbPoint
 10
18.20443409988602
 20
-423.3506789096893
 30
0.0
  0
ENDBLK
  5
12E6
330
12E4
100
AcDbEntity
  8
0
100
AcDbBlockEnd
  0
BLOCK
  5
1307
330
1306
100
AcDbEntity
  8
0
100
AcDbBlockBegin
  2
*D12
 70
     1
 10
0.0
 20
0.0
 30
0.0
  3
*D12
  1

  0
LINE
  5
17BB
330
1306
100
AcDbEntity
  8
cotes
 62
     0
370
    -2
100
AcDbLine
 10
-211.7955659001139
 20
-384.1364828358702
 30
0.0
 11
-211.7955659001139
 21
-373.3986443462339
 31
0.0
  0
LINE
  5
17BC
330
1306
100
AcDbEntity
  8
cotes
 62
     0
370
    -2
100
AcDbLine
 10
-231.795565900114
 20
-384.1364828358702
 30
0.0
 11
-231.795565900114
 21
-373.3986443462339
 31
0.0
  0
LINE
  5
17BD
330
1306
100
AcDbEntity
  8
cotes
 62
     0
370
    -2
100
AcDbLine
 10
-206.7955659001139
 20
-373.5786443462339
 30
0.0
 11
-201.7955659001139
 21
-373.5786443462339
 31
0.0
  0
LINE
  5
17BE
330
1306
100
AcDbEntity
  8
cotes
 62
     0
370
    -2
100
AcDbLine
 10
-236.795565900114
 20
-373.5786443462339
 30
0.0
 11
-241.795565900114
 21
-373.5786443462339
 31
0.0
  0
SOLID
  5
17BF
330
1306
100
AcDbEntity
  8
cotes
 62
     0
100
AcDbTrace
 10
-206.7955659001139
 20
-372.7453110129006
 30
0.0
 11
-206.7955659001139
 21
-374.4119776795673
 31
0.0
 12
-211.7955659001139
 22
-373.5786443462339
 32
0.0
 13
-211.7955659001139
 23
-373.5786443462339
 33
0.0
  0
SOLID
  5
17C0
330
1306
100
AcDbEntity
  8
cotes
 62
     0
100
AcDbTrace
 10
-236.795565900114
 20
-372.7453110129006
 30
0.0
 11
-236.795565900114
 21
-374.4119776795673
 31
0.0
 12
-231.795565900114
 22
-373.5786443462339
 32
0.0
 13
-231.795565900114
 23
-373.5786443462339
 33
0.0
  0
MTEXT
  5
17C1
330
1306
100
AcDbEntity
  8
cotes
 62
     0
100
AcDbMText
 10
-221.795565900114
 20
-373.5786443462339
 30
0.0
 40
5.0
 41
0.0
 71
     5
 72
     1
  1
\A1;20.0
 73
     1
 44
1.0
1001
ACAD
1000
MTEXTBEGIN
1070
    73
1070
     1
1070
    44
1040
1.0
1070
    74
1070
     0
1000
MTEXTEND
  0
POINT
  5
17C2
330
1306
100
AcDbEntity
  8
Defpoints
 62
     0
100
AcDbPoint
 10
-211.7955659001139
 20
-384.1989828358702
 30
0.0
  0
POINT
  5
17C3
330
1306
100
AcDbEntity
  8
Defpoints
 62
     0
100
AcDbPoint
 10
-231.795565900114
 20
-384.1989828358702
 30
0.0
  0
POINT
  5
17C4
330
1306
100
AcDbEntity
  8
Defpoints
 62
     0
100
AcDbPoint
 10
-231.795565900114
 20
-373.5786443462339
 30
0.0
  0
ENDBLK
  5
1308
330
1306
100
AcDbEntity
  8
0
100
AcDbBlockEnd
  0
BLOCK
  5
1315
330
1314
100
AcDbEntity
  8
0
100
AcDbBlockBegin
  2
*D13
 70
     1
 10
0.0
 20
0.0
 30
0.0
  3
*D13
  1

  0
LINE
  5
17C5
330
1314
100
AcDbEntity
  8
cotes
 62
     0
370
    -2
100
AcDbLine
 10
-231.7955659001139
 20
-464.85148283587
 30
0.0
 11
-231.7955659001139
 21
-472.1391898134918
 31
0.0
  0
LINE
  5
17C6
330
1314
100
AcDbEntity
  8
cotes
 62
     0
370
    -2
100
AcDbLine
 10
-191.7955659001139
 20
-464.35148283587
 30
0.0
 11
-191.7955659001139
 21
-472.1391898134918
 31
0.0
  0
LINE
  5
17C7
330
1314
100
AcDbEntity
  8
cotes
 62
     0
370
    -2
100
AcDbLine
 10
-226.7955659001139
 20
-471.9591898134918
 30
0.0
 11
-218.4715140583677
 21
-471.9591898134918
 31
0.0
  0
LINE
  5
17C8
330
1314
100
AcDbEntity
  8
cotes
 62
     0
370
    -2
100
AcDbLine
 10
-196.7955659001139
 20
-471.9591898134918
 30
0.0
 11
-205.1196177418602
 21
-471.9591898134918
 31
0.0
  0
SOLID
  5
17C9
330
1314
100
AcDbEntity
  8
cotes
 62
     0
100
AcDbTrace
 10
-226.7955659001139
 20
-471.1258564801585
 30
0.0
 11
-226.7955659001139
 21
-472.792523146825
 31
0.0
 12
-231.7955659001139
 22
-471.9591898134918
 32
0.0
 13
-231.7955659001139
 23
-471.9591898134918
 33
0.0
  0
SOLID
  5
17CA
330
1314
100
AcDbEntity
  8
cotes
 62
     0
100
AcDbTrace
 10
-196.7955659001139
 20
-471.1258564801585
 30
0.0
 11
-196.7955659001139
 21
-472.792523146825
 31
0.0
 12
-191.7955659001139
 22
-471.9591898134918
 32
0.0
 13
-191.7955659001139
 23
-471.9591898134918
 33
0.0
  0
MTEXT
  5
17CB
330
1314
100
AcDbEntity
  8
cotes
 62
     0
100
AcDbMText
 10
-211.7955659001139
 20
-471.9591898134918
 30
0.0
 40
5.0
 41
0.0
 71
     5
 72
     1
  1
\A1;40.0
 73
     1
 44
1.0
1001
ACAD
1000
MTEXTBEGIN
1070
    73
1070
     1
1070
    44
1040
1.0
1070
    74
1070
     0
1000
MTEXTEND
  0
POINT
  5
17CC
330
1314
100
AcDbEntity
  8
Defpoints
 62
     0
100
AcDbPoint
 10
-231.7955659001139
 20
-464.78898283587
 30
0.0
  0
POINT
  5
17CD
330
1314
100
AcDbEntity
  8
Defpoints
 62
     0
100
AcDbPoint
 10
-191.7955659001139
 20
-464.2889828358701
 30
0.0
  0
POINT
  5
17CE
330
1314
100
AcDbEntity
  8
Defpoints
 62
     0
100
AcDbPoint
 10
-191.7955659001139
 20
-471.9591898134918
 30
0.0
  0
ENDBLK
  5
1316
330
1314
100
AcDbEntity
  8
0
100
AcDbBlockEnd
  0
BLOCK
  5
1405
330
1404
100
AcDbEntity
  8
0
100
AcDbBlockBegin
  2
*D14
 70
     1
 10
0.0
 20
0.0
 30
0.0
  3
*D14
  1

  0
LINE
  5
17D6
330
1404
100
AcDbEntity
  8
cotes
 62
     0
370
    -2
100
AcDbLine
 10
-93.72532800412136
 20
-349.9416506514087
 30
0.0
 11
-59.29310187903515
 21
-350.2162261708253
 31
0.0
  0
MTEXT
  5
17D7
102
{ACAD_XDICTIONARY
360
215C
102
}
330
1404
100
AcDbEntity
  8
cotes
 62
     0
100
AcDbMText
 10
-104.963008768105
 20
-349.9416506514088
 30
0.0
 40
5.0
 41
0.0
 71
     5
 72
     1
  1
\A1;\U+2205145.0
 73
     1
 44
1.0
1001
ACAD
1000
MTEXTBEGIN
1070
    73
1070
     1
1070
    44
1040
1.0
1070
    74
1070
     0
1000
MTEXTEND
  0
SOLID
  5
17D8
330
1404
100
AcDbEntity
  8
cotes
 62
     0
100
AcDbTrace
 10
-59.28645677693868
 20
-349.3829193323423
 30
0.0
 11
-59.29974698113163
 21
-351.0495330093083
 31
0.0
 12
-54.29326084813702
 22
-350.2560967834041
 32
0.0
 13
-54.29326084813702
 23
-350.2560967834041
 33
0.0
  0
LINE
  5
17D9
330
1404
100
AcDbEntity
  8
cotes
 62
     0
370
    -2
100
AcDbLine
 10
18.11443409988607
 20
-350.8342206657971
 30
0.0
 11
18.29443409988607
 21
-350.8342206657971
 31
0.0
  0
LINE
  5
17DA
330
1404
100
AcDbEntity
  8
cotes
 62
     0
370
    -2
100
AcDbLine
 10
18.20443409988607
 20
-350.9242206657971
 30
0.0
 11
18.20443409988607
 21
-350.7442206657972
 31
0.0
  0
POINT
  5
17DB
330
1404
100
AcDbEntity
  8
Defpoints
 62
     0
100
AcDbPoint
 10
-54.29326084813702
 20
-350.2560967834041
 30
0.0
  0
POINT
  5
17DC
330
1404
100
AcDbEntity
  8
Defpoints
 62
     0
100
AcDbPoint
 10
90.70212904790917
 20
-351.4123445481898
 30
0.0
  0
ENDBLK
  5
1406
330
1404
100
AcDbEntity
  8
0
100
AcDbBlockEnd
  0
BLOCK
  5
1814
330
1813
100
AcDbEntity
  8
0
100
AcDbBlockBegin
  2
*D15
 70
     1
 10
0.0
 20
0.0
 30
0.0
  3
*D15
  1

  0
LINE
  5
18B5
330
1813
100
AcDbEntity
  8
cotes
 62
     0
370
    -2
100
AcDbLine
 10
844.4066815954833
 20
-714.2386482247383
 30
0.0
 11
844.5241815954831
 21
-714.2386482247383
 31
0.0
  0
LINE
  5
18B6
330
1813
100
AcDbEntity
  8
cotes
 62
     0
370
    -2
100
AcDbLine
 10
844.3166815954832
 20
-786.7386482247383
 30
0.0
 11
844.5241815954831
 21
-786.7386482247383
 31
0.0
  0
LINE
  5
18B7
330
1813
100
AcDbEntity
  8
cotes
 62
     0
370
    -3
100
AcDbLine
 10
844.3441815954834
 20
-724.2386482247383
 30
0.0
 11
844.3441815954834
 21
-747.8457832861297
 31
0.0
  0
LINE
  5
18B8
330
1813
100
AcDbEntity
  8
cotes
 62
     0
370
    -3
100
AcDbLine
 10
844.3441815954832
 20
-776.7386482247383
 30
0.0
 11
844.3441815954834
 21
-753.1315131633465
 31
0.0
  0
SOLID
  5
18B9
330
1813
100
AcDbEntity
  8
cotes
 62
     0
100
AcDbTrace
 10
842.6775149288166
 20
-724.2386482247383
 30
0.0
 11
846.01084826215
 21
-724.2386482247383
 31
0.0
 12
844.3441815954834
 22
-714.2386482247383
 32
0.0
 13
844.3441815954834
 23
-714.2386482247383
 33
0.0
  0
SOLID
  5
18BA
330
1813
100
AcDbEntity
  8
cotes
 62
     0
100
AcDbTrace
 10
842.6775149288166
 20
-776.7386482247383
 30
0.0
 11
846.01084826215
 21
-776.7386482247383
 31
0.0
 12
844.3441815954832
 22
-786.7386482247383
 32
0.0
 13
844.3441815954832
 23
-786.7386482247383
 33
0.0
  0
MTEXT
  5
18BB
330
1813
100
AcDbEntity
  8
cotes
 62
     0
100
AcDbMText
 10
844.3441815954836
 20
-750.4886482247383
 30
0.0
 40
5.0
 41
0.0
 71
     5
 72
     1
  1
\A1;72.5
 73
     1
 44
1.0
1001
ACAD
1000
MTEXTBEGIN
1070
    73
1070
     1
1070
    44
1040
1.0
1070
    74
1070
     0
1000
MTEXTEND
  0
POINT
  5
18BC
330
1813
100
AcDbEntity
  8
Defpoints
 62
     0
100
AcDbPoint
 10
844.3441815954832
 20
-714.2386482247383
 30
0.0
  0
POINT
  5
18BD
330
1813
100
AcDbEntity
  8
Defpoints
 62
     0
100
AcDbPoint
 10
844.2541815954831
 20
-786.7386482247383
 30
0.0
  0
POINT
  5
18BE
330
1813
100
AcDbEntity
  8
Defpoints
 62
     0
100
AcDbPoint
 10
844.3441815954832
 20
-786.7386482247383
 30
0.0
  0
ENDBLK
  5
1815
330
1813
100
AcDbEntity
  8
0
100
AcDbBlockEnd
  0
BLOCK
  5
1821
330
1820
100
AcDbEntity
  8
0
100
AcDbBlockBegin
  2
*D16
 70
     1
 10
0.0
 20
0.0
 30
0.0
  3
*D16
  1

  0
LINE
  5
1896
330
1820
100
AcDbEntity
  8
cotes
 62
     0
370
    -2
100
AcDbLine
 10
844.2816815954833
 20
-641.722189980846
 30
0.0
 11
844.1641815954833
 21
-641.722189980846
 31
0.0
  0
LINE
  5
1897
330
1820
100
AcDbEntity
  8
cotes
 62
     0
370
    -2
100
AcDbLine
 10
844.2816815954833
 20
-714.2221899808459
 30
0.0
 11
844.1641815954833
 21
-714.2221899808459
 31
0.0
  0
LINE
  5
1898
330
1820
100
AcDbEntity
  8
cotes
 62
     0
370
    -3
100
AcDbLine
 10
844.3441815954832
 20
-651.7221899808459
 30
0.0
 11
844.3441815954832
 21
-675.3293250422374
 31
0.0
  0
LINE
  5
1899
330
1820
100
AcDbEntity
  8
cotes
 62
     0
370
    -3
100
AcDbLine
 10
844.3441815954832
 20
-704.222189980846
 30
0.0
 11
844.3441815954832
 21
-680.6150549194541
 31
0.0
  0
SOLID
  5
189A
330
1820
100
AcDbEntity
  8
cotes
 62
     0
100
AcDbTrace
 10
842.6775149288166
 20
-651.7221899808459
 30
0.0
 11
846.01084826215
 21
-651.7221899808459
 31
0.0
 12
844.3441815954832
 22
-641.722189980846
 32
0.0
 13
844.3441815954832
 23
-641.722189980846
 33
0.0
  0
SOLID
  5
189B
330
1820
100
AcDbEntity
  8
cotes
 62
     0
100
AcDbTrace
 10
842.6775149288166
 20
-704.222189980846
 30
0.0
 11
846.01084826215
 21
-704.222189980846
 31
0.0
 12
844.3441815954832
 22
-714.2221899808459
 32
0.0
 13
844.3441815954832
 23
-714.2221899808459
 33
0.0
  0
MTEXT
  5
189C
330
1820
100
AcDbEntity
  8
cotes
 62
     0
100
AcDbMText
 10
844.3441815954834
 20
-677.9721899808457
 30
0.0
 40
5.0
 41
0.0
 71
     5
 72
     1
  1
\A1;72.5
 73
     1
 44
1.0
1001
ACAD
1000
MTEXTBEGIN
1070
    73
1070
     1
1070
    44
1040
1.0
1070
    74
1070
     0
1000
MTEXTEND
  0
POINT
  5
189D
330
1820
100
AcDbEntity
  8
Defpoints
 62
     0
100
AcDbPoint
 10
844.3441815954832
 20
-641.722189980846
 30
0.0
  0
POINT
  5
189E
330
1820
100
AcDbEntity
  8
Defpoints
 62
     0
100
AcDbPoint
 10
844.3441815954832
 20
-714.2221899808459
 30
0.0
  0
POINT
  5
189F
330
1820
100
AcDbEntity
  8
Defpoints
 62
     0
100
AcDbPoint
 10
844.3441815954832
 20
-714.2221899808459
 30
0.0
  0
ENDBLK
  5
1822
330
1820
100
AcDbEntity
  8
0
100
AcDbBlockEnd
  0
BLOCK
  5
182E
330
182D
100
AcDbEntity
  8
0
100
AcDbBlockBegin
  2
*D17
 70
     1
 10
0.0
 20
0.0
 30
0.0
  3
*D17
  1

  0
LINE
  5
18A0
330
182D
100
AcDbEntity
  8
cotes
 62
     0
370
    -2
100
AcDbLine
 10
778.8289399594583
 20
-662.9569483448213
 30
0.0
 11
783.8289399594586
 21
-662.9569483448213
 31
0.0
  0
MTEXT
  5
18A1
102
{ACAD_XDICTIONARY
360
215E
102
}
330
182D
100
AcDbEntity
  8
cotes
 62
     0
100
AcDbMText
 10
771.4486943932922
 20
-662.9569483448213
 30
0.0
 40
5.0
 41
0.0
 71
     5
 72
     1
  1
\A1;\U+22058.5
 73
     1
 44
1.0
1001
ACAD
1000
MTEXTBEGIN
1070
    73
1070
     1
1070
    44
1040
1.0
1070
    74
1070
     0
1000
MTEXTEND
  0
SOLID
  5
18A2
330
182D
100
AcDbEntity
  8
cotes
 62
     0
100
AcDbTrace
 10
783.8289399594586
 20
-662.1236150114879
 30
0.0
 11
783.8289399594586
 21
-663.7902816781546
 31
0.0
 12
788.8289399594586
 22
-662.9569483448213
 32
0.0
 13
788.8289399594586
 23
-662.9569483448213
 33
0.0
  0
LINE
  5
18A3
330
182D
100
AcDbEntity
  8
cotes
 62
     0
370
    -2
100
AcDbLine
 10
792.9889399594586
 20
-662.9569483448213
 30
0.0
 11
793.1689399594586
 21
-662.9569483448213
 31
0.0
  0
LINE
  5
18A4
330
182D
100
AcDbEntity
  8
cotes
 62
     0
370
    -2
100
AcDbLine
 10
793.0789399594583
 20
-663.046948344821
 30
0.0
 11
793.0789399594583
 21
-662.8669483448212
 31
0.0
  0
POINT
  5
18A5
330
182D
100
AcDbEntity
  8
Defpoints
 62
     0
100
AcDbPoint
 10
788.8289399594586
 20
-662.9569483448213
 30
0.0
  0
POINT
  5
18A6
330
182D
100
AcDbEntity
  8
Defpoints
 62
     0
100
AcDbPoint
 10
797.3289399594586
 20
-662.9569483448213
 30
0.0
  0
ENDBLK
  5
182F
330
182D
100
AcDbEntity
  8
0
100
AcDbBlockEnd
  0
BLOCK
  5
1838
330
1837
100
AcDbEntity
  8
0
100
AcDbBlockBegin
  2
*D18
 70
     1
 10
0.0
 20
0.0
 30
0.0
  3
*D18
  1

  0
LINE
  5
18A7
330
1837
100
AcDbEntity
  8
cotes
 62
     0
370
    -2
100
AcDbLine
 10
778.8289399594583
 20
-765.4874316168707
 30
0.0
 11
783.8289399594586
 21
-765.4874316168707
 31
0.0
  0
MTEXT
  5
18A8
102
{ACAD_XDICTIONARY
360
2160
102
}
330
1837
100
AcDbEntity
  8
cotes
 62
     0
100
AcDbMText
 10
771.4486943932922
 20
-765.4874316168707
 30
0.0
 40
5.0
 41
0.0
 71
     5
 72
     1
  1
\A1;\U+22058.5
 73
     1
 44
1.0
1001
ACAD
1000
MTEXTBEGIN
1070
    73
1070
     1
1070
    44
1040
1.0
1070
    74
1070
     0
1000
MTEXTEND
  0
SOLID
  5
18A9
330
1837
100
AcDbEntity
  8
cotes
 62
     0
100
AcDbTrace
 10
783.8289399594586
 20
-764.6540982835373
 30
0.0
 11
783.8289399594586
 21
-766.3207649502043
 31
0.0
 12
788.8289399594586
 22
-765.4874316168707
 32
0.0
 13
788.8289399594586
 23
-765.4874316168707
 33
0.0
  0
LINE
  5
18AA
330
1837
100
AcDbEntity
  8
cotes
 62
     0
370
    -2
100
AcDbLine
 10
792.9889399594586
 20
-765.4874316168707
 30
0.0
 11
793.1689399594586
 21
-765.4874316168707
 31
0.0
  0
LINE
  5
18AB
330
1837
100
AcDbEntity
  8
cotes
 62
     0
370
    -2
100
AcDbLine
 10
793.0789399594583
 20
-765.5774316168707
 30
0.0
 11
793.0789399594583
 21
-765.3974316168707
 31
0.0
  0
POINT
  5
18AC
330
1837
100
AcDbEntity
  8
Defpoints
 62
     0
100
AcDbPoint
 10
788.8289399594586
 20
-765.4874316168707
 30
0.0
  0
POINT
  5
18AD
330
1837
100
AcDbEntity
  8
Defpoints
 62
     0
100
AcDbPoint
 10
797.3289399594586
 20
-765.4874316168707
 30
0.0
  0
ENDBLK
  5
1839
330
1837
100
AcDbEntity
  8
0
100
AcDbBlockEnd
  0
BLOCK
  5
1842
330
1841
100
AcDbEntity
  8
0
100
AcDbBlockBegin
  2
*D19
 70
     1
 10
0.0
 20
0.0
 30
0.0
  3
*D19
  1

  0
LINE
  5
18AE
330
1841
100
AcDbEntity
  8
cotes
 62
     0
370
    -2
100
AcDbLine
 10
909.8441815954833
 20
-714.2221899808459
 30
0.0
 11
904.8441815954832
 21
-714.2221899808459
 31
0.0
  0
MTEXT
  5
18AF
102
{ACAD_XDICTIONARY
360
2162
102
}
330
1841
100
AcDbEntity
  8
cotes
 62
     0
100
AcDbMText
 10
921.0818623594667
 20
-714.2221899808459
 30
0.0
 40
5.0
 41
0.0
 71
     5
 72
     1
  1
\A1;\U+2205111.0
 73
     1
 44
1.0
1001
ACAD
1000
MTEXTBEGIN
1070
    73
1070
     1
1070
    44
1040
1.0
1070
    74
1070
     0
1000
MTEXTEND
  0
SOLID
  5
18B0
330
1841
100
AcDbEntity
  8
cotes
 62
     0
100
AcDbTrace
 10
904.8441815954832
 20
-713.3888566475126
 30
0.0
 11
904.8441815954832
 21
-715.0555233141792
 31
0.0
 12
899.8441815954832
 22
-714.2221899808459
 32
0.0
 13
899.8441815954832
 23
-714.2221899808459
 33
0.0
  0
LINE
  5
18B1
330
1841
100
AcDbEntity
  8
cotes
 62
     0
370
    -2
100
AcDbLine
 10
844.2541815954832
 20
-714.2221899808459
 30
0.0
 11
844.4341815954834
 21
-714.2221899808459
 31
0.0
  0
LINE
  5
18B2
330
1841
100
AcDbEntity
  8
cotes
 62
     0
370
    -2
100
AcDbLine
 10
844.3441815954832
 20
-714.3121899808459
 30
0.0
 11
844.3441815954832
 21
-714.132189980846
 31
0.0
  0
POINT
  5
18B3
330
1841
100
AcDbEntity
  8
Defpoints
 62
     0
100
AcDbPoint
 10
899.8441815954832
 20
-714.2221899808459
 30
0.0
  0
POINT
  5
18B4
330
1841
100
AcDbEntity
  8
Defpoints
 62
     0
100
AcDbPoint
 10
788.8441815954832
 20
-714.2221899808459
 30
0.0
  0
ENDBLK
  5
1843
330
1841
100
AcDbEntity
  8
0
100
AcDbBlockEnd
  0
BLOCK
  5
1856
330
1855
100
AcDbEntity
  8
0
100
AcDbBlockBegin
  2
*D20
 70
     1
 10
0.0
 20
0.0
 30
0.0
  3
*D20
  1

  0
LINE
  5
18C6
330
1855
100
AcDbEntity
  8
cotes
 62
     0
370
    -2
100
AcDbLine
 10
732.4144194914761
 20
-713.3296199664576
 30
0.0
 11
766.846645616562
 21
-713.6041954858741
 31
0.0
  0
MTEXT
  5
18C7
102
{ACAD_XDICTIONARY
360
2164
102
}
330
1855
100
AcDbEntity
  8
cotes
 62
     0
100
AcDbMText
 10
721.1767387274926
 20
-713.3296199664576
 30
0.0
 40
5.0
 41
0.0
 71
     5
 72
     1
  1
\A1;\U+2205145.0
 73
     1
 44
1.0
1001
ACAD
1000
MTEXTBEGIN
1070
    73
1070
     1
1070
    44
1040
1.0
1070
    74
1070
     0
1000
MTEXTEND
  0
SOLID
  5
18C8
330
1855
100
AcDbEntity
  8
cotes
 62
     0
100
AcDbTrace
 10
766.8532907186584
 20
-712.7708886473912
 30
0.0
 11
766.8400005144656
 21
-714.4375023243573
 31
0.0
 12
771.8464866474602
 22
-713.6440660984532
 32
0.0
 13
771.8464866474602
 23
-713.6440660984532
 33
0.0
  0
LINE
  5
18C9
330
1855
100
AcDbEntity
  8
cotes
 62
     0
370
    -2
100
AcDbLine
 10
844.2541815954834
 20
-714.2221899808461
 30
0.0
 11
844.4341815954835
 21
-714.2221899808459
 31
0.0
  0
LINE
  5
18CA
330
1855
100
AcDbEntity
  8
cotes
 62
     0
370
    -2
100
AcDbLine
 10
844.3441815954836
 20
-714.3121899808461
 30
0.0
 11
844.3441815954836
 21
-714.132189980846
 31
0.0
  0
POINT
  5
18CB
330
1855
100
AcDbEntity
  8
Defpoints
 62
     0
100
AcDbPoint
 10
771.8464866474602
 20
-713.6440660984532
 30
0.0
  0
POINT
  5
18CC
330
1855
100
AcDbEntity
  8
Defpoints
 62
     0
100
AcDbPoint
 10
916.8418765435063
 20
-714.8003138632386
 30
0.0
  0
ENDBLK
  5
1857
330
1855
100
AcDbEntity
  8
0
100
AcDbBlockEnd
  0
BLOCK
  5
18E1
330
18E0
100
AcDbEntity
  8
0
100
AcDbBlockBegin
  2
*D21
 70
     1
 10
0.0
 20
0.0
 30
0.0
  3
*D21
  1

  0
LINE
  5
190E
330
18E0
100
AcDbEntity
  8
cotes
 62
     0
370
    -2
100
AcDbLine
 10
614.5866815954832
 20
-746.7386482247383
 30
0.0
 11
614.7041815954832
 21
-746.7386482247383
 31
0.0
  0
LINE
  5
190F
330
18E0
100
AcDbEntity
  8
cotes
 62
     0
370
    -2
100
AcDbLine
 10
614.4616815954832
 20
-806.7386482247382
 30
0.0
 11
614.3441815954832
 21
-806.7386482247382
 31
0.0
  0
LINE
  5
1910
330
18E0
100
AcDbEntity
  8
cotes
 62
     0
370
    -2
100
AcDbLine
 10
614.5241815954832
 20
-751.7386482247383
 30
0.0
 11
614.5241815954832
 21
-774.0957832861298
 31
0.0
  0
LINE
  5
1911
330
18E0
100
AcDbEntity
  8
cotes
 62
     0
370
    -2
100
AcDbLine
 10
614.5241815954832
 20
-801.7386482247385
 30
0.0
 11
614.5241815954832
 21
-779.3815131633465
 31
0.0
  0
SOLID
  5
1912
330
18E0
100
AcDbEntity
  8
cotes
 62
     0
100
AcDbTrace
 10
613.69084826215
 20
-751.7386482247383
 30
0.0
 11
615.3575149288167
 21
-751.7386482247383
 31
0.0
 12
614.5241815954832
 22
-746.7386482247383
 32
0.0
 13
614.5241815954832
 23
-746.7386482247383
 33
0.0
  0
SOLID
  5
1913
330
18E0
100
AcDbEntity
  8
cotes
 62
     0
100
AcDbTrace
 10
613.6908482621499
 20
-801.7386482247385
 30
0.0
 11
615.3575149288164
 21
-801.7386482247385
 31
0.0
 12
614.5241815954832
 22
-806.7386482247382
 32
0.0
 13
614.5241815954832
 23
-806.7386482247382
 33
0.0
  0
MTEXT
  5
1914
330
18E0
100
AcDbEntity
  8
cotes
 62
     0
100
AcDbMText
 10
614.5241815954832
 20
-776.7386482247383
 30
0.0
 40
5.0
 41
0.0
 71
     5
 72
     1
  1
\A1;60.0
 73
     1
 44
1.0
1001
ACAD
1000
MTEXTBEGIN
1070
    73
1070
     1
1070
    44
1040
1.0
1070
    74
1070
     0
1000
MTEXTEND
  0
POINT
  5
1915
330
18E0
100
AcDbEntity
  8
Defpoints
 62
     0
100
AcDbPoint
 10
614.5241815954832
 20
-746.7386482247383
 30
0.0
  0
POINT
  5
1916
330
18E0
100
AcDbEntity
  8
Defpoints
 62
     0
100
AcDbPoint
 10
614.5241815954832
 20
-806.7386482247382
 30
0.0
  0
POINT
  5
1917
330
18E0
100
AcDbEntity
  8
Defpoints
 62
     0
100
AcDbPoint
 10
614.5241815954832
 20
-806.7386482247382
 30
0.0
  0
ENDBLK
  5
18E2
330
18E0
100
AcDbEntity
  8
0
100
AcDbBlockEnd
  0
BLOCK
  5
18EE
330
18ED
100
AcDbEntity
  8
0
100
AcDbBlockBegin
  2
*D22
 70
     1
 10
0.0
 20
0.0
 30
0.0
  3
*D22
  1

  0
LINE
  5
1925
330
18ED
100
AcDbEntity
  8
cotes
 62
     0
370
    -2
100
AcDbLine
 10
614.5241815954832
 20
-746.5861482247385
 30
0.0
 11
614.5241815954832
 21
-735.8483097351022
 31
0.0
  0
LINE
  5
1926
330
18ED
100
AcDbEntity
  8
cotes
 62
     0
370
    -2
100
AcDbLine
 10
594.5241815954832
 20
-746.5861482247385
 30
0.0
 11
594.5241815954832
 21
-735.8483097351022
 31
0.0
  0
LINE
  5
1927
330
18ED
100
AcDbEntity
  8
cotes
 62
     0
370
    -2
100
AcDbLine
 10
619.5241815954832
 20
-736.0283097351022
 30
0.0
 11
624.5241815954832
 21
-736.0283097351022
 31
0.0
  0
LINE
  5
1928
330
18ED
100
AcDbEntity
  8
cotes
 62
     0
370
    -2
100
AcDbLine
 10
589.5241815954832
 20
-736.0283097351022
 30
0.0
 11
584.5241815954832
 21
-736.0283097351022
 31
0.0
  0
SOLID
  5
1929
330
18ED
100
AcDbEntity
  8
cotes
 62
     0
100
AcDbTrace
 10
619.5241815954832
 20
-735.1949764017688
 30
0.0
 11
619.5241815954832
 21
-736.8616430684356
 31
0.0
 12
614.5241815954832
 22
-736.0283097351022
 32
0.0
 13
614.5241815954832
 23
-736.0283097351022
 33
0.0
  0
SOLID
  5
192A
330
18ED
100
AcDbEntity
  8
cotes
 62
     0
100
AcDbTrace
 10
589.5241815954832
 20
-735.1949764017688
 30
0.0
 11
589.5241815954832
 21
-736.8616430684356
 31
0.0
 12
594.5241815954832
 22
-736.0283097351022
 32
0.0
 13
594.5241815954832
 23
-736.0283097351022
 33
0.0
  0
MTEXT
  5
192B
330
18ED
100
AcDbEntity
  8
cotes
 62
     0
100
AcDbMText
 10
604.5241815954832
 20
-736.0283097351022
 30
0.0
 40
5.0
 41
0.0
 71
     5
 72
     1
  1
\A1;20.0
 73
     1
 44
1.0
1001
ACAD
1000
MTEXTBEGIN
1070
    73
1070
     1
1070
    44
1040
1.0
1070
    74
1070
     0
1000
MTEXTEND
  0
POINT
  5
192C
330
18ED
100
AcDbEntity
  8
Defpoints
 62
     0
100
AcDbPoint
 10
614.5241815954832
 20
-746.6486482247383
 30
0.0
  0
POINT
  5
192D
330
18ED
100
AcDbEntity
  8
Defpoints
 62
     0
100
AcDbPoint
 10
594.5241815954832
 20
-746.6486482247383
 30
0.0
  0
POINT
  5
192E
330
18ED
100
AcDbEntity
  8
Defpoints
 62
     0
100
AcDbPoint
 10
594.5241815954832
 20
-736.0283097351022
 30
0.0
  0
ENDBLK
  5
18EF
330
18ED
100
AcDbEntity
  8
0
100
AcDbBlockEnd
  0
BLOCK
  5
18FB
330
18FA
100
AcDbEntity
  8
0
100
AcDbBlockBegin
  2
*D23
 70
     1
 10
0.0
 20
0.0
 30
0.0
  3
*D23
  1

  0
LINE
  5
18FD
330
18FA
100
AcDbEntity
  8
cotes
 62
     0
370
    -2
100
AcDbLine
 10
628.7741815954832
 20
-746.7386482247383
 30
0.0
 11
623.7741815954832
 21
-746.7386482247383
 31
0.0
  0
MTEXT
  5
18FE
102
{ACAD_XDICTIONARY
360
2166
102
}
330
18FA
100
AcDbEntity
  8
cotes
 62
     0
370
    30
100
AcDbMText
 10
636.1544271616496
 20
-746.7386482247383
 30
0.0
 40
5.0
 41
0.0
 71
     5
 72
     1
  1
\A1;\U+22058.5
 73
     1
 44
1.0
1001
ACAD
1000
MTEXTBEGIN
1070
    73
1070
     1
1070
    44
1040
1.0
1070
    74
1070
     0
1000
MTEXTEND
  0
SOLID
  5
18FF
330
18FA
100
AcDbEntity
  8
cotes
 62
     0
100
AcDbTrace
 10
623.7741815954832
 20
-745.905314891405
 30
0.0
 11
623.7741815954832
 21
-747.5719815580718
 31
0.0
 12
618.7741815954832
 22
-746.7386482247383
 32
0.0
 13
618.7741815954832
 23
-746.7386482247383
 33
0.0
  0
LINE
  5
1900
330
18FA
100
AcDbEntity
  8
cotes
 62
     0
370
    -2
100
AcDbLine
 10
614.4341815954832
 20
-746.7386482247383
 30
0.0
 11
614.6141815954832
 21
-746.7386482247383
 31
0.0
  0
LINE
  5
1901
330
18FA
100
AcDbEntity
  8
cotes
 62
     0
370
    -2
100
AcDbLine
 10
614.5241815954832
 20
-746.8286482247385
 30
0.0
 11
614.5241815954832
 21
-746.6486482247383
 31
0.0
  0
POINT
  5
1902
330
18FA
100
AcDbEntity
  8
Defpoints
 62
     0
100
AcDbPoint
 10
618.7741815954832
 20
-746.7386482247383
 30
0.0
  0
POINT
  5
1903
330
18FA
100
AcDbEntity
  8
Defpoints
 62
     0
100
AcDbPoint
 10
610.2741815954832
 20
-746.7386482247383
 30
0.0
  0
ENDBLK
  5
18FC
330
18FA
100
AcDbEntity
  8
0
100
AcDbBlockEnd
  0
BLOCK
  5
1905
330
1904
100
AcDbEntity
  8
0
100
AcDbBlockBegin
  2
*D24
 70
     1
 10
0.0
 20
0.0
 30
0.0
  3
*D24
  1

  0
LINE
  5
1907
330
1904
100
AcDbEntity
  8
cotes
 62
     0
370
    -2
100
AcDbLine
 10
628.7741815954832
 20
-806.7386482247382
 30
0.0
 11
623.7741815954832
 21
-806.7386482247382
 31
0.0
  0
MTEXT
  5
1908
102
{ACAD_XDICTIONARY
360
2168
102
}
330
1904
100
AcDbEntity
  8
cotes
 62
     0
100
AcDbMText
 10
636.1544271616496
 20
-806.7386482247382
 30
0.0
 40
5.0
 41
0.0
 71
     5
 72
     1
  1
\A1;\U+22058.5
 73
     1
 44
1.0
1001
ACAD
1000
MTEXTBEGIN
1070
    73
1070
     1
1070
    44
1040
1.0
1070
    74
1070
     0
1000
MTEXTEND
  0
SOLID
  5
1909
330
1904
100
AcDbEntity
  8
cotes
 62
     0
100
AcDbTrace
 10
623.7741815954832
 20
-805.9053148914051
 30
0.0
 11
623.7741815954832
 21
-807.5719815580718
 31
0.0
 12
618.7741815954832
 22
-806.7386482247382
 32
0.0
 13
618.7741815954832
 23
-806.7386482247382
 33
0.0
  0
LINE
  5
190A
330
1904
100
AcDbEntity
  8
cotes
 62
     0
370
    -2
100
AcDbLine
 10
614.4341815954832
 20
-806.7386482247382
 30
0.0
 11
614.6141815954832
 21
-806.7386482247382
 31
0.0
  0
LINE
  5
190B
330
1904
100
AcDbEntity
  8
cotes
 62
     0
370
    -2
100
AcDbLine
 10
614.5241815954832
 20
-806.8286482247383
 30
0.0
 11
614.5241815954832
 21
-806.6486482247382
 31
0.0
  0
POINT
  5
190C
330
1904
100
AcDbEntity
  8
Defpoints
 62
     0
100
AcDbPoint
 10
618.7741815954832
 20
-806.7386482247382
 30
0.0
  0
POINT
  5
190D
330
1904
100
AcDbEntity
  8
Defpoints
 62
     0
100
AcDbPoint
 10
610.2741815954832
 20
-806.7386482247382
 30
0.0
  0
ENDBLK
  5
1906
330
1904
100
AcDbEntity
  8
0
100
AcDbBlockEnd
  0
BLOCK
  5
1919
330
1918
100
AcDbEntity
  8
0
100
AcDbBlockBegin
  2
*D25
 70
     1
 10
0.0
 20
0.0
 30
0.0
  3
*D25
  1

  0
LINE
  5
192F
330
1918
100
AcDbEntity
  8
cotes
 62
     0
370
    -2
100
AcDbLine
 10
614.4616815954832
 20
-806.7386482247382
 30
0.0
 11
614.3441815954832
 21
-806.7386482247382
 31
0.0
  0
LINE
  5
1930
330
1918
100
AcDbEntity
  8
cotes
 62
     0
370
    -2
100
AcDbLine
 10
614.4616815954832
 20
-826.7386482247385
 30
0.0
 11
614.3441815954832
 21
-826.7386482247385
 31
0.0
  0
LINE
  5
1931
330
1918
100
AcDbEntity
  8
cotes
 62
     0
370
    -2
100
AcDbLine
 10
614.5241815954832
 20
-811.7386482247383
 30
0.0
 11
614.5241815954832
 21
-814.0957832861298
 31
0.0
  0
LINE
  5
1932
330
1918
100
AcDbEntity
  8
cotes
 62
     0
370
    -2
100
AcDbLine
 10
614.5241815954832
 20
-821.7386482247382
 30
0.0
 11
614.5241815954832
 21
-819.3815131633469
 31
0.0
  0
SOLID
  5
1933
330
1918
100
AcDbEntity
  8
cotes
 62
     0
100
AcDbTrace
 10
613.6908482621499
 20
-811.7386482247383
 30
0.0
 11
615.3575149288164
 21
-811.7386482247383
 31
0.0
 12
614.5241815954832
 22
-806.7386482247382
 32
0.0
 13
614.5241815954832
 23
-806.7386482247382
 33
0.0
  0
SOLID
  5
1934
330
1918
100
AcDbEntity
  8
cotes
 62
     0
100
AcDbTrace
 10
613.6908482621499
 20
-821.7386482247382
 30
0.0
 11
615.3575149288164
 21
-821.7386482247382
 31
0.0
 12
614.5241815954832
 22
-826.7386482247385
 32
0.0
 13
614.5241815954832
 23
-826.7386482247385
 33
0.0
  0
MTEXT
  5
1935
330
1918
100
AcDbEntity
  8
cotes
 62
     0
100
AcDbMText
 10
614.5241815954832
 20
-816.7386482247383
 30
0.0
 40
5.0
 41
0.0
 71
     5
 72
     1
  1
\A1;20.0
 73
     1
 44
1.0
1001
ACAD
1000
MTEXTBEGIN
1070
    73
1070
     1
1070
    44
1040
1.0
1070
    74
1070
     0
1000
MTEXTEND
  0
POINT
  5
1936
330
1918
100
AcDbEntity
  8
Defpoints
 62
     0
100
AcDbPoint
 10
614.5241815954832
 20
-806.7386482247382
 30
0.0
  0
POINT
  5
1937
330
1918
100
AcDbEntity
  8
Defpoints
 62
     0
100
AcDbPoint
 10
614.5241815954832
 20
-826.7386482247385
 30
0.0
  0
POINT
  5
1938
330
1918
100
AcDbEntity
  8
Defpoints
 62
     0
100
AcDbPoint
 10
614.5241815954832
 20
-826.7386482247385
 30
0.0
  0
ENDBLK
  5
191A
330
1918
100
AcDbEntity
  8
0
100
AcDbBlockEnd
  0
BLOCK
  5
193B
330
193A
100
AcDbEntity
  8
0
100
AcDbBlockBegin
  2
*D26
 70
     1
 10
0.0
 20
0.0
 30
0.0
  3
*D26
  1

  0
LINE
  5
1947
330
193A
100
AcDbEntity
  8
cotes
 62
     0
370
    -2
100
AcDbLine
 10
594.5241815954832
 20
-826.8011482247382
 30
0.0
 11
594.5241815954832
 21
-924.9390637096526
 31
0.0
  0
LINE
  5
1948
330
193A
100
AcDbEntity
  8
cotes
 62
     0
370
    -2
100
AcDbLine
 10
1094.524181595483
 20
-826.8011482247382
 30
0.0
 11
1094.524181595483
 21
-924.9390637096526
 31
0.0
  0
LINE
  5
1949
330
193A
100
AcDbEntity
  8
cotes
 62
     0
370
    -3
100
AcDbLine
 10
604.5241815954832
 20
-924.7590637096527
 30
0.0
 11
836.0064871889347
 21
-924.7590637096527
 31
0.0
  0
LINE
  5
194A
330
193A
100
AcDbEntity
  8
cotes
 62
     0
370
    -3
100
AcDbLine
 10
1084.524181595483
 20
-924.7590637096527
 30
0.0
 11
853.0418760020317
 21
-924.7590637096527
 31
0.0
  0
SOLID
  5
194B
330
193A
100
AcDbEntity
  8
cotes
 62
     0
100
AcDbTrace
 10
604.5241815954832
 20
-923.0923970429865
 30
0.0
 11
604.5241815954832
 21
-926.4257303763194
 31
0.0
 12
594.5241815954832
 22
-924.7590637096527
 32
0.0
 13
594.5241815954832
 23
-924.7590637096527
 33
0.0
  0
SOLID
  5
194C
330
193A
100
AcDbEntity
  8
cotes
 62
     0
100
AcDbTrace
 10
1084.524181595483
 20
-923.0923970429865
 30
0.0
 11
1084.524181595483
 21
-926.4257303763194
 31
0.0
 12
1094.524181595483
 22
-924.7590637096527
 32
0.0
 13
1094.524181595483
 23
-924.7590637096527
 33
0.0
  0
MTEXT
  5
194D
330
193A
100
AcDbEntity
  8
cotes
 62
     0
100
AcDbMText
 10
844.5241815954831
 20
-924.7590637096527
 30
0.0
 40
5.0
 41
0.0
 71
     5
 72
     1
  1
\A1;500.0
 73
     1
 44
1.0
1001
ACAD
1000
MTEXTBEGIN
1070
    73
1070
     1
1070
    44
1040
1.0
1070
    74
1070
     0
1000
MTEXTEND
  0
POINT
  5
194E
330
193A
100
AcDbEntity
  8
Defpoints
 62
     0
100
AcDbPoint
 10
594.5241815954832
 20
-826.7386482247385
 30
0.0
  0
POINT
  5
194F
330
193A
100
AcDbEntity
  8
Defpoints
 62
     0
100
AcDbPoint
 10
1094.524181595483
 20
-826.7386482247385
 30
0.0
  0
POINT
  5
1950
330
193A
100
AcDbEntity
  8
Defpoints
 62
     0
100
AcDbPoint
 10
1094.524181595483
 20
-924.7590637096527
 30
0.0
  0
ENDBLK
  5
193C
330
193A
100
AcDbEntity
  8
0
100
AcDbBlockEnd
  0
BLOCK
  5
1958
330
1957
100
AcDbEntity
  8
0
100
AcDbBlockBegin
  2
*D27
 70
     1
 10
0.0
 20
0.0
 30
0.0
  3
*D27
  1

  0
LINE
  5
1964
330
1957
100
AcDbEntity
  8
cotes
 62
     0
370
    -2
100
AcDbLine
 10
594.4616815954832
 20
-726.7386482247383
 30
0.0
 11
579.3963735332767
 21
-726.7386482247383
 31
0.0
  0
LINE
  5
1965
330
1957
100
AcDbEntity
  8
cotes
 62
     0
370
    -2
100
AcDbLine
 10
594.4616815954832
 20
-826.7386482247385
 30
0.0
 11
579.3963735332765
 21
-826.7386482247385
 31
0.0
  0
LINE
  5
1966
330
1957
100
AcDbEntity
  8
cotes
 62
     0
370
    -3
100
AcDbLine
 10
579.5763735332768
 20
-736.7386482247383
 30
0.0
 11
579.5763735332766
 21
-774.0957832861298
 31
0.0
  0
LINE
  5
1967
330
1957
100
AcDbEntity
  8
cotes
 62
     0
370
    -3
100
AcDbLine
 10
579.5763735332766
 20
-816.7386482247383
 30
0.0
 11
579.5763735332766
 21
-779.3815131633465
 31
0.0
  0
SOLID
  5
1968
330
1957
100
AcDbEntity
  8
cotes
 62
     0
100
AcDbTrace
 10
577.9097068666101
 20
-736.7386482247383
 30
0.0
 11
581.2430401999432
 21
-736.7386482247383
 31
0.0
 12
579.5763735332768
 22
-726.7386482247383
 32
0.0
 13
579.5763735332768
 23
-726.7386482247383
 33
0.0
  0
SOLID
  5
1969
330
1957
100
AcDbEntity
  8
cotes
 62
     0
100
AcDbTrace
 10
577.90970686661
 20
-816.7386482247383
 30
0.0
 11
581.2430401999432
 21
-816.7386482247383
 31
0.0
 12
579.5763735332766
 22
-826.7386482247385
 32
0.0
 13
579.5763735332766
 23
-826.7386482247385
 33
0.0
  0
MTEXT
  5
196A
330
1957
100
AcDbEntity
  8
cotes
 62
     0
100
AcDbMText
 10
579.5763735332768
 20
-776.7386482247383
 30
0.0
 40
5.0
 41
0.0
 71
     5
 72
     1
  1
\A1;100.0
 73
     1
 44
1.0
1001
ACAD
1000
MTEXTBEGIN
1070
    73
1070
     1
1070
    44
1040
1.0
1070
    74
1070
     0
1000
MTEXTEND
  0
POINT
  5
196B
330
1957
100
AcDbEntity
  8
Defpoints
 62
     0
100
AcDbPoint
 10
594.5241815954832
 20
-726.7386482247383
 30
0.0
  0
POINT
  5
196C
330
1957
100
AcDbEntity
  8
Defpoints
 62
     0
100
AcDbPoint
 10
594.5241815954832
 20
-826.7386482247385
 30
0.0
  0
POINT
  5
196D
330
1957
100
AcDbEntity
  8
Defpoints
 62
     0
100
AcDbPoint
 10
579.5763735332766
 20
-826.7386482247385
 30
0.0
  0
ENDBLK
  5
1959
330
1957
100
AcDbEntity
  8
0
100
AcDbBlockEnd
  0
BLOCK
  5
1970
330
196F
100
AcDbEntity
  8
0
100
AcDbBlockBegin
  2
*D28
 70
     1
 10
0.0
 20
0.0
 30
0.0
  3
*D28
  1

  0
LINE
  5
197C
330
196F
100
AcDbEntity
  8
cotes
 62
     0
370
    -2
100
AcDbLine
 10
594.5241815954832
 20
-827.3011482247383
 30
0.0
 11
594.5241815954832
 21
-834.5888552023602
 31
0.0
  0
LINE
  5
197D
330
196F
100
AcDbEntity
  8
cotes
 62
     0
370
    -2
100
AcDbLine
 10
634.5241815954832
 20
-826.8011482247382
 30
0.0
 11
634.5241815954832
 21
-834.5888552023602
 31
0.0
  0
LINE
  5
197E
330
196F
100
AcDbEntity
  8
cotes
 62
     0
370
    -2
100
AcDbLine
 10
599.5241815954832
 20
-834.4088552023603
 30
0.0
 11
607.8482334372295
 21
-834.4088552023603
 31
0.0
  0
LINE
  5
197F
330
196F
100
AcDbEntity
  8
cotes
 62
     0
370
    -2
100
AcDbLine
 10
629.5241815954832
 20
-834.4088552023603
 30
0.0
 11
621.2001297537367
 21
-834.4088552023603
 31
0.0
  0
SOLID
  5
1980
330
196F
100
AcDbEntity
  8
cotes
 62
     0
100
AcDbTrace
 10
599.5241815954832
 20
-833.5755218690268
 30
0.0
 11
599.5241815954832
 21
-835.2421885356934
 31
0.0
 12
594.5241815954832
 22
-834.4088552023603
 32
0.0
 13
594.5241815954832
 23
-834.4088552023603
 33
0.0
  0
SOLID
  5
1981
330
196F
100
AcDbEntity
  8
cotes
 62
     0
100
AcDbTrace
 10
629.5241815954832
 20
-833.5755218690268
 30
0.0
 11
629.5241815954832
 21
-835.2421885356934
 31
0.0
 12
634.5241815954832
 22
-834.4088552023603
 32
0.0
 13
634.5241815954832
 23
-834.4088552023603
 33
0.0
  0
MTEXT
  5
1982
330
196F
100
AcDbEntity
  8
cotes
 62
     0
100
AcDbMText
 10
614.5241815954832
 20
-834.4088552023603
 30
0.0
 40
5.0
 41
0.0
 71
     5
 72
     1
  1
\A1;40.0
 73
     1
 44
1.0
1001
ACAD
1000
MTEXTBEGIN
1070
    73
1070
     1
1070
    44
1040
1.0
1070
    74
1070
     0
1000
MTEXTEND
  0
POINT
  5
1983
330
196F
100
AcDbEntity
  8
Defpoints
 62
     0
100
AcDbPoint
 10
594.5241815954832
 20
-827.2386482247382
 30
0.0
  0
POINT
  5
1984
330
196F
100
AcDbEntity
  8
Defpoints
 62
     0
100
AcDbPoint
 10
634.5241815954832
 20
-826.7386482247385
 30
0.0
  0
POINT
  5
1985
330
196F
100
AcDbEntity
  8
Defpoints
 62
     0
100
AcDbPoint
 10
634.5241815954832
 20
-834.4088552023603
 30
0.0
  0
ENDBLK
  5
1971
330
196F
100
AcDbEntity
  8
0
100
AcDbBlockEnd
  0
BLOCK
  5
19B7
330
19B6
100
AcDbEntity
  8
0
100
AcDbBlockBegin
  2
*D29
 70
     1
 10
0.0
 20
0.0
 30
0.0
  3
*D29
  1

  0
LINE
  5
1A3C
330
19B6
100
AcDbEntity
  8
cotes
 62
     0
370
    -2
100
AcDbLine
 10
844.2816815954831
 20
-1146.238648224738
 30
0.0
 11
844.1641815954833
 21
-1146.238648224738
 31
0.0
  0
LINE
  5
1A3D
330
19B6
100
AcDbEntity
  8
cotes
 62
     0
370
    -2
100
AcDbLine
 10
844.3166815954828
 20
-1218.738648224738
 30
0.0
 11
844.5241815954831
 21
-1218.738648224738
 31
0.0
  0
LINE
  5
1A3E
330
19B6
100
AcDbEntity
  8
cotes
 62
     0
370
    -3
100
AcDbLine
 10
844.3441815954832
 20
-1156.238648224738
 30
0.0
 11
844.3441815954832
 21
-1179.84578328613
 31
0.0
  0
LINE
  5
1A3F
330
19B6
100
AcDbEntity
  8
cotes
 62
     0
370
    -3
100
AcDbLine
 10
844.3441815954832
 20
-1208.738648224738
 30
0.0
 11
844.3441815954832
 21
-1185.131513163347
 31
0.0
  0
SOLID
  5
1A40
330
19B6
100
AcDbEntity
  8
cotes
 62
     0
100
AcDbTrace
 10
842.6775149288165
 20
-1156.238648224738
 30
0.0
 11
846.0108482621498
 21
-1156.238648224738
 31
0.0
 12
844.3441815954832
 22
-1146.238648224738
 32
0.0
 13
844.3441815954832
 23
-1146.238648224738
 33
0.0
  0
SOLID
  5
1A41
330
19B6
100
AcDbEntity
  8
cotes
 62
     0
100
AcDbTrace
 10
842.6775149288165
 20
-1208.738648224738
 30
0.0
 11
846.0108482621498
 21
-1208.738648224738
 31
0.0
 12
844.3441815954832
 22
-1218.738648224738
 32
0.0
 13
844.3441815954832
 23
-1218.738648224738
 33
0.0
  0
MTEXT
  5
1A42
330
19B6
100
AcDbEntity
  8
cotes
 62
     0
100
AcDbMText
 10
844.3441815954832
 20
-1182.488648224738
 30
0.0
 40
5.0
 41
0.0
 71
     5
 72
     1
  1
\A1;72.5
 73
     1
 44
1.0
1001
ACAD
1000
MTEXTBEGIN
1070
    73
1070
     1
1070
    44
1040
1.0
1070
    74
1070
     0
1000
MTEXTEND
  0
POINT
  5
1A43
330
19B6
100
AcDbEntity
  8
Defpoints
 62
     0
100
AcDbPoint
 10
844.3441815954832
 20
-1146.238648224738
 30
0.0
  0
POINT
  5
1A44
330
19B6
100
AcDbEntity
  8
Defpoints
 62
     0
100
AcDbPoint
 10
844.2541815954831
 20
-1218.738648224738
 30
0.0
  0
POINT
  5
1A45
330
19B6
100
AcDbEntity
  8
Defpoints
 62
     0
100
AcDbPoint
 10
844.3441815954832
 20
-1218.738648224738
 30
0.0
  0
ENDBLK
  5
19B8
330
19B6
100
AcDbEntity
  8
0
100
AcDbBlockEnd
  0
BLOCK
  5
19C4
330
19C3
100
AcDbEntity
  8
0
100
AcDbBlockBegin
  2
*D30
 70
     1
 10
0.0
 20
0.0
 30
0.0
  3
*D30
  1

  0
LINE
  5
1A50
330
19C3
100
AcDbEntity
  8
cotes
 62
     0
370
    -2
100
AcDbLine
 10
594.5241815954831
 20
-1258.801148224738
 30
0.0
 11
594.5241815954831
 21
-1356.939063709653
 31
0.0
  0
LINE
  5
1A51
330
19C3
100
AcDbEntity
  8
cotes
 62
     0
370
    -2
100
AcDbLine
 10
1094.524181595483
 20
-1258.801148224738
 30
0.0
 11
1094.524181595483
 21
-1356.939063709653
 31
0.0
  0
LINE
  5
1A52
330
19C3
100
AcDbEntity
  8
cotes
 62
     0
370
    -3
100
AcDbLine
 10
604.5241815954831
 20
-1356.759063709653
 30
0.0
 11
836.0064871889347
 21
-1356.759063709653
 31
0.0
  0
LINE
  5
1A53
330
19C3
100
AcDbEntity
  8
cotes
 62
     0
370
    -3
100
AcDbLine
 10
1084.524181595483
 20
-1356.759063709653
 30
0.0
 11
853.0418760020317
 21
-1356.759063709653
 31
0.0
  0
SOLID
  5
1A54
330
19C3
100
AcDbEntity
  8
cotes
 62
     0
100
AcDbTrace
 10
604.5241815954831
 20
-1355.092397042986
 30
0.0
 11
604.5241815954831
 21
-1358.425730376319
 31
0.0
 12
594.5241815954831
 22
-1356.759063709653
 32
0.0
 13
594.5241815954831
 23
-1356.759063709653
 33
0.0
  0
SOLID
  5
1A55
330
19C3
100
AcDbEntity
  8
cotes
 62
     0
100
AcDbTrace
 10
1084.524181595483
 20
-1355.092397042986
 30
0.0
 11
1084.524181595483
 21
-1358.425730376319
 31
0.0
 12
1094.524181595483
 22
-1356.759063709653
 32
0.0
 13
1094.524181595483
 23
-1356.759063709653
 33
0.0
  0
MTEXT
  5
1A56
330
19C3
100
AcDbEntity
  8
cotes
 62
     0
100
AcDbMText
 10
844.5241815954831
 20
-1356.759063709653
 30
0.0
 40
5.0
 41
0.0
 71
     5
 72
     1
  1
\A1;500.0
 73
     1
 44
1.0
1001
ACAD
1000
MTEXTBEGIN
1070
    73
1070
     1
1070
    44
1040
1.0
1070
    74
1070
     0
1000
MTEXTEND
  0
POINT
  5
1A57
330
19C3
100
AcDbEntity
  8
Defpoints
 62
     0
100
AcDbPoint
 10
594.5241815954831
 20
-1258.738648224738
 30
0.0
  0
POINT
  5
1A58
330
19C3
100
AcDbEntity
  8
Defpoints
 62
     0
100
AcDbPoint
 10
1094.524181595483
 20
-1258.738648224738
 30
0.0
  0
POINT
  5
1A59
330
19C3
100
AcDbEntity
  8
Defpoints
 62
     0
100
AcDbPoint
 10
1094.524181595483
 20
-1356.759063709653
 30
0.0
  0
ENDBLK
  5
19C5
330
19C3
100
AcDbEntity
  8
0
100
AcDbBlockEnd
  0
BLOCK
  5
19D1
330
19D0
100
AcDbEntity
  8
0
100
AcDbBlockBegin
  2
*D31
 70
     1
 10
0.0
 20
0.0
 30
0.0
  3
*D31
  1

  0
LINE
  5
1A5A
330
19D0
100
AcDbEntity
  8
cotes
 62
     0
370
    -2
100
AcDbLine
 10
594.4616815954831
 20
-1158.738648224738
 30
0.0
 11
579.3963735332765
 21
-1158.738648224738
 31
0.0
  0
LINE
  5
1A5B
330
19D0
100
AcDbEntity
  8
cotes
 62
     0
370
    -2
100
AcDbLine
 10
594.4616815954831
 20
-1258.738648224738
 30
0.0
 11
579.3963735332765
 21
-1258.738648224738
 31
0.0
  0
LINE
  5
1A5C
330
19D0
100
AcDbEntity
  8
cotes
 62
     0
370
    -3
100
AcDbLine
 10
579.5763735332765
 20
-1168.738648224738
 30
0.0
 11
579.5763735332765
 21
-1206.09578328613
 31
0.0
  0
LINE
  5
1A5D
330
19D0
100
AcDbEntity
  8
cotes
 62
     0
370
    -3
100
AcDbLine
 10
579.5763735332765
 20
-1248.738648224738
 30
0.0
 11
579.5763735332765
 21
-1211.381513163347
 31
0.0
  0
SOLID
  5
1A5E
330
19D0
100
AcDbEntity
  8
cotes
 62
     0
100
AcDbTrace
 10
577.9097068666097
 20
-1168.738648224738
 30
0.0
 11
581.2430401999431
 21
-1168.738648224738
 31
0.0
 12
579.5763735332765
 22
-1158.738648224738
 32
0.0
 13
579.5763735332765
 23
-1158.738648224738
 33
0.0
  0
SOLID
  5
1A5F
330
19D0
100
AcDbEntity
  8
cotes
 62
     0
100
AcDbTrace
 10
577.9097068666097
 20
-1248.738648224738
 30
0.0
 11
581.2430401999431
 21
-1248.738648224738
 31
0.0
 12
579.5763735332765
 22
-1258.738648224738
 32
0.0
 13
579.5763735332765
 23
-1258.738648224738
 33
0.0
  0
MTEXT
  5
1A60
330
19D0
100
AcDbEntity
  8
cotes
 62
     0
100
AcDbMText
 10
579.5763735332766
 20
-1208.738648224738
 30
0.0
 40
5.0
 41
0.0
 71
     5
 72
     1
  1
\A1;100.0
 73
     1
 44
1.0
1001
ACAD
1000
MTEXTBEGIN
1070
    73
1070
     1
1070
    44
1040
1.0
1070
    74
1070
     0
1000
MTEXTEND
  0
POINT
  5
1A61
330
19D0
100
AcDbEntity
  8
Defpoints
 62
     0
100
AcDbPoint
 10
594.5241815954831
 20
-1158.738648224738
 30
0.0
  0
POINT
  5
1A62
330
19D0
100
AcDbEntity
  8
Defpoints
 62
     0
100
AcDbPoint
 10
594.5241815954831
 20
-1258.738648224738
 30
0.0
  0
POINT
  5
1A63
330
19D0
100
AcDbEntity
  8
Defpoints
 62
     0
100
AcDbPoint
 10
579.5763735332765
 20
-1258.738648224738
 30
0.0
  0
ENDBLK
  5
19D2
330
19D0
100
AcDbEntity
  8
0
100
AcDbBlockEnd
  0
BLOCK
  5
19DE
330
19DD
100
AcDbEntity
  8
0
100
AcDbBlockBegin
  2
*D32
 70
     1
 10
0.0
 20
0.0
 30
0.0
  3
*D32
  1

  0
LINE
  5
1A64
330
19DD
100
AcDbEntity
  8
cotes
 62
     0
370
    -2
100
AcDbLine
 10
594.5241815954831
 20
-1259.301148224738
 30
0.0
 11
594.5241815954831
 21
-1266.58885520236
 31
0.0
  0
LINE
  5
1A65
330
19DD
100
AcDbEntity
  8
cotes
 62
     0
370
    -2
100
AcDbLine
 10
634.5241815954831
 20
-1258.801148224738
 30
0.0
 11
634.5241815954831
 21
-1266.58885520236
 31
0.0
  0
LINE
  5
1A66
330
19DD
100
AcDbEntity
  8
cotes
 62
     0
370
    -2
100
AcDbLine
 10
599.5241815954831
 20
-1266.40885520236
 30
0.0
 11
607.8482334372294
 21
-1266.40885520236
 31
0.0
  0
LINE
  5
1A67
330
19DD
100
AcDbEntity
  8
cotes
 62
     0
370
    -2
100
AcDbLine
 10
629.5241815954831
 20
-1266.40885520236
 30
0.0
 11
621.2001297537367
 21
-1266.40885520236
 31
0.0
  0
SOLID
  5
1A68
330
19DD
100
AcDbEntity
  8
cotes
 62
     0
100
AcDbTrace
 10
599.5241815954831
 20
-1265.575521869026
 30
0.0
 11
599.5241815954831
 21
-1267.242188535693
 31
0.0
 12
594.5241815954831
 22
-1266.40885520236
 32
0.0
 13
594.5241815954831
 23
-1266.40885520236
 33
0.0
  0
SOLID
  5
1A69
330
19DD
100
AcDbEntity
  8
cotes
 62
     0
100
AcDbTrace
 10
629.5241815954831
 20
-1265.575521869026
 30
0.0
 11
629.5241815954831
 21
-1267.242188535693
 31
0.0
 12
634.5241815954831
 22
-1266.40885520236
 32
0.0
 13
634.5241815954831
 23
-1266.40885520236
 33
0.0
  0
MTEXT
  5
1A6A
330
19DD
100
AcDbEntity
  8
cotes
 62
     0
100
AcDbMText
 10
614.5241815954831
 20
-1266.40885520236
 30
0.0
 40
5.0
 41
0.0
 71
     5
 72
     1
  1
\A1;40.0
 73
     1
 44
1.0
1001
ACAD
1000
MTEXTBEGIN
1070
    73
1070
     1
1070
    44
1040
1.0
1070
    74
1070
     0
1000
MTEXTEND
  0
POINT
  5
1A6B
330
19DD
100
AcDbEntity
  8
Defpoints
 62
     0
100
AcDbPoint
 10
594.5241815954831
 20
-1259.238648224738
 30
0.0
  0
POINT
  5
1A6C
330
19DD
100
AcDbEntity
  8
Defpoints
 62
     0
100
AcDbPoint
 10
634.5241815954831
 20
-1258.738648224738
 30
0.0
  0
POINT
  5
1A6D
330
19DD
100
AcDbEntity
  8
Defpoints
 62
     0
100
AcDbPoint
 10
634.5241815954831
 20
-1266.40885520236
 30
0.0
  0
ENDBLK
  5
19DF
330
19DD
100
AcDbEntity
  8
0
100
AcDbBlockEnd
  0
BLOCK
  5
19EB
330
19EA
100
AcDbEntity
  8
0
100
AcDbBlockBegin
  2
*D33
 70
     1
 10
0.0
 20
0.0
 30
0.0
  3
*D33
  1

  0
LINE
  5
1A82
330
19EA
100
AcDbEntity
  8
cotes
 62
     0
370
    -2
100
AcDbLine
 10
614.4616815954831
 20
-1178.738648224738
 30
0.0
 11
614.344181595483
 21
-1178.738648224738
 31
0.0
  0
LINE
  5
1A83
330
19EA
100
AcDbEntity
  8
cotes
 62
     0
370
    -2
100
AcDbLine
 10
614.4616815954831
 20
-1238.738648224738
 30
0.0
 11
614.344181595483
 21
-1238.738648224738
 31
0.0
  0
LINE
  5
1A84
330
19EA
100
AcDbEntity
  8
cotes
 62
     0
370
    -2
100
AcDbLine
 10
614.5241815954831
 20
-1183.738648224738
 30
0.0
 11
614.5241815954831
 21
-1206.09578328613
 31
0.0
  0
LINE
  5
1A85
330
19EA
100
AcDbEntity
  8
cotes
 62
     0
370
    -2
100
AcDbLine
 10
614.5241815954831
 20
-1233.738648224738
 30
0.0
 11
614.5241815954831
 21
-1211.381513163347
 31
0.0
  0
SOLID
  5
1A86
330
19EA
100
AcDbEntity
  8
cotes
 62
     0
100
AcDbTrace
 10
613.6908482621497
 20
-1183.738648224738
 30
0.0
 11
615.3575149288164
 21
-1183.738648224738
 31
0.0
 12
614.5241815954831
 22
-1178.738648224738
 32
0.0
 13
614.5241815954831
 23
-1178.738648224738
 33
0.0
  0
SOLID
  5
1A87
330
19EA
100
AcDbEntity
  8
cotes
 62
     0
100
AcDbTrace
 10
613.6908482621497
 20
-1233.738648224738
 30
0.0
 11
615.3575149288164
 21
-1233.738648224738
 31
0.0
 12
614.5241815954831
 22
-1238.738648224738
 32
0.0
 13
614.5241815954831
 23
-1238.738648224738
 33
0.0
  0
MTEXT
  5
1A88
330
19EA
100
AcDbEntity
  8
cotes
 62
     0
100
AcDbMText
 10
614.5241815954832
 20
-1208.738648224738
 30
0.0
 40
5.0
 41
0.0
 71
     5
 72
     1
  1
\A1;60.0
 73
     1
 44
1.0
1001
ACAD
1000
MTEXTBEGIN
1070
    73
1070
     1
1070
    44
1040
1.0
1070
    74
1070
     0
1000
MTEXTEND
  0
POINT
  5
1A89
330
19EA
100
AcDbEntity
  8
Defpoints
 62
     0
100
AcDbPoint
 10
614.5241815954831
 20
-1178.738648224738
 30
0.0
  0
POINT
  5
1A8A
330
19EA
100
AcDbEntity
  8
Defpoints
 62
     0
100
AcDbPoint
 10
614.5241815954831
 20
-1238.738648224738
 30
0.0
  0
POINT
  5
1A8B
330
19EA
100
AcDbEntity
  8
Defpoints
 62
     0
100
AcDbPoint
 10
614.5241815954831
 20
-1238.738648224738
 30
0.0
  0
ENDBLK
  5
19EC
330
19EA
100
AcDbEntity
  8
0
100
AcDbBlockEnd
  0
BLOCK
  5
19F8
330
19F7
100
AcDbEntity
  8
0
100
AcDbBlockBegin
  2
*D34
 70
     1
 10
0.0
 20
0.0
 30
0.0
  3
*D34
  1

  0
LINE
  5
1A8C
330
19F7
100
AcDbEntity
  8
cotes
 62
     0
370
    -2
100
AcDbLine
 10
614.4616815954831
 20
-1238.738648224738
 30
0.0
 11
614.344181595483
 21
-1238.738648224738
 31
0.0
  0
LINE
  5
1A8D
330
19F7
100
AcDbEntity
  8
cotes
 62
     0
370
    -2
100
AcDbLine
 10
614.4616815954831
 20
-1258.738648224738
 30
0.0
 11
614.344181595483
 21
-1258.738648224738
 31
0.0
  0
LINE
  5
1A8E
330
19F7
100
AcDbEntity
  8
cotes
 62
     0
370
    -2
100
AcDbLine
 10
614.5241815954831
 20
-1243.738648224738
 30
0.0
 11
614.5241815954831
 21
-1246.09578328613
 31
0.0
  0
LINE
  5
1A8F
330
19F7
100
AcDbEntity
  8
cotes
 62
     0
370
    -2
100
AcDbLine
 10
614.5241815954831
 20
-1253.738648224738
 30
0.0
 11
614.5241815954831
 21
-1251.381513163347
 31
0.0
  0
SOLID
  5
1A90
330
19F7
100
AcDbEntity
  8
cotes
 62
     0
100
AcDbTrace
 10
613.6908482621497
 20
-1243.738648224738
 30
0.0
 11
615.3575149288164
 21
-1243.738648224738
 31
0.0
 12
614.5241815954831
 22
-1238.738648224738
 32
0.0
 13
614.5241815954831
 23
-1238.738648224738
 33
0.0
  0
SOLID
  5
1A91
330
19F7
100
AcDbEntity
  8
cotes
 62
     0
100
AcDbTrace
 10
613.6908482621497
 20
-1253.738648224738
 30
0.0
 11
615.3575149288164
 21
-1253.738648224738
 31
0.0
 12
614.5241815954831
 22
-1258.738648224738
 32
0.0
 13
614.5241815954831
 23
-1258.738648224738
 33
0.0
  0
MTEXT
  5
1A92
330
19F7
100
AcDbEntity
  8
cotes
 62
     0
100
AcDbMText
 10
614.5241815954832
 20
-1248.738648224738
 30
0.0
 40
5.0
 41
0.0
 71
     5
 72
     1
  1
\A1;20.0
 73
     1
 44
1.0
1001
ACAD
1000
MTEXTBEGIN
1070
    73
1070
     1
1070
    44
1040
1.0
1070
    74
1070
     0
1000
MTEXTEND
  0
POINT
  5
1A93
330
19F7
100
AcDbEntity
  8
Defpoints
 62
     0
100
AcDbPoint
 10
614.5241815954831
 20
-1238.738648224738
 30
0.0
  0
POINT
  5
1A94
330
19F7
100
AcDbEntity
  8
Defpoints
 62
     0
100
AcDbPoint
 10
614.5241815954831
 20
-1258.738648224738
 30
0.0
  0
POINT
  5
1A95
330
19F7
100
AcDbEntity
  8
Defpoints
 62
     0
100
AcDbPoint
 10
614.5241815954831
 20
-1258.738648224738
 30
0.0
  0
ENDBLK
  5
19F9
330
19F7
100
AcDbEntity
  8
0
100
AcDbBlockEnd
  0
BLOCK
  5
1A05
330
1A04
100
AcDbEntity
  8
0
100
AcDbBlockBegin
  2
*D35
 70
     1
 10
0.0
 20
0.0
 30
0.0
  3
*D35
  1

  0
LINE
  5
1A96
330
1A04
100
AcDbEntity
  8
cotes
 62
     0
370
    -2
100
AcDbLine
 10
614.5241815954831
 20
-1178.586148224738
 30
0.0
 11
614.5241815954831
 21
-1167.848309735102
 31
0.0
  0
LINE
  5
1A97
330
1A04
100
AcDbEntity
  8
cotes
 62
     0
370
    -2
100
AcDbLine
 10
594.5241815954831
 20
-1178.586148224738
 30
0.0
 11
594.5241815954831
 21
-1167.848309735102
 31
0.0
  0
LINE
  5
1A98
330
1A04
100
AcDbEntity
  8
cotes
 62
     0
370
    -2
100
AcDbLine
 10
619.5241815954831
 20
-1168.028309735102
 30
0.0
 11
624.5241815954831
 21
-1168.028309735102
 31
0.0
  0
LINE
  5
1A99
330
1A04
100
AcDbEntity
  8
cotes
 62
     0
370
    -2
100
AcDbLine
 10
589.5241815954831
 20
-1168.028309735102
 30
0.0
 11
584.5241815954831
 21
-1168.028309735102
 31
0.0
  0
SOLID
  5
1A9A
330
1A04
100
AcDbEntity
  8
cotes
 62
     0
100
AcDbTrace
 10
619.5241815954831
 20
-1167.194976401769
 30
0.0
 11
619.5241815954831
 21
-1168.861643068435
 31
0.0
 12
614.5241815954831
 22
-1168.028309735102
 32
0.0
 13
614.5241815954831
 23
-1168.028309735102
 33
0.0
  0
SOLID
  5
1A9B
330
1A04
100
AcDbEntity
  8
cotes
 62
     0
100
AcDbTrace
 10
589.5241815954831
 20
-1167.194976401769
 30
0.0
 11
589.5241815954831
 21
-1168.861643068435
 31
0.0
 12
594.5241815954831
 22
-1168.028309735102
 32
0.0
 13
594.5241815954831
 23
-1168.028309735102
 33
0.0
  0
MTEXT
  5
1A9C
330
1A04
100
AcDbEntity
  8
cotes
 62
     0
100
AcDbMText
 10
604.5241815954831
 20
-1168.028309735102
 30
0.0
 40
5.0
 41
0.0
 71
     5
 72
     1
  1
\A1;20.0
 73
     1
 44
1.0
1001
ACAD
1000
MTEXTBEGIN
1070
    73
1070
     1
1070
    44
1040
1.0
1070
    74
1070
     0
1000
MTEXTEND
  0
POINT
  5
1A9D
330
1A04
100
AcDbEntity
  8
Defpoints
 62
     0
100
AcDbPoint
 10
614.5241815954831
 20
-1178.648648224738
 30
0.0
  0
POINT
  5
1A9E
330
1A04
100
AcDbEntity
  8
Defpoints
 62
     0
100
AcDbPoint
 10
594.5241815954831
 20
-1178.648648224738
 30
0.0
  0
POINT
  5
1A9F
330
1A04
100
AcDbEntity
  8
Defpoints
 62
     0
100
AcDbPoint
 10
594.5241815954831
 20
-1168.028309735102
 30
0.0
  0
ENDBLK
  5
1A06
330
1A04
100
AcDbEntity
  8
0
100
AcDbBlockEnd
  0
BLOCK
  5
1A12
330
1A11
100
AcDbEntity
  8
0
100
AcDbBlockBegin
  2
*D36
 70
     1
 10
0.0
 20
0.0
 30
0.0
  3
*D36
  1

  0
LINE
  5
1A14
330
1A11
100
AcDbEntity
  8
cotes
 62
     0
370
    -2
100
AcDbLine
 10
844.2816815954831
 20
-1073.722189980846
 30
0.0
 11
844.1641815954833
 21
-1073.722189980846
 31
0.0
  0
LINE
  5
1A15
330
1A11
100
AcDbEntity
  8
cotes
 62
     0
370
    -2
100
AcDbLine
 10
844.2816815954831
 20
-1146.222189980846
 30
0.0
 11
844.1641815954833
 21
-1146.222189980846
 31
0.0
  0
LINE
  5
1A16
330
1A11
100
AcDbEntity
  8
cotes
 62
     0
370
    -3
100
AcDbLine
 10
844.3441815954832
 20
-1083.722189980846
 30
0.0
 11
844.3441815954832
 21
-1107.329325042237
 31
0.0
  0
LINE
  5
1A17
330
1A11
100
AcDbEntity
  8
cotes
 62
     0
370
    -3
100
AcDbLine
 10
844.3441815954832
 20
-1136.222189980846
 30
0.0
 11
844.3441815954832
 21
-1112.615054919454
 31
0.0
  0
SOLID
  5
1A18
330
1A11
100
AcDbEntity
  8
cotes
 62
     0
100
AcDbTrace
 10
842.6775149288165
 20
-1083.722189980846
 30
0.0
 11
846.0108482621498
 21
-1083.722189980846
 31
0.0
 12
844.3441815954832
 22
-1073.722189980846
 32
0.0
 13
844.3441815954832
 23
-1073.722189980846
 33
0.0
  0
SOLID
  5
1A19
330
1A11
100
AcDbEntity
  8
cotes
 62
     0
100
AcDbTrace
 10
842.6775149288165
 20
-1136.222189980846
 30
0.0
 11
846.0108482621498
 21
-1136.222189980846
 31
0.0
 12
844.3441815954832
 22
-1146.222189980846
 32
0.0
 13
844.3441815954832
 23
-1146.222189980846
 33
0.0
  0
MTEXT
  5
1A1A
330
1A11
100
AcDbEntity
  8
cotes
 62
     0
100
AcDbMText
 10
844.3441815954832
 20
-1109.972189980846
 30
0.0
 40
5.0
 41
0.0
 71
     5
 72
     1
  1
\A1;72.5
 73
     1
 44
1.0
1001
ACAD
1000
MTEXTBEGIN
1070
    73
1070
     1
1070
    44
1040
1.0
1070
    74
1070
     0
1000
MTEXTEND
  0
POINT
  5
1A1B
330
1A11
100
AcDbEntity
  8
Defpoints
 62
     0
100
AcDbPoint
 10
844.3441815954832
 20
-1073.722189980846
 30
0.0
  0
POINT
  5
1A1C
330
1A11
100
AcDbEntity
  8
Defpoints
 62
     0
100
AcDbPoint
 10
844.3441815954832
 20
-1146.222189980846
 30
0.0
  0
POINT
  5
1A1D
330
1A11
100
AcDbEntity
  8
Defpoints
 62
     0
100
AcDbPoint
 10
844.3441815954832
 20
-1146.222189980846
 30
0.0
  0
ENDBLK
  5
1A13
330
1A11
100
AcDbEntity
  8
0
100
AcDbBlockEnd
  0
BLOCK
  5
1A1F
330
1A1E
100
AcDbEntity
  8
0
100
AcDbBlockBegin
  2
*D37
 70
     1
 10
0.0
 20
0.0
 30
0.0
  3
*D37
  1

  0
LINE
  5
1A21
330
1A1E
100
AcDbEntity
  8
cotes
 62
     0
370
    -2
100
AcDbLine
 10
778.8289399594583
 20
-1094.956948344821
 30
0.0
 11
783.8289399594583
 21
-1094.956948344821
 31
0.0
  0
MTEXT
  5
1A22
102
{ACAD_XDICTIONARY
360
216A
102
}
330
1A1E
100
AcDbEntity
  8
cotes
 62
     0
100
AcDbMText
 10
771.4486943932919
 20
-1094.956948344821
 30
0.0
 40
5.0
 41
0.0
 71
     5
 72
     1
  1
\A1;\U+22058.5
 73
     1
 44
1.0
1001
ACAD
1000
MTEXTBEGIN
1070
    73
1070
     1
1070
    44
1040
1.0
1070
    74
1070
     0
1000
MTEXTEND
  0
SOLID
  5
1A23
330
1A1E
100
AcDbEntity
  8
cotes
 62
     0
100
AcDbTrace
 10
783.8289399594583
 20
-1094.123615011488
 30
0.0
 11
783.8289399594583
 21
-1095.790281678154
 31
0.0
 12
788.8289399594583
 22
-1094.956948344821
 32
0.0
 13
788.8289399594583
 23
-1094.956948344821
 33
0.0
  0
LINE
  5
1A24
330
1A1E
100
AcDbEntity
  8
cotes
 62
     0
370
    -2
100
AcDbLine
 10
792.9889399594583
 20
-1094.956948344821
 30
0.0
 11
793.1689399594585
 21
-1094.956948344821
 31
0.0
  0
LINE
  5
1A25
330
1A1E
100
AcDbEntity
  8
cotes
 62
     0
370
    -2
100
AcDbLine
 10
793.0789399594583
 20
-1095.046948344821
 30
0.0
 11
793.0789399594583
 21
-1094.866948344821
 31
0.0
  0
POINT
  5
1A26
330
1A1E
100
AcDbEntity
  8
Defpoints
 62
     0
100
AcDbPoint
 10
788.8289399594583
 20
-1094.956948344821
 30
0.0
  0
POINT
  5
1A27
330
1A1E
100
AcDbEntity
  8
Defpoints
 62
     0
100
AcDbPoint
 10
797.3289399594585
 20
-1094.956948344821
 30
0.0
  0
ENDBLK
  5
1A20
330
1A1E
100
AcDbEntity
  8
0
100
AcDbBlockEnd
  0
BLOCK
  5
1A29
330
1A28
100
AcDbEntity
  8
0
100
AcDbBlockBegin
  2
*D38
 70
     1
 10
0.0
 20
0.0
 30
0.0
  3
*D38
  1

  0
LINE
  5
1A2B
330
1A28
100
AcDbEntity
  8
cotes
 62
     0
370
    -2
100
AcDbLine
 10
778.8289399594583
 20
-1197.48743161687
 30
0.0
 11
783.8289399594583
 21
-1197.48743161687
 31
0.0
  0
MTEXT
  5
1A2C
102
{ACAD_XDICTIONARY
360
216C
102
}
330
1A28
100
AcDbEntity
  8
cotes
 62
     0
100
AcDbMText
 10
771.4486943932919
 20
-1197.48743161687
 30
0.0
 40
5.0
 41
0.0
 71
     5
 72
     1
  1
\A1;\U+22058.5
 73
     1
 44
1.0
1001
ACAD
1000
MTEXTBEGIN
1070
    73
1070
     1
1070
    44
1040
1.0
1070
    74
1070
     0
1000
MTEXTEND
  0
SOLID
  5
1A2D
330
1A28
100
AcDbEntity
  8
cotes
 62
     0
100
AcDbTrace
 10
783.8289399594583
 20
-1196.654098283537
 30
0.0
 11
783.8289399594583
 21
-1198.320764950204
 31
0.0
 12
788.8289399594583
 22
-1197.48743161687
 32
0.0
 13
788.8289399594583
 23
-1197.48743161687
 33
0.0
  0
LINE
  5
1A2E
330
1A28
100
AcDbEntity
  8
cotes
 62
     0
370
    -2
100
AcDbLine
 10
792.9889399594583
 20
-1197.48743161687
 30
0.0
 11
793.1689399594585
 21
-1197.48743161687
 31
0.0
  0
LINE
  5
1A2F
330
1A28
100
AcDbEntity
  8
cotes
 62
     0
370
    -2
100
AcDbLine
 10
793.0789399594583
 20
-1197.577431616871
 30
0.0
 11
793.0789399594583
 21
-1197.39743161687
 31
0.0
  0
POINT
  5
1A30
330
1A28
100
AcDbEntity
  8
Defpoints
 62
     0
100
AcDbPoint
 10
788.8289399594583
 20
-1197.48743161687
 30
0.0
  0
POINT
  5
1A31
330
1A28
100
AcDbEntity
  8
Defpoints
 62
     0
100
AcDbPoint
 10
797.3289399594585
 20
-1197.48743161687
 30
0.0
  0
ENDBLK
  5
1A2A
330
1A28
100
AcDbEntity
  8
0
100
AcDbBlockEnd
  0
BLOCK
  5
1A33
330
1A32
100
AcDbEntity
  8
0
100
AcDbBlockBegin
  2
*D39
 70
     1
 10
0.0
 20
0.0
 30
0.0
  3
*D39
  1

  0
LINE
  5
1A35
330
1A32
100
AcDbEntity
  8
cotes
 62
     0
370
    -2
100
AcDbLine
 10
909.8441815954833
 20
-1146.222189980846
 30
0.0
 11
904.8441815954832
 21
-1146.222189980846
 31
0.0
  0
MTEXT
  5
1A36
102
{ACAD_XDICTIONARY
360
216E
102
}
330
1A32
100
AcDbEntity
  8
cotes
 62
     0
100
AcDbMText
 10
921.0818623594667
 20
-1146.222189980846
 30
0.0
 40
5.0
 41
0.0
 71
     5
 72
     1
  1
\A1;\U+2205111.0
 73
     1
 44
1.0
1001
ACAD
1000
MTEXTBEGIN
1070
    73
1070
     1
1070
    44
1040
1.0
1070
    74
1070
     0
1000
MTEXTEND
  0
SOLID
  5
1A37
330
1A32
100
AcDbEntity
  8
cotes
 62
     0
100
AcDbTrace
 10
904.8441815954832
 20
-1145.388856647512
 30
0.0
 11
904.8441815954832
 21
-1147.055523314179
 31
0.0
 12
899.8441815954832
 22
-1146.222189980846
 32
0.0
 13
899.8441815954832
 23
-1146.222189980846
 33
0.0
  0
LINE
  5
1A38
330
1A32
100
AcDbEntity
  8
cotes
 62
     0
370
    -2
100
AcDbLine
 10
844.2541815954831
 20
-1146.222189980846
 30
0.0
 11
844.4341815954832
 21
-1146.222189980846
 31
0.0
  0
LINE
  5
1A39
330
1A32
100
AcDbEntity
  8
cotes
 62
     0
370
    -2
100
AcDbLine
 10
844.3441815954832
 20
-1146.312189980846
 30
0.0
 11
844.3441815954832
 21
-1146.132189980846
 31
0.0
  0
POINT
  5
1A3A
330
1A32
100
AcDbEntity
  8
Defpoints
 62
     0
100
AcDbPoint
 10
899.8441815954832
 20
-1146.222189980846
 30
0.0
  0
POINT
  5
1A3B
330
1A32
100
AcDbEntity
  8
Defpoints
 62
     0
100
AcDbPoint
 10
788.8441815954831
 20
-1146.222189980846
 30
0.0
  0
ENDBLK
  5
1A34
330
1A32
100
AcDbEntity
  8
0
100
AcDbBlockEnd
  0
BLOCK
  5
1A47
330
1A46
100
AcDbEntity
  8
0
100
AcDbBlockBegin
  2
*D40
 70
     1
 10
0.0
 20
0.0
 30
0.0
  3
*D40
  1

  0
LINE
  5
1A49
330
1A46
100
AcDbEntity
  8
cotes
 62
     0
370
    -2
100
AcDbLine
 10
732.414419491476
 20
-1145.329619966457
 30
0.0
 11
766.8466456165617
 21
-1145.604195485874
 31
0.0
  0
MTEXT
  5
1A4A
102
{ACAD_XDICTIONARY
360
2170
102
}
330
1A46
100
AcDbEntity
  8
cotes
 62
     0
100
AcDbMText
 10
721.1767387274924
 20
-1145.329619966457
 30
0.0
 40
5.0
 41
0.0
 71
     5
 72
     1
  1
\A1;\U+2205145.0
 73
     1
 44
1.0
1001
ACAD
1000
MTEXTBEGIN
1070
    73
1070
     1
1070
    44
1040
1.0
1070
    74
1070
     0
1000
MTEXTEND
  0
SOLID
  5
1A4B
330
1A46
100
AcDbEntity
  8
cotes
 62
     0
100
AcDbTrace
 10
766.8532907186584
 20
-1144.770888647391
 30
0.0
 11
766.8400005144651
 21
-1146.437502324357
 31
0.0
 12
771.8464866474597
 22
-1145.644066098453
 32
0.0
 13
771.8464866474597
 23
-1145.644066098453
 33
0.0
  0
LINE
  5
1A4C
330
1A46
100
AcDbEntity
  8
cotes
 62
     0
370
    -2
100
AcDbLine
 10
844.2541815954832
 20
-1146.222189980846
 30
0.0
 11
844.4341815954834
 21
-1146.222189980846
 31
0.0
  0
LINE
  5
1A4D
330
1A46
100
AcDbEntity
  8
cotes
 62
     0
370
    -2
100
AcDbLine
 10
844.3441815954832
 20
-1146.312189980846
 30
0.0
 11
844.3441815954832
 21
-1146.132189980846
 31
0.0
  0
POINT
  5
1A4E
330
1A46
100
AcDbEntity
  8
Defpoints
 62
     0
100
AcDbPoint
 10
771.8464866474597
 20
-1145.644066098453
 30
0.0
  0
POINT
  5
1A4F
330
1A46
100
AcDbEntity
  8
Defpoints
 62
     0
100
AcDbPoint
 10
916.8418765435063
 20
-1146.800313863238
 30
0.0
  0
ENDBLK
  5
1A48
330
1A46
100
AcDbEntity
  8
0
100
AcDbBlockEnd
  0
BLOCK
  5
1A6F
330
1A6E
100
AcDbEntity
  8
0
100
AcDbBlockBegin
  2
*D41
 70
     1
 10
0.0
 20
0.0
 30
0.0
  3
*D41
  1

  0
LINE
  5
1A71
330
1A6E
100
AcDbEntity
  8
cotes
 62
     0
370
    -2
100
AcDbLine
 10
628.7741815954831
 20
-1178.738648224738
 30
0.0
 11
623.7741815954831
 21
-1178.738648224738
 31
0.0
  0
MTEXT
  5
1A72
102
{ACAD_XDICTIONARY
360
2172
102
}
330
1A6E
100
AcDbEntity
  8
cotes
 62
     0
370
    30
100
AcDbMText
 10
636.1544271616494
 20
-1178.738648224738
 30
0.0
 40
5.0
 41
0.0
 71
     5
 72
     1
  1
\A1;\U+22058.5
 73
     1
 44
1.0
1001
ACAD
1000
MTEXTBEGIN
1070
    73
1070
     1
1070
    44
1040
1.0
1070
    74
1070
     0
1000
MTEXTEND
  0
SOLID
  5
1A73
330
1A6E
100
AcDbEntity
  8
cotes
 62
     0
100
AcDbTrace
 10
623.7741815954831
 20
-1177.905314891405
 30
0.0
 11
623.7741815954831
 21
-1179.571981558072
 31
0.0
 12
618.7741815954831
 22
-1178.738648224738
 32
0.0
 13
618.7741815954831
 23
-1178.738648224738
 33
0.0
  0
LINE
  5
1A74
330
1A6E
100
AcDbEntity
  8
cotes
 62
     0
370
    -2
100
AcDbLine
 10
614.4341815954831
 20
-1178.738648224738
 30
0.0
 11
614.614181595483
 21
-1178.738648224738
 31
0.0
  0
LINE
  5
1A75
330
1A6E
100
AcDbEntity
  8
cotes
 62
     0
370
    -2
100
AcDbLine
 10
614.5241815954831
 20
-1178.828648224738
 30
0.0
 11
614.5241815954831
 21
-1178.648648224738
 31
0.0
  0
POINT
  5
1A76
330
1A6E
100
AcDbEntity
  8
Defpoints
 62
     0
100
AcDbPoint
 10
618.7741815954831
 20
-1178.738648224738
 30
0.0
  0
POINT
  5
1A77
330
1A6E
100
AcDbEntity
  8
Defpoints
 62
     0
100
AcDbPoint
 10
610.2741815954831
 20
-1178.738648224738
 30
0.0
  0
ENDBLK
  5
1A70
330
1A6E
100
AcDbEntity
  8
0
100
AcDbBlockEnd
  0
BLOCK
  5
1A79
330
1A78
100
AcDbEntity
  8
0
100
AcDbBlockBegin
  2
*D42
 70
     1
 10
0.0
 20
0.0
 30
0.0
  3
*D42
  1

  0
LINE
  5
1A7B
330
1A78
100
AcDbEntity
  8
cotes
 62
     0
370
    -2
100
AcDbLine
 10
628.7741815954831
 20
-1238.738648224738
 30
0.0
 11
623.7741815954831
 21
-1238.738648224738
 31
0.0
  0
MTEXT
  5
1A7C
102
{ACAD_XDICTIONARY
360
2174
102
}
330
1A78
100
AcDbEntity
  8
cotes
 62
     0
100
AcDbMText
 10
636.1544271616494
 20
-1238.738648224738
 30
0.0
 40
5.0
 41
0.0
 71
     5
 72
     1
  1
\A1;\U+22058.5
 73
     1
 44
1.0
1001
ACAD
1000
MTEXTBEGIN
1070
    73
1070
     1
1070
    44
1040
1.0
1070
    74
1070
     0
1000
MTEXTEND
  0
SOLID
  5
1A7D
330
1A78
100
AcDbEntity
  8
cotes
 62
     0
100
AcDbTrace
 10
623.7741815954831
 20
-1237.905314891405
 30
0.0
 11
623.7741815954831
 21
-1239.571981558072
 31
0.0
 12
618.7741815954831
 22
-1238.738648224738
 32
0.0
 13
618.7741815954831
 23
-1238.738648224738
 33
0.0
  0
LINE
  5
1A7E
330
1A78
100
AcDbEntity
  8
cotes
 62
     0
370
    -2
100
AcDbLine
 10
614.4341815954831
 20
-1238.738648224738
 30
0.0
 11
614.614181595483
 21
-1238.738648224738
 31
0.0
  0
LINE
  5
1A7F
330
1A78
100
AcDbEntity
  8
cotes
 62
     0
370
    -2
100
AcDbLine
 10
614.5241815954831
 20
-1238.828648224738
 30
0.0
 11
614.5241815954831
 21
-1238.648648224738
 31
0.0
  0
POINT
  5
1A80
330
1A78
100
AcDbEntity
  8
Defpoints
 62
     0
100
AcDbPoint
 10
618.7741815954831
 20
-1238.738648224738
 30
0.0
  0
POINT
  5
1A81
330
1A78
100
AcDbEntity
  8
Defpoints
 62
     0
100
AcDbPoint
 10
610.2741815954831
 20
-1238.738648224738
 30
0.0
  0
ENDBLK
  5
1A7A
330
1A78
100
AcDbEntity
  8
0
100
AcDbBlockEnd
  0
BLOCK
  5
1BEF
330
1BEE
100
AcDbEntity
  8
0
100
AcDbBlockBegin
  2
*D43
 70
     1
 10
0.0
 20
0.0
 30
0.0
  3
*D43
  1

  0
ARC
  5
1BFC
330
1BEE
100
AcDbEntity
  8
0
 62
     0
370
    -2
100
AcDbCircle
 10
1735.951151751756
 20
-1902.570926031268
 30
0.0
 40
299.4971324669253
100
AcDbArc
 50
167.5177612749204
 51
173.7352919516179
  0
ARC
  5
1BFD
330
1BEE
100
AcDbEntity
  8
0
 62
     0
370
    -2
100
AcDbCircle
 10
1735.951151751756
 20
-1902.570926031268
 30
0.0
 40
299.4971324669253
100
AcDbArc
 50
173.8053275581352
 51
180.0228605710601
  0
SOLID
  5
1BFE
330
1BEE
100
AcDbEntity
  8
0
 62
     0
100
AcDbTrace
 10
1443.503927615902
 20
-1837.832033715435
 30
0.0
 11
1443.562505499554
 21
-1837.845019536426
 31
0.0
 12
1443.5721740207
 22
-1837.662792974974
 32
0.0
 13
1443.5721740207
 23
-1837.662792974974
 33
0.0
  0
SOLID
  5
1BFF
330
1BEE
100
AcDbEntity
  8
0
 62
     0
100
AcDbTrace
 10
1436.484043116684
 20
-1902.690402073146
 30
0.0
 11
1436.424043131363
 21
-1902.6904440429
 31
0.0
 12
1436.454169033285
 22
-1902.870423013987
 32
0.0
 13
1436.454169033285
 23
-1902.870423013987
 33
0.0
  0
MTEXT
  5
1C00
330
1BEE
100
AcDbEntity
  8
0
 62
     0
100
AcDbMText
 10
1438.222589310497
 20
-1870.071149684774
 30
0.0
 40
0.18
 41
0.0
 71
     5
 72
     1
  1
\A1;13°
 73
     1
 44
1.0
1001
ACAD
1000
MTEXTBEGIN
1070
    73
1070
     1
1070
    44
1040
1.0
1070
    74
1070
     0
1000
MTEXTEND
  0
POINT
  5
1C01
330
1BEE
100
AcDbEntity
  8
Defpoints
 62
     0
100
AcDbPoint
 10
1439.610173562979
 20
-1859.205536582658
 30
0.0
  0
POINT
  5
1C02
330
1BEE
100
AcDbEntity
  8
Defpoints
 62
     0
100
AcDbPoint
 10
1238.193304218123
 20
-1792.068683878802
 30
0.0
  0
POINT
  5
1C03
330
1BEE
100
AcDbEntity
  8
Defpoints
 62
     0
100
AcDbPoint
 10
1738.193304218123
 20
-1902.568683878802
 30
0.0
  0
POINT
  5
1C04
330
1BEE
100
AcDbEntity
  8
Defpoints
 62
     0
100
AcDbPoint
 10
1238.193304218123
 20
-1903.068683878802
 30
0.0
  0
POINT
  5
1C05
330
1BEE
100
AcDbEntity
  8
Defpoints
 62
     0
100
AcDbPoint
 10
1738.193304218123
 20
-1903.068683878801
 30
0.0
  0
ENDBLK
  5
1BF0
330
1BEE
100
AcDbEntity
  8
0
100
AcDbBlockEnd
  0
BLOCK
  5
1D31
330
1D30
100
AcDbEntity
  8
0
100
AcDbBlockBegin
  2
*D44
 70
     1
 10
0.0
 20
0.0
 30
0.0
  3
*D44
  1

  0
LINE
  5
201C
330
1D30
100
AcDbEntity
  8
0
 62
     0
370
    -2
100
AcDbLine
 10
986.2558042181223
 20
-1808.071249459965
 30
0.0
 11
1054.601705412263
 21
-1808.071249459965
 31
0.0
  0
LINE
  5
201D
330
1D30
100
AcDbEntity
  8
0
 62
     0
370
    -2
100
AcDbLine
 10
986.2558042181232
 20
-2027.818683878802
 30
0.0
 11
1054.601705412263
 21
-2027.818683878802
 31
0.0
  0
LINE
  5
201E
330
1D30
100
AcDbEntity
  8
0
 62
     0
370
    -2
100
AcDbLine
 10
1054.421705412263
 20
-1813.071249459965
 30
0.0
 11
1054.421705412263
 21
-1915.302101730775
 31
0.0
  0
LINE
  5
201F
330
1D30
100
AcDbEntity
  8
0
 62
     0
370
    -2
100
AcDbLine
 10
1054.421705412263
 20
-2022.818683878802
 30
0.0
 11
1054.421705412263
 21
-1920.587831607992
 31
0.0
  0
SOLID
  5
2020
330
1D30
100
AcDbEntity
  8
0
 62
     0
100
AcDbTrace
 10
1053.588372078929
 20
-1813.071249459965
 30
0.0
 11
1055.255038745596
 21
-1813.071249459965
 31
0.0
 12
1054.421705412263
 22
-1808.071249459965
 32
0.0
 13
1054.421705412263
 23
-1808.071249459965
 33
0.0
  0
SOLID
  5
2021
330
1D30
100
AcDbEntity
  8
0
 62
     0
100
AcDbTrace
 10
1053.588372078929
 20
-2022.818683878802
 30
0.0
 11
1055.255038745596
 21
-2022.818683878802
 31
0.0
 12
1054.421705412263
 22
-2027.818683878802
 32
0.0
 13
1054.421705412263
 23
-2027.818683878802
 33
0.0
  0
MTEXT
  5
2022
330
1D30
100
AcDbEntity
  8
0
 62
     0
100
AcDbMText
 10
1054.421705412263
 20
-1917.944966669383
 30
0.0
 40
5.0
 41
0.0
 71
     5
 72
     1
  1
\A1;200
 73
     1
 44
1.0
1001
ACAD
1000
MTEXTBEGIN
1070
    73
1070
     1
1070
    44
1040
1.0
1070
    74
1070
     0
1000
MTEXTEND
  0
POINT
  5
2023
330
1D30
100
AcDbEntity
  8
Defpoints
 62
     0
100
AcDbPoint
 10
986.1933042181224
 20
-1808.071249459965
 30
0.0
  0
POINT
  5
2024
330
1D30
100
AcDbEntity
  8
Defpoints
 62
     0
100
AcDbPoint
 10
986.1933042181233
 20
-2027.818683878802
 30
0.0
  0
POINT
  5
2025
330
1D30
100
AcDbEntity
  8
Defpoints
 62
     0
100
AcDbPoint
 10
1054.421705412263
 20
-2027.818683878802
 30
0.0
  0
ENDBLK
  5
1D32
330
1D30
100
AcDbEntity
  8
0
100
AcDbBlockEnd
  0
BLOCK
  5
1D4B
330
1D4A
100
AcDbEntity
  8
0
100
AcDbBlockBegin
  2
*D45
 70
     1
 10
0.0
 20
0.0
 30
0.0
  3
*D45
  1

  0
LINE
  5
1EA4
330
1D4A
100
AcDbEntity
  8
0
 62
     0
370
    -2
100
AcDbLine
 10
946.1933042181236
 20
-1985.880754320464
 30
0.0
 11
946.1933042181236
 21
-2054.69590349912
 31
0.0
  0
LINE
  5
1EA5
330
1D4A
100
AcDbEntity
  8
0
 62
     0
370
    -2
100
AcDbLine
 10
1026.193304218123
 20
-1985.880754320465
 30
0.0
 11
1026.193304218123
 21
-2054.69590349912
 31
0.0
  0
LINE
  5
1EA6
330
1D4A
100
AcDbEntity
  8
0
 62
     0
370
    -2
100
AcDbLine
 10
951.1933042181237
 20
-2054.51590349912
 30
0.0
 11
977.6721991703743
 21
-2054.51590349912
 31
0.0
  0
LINE
  5
1EA7
330
1D4A
100
AcDbEntity
  8
0
 62
     0
370
    -2
100
AcDbLine
 10
1021.193304218123
 20
-2054.51590349912
 30
0.0
 11
994.7144092658723
 21
-2054.51590349912
 31
0.0
  0
SOLID
  5
1EA8
330
1D4A
100
AcDbEntity
  8
0
 62
     0
100
AcDbTrace
 10
951.1933042181237
 20
-2053.682570165787
 30
0.0
 11
951.1933042181237
 21
-2055.349236832454
 31
0.0
 12
946.1933042181236
 22
-2054.51590349912
 32
0.0
 13
946.1933042181236
 23
-2054.51590349912
 33
0.0
  0
SOLID
  5
1EA9
330
1D4A
100
AcDbEntity
  8
0
 62
     0
100
AcDbTrace
 10
1021.193304218123
 20
-2053.682570165787
 30
0.0
 11
1021.193304218123
 21
-2055.349236832454
 31
0.0
 12
1026.193304218123
 22
-2054.51590349912
 32
0.0
 13
1026.193304218123
 23
-2054.51590349912
 33
0.0
  0
MTEXT
  5
1EAA
330
1D4A
100
AcDbEntity
  8
0
 62
     0
100
AcDbMText
 10
986.1933042181233
 20
-2054.51590349912
 30
0.0
 40
5.0
 41
0.0
 71
     5
 72
     1
  1
\A1;80.00
 73
     1
 44
1.0
1001
ACAD
1000
MTEXTBEGIN
1070
    73
1070
     1
1070
    44
1040
1.0
1070
    74
1070
     0
1000
MTEXTEND
  0
POINT
  5
1EAB
330
1D4A
100
AcDbEntity
  8
Defpoints
 62
     0
100
AcDbPoint
 10
946.1933042181236
 20
-1985.818254320464
 30
0.0
  0
POINT
  5
1EAC
330
1D4A
100
AcDbEntity
  8
Defpoints
 62
     0
100
AcDbPoint
 10
1026.193304218123
 20
-1985.818254320465
 30
0.0
  0
POINT
  5
1EAD
330
1D4A
100
AcDbEntity
  8
Defpoints
 62
     0
100
AcDbPoint
 10
1026.193304218123
 20
-2054.51590349912
 30
0.0
  0
ENDBLK
  5
1D4C
330
1D4A
100
AcDbEntity
  8
0
100
AcDbBlockEnd
  0
BLOCK
  5
1D65
330
1D64
100
AcDbEntity
  8
0
100
AcDbBlockBegin
  2
*D46
 70
     1
 10
0.0
 20
0.0
 30
0.0
  3
*D46
  1

  0
LINE
  5
1F84
330
1D64
100
AcDbEntity
  8
0
 62
     0
370
    -2
100
AcDbLine
 10
965.7517248419072
 20
-1811.50960857664
 30
0.0
 11
965.7517248419072
 21
-1792.414597621718
 31
0.0
  0
LINE
  5
1F85
330
1D64
100
AcDbEntity
  8
0
 62
     0
370
    -2
100
AcDbLine
 10
1006.634883594338
 20
-1811.762174157804
 30
0.0
 11
1006.634883594338
 21
-1792.414597621718
 31
0.0
  0
LINE
  5
1F86
330
1D64
100
AcDbEntity
  8
0
 62
     0
370
    -2
100
AcDbLine
 10
970.7517248419071
 20
-1792.594597621718
 30
0.0
 11
982.430043645135
 21
-1792.594597621718
 31
0.0
  0
LINE
  5
1F87
330
1D64
100
AcDbEntity
  8
0
 62
     0
370
    -2
100
AcDbLine
 10
1001.634883594338
 20
-1792.594597621718
 30
0.0
 11
989.9565647911106
 21
-1792.594597621718
 31
0.0
  0
SOLID
  5
1F88
330
1D64
100
AcDbEntity
  8
0
 62
     0
100
AcDbTrace
 10
970.7517248419071
 20
-1791.761264288385
 30
0.0
 11
970.7517248419071
 21
-1793.427930955051
 31
0.0
 12
965.7517248419072
 22
-1792.594597621718
 32
0.0
 13
965.7517248419072
 23
-1792.594597621718
 33
0.0
  0
SOLID
  5
1F89
330
1D64
100
AcDbEntity
  8
0
 62
     0
100
AcDbTrace
 10
1001.634883594338
 20
-1791.761264288385
 30
0.0
 11
1001.634883594338
 21
-1793.427930955051
 31
0.0
 12
1006.634883594338
 22
-1792.594597621718
 32
0.0
 13
1006.634883594338
 23
-1792.594597621718
 33
0.0
  0
MTEXT
  5
1F8A
330
1D64
100
AcDbEntity
  8
0
 62
     0
100
AcDbMText
 10
986.1933042181229
 20
-1792.594597621718
 30
0.0
 40
5.0
 41
0.0
 71
     5
 72
     1
  1
\A1;40
 73
     1
 44
1.0
1001
ACAD
1000
MTEXTBEGIN
1070
    73
1070
     1
1070
    44
1040
1.0
1070
    74
1070
     0
1000
MTEXTEND
  0
POINT
  5
1F8B
330
1D64
100
AcDbEntity
  8
Defpoints
 62
     0
100
AcDbPoint
 10
965.7517248419072
 20
-1811.57210857664
 30
0.0
  0
POINT
  5
1F8C
330
1D64
100
AcDbEntity
  8
Defpoints
 62
     0
100
AcDbPoint
 10
1006.634883594338
 20
-1811.824674157804
 30
0.0
  0
POINT
  5
1F8D
330
1D64
100
AcDbEntity
  8
Defpoints
 62
     0
100
AcDbPoint
 10
1006.634883594338
 20
-1792.594597621718
 30
0.0
  0
ENDBLK
  5
1D66
330
1D64
100
AcDbEntity
  8
0
100
AcDbBlockEnd
  0
BLOCK
  5
1D84
330
1D83
100
AcDbEntity
  8
0
100
AcDbBlockBegin
  2
*D47
 70
     1
 10
0.0
 20
0.0
 30
0.0
  3
*D47
  1

  0
LINE
  5
1F5D
330
1D83
100
AcDbEntity
  8
0
 62
     0
370
    -2
100
AcDbLine
 10
1003.842602332756
 20
-1828.883090452183
 30
0.0
 11
998.8426023327562
 21
-1828.883090452183
 31
0.0
  0
LINE
  5
1F5E
330
1D83
100
AcDbEntity
  8
0
 62
     0
370
    -2
100
AcDbLine
 10
998.8426023327562
 20
-1828.883090452183
 30
0.0
 11
994.404252117096
 21
-1826.580690104036
 31
0.0
  0
MTEXT
  5
1F5F
330
1D83
100
AcDbEntity
  8
0
 62
     0
100
AcDbMText
 10
1012.837786507381
 20
-1828.883090452183
 30
0.0
 40
5.0
 41
0.0
 71
     5
 72
     1
  1
\A1;R4.25
 73
     1
 44
1.0
1001
ACAD
1000
MTEXTBEGIN
1070
    73
1070
     1
1070
    44
1040
1.0
1070
    74
1070
     0
1000
MTEXTEND
  0
SOLID
  5
1F60
330
1D83
100
AcDbEntity
  8
0
 62
     0
100
AcDbTrace
 10
994.7879855084536
 20
-1825.840965068093
 30
0.0
 11
994.0205187257381
 21
-1827.32041513998
 31
0.0
 12
989.9659019014356
 22
-1824.278289755889
 32
0.0
 13
989.9659019014356
 23
-1824.278289755889
 33
0.0
  0
LINE
  5
1F61
330
1D83
100
AcDbEntity
  8
0
 62
     0
370
    -2
100
AcDbLine
 10
986.1033042181221
 20
-1822.321249459963
 30
0.0
 11
986.2833042181224
 21
-1822.321249459963
 31
0.0
  0
LINE
  5
1F62
330
1D83
100
AcDbEntity
  8
0
 62
     0
370
    -2
100
AcDbLine
 10
986.1933042181222
 20
-1822.411249459962
 30
0.0
 11
986.1933042181224
 21
-1822.231249459963
 31
0.0
  0
POINT
  5
1F63
330
1D83
100
AcDbEntity
  8
Defpoints
 62
     0
100
AcDbPoint
 10
989.9659019014356
 20
-1824.278289755889
 30
0.0
  0
POINT
  5
1F64
330
1D83
100
AcDbEntity
  8
Defpoints
 62
     0
100
AcDbPoint
 10
986.193304218122
 20
-1822.321249459963
 30
0.0
  0
ENDBLK
  5
1D85
330
1D83
100
AcDbEntity
  8
0
100
AcDbBlockEnd
  0
BLOCK
  5
1D9A
330
1D99
100
AcDbEntity
  8
0
100
AcDbBlockBegin
  2
*D48
 70
     1
 10
0.0
 20
0.0
 30
0.0
  3
*D48
  1

  0
LINE
  5
1EB8
330
1D99
100
AcDbEntity
  8
0
 62
     0
370
    -2
100
AcDbLine
 10
987.3454720384842
 20
-1976.866901636234
 30
0.0
 11
978.4880368406671
 21
-1976.866901636234
 31
0.0
  0
LINE
  5
1EB9
330
1D99
100
AcDbEntity
  8
0
 62
     0
370
    -2
100
AcDbLine
 10
978.4880368406671
 20
-1976.866901636234
 30
0.0
 11
973.6432696241855
 21
-1973.30143095016
 31
0.0
  0
MTEXT
  5
1EBA
330
1D99
100
AcDbEntity
  8
0
 62
     0
100
AcDbMText
 10
996.340656213109
 20
-1976.866901636234
 30
0.0
 40
5.0
 41
0.0
 71
     5
 72
     1
  1
\A1;R4.25
 73
     1
 44
1.0
1001
ACAD
1000
MTEXTBEGIN
1070
    73
1070
     1
1070
    44
1040
1.0
1070
    74
1070
     0
1000
MTEXTEND
  0
SOLID
  5
1EBB
330
1D99
100
AcDbEntity
  8
0
 62
     0
100
AcDbTrace
 10
974.1372108017854
 20
-1972.63026289556
 30
0.0
 11
973.1493284465855
 21
-1973.97259900476
 31
0.0
 12
969.6162612965848
 22
-1970.337783884561
 32
0.0
 13
969.6162612965848
 23
-1970.337783884561
 33
0.0
  0
LINE
  5
1EBC
330
1D99
100
AcDbEntity
  8
0
 62
     0
370
    -2
100
AcDbLine
 10
966.1033042181227
 20
-1967.8186838788
 30
0.0
 11
966.2833042181228
 21
-1967.8186838788
 31
0.0
  0
LINE
  5
1EBD
330
1D99
100
AcDbEntity
  8
0
 62
     0
370
    -2
100
AcDbLine
 10
966.1933042181228
 20
-1967.9086838788
 30
0.0
 11
966.1933042181226
 21
-1967.7286838788
 31
0.0
  0
POINT
  5
1EBE
330
1D99
100
AcDbEntity
  8
Defpoints
 62
     0
100
AcDbPoint
 10
969.6162612965848
 20
-1970.337783884561
 30
0.0
  0
POINT
  5
1EBF
330
1D99
100
AcDbEntity
  8
Defpoints
 62
     0
100
AcDbPoint
 10
966.1933042181228
 20
-1967.8186838788
 30
0.0
  0
ENDBLK
  5
1D9B
330
1D99
100
AcDbEntity
  8
0
100
AcDbBlockEnd
  0
BLOCK
  5
1F92
330
1F91
100
AcDbEntity
  8
0
100
AcDbBlockBegin
  2
*D50
 70
     1
 10
0.0
 20
0.0
 30
0.0
  3
*D50
  1

  0
LINE
  5
1FBC
330
1F91
100
AcDbEntity
  8
0
 62
     0
370
    -2
100
AcDbLine
 10
946.1933042181236
 20
-2007.881183878802
 30
0.0
 11
946.1933042181236
 21
-2014.990745504214
 31
0.0
  0
LINE
  5
1FBD
330
1F91
100
AcDbEntity
  8
0
 62
     0
370
    -2
100
AcDbLine
 10
966.1933042181237
 20
-2007.881183878802
 30
0.0
 11
966.1933042181237
 21
-2014.990745504214
 31
0.0
  0
LINE
  5
1FBE
330
1F91
100
AcDbEntity
  8
0
 62
     0
370
    -2
100
AcDbLine
 10
941.1933042181235
 20
-2014.810745504214
 30
0.0
 11
936.1933042181235
 21
-2014.810745504214
 31
0.0
  0
LINE
  5
1FBF
330
1F91
100
AcDbEntity
  8
0
 62
     0
370
    -2
100
AcDbLine
 10
971.1933042181236
 20
-2014.810745504214
 30
0.0
 11
976.1933042181237
 21
-2014.810745504214
 31
0.0
  0
SOLID
  5
1FC0
330
1F91
100
AcDbEntity
  8
0
 62
     0
100
AcDbTrace
 10
941.1933042181235
 20
-2013.977412170881
 30
0.0
 11
941.1933042181235
 21
-2015.644078837548
 31
0.0
 12
946.1933042181236
 22
-2014.810745504214
 32
0.0
 13
946.1933042181236
 23
-2014.810745504214
 33
0.0
  0
SOLID
  5
1FC1
330
1F91
100
AcDbEntity
  8
0
 62
     0
100
AcDbTrace
 10
971.1933042181236
 20
-2013.977412170881
 30
0.0
 11
971.1933042181236
 21
-2015.644078837548
 31
0.0
 12
966.1933042181237
 22
-2014.810745504214
 32
0.0
 13
966.1933042181237
 23
-2014.810745504214
 33
0.0
  0
MTEXT
  5
1FC2
330
1F91
100
AcDbEntity
  8
0
 62
     0
100
AcDbMText
 10
956.180153931089
 20
-2014.810745504214
 30
0.0
 40
5.0
 41
0.0
 71
     5
 72
     1
  1
\A1;20.00
 73
     1
 44
1.0
1001
ACAD
1000
MTEXTBEGIN
1070
    73
1070
     1
1070
    44
1040
1.0
1070
    74
1070
     0
1000
MTEXTEND
  0
POINT
  5
1FC3
330
1F91
100
AcDbEntity
  8
Defpoints
 62
     0
100
AcDbPoint
 10
946.1933042181236
 20
-2007.818683878802
 30
0.0
  0
POINT
  5
1FC4
330
1F91
100
AcDbEntity
  8
Defpoints
 62
     0
100
AcDbPoint
 10
966.1933042181237
 20
-2007.818683878802
 30
0.0
  0
POINT
  5
1FC5
330
1F91
100
AcDbEntity
  8
Defpoints
 62
     0
100
AcDbPoint
 10
966.1933042181237
 20
-2014.810745504214
 30
0.0
  0
ENDBLK
  5
1F93
330
1F91
100
AcDbEntity
  8
0
100
AcDbBlockEnd
  0
BLOCK
  5
1FCA
330
1FC9
100
AcDbEntity
  8
0
100
AcDbBlockBegin
  2
*D51
 70
     1
 10
0.0
 20
0.0
 30
0.0
  3
*D51
  1

  0
LINE
  5
2106
330
1FC9
100
AcDbEntity
  8
0
 62
     0
370
    -2
100
AcDbLine
 10
965.7517248419072
 20
-1811.63460857664
 30
0.0
 11
965.7517248419072
 21
-1822.575843614754
 31
0.0
  0
LINE
  5
2107
330
1FC9
100
AcDbEntity
  8
0
 62
     0
370
    -2
100
AcDbLine
 10
986.1933042181243
 20
-1822.383749459973
 30
0.0
 11
986.1933042181243
 21
-1822.575843614754
 31
0.0
  0
LINE
  5
2108
330
1FC9
100
AcDbEntity
  8
0
 62
     0
370
    -2
100
AcDbLine
 10
970.7517248419071
 20
-1822.395843614754
 30
0.0
 11
972.4051716245105
 21
-1822.395843614754
 31
0.0
  0
LINE
  5
2109
330
1FC9
100
AcDbEntity
  8
0
 62
     0
370
    -2
100
AcDbLine
 10
981.1933042181243
 20
-1822.395843614754
 30
0.0
 11
979.8157309696673
 21
-1822.395843614754
 31
0.0
  0
SOLID
  5
210A
330
1FC9
100
AcDbEntity
  8
0
 62
     0
100
AcDbTrace
 10
970.7517248419071
 20
-1821.56251028142
 30
0.0
 11
970.7517248419071
 21
-1823.229176948087
 31
0.0
 12
965.7517248419072
 22
-1822.395843614754
 32
0.0
 13
965.7517248419072
 23
-1822.395843614754
 33
0.0
  0
SOLID
  5
210B
330
1FC9
100
AcDbEntity
  8
0
 62
     0
100
AcDbTrace
 10
981.1933042181243
 20
-1821.56251028142
 30
0.0
 11
981.1933042181243
 21
-1823.229176948087
 31
0.0
 12
986.1933042181243
 22
-1822.395843614754
 32
0.0
 13
986.1933042181243
 23
-1822.395843614754
 33
0.0
  0
MTEXT
  5
210C
330
1FC9
100
AcDbEntity
  8
0
 62
     0
100
AcDbMText
 10
976.110451297089
 20
-1822.395843614754
 30
0.0
 40
5.0
 41
0.0
 71
     5
 72
     1
  1
\A1;20
 73
     1
 44
1.0
1001
ACAD
1000
MTEXTBEGIN
1070
    73
1070
     1
1070
    44
1040
1.0
1070
    74
1070
     0
1000
MTEXTEND
  0
POINT
  5
210D
330
1FC9
100
AcDbEntity
  8
Defpoints
 62
     0
100
AcDbPoint
 10
965.7517248419072
 20
-1811.57210857664
 30
0.0
  0
POINT
  5
210E
330
1FC9
100
AcDbEntity
  8
Defpoints
 62
     0
100
AcDbPoint
 10
986.1933042181243
 20
-1822.321249459973
 30
0.0
  0
POINT
  5
210F
330
1FC9
100
AcDbEntity
  8
Defpoints
 62
     0
100
AcDbPoint
 10
986.1933042181243
 20
-1822.395843614754
 30
0.0
  0
ENDBLK
  5
1FCB
330
1FC9
100
AcDbEntity
  8
0
100
AcDbBlockEnd
  0
BLOCK
  5
202A
330
2029
100
AcDbEntity
  8
0
100
AcDbBlockBegin
  2
*D52
 70
     1
 10
0.0
 20
0.0
 30
0.0
  3
*D52
  1

  0
LINE
  5
205E
330
2029
100
AcDbEntity
  8
0
 62
     0
370
    -2
100
AcDbLine
 10
1006.255804218123
 20
-2007.818683878802
 30
0.0
 11
1017.601705412263
 21
-2007.818683878802
 31
0.0
  0
LINE
  5
205F
330
2029
100
AcDbEntity
  8
0
 62
     0
370
    -2
100
AcDbLine
 10
1006.255804218124
 20
-2027.818683878802
 30
0.0
 11
1017.601705412263
 21
-2027.818683878802
 31
0.0
  0
LINE
  5
2060
330
2029
100
AcDbEntity
  8
0
 62
     0
370
    -2
100
AcDbLine
 10
1017.421705412263
 20
-2012.818683878802
 30
0.0
 11
1017.421705412263
 21
-2015.175818940194
 31
0.0
  0
LINE
  5
2061
330
2029
100
AcDbEntity
  8
0
 62
     0
370
    -2
100
AcDbLine
 10
1017.421705412263
 20
-2022.818683878802
 30
0.0
 11
1017.421705412263
 21
-2020.461548817411
 31
0.0
  0
SOLID
  5
2062
330
2029
100
AcDbEntity
  8
0
 62
     0
100
AcDbTrace
 10
1016.588372078929
 20
-2012.818683878802
 30
0.0
 11
1018.255038745596
 21
-2012.818683878802
 31
0.0
 12
1017.421705412263
 22
-2007.818683878802
 32
0.0
 13
1017.421705412263
 23
-2007.818683878802
 33
0.0
  0
SOLID
  5
2063
330
2029
100
AcDbEntity
  8
0
 62
     0
100
AcDbTrace
 10
1016.588372078929
 20
-2022.818683878802
 30
0.0
 11
1018.255038745596
 21
-2022.818683878802
 31
0.0
 12
1017.421705412263
 22
-2027.818683878802
 32
0.0
 13
1017.421705412263
 23
-2027.818683878802
 33
0.0
  0
MTEXT
  5
2064
330
2029
100
AcDbEntity
  8
0
 62
     0
100
AcDbMText
 10
1017.421705412263
 20
-2017.818683878802
 30
0.0
 40
5.0
 41
0.0
 71
     5
 72
     1
  1
\A1;20
 73
     1
 44
1.0
1001
ACAD
1000
MTEXTBEGIN
1070
    73
1070
     1
1070
    44
1040
1.0
1070
    74
1070
     0
1000
MTEXTEND
  0
POINT
  5
2065
330
2029
100
AcDbEntity
  8
Defpoints
 62
     0
100
AcDbPoint
 10
1006.193304218123
 20
-2007.818683878802
 30
0.0
  0
POINT
  5
2066
330
2029
100
AcDbEntity
  8
Defpoints
 62
     0
100
AcDbPoint
 10
1006.193304218124
 20
-2027.818683878802
 30
0.0
  0
POINT
  5
2067
330
2029
100
AcDbEntity
  8
Defpoints
 62
     0
100
AcDbPoint
 10
1017.421705412263
 20
-2027.818683878802
 30
0.0
  0
ENDBLK
  5
202B
330
2029
100
AcDbEntity
  8
0
100
AcDbBlockEnd
  0
BLOCK
  5
206A
330
2069
100
AcDbEntity
  8
0
100
AcDbBlockBegin
  2
*D53
 70
     1
 10
0.0
 20
0.0
 30
0.0
  3
*D53
  1

  0
LINE
  5
209E
330
2069
100
AcDbEntity
  8
0
 62
     0
370
    -2
100
AcDbLine
 10
1006.255804218123
 20
-1967.818683878802
 30
0.0
 11
1022.551452880569
 21
-1967.818683878802
 31
0.0
  0
LINE
  5
209F
330
2069
100
AcDbEntity
  8
0
 62
     0
370
    -2
100
AcDbLine
 10
1006.255804218124
 20
-2027.818683878802
 30
0.0
 11
1022.551452880569
 21
-2027.818683878802
 31
0.0
  0
LINE
  5
20A0
330
2069
100
AcDbEntity
  8
0
 62
     0
370
    -2
100
AcDbLine
 10
1022.371452880569
 20
-1972.818683878802
 30
0.0
 11
1022.371452880569
 21
-1980.125566408499
 31
0.0
  0
LINE
  5
20A1
330
2069
100
AcDbEntity
  8
0
 62
     0
370
    -2
100
AcDbLine
 10
1022.371452880569
 20
-2022.818683878802
 30
0.0
 11
1022.371452880569
 21
-1985.411296285716
 31
0.0
  0
SOLID
  5
20A2
330
2069
100
AcDbEntity
  8
0
 62
     0
100
AcDbTrace
 10
1021.538119547235
 20
-1972.818683878802
 30
0.0
 11
1023.204786213902
 21
-1972.818683878802
 31
0.0
 12
1022.371452880569
 22
-1967.818683878802
 32
0.0
 13
1022.371452880569
 23
-1967.818683878802
 33
0.0
  0
SOLID
  5
20A3
330
2069
100
AcDbEntity
  8
0
 62
     0
100
AcDbTrace
 10
1021.538119547235
 20
-2022.818683878802
 30
0.0
 11
1023.204786213902
 21
-2022.818683878802
 31
0.0
 12
1022.371452880569
 22
-2027.818683878802
 32
0.0
 13
1022.371452880569
 23
-2027.818683878802
 33
0.0
  0
MTEXT
  5
20A4
330
2069
100
AcDbEntity
  8
0
 62
     0
100
AcDbMText
 10
1022.371452880569
 20
-1982.768431347107
 30
0.0
 40
5.0
 41
0.0
 71
     5
 72
     1
  1
\A1;60
 73
     1
 44
1.0
1001
ACAD
1000
MTEXTBEGIN
1070
    73
1070
     1
1070
    44
1040
1.0
1070
    74
1070
     0
1000
MTEXTEND
  0
POINT
  5
20A5
330
2069
100
AcDbEntity
  8
Defpoints
 62
     0
100
AcDbPoint
 10
1006.193304218123
 20
-1967.818683878802
 30
0.0
  0
POINT
  5
20A6
330
2069
100
AcDbEntity
  8
Defpoints
 62
     0
100
AcDbPoint
 10
1006.193304218124
 20
-2027.818683878802
 30
0.0
  0
POINT
  5
20A7
330
2069
100
AcDbEntity
  8
Defpoints
 62
     0
100
AcDbPoint
 10
1022.371452880569
 20
-2027.818683878802
 30
0.0
  0
ENDBLK
  5
206B
330
2069
100
AcDbEntity
  8
0
100
AcDbBlockEnd
  0
BLOCK
  5
20AA
330
20A9
100
AcDbEntity
  8
0
100
AcDbBlockBegin
  2
*D54
 70
     1
 10
0.0
 20
0.0
 30
0.0
  3
*D54
  1

  0
LINE
  5
20FC
330
20A9
100
AcDbEntity
  8
0
 62
     0
370
    -2
100
AcDbLine
 10
986.2558042181223
 20
-1808.071249459965
 30
0.0
 11
986.3733042181239
 21
-1808.071249459965
 31
0.0
  0
LINE
  5
20FD
330
20A9
100
AcDbEntity
  8
0
 62
     0
370
    -2
100
AcDbLine
 10
986.2558042181232
 20
-1822.321249459963
 30
0.0
 11
986.3733042181239
 21
-1822.321249459963
 31
0.0
  0
LINE
  5
20FE
330
20A9
100
AcDbEntity
  8
0
 62
     0
370
    -2
100
AcDbLine
 10
986.193304218124
 20
-1803.071249459965
 30
0.0
 11
986.193304218124
 21
-1798.071249459965
 31
0.0
  0
LINE
  5
20FF
330
20A9
100
AcDbEntity
  8
0
 62
     0
370
    -2
100
AcDbLine
 10
986.193304218124
 20
-1827.321249459962
 30
0.0
 11
986.193304218124
 21
-1832.321249459963
 31
0.0
  0
SOLID
  5
2100
330
20A9
100
AcDbEntity
  8
0
 62
     0
100
AcDbTrace
 10
985.3599708847907
 20
-1803.071249459965
 30
0.0
 11
987.0266375514573
 21
-1803.071249459965
 31
0.0
 12
986.193304218124
 22
-1808.071249459965
 32
0.0
 13
986.193304218124
 23
-1808.071249459965
 33
0.0
  0
SOLID
  5
2101
330
20A9
100
AcDbEntity
  8
0
 62
     0
100
AcDbTrace
 10
985.3599708847907
 20
-1827.321249459962
 30
0.0
 11
987.0266375514573
 21
-1827.321249459962
 31
0.0
 12
986.193304218124
 22
-1822.321249459963
 32
0.0
 13
986.193304218124
 23
-1822.321249459963
 33
0.0
  0
MTEXT
  5
2102
330
20A9
100
AcDbEntity
  8
0
 62
     0
100
AcDbMText
 10
986.1933042181243
 20
-1815.215843614754
 30
0.0
 40
5.0
 41
0.0
 71
     5
 72
     1
  1
\A1;14.25
 73
     1
 44
1.0
1001
ACAD
1000
MTEXTBEGIN
1070
    73
1070
     1
1070
    44
1040
1.0
1070
    74
1070
     0
1000
MTEXTEND
  0
POINT
  5
2103
330
20A9
100
AcDbEntity
  8
Defpoints
 62
     0
100
AcDbPoint
 10
986.1933042181222
 20
-1808.071249459965
 30
0.0
  0
POINT
  5
2104
330
20A9
100
AcDbEntity
  8
Defpoints
 62
     0
100
AcDbPoint
 10
986.1933042181233
 20
-1822.321249459963
 30
0.0
  0
POINT
  5
2105
330
20A9
100
AcDbEntity
  8
Defpoints
 62
     0
100
AcDbPoint
 10
986.193304218124
 20
-1822.321249459963
 30
0.0
  0
ENDBLK
  5
20AB
330
20A9
100
AcDbEntity
  8
0
100
AcDbBlockEnd
  0
ENDSEC
  0
SECTION
  2
ENTITIES
  0
LINE
  5
1CB3
102
{ACAD_REACTORS
330
1D48
102
}
330
1F
100
AcDbEntity
  8
0
100
AcDbLine
 10
950.4433042181236
 20
-2027.818683878802
 30
0.0
 11
1021.943304218123
 21
-2027.818683878802
 31
0.0
  0
LINE
  5
1CB4
102
{ACAD_REACTORS
330
1D62
102
}
330
1F
100
AcDbEntity
  8
0
100
AcDbLine
 10
1026.193304218123
 20
-2023.568683878802
 30
0.0
 11
1026.193304218123
 21
-1948.067824762128
 31
0.0
  0
LINE
  5
1CB5
330
1F
100
AcDbEntity
  8
0
100
AcDbLine
 10
946.2224141497513
 20
-1947.571249459966
 30
0.0
 11
965.7517248419063
 21
-1811.824674157804
 31
0.0
  0
LINE
  5
1CB6
330
1F
100
AcDbEntity
  8
0
100
AcDbLine
 10
1026.164194286495
 20
-1947.571249459967
 30
0.0
 11
1006.634883594338
 21
-1811.824674157804
 31
0.0
  0
LINE
  5
1CB7
102
{ACAD_REACTORS
330
1D48
102
}
330
1F
100
AcDbEntity
  8
0
100
AcDbLine
 10
969.9726149102785
 20
-1808.071249459965
 30
0.0
 11
1002.413993525966
 21
-1808.071249459965
 31
0.0
  0
LINE
  5
1CB8
102
{ACAD_REACTORS
330
1D62
102
}
330
1F
100
AcDbEntity
  8
0
100
AcDbLine
 10
946.1933042181236
 20
-2023.568683878802
 30
0.0
 11
946.1933042181236
 21
-1948.067824762127
 31
0.0
  0
CIRCLE
  5
1CB9
330
1F
100
AcDbEntity
  8
0
100
AcDbCircle
 10
986.1933042181233
 20
-1822.321249459965
 30
0.0
 40
4.25
  0
CIRCLE
  5
1CBA
330
1F
100
AcDbEntity
  8
0
100
AcDbCircle
 10
986.1933042181233
 20
-1840.821249459965
 30
0.0
 40
4.25
  0
CIRCLE
  5
1CBB
330
1F
100
AcDbEntity
  8
0
100
AcDbCircle
 10
986.1933042181233
 20
-1859.321249459965
 30
0.0
 40
4.25
  0
CIRCLE
  5
1CBC
330
1F
100
AcDbEntity
  8
0
100
AcDbCircle
 10
986.1933042181233
 20
-1877.821249459965
 30
0.0
 40
4.25
  0
CIRCLE
  5
1CBD
330
1F
100
AcDbEntity
  8
0
100
AcDbCircle
 10
986.1933042181233
 20
-1896.321249459965
 30
0.0
 40
4.25
  0
CIRCLE
  5
1CBE
330
1F
100
AcDbEntity
  8
0
100
AcDbCircle
 10
986.1933042181233
 20
-1914.821249459965
 30
0.0
 40
4.25
  0
CIRCLE
  5
1CBF
330
1F
100
AcDbEntity
  8
0
100
AcDbCircle
 10
986.1933042181233
 20
-1933.321249459965
 30
0.0
 40
4.25
  0
CIRCLE
  5
1CC0
330
1F
100
AcDbEntity
  8
0
100
AcDbCircle
 10
1006.193304218123
 20
-2007.818683878802
 30
0.0
 40
4.25
  0
CIRCLE
  5
1CC1
330
1F
100
AcDbEntity
  8
0
100
AcDbCircle
 10
1006.193304218123
 20
-1967.818683878802
 30
0.0
 40
4.25
  0
CIRCLE
  5
1CC2
330
1F
100
AcDbEntity
  8
0
100
AcDbCircle
 10
966.1933042181237
 20
-2007.818683878802
 30
0.0
 40
4.25
  0
CIRCLE
  5
1CC3
330
1F
100
AcDbEntity
  8
0
100
AcDbCircle
 10
966.1933042181237
 20
-1967.818683878802
 30
0.0
 40
4.25
  0
ARC
  5
1CC4
330
1F
100
AcDbEntity
  8
0
100
AcDbCircle
 10
969.9726149102785
 20
-1812.321249459965
 30
0.0
 40
4.25
100
AcDbArc
 50
90.0
 51
173.2901631922443
  0
ARC
  5
1CC5
102
{ACAD_REACTORS
330
1D7C
102
}
330
1F
100
AcDbEntity
  8
0
100
AcDbCircle
 10
1002.413993525966
 20
-1812.321249459965
 30
0.0
 40
4.25
100
AcDbArc
 50
6.709836807758345
 51
90.0
  0
ARC
  5
1CC6
330
1F
100
AcDbEntity
  8
0
100
AcDbCircle
 10
950.4433042181236
 20
-1948.067824762127
 30
0.0
 40
4.25
100
AcDbArc
 50
173.2901631922415
 51
180.0
  0
ARC
  5
1CC7
330
1F
100
AcDbEntity
  8
0
100
AcDbCircle
 10
1021.943304218123
 20
-1948.067824762128
 30
0.0
 40
4.25
100
AcDbArc
 50
0.0
 51
6.709836807755594
  0
ARC
  5
1CC8
330
1F
100
AcDbEntity
  8
0
100
AcDbCircle
 10
950.4433042181236
 20
-2023.568683878802
 30
0.0
 40
4.25
100
AcDbArc
 50
180.0
 51
270.0
  0
ARC
  5
1CC9
330
1F
100
AcDbEntity
  8
0
100
AcDbCircle
 10
1021.943304218123
 20
-2023.568683878802
 30
0.0
 40
4.25
100
AcDbArc
 50
270.0
 51
0.0
  0
DIMENSION
  5
1D2F
102
{ACAD_XDICTIONARY
360
1D3D
102
}
102
{ACAD_REACTORS
330
1D48
102
}
330
1F
100
AcDbEntity
  8
0
100
AcDbDimension
  2
*D44
 10
1054.421705412263
 20
-2027.818683878802
 30
0.0
 11
1054.421705412263
 21
-1917.944966669383
 31
0.0
 70
    32
  1
200
 71
     5
 42
219.7474344188368
  3
Standard
100
AcDbAlignedDimension
 13
986.1933042181224
 23
-1808.071249459965
 33
0.0
 14
986.1933042181233
 24
-2027.818683878802
 34
0.0
 50
90.0
100
AcDbRotatedDimension
1001
ACAD
1000
DSTYLE
1002
{
1070
   271
1070
     2
1070
   140
1040
5.0
1070
    41
1040
5.0
1002
}
  0
DIMENSION
  5
1D49
102
{ACAD_XDICTIONARY
360
1D57
102
}
102
{ACAD_REACTORS
330
1D62
102
}
330
1F
100
AcDbEntity
  8
0
100
AcDbDimension
  2
*D45
 10
1026.193304218123
 20
-2054.51590349912
 30
0.0
 11
986.1933042181233
 21
-2054.51590349912
 31
0.0
 70
    32
 71
     5
 42
79.99999999999943
  3
Standard
100
AcDbAlignedDimension
 13
946.1933042181236
 23
-1985.818254320464
 33
0.0
 14
1026.193304218123
 24
-1985.818254320465
 34
0.0
100
AcDbRotatedDimension
1001
ACAD
1000
DSTYLE
1002
{
1070
   271
1070
     2
1070
   140
1040
5.0
1070
    41
1040
5.0
1002
}
  0
DIMENSION
  5
1D63
102
{ACAD_XDICTIONARY
360
1D71
102
}
102
{ACAD_REACTORS
330
1D7C
102
}
330
1F
100
AcDbEntity
  8
0
100
AcDbDimension
  2
*D46
 10
1006.634883594338
 20
-1792.594597621718
 30
0.0
 11
986.1933042181229
 21
-1792.594597621718
 31
0.0
 70
   160
  1
40
 71
     5
 42
40.88315875243131
  3
Standard
100
AcDbAlignedDimension
 13
965.7517248419072
 23
-1811.57210857664
 33
0.0
 14
1006.634883594338
 24
-1811.824674157804
 34
0.0
100
AcDbRotatedDimension
1001
ACAD
1000
DSTYLE
1002
{
1070
    41
1040
5.0
1070
   140
1040
5.0
1070
   271
1070
     2
1002
}
  0
DIMENSION
  5
1D82
330
1F
100
AcDbEntity
  8
0
100
AcDbDimension
  2
*D47
 10
986.193304218122
 20
-1822.321249459963
 30
0.0
 11
1012.837786507381
 21
-1828.883090452183
 31
0.0
 70
    36
 71
     5
 42
4.250000000002501
  3
Standard
100
AcDbRadialDimension
 15
989.9659019014356
 25
-1824.278289755889
 35
0.0
 40
0.0
1001
ACAD_DSTYLE_DIMRADIAL_EXTENSION
1070
   387
1070
     1
1070
   388
1040
0.0
1070
   390
1040
0.0
1001
ACAD
1000
DSTYLE
1002
{
1070
   271
1070
     2
1070
   140
1040
5.0
1070
    41
1040
5.0
1070
   288
1070
     1
1002
}
  0
DIMENSION
  5
1D98
330
1F
100
AcDbEntity
  8
0
100
AcDbDimension
  2
*D48
 10
966.1933042181228
 20
-1967.8186838788
 30
0.0
 11
996.340656213109
 21
-1976.866901636234
 31
0.0
 70
   164
 71
     5
 42
4.250000000001818
  3
Standard
100
AcDbRadialDimension
 15
969.6162612965848
 25
-1970.337783884561
 35
0.0
 40
0.0
1001
ACAD_DSTYLE_DIMRADIAL_EXTENSION
1070
   387
1070
     1
1070
   388
1040
0.0
1070
   390
1040
0.0
1001
ACAD
1000
DSTYLE
1002
{
1070
   271
1070
     2
1070
   140
1040
5.0
1070
    41
1040
5.0
1070
   288
1070
     1
1002
}
  0
DIMENSION
  5
1F8E
330
1F
100
AcDbEntity
  8
0
100
AcDbDimension
  2
*D50
 10
966.1933042181237
 20
-2014.810745504214
 30
0.0
 11
956.180153931089
 21
-2014.810745504214
 31
0.0
 70
   160
 71
     5
 42
20.00000000000011
  3
Standard
100
AcDbAlignedDimension
 13
946.1933042181236
 23
-2007.818683878802
 33
0.0
 14
966.1933042181237
 24
-2007.818683878802
 34
0.0
100
AcDbRotatedDimension
1001
ACAD
1000
DSTYLE
1002
{
1070
    41
1040
5.0
1070
   140
1040
5.0
1070
   271
1070
     2
1002
}
  0
DIMENSION
  5
1FC6
330
1F
100
AcDbEntity
  8
0
100
AcDbDimension
  2
*D51
 10
986.1933042181243
 20
-1822.395843614754
 30
0.0
 11
976.110451297089
 21
-1822.395843614754
 31
0.0
 70
   160
  1
20
 71
     5
 42
20.44157937621719
  3
Standard
100
AcDbAlignedDimension
 13
965.7517248419072
 23
-1811.57210857664
 33
0.0
 14
986.1933042181243
 24
-1822.321249459973
 34
0.0
100
AcDbRotatedDimension
1001
ACAD
1000
DSTYLE
1002
{
1070
    41
1040
5.0
1070
   140
1040
5.0
1070
   271
1070
     2
1002
}
  0
DIMENSION
  5
2026
330
1F
100
AcDbEntity
  8
0
100
AcDbDimension
  2
*D52
 10
1017.421705412263
 20
-2027.818683878802
 30
0.0
 11
1017.421705412263
 21
-2017.818683878802
 31
0.0
 70
   160
  1
20
 71
     5
 42
20.0
  3
Standard
100
AcDbAlignedDimension
 13
1006.193304218123
 23
-2007.818683878802
 33
0.0
 14
1006.193304218124
 24
-2027.818683878802
 34
0.0
 50
90.0
100
AcDbRotatedDimension
1001
ACAD
1000
DSTYLE
1002
{
1070
    41
1040
5.0
1070
   140
1040
5.0
1070
   271
1070
     2
1002
}
  0
DIMENSION
  5
2068
330
1F
100
AcDbEntity
  8
0
100
AcDbDimension
  2
*D53
 10
1022.371452880569
 20
-2027.818683878802
 30
0.0
 11
1022.371452880569
 21
-1982.768431347107
 31
0.0
 70
   160
  1
60
 71
     5
 42
60.0
  3
Standard
100
AcDbAlignedDimension
 13
1006.193304218123
 23
-1967.818683878802
 33
0.0
 14
1006.193304218124
 24
-2027.818683878802
 34
0.0
 50
90.0
100
AcDbRotatedDimension
1001
ACAD
1000
DSTYLE
1002
{
1070
    41
1040
5.0
1070
   140
1040
5.0
1070
   271
1070
     2
1002
}
  0
DIMENSION
  5
20A8
330
1F
100
AcDbEntity
  8
0
100
AcDbDimension
  2
*D54
 10
986.193304218124
 20
-1822.321249459963
 30
0.0
 11
986.1933042181243
 21
-1815.215843614754
 31
0.0
 70
   160
  1
14.25
 71
     5
 42
14.2499999999975
  3
Standard
100
AcDbAlignedDimension
 13
986.1933042181222
 23
-1808.071249459965
 33
0.0
 14
986.1933042181233
 24
-1822.321249459963
 34
0.0
 50
90.0
100
AcDbRotatedDimension
1001
ACAD
1000
DSTYLE
1002
{
1070
    41
1040
5.0
1070
   140
1040
5.0
1070
   271
1070
     2
1002
}
  0
VIEWPORT
  5
449
102
{ACAD_XDICTIONARY
360
44A
102
}
330
58
100
AcDbEntity
 67
     1
  8
0
100
AcDbViewport
 10
6.444416949089833
 20
2.506331705181853
 30
0.0
 40
13.77098082469482
 41
5.958946847625199
 68
     1
 69
     1
 12
6.444416949089833
 22
2.506331705181853
 13
0.0
 23
0.0
 14
10.0
 24
10.0
 15
10.0
 25
10.0
 16
0.0
 26
0.0
 36
1.0
 17
0.0
 27
0.0
 37
0.0
 42
50.0
 43
0.0
 44
0.0
 45
5.958946847625199
 50
0.0
 51
0.0
 72
  1000
 90
   819232
  1

281
     0
 71
     1
 74
     0
110
0.0
120
0.0
130
0.0
111
1.0
121
0.0
131
0.0
112
0.0
122
1.0
132
0.0
 79
     0
146
0.0
  0
VIEWPORT
  5
44E
102
{ACAD_XDICTIONARY
360
44F
102
}
330
58
100
AcDbEntity
 67
     1
  8
0
100
AcDbViewport
 10
5.24999976158142
 20
3.999999761581421
 30
0.0
 40
8.399999618530275
 41
6.399999618530272
 68
     2
 69
     2
 12
46.63035463576347
 22
-76.05956953479051
 13
0.0
 23
0.0
 14
0.5
 24
0.5
 15
0.5
 25
0.5
 16
0.0
 26
0.0
 36
1.0
 17
0.0
 27
0.0
 37
0.0
 42
50.0
 43
0.0
 44
0.0
 45
193.975986277873
 50
0.0
 51
0.0
 72
  1000
 90
   819552
  1

281
     0
 71
     1
 74
     0
110
0.0
120
0.0
130
0.0
111
1.0
121
0.0
131
0.0
112
0.0
122
1.0
132
0.0
 79
     0
146
0.0
  0
ENDSEC
  0
SECTION
  2
OBJECTS
  0
DICTIONARY
  5
C
330
0
100
AcDbDictionary
281
     1
  3
ACAD_CIP_PREVIOUS_PRODUCT_INFO
350
1A5
  3
ACAD_COLOR
350
73
  3
ACAD_DETAILVIEWSTYLE
350
1AB
  3
ACAD_GROUP
350
D
  3
ACAD_LAYOUT
350
1A
  3
ACAD_MATERIAL
350
72
  3
ACAD_MLEADERSTYLE
350
D7
  3
ACAD_MLINESTYLE
350
17
  3
ACAD_PLOTSETTINGS
350
19
  3
ACAD_PLOTSTYLENAME
350
E
  3
ACAD_RENDER_ACTIVE_RAPIDRT_SETTINGS
350
1F0
  3
ACAD_RENDER_ACTIVE_SETTINGS
350
1B42
  3
ACAD_SCALELIST
350
B6
  3
ACAD_SECTIONVIEWSTYLE
350
1A8
  3
ACAD_TABLESTYLE
350
86
  3
ACAD_VISUALSTYLE
350
99
  3
ACDB_RECOMPOSE_DATA
350
2111
  3
AcDbVariableDictionary
350
66
  3
DWGPROPS
350
2112
  0
DICTIONARY
  5
18E
330
2
100
AcDbDictionary
280
     1
281
     1
  3
ACAD_LAYERSTATES
360
18F
  0
DICTIONARY
  5
E6
330
10
100
AcDbDictionary
280
     1
281
     1
  0
DICTIONARY
  5
15D
330
1F
100
AcDbDictionary
280
     1
281
     1
  3
ACAD_SORTENTS
360
3FF
  0
DICTIONARY
  5
2152
330
177B
100
AcDbDictionary
280
     1
281
     1
  3
ACAD_MTEXT_RT
360
2153
  0
DICTIONARY
  5
2154
330
1782
100
AcDbDictionary
280
     1
281
     1
  3
ACAD_MTEXT_RT
360
2155
  0
DICTIONARY
  5
2156
330
1789
100
AcDbDictionary
280
     1
281
     1
  3
ACAD_MTEXT_RT
360
2157
  0
DICTIONARY
  5
2158
330
1790
100
AcDbDictionary
280
     1
281
     1
  3
ACAD_MTEXT_RT
360
2159
  0
DICTIONARY
  5
215A
330
1797
100
AcDbDictionary
280
     1
281
     1
  3
ACAD_MTEXT_RT
360
215B
  0
DICTIONARY
  5
215C
330
17D7
100
AcDbDictionary
280
     1
281
     1
  3
ACAD_MTEXT_RT
360
215D
  0
DICTIONARY
  5
215E
330
18A1
100
AcDbDictionary
280
     1
281
     1
  3
ACAD_MTEXT_RT
360
215F
  0
DICTIONARY
  5
2160
330
18A8
100
AcDbDictionary
280
     1
281
     1
  3
ACAD_MTEXT_RT
360
2161
  0
DICTIONARY
  5
2162
330
18AF
100
AcDbDictionary
280
     1
281
     1
  3
ACAD_MTEXT_RT
360
2163
  0
DICTIONARY
  5
2164
330
18C7
100
AcDbDictionary
280
     1
281
     1
  3
ACAD_MTEXT_RT
360
2165
  0
DICTIONARY
  5
2166
330
18FE
100
AcDbDictionary
280
     1
281
     1
  3
ACAD_MTEXT_RT
360
2167
  0
DICTIONARY
  5
2168
330
1908
100
AcDbDictionary
280
     1
281
     1
  3
ACAD_MTEXT_RT
360
2169
  0
DICTIONARY
  5
216A
330
1A22
100
AcDbDictionary
280
     1
281
     1
  3
ACAD_MTEXT_RT
360
216B
  0
DICTIONARY
  5
216C
330
1A2C
100
AcDbDictionary
280
     1
281
     1
  3
ACAD_MTEXT_RT
360
216D
  0
DICTIONARY
  5
216E
330
1A36
100
AcDbDictionary
280
     1
281
     1
  3
ACAD_MTEXT_RT
360
216F
  0
DICTIONARY
  5
2170
330
1A4A
100
AcDbDictionary
280
     1
281
     1
  3
ACAD_MTEXT_RT
360
2171
  0
DICTIONARY
  5
2172
330
1A72
100
AcDbDictionary
280
     1
281
     1
  3
ACAD_MTEXT_RT
360
2173
  0
DICTIONARY
  5
2174
330
1A7C
100
AcDbDictionary
280
     1
281
     1
  3
ACAD_MTEXT_RT
360
2175
  0
DICTIONARY
  5
1D3D
330
1D2F
100
AcDbDictionary
280
     1
281
     1
  3
ACAD_DIMASSOC
360
1D48
  0
DICTIONARY
  5
1D57
330
1D49
100
AcDbDictionary
280
     1
281
     1
  3
ACAD_DIMASSOC
360
1D62
  0
DICTIONARY
  5
1D71
330
1D63
100
AcDbDictionary
280
     1
281
     1
  3
ACAD_DIMASSOC
360
1D7C
  0
DICTIONARY
  5
44A
330
449
100
AcDbDictionary
280
     1
281
     1
  3
ACAD_XREC_ROUNDTRIP
360
2150
  3
ASDK_XREC_ANNOTATION_SCALE_INFO
360
44B
  0
DICTIONARY
  5
44F
330
44E
100
AcDbDictionary
280
     1
281
     1
  3
ACAD_XREC_ROUNDTRIP
360
2151
  3
ASDK_XREC_ANNOTATION_SCALE_INFO
360
450
  0
XRECORD
  5
1A5
102
{ACAD_REACTORS
330
C
102
}
330
C
100
AcDbXrecord
280
     1
300
ACD
300
2016
300
ACD_F_S
  0
DICTIONARY
  5
73
102
{ACAD_REACTORS
330
C
102
}
330
C
100
AcDbDictionary
281
     1
  0
DICTIONARY
  5
1AB
102
{ACAD_REACTORS
330
C
102
}
330
C
100
AcDbDictionary
281
     1
  3
Imperial24
350
1AC
  0
DICTIONARY
  5
D
102
{ACAD_REACTORS
330
C
102
}
330
C
100
AcDbDictionary
281
     1
  0
DICTIONARY
  5
1A
102
{ACAD_REACTORS
330
C
102
}
330
C
100
AcDbDictionary
281
     1
  3
Layout1
350
59
  3
Layout2
350
5E
  3
Model
350
22
  0
DICTIONARY
  5
72
102
{ACAD_REACTORS
330
C
102
}
330
C
100
AcDbDictionary
281
     1
  3
ByBlock
350
97
  3
ByLayer
350
96
  3
Global
350
98
  0
DICTIONARY
  5
D7
102
{ACAD_REACTORS
330
C
102
}
330
C
100
AcDbDictionary
281
     1
  3
Annotative
350
E5
  3
Standard
350
D8
  0
DICTIONARY
  5
17
102
{ACAD_REACTORS
330
C
102
}
330
C
100
AcDbDictionary
281
     1
  3
Standard
350
18
  0
DICTIONARY
  5
19
102
{ACAD_REACTORS
330
C
102
}
330
C
100
AcDbDictionary
281
     1
  0
ACDBDICTIONARYWDFLT
  5
E
102
{ACAD_REACTORS
330
C
102
}
330
C
100
AcDbDictionary
281
     1
  3
Normal
350
F
100
AcDbDictionaryWithDefault
340
F
  0
RAPIDRTRENDERSETTINGS
  5
1F0
102
{ACAD_REACTORS
330
C
102
}
330
C
100
AcDbRenderSettings
 90
        2
  1
Medium
290
     1
290
     0
290
     1
290
     1
  1

  1
Applies 5 rendering levels
 90
        0
100
AcDbRapidRTRenderSettings
 90
        3
 70
     0
 90
        5
 90
        1
 70
     1
 70
     2
 40
3.0
 40
3.0
290
     1
  0
MENTALRAYRENDERSETTINGS
  5
1B42
102
{ACAD_XDICTIONARY
360
1B43
102
}
102
{ACAD_REACTORS
330
C
102
}
330
C
100
AcDbRenderSettings
 90
        2
  1
Medium
290
     1
290
     1
290
     1
290
     1
  1

  1

 90
        0
100
AcDbMentalRayRenderSettings
 90
        2
 90
        0
 90
        1
 70
     2
 40
3.0
 40
3.0
 40
0.0500000007450581
 40
0.0500000007450581
 40
0.0500000007450581
 40
0.0500000007450581
 70
     0
290
     0
290
     1
 90
        5
 90
        5
 90
        5
290
     0
 90
      500
290
     0
 40
1.0
 90
    10000
 90
        5
 90
        5
 90
        5
290
     0
 90
      200
290
     0
290
     0
290
     0
 40
1.0
 40
1.0
 40
1500.0
 70
     0
 70
     0
 40
10.0
 70
     0
 70
     0
290
     0
  1

 90
       32
 70
     0
 90
     1048
290
     0
 40
1.0
  0
DICTIONARY
  5
B6
102
{ACAD_REACTORS
330
C
102
}
330
C
100
AcDbDictionary
281
     1
  3
A0
350
B7
  3
A1
350
124
  3
A2
350
125
  3
A3
350
126
  3
A4
350
127
  3
A5
350
128
  3
A6
350
129
  3
A7
350
12A
  3
A8
350
12B
  3
A9
350
12C
  3
B0
350
12D
  3
B1
350
12E
  3
B2
350
12F
  3
B3
350
130
  3
B4
350
131
  3
B5
350
132
  3
B6
350
133
  3
B7
350
134
  3
B8
350
135
  3
B9
350
136
  3
C0
350
137
  3
C1
350
138
  3
C2
350
139
  3
C3
350
13A
  3
C4
350
13B
  3
C5
350
13C
  3
C6
350
13D
  3
C7
350
13E
  3
C8
350
13F
  3
C9
350
140
  3
D0
350
141
  3
D1
350
142
  3
D2
350
143
  0
DICTIONARY
  5
1A8
102
{ACAD_REACTORS
330
C
102
}
330
C
100
AcDbDictionary
281
     1
  3
Imperial24
350
1AA
  0
DICTIONARY
  5
86
102
{ACAD_REACTORS
330
C
102
}
330
C
100
AcDbDictionary
281
     1
  3
Standard
350
87
  0
DICTIONARY
  5
99
102
{ACAD_REACTORS
330
C
102
}
330
C
100
AcDbDictionary
281
     1
  3
2dWireframe
350
9F
  3
Basic
350
9E
  3
Brighten
350
A5
  3
ColorChange
350
A9
  3
Conceptual
350
A2
  3
Dim
350
A4
  3
EdgeColorOff
350
175
  3
Facepattern
350
A8
  3
Flat
350
9A
  3
FlatWithEdges
350
9B
  3
Gouraud
350
9C
  3
GouraudWithEdges
350
9D
  3
Hidden
350
A1
  3
JitterOff
350
173
  3
Linepattern
350
A7
  3
OverhangOff
350
174
  3
Realistic
350
A3
  3
Shaded
350
182
  3
Shaded with edges
350
181
  3
Shades of Gray
350
17E
  3
Sketchy
350
17F
  3
Thicken
350
A6
  3
Wireframe
350
A0
  3
X-Ray
350
180
  0
XRECORD
  5
2111
102
{ACAD_REACTORS
330
C
102
}
330
C
100
AcDbXrecord
280
     1
 90
        1
330
87
  0
DICTIONARY
  5
66
102
{ACAD_REACTORS
330
C
102
}
330
C
100
AcDbDictionary
281
     1
  3
CANNOSCALE
350
F0
  3
CMLEADERSTYLE
350
EF
  3
CTABLESTYLE
350
89
  3
CVIEWDETAILSTYLE
350
1B7
  3
CVIEWSECTIONSTYLE
350
1B8
  3
DIMASSOC
350
67
  3
HIDETEXT
350
6B
  3
INDEXCTL
350
1EF0
  3
LAYEREVAL
350
14D
  3
LAYERNOTIFY
350
14E
  3
LIGHTINGUNITS
350
1EEE
  3
LOFTANG1
350
1EF1
  3
LOFTANG2
350
1EF2
  3
LONGITUDE
350
1EF3
  3
MSLTSCALE
350
1EED
  3
SORTENTS
350
1EEF
  3
XCLIPFRAME
350
1EF4
  0
XRECORD
  5
2112
102
{ACAD_REACTORS
330
C
102
}
330
C
100
AcDbXrecord
280
     1
  1
DWGPROPS COOKIE
  2

  3

  4

  6

  7

  8
KadiriHc
  9

300
=
301
=
302
=
303
=
304
=
305
=
306
=
307
=
308
=
309
=
 40
0.509246400462963
 41
2458054.420078056
 42
2458122.526382361
  1

 90
        0
  0
DICTIONARY
  5
18F
102
{ACAD_REACTORS
330
18E
102
}
330
18E
100
AcDbDictionary
281
     1
  0
SORTENTSTABLE
  5
3FF
102
{ACAD_REACTORS
330
15D
102
}
330
15D
100
AcDbSortentsTable
330
1F
  0
XRECORD
  5
2153
102
{ACAD_REACTORS
330
2152
102
}
330
2152
100
AcDbXrecord
280
     1
 40
5801.0
  1
\A1;\U+22058.5
  0
XRECORD
  5
2155
102
{ACAD_REACTORS
330
2154
102
}
330
2154
100
AcDbXrecord
280
     1
 40
5801.0
  1
\A1;\U+22058.5
  0
XRECORD
  5
2157
102
{ACAD_REACTORS
330
2156
102
}
330
2156
100
AcDbXrecord
280
     1
 40
5801.0
  1
\A1;\U+22058.5
  0
XRECORD
  5
2159
102
{ACAD_REACTORS
330
2158
102
}
330
2158
100
AcDbXrecord
280
     1
 40
5801.0
  1
\A1;\U+22058.5
  0
XRECORD
  5
215B
102
{ACAD_REACTORS
330
215A
102
}
330
215A
100
AcDbXrecord
280
     1
 40
7158.0
  1
\A1;\U+2205111.0
  0
XRECORD
  5
215D
102
{ACAD_REACTORS
330
215C
102
}
330
215C
100
AcDbXrecord
280
     1
 40
7253.0
  1
\A1;\U+2205145.0
  0
XRECORD
  5
215F
102
{ACAD_REACTORS
330
215E
102
}
330
215E
100
AcDbXrecord
280
     1
 40
5801.0
  1
\A1;\U+22058.5
  0
XRECORD
  5
2161
102
{ACAD_REACTORS
330
2160
102
}
330
2160
100
AcDbXrecord
280
     1
 40
5801.0
  1
\A1;\U+22058.5
  0
XRECORD
  5
2163
102
{ACAD_REACTORS
330
2162
102
}
330
2162
100
AcDbXrecord
280
     1
 40
7158.0
  1
\A1;\U+2205111.0
  0
XRECORD
  5
2165
102
{ACAD_REACTORS
330
2164
102
}
330
2164
100
AcDbXrecord
280
     1
 40
7253.0
  1
\A1;\U+2205145.0
  0
XRECORD
  5
2167
102
{ACAD_REACTORS
330
2166
102
}
330
2166
100
AcDbXrecord
280
     1
 40
5801.0
  1
\A1;\U+22058.5
  0
XRECORD
  5
2169
102
{ACAD_REACTORS
330
2168
102
}
330
2168
100
AcDbXrecord
280
     1
 40
5801.0
  1
\A1;\U+22058.5
  0
XRECORD
  5
216B
102
{ACAD_REACTORS
330
216A
102
}
330
216A
100
AcDbXrecord
280
     1
 40
5801.0
  1
\A1;\U+22058.5
  0
XRECORD
  5
216D
102
{ACAD_REACTORS
330
216C
102
}
330
216C
100
AcDbXrecord
280
     1
 40
5801.0
  1
\A1;\U+22058.5
  0
XRECORD
  5
216F
102
{ACAD_REACTORS
330
216E
102
}
330
216E
100
AcDbXrecord
280
     1
 40
7158.0
  1
\A1;\U+2205111.0
  0
XRECORD
  5
2171
102
{ACAD_REACTORS
330
2170
102
}
330
2170
100
AcDbXrecord
280
     1
 40
7253.0
  1
\A1;\U+2205145.0
  0
XRECORD
  5
2173
102
{ACAD_REACTORS
330
2172
102
}
330
2172
100
AcDbXrecord
280
     1
 40
5801.0
  1
\A1;\U+22058.5
  0
XRECORD
  5
2175
102
{ACAD_REACTORS
330
2174
102
}
330
2174
100
AcDbXrecord
280
     1
 40
5801.0
  1
\A1;\U+22058.5
  0
DIMASSOC
  5
1D48
102
{ACAD_REACTORS
330
1D3D
102
}
330
1D3D
100
AcDbDimAssoc
330
1D2F
 90
        3
 70
     0
 71
     0
  1
AcDbOsnapPointRef
 72
     2
331
1CB7
 73
     2
 91
        0
 40
0.5
 10
0.0
 20
0.0
 30
0.0
 75
     0
  1
AcDbOsnapPointRef
 72
     2
331
1CB3
 73
     2
 91
        0
 40
0.5
 10
0.0
 20
0.0
 30
0.0
 75
     0
  0
DIMASSOC
  5
1D62
102
{ACAD_REACTORS
330
1D57
102
}
330
1D57
100
AcDbDimAssoc
330
1D49
 90
        3
 70
     0
 71
     0
  1
AcDbOsnapPointRef
 72
     2
331
1CB8
 73
     2
 91
        0
 40
0.5000000000000016
 10
0.0
 20
0.0
 30
0.0
 75
     0
  1
AcDbOsnapPointRef
 72
     2
331
1CB4
 73
     2
 91
        0
 40
0.5000000000000016
 10
0.0
 20
0.0
 30
0.0
 75
     0
  0
DIMASSOC
  5
1D7C
102
{ACAD_REACTORS
330
1D71
102
}
330
1D71
100
AcDbDimAssoc
330
1D63
 90
        2
 70
     0
 71
     0
  1
AcDbOsnapPointRef
 72
    13
331
1CC5
 73
     2
 91
        0
 40
0.117108744566889
 10
0.0
 20
0.0
 30
2.000000000000000E+50
 75
     0
  0
XRECORD
  5
2150
102
{ACAD_REACTORS
330
44A
102
}
330
44A
100
AcDbXrecord
280
     1
102
SHADEPLOT
 70
     0
  0
XRECORD
  5
44B
102
{ACAD_REACTORS
330
44A
102
}
330
44A
100
AcDbXrecord
280
     1
 90
        1
340
B7
  0
XRECORD
  5
2151
102
{ACAD_REACTORS
330
44F
102
}
330
44F
100
AcDbXrecord
280
     1
102
SHADEPLOT
 70
     0
  0
XRECORD
  5
450
102
{ACAD_REACTORS
330
44F
102
}
330
44F
100
AcDbXrecord
280
     1
 90
        1
340
B7
  0
ACDBDETAILVIEWSTYLE
  5
1AC
102
{ACAD_XDICTIONARY
360
214E
102
}
102
{ACAD_REACTORS
330
1AB
102
}
330
1AB
100
AcDbModelDocViewStyle
 70
     0
  3
Imperial24
290
     0
100
AcDbDetailViewStyle
 70
     0
 71
     0
 90
        3
 71
     1
340
11
 40
0.24
340
0
 40
0.24
300

 40
0.36
280
     3
 71
     2
340
16
 90
       25
 71
     3
340
11
 40
0.24
 90
        1
 40
0.75
 90
        1
300
%<\AcVar ViewType \f "%tc1">% %<\AcVar ViewDetailId>%\PSCALE %<\AcVar ViewScale \f "%sn">%
 71
     4
340
16
 90
       25
340
16
 90
       25
280
     0
  0
LAYOUT
  5
59
102
{ACAD_XDICTIONARY
360
2114
102
}
102
{ACAD_REACTORS
330
1A
102
}
330
1A
100
AcDbPlotSettings
  1

  2
None
  4
Letter_(8.50_x_11.00_Inches)
  6

 40
6.349999904632567
 41
6.349999904632567
 42
6.350006103515625
 43
6.350006103515625
 44
215.8999938964844
 45
279.3999938964844
 46
0.0
 47
0.0
 48
0.0
 49
0.0
140
0.0
141
0.0
142
1.0
143
1.0
 70
   688
 72
     0
 73
     1
 74
     5
  7

 75
    16
147
1.0
148
0.0
149
0.0
100
AcDbLayout
  1
Layout1
 70
     1
 71
     1
 10
-0.2500002402958907
 20
-0.2499999962453767
 11
10.74999951940822
 21
8.249999763458731
 12
0.0
 22
0.0
 32
0.0
 14
1.049999952316283
 24
0.7999999523162842
 34
0.0
 15
9.449999570846559
 25
7.199999570846557
 35
0.0
146
0.0
 13
0.0
 23
0.0
 33
0.0
 16
1.0
 26
0.0
 36
0.0
 17
0.0
 27
1.0
 37
0.0
 76
     0
330
58
331
449
1001
ACAD_PSEXT
1000
None
1000
None
1000
Not applicable
1000
The layout will not be plotted unless a new plotter configuration name is selected.
1070
     0
  0
LAYOUT
  5
5E
102
{ACAD_XDICTIONARY
360
2116
102
}
102
{ACAD_REACTORS
330
1A
102
}
330
1A
100
AcDbPlotSettings
  1

  2
None
  4

  6

 40
0.0
 41
0.0
 42
0.0
 43
0.0
 44
0.0
 45
0.0
 46
0.0
 47
0.0
 48
0.0
 49
0.0
140
0.0
141
0.0
142
1.0
143
1.0
 70
   688
 72
     0
 73
     0
 74
     5
  7

 75
    16
147
1.0
148
0.0
149
0.0
100
AcDbLayout
  1
Layout2
 70
     1
 71
     2
 10
0.0
 20
0.0
 11
12.0
 21
9.0
 12
0.0
 22
0.0
 32
0.0
 14
0.0
 24
0.0
 34
0.0
 15
0.0
 25
0.0
 35
0.0
146
0.0
 13
0.0
 23
0.0
 33
0.0
 16
1.0
 26
0.0
 36
0.0
 17
0.0
 27
1.0
 37
0.0
 76
     0
330
5D
  0
LAYOUT
  5
22
102
{ACAD_XDICTIONARY
360
194
102
}
102
{ACAD_REACTORS
330
1A
102
}
330
1A
100
AcDbPlotSettings
  1

  2
none_device
  4
ANSI_A_(8.50_x_11.00_Inches)
  6

 40
6.349999904632567
 41
19.04999923706055
 42
6.350006103515625
 43
19.04998779296875
 44
215.8999938964844
 45
279.3999938964844
 46
0.0
 47
0.0
 48
0.0
 49
0.0
140
0.0
141
0.0
142
1.0
143
2.584895464708373
 70
 11952
 72
     0
 73
     1
 74
     0
  7

 75
     0
147
0.3868628397755418
148
0.0
149
0.0
100
AcDbLayout
  1
Model
 70
     1
 71
     0
 10
0.0
 20
0.0
 11
12.0
 21
9.0
 12
0.0
 22
0.0
 32
0.0
 14
0.0
 24
0.0
 34
0.0
 15
0.0
 25
0.0
 35
0.0
146
0.0
 13
0.0
 23
0.0
 33
0.0
 16
1.0
 26
0.0
 36
0.0
 17
0.0
 27
1.0
 37
0.0
 76
     0
330
1F
331
94
  0
MATERIAL
  5
97
102
{ACAD_XDICTIONARY
360
188
102
}
102
{ACAD_REACTORS
330
72
102
}
330
72
100
AcDbMaterial
  1
ByBlock
  0
MATERIAL
  5
96
102
{ACAD_XDICTIONARY
360
186
102
}
102
{ACAD_REACTORS
330
72
102
}
330
72
100
AcDbMaterial
  1
ByLayer
  0
MATERIAL
  5
98
102
{ACAD_XDICTIONARY
360
110
102
}
102
{ACAD_REACTORS
330
72
102
}
330
72
100
AcDbMaterial
  1
Global
 43
0.0208000000566244
 43
0.0
 43
0.0
 43
0.0
 43
0.0
 43
0.0208000000566244
 43
0.0
 43
0.0
 43
0.0
 43
0.0
 43
1.0
 43
0.0
 43
0.0
 43
0.0
 43
0.0
 43
1.0
 49
0.0208000000566244
 49
0.0
 49
0.0
 49
0.0
 49
0.0
 49
0.0208000000566244
 49
0.0
 49
0.0
 49
0.0
 49
0.0
 49
1.0
 49
0.0
 49
0.0
 49
0.0
 49
0.0
 49
1.0
142
0.0208000000566244
142
0.0
142
0.0
142
0.0
142
0.0
142
0.0208000000566244
142
0.0
142
0.0
142
0.0
142
0.0
142
1.0
142
0.0
142
0.0
142
0.0
142
0.0
142
1.0
144
0.0208000000566244
144
0.0
144
0.0
144
0.0
144
0.0
144
0.0208000000566244
144
0.0
144
0.0
144
0.0
144
0.0
144
1.0
144
0.0
144
0.0
144
0.0
144
0.0
144
1.0
1001
ACAD
1070
    -1
1070
     3
1070
     0
1000

1071
        0
1070
     0
  0
MLEADERSTYLE
  5
E5
102
{ACAD_REACTORS
330
D7
102
}
330
D7
100
AcDbMLeaderStyle
170
     2
171
     1
172
     0
 90
        2
 40
0.0
 41
0.0
173
     1
 91
-1056964608
340
14
 92
       -2
290
     1
 42
0.09
291
     1
 43
0.36
  3
Standard
 44
0.18
300

342
11
174
     1
178
     1
175
     1
176
     0
 93
-1056964608
 45
0.18
292
     0
297
     0
 46
0.18
 94
-1056964608
 47
1.0
 49
1.0
140
1.0
293
     1
141
0.0
294
     1
177
     0
142
1.0
295
     0
296
     1
143
0.125
1001
ACAD_MLEADERVER
1070
     2
  0
MLEADERSTYLE
  5
D8
102
{ACAD_REACTORS
330
D7
102
}
330
D7
100
AcDbMLeaderStyle
170
     2
171
     1
172
     0
 90
        2
 40
0.0
 41
0.0
173
     1
 91
-1056964608
340
14
 92
       -2
290
     1
 42
0.09
291
     1
 43
0.36
  3
Standard
 44
0.18
300

342
11
174
     1
178
     1
175
     1
176
     0
 93
-1056964608
 45
0.18
292
     0
297
     0
 46
0.18
 94
-1056964608
 47
1.0
 49
1.0
140
1.0
293
     1
141
0.0
294
     1
177
     0
142
1.0
295
     0
296
     0
143
0.125
1001
ACAD_MLEADERVER
1070
     2
  0
MLINESTYLE
  5
18
102
{ACAD_REACTORS
330
17
102
}
330
17
100
AcDbMlineStyle
  2
STANDARD
 70
     0
  3

 62
   256
 51
90.0
 52
90.0
 71
     2
 49
0.5
 62
   256
  6
BYLAYER
 49
-0.5
 62
   256
  6
BYLAYER
  0
ACDBPLACEHOLDER
  5
F
102
{ACAD_REACTORS
330
E
102
}
330
E
  0
DICTIONARY
  5
1B43
330
1B42
100
AcDbDictionary
280
     1
281
     1
  3
ADSK_XREC_MENTALRAYSETTINGSINFO
360
1B44
  0
SCALE
  5
B7
102
{ACAD_REACTORS
330
B6
102
}
330
B6
100
AcDbScale
 70
     0
300
1:1
140
1.0
141
1.0
290
     1
  0
SCALE
  5
124
102
{ACAD_REACTORS
330
B6
102
}
330
B6
100
AcDbScale
 70
     0
300
1:2
140
1.0
141
2.0
290
     0
  0
SCALE
  5
125
102
{ACAD_REACTORS
330
B6
102
}
330
B6
100
AcDbScale
 70
     0
300
1:4
140
1.0
141
4.0
290
     0
  0
SCALE
  5
126
102
{ACAD_REACTORS
330
B6
102
}
330
B6
100
AcDbScale
 70
     0
300
1:5
140
1.0
141
5.0
290
     0
  0
SCALE
  5
127
102
{ACAD_REACTORS
330
B6
102
}
330
B6
100
AcDbScale
 70
     0
300
1:8
140
1.0
141
8.0
290
     0
  0
SCALE
  5
128
102
{ACAD_REACTORS
330
B6
102
}
330
B6
100
AcDbScale
 70
     0
300
1:10
140
1.0
141
10.0
290
     0
  0
SCALE
  5
129
102
{ACAD_REACTORS
330
B6
102
}
330
B6
100
AcDbScale
 70
     0
300
1:16
140
1.0
141
16.0
290
     0
  0
SCALE
  5
12A
102
{ACAD_REACTORS
330
B6
102
}
330
B6
100
AcDbScale
 70
     0
300
1:20
140
1.0
141
20.0
290
     0
  0
SCALE
  5
12B
102
{ACAD_REACTORS
330
B6
102
}
330
B6
100
AcDbScale
 70
     0
300
1:30
140
1.0
141
30.0
290
     0
  0
SCALE
  5
12C
102
{ACAD_REACTORS
330
B6
102
}
330
B6
100
AcDbScale
 70
     0
300
1:40
140
1.0
141
40.0
290
     0
  0
SCALE
  5
12D
102
{ACAD_REACTORS
330
B6
102
}
330
B6
100
AcDbScale
 70
     0
300
1:50
140
1.0
141
50.0
290
     0
  0
SCALE
  5
12E
102
{ACAD_REACTORS
330
B6
102
}
330
B6
100
AcDbScale
 70
     0
300
1:100
140
1.0
141
100.0
290
     0
  0
SCALE
  5
12F
102
{ACAD_REACTORS
330
B6
102
}
330
B6
100
AcDbScale
 70
     0
300
2:1
140
2.0
141
1.0
290
     0
  0
SCALE
  5
130
102
{ACAD_REACTORS
330
B6
102
}
330
B6
100
AcDbScale
 70
     0
300
4:1
140
4.0
141
1.0
290
     0
  0
SCALE
  5
131
102
{ACAD_REACTORS
330
B6
102
}
330
B6
100
AcDbScale
 70
     0
300
8:1
140
8.0
141
1.0
290
     0
  0
SCALE
  5
132
102
{ACAD_REACTORS
330
B6
102
}
330
B6
100
AcDbScale
 70
     0
300
10:1
140
10.0
141
1.0
290
     0
  0
SCALE
  5
133
102
{ACAD_REACTORS
330
B6
102
}
330
B6
100
AcDbScale
 70
     0
300
100:1
140
100.0
141
1.0
290
     0
  0
SCALE
  5
134
102
{ACAD_REACTORS
330
B6
102
}
330
B6
100
AcDbScale
 70
     0
300
1/128" = 1'-0"
140
0.0078125
141
12.0
290
     0
  0
SCALE
  5
135
102
{ACAD_REACTORS
330
B6
102
}
330
B6
100
AcDbScale
 70
     0
300
1/64" = 1'-0"
140
0.015625
141
12.0
290
     0
  0
SCALE
  5
136
102
{ACAD_REACTORS
330
B6
102
}
330
B6
100
AcDbScale
 70
     0
300
1/32" = 1'-0"
140
0.03125
141
12.0
290
     0
  0
SCALE
  5
137
102
{ACAD_REACTORS
330
B6
102
}
330
B6
100
AcDbScale
 70
     0
300
1/16" = 1'-0"
140
0.0625
141
12.0
290
     0
  0
SCALE
  5
138
102
{ACAD_REACTORS
330
B6
102
}
330
B6
100
AcDbScale
 70
     0
300
3/32" = 1'-0"
140
0.09375
141
12.0
290
     0
  0
SCALE
  5
139
102
{ACAD_REACTORS
330
B6
102
}
330
B6
100
AcDbScale
 70
     0
300
1/8" = 1'-0"
140
0.125
141
12.0
290
     0
  0
SCALE
  5
13A
102
{ACAD_REACTORS
330
B6
102
}
330
B6
100
AcDbScale
 70
     0
300
3/16" = 1'-0"
140
0.1875
141
12.0
290
     0
  0
SCALE
  5
13B
102
{ACAD_REACTORS
330
B6
102
}
330
B6
100
AcDbScale
 70
     0
300
1/4" = 1'-0"
140
0.25
141
12.0
290
     0
  0
SCALE
  5
13C
102
{ACAD_REACTORS
330
B6
102
}
330
B6
100
AcDbScale
 70
     0
300
3/8" = 1'-0"
140
0.375
141
12.0
290
     0
  0
SCALE
  5
13D
102
{ACAD_REACTORS
330
B6
102
}
330
B6
100
AcDbScale
 70
     0
300
1/2" = 1'-0"
140
0.5
141
12.0
290
     0
  0
SCALE
  5
13E
102
{ACAD_REACTORS
330
B6
102
}
330
B6
100
AcDbScale
 70
     0
300
3/4" = 1'-0"
140
0.75
141
12.0
290
     0
  0
SCALE
  5
13F
102
{ACAD_REACTORS
330
B6
102
}
330
B6
100
AcDbScale
 70
     0
300
1" = 1'-0"
140
1.0
141
12.0
290
     0
  0
SCALE
  5
140
102
{ACAD_REACTORS
330
B6
102
}
330
B6
100
AcDbScale
 70
     0
300
1-1/2" = 1'-0"
140
1.5
141
12.0
290
     0
  0
SCALE
  5
141
102
{ACAD_REACTORS
330
B6
102
}
330
B6
100
AcDbScale
 70
     0
300
3" = 1'-0"
140
3.0
141
12.0
290
     0
  0
SCALE
  5
142
102
{ACAD_REACTORS
330
B6
102
}
330
B6
100
AcDbScale
 70
     0
300
6" = 1'-0"
140
6.0
141
12.0
290
     0
  0
SCALE
  5
143
102
{ACAD_REACTORS
330
B6
102
}
330
B6
100
AcDbScale
 70
     0
300
1'-0" = 1'-0"
140
12.0
141
12.0
290
     0
  0
ACDBSECTIONVIEWSTYLE
  5
1AA
102
{ACAD_XDICTIONARY
360
214C
102
}
102
{ACAD_REACTORS
330
1A8
102
}
330
1A8
100
AcDbModelDocViewStyle
 70
     0
  3
Imperial24
290
     0
100
AcDbSectionViewStyle
 70
     0
 71
     0
 90
       78
 71
     1
340
11
 40
0.24
340
0
340
0
 40
0.24
300
I, O, Q, S, X, Z
 40
0.48
 90
        3
 40
0.18
 90
        1
 71
     2
340
16
 90
       25
340
16
 90
       50
 40
0.24
 40
0.0
 40
0.24
 71
     3
340
11
 40
0.24
 90
        1
 40
0.75
 90
        1
300
%<\AcVar ViewType \f "%tc1">% %<\AcVar ViewSectionStartId>%-%<\AcVar ViewSectionEndId>%\PSCALE %<\AcVar ViewScale \f "%sn">%
 71
     4
300
ANSI31
 40
1.0
 90
        0
290
     0
290
     0
 90
        6
 40
0.0
 40
1.570796326794896
 40
0.2617993877991494
 40
1.308996938995747
 40
-0.2617993877991494
 40
1.832595714594044
  0
TABLESTYLE
  5
87
102
{ACAD_XDICTIONARY
360
104
102
}
102
{ACAD_REACTORS
330
86
102
}
330
86
100
AcDbTableStyle
  3
Standard
 70
     0
 71
     0
 40
0.06
 41
0.06
280
     0
281
     0
  7
Standard
140
0.18
170
     2
 62
     0
 63
     7
283
     0
274
    -2
284
     1
 64
     0
275
    -2
285
     1
 65
     0
276
    -2
286
     1
 66
     0
277
    -2
287
     1
 67
     0
278
    -2
288
     1
 68
     0
279
    -2
289
     1
 69
     0
  7
Standard
140
0.25
170
     5
 62
     0
 63
     7
283
     0
274
    -2
284
     1
 64
     0
275
    -2
285
     1
 65
     0
276
    -2
286
     1
 66
     0
277
    -2
287
     1
 67
     0
278
    -2
288
     1
 68
     0
279
    -2
289
     1
 69
     0
  7
Standard
140
0.18
170
     5
 62
     0
 63
     7
283
     0
274
    -2
284
     1
 64
     0
275
    -2
285
     1
 65
     0
276
    -2
286
     1
 66
     0
277
    -2
287
     1
 67
     0
278
    -2
288
     1
 68
     0
279
    -2
289
     1
 69
     0
  0
VISUALSTYLE
  5
9F
102
{ACAD_XDICTIONARY
360
2126
102
}
102
{ACAD_REACTORS
330
99
102
}
330
99
100
AcDbVisualStyle
  2
2dWireframe
 70
     4
 71
     0
 72
     2
 73
     1
 90
        0
 40
-0.6
 41
-30.0
 62
     5
 63
     7
 74
     1
 91
        4
 64
     7
 65
   257
 75
     1
175
     1
 42
1.0
 92
        0
 66
   257
 43
1.0
 76
     1
 77
     6
 78
     2
 67
     7
 79
     5
170
     0
171
     0
290
     0
174
     0
 93
        1
 44
0.0
173
     0
291
     0
 45
0.0
1001
ACAD
1000
AcDbSavedByObjectVersion
1070
     0
  0
VISUALSTYLE
  5
9E
102
{ACAD_XDICTIONARY
360
2124
102
}
102
{ACAD_REACTORS
330
99
102
}
330
99
100
AcDbVisualStyle
  2
Basic
 70
     7
 71
     1
 72
     0
 73
     1
 90
        0
 40
-0.6
 41
-30.0
 62
     5
 63
     7
 74
     0
 91
        4
 64
     7
 65
   257
 75
     1
175
     1
 42
1.0
 92
        8
 66
     7
 43
1.0
 76
     1
 77
     6
 78
     2
 67
     7
 79
     5
170
     0
171
     0
290
     0
174
     0
 93
        1
 44
0.0
173
     0
291
     1
 45
0.0
1001
ACAD
1000
AcDbSavedByObjectVersion
1070
     0
  0
VISUALSTYLE
  5
A5
102
{ACAD_XDICTIONARY
360
2132
102
}
102
{ACAD_REACTORS
330
99
102
}
330
99
100
AcDbVisualStyle
  2
Brighten
 70
    12
 71
     2
 72
     2
 73
     1
 90
        0
 40
-0.6
 41
-30.0
 62
     5
 63
     7
 74
     1
 91
        4
 64
     7
 65
   257
 75
     1
175
     1
 42
1.0
 92
        8
 66
     7
 43
1.0
 76
     1
 77
     6
 78
     2
 67
     7
 79
     5
170
     0
171
     0
290
     0
174
     0
 93
        1
 44
50.0
173
     0
291
     1
 45
0.0
1001
ACAD
1000
AcDbSavedByObjectVersion
1070
     0
  0
VISUALSTYLE
  5
A9
102
{ACAD_XDICTIONARY
360
213A
102
}
102
{ACAD_REACTORS
330
99
102
}
330
99
100
AcDbVisualStyle
  2
ColorChange
 70
    16
 71
     2
 72
     2
 73
     3
 90
        0
 40
-0.6
 41
-30.0
 62
     5
 63
     8
 74
     1
 91
        4
 64
     7
 65
   257
 75
     1
175
     1
 42
1.0
 92
        8
 66
     8
 43
1.0
 76
     1
 77
     6
 78
     2
 67
     7
 79
     5
170
     0
171
     0
290
     0
174
     0
 93
        1
 44
0.0
173
     0
291
     1
 45
0.0
1001
ACAD
1000
AcDbSavedByObjectVersion
1070
     0
  0
VISUALSTYLE
  5
A2
102
{ACAD_XDICTIONARY
360
212C
102
}
102
{ACAD_REACTORS
330
99
102
}
330
99
100
AcDbVisualStyle
  2
Conceptual
 70
     9
 71
     3
 72
     2
 73
     1
 90
        0
 40
-0.6
 41
-30.0
 62
     5
 63
     7
 74
     2
 91
        2
 64
     7
 65
   257
 75
     1
175
     1
 42
40.0
 92
        8
 66
     7
 43
1.0
 76
     1
 77
     6
 78
     2
 67
     7
 79
     3
170
     0
171
     0
290
     0
174
     0
 93
        1
 44
0.0
173
     0
291
     0
 45
0.0
1001
ACAD
1000
AcDbSavedByObjectVersion
1070
     0
  0
VISUALSTYLE
  5
A4
102
{ACAD_XDICTIONARY
360
2130
102
}
102
{ACAD_REACTORS
330
99
102
}
330
99
100
AcDbVisualStyle
  2
Dim
 70
    11
 71
     2
 72
     2
 73
     1
 90
        0
 40
-0.6
 41
-30.0
 62
     5
 63
     7
 74
     1
 91
        4
 64
     7
 65
   257
 75
     1
175
     1
 42
1.0
 92
        8
 66
     7
 43
1.0
 76
     1
 77
     6
 78
     2
 67
     7
 79
     5
170
     0
171
     0
290
     0
174
     0
 93
        1
 44
-50.0
173
     0
291
     1
 45
0.0
1001
ACAD
1000
AcDbSavedByObjectVersion
1070
     0
  0
VISUALSTYLE
  5
175
102
{ACAD_XDICTIONARY
360
2140
102
}
102
{ACAD_REACTORS
330
99
102
}
330
99
100
AcDbVisualStyle
  2
EdgeColorOff
 70
    22
 71
     2
 72
     2
 73
     0
 90
        0
 40
-0.6
 41
-30.0
 62
     5
 63
     7
 74
     1
 91
        4
 64
     7
 65
   257
 75
     1
175
     1
 42
1.0
 92
        8
 66
     7
 43
1.0
 76
     1
 77
     6
 78
     2
 67
     7
 79
     5
170
     0
171
     0
290
     0
174
     0
 93
        1
 44
0.0
173
     0
291
     1
 45
0.0
1001
ACAD
1000
AcDbSavedByObjectVersion
1070
     0
  0
VISUALSTYLE
  5
A8
102
{ACAD_XDICTIONARY
360
2138
102
}
102
{ACAD_REACTORS
330
99
102
}
330
99
100
AcDbVisualStyle
  2
Facepattern
 70
    15
 71
     2
 72
     2
 73
     1
 90
        0
 40
-0.6
 41
-30.0
 62
     5
 63
     7
 74
     1
 91
        4
 64
     7
 65
   257
 75
     1
175
     1
 42
1.0
 92
        8
 66
     7
 43
1.0
 76
     1
 77
     6
 78
     2
 67
     7
 79
     5
170
     0
171
     0
290
     0
174
     0
 93
        1
 44
0.0
173
     0
291
     1
 45
0.0
1001
ACAD
1000
AcDbSavedByObjectVersion
1070
     0
  0
VISUALSTYLE
  5
9A
102
{ACAD_XDICTIONARY
360
211C
102
}
102
{ACAD_REACTORS
330
99
102
}
330
99
100
AcDbVisualStyle
  2
Flat
 70
     0
 71
     2
 72
     1
 73
     1
 90
        2
 40
-0.6
 41
30.0
 62
     5
 63
     7
 74
     0
 91
        0
 64
     7
 65
   257
 75
     1
175
     1
 42
1.0
 92
        8
 66
     7
 43
1.0
 76
     1
 77
     6
 78
     2
 67
     7
 79
     5
170
     0
171
     0
290
     0
174
     0
 93
       13
 44
0.0
173
     0
291
     1
 45
0.0
1001
ACAD
1000
AcDbSavedByObjectVersion
1070
     0
  0
VISUALSTYLE
  5
9B
102
{ACAD_XDICTIONARY
360
211E
102
}
102
{ACAD_REACTORS
330
99
102
}
330
99
100
AcDbVisualStyle
  2
FlatWithEdges
 70
     1
 71
     2
 72
     1
 73
     1
 90
        2
 40
-0.6
 41
30.0
 62
     5
 63
     7
 74
     1
 91
        0
 64
     7
 65
   257
 75
     1
175
     1
 42
1.0
 92
        0
 66
   257
 43
1.0
 76
     1
 77
     6
 78
     2
 67
     7
 79
     5
170
     0
171
     0
290
     0
174
     0
 93
       13
 44
0.0
173
     0
291
     1
 45
0.0
1001
ACAD
1000
AcDbSavedByObjectVersion
1070
     0
  0
VISUALSTYLE
  5
9C
102
{ACAD_XDICTIONARY
360
2120
102
}
102
{ACAD_REACTORS
330
99
102
}
330
99
100
AcDbVisualStyle
  2
Gouraud
 70
     2
 71
     2
 72
     2
 73
     1
 90
        2
 40
-0.6
 41
30.0
 62
     5
 63
     7
 74
     0
 91
        0
 64
     7
 65
   257
 75
     1
175
     1
 42
1.0
 92
        0
 66
     7
 43
1.0
 76
     1
 77
     6
 78
     2
 67
     7
 79
     5
170
     0
171
     0
290
     0
174
     0
 93
       13
 44
0.0
173
     0
291
     1
 45
0.0
1001
ACAD
1000
AcDbSavedByObjectVersion
1070
     0
  0
VISUALSTYLE
  5
9D
102
{ACAD_XDICTIONARY
360
2122
102
}
102
{ACAD_REACTORS
330
99
102
}
330
99
100
AcDbVisualStyle
  2
GouraudWithEdges
 70
     3
 71
     2
 72
     2
 73
     1
 90
        2
 40
-0.6
 41
30.0
 62
     5
 63
     7
 74
     1
 91
        0
 64
     7
 65
   257
 75
     1
175
     1
 42
1.0
 92
        0
 66
   257
 43
1.0
 76
     1
 77
     6
 78
     2
 67
     7
 79
     5
170
     0
171
     0
290
     0
174
     0
 93
       13
 44
0.0
173
     0
291
     1
 45
0.0
1001
ACAD
1000
AcDbSavedByObjectVersion
1070
     0
  0
VISUALSTYLE
  5
A1
102
{ACAD_XDICTIONARY
360
212A
102
}
102
{ACAD_REACTORS
330
99
102
}
330
99
100
AcDbVisualStyle
  2
Hidden
 70
     6
 71
     1
 72
     2
 73
     2
 90
        0
 40
-0.6
 41
-30.0
 62
     5
 63
     7
 74
     2
 91
        2
 64
     7
 65
   257
 75
     2
175
     1
 42
40.0
 92
        0
 66
   257
 43
1.0
 76
     1
 77
     6
 78
     2
 67
     7
 79
     3
170
     0
171
     0
290
     0
174
     0
 93
        1
 44
0.0
173
     0
291
     0
 45
0.0
1001
ACAD
1000
AcDbSavedByObjectVersion
1070
     0
  0
VISUALSTYLE
  5
173
102
{ACAD_XDICTIONARY
360
213C
102
}
102
{ACAD_REACTORS
330
99
102
}
330
99
100
AcDbVisualStyle
  2
JitterOff
 70
    20
 71
     2
 72
     2
 73
     0
 90
        0
 40
-0.6
 41
-30.0
 62
     5
 63
     7
 74
     1
 91
        4
 64
     7
 65
   257
 75
     1
175
     1
 42
1.0
 92
       10
 66
     7
 43
1.0
 76
     1
 77
     6
 78
     2
 67
     7
 79
     5
170
     0
171
     0
290
     0
174
     0
 93
        1
 44
0.0
173
     0
291
     1
 45
0.0
1001
ACAD
1000
AcDbSavedByObjectVersion
1070
     0
  0
VISUALSTYLE
  5
A7
102
{ACAD_XDICTIONARY
360
2136
102
}
102
{ACAD_REACTORS
330
99
102
}
330
99
100
AcDbVisualStyle
  2
Linepattern
 70
    14
 71
     2
 72
     2
 73
     1
 90
        0
 40
-0.6
 41
-30.0
 62
     5
 63
     7
 74
     1
 91
        4
 64
     7
 65
   257
 75
     7
175
     7
 42
1.0
 92
        8
 66
     7
 43
1.0
 76
     1
 77
     6
 78
     2
 67
     7
 79
     5
170
     0
171
     0
290
     0
174
     0
 93
        1
 44
0.0
173
     0
291
     1
 45
0.0
1001
ACAD
1000
AcDbSavedByObjectVersion
1070
     0
  0
VISUALSTYLE
  5
174
102
{ACAD_XDICTIONARY
360
213E
102
}
102
{ACAD_REACTORS
330
99
102
}
330
99
100
AcDbVisualStyle
  2
OverhangOff
 70
    21
 71
     2
 72
     2
 73
     0
 90
        0
 40
-0.6
 41
-30.0
 62
     5
 63
     7
 74
     1
 91
        4
 64
     7
 65
   257
 75
     1
175
     1
 42
1.0
 92
        9
 66
     7
 43
1.0
 76
     1
 77
     6
 78
     2
 67
     7
 79
     5
170
     0
171
     0
290
     0
174
     0
 93
        1
 44
0.0
173
     0
291
     1
 45
0.0
1001
ACAD
1000
AcDbSavedByObjectVersion
1070
     0
  0
VISUALSTYLE
  5
A3
102
{ACAD_XDICTIONARY
360
212E
102
}
102
{ACAD_REACTORS
330
99
102
}
330
99
100
AcDbVisualStyle
  2
Realistic
 70
     8
 71
     2
 72
     3
 73
     0
 90
        2
 40
-0.6
 41
30.0
 62
     5
 63
     7
 74
     0
 91
        0
 64
     7
 65
   257
 75
     1
175
     1
 42
1.0
 92
        8
 66
   257
 43
1.0
 76
     1
 77
     6
 78
     2
 67
     7
 79
     3
170
     0
171
     0
290
     0
174
     0
 93
       13
 44
0.0
173
     0
291
     0
 45
0.0
1001
ACAD
1000
AcDbSavedByObjectVersion
1070
     0
  0
VISUALSTYLE
  5
182
102
{ACAD_XDICTIONARY
360
214A
102
}
102
{ACAD_REACTORS
330
99
102
}
330
99
100
AcDbVisualStyle
  2
Shaded
 70
    27
 71
     2
 72
     2
 73
     1
 90
        2
 40
-0.6
 41
30.0
 62
     5
 63
     7
 74
     0
 91
        4
 64
     7
 65
   257
 75
     1
175
     1
 42
1.0
 92
        8
 66
   257
 43
1.0
 76
     1
 77
     6
 78
     2
 67
     8
 79
     3
170
     0
171
     0
290
     0
174
     0
 93
        5
 44
0.0
173
     0
291
     0
 45
0.0
1001
ACAD
1000
AcDbSavedByObjectVersion
1070
     0
  0
VISUALSTYLE
  5
181
102
{ACAD_XDICTIONARY
360
2148
102
}
102
{ACAD_REACTORS
330
99
102
}
330
99
100
AcDbVisualStyle
  2
Shaded with edges
 70
    26
 71
     2
 72
     2
 73
     1
 90
        2
 40
-0.6
 41
30.0
 62
     5
 63
     7
 74
     1
 91
       10
 64
     7
 65
   257
 75
     2
175
     1
 42
1.0
 92
        8
 66
   257
 43
1.0
 76
     1
 77
     6
 78
     2
 67
     7
 79
     3
170
     0
171
     0
290
     0
174
     0
 93
        5
 44
0.0
173
     0
291
     0
 45
0.0
1001
ACAD
1000
AcDbSavedByObjectVersion
1070
     0
  0
VISUALSTYLE
  5
17E
102
{ACAD_XDICTIONARY
360
2142
102
}
102
{ACAD_REACTORS
330
99
102
}
330
99
100
AcDbVisualStyle
  2
Shades of Gray
 70
    23
 71
     2
 72
     2
 73
     3
 90
        0
 40
-0.6
 41
-30.0
 62
     5
 63
     7
 74
     2
 91
        2
 64
     7
 65
     7
 75
     1
175
     1
 42
40.0
 92
        8
 66
     7
 43
1.0
 76
     1
 77
     6
 78
     2
 67
     7
 79
     3
170
     0
171
     0
290
     0
174
     0
 93
        1
 44
0.0
173
     0
291
     0
 45
0.0
1001
ACAD
1000
AcDbSavedByObjectVersion
1070
     0
  0
VISUALSTYLE
  5
17F
102
{ACAD_XDICTIONARY
360
2144
102
}
102
{ACAD_REACTORS
330
99
102
}
330
99
100
AcDbVisualStyle
  2
Sketchy
 70
    24
 71
     1
 72
     2
 73
     2
 90
        0
 40
-0.6
 41
-30.0
 62
     5
 63
     7
 74
     2
 91
        2
 64
     7
 65
     7
 75
     1
175
     1
 42
40.0
 92
       11
 66
     7
 43
1.0
 76
     1
 77
     6
 78
     2
 67
     7
 79
     6
170
     0
171
     0
290
     0
174
     0
 93
        1
 44
0.0
173
     0
291
     0
 45
0.0
1001
ACAD
1000
AcDbSavedByObjectVersion
1070
     0
  0
VISUALSTYLE
  5
A6
102
{ACAD_XDICTIONARY
360
2134
102
}
102
{ACAD_REACTORS
330
99
102
}
330
99
100
AcDbVisualStyle
  2
Thicken
 70
    13
 71
     2
 72
     2
 73
     1
 90
        0
 40
-0.6
 41
-30.0
 62
     5
 63
     7
 74
     1
 91
        4
 64
     7
 65
   257
 75
     1
175
     1
 42
1.0
 92
       12
 66
     7
 43
1.0
 76
     1
 77
     6
 78
     2
 67
     7
 79
     5
170
     0
171
     0
290
     0
174
     0
 93
        1
 44
0.0
173
     0
291
     1
 45
0.0
1001
ACAD
1000
AcDbSavedByObjectVersion
1070
     0
  0
VISUALSTYLE
  5
A0
102
{ACAD_XDICTIONARY
360
2128
102
}
102
{ACAD_REACTORS
330
99
102
}
330
99
100
AcDbVisualStyle
  2
Wireframe
 70
     5
 71
     0
 72
     2
 73
     0
 90
        0
 40
-0.6
 41
-30.0
 62
     5
 63
     7
 74
     1
 91
        4
 64
     7
 65
   257
 75
     1
175
     1
 42
1.0
 92
        0
 66
   257
 43
1.0
 76
     1
 77
     6
 78
     2
 67
     7
 79
     3
170
     0
171
     0
290
     0
174
     0
 93
        1
 44
0.0
173
     0
291
     0
 45
0.0
1001
ACAD
1000
AcDbSavedByObjectVersion
1070
     0
  0
VISUALSTYLE
  5
180
102
{ACAD_XDICTIONARY
360
2146
102
}
102
{ACAD_REACTORS
330
99
102
}
330
99
100
AcDbVisualStyle
  2
X-Ray
 70
    25
 71
     2
 72
     2
 73
     1
 90
        1
 40
0.5
 41
-30.0
 62
     5
 63
     7
 74
     1
 91
        0
 64
     7
 65
   257
 75
     1
175
     1
 42
1.0
 92
        8
 66
     7
 43
1.0
 76
     1
 77
     6
 78
     2
 67
     7
 79
     3
170
     0
171
     0
290
     0
174
     0
 93
       13
 44
0.0
173
     0
291
     0
 45
0.0
1001
ACAD
1000
AcDbSavedByObjectVersion
1070
     0
  0
DICTIONARYVAR
  5
F0
102
{ACAD_REACTORS
330
66
102
}
330
66
100
DictionaryVariables
280
     0
  1
1:1
  0
DICTIONARYVAR
  5
EF
102
{ACAD_REACTORS
330
66
102
}
330
66
100
DictionaryVariables
280
     0
  1
STANDARD
  0
DICTIONARYVAR
  5
89
102
{ACAD_REACTORS
330
66
102
}
330
66
100
DictionaryVariables
280
     0
  1
STANDARD
  0
DICTIONARYVAR
  5
1B7
102
{ACAD_REACTORS
330
66
102
}
330
66
100
DictionaryVariables
280
     0
  1
Imperial24
  0
DICTIONARYVAR
  5
1B8
102
{ACAD_REACTORS
330
66
102
}
330
66
100
DictionaryVariables
280
     0
  1
Imperial24
  0
DICTIONARYVAR
  5
67
102
{ACAD_REACTORS
330
66
102
}
330
66
100
DictionaryVariables
280
     0
  1
2
  0
DICTIONARYVAR
  5
6B
102
{ACAD_REACTORS
330
66
102
}
330
66
100
DictionaryVariables
280
     0
  1
1
  0
DICTIONARYVAR
  5
1EF0
102
{ACAD_REACTORS
330
66
102
}
330
66
100
DictionaryVariables
280
     0
  1
0
  0
DICTIONARYVAR
  5
14D
102
{ACAD_REACTORS
330
66
102
}
330
66
100
DictionaryVariables
280
     0
  1
0
  0
DICTIONARYVAR
  5
14E
102
{ACAD_REACTORS
330
66
102
}
330
66
100
DictionaryVariables
280
     0
  1
0
  0
DICTIONARYVAR
  5
1EEE
102
{ACAD_REACTORS
330
66
102
}
330
66
100
DictionaryVariables
280
     0
  1
2
  0
DICTIONARYVAR
  5
1EF1
102
{ACAD_REACTORS
330
66
102
}
330
66
100
DictionaryVariables
280
     0
  1
1.570796
  0
DICTIONARYVAR
  5
1EF2
102
{ACAD_REACTORS
330
66
102
}
330
66
100
DictionaryVariables
280
     0
  1
1.570796
  0
DICTIONARYVAR
  5
1EF3
102
{ACAD_REACTORS
330
66
102
}
330
66
100
DictionaryVariables
280
     0
  1
-122.394000
  0
DICTIONARYVAR
  5
1EED
102
{ACAD_REACTORS
330
66
102
}
330
66
100
DictionaryVariables
280
     0
  1
1
  0
DICTIONARYVAR
  5
1EEF
102
{ACAD_REACTORS
330
66
102
}
330
66
100
DictionaryVariables
280
     0
  1
127
  0
DICTIONARYVAR
  5
1EF4
102
{ACAD_REACTORS
330
66
102
}
330
66
100
DictionaryVariables
280
     0
  1
2
  0
DICTIONARY
  5
214E
330
1AC
100
AcDbDictionary
280
     1
281
     1
  3
ACAD_XREC_ROUNDTRIP
360
214F
  0
DICTIONARY
  5
2114
330
59
100
AcDbDictionary
280
     1
281
     1
  3
ACAD_XREC_ROUNDTRIP
360
2115
  0
DICTIONARY
  5
2116
330
5E
100
AcDbDictionary
280
     1
281
     1
  3
ACAD_XREC_ROUNDTRIP
360
2117
  0
DICTIONARY
  5
194
330
22
100
AcDbDictionary
280
     1
281
     1
  3
ACAD_XREC_ROUNDTRIP
360
2113
  0
DICTIONARY
  5
188
330
97
100
AcDbDictionary
280
     1
281
     1
  3
ACAD_XREC_ROUNDTRIP
360
211A
  3
FBXASSET
360
189
  0
DICTIONARY
  5
186
330
96
100
AcDbDictionary
280
     1
281
     1
  3
ACAD_XREC_ROUNDTRIP
360
2119
  3
FBXASSET
360
187
  0
DICTIONARY
  5
110
330
98
100
AcDbDictionary
280
     1
281
     1
  3
ACAD_XREC_ROUNDTRIP
360
211B
  3
BUMPTILE
360
112
  3
DIFFUSETILE
360
111
  3
FBXASSET
360
18A
  3
OPACITYTILE
360
113
  3
REFLECTIONTILE
360
114
  0
XRECORD
  5
1B44
102
{ACAD_REACTORS
330
1B43
102
}
330
1B43
100
AcDbXrecord
280
     1
 70
     2
 71
     3
 72
     0
  0
DICTIONARY
  5
214C
330
1AA
100
AcDbDictionary
280
     1
281
     1
  3
ACAD_XREC_ROUNDTRIP
360
214D
  0
DICTIONARY
  5
104
330
87
100
AcDbDictionary
280
     1
281
     1
  3
ACAD_ROUNDTRIP_2008_TABLESTYLE_CELLSTYLEMAP
360
2110
  3
ACAD_XREC_ROUNDTRIP
360
2118
  0
DICTIONARY
  5
2126
330
9F
100
AcDbDictionary
280
     1
281
     1
  3
ACAD_XREC_ROUNDTRIP
360
2127
  0
DICTIONARY
  5
2124
330
9E
100
AcDbDictionary
280
     1
281
     1
  3
ACAD_XREC_ROUNDTRIP
360
2125
  0
DICTIONARY
  5
2132
330
A5
100
AcDbDictionary
280
     1
281
     1
  3
ACAD_XREC_ROUNDTRIP
360
2133
  0
DICTIONARY
  5
213A
330
A9
100
AcDbDictionary
280
     1
281
     1
  3
ACAD_XREC_ROUNDTRIP
360
213B
  0
DICTIONARY
  5
212C
330
A2
100
AcDbDictionary
280
     1
281
     1
  3
ACAD_XREC_ROUNDTRIP
360
212D
  0
DICTIONARY
  5
2130
330
A4
100
AcDbDictionary
280
     1
281
     1
  3
ACAD_XREC_ROUNDTRIP
360
2131
  0
DICTIONARY
  5
2140
330
175
100
AcDbDictionary
280
     1
281
     1
  3
ACAD_XREC_ROUNDTRIP
360
2141
  0
DICTIONARY
  5
2138
330
A8
100
AcDbDictionary
280
     1
281
     1
  3
ACAD_XREC_ROUNDTRIP
360
2139
  0
DICTIONARY
  5
211C
330
9A
100
AcDbDictionary
280
     1
281
     1
  3
ACAD_XREC_ROUNDTRIP
360
211D
  0
DICTIONARY
  5
211E
330
9B
100
AcDbDictionary
280
     1
281
     1
  3
ACAD_XREC_ROUNDTRIP
360
211F
  0
DICTIONARY
  5
2120
330
9C
100
AcDbDictionary
280
     1
281
     1
  3
ACAD_XREC_ROUNDTRIP
360
2121
  0
DICTIONARY
  5
2122
330
9D
100
AcDbDictionary
280
     1
281
     1
  3
ACAD_XREC_ROUNDTRIP
360
2123
  0
DICTIONARY
  5
212A
330
A1
100
AcDbDictionary
280
     1
281
     1
  3
ACAD_XREC_ROUNDTRIP
360
212B
  0
DICTIONARY
  5
213C
330
173
100
AcDbDictionary
280
     1
281
     1
  3
ACAD_XREC_ROUNDTRIP
360
213D
  0
DICTIONARY
  5
2136
330
A7
100
AcDbDictionary
280
     1
281
     1
  3
ACAD_XREC_ROUNDTRIP
360
2137
  0
DICTIONARY
  5
213E
330
174
100
AcDbDictionary
280
     1
281
     1
  3
ACAD_XREC_ROUNDTRIP
360
213F
  0
DICTIONARY
  5
212E
330
A3
100
AcDbDictionary
280
     1
281
     1
  3
ACAD_XREC_ROUNDTRIP
360
212F
  0
DICTIONARY
  5
214A
330
182
100
AcDbDictionary
280
     1
281
     1
  3
ACAD_XREC_ROUNDTRIP
360
214B
  0
DICTIONARY
  5
2148
330
181
100
AcDbDictionary
280
     1
281
     1
  3
ACAD_XREC_ROUNDTRIP
360
2149
  0
DICTIONARY
  5
2142
330
17E
100
AcDbDictionary
280
     1
281
     1
  3
ACAD_XREC_ROUNDTRIP
360
2143
  0
DICTIONARY
  5
2144
330
17F
100
AcDbDictionary
280
     1
281
     1
  3
ACAD_XREC_ROUNDTRIP
360
2145
  0
DICTIONARY
  5
2134
330
A6
100
AcDbDictionary
280
     1
281
     1
  3
ACAD_XREC_ROUNDTRIP
360
2135
  0
DICTIONARY
  5
2128
330
A0
100
AcDbDictionary
280
     1
281
     1
  3
ACAD_XREC_ROUNDTRIP
360
2129
  0
DICTIONARY
  5
2146
330
180
100
AcDbDictionary
280
     1
281
     1
  3
ACAD_XREC_ROUNDTRIP
360
2147
  0
XRECORD
  5
214F
102
{ACAD_REACTORS
330
214E
102
}
330
214E
100
AcDbXrecord
280
     1
102
DISPLAYNAME
  1
Imperial24
102
FLAGS
 90
        0
  0
XRECORD
  5
2115
102
{ACAD_REACTORS
330
2114
102
}
330
2114
100
AcDbXrecord
280
     1
102
SHADEPLOT
 70
     0
102
SHADEPLOTRESLEVEL
 70
     2
102
SHADEPLOTCUSTOMDPI
 70
   300
  0
XRECORD
  5
2117
102
{ACAD_REACTORS
330
2116
102
}
330
2116
100
AcDbXrecord
280
     1
102
SHADEPLOT
 70
     0
102
SHADEPLOTRESLEVEL
 70
     2
102
SHADEPLOTCUSTOMDPI
 70
   300
  0
XRECORD
  5
2113
102
{ACAD_REACTORS
330
194
102
}
330
194
100
AcDbXrecord
280
     1
102
SHADEPLOT
 70
     0
102
SHADEPLOTRESLEVEL
 70
     2
102
SHADEPLOTCUSTOMDPI
 70
   300
  0
XRECORD
  5
211A
102
{ACAD_REACTORS
330
188
102
}
330
188
100
AcDbXrecord
280
     1
102
MATERIAL
148
0.0
149
0.0
149
0.0
 93
        0
 94
       63
282
     0
 72
     1
 77
     1
171
     1
175
     1
179
     1
273
     0
  0
XRECORD
  5
189
102
{ACAD_REACTORS
330
188
102
}
330
188
100
AcDbXrecord
280
     1
 70
     1
 90
429727718
  1
508B35C9-AEE7-456F-BE74-D52651303AC6
310
504B03040A0000080000B670623B3DEE336E79000000790000001B0000006175746F6465736B2D64657369676E2D7061636B6167652E786D6C3C3F786D6C2076657273696F6E3D22312E302220656E636F64696E673D227574662D3822203F3E3C666F726D6174733E3C666F726D61743E687474703A2F2F736368656D612E
310
6175746F6465736B2E636F6D2F64657369676E2D7061636B6167652F323030393C2F666F726D61743E3C2F666F726D6174733E504B0304140006080800B670623BD486FD9CA0000000F4000000130000005B436F6E74656E745F54797065735D2E786D6C7D8EC10E82300C865F65E91D8A1E8C310C0EEA1BF002731658846E
310
D98AC1B77784ABF1D8FE5FBFBF75BBCE937A534CCEB38643598122B6FEE978D0B0485F9C41B54DDD7D022595594E1A469170414C76A4D9A4D207E29CF43ECE46F218070CC6BECC4078ACAA135ACF422C856C0E68EA1BF5669944DDD7BCDE7B1F8E415D77AECB980613C2E4AC91FC167A2B244592486606FC29C8FD7F045B9A
310
EF7053A7E60B504B0304140006080800B670623B28ED286BEB0000007C01000008000000636F72652E786D6C8D90416EC3201045AF82665B6183218D6D61A254764FD00B204C5C94182C03558F5F9C3852BBEB6A467FFE9B197D71FA9E6FE8CBACC17AD7012D0820E3B41FAD9B3A48F1826B40272956EFE32F1B20A766D3C1
310
268314D3EAD3B24BDABB685CCCAAF3A3D94515828980F42D371D04FD696655A814B3235C8B45E9AB9A4C419F5D8653B2237A1CB163DE672FD6AC209BF3C08E0D1B30EB19C3FC9D72FCC6EB231EFA33EDE96BDD341517E5064B11EDFCBCAF57A3A2194156843498524CAA0FCA5B7268F9E185D42D21A2DCEC7FA0B48CFF8492
310
759155FBBB0F2C80A4F991FB408A72CB22977B50B96EB9C91F504B0304140006080800B670623B55019EA25F0000007C00000007000000636E782E786D6C4DCB3B0E80201045D1AD90E915ED2CF8AC45050C11660C8261F98AB1B07AC9C97D42D718D865D3E909258CFD00CCE24AC6E326A164D74DC0B4128928FF32603847
310
2BA13128B1252AC747C6BAB984FC68F0B87FE8960A5C09FE86CFB69FBA01504B0304140006080800B670623B7BC41AC871010000D40300000C0000006662782F636F72652E786D6CC553ED6E8320147D15C2DF4501B56B6D90A64BBB27D80B50A5CE54C120983EFEAE1F4DD7A56BBA5FF3879273EEE59E7310BE393735EA95
310
ED2AA333CC428A91D2B9292A5D66D8BB63B0C26823B835C67D2BC348CB46657880B1E0A535BE9DA1DC68A7B403549B42CDA0EC3AE530CA6B5864B8CB3F552343E91D5474A7B095F949962A6421D0502778E72C0840D390E18DC5F170E664C205F7BE2A66B62A605A75AC94C522DDEEE3651AEF837817C741F2CE92E02D592D
310
83FD6ECB76EC7595A651C2C9D02CB8AB9A8BBADC2AE954814544691A3016D0E883256BBA58278B17BA5A53CAC9507ED3E4DBE2C9265F691747B3DCA9ADC382819091F8E1162272A8933DE82182932144F88C09DF060D8140C84E1EEA8B8F1340BDCA9DB1093085F157AA97B557309586747CD0EF0B4EA64E983A6E0EAEEFCE
310
889E9EF17847386AA94B30211D2C0FDE0D3AF9A4610EAD5536E8DD1969631B593F67E381C33F5157F17725E5A636F6BF1491F980C8FC7B90E13E8A2F504B0304140006080800B670623B70102A487D0000009D0000000B0000006662782F636E782E786D6C4DCCD10A83201886E15B91FFDC95A5C30335ACCDFB886521330D
310
A76397BF1A1DECE883878F57749FD5A3B74D2F17830472A901D9F088930B8B849267CC01754AA418F3DF0D5018572BE160506249B16C274D761E8BCFBB7A179E27F65CB39A0F14D396184C9921B81F34C3ACA1B4B99ABB6E6F062A25AA5F69DF23ACBE504B0304140006080800B670623B3610CA3329010000120200003100
310
00006662782F42384135303843342D343331462D343546312D424341352D3532343432364645413344462F636F72652E786D6C8D515B6EC32010BC0AE22B55850D0E446E848992B43E412FE000495162B07854397EA176A4F62F3F2C9A9D991D58BEBB8F37F0AD7D30CE76905418026DA553C65E3A98E219B510EC04F7CEC5
310
3F3408EC30EA0E16180A7EF12E4D0B249D8DDAC68C5AA7F4020E21E80881BCE54B0783FCD2E3500D296646B856D320AFC34557A4CAEDCC133C449F0380794839A138B47B86DB2345744D7A44594FD0E1B867883594369BFE63BF7EEF793D0B054FC9A8456E548E63CE46FB674D8A58F068C6477CE9F510B582A2C1F80D1182
310
70F349E816B32D65AFB8DD62CCEB42FF274A937A52948C8DEB66893BCB021484D7734370E5D2E9F608A3EF93F3119479ABA0E50B14B8C298119A43CCC4FCFCECB8A18B6388CEE7EF5D5D4F994BD86CBBA182D76543B9FCAE2FD7B24DF103504B0304140006080800B670623B1B8617914E0100003303000030000000666278
310
2F42384135303843342D343331462D343546312D424341352D3532343432364645413344462F636E782E786D6CD593C16EC32010447F0571AD6CE3D489D20813A9877E410FBD62D82434182CC055F3F75D1292E692438FBD206B7698593D61BEFD1E2DF982108D773D6D6B460938E5B571FB9ECE6957AD29D90A1EBC4F7736
310
4A9C1CA1A759A682EF839FA72269D8C9D92654AD71C72206887E0E0A22CAF926B15E498B01E0AA19451807D01A34B919F16B070157417138917400F2F6FA41FCF0092A45DEE414C19BDC21783E4BD39D891265658C3D8DEA00A3ACE59CBC8678ACB54CB26EEB6BD7839D7E9348BE70AD9C8321B9BCA7F9A4A26C542347DEE0
310
50F09802D22BA6749A800A394DD62899107273365E3C82CFC6A55557BC06C10774B7ABE7AEC3B0F34CF06446280E154026D0542C187BA9DAB6628BF7B6DBB0E5A65B3EB1F58631DE64BBE083F7B65CC218087E22CABB042E51D1F2268F1FE12B3EA24D40D63E9CFE00120194D60B9D5BC67FE6D39CDF37E20AF817881F504B
310
0304140006080800B670623BBFEF2E3B690500003C100000340000006662782F42384135303843342D343331462D343546312D424341352D3532343432364645413344462F6F626A656374732E786D6CAD575D739B3814FD2B0CFB0C98D84E931D4227B6938EA793B6534F3BFB90198F0099B001899144EAECAFDF231018B0
310
D37A3FFC609090EEE7B94757C1FB7D915B2F54C88CB31BDB7727B64559CC938CA53776A576CE956DBD0F03C1B9EA2DB32D460A7A63EB693B0C52C1ABD24C257447AA5C8D66EF177F5832A68CDA569C13296F6C193FD182B8A4523CA1F2D94D88226EBADBBBBEDB2C1C8A4D05299F46424B222853B014F30C52ACC6287F389C
310
D85E1878FA7B18E87FB36AFAF62AAFF667A83F635211161F291B8999FAB3D5DDC5FCDA99CF6653677679E13B8BFBC5CAF1DF4D27CBCBE5F2FAF6EE1A8AA51290642C117467871F101B91C581D77CEA2C36869F3229E68CD1B8F61F1ED6361B89092D294B90C78C4A68EB793D190E7D1D9BDEE7A91E1B95FDE9F3BCEAEFE809
310
6A6D6F9F7D4B79F4275C90E7A04248AA51D5C4C738DAE06F72885AC4796EBE65D22A88A22223B995679120E2D50EB1542F098381188D4EA111AE3DB043FF20AF6F2B4AE3D7D83D65E5AECA730D4D3BAC91BD05FEA992B565D95F549CD6069B90AB2A63EACA38A45E4B6A87D781574F86817E4C2FCCC72690D62E2729520E37
310
9BAF234797BAF6D62B3BFC781FED37BA1E4F2B2F052FA9501A3E80569BB8F6A9A364D4FA67654E6F803383981F82F21591FF84F23D9882BC896C3FDBCF8C162508933B2E0AE4C69DD43F6BD2BE38DDDBF10BF86CB4FA784D37F3AF16075E67EC9030DECA1FC0A55373F5DFF3378C591FA9BDF485C10B0A8C8BA909E5262639
310
A8E72163488806A595734C81CB77D1DE0ED7604A303B76913CEC0272F412782FF88EFF4636D8AA56DF7B322474C4B767303F625997056C7B032C473C592B36CEBD15F3F9FF5233B7ABCDC74D257624A60F8658567497B14CE1EC3C80B76FD02011038F9EE9EB0F2E12387A9C844D3F09855125116D1D731DF8B43D2CF4E0A0
310
79A020C6BE946BCE0B7EA1E1219331CD73C228AF5A2DDD31A4B1DA918CE91350854D40A71723140BFA92E94E62B0626016CEFA5864A50E5977E8753CEDBEE1CBB7F52780D20E17AF0BA0F5F9B02A3AD07DCC732EB6D1EBB661421BE0C39E21BABF0FE16D22EA6929407C8DE596724C88B749B6DB5512BC7B228ADFD7CB7EA6
310
3A22397E690BA8D5D8D4E40CEC8CDA23C2C0B7D5898640101CEC9C6D331CE328CB93CAFBBAC70A642DF70DF95155945B52F08AA973C23469FD69ADEF84F7BB18F983A8F8C90E37F5D35980B2139A1C523540813E824EF83448CF7C72B598CE97D7CEEDDDDD3B6736BFBC771677EF66CE6A7E7139F7A793E9EDF2B2B3A8B624
310
0CDA13AA5F8388264EC4A0129909F3B7F5A16CEDF08128E97D680ACA4B9BE7B7B58BB638F0B00700EF36AE8B32A705658A68F83EE897FC2B41573190D1CCAF0B92D233A47CFEB019D9809933F67DD1A5467F8CF69AD9A5AE859342D45355448C64F968A371DC2D596ADC6E43D93D1B466F877A64E2893E54F23C4B40388995
310
525E5005DA3983ED45412510D3EFCA13737B3863F74BD30F2A12E5B4B5E489A025CE25500DB855B11ACE5BBFA185D35DD48D8DC3CE7DC69F2944DB42AA6F6CF09BCA622ADD08C7A36E7C6AE18000BAB08E040135C2D21C9D75B3A91B77BB746C403F38018DFE6EC939DD92F16B40BC05294B9CDA035AAD6D330AE27FE4786B
310
8E45145EA34A75BE1C263A676A35A8ACC6297337400BF16C54EF515F3F77CB77EB3583889C754FFA29081AA98E2222ADEF05DA3E63D2EDEA8B8756C05A7FB6CABC4A91CBF325398202CC952E70A008A830324BA200D5E5EF8F5F04C75DB4B0EE3340E071C98B823333B83577596BF3849B69F2085AA0FAFA212F26BEFF5877
310
FDE622B28D88A42E49E43326DA82D31E8CB006401E1DA726059ECEC168F97A6599036306A135688F9AD2E61A6EA178F4CD51974A9F2CCB9F36FE5EBD14601068D9C3BF01504B0304140006080000B670623B000000000000000000000000350000006662782F42384135303843342D343331462D343546312D424341352D35
310
32343432364645413344462F76657274696365732E62696E504B0304140006080800B670623BF270F1330600000004000000360000006662782F42384135303843342D343331462D343546312D424341352D3532343432364645413344462F747269616E676C65732E62696E636660600000504B0304140006080000B67062
310
3B000000000000000000000000370000006662782F42384135303843342D343331462D343546312D424341352D3532343432364645413344462F617474726962757465732E62696E504B0304140006080800B670623B08DA0BD19000000041010000360000006662782F42384135303843342D343331462D343546312D4243
310
41352D3532343432364645413344462F6469726563746F72792E786D6C858F410AC3201045AF22B36F53E9A60B35CBEEBAE80D244E44489C6234F4F835464A48035D0DF398FF9F8AF63D0E6CC63039F212F8F9020C7D47C6792B21C5FE7403D62A1188E2E60C98D7234A5830286103A55745067B9D86B8A3CF9C7F90C11DE6
310
07FB144396D7B6A82D282E9A152AD114D5EF2CB866EEE831B8EEA07A7BB5A8D7D61A2BAAEB7FD5F70921FF497D00504B0304140006080800B670623B3B4606F3FE000000A00100003B0000006662782F42384135303843342D343331462D343546312D424341352D3532343432364645413344462F7265736F75726365732F
310
636F72652E786D6C8D504B6E833010BD0A9A6D65B08134808CA354A427E8052C332156828DFCA97AFC9A40A576D7CDCCE87D344F8F9FBEE647F689CE6B6B7A6039850C8DB2A336530F315C4903D94970676DF82583CCC8197B5861107C72362E3BA4AC096842428D1D7107A5F71820538F74F4E0D50D6799CB1892C2DFF345
310
AABB9C306779A2934E701F5C0A906D4FD609C2A1B7D129F4BCD858C163D4E3AED163FAA9AF1A1D88F67CA98E6D35906AA82A52BFB39ABCD5CD915C86331BD86BD3B665CD8BD52C78D0F34F46E550061C419494B6843142CB0F5677F4D0D58717DA7494F26295FF31C565FCA7296A13AA728FBBD93C0896823C09C18BB5AFB4
310
9E65A6BD762BBE01504B010214000A0000080000B670623B3DEE336E79000000790000001B00000000000000000000000000000000006175746F6465736B2D64657369676E2D7061636B6167652E786D6C504B01021400140006080800B670623BD486FD9CA0000000F40000001300000000000000000000000000B2000000
310
5B436F6E74656E745F54797065735D2E786D6C504B01021400140006080800B670623B28ED286BEB0000007C010000080000000000000000000000000083010000636F72652E786D6C504B01021400140006080800B670623B55019EA25F0000007C000000070000000000000000000000000094020000636E782E786D6C50
310
4B01021400140006080800B670623B7BC41AC871010000D40300000C00000000000000000000000000180300006662782F636F72652E786D6C504B01021400140006080800B670623B70102A487D0000009D0000000B00000000000000000000000000B30400006662782F636E782E786D6C504B01021400140006080800B6
310
70623B3610CA3329010000120200003100000000000000000000000000590500006662782F42384135303843342D343331462D343546312D424341352D3532343432364645413344462F636F72652E786D6C504B01021400140006080800B670623B1B8617914E010000330300003000000000000000000000000000D10600
310
006662782F42384135303843342D343331462D343546312D424341352D3532343432364645413344462F636E782E786D6C504B01021400140006080800B670623BBFEF2E3B690500003C10000034000000000000000000000000006D0800006662782F42384135303843342D343331462D343546312D424341352D35323434
310
32364645413344462F6F626A656374732E786D6C504B01021400140006080000B670623B0000000000000000000000003500000000000000000000000000280E00006662782F42384135303843342D343331462D343546312D424341352D3532343432364645413344462F76657274696365732E62696E504B010214001400
310
06080800B670623BF270F133060000000400000036000000000000000000000000007B0E00006662782F42384135303843342D343331462D343546312D424341352D3532343432364645413344462F747269616E676C65732E62696E504B01021400140006080000B670623B00000000000000000000000037000000000000
310
00000000000000D50E00006662782F42384135303843342D343331462D343546312D424341352D3532343432364645413344462F617474726962757465732E62696E504B01021400140006080800B670623B08DA0BD1900000004101000036000000000000000000000000002A0F00006662782F42384135303843342D3433
310
31462D343546312D424341352D3532343432364645413344462F6469726563746F72792E786D6C504B01021400140006080800B670623B3B4606F3FE000000A00100003B000000000000000000000000000E1000006662782F42384135303843342D343331462D343546312D424341352D3532343432364645413344462F72
310
65736F75726365732F636F72652E786D6C504B0506000000000E000E0080040000651100000000
  0
XRECORD
  5
2119
102
{ACAD_REACTORS
330
186
102
}
330
186
100
AcDbXrecord
280
     1
102
MATERIAL
148
0.0
149
0.0
149
0.0
 93
        0
 94
       63
282
     0
 72
     1
 77
     1
171
     1
175
     1
179
     1
273
     0
  0
XRECORD
  5
187
102
{ACAD_REACTORS
330
186
102
}
330
186
100
AcDbXrecord
280
     1
 70
     1
 90
429727718
  1
887D55A9-D0DD-414E-B741-A7DCD4DA2B4C
310
504B03040A0000080000B670623B3DEE336E79000000790000001B0000006175746F6465736B2D64657369676E2D7061636B6167652E786D6C3C3F786D6C2076657273696F6E3D22312E302220656E636F64696E673D227574662D3822203F3E3C666F726D6174733E3C666F726D61743E687474703A2F2F736368656D612E
310
6175746F6465736B2E636F6D2F64657369676E2D7061636B6167652F323030393C2F666F726D61743E3C2F666F726D6174733E504B0304140006080800B670623BD486FD9CA0000000F4000000130000005B436F6E74656E745F54797065735D2E786D6C7D8EC10E82300C865F65E91D8A1E8C310C0EEA1BF002731658846E
310
D98AC1B77784ABF1D8FE5FBFBF75BBCE937A534CCEB38643598122B6FEE978D0B0485F9C41B54DDD7D022595594E1A469170414C76A4D9A4D207E29CF43ECE46F218070CC6BECC4078ACAA135ACF422C856C0E68EA1BF5669944DDD7BCDE7B1F8E415D77AECB980613C2E4AC91FC167A2B244592486606FC29C8FD7F045B9A
310
EF7053A7E60B504B0304140006080800B670623BBC1638F5EC0000007C01000008000000636F72652E786D6C8D90416EC3201045AF82665B61836BE2D8C24471DB9CA01740401C94182C03558F5F9C3852BBEB6A467FFE9B197D7EF89E6EE8CB2CC17AD7032D0820E394D7D68D3DA478C67B4007C117EFE32F1B202727D3C3
310
2A83E0E3E2D3BC49CABB685CCCAAF3DA6CA20CC14440EA969B1E82BA98491632C5EC08D76296EA2A4753D06797E194AC468F2356E77DF66CCD02825543D50CACC62D39ED70FDC68EB8FD68F6F8787A6784342D1DDA1D2F5758F068A7E77DB518198D065111D2624A31A93E69DD11D6D5EC85EC3B4278B9DAFF4069D6FF8492
310
75F1B5DADE7D600104CD8FDC0782976B16B9DC83CA75CD4DFC00504B0304140006080800B670623B55019EA25F0000007C00000007000000636E782E786D6C4DCB3B0E80201045D1AD90E915ED2CF8AC45050C11660C8261F98AB1B07AC9C97D42D718D865D3E909258CFD00CCE24AC6E326A164D74DC0B4128928FF326038
310
472BA13128B1252AC747C6BAB984FC68F0B87FE8960A5C09FE86CFB69FBA01504B0304140006080800B670623B3586FFB671010000D40300000C0000006662782F636F72652E786D6CC553ED6E8320147D15C2DF4541A76D6D90A6DDD627D80B50A4CE54C120983EFEAE1F4DD7A55BBA5FF3879273EEE59E7310B6393735EA
310
95ED2AA3731C851423A5A5292A5DE6D8BB63B0C268C39935C67D29C3488B46E578803167A535BE9D2169B453DA01AA4DA16650749D7218C91A1639EEE4876A4428BC838AEE14B6429E44A9C228041AEA38EB9C0501681A32BC313F1ECE8C4C3867DE57C5CC56054CAB8E95B298A7F12E5EEED224C8E87E11242FE936C8DE96
310
AB60BB7F4D295D66D12E5B30323473E6AAE6A24E5A259C2A308F29CD82280A68FC1E256B9AAE93F489AED694323294DF34F9B678B0C957DA3DC7B3DCA9ADC33C022123F1CD2D44E450277AD04338234388F01913BE0D1A0281909D38D4171F27807A259DB1093085F157AA17B557309586747CD0CF0B46A64E983A6E0EAEEF
310
CE881F9EF1FB8E70D44297604238581EBC1B74B249C31C5AAB6CD0BB33D2C636A27ECCC62F0EFF445DC5DF95244D6DEC7F2922F30191F9F720C37DE49F504B0304140006080800B670623B4220A0FF7D0000009D0000000B0000006662782F636E782E786D6C4DCCD10A83201886E15B91FFDCE542CB0335D0EC3E6259C84A
310
C3E9D8E5AF46073BFAE0E1E315DD675BD1DBA5978F41C2FD4600B9F088930F8B849267CC01754AA418F3DF0D50183727E164506249B1EC174D6E1ECB9A0F5D7D785E68DB8151CD286E5A5363CA6B8A39E90D36D40E96B086F55A43A544F52B1D7B86D517504B0304140006080800B670623B2FA3FEDE290100001202000031
310
0000006662782F45374635344235342D363743322D343832342D383044432D4334454645303536354442422F636F72652E786D6C8D515B6EC32010BC0AE22B55850D2E386E848994D7097A0117488A1283C5A3CAF10BB523B57FF961D1ECCCECC0F2ED7DBC816FED8371B687A4C210682B9D32F6D2C314CFA883602BB8772E
310
FEA141608751F7B0C050F08B77695A20E96CD43666D43AA5177008414708E42D5F7A18E4971E876A483133C2B59A06791D2EBA22556E679EE021FA1C00CC43CA09C5717D6274C7286AD7FB06D1AEA1A8C3873DDAD3E3E98859CB0EBB1DAF67A1E02919B5C88DCA71CCD968FFAC49110B1ECDF8882FBD1EA256503418BF2342
310
106E3E08DD60B6A1EC15771B8C795DE8FF4469524F8A92B1F1AD59E2CEB20005E1F5DC105CB9F4797B84D1F7C9F908CABC55D0F2050A5C61CC1AD2F27A26E6E767C7962E8E213A9FBF7775FDCC5CC266DB960A5E970DE5F2BBBE5CCB36C50F504B0304140006080800B670623B1B8617914E01000033030000300000006662
310
782F45374635344235342D363743322D343832342D383044432D4334454645303536354442422F636E782E786D6CD593C16EC32010447F0571AD6CE3D489D20813A9877E410FBD62D82434182CC055F3F75D1292E692438FBD206B7698593D61BEFD1E2DF982108D773D6D6B460938E5B571FB9ECE6957AD29D90A1EBC4F77
310
364A9C1CA1A759A682EF839FA72269D8C9D92654AD71C72206887E0E0A22CAF926B15E498B01E0AA19451807D01A34B919F16B070157417138917400F2F6FA41FCF0092A45DEE414C19BDC21783E4BD39D891265658C3D8DEA00A3ACE59CBC8678ACB54CB26EEB6BD7839D7E9348BE70AD9C8321B9BCA7F9A4A26C542347DE
310
E050F09802D22BA6749A800A394DD62899107273365E3C82CFC6A55557BC06C10774B7ABE7AEC3B0F34CF06446280E154026D0542C187BA9DAB6628BF7B6DBB0E5A65B3EB1F58631DE64BBE083F7B65CC218087E22CABB042E51D1F2268F1FE12B3EA24D40D63E9CFE00120194D60B9D5BC67FE6D39CDF37E20AF817881F50
310
4B0304140006080800B670623B29652116630500003C100000340000006662782F45374635344235342D363743322D343832342D383044432D4334454645303536354442422F6F626A656374732E786D6CAD575D739B3814FD2B0CFB0C989834C90EA1639B24E3E9A6EDD4D3CE3E64C623834CD8006224913AFDF57B040203
310
B65BEF871F0C12D2FD3CF7E8CA7FBFCB33E3957291B2E2D674ED8969D02262715A24B76625B7D6B569BC0F7CCE98EC2D338D82E4F4D654D366E0279C55A59E8AE99654991CCDDECFFF3444440B6A1A514684B83545F44C7362934AB2988A173B2692D8C97667BB76B3702836E1A47C1E092D09A78584A5982F20C5688C7287
310
C389E904BEA3BE07BEFAD7ABA6A75739B53F43FD69212429A20365233153D70BEF2E2E6FAC4BCF9B5ADEBB0BD79ADFCF43CBBD9A4E16EF168B9BD9DD0D140BC921495BC2E9D60C1E101B9E46BED37CEA2CD6861F3329624541A3DA7F7858DBAC25C6B4A4458C3CA654405BCFEBC970E8AAD8F43E4FD558ABEC4F9FE7557F47
310
4F506B7BFBEC5BCA367FC105710E2AB8A00A554D7CB4A30DFE26FBA86D18CBF4B75418399194A72433B274C3097F33032C554B027F2046A1932B842B0FCCC0DDCBEBDB8AD2F835768F59B9ADB24C41D30C6A64AF817F2A456D59FA83F2E3DA60137255A585BCD60EC9B7929AC18DEFD49381AF1ED30BFDB109A4B1CD488294
310
C3CDE6EBC8D185AABD6568061FEE37BB95AAC7E3CA4BCE4ACAA5820FA0D526AE7DAA2869B5EE5999531BE0CC20E6FBA07C41E43FA27CF7A6206F3CDD793B4F6B919C1462CB788EDCD893FA674CDA17AB7B3B7C019F8D561FAEE966FED562DFE98C1D12C6A9FC015C2A35D7FF3D7FC398F591DA4B5FE0BFA2C0189FEA50AE22
310
92817A1ED3020951A03432862970F976B33383259812CC8E5D240BBA801CBCF8CE2BBEE3BF910DB6AAD5F79E05123AE2DB33981FB1ACCB02B69D00CB014FD68AB573A7627EF9BFD4CC2C5C7D58557C4B22FAA88925A4DBB44825CECE3D78FB060D1231F0E885BE7D673C86A3874958F593906B5502D1563157814FDAC3420D
310
F69A070A22EC4B98E23CFF171A1E5311D12C23056555ABA53B8614563B92D17D02AAB009E8F46284624E5F53D5490C560CCCC2591FF1B45421EB0EBD8EA7ED13BE7C5D7E0428CD60FEF60779EB13E6664FF711CB185F6FDED60D139A001FF60CD1FD6D086F1D51474901E26B2CB794A343BC8ED3EDB612E0DD2351FCB65CF4
310
33D511C9E14B5B40ADC6A6263DB0336A8F700DDF56271A024E70B0B3629DE21847591E55DED73D56206AB927E46FAABC5C939C55853C274C93D69FD6FA4E78BF8B11DF898C9ECD60553FAD39283BA6F18984AA23E8884F83F45C5F5F859797B31B2B9C84A1E5B9DE9D35BFF25C6B76152E422F9C5DCC3D847F5801ED09D5AF
310
41441327A25FF15487F9EB725FB666F048A4701E9A827292E6F97569A32DF61DEC01C0BB8DCBBCCC684E0B49147C1FD54BF685A0AB18C868E6973949E819523E3DAC463660E68C7D9F55A9D1EFA3BD7A76A16AE1A810F95CE59B82A4D968A376DC2E8B44BBDD86B27B368CDE0ED548C7137DA860591A83706223A12CA712B4
310
7306DBF39C0A20A6DF95C7FAF670C6EED7A61F946493D1D6926782963813403548A78AE470DEF80D2D9CEAA26E4D1C76F60BFE74219A06527D6B82DF641A51616F703CAAC6A7160E08A00BEB4810A0274592A1B36E3675E36E978A0DE80727A0D6DF2D39A75BD27E0D8837276589537B40ABB56D5A41F48F1C6FCD3188C4EB
310
A6929D2FFB89CE995A4D00AE813BDD032DC48B56BD437DFDDC2DD7AED70C2272D63DE9A72068A45A92F0A4BE17A8A06B9366E16707AD80B1FC649459952097E74BB23805982B55E0401150A165964402AA8BDF9F3E7386BB686EDCA780C0D382E5392BF460A6EFB2C6EA1937D3F809B440D5F5435C4C5CF7A9EEFAF54564BD
310
2182DA24162F98680B4E7930C21A0079709CEAEB99A372305ABE0C0D7D6078105A83F6A0296DAEE1068A47DD1C55A9F4C9B2FC69E3EFD44B81028E963DF81B504B0304140006080000B670623B000000000000000000000000350000006662782F45374635344235342D363743322D343832342D383044432D433445464530
310
3536354442422F76657274696365732E62696E504B0304140006080800B670623BF270F1330600000004000000360000006662782F45374635344235342D363743322D343832342D383044432D4334454645303536354442422F747269616E676C65732E62696E636660600000504B0304140006080000B670623B00000000
310
0000000000000000370000006662782F45374635344235342D363743322D343832342D383044432D4334454645303536354442422F617474726962757465732E62696E504B0304140006080800B670623B08DA0BD19000000041010000360000006662782F45374635344235342D363743322D343832342D383044432D4334
310
454645303536354442422F6469726563746F72792E786D6C858F410AC3201045AF22B36F53E9A60B35CBEEBAE80D244E44489C6234F4F835464A48035D0DF398FF9F8AF63D0E6CC63039F212F8F9020C7D47C6792B21C5FE7403D62A1188E2E60C98D7234A5830286103A55745067B9D86B8A3CF9C7F90C11DE607FB144396
310
D7B6A82D282E9A152AD114D5EF2CB866EEE831B8EEA07A7BB5A8D7D61A2BAAEB7FD5F70921FF497D00504B0304140006080800B670623B6378F24DFF000000A00100003B0000006662782F45374635344235342D363743322D343832342D383044432D4334454645303536354442422F7265736F75726365732F636F72652E
310
786D6C8D504B6E833010BD0A9A6D65B0094E42641C85B639412F6099496225D8C89FAAC7AF09546A77DDCC8CDE47F3F4C4F16B7C149FE88371B603565228D06A37187BED20C50BD9437194C23B177FC9A0B06AC40E6618A4B87A97A615D2CE46B431A3D60DB8822A048C50E8473E3A08FA86A32A558A5911EEE5A4F45D5DB1
310
6465A6B34E8A107D0E502C4FE609D26370C96B0CA25A58295232C3AA3143FE692E063D485EF7F5AEE71BD2D2F39634AFFC44DAF7DD9E9CCE6F9CD25DCBFA762BAAD92C4534E34F46ED51451C40D694B6843142EB0FD61C283F34FC85EE0F948A6A96FF31A569F8A729191B37F51A77B105902C0779125254735F793DCBCC7B
310
EE567E03504B010214000A0000080000B670623B3DEE336E79000000790000001B00000000000000000000000000000000006175746F6465736B2D64657369676E2D7061636B6167652E786D6C504B01021400140006080800B670623BD486FD9CA0000000F40000001300000000000000000000000000B20000005B436F6E
310
74656E745F54797065735D2E786D6C504B01021400140006080800B670623BBC1638F5EC0000007C010000080000000000000000000000000083010000636F72652E786D6C504B01021400140006080800B670623B55019EA25F0000007C000000070000000000000000000000000095020000636E782E786D6C504B010214
310
00140006080800B670623B3586FFB671010000D40300000C00000000000000000000000000190300006662782F636F72652E786D6C504B01021400140006080800B670623B4220A0FF7D0000009D0000000B00000000000000000000000000B40400006662782F636E782E786D6C504B01021400140006080800B670623B2F
310
A3FEDE290100001202000031000000000000000000000000005A0500006662782F45374635344235342D363743322D343832342D383044432D4334454645303536354442422F636F72652E786D6C504B01021400140006080800B670623B1B8617914E010000330300003000000000000000000000000000D2060000666278
310
2F45374635344235342D363743322D343832342D383044432D4334454645303536354442422F636E782E786D6C504B01021400140006080800B670623B29652116630500003C10000034000000000000000000000000006E0800006662782F45374635344235342D363743322D343832342D383044432D4334454645303536
310
354442422F6F626A656374732E786D6C504B01021400140006080000B670623B0000000000000000000000003500000000000000000000000000230E00006662782F45374635344235342D363743322D343832342D383044432D4334454645303536354442422F76657274696365732E62696E504B01021400140006080800
310
B670623BF270F13306000000040000003600000000000000000000000000760E00006662782F45374635344235342D363743322D343832342D383044432D4334454645303536354442422F747269616E676C65732E62696E504B01021400140006080000B670623B0000000000000000000000003700000000000000000000
310
000000D00E00006662782F45374635344235342D363743322D343832342D383044432D4334454645303536354442422F617474726962757465732E62696E504B01021400140006080800B670623B08DA0BD190000000410100003600000000000000000000000000250F00006662782F45374635344235342D363743322D34
310
3832342D383044432D4334454645303536354442422F6469726563746F72792E786D6C504B01021400140006080800B670623B6378F24DFF000000A00100003B00000000000000000000000000091000006662782F45374635344235342D363743322D343832342D383044432D4334454645303536354442422F7265736F75
310
726365732F636F72652E786D6C504B0506000000000E000E0080040000611100000000
  0
XRECORD
  5
211B
102
{ACAD_REACTORS
330
110
102
}
330
110
100
AcDbXrecord
280
     1
102
MATERIAL
148
0.0
149
0.0
149
0.0
 93
        0
 94
       63
282
     0
 72
     1
 77
     1
171
     1
175
     1
179
     1
273
     0
  0
XRECORD
  5
112
102
{ACAD_REACTORS
330
110
102
}
330
110
100
AcDbXrecord
280
     1
270
     1
271
     1
  0
XRECORD
  5
111
102
{ACAD_REACTORS
330
110
102
}
330
110
100
AcDbXrecord
280
     1
270
     1
271
     1
  0
XRECORD
  5
18A
102
{ACAD_REACTORS
330
110
102
}
330
110
100
AcDbXrecord
280
     1
 70
     0
 90
1778669749
  1
9BF507EE-FAF7-4A99-A33D-4EE51894BC40
310
504B03040A0000080000B670623B3DEE336E79000000790000001B0000006175746F6465736B2D64657369676E2D7061636B6167652E786D6C3C3F786D6C2076657273696F6E3D22312E302220656E636F64696E673D227574662D3822203F3E3C666F726D6174733E3C666F726D61743E687474703A2F2F736368656D612E
310
6175746F6465736B2E636F6D2F64657369676E2D7061636B6167652F323030393C2F666F726D61743E3C2F666F726D6174733E504B0304140006080800B670623BD486FD9CA0000000F4000000130000005B436F6E74656E745F54797065735D2E786D6C7D8EC10E82300C865F65E91D8A1E8C310C0EEA1BF002731658846E
310
D98AC1B77784ABF1D8FE5FBFBF75BBCE937A534CCEB38643598122B6FEE978D0B0485F9C41B54DDD7D022595594E1A469170414C76A4D9A4D207E29CF43ECE46F218070CC6BECC4078ACAA135ACF422C856C0E68EA1BF5669944DDD7BCDE7B1F8E415D77AECB980613C2E4AC91FC167A2B244592486606FC29C8FD7F045B9A
310
EF7053A7E60B504B0304140006080800B670623BCA089DFFEC0000007C01000008000000636F72652E786D6C8D90416E83301045AF62CDB632D8402020E32882F604BD80653BC44AB011B6AB1EBF262152BBEB6A467FFE9B197D76FA9EEFE84BAFDE38DB03CD08206DA553C64E3DC470C1474027CE56E7C22F1B202B66DDC3
310
260367D3EAE2B24BD2D9A06D48AA754AEFA2F05E0740F29E9A1EBCBCEA59642286E4F0B76C11F226269DD15797E0188D42CF2346A57DE662F40ABCAEC77628C6120F654571D50C04B7F5B9C1E3997CD4F550BE3745C3F20DE62C98F9755FAE5A04AD801784B498524C8A4F5A75E4D055873772EC0861F966FF03C545FD138A
310
C686B2D8DF7D621E384D8F3C069CE55B16A93C824A75CB8DFF00504B0304140006080800B670623B55019EA25F0000007C00000007000000636E782E786D6C4DCB3B0E80201045D1AD90E915ED2CF8AC45050C11660C8261F98AB1B07AC9C97D42D718D865D3E909258CFD00CCE24AC6E326A164D74DC0B4128928FF326038
310
472BA13128B1252AC747C6BAB984FC68F0B87FE8960A5C09FE86CFB69FBA01504B0304140006080800B670623B68FC0B7272010000D40300000C0000006662782F636F72652E786D6CC5535B6E833010BC8AE5DF0A6C1E8124328E22D29EA01770C0A128602363A31CBFCB234A53A555FA553EC09AD9F5CE8C31DB5DDA060D
310
D2F4B556190E7C8A9154852E6B5565D8D993B7C668C799D1DA7E29C3488956667884316795D1AE5BA0422B2B950554E9522EA0E87B69312A1A5864B82F3E642B7CE12C54F467BF13C55954D20F7CA0A18EB3DE1A1080E621E31BF3D3F1C2C88C73E65C5D2E6C5DC2B4FA544B8379921C36797888BC3C8A032F4E73EA6D927D
310
EA1DF6F42D49F2E8350D5346C666CE6CDD5ED515460A2B4BCC434A375E1078347C0FE22D5D6DE3D50B5D6F2965642CBF6B725DF96493AB958DC245EEDCD6631E809089F8E61622B2A81703E8219C913144F84C09DF070D8140C8561C9BAB8F3340832CAC363130A576376A108D933095FA747AD0CF0B46E64E983A6D0EAE1F
310
CE089F9EF1FB8E70D44255604258581E9D1D75B259C3125A278D37D80B52DAB4A279CEC62F0EFF44DDC43F9454E8469BFF5244960322CBEF41C6FBC83F01504B0304140006080800B670623B0F71DDB67E0000009D0000000B0000006662782F636E782E786D6C4DCCD10A83201886E15B91FFDCA54DB73F502386BB8F5816
310
32D3703976F9ABD1C18E3E78F87855FB990379BBFCF2296AE02706C4C5471A7C9C349475A408A4352AA7B4FEDD80C47E761A7606A3A69CCA72D0E0C6BE8475D3E0E3F3409428EA6B27A84079A782899AA2EC1A7AE3ECCC2FD858CB2D544655BFD2B67BD87C01504B0304140006080800B670623BE134B4FB28010000120200
310
00310000006662782F38353834323741342D343835462D343034322D383541392D4331303331363839454531452F636F72652E786D6C8D515B6EC32010BC0AE22B55850D0EA424C24451959EA0172086A42831583CAA1CBF503B52FB971F16CDCECC0EACD8DFC71BF836215AEF7A481A0C817183D7D65D7A98D3197108F652
310
04EFD31F1A044E8DA6871586525C82CFD3020DDE25E352419DD76601558C264130DCCAA58771F832A36A544E8511AFCDA486ABBA988634A55D7852C4144A00300FA927949C71DABD1D28A29C7D208A6987383B6CD13BC16BB2E1DBE3911C453B0BA5C8D9EA456E758963CFD684674DAA588A64C747FC2118958C86B2C3788B
310
0841B8FB247487D98EB257CC77188BB6D2FF89F2A49F1465EBD2BA5BE2CEB2082511EDDC9042FB7CBA3DC298FBE4430275DE2A9AE1054ADC60CC08E3A29D89E5F9C5714317C7987C28DFBBBA9E0A97B0D97643A568EB864AF95D5FA9759BF207504B0304140006080800B670623B1B8617914E010000330300003000000066
310
62782F38353834323741342D343835462D343034322D383541392D4331303331363839454531452F636E782E786D6CD593C16EC32010447F0571AD6CE3D489D20813A9877E410FBD62D82434182CC055F3F75D1292E692438FBD206B7698593D61BEFD1E2DF982108D773D6D6B460938E5B571FB9ECE6957AD29D90A1EBC4F
310
77364A9C1CA1A759A682EF839FA72269D8C9D92654AD71C72206887E0E0A22CAF926B15E498B01E0AA19451807D01A34B919F16B070157417138917400F2F6FA41FCF0092A45DEE414C19BDC21783E4BD39D891265658C3D8DEA00A3ACE59CBC8678ACB54CB26EEB6BD7839D7E9348BE70AD9C8321B9BCA7F9A4A26C542347
310
DEE050F09802D22BA6749A800A394DD62899107273365E3C82CFC6A55557BC06C10774B7ABE7AEC3B0F34CF06446280E154026D0542C187BA9DAB6628BF7B6DBB0E5A65B3EB1F58631DE64BBE083F7B65CC218087E22CABB042E51D1F2268F1FE12B3EA24D40D63E9CFE00120194D60B9D5BC67FE6D39CDF37E20AF817881F
310
504B0304140006080800B670623B5933D422630500003B100000340000006662782F38353834323741342D343835462D343034322D383541392D4331303331363839454531452F6F626A656374732E786D6CAD575B6FA33814FE2B887D0642934E9B156594264D158D3A534DD4D13E548A0C38942D60649B4EBABF7E3F8321
310
40924EF6928780CDF1B97EE762EFF32E4B8D37CA45C2F21BD3B547A641F39045491EDF98A5DC5AD7A6F1D9F73863B243661A39C9E88DA9B64DDF8B392B0BBD15D12D295339D85DDEFE618890E6D434C2940871638AF08566C426A5641115AF764424B1E3EDCE76ED9AB0CF36E6A47819302D08A7B984A6D8CFC1C5A89572FB
310
CB91E9F89EA3BEFB9EFAD754E3D3544E654F5F7E920B49F2F040D880CDD89D2CEE2E2EA7D6E56432B6269F2E5CEB7679BBB0DCABF168FE693E9FCEEEA6102C240727AD09A75BD3BF876F78127A4EFDA9D5582B7E4CA590E5390D2BFB6161A5B3E618D182E611E2985001691DAB47FDA5AB7CD3F93C566B2DB2BB7D9E55DD13
310
1D468DEECDB3AB290BFE8409E21C54704115AA6AFF68436BFC8DF65E0B184BF5B74418199194272435D224E084BF9B3E481589EFF5D828747285706581E9BB7B7E5D5D911ABFC6EE312DB7659A2A689A7E85EC0DF04FA5A8344BFEA2FCB834E8845895492EAFB541F2BDA0A63FF59C6AD3F7D4637CA13FD68E34B629891172
310
98597F1D183A57B9B75A98FE9765B05BAB7C3C2EBCE0ACA05C2AF8005A4DE09AA7F29216EB9E15397500C6F47CBE77CA7778FE2BD277AF0AE2C693DD6437D1522427B9D8329E2136F6A8FA19A3E6C56ADF0E5F50CF06D48734EDCEBF22F69C56D97EC138153F804B85E6FABFC7AFEFB32E523BE1F3BD372418E363EDCA7548
310
52949E8724474014288D94610BB57C1BEC4C7F854A89CA8E5324F55B871CBC78CE1BBEE3BFE68D6A5589EF3C730474506FCFA8FCF0659516D0ED04580EEA6425581B77CAE797FF4BCECC16EB2FEB926F49481F746159D06D922712BD730FDEAE42BD40F42C7AA5EF3F198F60E86110D6DD20645A9480B795CF95E3E3A659A8
310
C55E724F408873315335CFFB8584874484344D494E59D94869DB90C26A5B64F49C802CAC1D3ABE18A098D3B7444D123D8A9E5AE8F5214F0AE5B2B6E9B575DA3E61CBD3EA2B4009FA940524DD1305FB6A1FB294F14DF0BEA90BA109ECE1481FDC3FFAE8D60E75141700BE82725371B4873751B2DD960265F788137FACE6DD40
310
B575E4F0A5C99F46629D92131467A41EE11ABD8D4CCC039CA0AFB37C93A08B232B8F0AEFCA1E0A1015DF13FC83322B362463652ECF71D3A8B1A7D1BE65DE1D62C44F22C317D35F574FEB16153BA2D13E543D10A80E74C4A65E78A6B7CBCBD1D5DD9DB59C2DAFACC96C3AB566E3F1C29ADCDD5DBAD7D3C9ED7C822ED74F80A6
310
41755310DE4443F44A9E68373FADF6596BFA0F440AE7BECE2727AE9F4F2B1B53B1E7E00CF0DD1E5C65454A339A4BA2D0FBA05ED2EF0443458F47BDBFCA484CCFE0F2ED7E3DD0013B679C7B5499467F0ECEEADDB9CA85A34CE44B99053949D2C1416DB85DE4B136BB7165FBAC0B7AB3542BED4F8CA182A549847A1319316519
310
95A83A67147B9E5101C47487F2485F1ECE38FD568F839204296D3479219888530154036E6528FBFBC66F98E0D4107563A2D7D9AFF8D389681A08F58D89F22693900A3B407754734FC51C10C010D6D640809EE4718AC1BA3ED4AEDB53CA37283F68805A7E4B72CEB0A4EDEAD5DD8C14059A76AFAA56BA6901E13F32BC51C720
310
12AF41295B5BF61BAD3195181FB506E6B40F4C10AF5AF40EF9F5B159AE5DD1F43C72D635E94310D45C2D49785C5D0B94D3B54AB3C5A38349C0587D338AB48C11CBF339599C02CCA54A70A008A8D03C0B2201D5F9EFCF8F9CE12A9A19CB0410789EB32C63B95ECCF455D658BFE0621A3DA32C5075FB101723D77DAE867E7D0F
310
D90444509B44E2151B4DC2290B065803200FBAA9BE9D392A0603F2D5C2D00D6302A615680F66D2FA166E2079D4C551A54AB758161FCEFD4E450A14704CECFEDF504B0304140006080000B670623B000000000000000000000000350000006662782F38353834323741342D343835462D343034322D383541392D4331303331
310
363839454531452F76657274696365732E62696E504B0304140006080800B670623BF270F1330600000004000000360000006662782F38353834323741342D343835462D343034322D383541392D4331303331363839454531452F747269616E676C65732E62696E636660600000504B0304140006080000B670623B000000
310
000000000000000000370000006662782F38353834323741342D343835462D343034322D383541392D4331303331363839454531452F617474726962757465732E62696E504B0304140006080800B670623B08DA0BD19000000041010000360000006662782F38353834323741342D343835462D343034322D383541392D43
310
31303331363839454531452F6469726563746F72792E786D6C858F410AC3201045AF22B36F53E9A60B35CBEEBAE80D244E44489C6234F4F835464A48035D0DF398FF9F8AF63D0E6CC63039F212F8F9020C7D47C6792B21C5FE7403D62A1188E2E60C98D7234A5830286103A55745067B9D86B8A3CF9C7F90C11DE607FB1443
310
96D7B6A82D282E9A152AD114D5EF2CB866EEE831B8EEA07A7BB5A8D7D61A2BAAEB7FD5F70921FF497D00504B0304140006080800B670623BD9A3B367FE000000A00100003B0000006662782F38353834323741342D343835462D343034322D383541392D4331303331363839454531452F7265736F75726365732F636F7265
310
2E786D6C8D504B6E833010BD0A9A6D65B01D0201194711694FD00B586642AD043BF2A7EAF16B122AB5BB6E6646EFA3797AE2F8B5DC8A4FF4C1383B002B291468B59B8C9D0748F1420E501CA5F0CEC55F3228AC5A708015062966EFD27D83B4B3116DCCA875136EA00A012314FA968F0182FEC045952AC5AC08D7F2AEF455CD
310
58B232D3592745883E07289E4FD609D26370C96B0CA27AB252A464A64D63A6FCD35C0C7A904D73EE467EE664DCD58CD4ED4849D79C5A723ED1B7A61977AF2D6F45B59AA58866F9C9A83DAA8813484E6947182394BFB3BAA7FBBEDEBFD0434FA9A856F91F53BA4FFF342563E38E6F719FB60092E5200F428A6AED2BAF479979
310
AFDDCA6F504B010214000A0000080000B670623B3DEE336E79000000790000001B00000000000000000000000000000000006175746F6465736B2D64657369676E2D7061636B6167652E786D6C504B01021400140006080800B670623BD486FD9CA0000000F40000001300000000000000000000000000B20000005B436F6E
310
74656E745F54797065735D2E786D6C504B01021400140006080800B670623BCA089DFFEC0000007C010000080000000000000000000000000083010000636F72652E786D6C504B01021400140006080800B670623B55019EA25F0000007C000000070000000000000000000000000095020000636E782E786D6C504B010214
310
00140006080800B670623B68FC0B7272010000D40300000C00000000000000000000000000190300006662782F636F72652E786D6C504B01021400140006080800B670623B0F71DDB67E0000009D0000000B00000000000000000000000000B50400006662782F636E782E786D6C504B01021400140006080800B670623BE1
310
34B4FB280100001202000031000000000000000000000000005C0500006662782F38353834323741342D343835462D343034322D383541392D4331303331363839454531452F636F72652E786D6C504B01021400140006080800B670623B1B8617914E010000330300003000000000000000000000000000D3060000666278
310
2F38353834323741342D343835462D343034322D383541392D4331303331363839454531452F636E782E786D6C504B01021400140006080800B670623B5933D422630500003B10000034000000000000000000000000006F0800006662782F38353834323741342D343835462D343034322D383541392D4331303331363839
310
454531452F6F626A656374732E786D6C504B01021400140006080000B670623B0000000000000000000000003500000000000000000000000000240E00006662782F38353834323741342D343835462D343034322D383541392D4331303331363839454531452F76657274696365732E62696E504B01021400140006080800
310
B670623BF270F13306000000040000003600000000000000000000000000770E00006662782F38353834323741342D343835462D343034322D383541392D4331303331363839454531452F747269616E676C65732E62696E504B01021400140006080000B670623B0000000000000000000000003700000000000000000000
310
000000D10E00006662782F38353834323741342D343835462D343034322D383541392D4331303331363839454531452F617474726962757465732E62696E504B01021400140006080800B670623B08DA0BD190000000410100003600000000000000000000000000260F00006662782F38353834323741342D343835462D34
310
3034322D383541392D4331303331363839454531452F6469726563746F72792E786D6C504B01021400140006080800B670623BD9A3B367FE000000A00100003B000000000000000000000000000A1000006662782F38353834323741342D343835462D343034322D383541392D4331303331363839454531452F7265736F75
310
726365732F636F72652E786D6C504B0506000000000E000E0080040000611100000000
  0
XRECORD
  5
113
102
{ACAD_REACTORS
330
110
102
}
330
110
100
AcDbXrecord
280
     1
270
     1
271
     1
  0
XRECORD
  5
114
102
{ACAD_REACTORS
330
110
102
}
330
110
100
AcDbXrecord
280
     1
270
     1
271
     1
  0
XRECORD
  5
214D
102
{ACAD_REACTORS
330
214C
102
}
330
214C
100
AcDbXrecord
280
     1
102
DISPLAYNAME
  1
Imperial24
102
FLAGS
 90
        0
  0
CELLSTYLEMAP
  5
2110
102
{ACAD_REACTORS
330
104
102
}
330
104
100
AcDbCellStyleMap
 90
        3
300
CELLSTYLE
  1
TABLEFORMAT_BEGIN
 90
        5
170
     1
 91
        0
 92
    32768
 62
   257
 93
        1
300
CONTENTFORMAT
  1
CONTENTFORMAT_BEGIN
 90
        0
 91
        0
 92
      512
 93
        0
300

 40
0.0
140
1.0
 94
        5
 62
     0
340
11
144
0.25
309
CONTENTFORMAT_END
171
     1
301
MARGIN
  1
CELLMARGIN_BEGIN
 40
0.06
 40
0.06
 40
0.06
 40
0.06
 40
0.18
 40
0.18
309
CELLMARGIN_END
 94
        6
 95
        1
302
GRIDFORMAT
  1
GRIDFORMAT_BEGIN
 90
        0
 91
        1
 62
     0
 92
       -2
340
0
 93
        0
 40
0.045
309
GRIDFORMAT_END
 95
        2
302
GRIDFORMAT
  1
GRIDFORMAT_BEGIN
 90
        0
 91
        1
 62
     0
 92
       -2
340
0
 93
        0
 40
0.045
309
GRIDFORMAT_END
 95
        4
302
GRIDFORMAT
  1
GRIDFORMAT_BEGIN
 90
        0
 91
        1
 62
     0
 92
       -2
340
0
 93
        0
 40
0.045
309
GRIDFORMAT_END
 95
        8
302
GRIDFORMAT
  1
GRIDFORMAT_BEGIN
 90
        0
 91
        1
 62
     0
 92
       -2
340
0
 93
        0
 40
0.045
309
GRIDFORMAT_END
 95
       16
302
GRIDFORMAT
  1
GRIDFORMAT_BEGIN
 90
        0
 91
        1
 62
     0
 92
       -2
340
0
 93
        0
 40
0.045
309
GRIDFORMAT_END
 95
       32
302
GRIDFORMAT
  1
GRIDFORMAT_BEGIN
 90
        0
 91
        1
 62
     0
 92
       -2
340
0
 93
        0
 40
0.045
309
GRIDFORMAT_END
309
TABLEFORMAT_END
  1
CELLSTYLE_BEGIN
 90
        1
 91
        1
300
_TITLE
309
CELLSTYLE_END
300
CELLSTYLE
  1
TABLEFORMAT_BEGIN
 90
        5
170
     1
 91
        0
 92
        0
 62
   257
 93
        1
300
CONTENTFORMAT
  1
CONTENTFORMAT_BEGIN
 90
        0
 91
        0
 92
      512
 93
        0
300

 40
0.0
140
1.0
 94
        5
 62
     0
340
11
144
0.18
309
CONTENTFORMAT_END
171
     1
301
MARGIN
  1
CELLMARGIN_BEGIN
 40
0.06
 40
0.06
 40
0.06
 40
0.06
 40
0.18
 40
0.18
309
CELLMARGIN_END
 94
        6
 95
        1
302
GRIDFORMAT
  1
GRIDFORMAT_BEGIN
 90
        0
 91
        1
 62
     0
 92
       -2
340
0
 93
        0
 40
0.045
309
GRIDFORMAT_END
 95
        2
302
GRIDFORMAT
  1
GRIDFORMAT_BEGIN
 90
        0
 91
        1
 62
     0
 92
       -2
340
0
 93
        0
 40
0.045
309
GRIDFORMAT_END
 95
        4
302
GRIDFORMAT
  1
GRIDFORMAT_BEGIN
 90
        0
 91
        1
 62
     0
 92
       -2
340
0
 93
        0
 40
0.045
309
GRIDFORMAT_END
 95
        8
302
GRIDFORMAT
  1
GRIDFORMAT_BEGIN
 90
        0
 91
        1
 62
     0
 92
       -2
340
0
 93
        0
 40
0.045
309
GRIDFORMAT_END
 95
       16
302
GRIDFORMAT
  1
GRIDFORMAT_BEGIN
 90
        0
 91
        1
 62
     0
 92
       -2
340
0
 93
        0
 40
0.045
309
GRIDFORMAT_END
 95
       32
302
GRIDFORMAT
  1
GRIDFORMAT_BEGIN
 90
        0
 91
        1
 62
     0
 92
       -2
340
0
 93
        0
 40
0.045
309
GRIDFORMAT_END
309
TABLEFORMAT_END
  1
CELLSTYLE_BEGIN
 90
        2
 91
        1
300
_HEADER
309
CELLSTYLE_END
300
CELLSTYLE
  1
TABLEFORMAT_BEGIN
 90
        5
170
     1
 91
        0
 92
        0
 62
   257
 93
        1
300
CONTENTFORMAT
  1
CONTENTFORMAT_BEGIN
 90
        0
 91
        0
 92
      512
 93
        0
300

 40
0.0
140
1.0
 94
        2
 62
     0
340
11
144
0.18
309
CONTENTFORMAT_END
171
     1
301
MARGIN
  1
CELLMARGIN_BEGIN
 40
0.06
 40
0.06
 40
0.06
 40
0.06
 40
0.18
 40
0.18
309
CELLMARGIN_END
 94
        6
 95
        1
302
GRIDFORMAT
  1
GRIDFORMAT_BEGIN
 90
        0
 91
        1
 62
     0
 92
       -2
340
0
 93
        0
 40
0.045
309
GRIDFORMAT_END
 95
        2
302
GRIDFORMAT
  1
GRIDFORMAT_BEGIN
 90
        0
 91
        1
 62
     0
 92
       -2
340
0
 93
        0
 40
0.045
309
GRIDFORMAT_END
 95
        4
302
GRIDFORMAT
  1
GRIDFORMAT_BEGIN
 90
        0
 91
        1
 62
     0
 92
       -2
340
0
 93
        0
 40
0.045
309
GRIDFORMAT_END
 95
        8
302
GRIDFORMAT
  1
GRIDFORMAT_BEGIN
 90
        0
 91
        1
 62
     0
 92
       -2
340
0
 93
        0
 40
0.045
309
GRIDFORMAT_END
 95
       16
302
GRIDFORMAT
  1
GRIDFORMAT_BEGIN
 90
        0
 91
        1
 62
     0
 92
       -2
340
0
 93
        0
 40
0.045
309
GRIDFORMAT_END
 95
       32
302
GRIDFORMAT
  1
GRIDFORMAT_BEGIN
 90
        0
 91
        1
 62
     0
 92
       -2
340
0
 93
        0
 40
0.045
309
GRIDFORMAT_END
309
TABLEFORMAT_END
  1
CELLSTYLE_BEGIN
 90
        3
 91
        2
300
_DATA
309
CELLSTYLE_END
  0
XRECORD
  5
2118
102
{ACAD_REACTORS
330
104
102
}
330
104
100
AcDbXrecord
280
     1
102
ACAD_ROUNDTRIP_PRE2007_TABLESTYLE
 90
      512
 91
        0
  1

 92
      512
 93
        0
  2

 94
      512
 95
        0
  3

  0
XRECORD
  5
2127
102
{ACAD_REACTORS
330
2126
102
}
330
2126
100
AcDbXrecord
280
     1
102
RTVSPost2010Prop28
280
     1
102
RTVSPost2010PropOp28
 70
     1
102
RTVSPost2010Prop29
280
     1
102
RTVSPost2010PropOp29
 70
     1
102
RTVSPost2010Prop30
280
     0
102
RTVSPost2010PropOp30
 70
     1
102
RTVSPost2010Prop31
280
     0
102
RTVSPost2010PropOp31
 70
     1
102
RTVSPost2010Prop32
280
     0
102
RTVSPost2010PropOp32
 70
     1
102
RTVSPost2010Prop33
280
     0
102
RTVSPost2010PropOp33
 70
     1
102
RTVSPost2010Prop34
280
     0
102
RTVSPost2010PropOp34
 70
     1
102
RTVSPost2010Prop35
280
     0
102
RTVSPost2010PropOp35
 70
     1
102
RTVSPost2010Prop36
280
     0
102
RTVSPost2010PropOp36
 70
     1
102
RTVSPost2010Prop37
 90
       50
102
RTVSPost2010PropOp37
 70
     1
102
RTVSPost2010Prop38
140
0.0
102
RTVSPost2010PropOp38
 70
     1
102
RTVSPost2010Prop39
140
1.0
102
RTVSPost2010PropOp39
 70
     1
102
RTVSPost2010Prop40
 90
        0
102
RTVSPost2010PropOp40
 70
     1
102
RTVSPost2010Prop41ColorIndex
 90
       18
102
RTVSPost2010Prop41ColorRGB
 90
        0
102
RTVSPost2010PropOp41
 70
     1
102
RTVSPost2010Prop42
 90
       50
102
RTVSPost2010PropOp42
 70
     1
102
RTVSPost2010Prop43
 90
        3
102
RTVSPost2010PropOp43
 70
     1
102
RTVSPost2010Prop44ColorIndex
 90
        5
102
RTVSPost2010Prop44ColorRGB
 90
      255
102
RTVSPost2010PropOp44
 70
     1
102
RTVSPost2010Prop45
280
     0
102
RTVSPost2010PropOp45
 70
     1
102
RTVSPost2010Prop46
 90
       50
102
RTVSPost2010PropOp46
 70
     1
102
RTVSPost2010Prop47
 90
       50
102
RTVSPost2010PropOp47
 70
     1
102
RTVSPost2010Prop48
 90
       50
102
RTVSPost2010PropOp48
 70
     1
102
RTVSPost2010Prop49
280
     0
102
RTVSPost2010PropOp49
 70
     1
102
RTVSPost2010Prop50
 90
       50
102
RTVSPost2010PropOp50
 70
     1
102
RTVSPost2010Prop51ColorIndex
 90
      256
102
RTVSPost2010Prop51ColorRGB
 90
-16777216
102
RTVSPost2010PropOp51
 70
     0
102
RTVSPost2010Prop52
140
1.0
102
RTVSPost2010PropOp52
 70
     0
102
RTVSPost2010Prop53
 90
        2
102
RTVSPost2010PropOp53
 70
     1
102
RTVSPost2010Prop54
  1
strokes_ogs.tif
102
RTVSPost2010PropOp54
 70
     1
102
RTVSPost2010Prop55
280
     0
102
RTVSPost2010PropOp55
 70
     1
102
RTVSPost2010Prop56
140
1.0
102
RTVSPost2010PropOp56
 70
     1
102
RTVSPost2010Prop57
140
1.0
102
RTVSPost2010PropOp57
 70
     1
102
RTVSPropertyOp0
 70
     1
102
RTVSPropertyOp1
 70
     1
102
RTVSPropertyOp2
 70
     1
102
RTVSPropertyOp3
 70
     1
102
RTVSPropertyOp4
 70
     1
102
RTVSPropertyOp5
 70
     1
102
RTVSPropertyOp6
 70
     1
102
RTVSPropertyOp7
 70
     1
102
RTVSPropertyOp8
 70
     1
102
RTVSPropertyOp9
 70
     1
102
RTVSPropertyOp10
 70
     1
102
RTVSPropertyOp11
 70
     1
102
RTVSPropertyOp12
 70
     1
102
RTVSPropertyOp13
 70
     1
102
RTVSPropertyOp14
 70
     1
102
RTVSPropertyOp15
 70
     1
102
RTVSPropertyOp16
 70
     1
102
RTVSPropertyOp17
 70
     1
102
RTVSPropertyOp18
 70
     1
102
RTVSPropertyOp19
 70
     1
102
RTVSPropertyOp20
 70
     1
102
RTVSPropertyOp21
 70
     1
102
RTVSPropertyOp22
 70
     1
102
RTVSPropertyOp23
 70
     1
102
RTVSPropertyOp24
 70
     1
102
RTVSPropertyOp25
 70
     1
102
RTVSPropertyOp26
 70
     1
102
RTVSPropertyOp27
 70
     1
102
RTVSPropertyOp28
 70
     1
102
RTVSPropertyOp29
 70
     1
102
RTVSPropertyOp30
 70
     1
102
RTVSPropertyOp31
 70
     1
102
RTVSPropertyOp32
 70
     1
102
RTVSPropertyOp33
 70
     1
102
RTVSPropertyOp34
 70
     1
102
RTVSPropertyOp35
 70
     1
102
RTVSPropertyOp36
 70
     1
102
RTVSPropertyOp37
 70
     1
102
RTVSPropertyOp38
 70
     1
102
RTVSPropertyOp39
 70
     1
102
RTVSPropertyOp40
 70
     1
102
RTVSPropertyOp41
 70
     1
102
RTVSPropertyOp42
 70
     1
102
RTVSPropertyOp43
 70
     1
102
RTVSPropertyOp44
 70
     1
102
RTVSPropertyOp45
 70
     1
102
RTVSPropertyOp46
 70
     1
102
RTVSPropertyOp47
 70
     1
102
RTVSPropertyOp48
 70
     1
102
RTVSPropertyOp49
 70
     1
102
RTVSPropertyOp50
 70
     1
102
RTVSPropertyOp51
 70
     0
102
RTVSPropertyOp52
 70
     0
102
RTVSPropertyOp53
 70
     1
102
RTVSPropertyOp54
 70
     1
102
RTVSPropertyOp55
 70
     1
102
RTVSPropertyOp56
 70
     1
102
RTVSPropertyOp57
 70
     1
102
RTVSPropertyOp58
 70
     1
102
RTVSPropertyOp59
 70
     1
102
RTVSPropertyOp60
 70
     1
102
RTVSPropertyOp61
 70
     1
102
RTVSPropertyOp62
 70
     1
  0
XRECORD
  5
2125
102
{ACAD_REACTORS
330
2124
102
}
330
2124
100
AcDbXrecord
280
     1
102
RTVSPost2010Prop28
280
     0
102
RTVSPost2010PropOp28
 70
     1
102
RTVSPost2010Prop29
280
     1
102
RTVSPost2010PropOp29
 70
     1
102
RTVSPost2010Prop30
280
     1
102
RTVSPost2010PropOp30
 70
     1
102
RTVSPost2010Prop31
280
     0
102
RTVSPost2010PropOp31
 70
     1
102
RTVSPost2010Prop32
280
     0
102
RTVSPost2010PropOp32
 70
     1
102
RTVSPost2010Prop33
280
     0
102
RTVSPost2010PropOp33
 70
     1
102
RTVSPost2010Prop34
280
     0
102
RTVSPost2010PropOp34
 70
     1
102
RTVSPost2010Prop35
280
     0
102
RTVSPost2010PropOp35
 70
     1
102
RTVSPost2010Prop36
280
     0
102
RTVSPost2010PropOp36
 70
     1
102
RTVSPost2010Prop37
 90
       50
102
RTVSPost2010PropOp37
 70
     1
102
RTVSPost2010Prop38
140
0.0
102
RTVSPost2010PropOp38
 70
     1
102
RTVSPost2010Prop39
140
1.0
102
RTVSPost2010PropOp39
 70
     1
102
RTVSPost2010Prop40
 90
        0
102
RTVSPost2010PropOp40
 70
     1
102
RTVSPost2010Prop41ColorIndex
 90
       18
102
RTVSPost2010Prop41ColorRGB
 90
        0
102
RTVSPost2010PropOp41
 70
     1
102
RTVSPost2010Prop42
 90
       50
102
RTVSPost2010PropOp42
 70
     1
102
RTVSPost2010Prop43
 90
        3
102
RTVSPost2010PropOp43
 70
     1
102
RTVSPost2010Prop44ColorIndex
 90
        5
102
RTVSPost2010Prop44ColorRGB
 90
      255
102
RTVSPost2010PropOp44
 70
     1
102
RTVSPost2010Prop45
280
     0
102
RTVSPost2010PropOp45
 70
     1
102
RTVSPost2010Prop46
 90
       50
102
RTVSPost2010PropOp46
 70
     1
102
RTVSPost2010Prop47
 90
       50
102
RTVSPost2010PropOp47
 70
     1
102
RTVSPost2010Prop48
 90
       50
102
RTVSPost2010PropOp48
 70
     1
102
RTVSPost2010Prop49
280
     0
102
RTVSPost2010PropOp49
 70
     1
102
RTVSPost2010Prop50
 90
       50
102
RTVSPost2010PropOp50
 70
     1
102
RTVSPost2010Prop51ColorIndex
 90
      256
102
RTVSPost2010Prop51ColorRGB
 90
-16777216
102
RTVSPost2010PropOp51
 70
     0
102
RTVSPost2010Prop52
140
1.0
102
RTVSPost2010PropOp52
 70
     0
102
RTVSPost2010Prop53
 90
        2
102
RTVSPost2010PropOp53
 70
     1
102
RTVSPost2010Prop54
  1
strokes_ogs.tif
102
RTVSPost2010PropOp54
 70
     1
102
RTVSPost2010Prop55
280
     0
102
RTVSPost2010PropOp55
 70
     1
102
RTVSPost2010Prop56
140
1.0
102
RTVSPost2010PropOp56
 70
     1
102
RTVSPost2010Prop57
140
1.0
102
RTVSPost2010PropOp57
 70
     1
102
RTVSPropertyOp0
 70
     1
102
RTVSPropertyOp1
 70
     1
102
RTVSPropertyOp2
 70
     1
102
RTVSPropertyOp3
 70
     1
102
RTVSPropertyOp4
 70
     1
102
RTVSPropertyOp5
 70
     1
102
RTVSPropertyOp6
 70
     1
102
RTVSPropertyOp7
 70
     1
102
RTVSPropertyOp8
 70
     1
102
RTVSPropertyOp9
 70
     1
102
RTVSPropertyOp10
 70
     1
102
RTVSPropertyOp11
 70
     1
102
RTVSPropertyOp12
 70
     1
102
RTVSPropertyOp13
 70
     1
102
RTVSPropertyOp14
 70
     1
102
RTVSPropertyOp15
 70
     1
102
RTVSPropertyOp16
 70
     1
102
RTVSPropertyOp17
 70
     1
102
RTVSPropertyOp18
 70
     1
102
RTVSPropertyOp19
 70
     1
102
RTVSPropertyOp20
 70
     1
102
RTVSPropertyOp21
 70
     1
102
RTVSPropertyOp22
 70
     1
102
RTVSPropertyOp23
 70
     1
102
RTVSPropertyOp24
 70
     1
102
RTVSPropertyOp25
 70
     1
102
RTVSPropertyOp26
 70
     1
102
RTVSPropertyOp27
 70
     1
102
RTVSPropertyOp28
 70
     1
102
RTVSPropertyOp29
 70
     1
102
RTVSPropertyOp30
 70
     1
102
RTVSPropertyOp31
 70
     1
102
RTVSPropertyOp32
 70
     1
102
RTVSPropertyOp33
 70
     1
102
RTVSPropertyOp34
 70
     1
102
RTVSPropertyOp35
 70
     1
102
RTVSPropertyOp36
 70
     1
102
RTVSPropertyOp37
 70
     1
102
RTVSPropertyOp38
 70
     1
102
RTVSPropertyOp39
 70
     1
102
RTVSPropertyOp40
 70
     1
102
RTVSPropertyOp41
 70
     1
102
RTVSPropertyOp42
 70
     1
102
RTVSPropertyOp43
 70
     1
102
RTVSPropertyOp44
 70
     1
102
RTVSPropertyOp45
 70
     1
102
RTVSPropertyOp46
 70
     1
102
RTVSPropertyOp47
 70
     1
102
RTVSPropertyOp48
 70
     1
102
RTVSPropertyOp49
 70
     1
102
RTVSPropertyOp50
 70
     1
102
RTVSPropertyOp51
 70
     0
102
RTVSPropertyOp52
 70
     0
102
RTVSPropertyOp53
 70
     1
102
RTVSPropertyOp54
 70
     1
102
RTVSPropertyOp55
 70
     1
102
RTVSPropertyOp56
 70
     1
102
RTVSPropertyOp57
 70
     1
102
RTVSPropertyOp58
 70
     1
102
RTVSPropertyOp59
 70
     1
102
RTVSPropertyOp60
 70
     1
102
RTVSPropertyOp61
 70
     1
102
RTVSPropertyOp62
 70
     1
  0
XRECORD
  5
2133
102
{ACAD_REACTORS
330
2132
102
}
330
2132
100
AcDbXrecord
280
     1
102
RTVSPost2010Prop28
280
     0
102
RTVSPost2010PropOp28
 70
     1
102
RTVSPost2010Prop29
280
     1
102
RTVSPost2010PropOp29
 70
     1
102
RTVSPost2010Prop30
280
     1
102
RTVSPost2010PropOp30
 70
     1
102
RTVSPost2010Prop31
280
     0
102
RTVSPost2010PropOp31
 70
     1
102
RTVSPost2010Prop32
280
     0
102
RTVSPost2010PropOp32
 70
     1
102
RTVSPost2010Prop33
280
     0
102
RTVSPost2010PropOp33
 70
     1
102
RTVSPost2010Prop34
280
     0
102
RTVSPost2010PropOp34
 70
     1
102
RTVSPost2010Prop35
280
     0
102
RTVSPost2010PropOp35
 70
     1
102
RTVSPost2010Prop36
280
     0
102
RTVSPost2010PropOp36
 70
     1
102
RTVSPost2010Prop37
 90
       50
102
RTVSPost2010PropOp37
 70
     1
102
RTVSPost2010Prop38
140
0.0
102
RTVSPost2010PropOp38
 70
     1
102
RTVSPost2010Prop39
140
1.0
102
RTVSPost2010PropOp39
 70
     1
102
RTVSPost2010Prop40
 90
        0
102
RTVSPost2010PropOp40
 70
     1
102
RTVSPost2010Prop41ColorIndex
 90
       18
102
RTVSPost2010Prop41ColorRGB
 90
        0
102
RTVSPost2010PropOp41
 70
     1
102
RTVSPost2010Prop42
 90
       50
102
RTVSPost2010PropOp42
 70
     1
102
RTVSPost2010Prop43
 90
        3
102
RTVSPost2010PropOp43
 70
     1
102
RTVSPost2010Prop44ColorIndex
 90
        5
102
RTVSPost2010Prop44ColorRGB
 90
      255
102
RTVSPost2010PropOp44
 70
     1
102
RTVSPost2010Prop45
280
     0
102
RTVSPost2010PropOp45
 70
     1
102
RTVSPost2010Prop46
 90
       50
102
RTVSPost2010PropOp46
 70
     1
102
RTVSPost2010Prop47
 90
       50
102
RTVSPost2010PropOp47
 70
     1
102
RTVSPost2010Prop48
 90
       50
102
RTVSPost2010PropOp48
 70
     1
102
RTVSPost2010Prop49
280
     0
102
RTVSPost2010PropOp49
 70
     1
102
RTVSPost2010Prop50
 90
       50
102
RTVSPost2010PropOp50
 70
     1
102
RTVSPost2010Prop51ColorIndex
 90
      256
102
RTVSPost2010Prop51ColorRGB
 90
-16777216
102
RTVSPost2010PropOp51
 70
     0
102
RTVSPost2010Prop52
140
1.0
102
RTVSPost2010PropOp52
 70
     0
102
RTVSPost2010Prop53
 90
        2
102
RTVSPost2010PropOp53
 70
     1
102
RTVSPost2010Prop54
  1
strokes_ogs.tif
102
RTVSPost2010PropOp54
 70
     1
102
RTVSPost2010Prop55
280
     0
102
RTVSPost2010PropOp55
 70
     1
102
RTVSPost2010Prop56
140
1.0
102
RTVSPost2010PropOp56
 70
     1
102
RTVSPost2010Prop57
140
1.0
102
RTVSPost2010PropOp57
 70
     1
102
RTVSPropertyOp0
 70
     1
102
RTVSPropertyOp1
 70
     1
102
RTVSPropertyOp2
 70
     1
102
RTVSPropertyOp3
 70
     1
102
RTVSPropertyOp4
 70
     1
102
RTVSPropertyOp5
 70
     1
102
RTVSPropertyOp6
 70
     1
102
RTVSPropertyOp7
 70
     1
102
RTVSPropertyOp8
 70
     1
102
RTVSPropertyOp9
 70
     1
102
RTVSPropertyOp10
 70
     1
102
RTVSPropertyOp11
 70
     1
102
RTVSPropertyOp12
 70
     1
102
RTVSPropertyOp13
 70
     1
102
RTVSPropertyOp14
 70
     1
102
RTVSPropertyOp15
 70
     1
102
RTVSPropertyOp16
 70
     1
102
RTVSPropertyOp17
 70
     1
102
RTVSPropertyOp18
 70
     1
102
RTVSPropertyOp19
 70
     1
102
RTVSPropertyOp20
 70
     1
102
RTVSPropertyOp21
 70
     1
102
RTVSPropertyOp22
 70
     1
102
RTVSPropertyOp23
 70
     1
102
RTVSPropertyOp24
 70
     1
102
RTVSPropertyOp25
 70
     1
102
RTVSPropertyOp26
 70
     1
102
RTVSPropertyOp27
 70
     1
102
RTVSPropertyOp28
 70
     1
102
RTVSPropertyOp29
 70
     1
102
RTVSPropertyOp30
 70
     1
102
RTVSPropertyOp31
 70
     1
102
RTVSPropertyOp32
 70
     1
102
RTVSPropertyOp33
 70
     1
102
RTVSPropertyOp34
 70
     1
102
RTVSPropertyOp35
 70
     1
102
RTVSPropertyOp36
 70
     1
102
RTVSPropertyOp37
 70
     1
102
RTVSPropertyOp38
 70
     1
102
RTVSPropertyOp39
 70
     1
102
RTVSPropertyOp40
 70
     1
102
RTVSPropertyOp41
 70
     1
102
RTVSPropertyOp42
 70
     1
102
RTVSPropertyOp43
 70
     1
102
RTVSPropertyOp44
 70
     1
102
RTVSPropertyOp45
 70
     1
102
RTVSPropertyOp46
 70
     1
102
RTVSPropertyOp47
 70
     1
102
RTVSPropertyOp48
 70
     1
102
RTVSPropertyOp49
 70
     1
102
RTVSPropertyOp50
 70
     1
102
RTVSPropertyOp51
 70
     0
102
RTVSPropertyOp52
 70
     0
102
RTVSPropertyOp53
 70
     1
102
RTVSPropertyOp54
 70
     1
102
RTVSPropertyOp55
 70
     1
102
RTVSPropertyOp56
 70
     1
102
RTVSPropertyOp57
 70
     1
102
RTVSPropertyOp58
 70
     1
102
RTVSPropertyOp59
 70
     1
102
RTVSPropertyOp60
 70
     1
102
RTVSPropertyOp61
 70
     1
102
RTVSPropertyOp62
 70
     1
  0
XRECORD
  5
213B
102
{ACAD_REACTORS
330
213A
102
}
330
213A
100
AcDbXrecord
280
     1
102
RTVSPost2010Prop28
280
     0
102
RTVSPost2010PropOp28
 70
     1
102
RTVSPost2010Prop29
280
     1
102
RTVSPost2010PropOp29
 70
     1
102
RTVSPost2010Prop30
280
     1
102
RTVSPost2010PropOp30
 70
     1
102
RTVSPost2010Prop31
280
     0
102
RTVSPost2010PropOp31
 70
     1
102
RTVSPost2010Prop32
280
     0
102
RTVSPost2010PropOp32
 70
     1
102
RTVSPost2010Prop33
280
     0
102
RTVSPost2010PropOp33
 70
     1
102
RTVSPost2010Prop34
280
     0
102
RTVSPost2010PropOp34
 70
     1
102
RTVSPost2010Prop35
280
     0
102
RTVSPost2010PropOp35
 70
     1
102
RTVSPost2010Prop36
280
     0
102
RTVSPost2010PropOp36
 70
     1
102
RTVSPost2010Prop37
 90
       50
102
RTVSPost2010PropOp37
 70
     1
102
RTVSPost2010Prop38
140
0.0
102
RTVSPost2010PropOp38
 70
     1
102
RTVSPost2010Prop39
140
1.0
102
RTVSPost2010PropOp39
 70
     1
102
RTVSPost2010Prop40
 90
        0
102
RTVSPost2010PropOp40
 70
     1
102
RTVSPost2010Prop41ColorIndex
 90
       18
102
RTVSPost2010Prop41ColorRGB
 90
        0
102
RTVSPost2010PropOp41
 70
     1
102
RTVSPost2010Prop42
 90
       50
102
RTVSPost2010PropOp42
 70
     1
102
RTVSPost2010Prop43
 90
        3
102
RTVSPost2010PropOp43
 70
     1
102
RTVSPost2010Prop44ColorIndex
 90
        5
102
RTVSPost2010Prop44ColorRGB
 90
      255
102
RTVSPost2010PropOp44
 70
     1
102
RTVSPost2010Prop45
280
     0
102
RTVSPost2010PropOp45
 70
     1
102
RTVSPost2010Prop46
 90
       50
102
RTVSPost2010PropOp46
 70
     1
102
RTVSPost2010Prop47
 90
       50
102
RTVSPost2010PropOp47
 70
     1
102
RTVSPost2010Prop48
 90
       50
102
RTVSPost2010PropOp48
 70
     1
102
RTVSPost2010Prop49
280
     0
102
RTVSPost2010PropOp49
 70
     1
102
RTVSPost2010Prop50
 90
       50
102
RTVSPost2010PropOp50
 70
     1
102
RTVSPost2010Prop51ColorIndex
 90
      256
102
RTVSPost2010Prop51ColorRGB
 90
-16777216
102
RTVSPost2010PropOp51
 70
     0
102
RTVSPost2010Prop52
140
1.0
102
RTVSPost2010PropOp52
 70
     0
102
RTVSPost2010Prop53
 90
        2
102
RTVSPost2010PropOp53
 70
     1
102
RTVSPost2010Prop54
  1
strokes_ogs.tif
102
RTVSPost2010PropOp54
 70
     1
102
RTVSPost2010Prop55
280
     0
102
RTVSPost2010PropOp55
 70
     1
102
RTVSPost2010Prop56
140
1.0
102
RTVSPost2010PropOp56
 70
     1
102
RTVSPost2010Prop57
140
1.0
102
RTVSPost2010PropOp57
 70
     1
102
RTVSPropertyOp0
 70
     1
102
RTVSPropertyOp1
 70
     1
102
RTVSPropertyOp2
 70
     1
102
RTVSPropertyOp3
 70
     1
102
RTVSPropertyOp4
 70
     1
102
RTVSPropertyOp5
 70
     1
102
RTVSPropertyOp6
 70
     1
102
RTVSPropertyOp7
 70
     1
102
RTVSPropertyOp8
 70
     1
102
RTVSPropertyOp9
 70
     1
102
RTVSPropertyOp10
 70
     1
102
RTVSPropertyOp11
 70
     1
102
RTVSPropertyOp12
 70
     1
102
RTVSPropertyOp13
 70
     1
102
RTVSPropertyOp14
 70
     1
102
RTVSPropertyOp15
 70
     1
102
RTVSPropertyOp16
 70
     1
102
RTVSPropertyOp17
 70
     1
102
RTVSPropertyOp18
 70
     1
102
RTVSPropertyOp19
 70
     1
102
RTVSPropertyOp20
 70
     1
102
RTVSPropertyOp21
 70
     1
102
RTVSPropertyOp22
 70
     1
102
RTVSPropertyOp23
 70
     1
102
RTVSPropertyOp24
 70
     1
102
RTVSPropertyOp25
 70
     1
102
RTVSPropertyOp26
 70
     1
102
RTVSPropertyOp27
 70
     1
102
RTVSPropertyOp28
 70
     1
102
RTVSPropertyOp29
 70
     1
102
RTVSPropertyOp30
 70
     1
102
RTVSPropertyOp31
 70
     1
102
RTVSPropertyOp32
 70
     1
102
RTVSPropertyOp33
 70
     1
102
RTVSPropertyOp34
 70
     1
102
RTVSPropertyOp35
 70
     1
102
RTVSPropertyOp36
 70
     1
102
RTVSPropertyOp37
 70
     1
102
RTVSPropertyOp38
 70
     1
102
RTVSPropertyOp39
 70
     1
102
RTVSPropertyOp40
 70
     1
102
RTVSPropertyOp41
 70
     1
102
RTVSPropertyOp42
 70
     1
102
RTVSPropertyOp43
 70
     1
102
RTVSPropertyOp44
 70
     1
102
RTVSPropertyOp45
 70
     1
102
RTVSPropertyOp46
 70
     1
102
RTVSPropertyOp47
 70
     1
102
RTVSPropertyOp48
 70
     1
102
RTVSPropertyOp49
 70
     1
102
RTVSPropertyOp50
 70
     1
102
RTVSPropertyOp51
 70
     0
102
RTVSPropertyOp52
 70
     0
102
RTVSPropertyOp53
 70
     1
102
RTVSPropertyOp54
 70
     1
102
RTVSPropertyOp55
 70
     1
102
RTVSPropertyOp56
 70
     1
102
RTVSPropertyOp57
 70
     1
102
RTVSPropertyOp58
 70
     1
102
RTVSPropertyOp59
 70
     1
102
RTVSPropertyOp60
 70
     1
102
RTVSPropertyOp61
 70
     1
102
RTVSPropertyOp62
 70
     1
  0
XRECORD
  5
212D
102
{ACAD_REACTORS
330
212C
102
}
330
212C
100
AcDbXrecord
280
     1
102
RTVSPost2010Prop28
280
     0
102
RTVSPost2010PropOp28
 70
     1
102
RTVSPost2010Prop29
280
     1
102
RTVSPost2010PropOp29
 70
     1
102
RTVSPost2010Prop30
280
     1
102
RTVSPost2010PropOp30
 70
     1
102
RTVSPost2010Prop31
280
     0
102
RTVSPost2010PropOp31
 70
     1
102
RTVSPost2010Prop32
280
     0
102
RTVSPost2010PropOp32
 70
     1
102
RTVSPost2010Prop33
280
     0
102
RTVSPost2010PropOp33
 70
     1
102
RTVSPost2010Prop34
280
     0
102
RTVSPost2010PropOp34
 70
     1
102
RTVSPost2010Prop35
280
     0
102
RTVSPost2010PropOp35
 70
     1
102
RTVSPost2010Prop36
280
     0
102
RTVSPost2010PropOp36
 70
     1
102
RTVSPost2010Prop37
 90
       50
102
RTVSPost2010PropOp37
 70
     1
102
RTVSPost2010Prop38
140
0.0
102
RTVSPost2010PropOp38
 70
     1
102
RTVSPost2010Prop39
140
1.0
102
RTVSPost2010PropOp39
 70
     1
102
RTVSPost2010Prop40
 90
        0
102
RTVSPost2010PropOp40
 70
     1
102
RTVSPost2010Prop41ColorIndex
 90
       18
102
RTVSPost2010Prop41ColorRGB
 90
        0
102
RTVSPost2010PropOp41
 70
     1
102
RTVSPost2010Prop42
 90
       50
102
RTVSPost2010PropOp42
 70
     1
102
RTVSPost2010Prop43
 90
        3
102
RTVSPost2010PropOp43
 70
     1
102
RTVSPost2010Prop44ColorIndex
 90
        5
102
RTVSPost2010Prop44ColorRGB
 90
      255
102
RTVSPost2010PropOp44
 70
     1
102
RTVSPost2010Prop45
280
     0
102
RTVSPost2010PropOp45
 70
     1
102
RTVSPost2010Prop46
 90
       50
102
RTVSPost2010PropOp46
 70
     1
102
RTVSPost2010Prop47
 90
       50
102
RTVSPost2010PropOp47
 70
     1
102
RTVSPost2010Prop48
 90
       50
102
RTVSPost2010PropOp48
 70
     1
102
RTVSPost2010Prop49
280
     0
102
RTVSPost2010PropOp49
 70
     1
102
RTVSPost2010Prop50
 90
       50
102
RTVSPost2010PropOp50
 70
     1
102
RTVSPost2010Prop51ColorIndex
 90
      256
102
RTVSPost2010Prop51ColorRGB
 90
-16777216
102
RTVSPost2010PropOp51
 70
     0
102
RTVSPost2010Prop52
140
1.0
102
RTVSPost2010PropOp52
 70
     0
102
RTVSPost2010Prop53
 90
        2
102
RTVSPost2010PropOp53
 70
     1
102
RTVSPost2010Prop54
  1
strokes_ogs.tif
102
RTVSPost2010PropOp54
 70
     1
102
RTVSPost2010Prop55
280
     0
102
RTVSPost2010PropOp55
 70
     1
102
RTVSPost2010Prop56
140
1.0
102
RTVSPost2010PropOp56
 70
     1
102
RTVSPost2010Prop57
140
1.0
102
RTVSPost2010PropOp57
 70
     1
102
RTVSPropertyOp0
 70
     1
102
RTVSPropertyOp1
 70
     1
102
RTVSPropertyOp2
 70
     1
102
RTVSPropertyOp3
 70
     1
102
RTVSPropertyOp4
 70
     1
102
RTVSPropertyOp5
 70
     1
102
RTVSPropertyOp6
 70
     1
102
RTVSPropertyOp7
 70
     1
102
RTVSPropertyOp8
 70
     1
102
RTVSPropertyOp9
 70
     1
102
RTVSPropertyOp10
 70
     1
102
RTVSPropertyOp11
 70
     1
102
RTVSPropertyOp12
 70
     1
102
RTVSPropertyOp13
 70
     1
102
RTVSPropertyOp14
 70
     1
102
RTVSPropertyOp15
 70
     1
102
RTVSPropertyOp16
 70
     1
102
RTVSPropertyOp17
 70
     1
102
RTVSPropertyOp18
 70
     1
102
RTVSPropertyOp19
 70
     1
102
RTVSPropertyOp20
 70
     1
102
RTVSPropertyOp21
 70
     1
102
RTVSPropertyOp22
 70
     1
102
RTVSPropertyOp23
 70
     1
102
RTVSPropertyOp24
 70
     1
102
RTVSPropertyOp25
 70
     1
102
RTVSPropertyOp26
 70
     1
102
RTVSPropertyOp27
 70
     1
102
RTVSPropertyOp28
 70
     1
102
RTVSPropertyOp29
 70
     1
102
RTVSPropertyOp30
 70
     1
102
RTVSPropertyOp31
 70
     1
102
RTVSPropertyOp32
 70
     1
102
RTVSPropertyOp33
 70
     1
102
RTVSPropertyOp34
 70
     1
102
RTVSPropertyOp35
 70
     1
102
RTVSPropertyOp36
 70
     1
102
RTVSPropertyOp37
 70
     1
102
RTVSPropertyOp38
 70
     1
102
RTVSPropertyOp39
 70
     1
102
RTVSPropertyOp40
 70
     1
102
RTVSPropertyOp41
 70
     1
102
RTVSPropertyOp42
 70
     1
102
RTVSPropertyOp43
 70
     1
102
RTVSPropertyOp44
 70
     1
102
RTVSPropertyOp45
 70
     1
102
RTVSPropertyOp46
 70
     1
102
RTVSPropertyOp47
 70
     1
102
RTVSPropertyOp48
 70
     1
102
RTVSPropertyOp49
 70
     1
102
RTVSPropertyOp50
 70
     1
102
RTVSPropertyOp51
 70
     0
102
RTVSPropertyOp52
 70
     0
102
RTVSPropertyOp53
 70
     1
102
RTVSPropertyOp54
 70
     1
102
RTVSPropertyOp55
 70
     1
102
RTVSPropertyOp56
 70
     1
102
RTVSPropertyOp57
 70
     1
102
RTVSPropertyOp58
 70
     1
102
RTVSPropertyOp59
 70
     1
102
RTVSPropertyOp60
 70
     1
102
RTVSPropertyOp61
 70
     1
102
RTVSPropertyOp62
 70
     1
  0
XRECORD
  5
2131
102
{ACAD_REACTORS
330
2130
102
}
330
2130
100
AcDbXrecord
280
     1
102
RTVSPost2010Prop28
280
     0
102
RTVSPost2010PropOp28
 70
     1
102
RTVSPost2010Prop29
280
     1
102
RTVSPost2010PropOp29
 70
     1
102
RTVSPost2010Prop30
280
     1
102
RTVSPost2010PropOp30
 70
     1
102
RTVSPost2010Prop31
280
     0
102
RTVSPost2010PropOp31
 70
     1
102
RTVSPost2010Prop32
280
     0
102
RTVSPost2010PropOp32
 70
     1
102
RTVSPost2010Prop33
280
     0
102
RTVSPost2010PropOp33
 70
     1
102
RTVSPost2010Prop34
280
     0
102
RTVSPost2010PropOp34
 70
     1
102
RTVSPost2010Prop35
280
     0
102
RTVSPost2010PropOp35
 70
     1
102
RTVSPost2010Prop36
280
     0
102
RTVSPost2010PropOp36
 70
     1
102
RTVSPost2010Prop37
 90
       50
102
RTVSPost2010PropOp37
 70
     1
102
RTVSPost2010Prop38
140
0.0
102
RTVSPost2010PropOp38
 70
     1
102
RTVSPost2010Prop39
140
1.0
102
RTVSPost2010PropOp39
 70
     1
102
RTVSPost2010Prop40
 90
        0
102
RTVSPost2010PropOp40
 70
     1
102
RTVSPost2010Prop41ColorIndex
 90
       18
102
RTVSPost2010Prop41ColorRGB
 90
        0
102
RTVSPost2010PropOp41
 70
     1
102
RTVSPost2010Prop42
 90
       50
102
RTVSPost2010PropOp42
 70
     1
102
RTVSPost2010Prop43
 90
        3
102
RTVSPost2010PropOp43
 70
     1
102
RTVSPost2010Prop44ColorIndex
 90
        5
102
RTVSPost2010Prop44ColorRGB
 90
      255
102
RTVSPost2010PropOp44
 70
     1
102
RTVSPost2010Prop45
280
     0
102
RTVSPost2010PropOp45
 70
     1
102
RTVSPost2010Prop46
 90
       50
102
RTVSPost2010PropOp46
 70
     1
102
RTVSPost2010Prop47
 90
       50
102
RTVSPost2010PropOp47
 70
     1
102
RTVSPost2010Prop48
 90
       50
102
RTVSPost2010PropOp48
 70
     1
102
RTVSPost2010Prop49
280
     0
102
RTVSPost2010PropOp49
 70
     1
102
RTVSPost2010Prop50
 90
       50
102
RTVSPost2010PropOp50
 70
     1
102
RTVSPost2010Prop51ColorIndex
 90
      256
102
RTVSPost2010Prop51ColorRGB
 90
-16777216
102
RTVSPost2010PropOp51
 70
     0
102
RTVSPost2010Prop52
140
1.0
102
RTVSPost2010PropOp52
 70
     0
102
RTVSPost2010Prop53
 90
        2
102
RTVSPost2010PropOp53
 70
     1
102
RTVSPost2010Prop54
  1
strokes_ogs.tif
102
RTVSPost2010PropOp54
 70
     1
102
RTVSPost2010Prop55
280
     0
102
RTVSPost2010PropOp55
 70
     1
102
RTVSPost2010Prop56
140
1.0
102
RTVSPost2010PropOp56
 70
     1
102
RTVSPost2010Prop57
140
1.0
102
RTVSPost2010PropOp57
 70
     1
102
RTVSPropertyOp0
 70
     1
102
RTVSPropertyOp1
 70
     1
102
RTVSPropertyOp2
 70
     1
102
RTVSPropertyOp3
 70
     1
102
RTVSPropertyOp4
 70
     1
102
RTVSPropertyOp5
 70
     1
102
RTVSPropertyOp6
 70
     1
102
RTVSPropertyOp7
 70
     1
102
RTVSPropertyOp8
 70
     1
102
RTVSPropertyOp9
 70
     1
102
RTVSPropertyOp10
 70
     1
102
RTVSPropertyOp11
 70
     1
102
RTVSPropertyOp12
 70
     1
102
RTVSPropertyOp13
 70
     1
102
RTVSPropertyOp14
 70
     1
102
RTVSPropertyOp15
 70
     1
102
RTVSPropertyOp16
 70
     1
102
RTVSPropertyOp17
 70
     1
102
RTVSPropertyOp18
 70
     1
102
RTVSPropertyOp19
 70
     1
102
RTVSPropertyOp20
 70
     1
102
RTVSPropertyOp21
 70
     1
102
RTVSPropertyOp22
 70
     1
102
RTVSPropertyOp23
 70
     1
102
RTVSPropertyOp24
 70
     1
102
RTVSPropertyOp25
 70
     1
102
RTVSPropertyOp26
 70
     1
102
RTVSPropertyOp27
 70
     1
102
RTVSPropertyOp28
 70
     1
102
RTVSPropertyOp29
 70
     1
102
RTVSPropertyOp30
 70
     1
102
RTVSPropertyOp31
 70
     1
102
RTVSPropertyOp32
 70
     1
102
RTVSPropertyOp33
 70
     1
102
RTVSPropertyOp34
 70
     1
102
RTVSPropertyOp35
 70
     1
102
RTVSPropertyOp36
 70
     1
102
RTVSPropertyOp37
 70
     1
102
RTVSPropertyOp38
 70
     1
102
RTVSPropertyOp39
 70
     1
102
RTVSPropertyOp40
 70
     1
102
RTVSPropertyOp41
 70
     1
102
RTVSPropertyOp42
 70
     1
102
RTVSPropertyOp43
 70
     1
102
RTVSPropertyOp44
 70
     1
102
RTVSPropertyOp45
 70
     1
102
RTVSPropertyOp46
 70
     1
102
RTVSPropertyOp47
 70
     1
102
RTVSPropertyOp48
 70
     1
102
RTVSPropertyOp49
 70
     1
102
RTVSPropertyOp50
 70
     1
102
RTVSPropertyOp51
 70
     0
102
RTVSPropertyOp52
 70
     0
102
RTVSPropertyOp53
 70
     1
102
RTVSPropertyOp54
 70
     1
102
RTVSPropertyOp55
 70
     1
102
RTVSPropertyOp56
 70
     1
102
RTVSPropertyOp57
 70
     1
102
RTVSPropertyOp58
 70
     1
102
RTVSPropertyOp59
 70
     1
102
RTVSPropertyOp60
 70
     1
102
RTVSPropertyOp61
 70
     1
102
RTVSPropertyOp62
 70
     1
  0
XRECORD
  5
2141
102
{ACAD_REACTORS
330
2140
102
}
330
2140
100
AcDbXrecord
280
     1
102
RTVSPost2010Prop28
280
     0
102
RTVSPost2010PropOp28
 70
     1
102
RTVSPost2010Prop29
280
     1
102
RTVSPost2010PropOp29
 70
     1
102
RTVSPost2010Prop30
280
     1
102
RTVSPost2010PropOp30
 70
     1
102
RTVSPost2010Prop31
280
     0
102
RTVSPost2010PropOp31
 70
     1
102
RTVSPost2010Prop32
280
     0
102
RTVSPost2010PropOp32
 70
     1
102
RTVSPost2010Prop33
280
     0
102
RTVSPost2010PropOp33
 70
     1
102
RTVSPost2010Prop34
280
     0
102
RTVSPost2010PropOp34
 70
     1
102
RTVSPost2010Prop35
280
     0
102
RTVSPost2010PropOp35
 70
     1
102
RTVSPost2010Prop36
280
     0
102
RTVSPost2010PropOp36
 70
     1
102
RTVSPost2010Prop37
 90
       50
102
RTVSPost2010PropOp37
 70
     1
102
RTVSPost2010Prop38
140
0.0
102
RTVSPost2010PropOp38
 70
     1
102
RTVSPost2010Prop39
140
1.0
102
RTVSPost2010PropOp39
 70
     1
102
RTVSPost2010Prop40
 90
        0
102
RTVSPost2010PropOp40
 70
     1
102
RTVSPost2010Prop41ColorIndex
 90
       18
102
RTVSPost2010Prop41ColorRGB
 90
        0
102
RTVSPost2010PropOp41
 70
     1
102
RTVSPost2010Prop42
 90
       50
102
RTVSPost2010PropOp42
 70
     1
102
RTVSPost2010Prop43
 90
        3
102
RTVSPost2010PropOp43
 70
     1
102
RTVSPost2010Prop44ColorIndex
 90
        5
102
RTVSPost2010Prop44ColorRGB
 90
      255
102
RTVSPost2010PropOp44
 70
     1
102
RTVSPost2010Prop45
280
     0
102
RTVSPost2010PropOp45
 70
     1
102
RTVSPost2010Prop46
 90
       50
102
RTVSPost2010PropOp46
 70
     1
102
RTVSPost2010Prop47
 90
       50
102
RTVSPost2010PropOp47
 70
     1
102
RTVSPost2010Prop48
 90
       50
102
RTVSPost2010PropOp48
 70
     1
102
RTVSPost2010Prop49
280
     0
102
RTVSPost2010PropOp49
 70
     1
102
RTVSPost2010Prop50
 90
       50
102
RTVSPost2010PropOp50
 70
     1
102
RTVSPost2010Prop51ColorIndex
 90
      256
102
RTVSPost2010Prop51ColorRGB
 90
-16777216
102
RTVSPost2010PropOp51
 70
     0
102
RTVSPost2010Prop52
140
1.0
102
RTVSPost2010PropOp52
 70
     0
102
RTVSPost2010Prop53
 90
        2
102
RTVSPost2010PropOp53
 70
     1
102
RTVSPost2010Prop54
  1
strokes_ogs.tif
102
RTVSPost2010PropOp54
 70
     1
102
RTVSPost2010Prop55
280
     0
102
RTVSPost2010PropOp55
 70
     1
102
RTVSPost2010Prop56
140
1.0
102
RTVSPost2010PropOp56
 70
     1
102
RTVSPost2010Prop57
140
1.0
102
RTVSPost2010PropOp57
 70
     1
102
RTVSPropertyOp0
 70
     0
102
RTVSPropertyOp1
 70
     0
102
RTVSPropertyOp2
 70
     0
102
RTVSPropertyOp3
 70
     0
102
RTVSPropertyOp4
 70
     0
102
RTVSPropertyOp5
 70
     0
102
RTVSPropertyOp6
 70
     0
102
RTVSPropertyOp7
 70
     0
102
RTVSPropertyOp8
 70
     0
102
RTVSPropertyOp9
 70
     0
102
RTVSPropertyOp10
 70
     0
102
RTVSPropertyOp11
 70
     0
102
RTVSPropertyOp12
 70
     0
102
RTVSPropertyOp13
 70
     0
102
RTVSPropertyOp14
 70
     2
102
RTVSPropertyOp15
 70
     0
102
RTVSPropertyOp16
 70
     0
102
RTVSPropertyOp17
 70
     0
102
RTVSPropertyOp18
 70
     0
102
RTVSPropertyOp19
 70
     0
102
RTVSPropertyOp20
 70
     0
102
RTVSPropertyOp21
 70
     0
102
RTVSPropertyOp22
 70
     0
102
RTVSPropertyOp23
 70
     0
102
RTVSPropertyOp24
 70
     0
102
RTVSPropertyOp25
 70
     0
102
RTVSPropertyOp26
 70
     0
102
RTVSPropertyOp27
 70
     0
102
RTVSPropertyOp28
 70
     1
102
RTVSPropertyOp29
 70
     1
102
RTVSPropertyOp30
 70
     1
102
RTVSPropertyOp31
 70
     1
102
RTVSPropertyOp32
 70
     1
102
RTVSPropertyOp33
 70
     1
102
RTVSPropertyOp34
 70
     1
102
RTVSPropertyOp35
 70
     1
102
RTVSPropertyOp36
 70
     1
102
RTVSPropertyOp37
 70
     1
102
RTVSPropertyOp38
 70
     1
102
RTVSPropertyOp39
 70
     1
102
RTVSPropertyOp40
 70
     1
102
RTVSPropertyOp41
 70
     1
102
RTVSPropertyOp42
 70
     1
102
RTVSPropertyOp43
 70
     1
102
RTVSPropertyOp44
 70
     1
102
RTVSPropertyOp45
 70
     1
102
RTVSPropertyOp46
 70
     1
102
RTVSPropertyOp47
 70
     1
102
RTVSPropertyOp48
 70
     1
102
RTVSPropertyOp49
 70
     1
102
RTVSPropertyOp50
 70
     1
102
RTVSPropertyOp51
 70
     0
102
RTVSPropertyOp52
 70
     0
102
RTVSPropertyOp53
 70
     1
102
RTVSPropertyOp54
 70
     1
102
RTVSPropertyOp55
 70
     1
102
RTVSPropertyOp56
 70
     1
102
RTVSPropertyOp57
 70
     1
102
RTVSPropertyOp58
 70
     1
102
RTVSPropertyOp59
 70
     1
102
RTVSPropertyOp60
 70
     1
102
RTVSPropertyOp61
 70
     1
102
RTVSPropertyOp62
 70
     1
  0
XRECORD
  5
2139
102
{ACAD_REACTORS
330
2138
102
}
330
2138
100
AcDbXrecord
280
     1
102
RTVSPost2010Prop28
280
     0
102
RTVSPost2010PropOp28
 70
     1
102
RTVSPost2010Prop29
280
     1
102
RTVSPost2010PropOp29
 70
     1
102
RTVSPost2010Prop30
280
     1
102
RTVSPost2010PropOp30
 70
     1
102
RTVSPost2010Prop31
280
     0
102
RTVSPost2010PropOp31
 70
     1
102
RTVSPost2010Prop32
280
     0
102
RTVSPost2010PropOp32
 70
     1
102
RTVSPost2010Prop33
280
     0
102
RTVSPost2010PropOp33
 70
     1
102
RTVSPost2010Prop34
280
     0
102
RTVSPost2010PropOp34
 70
     1
102
RTVSPost2010Prop35
280
     0
102
RTVSPost2010PropOp35
 70
     1
102
RTVSPost2010Prop36
280
     0
102
RTVSPost2010PropOp36
 70
     1
102
RTVSPost2010Prop37
 90
       50
102
RTVSPost2010PropOp37
 70
     1
102
RTVSPost2010Prop38
140
0.0
102
RTVSPost2010PropOp38
 70
     1
102
RTVSPost2010Prop39
140
1.0
102
RTVSPost2010PropOp39
 70
     1
102
RTVSPost2010Prop40
 90
        0
102
RTVSPost2010PropOp40
 70
     1
102
RTVSPost2010Prop41ColorIndex
 90
       18
102
RTVSPost2010Prop41ColorRGB
 90
        0
102
RTVSPost2010PropOp41
 70
     1
102
RTVSPost2010Prop42
 90
       50
102
RTVSPost2010PropOp42
 70
     1
102
RTVSPost2010Prop43
 90
        3
102
RTVSPost2010PropOp43
 70
     1
102
RTVSPost2010Prop44ColorIndex
 90
        5
102
RTVSPost2010Prop44ColorRGB
 90
      255
102
RTVSPost2010PropOp44
 70
     1
102
RTVSPost2010Prop45
280
     0
102
RTVSPost2010PropOp45
 70
     1
102
RTVSPost2010Prop46
 90
       50
102
RTVSPost2010PropOp46
 70
     1
102
RTVSPost2010Prop47
 90
       50
102
RTVSPost2010PropOp47
 70
     1
102
RTVSPost2010Prop48
 90
       50
102
RTVSPost2010PropOp48
 70
     1
102
RTVSPost2010Prop49
280
     0
102
RTVSPost2010PropOp49
 70
     1
102
RTVSPost2010Prop50
 90
       50
102
RTVSPost2010PropOp50
 70
     1
102
RTVSPost2010Prop51ColorIndex
 90
      256
102
RTVSPost2010Prop51ColorRGB
 90
-16777216
102
RTVSPost2010PropOp51
 70
     0
102
RTVSPost2010Prop52
140
1.0
102
RTVSPost2010PropOp52
 70
     0
102
RTVSPost2010Prop53
 90
        2
102
RTVSPost2010PropOp53
 70
     1
102
RTVSPost2010Prop54
  1
strokes_ogs.tif
102
RTVSPost2010PropOp54
 70
     1
102
RTVSPost2010Prop55
280
     0
102
RTVSPost2010PropOp55
 70
     1
102
RTVSPost2010Prop56
140
1.0
102
RTVSPost2010PropOp56
 70
     1
102
RTVSPost2010Prop57
140
1.0
102
RTVSPost2010PropOp57
 70
     1
102
RTVSPropertyOp0
 70
     1
102
RTVSPropertyOp1
 70
     1
102
RTVSPropertyOp2
 70
     1
102
RTVSPropertyOp3
 70
     1
102
RTVSPropertyOp4
 70
     1
102
RTVSPropertyOp5
 70
     1
102
RTVSPropertyOp6
 70
     1
102
RTVSPropertyOp7
 70
     1
102
RTVSPropertyOp8
 70
     1
102
RTVSPropertyOp9
 70
     1
102
RTVSPropertyOp10
 70
     1
102
RTVSPropertyOp11
 70
     1
102
RTVSPropertyOp12
 70
     1
102
RTVSPropertyOp13
 70
     1
102
RTVSPropertyOp14
 70
     1
102
RTVSPropertyOp15
 70
     1
102
RTVSPropertyOp16
 70
     1
102
RTVSPropertyOp17
 70
     1
102
RTVSPropertyOp18
 70
     1
102
RTVSPropertyOp19
 70
     1
102
RTVSPropertyOp20
 70
     1
102
RTVSPropertyOp21
 70
     1
102
RTVSPropertyOp22
 70
     1
102
RTVSPropertyOp23
 70
     1
102
RTVSPropertyOp24
 70
     1
102
RTVSPropertyOp25
 70
     1
102
RTVSPropertyOp26
 70
     1
102
RTVSPropertyOp27
 70
     1
102
RTVSPropertyOp28
 70
     1
102
RTVSPropertyOp29
 70
     1
102
RTVSPropertyOp30
 70
     1
102
RTVSPropertyOp31
 70
     1
102
RTVSPropertyOp32
 70
     1
102
RTVSPropertyOp33
 70
     1
102
RTVSPropertyOp34
 70
     1
102
RTVSPropertyOp35
 70
     1
102
RTVSPropertyOp36
 70
     1
102
RTVSPropertyOp37
 70
     1
102
RTVSPropertyOp38
 70
     1
102
RTVSPropertyOp39
 70
     1
102
RTVSPropertyOp40
 70
     1
102
RTVSPropertyOp41
 70
     1
102
RTVSPropertyOp42
 70
     1
102
RTVSPropertyOp43
 70
     1
102
RTVSPropertyOp44
 70
     1
102
RTVSPropertyOp45
 70
     1
102
RTVSPropertyOp46
 70
     1
102
RTVSPropertyOp47
 70
     1
102
RTVSPropertyOp48
 70
     1
102
RTVSPropertyOp49
 70
     1
102
RTVSPropertyOp50
 70
     1
102
RTVSPropertyOp51
 70
     0
102
RTVSPropertyOp52
 70
     0
102
RTVSPropertyOp53
 70
     1
102
RTVSPropertyOp54
 70
     1
102
RTVSPropertyOp55
 70
     1
102
RTVSPropertyOp56
 70
     1
102
RTVSPropertyOp57
 70
     1
102
RTVSPropertyOp58
 70
     1
102
RTVSPropertyOp59
 70
     1
102
RTVSPropertyOp60
 70
     1
102
RTVSPropertyOp61
 70
     1
102
RTVSPropertyOp62
 70
     1
  0
XRECORD
  5
211D
102
{ACAD_REACTORS
330
211C
102
}
330
211C
100
AcDbXrecord
280
     1
102
RTVSPost2010Prop28
280
     0
102
RTVSPost2010PropOp28
 70
     1
102
RTVSPost2010Prop29
280
     1
102
RTVSPost2010PropOp29
 70
     1
102
RTVSPost2010Prop30
280
     1
102
RTVSPost2010PropOp30
 70
     1
102
RTVSPost2010Prop31
280
     0
102
RTVSPost2010PropOp31
 70
     1
102
RTVSPost2010Prop32
280
     0
102
RTVSPost2010PropOp32
 70
     1
102
RTVSPost2010Prop33
280
     0
102
RTVSPost2010PropOp33
 70
     1
102
RTVSPost2010Prop34
280
     0
102
RTVSPost2010PropOp34
 70
     1
102
RTVSPost2010Prop35
280
     0
102
RTVSPost2010PropOp35
 70
     1
102
RTVSPost2010Prop36
280
     0
102
RTVSPost2010PropOp36
 70
     1
102
RTVSPost2010Prop37
 90
       50
102
RTVSPost2010PropOp37
 70
     1
102
RTVSPost2010Prop38
140
0.0
102
RTVSPost2010PropOp38
 70
     1
102
RTVSPost2010Prop39
140
1.0
102
RTVSPost2010PropOp39
 70
     1
102
RTVSPost2010Prop40
 90
        0
102
RTVSPost2010PropOp40
 70
     1
102
RTVSPost2010Prop41ColorIndex
 90
       18
102
RTVSPost2010Prop41ColorRGB
 90
        0
102
RTVSPost2010PropOp41
 70
     1
102
RTVSPost2010Prop42
 90
       50
102
RTVSPost2010PropOp42
 70
     1
102
RTVSPost2010Prop43
 90
        3
102
RTVSPost2010PropOp43
 70
     1
102
RTVSPost2010Prop44ColorIndex
 90
        5
102
RTVSPost2010Prop44ColorRGB
 90
      255
102
RTVSPost2010PropOp44
 70
     1
102
RTVSPost2010Prop45
280
     0
102
RTVSPost2010PropOp45
 70
     1
102
RTVSPost2010Prop46
 90
       50
102
RTVSPost2010PropOp46
 70
     1
102
RTVSPost2010Prop47
 90
       50
102
RTVSPost2010PropOp47
 70
     1
102
RTVSPost2010Prop48
 90
       50
102
RTVSPost2010PropOp48
 70
     1
102
RTVSPost2010Prop49
280
     0
102
RTVSPost2010PropOp49
 70
     1
102
RTVSPost2010Prop50
 90
       50
102
RTVSPost2010PropOp50
 70
     1
102
RTVSPost2010Prop51ColorIndex
 90
      256
102
RTVSPost2010Prop51ColorRGB
 90
-16777216
102
RTVSPost2010PropOp51
 70
     0
102
RTVSPost2010Prop52
140
1.0
102
RTVSPost2010PropOp52
 70
     0
102
RTVSPost2010Prop53
 90
        2
102
RTVSPost2010PropOp53
 70
     1
102
RTVSPost2010Prop54
  1
strokes_ogs.tif
102
RTVSPost2010PropOp54
 70
     1
102
RTVSPost2010Prop55
280
     0
102
RTVSPost2010PropOp55
 70
     1
102
RTVSPost2010Prop56
140
1.0
102
RTVSPost2010PropOp56
 70
     1
102
RTVSPost2010Prop57
140
1.0
102
RTVSPost2010PropOp57
 70
     1
102
RTVSPropertyOp0
 70
     1
102
RTVSPropertyOp1
 70
     1
102
RTVSPropertyOp2
 70
     1
102
RTVSPropertyOp3
 70
     1
102
RTVSPropertyOp4
 70
     1
102
RTVSPropertyOp5
 70
     1
102
RTVSPropertyOp6
 70
     1
102
RTVSPropertyOp7
 70
     1
102
RTVSPropertyOp8
 70
     1
102
RTVSPropertyOp9
 70
     1
102
RTVSPropertyOp10
 70
     1
102
RTVSPropertyOp11
 70
     1
102
RTVSPropertyOp12
 70
     1
102
RTVSPropertyOp13
 70
     1
102
RTVSPropertyOp14
 70
     1
102
RTVSPropertyOp15
 70
     1
102
RTVSPropertyOp16
 70
     1
102
RTVSPropertyOp17
 70
     1
102
RTVSPropertyOp18
 70
     1
102
RTVSPropertyOp19
 70
     1
102
RTVSPropertyOp20
 70
     1
102
RTVSPropertyOp21
 70
     1
102
RTVSPropertyOp22
 70
     1
102
RTVSPropertyOp23
 70
     1
102
RTVSPropertyOp24
 70
     1
102
RTVSPropertyOp25
 70
     1
102
RTVSPropertyOp26
 70
     1
102
RTVSPropertyOp27
 70
     1
102
RTVSPropertyOp28
 70
     1
102
RTVSPropertyOp29
 70
     1
102
RTVSPropertyOp30
 70
     1
102
RTVSPropertyOp31
 70
     1
102
RTVSPropertyOp32
 70
     1
102
RTVSPropertyOp33
 70
     1
102
RTVSPropertyOp34
 70
     1
102
RTVSPropertyOp35
 70
     1
102
RTVSPropertyOp36
 70
     1
102
RTVSPropertyOp37
 70
     1
102
RTVSPropertyOp38
 70
     1
102
RTVSPropertyOp39
 70
     1
102
RTVSPropertyOp40
 70
     1
102
RTVSPropertyOp41
 70
     1
102
RTVSPropertyOp42
 70
     1
102
RTVSPropertyOp43
 70
     1
102
RTVSPropertyOp44
 70
     1
102
RTVSPropertyOp45
 70
     1
102
RTVSPropertyOp46
 70
     1
102
RTVSPropertyOp47
 70
     1
102
RTVSPropertyOp48
 70
     1
102
RTVSPropertyOp49
 70
     1
102
RTVSPropertyOp50
 70
     1
102
RTVSPropertyOp51
 70
     0
102
RTVSPropertyOp52
 70
     0
102
RTVSPropertyOp53
 70
     1
102
RTVSPropertyOp54
 70
     1
102
RTVSPropertyOp55
 70
     1
102
RTVSPropertyOp56
 70
     1
102
RTVSPropertyOp57
 70
     1
102
RTVSPropertyOp58
 70
     1
102
RTVSPropertyOp59
 70
     1
102
RTVSPropertyOp60
 70
     1
102
RTVSPropertyOp61
 70
     1
102
RTVSPropertyOp62
 70
     1
  0
XRECORD
  5
211F
102
{ACAD_REACTORS
330
211E
102
}
330
211E
100
AcDbXrecord
280
     1
102
RTVSPost2010Prop28
280
     0
102
RTVSPost2010PropOp28
 70
     1
102
RTVSPost2010Prop29
280
     1
102
RTVSPost2010PropOp29
 70
     1
102
RTVSPost2010Prop30
280
     1
102
RTVSPost2010PropOp30
 70
     1
102
RTVSPost2010Prop31
280
     0
102
RTVSPost2010PropOp31
 70
     1
102
RTVSPost2010Prop32
280
     0
102
RTVSPost2010PropOp32
 70
     1
102
RTVSPost2010Prop33
280
     0
102
RTVSPost2010PropOp33
 70
     1
102
RTVSPost2010Prop34
280
     0
102
RTVSPost2010PropOp34
 70
     1
102
RTVSPost2010Prop35
280
     0
102
RTVSPost2010PropOp35
 70
     1
102
RTVSPost2010Prop36
280
     0
102
RTVSPost2010PropOp36
 70
     1
102
RTVSPost2010Prop37
 90
       50
102
RTVSPost2010PropOp37
 70
     1
102
RTVSPost2010Prop38
140
0.0
102
RTVSPost2010PropOp38
 70
     1
102
RTVSPost2010Prop39
140
1.0
102
RTVSPost2010PropOp39
 70
     1
102
RTVSPost2010Prop40
 90
        0
102
RTVSPost2010PropOp40
 70
     1
102
RTVSPost2010Prop41ColorIndex
 90
       18
102
RTVSPost2010Prop41ColorRGB
 90
        0
102
RTVSPost2010PropOp41
 70
     1
102
RTVSPost2010Prop42
 90
       50
102
RTVSPost2010PropOp42
 70
     1
102
RTVSPost2010Prop43
 90
        3
102
RTVSPost2010PropOp43
 70
     1
102
RTVSPost2010Prop44ColorIndex
 90
        5
102
RTVSPost2010Prop44ColorRGB
 90
      255
102
RTVSPost2010PropOp44
 70
     1
102
RTVSPost2010Prop45
280
     0
102
RTVSPost2010PropOp45
 70
     1
102
RTVSPost2010Prop46
 90
       50
102
RTVSPost2010PropOp46
 70
     1
102
RTVSPost2010Prop47
 90
       50
102
RTVSPost2010PropOp47
 70
     1
102
RTVSPost2010Prop48
 90
       50
102
RTVSPost2010PropOp48
 70
     1
102
RTVSPost2010Prop49
280
     0
102
RTVSPost2010PropOp49
 70
     1
102
RTVSPost2010Prop50
 90
       50
102
RTVSPost2010PropOp50
 70
     1
102
RTVSPost2010Prop51ColorIndex
 90
      256
102
RTVSPost2010Prop51ColorRGB
 90
-16777216
102
RTVSPost2010PropOp51
 70
     0
102
RTVSPost2010Prop52
140
1.0
102
RTVSPost2010PropOp52
 70
     0
102
RTVSPost2010Prop53
 90
        2
102
RTVSPost2010PropOp53
 70
     1
102
RTVSPost2010Prop54
  1
strokes_ogs.tif
102
RTVSPost2010PropOp54
 70
     1
102
RTVSPost2010Prop55
280
     0
102
RTVSPost2010PropOp55
 70
     1
102
RTVSPost2010Prop56
140
1.0
102
RTVSPost2010PropOp56
 70
     1
102
RTVSPost2010Prop57
140
1.0
102
RTVSPost2010PropOp57
 70
     1
102
RTVSPropertyOp0
 70
     1
102
RTVSPropertyOp1
 70
     1
102
RTVSPropertyOp2
 70
     1
102
RTVSPropertyOp3
 70
     1
102
RTVSPropertyOp4
 70
     1
102
RTVSPropertyOp5
 70
     1
102
RTVSPropertyOp6
 70
     1
102
RTVSPropertyOp7
 70
     1
102
RTVSPropertyOp8
 70
     1
102
RTVSPropertyOp9
 70
     1
102
RTVSPropertyOp10
 70
     1
102
RTVSPropertyOp11
 70
     1
102
RTVSPropertyOp12
 70
     1
102
RTVSPropertyOp13
 70
     1
102
RTVSPropertyOp14
 70
     1
102
RTVSPropertyOp15
 70
     1
102
RTVSPropertyOp16
 70
     1
102
RTVSPropertyOp17
 70
     1
102
RTVSPropertyOp18
 70
     1
102
RTVSPropertyOp19
 70
     1
102
RTVSPropertyOp20
 70
     1
102
RTVSPropertyOp21
 70
     1
102
RTVSPropertyOp22
 70
     1
102
RTVSPropertyOp23
 70
     1
102
RTVSPropertyOp24
 70
     1
102
RTVSPropertyOp25
 70
     1
102
RTVSPropertyOp26
 70
     1
102
RTVSPropertyOp27
 70
     1
102
RTVSPropertyOp28
 70
     1
102
RTVSPropertyOp29
 70
     1
102
RTVSPropertyOp30
 70
     1
102
RTVSPropertyOp31
 70
     1
102
RTVSPropertyOp32
 70
     1
102
RTVSPropertyOp33
 70
     1
102
RTVSPropertyOp34
 70
     1
102
RTVSPropertyOp35
 70
     1
102
RTVSPropertyOp36
 70
     1
102
RTVSPropertyOp37
 70
     1
102
RTVSPropertyOp38
 70
     1
102
RTVSPropertyOp39
 70
     1
102
RTVSPropertyOp40
 70
     1
102
RTVSPropertyOp41
 70
     1
102
RTVSPropertyOp42
 70
     1
102
RTVSPropertyOp43
 70
     1
102
RTVSPropertyOp44
 70
     1
102
RTVSPropertyOp45
 70
     1
102
RTVSPropertyOp46
 70
     1
102
RTVSPropertyOp47
 70
     1
102
RTVSPropertyOp48
 70
     1
102
RTVSPropertyOp49
 70
     1
102
RTVSPropertyOp50
 70
     1
102
RTVSPropertyOp51
 70
     0
102
RTVSPropertyOp52
 70
     0
102
RTVSPropertyOp53
 70
     1
102
RTVSPropertyOp54
 70
     1
102
RTVSPropertyOp55
 70
     1
102
RTVSPropertyOp56
 70
     1
102
RTVSPropertyOp57
 70
     1
102
RTVSPropertyOp58
 70
     1
102
RTVSPropertyOp59
 70
     1
102
RTVSPropertyOp60
 70
     1
102
RTVSPropertyOp61
 70
     1
102
RTVSPropertyOp62
 70
     1
  0
XRECORD
  5
2121
102
{ACAD_REACTORS
330
2120
102
}
330
2120
100
AcDbXrecord
280
     1
102
RTVSPost2010Prop28
280
     0
102
RTVSPost2010PropOp28
 70
     1
102
RTVSPost2010Prop29
280
     1
102
RTVSPost2010PropOp29
 70
     1
102
RTVSPost2010Prop30
280
     1
102
RTVSPost2010PropOp30
 70
     1
102
RTVSPost2010Prop31
280
     0
102
RTVSPost2010PropOp31
 70
     1
102
RTVSPost2010Prop32
280
     0
102
RTVSPost2010PropOp32
 70
     1
102
RTVSPost2010Prop33
280
     0
102
RTVSPost2010PropOp33
 70
     1
102
RTVSPost2010Prop34
280
     0
102
RTVSPost2010PropOp34
 70
     1
102
RTVSPost2010Prop35
280
     0
102
RTVSPost2010PropOp35
 70
     1
102
RTVSPost2010Prop36
280
     0
102
RTVSPost2010PropOp36
 70
     1
102
RTVSPost2010Prop37
 90
       50
102
RTVSPost2010PropOp37
 70
     1
102
RTVSPost2010Prop38
140
0.0
102
RTVSPost2010PropOp38
 70
     1
102
RTVSPost2010Prop39
140
1.0
102
RTVSPost2010PropOp39
 70
     1
102
RTVSPost2010Prop40
 90
        0
102
RTVSPost2010PropOp40
 70
     1
102
RTVSPost2010Prop41ColorIndex
 90
       18
102
RTVSPost2010Prop41ColorRGB
 90
        0
102
RTVSPost2010PropOp41
 70
     1
102
RTVSPost2010Prop42
 90
       50
102
RTVSPost2010PropOp42
 70
     1
102
RTVSPost2010Prop43
 90
        3
102
RTVSPost2010PropOp43
 70
     1
102
RTVSPost2010Prop44ColorIndex
 90
        5
102
RTVSPost2010Prop44ColorRGB
 90
      255
102
RTVSPost2010PropOp44
 70
     1
102
RTVSPost2010Prop45
280
     0
102
RTVSPost2010PropOp45
 70
     1
102
RTVSPost2010Prop46
 90
       50
102
RTVSPost2010PropOp46
 70
     1
102
RTVSPost2010Prop47
 90
       50
102
RTVSPost2010PropOp47
 70
     1
102
RTVSPost2010Prop48
 90
       50
102
RTVSPost2010PropOp48
 70
     1
102
RTVSPost2010Prop49
280
     0
102
RTVSPost2010PropOp49
 70
     1
102
RTVSPost2010Prop50
 90
       50
102
RTVSPost2010PropOp50
 70
     1
102
RTVSPost2010Prop51ColorIndex
 90
      256
102
RTVSPost2010Prop51ColorRGB
 90
-16777216
102
RTVSPost2010PropOp51
 70
     0
102
RTVSPost2010Prop52
140
1.0
102
RTVSPost2010PropOp52
 70
     0
102
RTVSPost2010Prop53
 90
        2
102
RTVSPost2010PropOp53
 70
     1
102
RTVSPost2010Prop54
  1
strokes_ogs.tif
102
RTVSPost2010PropOp54
 70
     1
102
RTVSPost2010Prop55
280
     0
102
RTVSPost2010PropOp55
 70
     1
102
RTVSPost2010Prop56
140
1.0
102
RTVSPost2010PropOp56
 70
     1
102
RTVSPost2010Prop57
140
1.0
102
RTVSPost2010PropOp57
 70
     1
102
RTVSPropertyOp0
 70
     1
102
RTVSPropertyOp1
 70
     1
102
RTVSPropertyOp2
 70
     1
102
RTVSPropertyOp3
 70
     1
102
RTVSPropertyOp4
 70
     1
102
RTVSPropertyOp5
 70
     1
102
RTVSPropertyOp6
 70
     1
102
RTVSPropertyOp7
 70
     1
102
RTVSPropertyOp8
 70
     1
102
RTVSPropertyOp9
 70
     1
102
RTVSPropertyOp10
 70
     1
102
RTVSPropertyOp11
 70
     1
102
RTVSPropertyOp12
 70
     1
102
RTVSPropertyOp13
 70
     1
102
RTVSPropertyOp14
 70
     1
102
RTVSPropertyOp15
 70
     1
102
RTVSPropertyOp16
 70
     1
102
RTVSPropertyOp17
 70
     1
102
RTVSPropertyOp18
 70
     1
102
RTVSPropertyOp19
 70
     1
102
RTVSPropertyOp20
 70
     1
102
RTVSPropertyOp21
 70
     1
102
RTVSPropertyOp22
 70
     1
102
RTVSPropertyOp23
 70
     1
102
RTVSPropertyOp24
 70
     1
102
RTVSPropertyOp25
 70
     1
102
RTVSPropertyOp26
 70
     1
102
RTVSPropertyOp27
 70
     1
102
RTVSPropertyOp28
 70
     1
102
RTVSPropertyOp29
 70
     1
102
RTVSPropertyOp30
 70
     1
102
RTVSPropertyOp31
 70
     1
102
RTVSPropertyOp32
 70
     1
102
RTVSPropertyOp33
 70
     1
102
RTVSPropertyOp34
 70
     1
102
RTVSPropertyOp35
 70
     1
102
RTVSPropertyOp36
 70
     1
102
RTVSPropertyOp37
 70
     1
102
RTVSPropertyOp38
 70
     1
102
RTVSPropertyOp39
 70
     1
102
RTVSPropertyOp40
 70
     1
102
RTVSPropertyOp41
 70
     1
102
RTVSPropertyOp42
 70
     1
102
RTVSPropertyOp43
 70
     1
102
RTVSPropertyOp44
 70
     1
102
RTVSPropertyOp45
 70
     1
102
RTVSPropertyOp46
 70
     1
102
RTVSPropertyOp47
 70
     1
102
RTVSPropertyOp48
 70
     1
102
RTVSPropertyOp49
 70
     1
102
RTVSPropertyOp50
 70
     1
102
RTVSPropertyOp51
 70
     0
102
RTVSPropertyOp52
 70
     0
102
RTVSPropertyOp53
 70
     1
102
RTVSPropertyOp54
 70
     1
102
RTVSPropertyOp55
 70
     1
102
RTVSPropertyOp56
 70
     1
102
RTVSPropertyOp57
 70
     1
102
RTVSPropertyOp58
 70
     1
102
RTVSPropertyOp59
 70
     1
102
RTVSPropertyOp60
 70
     1
102
RTVSPropertyOp61
 70
     1
102
RTVSPropertyOp62
 70
     1
  0
XRECORD
  5
2123
102
{ACAD_REACTORS
330
2122
102
}
330
2122
100
AcDbXrecord
280
     1
102
RTVSPost2010Prop28
280
     0
102
RTVSPost2010PropOp28
 70
     1
102
RTVSPost2010Prop29
280
     1
102
RTVSPost2010PropOp29
 70
     1
102
RTVSPost2010Prop30
280
     1
102
RTVSPost2010PropOp30
 70
     1
102
RTVSPost2010Prop31
280
     0
102
RTVSPost2010PropOp31
 70
     1
102
RTVSPost2010Prop32
280
     0
102
RTVSPost2010PropOp32
 70
     1
102
RTVSPost2010Prop33
280
     0
102
RTVSPost2010PropOp33
 70
     1
102
RTVSPost2010Prop34
280
     0
102
RTVSPost2010PropOp34
 70
     1
102
RTVSPost2010Prop35
280
     0
102
RTVSPost2010PropOp35
 70
     1
102
RTVSPost2010Prop36
280
     0
102
RTVSPost2010PropOp36
 70
     1
102
RTVSPost2010Prop37
 90
       50
102
RTVSPost2010PropOp37
 70
     1
102
RTVSPost2010Prop38
140
0.0
102
RTVSPost2010PropOp38
 70
     1
102
RTVSPost2010Prop39
140
1.0
102
RTVSPost2010PropOp39
 70
     1
102
RTVSPost2010Prop40
 90
        0
102
RTVSPost2010PropOp40
 70
     1
102
RTVSPost2010Prop41ColorIndex
 90
       18
102
RTVSPost2010Prop41ColorRGB
 90
        0
102
RTVSPost2010PropOp41
 70
     1
102
RTVSPost2010Prop42
 90
       50
102
RTVSPost2010PropOp42
 70
     1
102
RTVSPost2010Prop43
 90
        3
102
RTVSPost2010PropOp43
 70
     1
102
RTVSPost2010Prop44ColorIndex
 90
        5
102
RTVSPost2010Prop44ColorRGB
 90
      255
102
RTVSPost2010PropOp44
 70
     1
102
RTVSPost2010Prop45
280
     0
102
RTVSPost2010PropOp45
 70
     1
102
RTVSPost2010Prop46
 90
       50
102
RTVSPost2010PropOp46
 70
     1
102
RTVSPost2010Prop47
 90
       50
102
RTVSPost2010PropOp47
 70
     1
102
RTVSPost2010Prop48
 90
       50
102
RTVSPost2010PropOp48
 70
     1
102
RTVSPost2010Prop49
280
     0
102
RTVSPost2010PropOp49
 70
     1
102
RTVSPost2010Prop50
 90
       50
102
RTVSPost2010PropOp50
 70
     1
102
RTVSPost2010Prop51ColorIndex
 90
      256
102
RTVSPost2010Prop51ColorRGB
 90
-16777216
102
RTVSPost2010PropOp51
 70
     0
102
RTVSPost2010Prop52
140
1.0
102
RTVSPost2010PropOp52
 70
     0
102
RTVSPost2010Prop53
 90
        2
102
RTVSPost2010PropOp53
 70
     1
102
RTVSPost2010Prop54
  1
strokes_ogs.tif
102
RTVSPost2010PropOp54
 70
     1
102
RTVSPost2010Prop55
280
     0
102
RTVSPost2010PropOp55
 70
     1
102
RTVSPost2010Prop56
140
1.0
102
RTVSPost2010PropOp56
 70
     1
102
RTVSPost2010Prop57
140
1.0
102
RTVSPost2010PropOp57
 70
     1
102
RTVSPropertyOp0
 70
     1
102
RTVSPropertyOp1
 70
     1
102
RTVSPropertyOp2
 70
     1
102
RTVSPropertyOp3
 70
     1
102
RTVSPropertyOp4
 70
     1
102
RTVSPropertyOp5
 70
     1
102
RTVSPropertyOp6
 70
     1
102
RTVSPropertyOp7
 70
     1
102
RTVSPropertyOp8
 70
     1
102
RTVSPropertyOp9
 70
     1
102
RTVSPropertyOp10
 70
     1
102
RTVSPropertyOp11
 70
     1
102
RTVSPropertyOp12
 70
     1
102
RTVSPropertyOp13
 70
     1
102
RTVSPropertyOp14
 70
     1
102
RTVSPropertyOp15
 70
     1
102
RTVSPropertyOp16
 70
     1
102
RTVSPropertyOp17
 70
     1
102
RTVSPropertyOp18
 70
     1
102
RTVSPropertyOp19
 70
     1
102
RTVSPropertyOp20
 70
     1
102
RTVSPropertyOp21
 70
     1
102
RTVSPropertyOp22
 70
     1
102
RTVSPropertyOp23
 70
     1
102
RTVSPropertyOp24
 70
     1
102
RTVSPropertyOp25
 70
     1
102
RTVSPropertyOp26
 70
     1
102
RTVSPropertyOp27
 70
     1
102
RTVSPropertyOp28
 70
     1
102
RTVSPropertyOp29
 70
     1
102
RTVSPropertyOp30
 70
     1
102
RTVSPropertyOp31
 70
     1
102
RTVSPropertyOp32
 70
     1
102
RTVSPropertyOp33
 70
     1
102
RTVSPropertyOp34
 70
     1
102
RTVSPropertyOp35
 70
     1
102
RTVSPropertyOp36
 70
     1
102
RTVSPropertyOp37
 70
     1
102
RTVSPropertyOp38
 70
     1
102
RTVSPropertyOp39
 70
     1
102
RTVSPropertyOp40
 70
     1
102
RTVSPropertyOp41
 70
     1
102
RTVSPropertyOp42
 70
     1
102
RTVSPropertyOp43
 70
     1
102
RTVSPropertyOp44
 70
     1
102
RTVSPropertyOp45
 70
     1
102
RTVSPropertyOp46
 70
     1
102
RTVSPropertyOp47
 70
     1
102
RTVSPropertyOp48
 70
     1
102
RTVSPropertyOp49
 70
     1
102
RTVSPropertyOp50
 70
     1
102
RTVSPropertyOp51
 70
     0
102
RTVSPropertyOp52
 70
     0
102
RTVSPropertyOp53
 70
     1
102
RTVSPropertyOp54
 70
     1
102
RTVSPropertyOp55
 70
     1
102
RTVSPropertyOp56
 70
     1
102
RTVSPropertyOp57
 70
     1
102
RTVSPropertyOp58
 70
     1
102
RTVSPropertyOp59
 70
     1
102
RTVSPropertyOp60
 70
     1
102
RTVSPropertyOp61
 70
     1
102
RTVSPropertyOp62
 70
     1
  0
XRECORD
  5
212B
102
{ACAD_REACTORS
330
212A
102
}
330
212A
100
AcDbXrecord
280
     1
102
RTVSPost2010Prop28
280
     0
102
RTVSPost2010PropOp28
 70
     1
102
RTVSPost2010Prop29
280
     1
102
RTVSPost2010PropOp29
 70
     1
102
RTVSPost2010Prop30
280
     1
102
RTVSPost2010PropOp30
 70
     1
102
RTVSPost2010Prop31
280
     0
102
RTVSPost2010PropOp31
 70
     1
102
RTVSPost2010Prop32
280
     0
102
RTVSPost2010PropOp32
 70
     1
102
RTVSPost2010Prop33
280
     0
102
RTVSPost2010PropOp33
 70
     1
102
RTVSPost2010Prop34
280
     0
102
RTVSPost2010PropOp34
 70
     1
102
RTVSPost2010Prop35
280
     0
102
RTVSPost2010PropOp35
 70
     1
102
RTVSPost2010Prop36
280
     0
102
RTVSPost2010PropOp36
 70
     1
102
RTVSPost2010Prop37
 90
       50
102
RTVSPost2010PropOp37
 70
     1
102
RTVSPost2010Prop38
140
0.0
102
RTVSPost2010PropOp38
 70
     1
102
RTVSPost2010Prop39
140
1.0
102
RTVSPost2010PropOp39
 70
     1
102
RTVSPost2010Prop40
 90
        0
102
RTVSPost2010PropOp40
 70
     1
102
RTVSPost2010Prop41ColorIndex
 90
       18
102
RTVSPost2010Prop41ColorRGB
 90
        0
102
RTVSPost2010PropOp41
 70
     1
102
RTVSPost2010Prop42
 90
       50
102
RTVSPost2010PropOp42
 70
     1
102
RTVSPost2010Prop43
 90
        3
102
RTVSPost2010PropOp43
 70
     1
102
RTVSPost2010Prop44ColorIndex
 90
        5
102
RTVSPost2010Prop44ColorRGB
 90
      255
102
RTVSPost2010PropOp44
 70
     1
102
RTVSPost2010Prop45
280
     0
102
RTVSPost2010PropOp45
 70
     1
102
RTVSPost2010Prop46
 90
       50
102
RTVSPost2010PropOp46
 70
     1
102
RTVSPost2010Prop47
 90
       50
102
RTVSPost2010PropOp47
 70
     1
102
RTVSPost2010Prop48
 90
       50
102
RTVSPost2010PropOp48
 70
     1
102
RTVSPost2010Prop49
280
     0
102
RTVSPost2010PropOp49
 70
     1
102
RTVSPost2010Prop50
 90
       50
102
RTVSPost2010PropOp50
 70
     1
102
RTVSPost2010Prop51ColorIndex
 90
      256
102
RTVSPost2010Prop51ColorRGB
 90
-16777216
102
RTVSPost2010PropOp51
 70
     0
102
RTVSPost2010Prop52
140
1.0
102
RTVSPost2010PropOp52
 70
     0
102
RTVSPost2010Prop53
 90
        2
102
RTVSPost2010PropOp53
 70
     1
102
RTVSPost2010Prop54
  1
strokes_ogs.tif
102
RTVSPost2010PropOp54
 70
     1
102
RTVSPost2010Prop55
280
     0
102
RTVSPost2010PropOp55
 70
     1
102
RTVSPost2010Prop56
140
1.0
102
RTVSPost2010PropOp56
 70
     1
102
RTVSPost2010Prop57
140
1.0
102
RTVSPost2010PropOp57
 70
     1
102
RTVSPropertyOp0
 70
     1
102
RTVSPropertyOp1
 70
     1
102
RTVSPropertyOp2
 70
     1
102
RTVSPropertyOp3
 70
     1
102
RTVSPropertyOp4
 70
     1
102
RTVSPropertyOp5
 70
     1
102
RTVSPropertyOp6
 70
     1
102
RTVSPropertyOp7
 70
     1
102
RTVSPropertyOp8
 70
     1
102
RTVSPropertyOp9
 70
     1
102
RTVSPropertyOp10
 70
     1
102
RTVSPropertyOp11
 70
     1
102
RTVSPropertyOp12
 70
     1
102
RTVSPropertyOp13
 70
     1
102
RTVSPropertyOp14
 70
     1
102
RTVSPropertyOp15
 70
     1
102
RTVSPropertyOp16
 70
     1
102
RTVSPropertyOp17
 70
     1
102
RTVSPropertyOp18
 70
     1
102
RTVSPropertyOp19
 70
     1
102
RTVSPropertyOp20
 70
     1
102
RTVSPropertyOp21
 70
     1
102
RTVSPropertyOp22
 70
     1
102
RTVSPropertyOp23
 70
     1
102
RTVSPropertyOp24
 70
     1
102
RTVSPropertyOp25
 70
     1
102
RTVSPropertyOp26
 70
     1
102
RTVSPropertyOp27
 70
     1
102
RTVSPropertyOp28
 70
     1
102
RTVSPropertyOp29
 70
     1
102
RTVSPropertyOp30
 70
     1
102
RTVSPropertyOp31
 70
     1
102
RTVSPropertyOp32
 70
     1
102
RTVSPropertyOp33
 70
     1
102
RTVSPropertyOp34
 70
     1
102
RTVSPropertyOp35
 70
     1
102
RTVSPropertyOp36
 70
     1
102
RTVSPropertyOp37
 70
     1
102
RTVSPropertyOp38
 70
     1
102
RTVSPropertyOp39
 70
     1
102
RTVSPropertyOp40
 70
     1
102
RTVSPropertyOp41
 70
     1
102
RTVSPropertyOp42
 70
     1
102
RTVSPropertyOp43
 70
     1
102
RTVSPropertyOp44
 70
     1
102
RTVSPropertyOp45
 70
     1
102
RTVSPropertyOp46
 70
     1
102
RTVSPropertyOp47
 70
     1
102
RTVSPropertyOp48
 70
     1
102
RTVSPropertyOp49
 70
     1
102
RTVSPropertyOp50
 70
     1
102
RTVSPropertyOp51
 70
     0
102
RTVSPropertyOp52
 70
     0
102
RTVSPropertyOp53
 70
     1
102
RTVSPropertyOp54
 70
     1
102
RTVSPropertyOp55
 70
     1
102
RTVSPropertyOp56
 70
     1
102
RTVSPropertyOp57
 70
     1
102
RTVSPropertyOp58
 70
     1
102
RTVSPropertyOp59
 70
     1
102
RTVSPropertyOp60
 70
     1
102
RTVSPropertyOp61
 70
     1
102
RTVSPropertyOp62
 70
     1
  0
XRECORD
  5
213D
102
{ACAD_REACTORS
330
213C
102
}
330
213C
100
AcDbXrecord
280
     1
102
RTVSPost2010Prop28
280
     0
102
RTVSPost2010PropOp28
 70
     1
102
RTVSPost2010Prop29
280
     1
102
RTVSPost2010PropOp29
 70
     1
102
RTVSPost2010Prop30
280
     1
102
RTVSPost2010PropOp30
 70
     1
102
RTVSPost2010Prop31
280
     0
102
RTVSPost2010PropOp31
 70
     1
102
RTVSPost2010Prop32
280
     0
102
RTVSPost2010PropOp32
 70
     1
102
RTVSPost2010Prop33
280
     0
102
RTVSPost2010PropOp33
 70
     1
102
RTVSPost2010Prop34
280
     0
102
RTVSPost2010PropOp34
 70
     1
102
RTVSPost2010Prop35
280
     0
102
RTVSPost2010PropOp35
 70
     1
102
RTVSPost2010Prop36
280
     0
102
RTVSPost2010PropOp36
 70
     1
102
RTVSPost2010Prop37
 90
       50
102
RTVSPost2010PropOp37
 70
     1
102
RTVSPost2010Prop38
140
0.0
102
RTVSPost2010PropOp38
 70
     1
102
RTVSPost2010Prop39
140
1.0
102
RTVSPost2010PropOp39
 70
     1
102
RTVSPost2010Prop40
 90
        0
102
RTVSPost2010PropOp40
 70
     1
102
RTVSPost2010Prop41ColorIndex
 90
       18
102
RTVSPost2010Prop41ColorRGB
 90
        0
102
RTVSPost2010PropOp41
 70
     1
102
RTVSPost2010Prop42
 90
       50
102
RTVSPost2010PropOp42
 70
     1
102
RTVSPost2010Prop43
 90
        3
102
RTVSPost2010PropOp43
 70
     1
102
RTVSPost2010Prop44ColorIndex
 90
        5
102
RTVSPost2010Prop44ColorRGB
 90
      255
102
RTVSPost2010PropOp44
 70
     1
102
RTVSPost2010Prop45
280
     0
102
RTVSPost2010PropOp45
 70
     1
102
RTVSPost2010Prop46
 90
       50
102
RTVSPost2010PropOp46
 70
     1
102
RTVSPost2010Prop47
 90
       50
102
RTVSPost2010PropOp47
 70
     1
102
RTVSPost2010Prop48
 90
       50
102
RTVSPost2010PropOp48
 70
     1
102
RTVSPost2010Prop49
280
     0
102
RTVSPost2010PropOp49
 70
     1
102
RTVSPost2010Prop50
 90
       50
102
RTVSPost2010PropOp50
 70
     1
102
RTVSPost2010Prop51ColorIndex
 90
      256
102
RTVSPost2010Prop51ColorRGB
 90
-16777216
102
RTVSPost2010PropOp51
 70
     0
102
RTVSPost2010Prop52
140
1.0
102
RTVSPost2010PropOp52
 70
     0
102
RTVSPost2010Prop53
 90
        2
102
RTVSPost2010PropOp53
 70
     1
102
RTVSPost2010Prop54
  1
strokes_ogs.tif
102
RTVSPost2010PropOp54
 70
     1
102
RTVSPost2010Prop55
280
     0
102
RTVSPost2010PropOp55
 70
     1
102
RTVSPost2010Prop56
140
1.0
102
RTVSPost2010PropOp56
 70
     1
102
RTVSPost2010Prop57
140
1.0
102
RTVSPost2010PropOp57
 70
     1
102
RTVSPropertyOp0
 70
     0
102
RTVSPropertyOp1
 70
     0
102
RTVSPropertyOp2
 70
     0
102
RTVSPropertyOp3
 70
     0
102
RTVSPropertyOp4
 70
     0
102
RTVSPropertyOp5
 70
     0
102
RTVSPropertyOp6
 70
     0
102
RTVSPropertyOp7
 70
     0
102
RTVSPropertyOp8
 70
     0
102
RTVSPropertyOp9
 70
     0
102
RTVSPropertyOp10
 70
     0
102
RTVSPropertyOp11
 70
     0
102
RTVSPropertyOp12
 70
     0
102
RTVSPropertyOp13
 70
     0
102
RTVSPropertyOp14
 70
     2
102
RTVSPropertyOp15
 70
     0
102
RTVSPropertyOp16
 70
     0
102
RTVSPropertyOp17
 70
     0
102
RTVSPropertyOp18
 70
     0
102
RTVSPropertyOp19
 70
     0
102
RTVSPropertyOp20
 70
     0
102
RTVSPropertyOp21
 70
     0
102
RTVSPropertyOp22
 70
     0
102
RTVSPropertyOp23
 70
     0
102
RTVSPropertyOp24
 70
     0
102
RTVSPropertyOp25
 70
     0
102
RTVSPropertyOp26
 70
     0
102
RTVSPropertyOp27
 70
     0
102
RTVSPropertyOp28
 70
     1
102
RTVSPropertyOp29
 70
     1
102
RTVSPropertyOp30
 70
     1
102
RTVSPropertyOp31
 70
     1
102
RTVSPropertyOp32
 70
     1
102
RTVSPropertyOp33
 70
     1
102
RTVSPropertyOp34
 70
     1
102
RTVSPropertyOp35
 70
     1
102
RTVSPropertyOp36
 70
     1
102
RTVSPropertyOp37
 70
     1
102
RTVSPropertyOp38
 70
     1
102
RTVSPropertyOp39
 70
     1
102
RTVSPropertyOp40
 70
     1
102
RTVSPropertyOp41
 70
     1
102
RTVSPropertyOp42
 70
     1
102
RTVSPropertyOp43
 70
     1
102
RTVSPropertyOp44
 70
     1
102
RTVSPropertyOp45
 70
     1
102
RTVSPropertyOp46
 70
     1
102
RTVSPropertyOp47
 70
     1
102
RTVSPropertyOp48
 70
     1
102
RTVSPropertyOp49
 70
     1
102
RTVSPropertyOp50
 70
     1
102
RTVSPropertyOp51
 70
     0
102
RTVSPropertyOp52
 70
     0
102
RTVSPropertyOp53
 70
     1
102
RTVSPropertyOp54
 70
     1
102
RTVSPropertyOp55
 70
     1
102
RTVSPropertyOp56
 70
     1
102
RTVSPropertyOp57
 70
     1
102
RTVSPropertyOp58
 70
     1
102
RTVSPropertyOp59
 70
     1
102
RTVSPropertyOp60
 70
     1
102
RTVSPropertyOp61
 70
     1
102
RTVSPropertyOp62
 70
     1
  0
XRECORD
  5
2137
102
{ACAD_REACTORS
330
2136
102
}
330
2136
100
AcDbXrecord
280
     1
102
RTVSPost2010Prop28
280
     0
102
RTVSPost2010PropOp28
 70
     1
102
RTVSPost2010Prop29
280
     1
102
RTVSPost2010PropOp29
 70
     1
102
RTVSPost2010Prop30
280
     1
102
RTVSPost2010PropOp30
 70
     1
102
RTVSPost2010Prop31
280
     0
102
RTVSPost2010PropOp31
 70
     1
102
RTVSPost2010Prop32
280
     0
102
RTVSPost2010PropOp32
 70
     1
102
RTVSPost2010Prop33
280
     0
102
RTVSPost2010PropOp33
 70
     1
102
RTVSPost2010Prop34
280
     0
102
RTVSPost2010PropOp34
 70
     1
102
RTVSPost2010Prop35
280
     0
102
RTVSPost2010PropOp35
 70
     1
102
RTVSPost2010Prop36
280
     0
102
RTVSPost2010PropOp36
 70
     1
102
RTVSPost2010Prop37
 90
       50
102
RTVSPost2010PropOp37
 70
     1
102
RTVSPost2010Prop38
140
0.0
102
RTVSPost2010PropOp38
 70
     1
102
RTVSPost2010Prop39
140
1.0
102
RTVSPost2010PropOp39
 70
     1
102
RTVSPost2010Prop40
 90
        0
102
RTVSPost2010PropOp40
 70
     1
102
RTVSPost2010Prop41ColorIndex
 90
       18
102
RTVSPost2010Prop41ColorRGB
 90
        0
102
RTVSPost2010PropOp41
 70
     1
102
RTVSPost2010Prop42
 90
       50
102
RTVSPost2010PropOp42
 70
     1
102
RTVSPost2010Prop43
 90
        3
102
RTVSPost2010PropOp43
 70
     1
102
RTVSPost2010Prop44ColorIndex
 90
        5
102
RTVSPost2010Prop44ColorRGB
 90
      255
102
RTVSPost2010PropOp44
 70
     1
102
RTVSPost2010Prop45
280
     0
102
RTVSPost2010PropOp45
 70
     1
102
RTVSPost2010Prop46
 90
       50
102
RTVSPost2010PropOp46
 70
     1
102
RTVSPost2010Prop47
 90
       50
102
RTVSPost2010PropOp47
 70
     1
102
RTVSPost2010Prop48
 90
       50
102
RTVSPost2010PropOp48
 70
     1
102
RTVSPost2010Prop49
280
     0
102
RTVSPost2010PropOp49
 70
     1
102
RTVSPost2010Prop50
 90
       50
102
RTVSPost2010PropOp50
 70
     1
102
RTVSPost2010Prop51ColorIndex
 90
      256
102
RTVSPost2010Prop51ColorRGB
 90
-16777216
102
RTVSPost2010PropOp51
 70
     0
102
RTVSPost2010Prop52
140
1.0
102
RTVSPost2010PropOp52
 70
     0
102
RTVSPost2010Prop53
 90
        2
102
RTVSPost2010PropOp53
 70
     1
102
RTVSPost2010Prop54
  1
strokes_ogs.tif
102
RTVSPost2010PropOp54
 70
     1
102
RTVSPost2010Prop55
280
     0
102
RTVSPost2010PropOp55
 70
     1
102
RTVSPost2010Prop56
140
1.0
102
RTVSPost2010PropOp56
 70
     1
102
RTVSPost2010Prop57
140
1.0
102
RTVSPost2010PropOp57
 70
     1
102
RTVSPropertyOp0
 70
     1
102
RTVSPropertyOp1
 70
     1
102
RTVSPropertyOp2
 70
     1
102
RTVSPropertyOp3
 70
     1
102
RTVSPropertyOp4
 70
     1
102
RTVSPropertyOp5
 70
     1
102
RTVSPropertyOp6
 70
     1
102
RTVSPropertyOp7
 70
     1
102
RTVSPropertyOp8
 70
     1
102
RTVSPropertyOp9
 70
     1
102
RTVSPropertyOp10
 70
     1
102
RTVSPropertyOp11
 70
     1
102
RTVSPropertyOp12
 70
     1
102
RTVSPropertyOp13
 70
     1
102
RTVSPropertyOp14
 70
     1
102
RTVSPropertyOp15
 70
     1
102
RTVSPropertyOp16
 70
     1
102
RTVSPropertyOp17
 70
     1
102
RTVSPropertyOp18
 70
     1
102
RTVSPropertyOp19
 70
     1
102
RTVSPropertyOp20
 70
     1
102
RTVSPropertyOp21
 70
     1
102
RTVSPropertyOp22
 70
     1
102
RTVSPropertyOp23
 70
     1
102
RTVSPropertyOp24
 70
     1
102
RTVSPropertyOp25
 70
     1
102
RTVSPropertyOp26
 70
     1
102
RTVSPropertyOp27
 70
     1
102
RTVSPropertyOp28
 70
     1
102
RTVSPropertyOp29
 70
     1
102
RTVSPropertyOp30
 70
     1
102
RTVSPropertyOp31
 70
     1
102
RTVSPropertyOp32
 70
     1
102
RTVSPropertyOp33
 70
     1
102
RTVSPropertyOp34
 70
     1
102
RTVSPropertyOp35
 70
     1
102
RTVSPropertyOp36
 70
     1
102
RTVSPropertyOp37
 70
     1
102
RTVSPropertyOp38
 70
     1
102
RTVSPropertyOp39
 70
     1
102
RTVSPropertyOp40
 70
     1
102
RTVSPropertyOp41
 70
     1
102
RTVSPropertyOp42
 70
     1
102
RTVSPropertyOp43
 70
     1
102
RTVSPropertyOp44
 70
     1
102
RTVSPropertyOp45
 70
     1
102
RTVSPropertyOp46
 70
     1
102
RTVSPropertyOp47
 70
     1
102
RTVSPropertyOp48
 70
     1
102
RTVSPropertyOp49
 70
     1
102
RTVSPropertyOp50
 70
     1
102
RTVSPropertyOp51
 70
     0
102
RTVSPropertyOp52
 70
     0
102
RTVSPropertyOp53
 70
     1
102
RTVSPropertyOp54
 70
     1
102
RTVSPropertyOp55
 70
     1
102
RTVSPropertyOp56
 70
     1
102
RTVSPropertyOp57
 70
     1
102
RTVSPropertyOp58
 70
     1
102
RTVSPropertyOp59
 70
     1
102
RTVSPropertyOp60
 70
     1
102
RTVSPropertyOp61
 70
     1
102
RTVSPropertyOp62
 70
     1
  0
XRECORD
  5
213F
102
{ACAD_REACTORS
330
213E
102
}
330
213E
100
AcDbXrecord
280
     1
102
RTVSPost2010Prop28
280
     0
102
RTVSPost2010PropOp28
 70
     1
102
RTVSPost2010Prop29
280
     1
102
RTVSPost2010PropOp29
 70
     1
102
RTVSPost2010Prop30
280
     1
102
RTVSPost2010PropOp30
 70
     1
102
RTVSPost2010Prop31
280
     0
102
RTVSPost2010PropOp31
 70
     1
102
RTVSPost2010Prop32
280
     0
102
RTVSPost2010PropOp32
 70
     1
102
RTVSPost2010Prop33
280
     0
102
RTVSPost2010PropOp33
 70
     1
102
RTVSPost2010Prop34
280
     0
102
RTVSPost2010PropOp34
 70
     1
102
RTVSPost2010Prop35
280
     0
102
RTVSPost2010PropOp35
 70
     1
102
RTVSPost2010Prop36
280
     0
102
RTVSPost2010PropOp36
 70
     1
102
RTVSPost2010Prop37
 90
       50
102
RTVSPost2010PropOp37
 70
     1
102
RTVSPost2010Prop38
140
0.0
102
RTVSPost2010PropOp38
 70
     1
102
RTVSPost2010Prop39
140
1.0
102
RTVSPost2010PropOp39
 70
     1
102
RTVSPost2010Prop40
 90
        0
102
RTVSPost2010PropOp40
 70
     1
102
RTVSPost2010Prop41ColorIndex
 90
       18
102
RTVSPost2010Prop41ColorRGB
 90
        0
102
RTVSPost2010PropOp41
 70
     1
102
RTVSPost2010Prop42
 90
       50
102
RTVSPost2010PropOp42
 70
     1
102
RTVSPost2010Prop43
 90
        3
102
RTVSPost2010PropOp43
 70
     1
102
RTVSPost2010Prop44ColorIndex
 90
        5
102
RTVSPost2010Prop44ColorRGB
 90
      255
102
RTVSPost2010PropOp44
 70
     1
102
RTVSPost2010Prop45
280
     0
102
RTVSPost2010PropOp45
 70
     1
102
RTVSPost2010Prop46
 90
       50
102
RTVSPost2010PropOp46
 70
     1
102
RTVSPost2010Prop47
 90
       50
102
RTVSPost2010PropOp47
 70
     1
102
RTVSPost2010Prop48
 90
       50
102
RTVSPost2010PropOp48
 70
     1
102
RTVSPost2010Prop49
280
     0
102
RTVSPost2010PropOp49
 70
     1
102
RTVSPost2010Prop50
 90
       50
102
RTVSPost2010PropOp50
 70
     1
102
RTVSPost2010Prop51ColorIndex
 90
      256
102
RTVSPost2010Prop51ColorRGB
 90
-16777216
102
RTVSPost2010PropOp51
 70
     0
102
RTVSPost2010Prop52
140
1.0
102
RTVSPost2010PropOp52
 70
     0
102
RTVSPost2010Prop53
 90
        2
102
RTVSPost2010PropOp53
 70
     1
102
RTVSPost2010Prop54
  1
strokes_ogs.tif
102
RTVSPost2010PropOp54
 70
     1
102
RTVSPost2010Prop55
280
     0
102
RTVSPost2010PropOp55
 70
     1
102
RTVSPost2010Prop56
140
1.0
102
RTVSPost2010PropOp56
 70
     1
102
RTVSPost2010Prop57
140
1.0
102
RTVSPost2010PropOp57
 70
     1
102
RTVSPropertyOp0
 70
     0
102
RTVSPropertyOp1
 70
     0
102
RTVSPropertyOp2
 70
     0
102
RTVSPropertyOp3
 70
     0
102
RTVSPropertyOp4
 70
     0
102
RTVSPropertyOp5
 70
     0
102
RTVSPropertyOp6
 70
     0
102
RTVSPropertyOp7
 70
     0
102
RTVSPropertyOp8
 70
     0
102
RTVSPropertyOp9
 70
     0
102
RTVSPropertyOp10
 70
     0
102
RTVSPropertyOp11
 70
     0
102
RTVSPropertyOp12
 70
     0
102
RTVSPropertyOp13
 70
     0
102
RTVSPropertyOp14
 70
     2
102
RTVSPropertyOp15
 70
     0
102
RTVSPropertyOp16
 70
     0
102
RTVSPropertyOp17
 70
     0
102
RTVSPropertyOp18
 70
     0
102
RTVSPropertyOp19
 70
     0
102
RTVSPropertyOp20
 70
     0
102
RTVSPropertyOp21
 70
     0
102
RTVSPropertyOp22
 70
     0
102
RTVSPropertyOp23
 70
     0
102
RTVSPropertyOp24
 70
     0
102
RTVSPropertyOp25
 70
     0
102
RTVSPropertyOp26
 70
     0
102
RTVSPropertyOp27
 70
     0
102
RTVSPropertyOp28
 70
     1
102
RTVSPropertyOp29
 70
     1
102
RTVSPropertyOp30
 70
     1
102
RTVSPropertyOp31
 70
     1
102
RTVSPropertyOp32
 70
     1
102
RTVSPropertyOp33
 70
     1
102
RTVSPropertyOp34
 70
     1
102
RTVSPropertyOp35
 70
     1
102
RTVSPropertyOp36
 70
     1
102
RTVSPropertyOp37
 70
     1
102
RTVSPropertyOp38
 70
     1
102
RTVSPropertyOp39
 70
     1
102
RTVSPropertyOp40
 70
     1
102
RTVSPropertyOp41
 70
     1
102
RTVSPropertyOp42
 70
     1
102
RTVSPropertyOp43
 70
     1
102
RTVSPropertyOp44
 70
     1
102
RTVSPropertyOp45
 70
     1
102
RTVSPropertyOp46
 70
     1
102
RTVSPropertyOp47
 70
     1
102
RTVSPropertyOp48
 70
     1
102
RTVSPropertyOp49
 70
     1
102
RTVSPropertyOp50
 70
     1
102
RTVSPropertyOp51
 70
     0
102
RTVSPropertyOp52
 70
     0
102
RTVSPropertyOp53
 70
     1
102
RTVSPropertyOp54
 70
     1
102
RTVSPropertyOp55
 70
     1
102
RTVSPropertyOp56
 70
     1
102
RTVSPropertyOp57
 70
     1
102
RTVSPropertyOp58
 70
     1
102
RTVSPropertyOp59
 70
     1
102
RTVSPropertyOp60
 70
     1
102
RTVSPropertyOp61
 70
     1
102
RTVSPropertyOp62
 70
     1
  0
XRECORD
  5
212F
102
{ACAD_REACTORS
330
212E
102
}
330
212E
100
AcDbXrecord
280
     1
102
RTVSPost2010Prop28
280
     0
102
RTVSPost2010PropOp28
 70
     1
102
RTVSPost2010Prop29
280
     1
102
RTVSPost2010PropOp29
 70
     1
102
RTVSPost2010Prop30
280
     1
102
RTVSPost2010PropOp30
 70
     1
102
RTVSPost2010Prop31
280
     0
102
RTVSPost2010PropOp31
 70
     1
102
RTVSPost2010Prop32
280
     0
102
RTVSPost2010PropOp32
 70
     1
102
RTVSPost2010Prop33
280
     0
102
RTVSPost2010PropOp33
 70
     1
102
RTVSPost2010Prop34
280
     0
102
RTVSPost2010PropOp34
 70
     1
102
RTVSPost2010Prop35
280
     0
102
RTVSPost2010PropOp35
 70
     1
102
RTVSPost2010Prop36
280
     0
102
RTVSPost2010PropOp36
 70
     1
102
RTVSPost2010Prop37
 90
       50
102
RTVSPost2010PropOp37
 70
     1
102
RTVSPost2010Prop38
140
0.0
102
RTVSPost2010PropOp38
 70
     1
102
RTVSPost2010Prop39
140
1.0
102
RTVSPost2010PropOp39
 70
     1
102
RTVSPost2010Prop40
 90
        0
102
RTVSPost2010PropOp40
 70
     1
102
RTVSPost2010Prop41ColorIndex
 90
       18
102
RTVSPost2010Prop41ColorRGB
 90
        0
102
RTVSPost2010PropOp41
 70
     1
102
RTVSPost2010Prop42
 90
       50
102
RTVSPost2010PropOp42
 70
     1
102
RTVSPost2010Prop43
 90
        3
102
RTVSPost2010PropOp43
 70
     1
102
RTVSPost2010Prop44ColorIndex
 90
        5
102
RTVSPost2010Prop44ColorRGB
 90
      255
102
RTVSPost2010PropOp44
 70
     1
102
RTVSPost2010Prop45
280
     0
102
RTVSPost2010PropOp45
 70
     1
102
RTVSPost2010Prop46
 90
       50
102
RTVSPost2010PropOp46
 70
     1
102
RTVSPost2010Prop47
 90
       50
102
RTVSPost2010PropOp47
 70
     1
102
RTVSPost2010Prop48
 90
       50
102
RTVSPost2010PropOp48
 70
     1
102
RTVSPost2010Prop49
280
     0
102
RTVSPost2010PropOp49
 70
     1
102
RTVSPost2010Prop50
 90
       50
102
RTVSPost2010PropOp50
 70
     1
102
RTVSPost2010Prop51ColorIndex
 90
      256
102
RTVSPost2010Prop51ColorRGB
 90
-16777216
102
RTVSPost2010PropOp51
 70
     0
102
RTVSPost2010Prop52
140
1.0
102
RTVSPost2010PropOp52
 70
     0
102
RTVSPost2010Prop53
 90
        2
102
RTVSPost2010PropOp53
 70
     1
102
RTVSPost2010Prop54
  1
strokes_ogs.tif
102
RTVSPost2010PropOp54
 70
     1
102
RTVSPost2010Prop55
280
     0
102
RTVSPost2010PropOp55
 70
     1
102
RTVSPost2010Prop56
140
1.0
102
RTVSPost2010PropOp56
 70
     1
102
RTVSPost2010Prop57
140
1.0
102
RTVSPost2010PropOp57
 70
     1
102
RTVSPropertyOp0
 70
     1
102
RTVSPropertyOp1
 70
     1
102
RTVSPropertyOp2
 70
     1
102
RTVSPropertyOp3
 70
     1
102
RTVSPropertyOp4
 70
     1
102
RTVSPropertyOp5
 70
     1
102
RTVSPropertyOp6
 70
     1
102
RTVSPropertyOp7
 70
     1
102
RTVSPropertyOp8
 70
     1
102
RTVSPropertyOp9
 70
     1
102
RTVSPropertyOp10
 70
     1
102
RTVSPropertyOp11
 70
     1
102
RTVSPropertyOp12
 70
     1
102
RTVSPropertyOp13
 70
     1
102
RTVSPropertyOp14
 70
     1
102
RTVSPropertyOp15
 70
     1
102
RTVSPropertyOp16
 70
     1
102
RTVSPropertyOp17
 70
     1
102
RTVSPropertyOp18
 70
     1
102
RTVSPropertyOp19
 70
     1
102
RTVSPropertyOp20
 70
     1
102
RTVSPropertyOp21
 70
     1
102
RTVSPropertyOp22
 70
     1
102
RTVSPropertyOp23
 70
     1
102
RTVSPropertyOp24
 70
     1
102
RTVSPropertyOp25
 70
     1
102
RTVSPropertyOp26
 70
     1
102
RTVSPropertyOp27
 70
     1
102
RTVSPropertyOp28
 70
     1
102
RTVSPropertyOp29
 70
     1
102
RTVSPropertyOp30
 70
     1
102
RTVSPropertyOp31
 70
     1
102
RTVSPropertyOp32
 70
     1
102
RTVSPropertyOp33
 70
     1
102
RTVSPropertyOp34
 70
     1
102
RTVSPropertyOp35
 70
     1
102
RTVSPropertyOp36
 70
     1
102
RTVSPropertyOp37
 70
     1
102
RTVSPropertyOp38
 70
     1
102
RTVSPropertyOp39
 70
     1
102
RTVSPropertyOp40
 70
     1
102
RTVSPropertyOp41
 70
     1
102
RTVSPropertyOp42
 70
     1
102
RTVSPropertyOp43
 70
     1
102
RTVSPropertyOp44
 70
     1
102
RTVSPropertyOp45
 70
     1
102
RTVSPropertyOp46
 70
     1
102
RTVSPropertyOp47
 70
     1
102
RTVSPropertyOp48
 70
     1
102
RTVSPropertyOp49
 70
     1
102
RTVSPropertyOp50
 70
     1
102
RTVSPropertyOp51
 70
     0
102
RTVSPropertyOp52
 70
     0
102
RTVSPropertyOp53
 70
     1
102
RTVSPropertyOp54
 70
     1
102
RTVSPropertyOp55
 70
     1
102
RTVSPropertyOp56
 70
     1
102
RTVSPropertyOp57
 70
     1
102
RTVSPropertyOp58
 70
     1
102
RTVSPropertyOp59
 70
     1
102
RTVSPropertyOp60
 70
     1
102
RTVSPropertyOp61
 70
     1
102
RTVSPropertyOp62
 70
     1
  0
XRECORD
  5
214B
102
{ACAD_REACTORS
330
214A
102
}
330
214A
100
AcDbXrecord
280
     1
102
RTVSPost2010Prop28
280
     0
102
RTVSPost2010PropOp28
 70
     1
102
RTVSPost2010Prop29
280
     1
102
RTVSPost2010PropOp29
 70
     1
102
RTVSPost2010Prop30
280
     1
102
RTVSPost2010PropOp30
 70
     1
102
RTVSPost2010Prop31
280
     0
102
RTVSPost2010PropOp31
 70
     1
102
RTVSPost2010Prop32
280
     0
102
RTVSPost2010PropOp32
 70
     1
102
RTVSPost2010Prop33
280
     0
102
RTVSPost2010PropOp33
 70
     1
102
RTVSPost2010Prop34
280
     0
102
RTVSPost2010PropOp34
 70
     1
102
RTVSPost2010Prop35
280
     0
102
RTVSPost2010PropOp35
 70
     1
102
RTVSPost2010Prop36
280
     0
102
RTVSPost2010PropOp36
 70
     1
102
RTVSPost2010Prop37
 90
       50
102
RTVSPost2010PropOp37
 70
     1
102
RTVSPost2010Prop38
140
0.0
102
RTVSPost2010PropOp38
 70
     1
102
RTVSPost2010Prop39
140
1.0
102
RTVSPost2010PropOp39
 70
     1
102
RTVSPost2010Prop40
 90
        0
102
RTVSPost2010PropOp40
 70
     1
102
RTVSPost2010Prop41ColorIndex
 90
       18
102
RTVSPost2010Prop41ColorRGB
 90
        0
102
RTVSPost2010PropOp41
 70
     1
102
RTVSPost2010Prop42
 90
       50
102
RTVSPost2010PropOp42
 70
     1
102
RTVSPost2010Prop43
 90
        3
102
RTVSPost2010PropOp43
 70
     1
102
RTVSPost2010Prop44ColorIndex
 90
        5
102
RTVSPost2010Prop44ColorRGB
 90
      255
102
RTVSPost2010PropOp44
 70
     1
102
RTVSPost2010Prop45
280
     0
102
RTVSPost2010PropOp45
 70
     1
102
RTVSPost2010Prop46
 90
       50
102
RTVSPost2010PropOp46
 70
     1
102
RTVSPost2010Prop47
 90
       50
102
RTVSPost2010PropOp47
 70
     1
102
RTVSPost2010Prop48
 90
       50
102
RTVSPost2010PropOp48
 70
     1
102
RTVSPost2010Prop49
280
     0
102
RTVSPost2010PropOp49
 70
     1
102
RTVSPost2010Prop50
 90
       50
102
RTVSPost2010PropOp50
 70
     1
102
RTVSPost2010Prop51ColorIndex
 90
      256
102
RTVSPost2010Prop51ColorRGB
 90
-16777216
102
RTVSPost2010PropOp51
 70
     0
102
RTVSPost2010Prop52
140
1.0
102
RTVSPost2010PropOp52
 70
     0
102
RTVSPost2010Prop53
 90
        2
102
RTVSPost2010PropOp53
 70
     1
102
RTVSPost2010Prop54
  1
strokes_ogs.tif
102
RTVSPost2010PropOp54
 70
     1
102
RTVSPost2010Prop55
280
     0
102
RTVSPost2010PropOp55
 70
     1
102
RTVSPost2010Prop56
140
1.0
102
RTVSPost2010PropOp56
 70
     1
102
RTVSPost2010Prop57
140
1.0
102
RTVSPost2010PropOp57
 70
     1
102
RTVSPropertyOp0
 70
     1
102
RTVSPropertyOp1
 70
     1
102
RTVSPropertyOp2
 70
     1
102
RTVSPropertyOp3
 70
     1
102
RTVSPropertyOp4
 70
     1
102
RTVSPropertyOp5
 70
     1
102
RTVSPropertyOp6
 70
     1
102
RTVSPropertyOp7
 70
     1
102
RTVSPropertyOp8
 70
     1
102
RTVSPropertyOp9
 70
     1
102
RTVSPropertyOp10
 70
     1
102
RTVSPropertyOp11
 70
     1
102
RTVSPropertyOp12
 70
     1
102
RTVSPropertyOp13
 70
     1
102
RTVSPropertyOp14
 70
     1
102
RTVSPropertyOp15
 70
     1
102
RTVSPropertyOp16
 70
     1
102
RTVSPropertyOp17
 70
     1
102
RTVSPropertyOp18
 70
     1
102
RTVSPropertyOp19
 70
     1
102
RTVSPropertyOp20
 70
     1
102
RTVSPropertyOp21
 70
     1
102
RTVSPropertyOp22
 70
     1
102
RTVSPropertyOp23
 70
     1
102
RTVSPropertyOp24
 70
     1
102
RTVSPropertyOp25
 70
     1
102
RTVSPropertyOp26
 70
     1
102
RTVSPropertyOp27
 70
     1
102
RTVSPropertyOp28
 70
     1
102
RTVSPropertyOp29
 70
     1
102
RTVSPropertyOp30
 70
     1
102
RTVSPropertyOp31
 70
     1
102
RTVSPropertyOp32
 70
     1
102
RTVSPropertyOp33
 70
     1
102
RTVSPropertyOp34
 70
     1
102
RTVSPropertyOp35
 70
     1
102
RTVSPropertyOp36
 70
     1
102
RTVSPropertyOp37
 70
     1
102
RTVSPropertyOp38
 70
     1
102
RTVSPropertyOp39
 70
     1
102
RTVSPropertyOp40
 70
     1
102
RTVSPropertyOp41
 70
     1
102
RTVSPropertyOp42
 70
     1
102
RTVSPropertyOp43
 70
     1
102
RTVSPropertyOp44
 70
     1
102
RTVSPropertyOp45
 70
     1
102
RTVSPropertyOp46
 70
     1
102
RTVSPropertyOp47
 70
     1
102
RTVSPropertyOp48
 70
     1
102
RTVSPropertyOp49
 70
     1
102
RTVSPropertyOp50
 70
     1
102
RTVSPropertyOp51
 70
     0
102
RTVSPropertyOp52
 70
     0
102
RTVSPropertyOp53
 70
     1
102
RTVSPropertyOp54
 70
     1
102
RTVSPropertyOp55
 70
     1
102
RTVSPropertyOp56
 70
     1
102
RTVSPropertyOp57
 70
     1
102
RTVSPropertyOp58
 70
     1
102
RTVSPropertyOp59
 70
     1
102
RTVSPropertyOp60
 70
     1
102
RTVSPropertyOp61
 70
     1
102
RTVSPropertyOp62
 70
     1
  0
XRECORD
  5
2149
102
{ACAD_REACTORS
330
2148
102
}
330
2148
100
AcDbXrecord
280
     1
102
RTVSPost2010Prop28
280
     0
102
RTVSPost2010PropOp28
 70
     1
102
RTVSPost2010Prop29
280
     1
102
RTVSPost2010PropOp29
 70
     1
102
RTVSPost2010Prop30
280
     1
102
RTVSPost2010PropOp30
 70
     1
102
RTVSPost2010Prop31
280
     0
102
RTVSPost2010PropOp31
 70
     1
102
RTVSPost2010Prop32
280
     0
102
RTVSPost2010PropOp32
 70
     1
102
RTVSPost2010Prop33
280
     0
102
RTVSPost2010PropOp33
 70
     1
102
RTVSPost2010Prop34
280
     0
102
RTVSPost2010PropOp34
 70
     1
102
RTVSPost2010Prop35
280
     0
102
RTVSPost2010PropOp35
 70
     1
102
RTVSPost2010Prop36
280
     0
102
RTVSPost2010PropOp36
 70
     1
102
RTVSPost2010Prop37
 90
       50
102
RTVSPost2010PropOp37
 70
     1
102
RTVSPost2010Prop38
140
0.0
102
RTVSPost2010PropOp38
 70
     1
102
RTVSPost2010Prop39
140
1.0
102
RTVSPost2010PropOp39
 70
     1
102
RTVSPost2010Prop40
 90
        0
102
RTVSPost2010PropOp40
 70
     1
102
RTVSPost2010Prop41ColorIndex
 90
       18
102
RTVSPost2010Prop41ColorRGB
 90
        0
102
RTVSPost2010PropOp41
 70
     1
102
RTVSPost2010Prop42
 90
       50
102
RTVSPost2010PropOp42
 70
     1
102
RTVSPost2010Prop43
 90
        3
102
RTVSPost2010PropOp43
 70
     1
102
RTVSPost2010Prop44ColorIndex
 90
        5
102
RTVSPost2010Prop44ColorRGB
 90
      255
102
RTVSPost2010PropOp44
 70
     1
102
RTVSPost2010Prop45
280
     0
102
RTVSPost2010PropOp45
 70
     1
102
RTVSPost2010Prop46
 90
       50
102
RTVSPost2010PropOp46
 70
     1
102
RTVSPost2010Prop47
 90
       50
102
RTVSPost2010PropOp47
 70
     1
102
RTVSPost2010Prop48
 90
       50
102
RTVSPost2010PropOp48
 70
     1
102
RTVSPost2010Prop49
280
     0
102
RTVSPost2010PropOp49
 70
     1
102
RTVSPost2010Prop50
 90
       50
102
RTVSPost2010PropOp50
 70
     1
102
RTVSPost2010Prop51ColorIndex
 90
      256
102
RTVSPost2010Prop51ColorRGB
 90
-16777216
102
RTVSPost2010PropOp51
 70
     0
102
RTVSPost2010Prop52
140
1.0
102
RTVSPost2010PropOp52
 70
     0
102
RTVSPost2010Prop53
 90
        2
102
RTVSPost2010PropOp53
 70
     1
102
RTVSPost2010Prop54
  1
strokes_ogs.tif
102
RTVSPost2010PropOp54
 70
     1
102
RTVSPost2010Prop55
280
     0
102
RTVSPost2010PropOp55
 70
     1
102
RTVSPost2010Prop56
140
1.0
102
RTVSPost2010PropOp56
 70
     1
102
RTVSPost2010Prop57
140
1.0
102
RTVSPost2010PropOp57
 70
     1
102
RTVSPropertyOp0
 70
     1
102
RTVSPropertyOp1
 70
     1
102
RTVSPropertyOp2
 70
     1
102
RTVSPropertyOp3
 70
     1
102
RTVSPropertyOp4
 70
     1
102
RTVSPropertyOp5
 70
     1
102
RTVSPropertyOp6
 70
     1
102
RTVSPropertyOp7
 70
     1
102
RTVSPropertyOp8
 70
     1
102
RTVSPropertyOp9
 70
     1
102
RTVSPropertyOp10
 70
     1
102
RTVSPropertyOp11
 70
     1
102
RTVSPropertyOp12
 70
     1
102
RTVSPropertyOp13
 70
     1
102
RTVSPropertyOp14
 70
     1
102
RTVSPropertyOp15
 70
     1
102
RTVSPropertyOp16
 70
     1
102
RTVSPropertyOp17
 70
     1
102
RTVSPropertyOp18
 70
     1
102
RTVSPropertyOp19
 70
     1
102
RTVSPropertyOp20
 70
     1
102
RTVSPropertyOp21
 70
     1
102
RTVSPropertyOp22
 70
     1
102
RTVSPropertyOp23
 70
     1
102
RTVSPropertyOp24
 70
     1
102
RTVSPropertyOp25
 70
     1
102
RTVSPropertyOp26
 70
     1
102
RTVSPropertyOp27
 70
     1
102
RTVSPropertyOp28
 70
     1
102
RTVSPropertyOp29
 70
     1
102
RTVSPropertyOp30
 70
     1
102
RTVSPropertyOp31
 70
     1
102
RTVSPropertyOp32
 70
     1
102
RTVSPropertyOp33
 70
     1
102
RTVSPropertyOp34
 70
     1
102
RTVSPropertyOp35
 70
     1
102
RTVSPropertyOp36
 70
     1
102
RTVSPropertyOp37
 70
     1
102
RTVSPropertyOp38
 70
     1
102
RTVSPropertyOp39
 70
     1
102
RTVSPropertyOp40
 70
     1
102
RTVSPropertyOp41
 70
     1
102
RTVSPropertyOp42
 70
     1
102
RTVSPropertyOp43
 70
     1
102
RTVSPropertyOp44
 70
     1
102
RTVSPropertyOp45
 70
     1
102
RTVSPropertyOp46
 70
     1
102
RTVSPropertyOp47
 70
     1
102
RTVSPropertyOp48
 70
     1
102
RTVSPropertyOp49
 70
     1
102
RTVSPropertyOp50
 70
     1
102
RTVSPropertyOp51
 70
     0
102
RTVSPropertyOp52
 70
     0
102
RTVSPropertyOp53
 70
     1
102
RTVSPropertyOp54
 70
     1
102
RTVSPropertyOp55
 70
     1
102
RTVSPropertyOp56
 70
     1
102
RTVSPropertyOp57
 70
     1
102
RTVSPropertyOp58
 70
     1
102
RTVSPropertyOp59
 70
     1
102
RTVSPropertyOp60
 70
     1
102
RTVSPropertyOp61
 70
     1
102
RTVSPropertyOp62
 70
     1
  0
XRECORD
  5
2143
102
{ACAD_REACTORS
330
2142
102
}
330
2142
100
AcDbXrecord
280
     1
102
RTVSPost2010Prop28
280
     0
102
RTVSPost2010PropOp28
 70
     1
102
RTVSPost2010Prop29
280
     1
102
RTVSPost2010PropOp29
 70
     1
102
RTVSPost2010Prop30
280
     1
102
RTVSPost2010PropOp30
 70
     1
102
RTVSPost2010Prop31
280
     0
102
RTVSPost2010PropOp31
 70
     1
102
RTVSPost2010Prop32
280
     0
102
RTVSPost2010PropOp32
 70
     1
102
RTVSPost2010Prop33
280
     0
102
RTVSPost2010PropOp33
 70
     1
102
RTVSPost2010Prop34
280
     0
102
RTVSPost2010PropOp34
 70
     1
102
RTVSPost2010Prop35
280
     0
102
RTVSPost2010PropOp35
 70
     1
102
RTVSPost2010Prop36
280
     0
102
RTVSPost2010PropOp36
 70
     1
102
RTVSPost2010Prop37
 90
       50
102
RTVSPost2010PropOp37
 70
     1
102
RTVSPost2010Prop38
140
0.0
102
RTVSPost2010PropOp38
 70
     1
102
RTVSPost2010Prop39
140
1.0
102
RTVSPost2010PropOp39
 70
     1
102
RTVSPost2010Prop40
 90
        0
102
RTVSPost2010PropOp40
 70
     1
102
RTVSPost2010Prop41ColorIndex
 90
       18
102
RTVSPost2010Prop41ColorRGB
 90
        0
102
RTVSPost2010PropOp41
 70
     1
102
RTVSPost2010Prop42
 90
       50
102
RTVSPost2010PropOp42
 70
     1
102
RTVSPost2010Prop43
 90
        3
102
RTVSPost2010PropOp43
 70
     1
102
RTVSPost2010Prop44ColorIndex
 90
        5
102
RTVSPost2010Prop44ColorRGB
 90
      255
102
RTVSPost2010PropOp44
 70
     1
102
RTVSPost2010Prop45
280
     0
102
RTVSPost2010PropOp45
 70
     1
102
RTVSPost2010Prop46
 90
       50
102
RTVSPost2010PropOp46
 70
     1
102
RTVSPost2010Prop47
 90
       50
102
RTVSPost2010PropOp47
 70
     1
102
RTVSPost2010Prop48
 90
       50
102
RTVSPost2010PropOp48
 70
     1
102
RTVSPost2010Prop49
280
     0
102
RTVSPost2010PropOp49
 70
     1
102
RTVSPost2010Prop50
 90
       50
102
RTVSPost2010PropOp50
 70
     1
102
RTVSPost2010Prop51ColorIndex
 90
      256
102
RTVSPost2010Prop51ColorRGB
 90
-16777216
102
RTVSPost2010PropOp51
 70
     0
102
RTVSPost2010Prop52
140
1.0
102
RTVSPost2010PropOp52
 70
     0
102
RTVSPost2010Prop53
 90
        2
102
RTVSPost2010PropOp53
 70
     1
102
RTVSPost2010Prop54
  1
strokes_ogs.tif
102
RTVSPost2010PropOp54
 70
     1
102
RTVSPost2010Prop55
280
     0
102
RTVSPost2010PropOp55
 70
     1
102
RTVSPost2010Prop56
140
1.0
102
RTVSPost2010PropOp56
 70
     1
102
RTVSPost2010Prop57
140
1.0
102
RTVSPost2010PropOp57
 70
     1
102
RTVSPropertyOp0
 70
     1
102
RTVSPropertyOp1
 70
     1
102
RTVSPropertyOp2
 70
     1
102
RTVSPropertyOp3
 70
     1
102
RTVSPropertyOp4
 70
     1
102
RTVSPropertyOp5
 70
     1
102
RTVSPropertyOp6
 70
     1
102
RTVSPropertyOp7
 70
     1
102
RTVSPropertyOp8
 70
     1
102
RTVSPropertyOp9
 70
     1
102
RTVSPropertyOp10
 70
     1
102
RTVSPropertyOp11
 70
     1
102
RTVSPropertyOp12
 70
     1
102
RTVSPropertyOp13
 70
     1
102
RTVSPropertyOp14
 70
     1
102
RTVSPropertyOp15
 70
     1
102
RTVSPropertyOp16
 70
     1
102
RTVSPropertyOp17
 70
     1
102
RTVSPropertyOp18
 70
     1
102
RTVSPropertyOp19
 70
     1
102
RTVSPropertyOp20
 70
     1
102
RTVSPropertyOp21
 70
     1
102
RTVSPropertyOp22
 70
     1
102
RTVSPropertyOp23
 70
     1
102
RTVSPropertyOp24
 70
     1
102
RTVSPropertyOp25
 70
     1
102
RTVSPropertyOp26
 70
     1
102
RTVSPropertyOp27
 70
     1
102
RTVSPropertyOp28
 70
     1
102
RTVSPropertyOp29
 70
     1
102
RTVSPropertyOp30
 70
     1
102
RTVSPropertyOp31
 70
     1
102
RTVSPropertyOp32
 70
     1
102
RTVSPropertyOp33
 70
     1
102
RTVSPropertyOp34
 70
     1
102
RTVSPropertyOp35
 70
     1
102
RTVSPropertyOp36
 70
     1
102
RTVSPropertyOp37
 70
     1
102
RTVSPropertyOp38
 70
     1
102
RTVSPropertyOp39
 70
     1
102
RTVSPropertyOp40
 70
     1
102
RTVSPropertyOp41
 70
     1
102
RTVSPropertyOp42
 70
     1
102
RTVSPropertyOp43
 70
     1
102
RTVSPropertyOp44
 70
     1
102
RTVSPropertyOp45
 70
     1
102
RTVSPropertyOp46
 70
     1
102
RTVSPropertyOp47
 70
     1
102
RTVSPropertyOp48
 70
     1
102
RTVSPropertyOp49
 70
     1
102
RTVSPropertyOp50
 70
     1
102
RTVSPropertyOp51
 70
     0
102
RTVSPropertyOp52
 70
     0
102
RTVSPropertyOp53
 70
     1
102
RTVSPropertyOp54
 70
     1
102
RTVSPropertyOp55
 70
     1
102
RTVSPropertyOp56
 70
     1
102
RTVSPropertyOp57
 70
     1
102
RTVSPropertyOp58
 70
     1
102
RTVSPropertyOp59
 70
     1
102
RTVSPropertyOp60
 70
     1
102
RTVSPropertyOp61
 70
     1
102
RTVSPropertyOp62
 70
     1
  0
XRECORD
  5
2145
102
{ACAD_REACTORS
330
2144
102
}
330
2144
100
AcDbXrecord
280
     1
102
RTVSPost2010Prop28
280
     0
102
RTVSPost2010PropOp28
 70
     1
102
RTVSPost2010Prop29
280
     1
102
RTVSPost2010PropOp29
 70
     1
102
RTVSPost2010Prop30
280
     1
102
RTVSPost2010PropOp30
 70
     1
102
RTVSPost2010Prop31
280
     0
102
RTVSPost2010PropOp31
 70
     1
102
RTVSPost2010Prop32
280
     0
102
RTVSPost2010PropOp32
 70
     1
102
RTVSPost2010Prop33
280
     0
102
RTVSPost2010PropOp33
 70
     1
102
RTVSPost2010Prop34
280
     0
102
RTVSPost2010PropOp34
 70
     1
102
RTVSPost2010Prop35
280
     0
102
RTVSPost2010PropOp35
 70
     1
102
RTVSPost2010Prop36
280
     0
102
RTVSPost2010PropOp36
 70
     1
102
RTVSPost2010Prop37
 90
       50
102
RTVSPost2010PropOp37
 70
     1
102
RTVSPost2010Prop38
140
0.0
102
RTVSPost2010PropOp38
 70
     1
102
RTVSPost2010Prop39
140
1.0
102
RTVSPost2010PropOp39
 70
     1
102
RTVSPost2010Prop40
 90
        0
102
RTVSPost2010PropOp40
 70
     1
102
RTVSPost2010Prop41ColorIndex
 90
       18
102
RTVSPost2010Prop41ColorRGB
 90
        0
102
RTVSPost2010PropOp41
 70
     1
102
RTVSPost2010Prop42
 90
       50
102
RTVSPost2010PropOp42
 70
     1
102
RTVSPost2010Prop43
 90
        3
102
RTVSPost2010PropOp43
 70
     1
102
RTVSPost2010Prop44ColorIndex
 90
        5
102
RTVSPost2010Prop44ColorRGB
 90
      255
102
RTVSPost2010PropOp44
 70
     1
102
RTVSPost2010Prop45
280
     0
102
RTVSPost2010PropOp45
 70
     1
102
RTVSPost2010Prop46
 90
       50
102
RTVSPost2010PropOp46
 70
     1
102
RTVSPost2010Prop47
 90
       50
102
RTVSPost2010PropOp47
 70
     1
102
RTVSPost2010Prop48
 90
       50
102
RTVSPost2010PropOp48
 70
     1
102
RTVSPost2010Prop49
280
     0
102
RTVSPost2010PropOp49
 70
     1
102
RTVSPost2010Prop50
 90
       50
102
RTVSPost2010PropOp50
 70
     1
102
RTVSPost2010Prop51ColorIndex
 90
      256
102
RTVSPost2010Prop51ColorRGB
 90
-16777216
102
RTVSPost2010PropOp51
 70
     0
102
RTVSPost2010Prop52
140
1.0
102
RTVSPost2010PropOp52
 70
     0
102
RTVSPost2010Prop53
 90
        2
102
RTVSPost2010PropOp53
 70
     1
102
RTVSPost2010Prop54
  1
strokes_ogs.tif
102
RTVSPost2010PropOp54
 70
     1
102
RTVSPost2010Prop55
280
     0
102
RTVSPost2010PropOp55
 70
     1
102
RTVSPost2010Prop56
140
1.0
102
RTVSPost2010PropOp56
 70
     1
102
RTVSPost2010Prop57
140
1.0
102
RTVSPost2010PropOp57
 70
     1
102
RTVSPropertyOp0
 70
     1
102
RTVSPropertyOp1
 70
     1
102
RTVSPropertyOp2
 70
     1
102
RTVSPropertyOp3
 70
     1
102
RTVSPropertyOp4
 70
     1
102
RTVSPropertyOp5
 70
     1
102
RTVSPropertyOp6
 70
     1
102
RTVSPropertyOp7
 70
     1
102
RTVSPropertyOp8
 70
     1
102
RTVSPropertyOp9
 70
     1
102
RTVSPropertyOp10
 70
     1
102
RTVSPropertyOp11
 70
     1
102
RTVSPropertyOp12
 70
     1
102
RTVSPropertyOp13
 70
     1
102
RTVSPropertyOp14
 70
     1
102
RTVSPropertyOp15
 70
     1
102
RTVSPropertyOp16
 70
     1
102
RTVSPropertyOp17
 70
     1
102
RTVSPropertyOp18
 70
     1
102
RTVSPropertyOp19
 70
     1
102
RTVSPropertyOp20
 70
     1
102
RTVSPropertyOp21
 70
     1
102
RTVSPropertyOp22
 70
     1
102
RTVSPropertyOp23
 70
     1
102
RTVSPropertyOp24
 70
     1
102
RTVSPropertyOp25
 70
     1
102
RTVSPropertyOp26
 70
     1
102
RTVSPropertyOp27
 70
     1
102
RTVSPropertyOp28
 70
     1
102
RTVSPropertyOp29
 70
     1
102
RTVSPropertyOp30
 70
     1
102
RTVSPropertyOp31
 70
     1
102
RTVSPropertyOp32
 70
     1
102
RTVSPropertyOp33
 70
     1
102
RTVSPropertyOp34
 70
     1
102
RTVSPropertyOp35
 70
     1
102
RTVSPropertyOp36
 70
     1
102
RTVSPropertyOp37
 70
     1
102
RTVSPropertyOp38
 70
     1
102
RTVSPropertyOp39
 70
     1
102
RTVSPropertyOp40
 70
     1
102
RTVSPropertyOp41
 70
     1
102
RTVSPropertyOp42
 70
     1
102
RTVSPropertyOp43
 70
     1
102
RTVSPropertyOp44
 70
     1
102
RTVSPropertyOp45
 70
     1
102
RTVSPropertyOp46
 70
     1
102
RTVSPropertyOp47
 70
     1
102
RTVSPropertyOp48
 70
     1
102
RTVSPropertyOp49
 70
     1
102
RTVSPropertyOp50
 70
     1
102
RTVSPropertyOp51
 70
     0
102
RTVSPropertyOp52
 70
     0
102
RTVSPropertyOp53
 70
     1
102
RTVSPropertyOp54
 70
     1
102
RTVSPropertyOp55
 70
     1
102
RTVSPropertyOp56
 70
     1
102
RTVSPropertyOp57
 70
     1
102
RTVSPropertyOp58
 70
     1
102
RTVSPropertyOp59
 70
     1
102
RTVSPropertyOp60
 70
     1
102
RTVSPropertyOp61
 70
     1
102
RTVSPropertyOp62
 70
     1
  0
XRECORD
  5
2135
102
{ACAD_REACTORS
330
2134
102
}
330
2134
100
AcDbXrecord
280
     1
102
RTVSPost2010Prop28
280
     0
102
RTVSPost2010PropOp28
 70
     1
102
RTVSPost2010Prop29
280
     1
102
RTVSPost2010PropOp29
 70
     1
102
RTVSPost2010Prop30
280
     1
102
RTVSPost2010PropOp30
 70
     1
102
RTVSPost2010Prop31
280
     0
102
RTVSPost2010PropOp31
 70
     1
102
RTVSPost2010Prop32
280
     0
102
RTVSPost2010PropOp32
 70
     1
102
RTVSPost2010Prop33
280
     0
102
RTVSPost2010PropOp33
 70
     1
102
RTVSPost2010Prop34
280
     0
102
RTVSPost2010PropOp34
 70
     1
102
RTVSPost2010Prop35
280
     0
102
RTVSPost2010PropOp35
 70
     1
102
RTVSPost2010Prop36
280
     0
102
RTVSPost2010PropOp36
 70
     1
102
RTVSPost2010Prop37
 90
       50
102
RTVSPost2010PropOp37
 70
     1
102
RTVSPost2010Prop38
140
0.0
102
RTVSPost2010PropOp38
 70
     1
102
RTVSPost2010Prop39
140
1.0
102
RTVSPost2010PropOp39
 70
     1
102
RTVSPost2010Prop40
 90
        0
102
RTVSPost2010PropOp40
 70
     1
102
RTVSPost2010Prop41ColorIndex
 90
       18
102
RTVSPost2010Prop41ColorRGB
 90
        0
102
RTVSPost2010PropOp41
 70
     1
102
RTVSPost2010Prop42
 90
       50
102
RTVSPost2010PropOp42
 70
     1
102
RTVSPost2010Prop43
 90
        3
102
RTVSPost2010PropOp43
 70
     1
102
RTVSPost2010Prop44ColorIndex
 90
        5
102
RTVSPost2010Prop44ColorRGB
 90
      255
102
RTVSPost2010PropOp44
 70
     1
102
RTVSPost2010Prop45
280
     0
102
RTVSPost2010PropOp45
 70
     1
102
RTVSPost2010Prop46
 90
       50
102
RTVSPost2010PropOp46
 70
     1
102
RTVSPost2010Prop47
 90
       50
102
RTVSPost2010PropOp47
 70
     1
102
RTVSPost2010Prop48
 90
       50
102
RTVSPost2010PropOp48
 70
     1
102
RTVSPost2010Prop49
280
     0
102
RTVSPost2010PropOp49
 70
     1
102
RTVSPost2010Prop50
 90
       50
102
RTVSPost2010PropOp50
 70
     1
102
RTVSPost2010Prop51ColorIndex
 90
      256
102
RTVSPost2010Prop51ColorRGB
 90
-16777216
102
RTVSPost2010PropOp51
 70
     0
102
RTVSPost2010Prop52
140
1.0
102
RTVSPost2010PropOp52
 70
     0
102
RTVSPost2010Prop53
 90
        2
102
RTVSPost2010PropOp53
 70
     1
102
RTVSPost2010Prop54
  1
strokes_ogs.tif
102
RTVSPost2010PropOp54
 70
     1
102
RTVSPost2010Prop55
280
     0
102
RTVSPost2010PropOp55
 70
     1
102
RTVSPost2010Prop56
140
1.0
102
RTVSPost2010PropOp56
 70
     1
102
RTVSPost2010Prop57
140
1.0
102
RTVSPost2010PropOp57
 70
     1
102
RTVSPropertyOp0
 70
     1
102
RTVSPropertyOp1
 70
     1
102
RTVSPropertyOp2
 70
     1
102
RTVSPropertyOp3
 70
     1
102
RTVSPropertyOp4
 70
     1
102
RTVSPropertyOp5
 70
     1
102
RTVSPropertyOp6
 70
     1
102
RTVSPropertyOp7
 70
     1
102
RTVSPropertyOp8
 70
     1
102
RTVSPropertyOp9
 70
     1
102
RTVSPropertyOp10
 70
     1
102
RTVSPropertyOp11
 70
     1
102
RTVSPropertyOp12
 70
     1
102
RTVSPropertyOp13
 70
     1
102
RTVSPropertyOp14
 70
     1
102
RTVSPropertyOp15
 70
     1
102
RTVSPropertyOp16
 70
     1
102
RTVSPropertyOp17
 70
     1
102
RTVSPropertyOp18
 70
     1
102
RTVSPropertyOp19
 70
     1
102
RTVSPropertyOp20
 70
     1
102
RTVSPropertyOp21
 70
     1
102
RTVSPropertyOp22
 70
     1
102
RTVSPropertyOp23
 70
     1
102
RTVSPropertyOp24
 70
     1
102
RTVSPropertyOp25
 70
     1
102
RTVSPropertyOp26
 70
     1
102
RTVSPropertyOp27
 70
     1
102
RTVSPropertyOp28
 70
     1
102
RTVSPropertyOp29
 70
     1
102
RTVSPropertyOp30
 70
     1
102
RTVSPropertyOp31
 70
     1
102
RTVSPropertyOp32
 70
     1
102
RTVSPropertyOp33
 70
     1
102
RTVSPropertyOp34
 70
     1
102
RTVSPropertyOp35
 70
     1
102
RTVSPropertyOp36
 70
     1
102
RTVSPropertyOp37
 70
     1
102
RTVSPropertyOp38
 70
     1
102
RTVSPropertyOp39
 70
     1
102
RTVSPropertyOp40
 70
     1
102
RTVSPropertyOp41
 70
     1
102
RTVSPropertyOp42
 70
     1
102
RTVSPropertyOp43
 70
     1
102
RTVSPropertyOp44
 70
     1
102
RTVSPropertyOp45
 70
     1
102
RTVSPropertyOp46
 70
     1
102
RTVSPropertyOp47
 70
     1
102
RTVSPropertyOp48
 70
     1
102
RTVSPropertyOp49
 70
     1
102
RTVSPropertyOp50
 70
     1
102
RTVSPropertyOp51
 70
     0
102
RTVSPropertyOp52
 70
     0
102
RTVSPropertyOp53
 70
     1
102
RTVSPropertyOp54
 70
     1
102
RTVSPropertyOp55
 70
     1
102
RTVSPropertyOp56
 70
     1
102
RTVSPropertyOp57
 70
     1
102
RTVSPropertyOp58
 70
     1
102
RTVSPropertyOp59
 70
     1
102
RTVSPropertyOp60
 70
     1
102
RTVSPropertyOp61
 70
     1
102
RTVSPropertyOp62
 70
     1
  0
XRECORD
  5
2129
102
{ACAD_REACTORS
330
2128
102
}
330
2128
100
AcDbXrecord
280
     1
102
RTVSPost2010Prop28
280
     0
102
RTVSPost2010PropOp28
 70
     1
102
RTVSPost2010Prop29
280
     1
102
RTVSPost2010PropOp29
 70
     1
102
RTVSPost2010Prop30
280
     1
102
RTVSPost2010PropOp30
 70
     1
102
RTVSPost2010Prop31
280
     0
102
RTVSPost2010PropOp31
 70
     1
102
RTVSPost2010Prop32
280
     0
102
RTVSPost2010PropOp32
 70
     1
102
RTVSPost2010Prop33
280
     0
102
RTVSPost2010PropOp33
 70
     1
102
RTVSPost2010Prop34
280
     0
102
RTVSPost2010PropOp34
 70
     1
102
RTVSPost2010Prop35
280
     0
102
RTVSPost2010PropOp35
 70
     1
102
RTVSPost2010Prop36
280
     0
102
RTVSPost2010PropOp36
 70
     1
102
RTVSPost2010Prop37
 90
       50
102
RTVSPost2010PropOp37
 70
     1
102
RTVSPost2010Prop38
140
0.0
102
RTVSPost2010PropOp38
 70
     1
102
RTVSPost2010Prop39
140
1.0
102
RTVSPost2010PropOp39
 70
     1
102
RTVSPost2010Prop40
 90
        0
102
RTVSPost2010PropOp40
 70
     1
102
RTVSPost2010Prop41ColorIndex
 90
       18
102
RTVSPost2010Prop41ColorRGB
 90
        0
102
RTVSPost2010PropOp41
 70
     1
102
RTVSPost2010Prop42
 90
       50
102
RTVSPost2010PropOp42
 70
     1
102
RTVSPost2010Prop43
 90
        3
102
RTVSPost2010PropOp43
 70
     1
102
RTVSPost2010Prop44ColorIndex
 90
        5
102
RTVSPost2010Prop44ColorRGB
 90
      255
102
RTVSPost2010PropOp44
 70
     1
102
RTVSPost2010Prop45
280
     0
102
RTVSPost2010PropOp45
 70
     1
102
RTVSPost2010Prop46
 90
       50
102
RTVSPost2010PropOp46
 70
     1
102
RTVSPost2010Prop47
 90
       50
102
RTVSPost2010PropOp47
 70
     1
102
RTVSPost2010Prop48
 90
       50
102
RTVSPost2010PropOp48
 70
     1
102
RTVSPost2010Prop49
280
     0
102
RTVSPost2010PropOp49
 70
     1
102
RTVSPost2010Prop50
 90
       50
102
RTVSPost2010PropOp50
 70
     1
102
RTVSPost2010Prop51ColorIndex
 90
      256
102
RTVSPost2010Prop51ColorRGB
 90
-16777216
102
RTVSPost2010PropOp51
 70
     0
102
RTVSPost2010Prop52
140
1.0
102
RTVSPost2010PropOp52
 70
     0
102
RTVSPost2010Prop53
 90
        2
102
RTVSPost2010PropOp53
 70
     1
102
RTVSPost2010Prop54
  1
strokes_ogs.tif
102
RTVSPost2010PropOp54
 70
     1
102
RTVSPost2010Prop55
280
     0
102
RTVSPost2010PropOp55
 70
     1
102
RTVSPost2010Prop56
140
1.0
102
RTVSPost2010PropOp56
 70
     1
102
RTVSPost2010Prop57
140
1.0
102
RTVSPost2010PropOp57
 70
     1
102
RTVSPropertyOp0
 70
     1
102
RTVSPropertyOp1
 70
     1
102
RTVSPropertyOp2
 70
     1
102
RTVSPropertyOp3
 70
     1
102
RTVSPropertyOp4
 70
     1
102
RTVSPropertyOp5
 70
     1
102
RTVSPropertyOp6
 70
     1
102
RTVSPropertyOp7
 70
     1
102
RTVSPropertyOp8
 70
     1
102
RTVSPropertyOp9
 70
     1
102
RTVSPropertyOp10
 70
     1
102
RTVSPropertyOp11
 70
     1
102
RTVSPropertyOp12
 70
     1
102
RTVSPropertyOp13
 70
     1
102
RTVSPropertyOp14
 70
     1
102
RTVSPropertyOp15
 70
     1
102
RTVSPropertyOp16
 70
     1
102
RTVSPropertyOp17
 70
     1
102
RTVSPropertyOp18
 70
     1
102
RTVSPropertyOp19
 70
     1
102
RTVSPropertyOp20
 70
     1
102
RTVSPropertyOp21
 70
     1
102
RTVSPropertyOp22
 70
     1
102
RTVSPropertyOp23
 70
     1
102
RTVSPropertyOp24
 70
     1
102
RTVSPropertyOp25
 70
     1
102
RTVSPropertyOp26
 70
     1
102
RTVSPropertyOp27
 70
     1
102
RTVSPropertyOp28
 70
     1
102
RTVSPropertyOp29
 70
     1
102
RTVSPropertyOp30
 70
     1
102
RTVSPropertyOp31
 70
     1
102
RTVSPropertyOp32
 70
     1
102
RTVSPropertyOp33
 70
     1
102
RTVSPropertyOp34
 70
     1
102
RTVSPropertyOp35
 70
     1
102
RTVSPropertyOp36
 70
     1
102
RTVSPropertyOp37
 70
     1
102
RTVSPropertyOp38
 70
     1
102
RTVSPropertyOp39
 70
     1
102
RTVSPropertyOp40
 70
     1
102
RTVSPropertyOp41
 70
     1
102
RTVSPropertyOp42
 70
     1
102
RTVSPropertyOp43
 70
     1
102
RTVSPropertyOp44
 70
     1
102
RTVSPropertyOp45
 70
     1
102
RTVSPropertyOp46
 70
     1
102
RTVSPropertyOp47
 70
     1
102
RTVSPropertyOp48
 70
     1
102
RTVSPropertyOp49
 70
     1
102
RTVSPropertyOp50
 70
     1
102
RTVSPropertyOp51
 70
     0
102
RTVSPropertyOp52
 70
     0
102
RTVSPropertyOp53
 70
     1
102
RTVSPropertyOp54
 70
     1
102
RTVSPropertyOp55
 70
     1
102
RTVSPropertyOp56
 70
     1
102
RTVSPropertyOp57
 70
     1
102
RTVSPropertyOp58
 70
     1
102
RTVSPropertyOp59
 70
     1
102
RTVSPropertyOp60
 70
     1
102
RTVSPropertyOp61
 70
     1
102
RTVSPropertyOp62
 70
     1
  0
XRECORD
  5
2147
102
{ACAD_REACTORS
330
2146
102
}
330
2146
100
AcDbXrecord
280
     1
102
RTVSPost2010Prop28
280
     0
102
RTVSPost2010PropOp28
 70
     1
102
RTVSPost2010Prop29
280
     1
102
RTVSPost2010PropOp29
 70
     1
102
RTVSPost2010Prop30
280
     1
102
RTVSPost2010PropOp30
 70
     1
102
RTVSPost2010Prop31
280
     0
102
RTVSPost2010PropOp31
 70
     1
102
RTVSPost2010Prop32
280
     0
102
RTVSPost2010PropOp32
 70
     1
102
RTVSPost2010Prop33
280
     0
102
RTVSPost2010PropOp33
 70
     1
102
RTVSPost2010Prop34
280
     0
102
RTVSPost2010PropOp34
 70
     1
102
RTVSPost2010Prop35
280
     0
102
RTVSPost2010PropOp35
 70
     1
102
RTVSPost2010Prop36
280
     0
102
RTVSPost2010PropOp36
 70
     1
102
RTVSPost2010Prop37
 90
       50
102
RTVSPost2010PropOp37
 70
     1
102
RTVSPost2010Prop38
140
0.0
102
RTVSPost2010PropOp38
 70
     1
102
RTVSPost2010Prop39
140
1.0
102
RTVSPost2010PropOp39
 70
     1
102
RTVSPost2010Prop40
 90
        0
102
RTVSPost2010PropOp40
 70
     1
102
RTVSPost2010Prop41ColorIndex
 90
       18
102
RTVSPost2010Prop41ColorRGB
 90
        0
102
RTVSPost2010PropOp41
 70
     1
102
RTVSPost2010Prop42
 90
       50
102
RTVSPost2010PropOp42
 70
     1
102
RTVSPost2010Prop43
 90
        3
102
RTVSPost2010PropOp43
 70
     1
102
RTVSPost2010Prop44ColorIndex
 90
        5
102
RTVSPost2010Prop44ColorRGB
 90
      255
102
RTVSPost2010PropOp44
 70
     1
102
RTVSPost2010Prop45
280
     0
102
RTVSPost2010PropOp45
 70
     1
102
RTVSPost2010Prop46
 90
       50
102
RTVSPost2010PropOp46
 70
     1
102
RTVSPost2010Prop47
 90
       50
102
RTVSPost2010PropOp47
 70
     1
102
RTVSPost2010Prop48
 90
       50
102
RTVSPost2010PropOp48
 70
     1
102
RTVSPost2010Prop49
280
     0
102
RTVSPost2010PropOp49
 70
     1
102
RTVSPost2010Prop50
 90
       50
102
RTVSPost2010PropOp50
 70
     1
102
RTVSPost2010Prop51ColorIndex
 90
      256
102
RTVSPost2010Prop51ColorRGB
 90
-16777216
102
RTVSPost2010PropOp51
 70
     0
102
RTVSPost2010Prop52
140
1.0
102
RTVSPost2010PropOp52
 70
     0
102
RTVSPost2010Prop53
 90
        2
102
RTVSPost2010PropOp53
 70
     1
102
RTVSPost2010Prop54
  1
strokes_ogs.tif
102
RTVSPost2010PropOp54
 70
     1
102
RTVSPost2010Prop55
280
     0
102
RTVSPost2010PropOp55
 70
     1
102
RTVSPost2010Prop56
140
1.0
102
RTVSPost2010PropOp56
 70
     1
102
RTVSPost2010Prop57
140
1.0
102
RTVSPost2010PropOp57
 70
     1
102
RTVSPropertyOp0
 70
     1
102
RTVSPropertyOp1
 70
     1
102
RTVSPropertyOp2
 70
     1
102
RTVSPropertyOp3
 70
     1
102
RTVSPropertyOp4
 70
     1
102
RTVSPropertyOp5
 70
     1
102
RTVSPropertyOp6
 70
     1
102
RTVSPropertyOp7
 70
     1
102
RTVSPropertyOp8
 70
     1
102
RTVSPropertyOp9
 70
     1
102
RTVSPropertyOp10
 70
     1
102
RTVSPropertyOp11
 70
     1
102
RTVSPropertyOp12
 70
     1
102
RTVSPropertyOp13
 70
     1
102
RTVSPropertyOp14
 70
     1
102
RTVSPropertyOp15
 70
     1
102
RTVSPropertyOp16
 70
     1
102
RTVSPropertyOp17
 70
     1
102
RTVSPropertyOp18
 70
     1
102
RTVSPropertyOp19
 70
     1
102
RTVSPropertyOp20
 70
     1
102
RTVSPropertyOp21
 70
     1
102
RTVSPropertyOp22
 70
     1
102
RTVSPropertyOp23
 70
     1
102
RTVSPropertyOp24
 70
     1
102
RTVSPropertyOp25
 70
     1
102
RTVSPropertyOp26
 70
     1
102
RTVSPropertyOp27
 70
     1
102
RTVSPropertyOp28
 70
     1
102
RTVSPropertyOp29
 70
     1
102
RTVSPropertyOp30
 70
     1
102
RTVSPropertyOp31
 70
     1
102
RTVSPropertyOp32
 70
     1
102
RTVSPropertyOp33
 70
     1
102
RTVSPropertyOp34
 70
     1
102
RTVSPropertyOp35
 70
     1
102
RTVSPropertyOp36
 70
     1
102
RTVSPropertyOp37
 70
     1
102
RTVSPropertyOp38
 70
     1
102
RTVSPropertyOp39
 70
     1
102
RTVSPropertyOp40
 70
     1
102
RTVSPropertyOp41
 70
     1
102
RTVSPropertyOp42
 70
     1
102
RTVSPropertyOp43
 70
     1
102
RTVSPropertyOp44
 70
     1
102
RTVSPropertyOp45
 70
     1
102
RTVSPropertyOp46
 70
     1
102
RTVSPropertyOp47
 70
     1
102
RTVSPropertyOp48
 70
     1
102
RTVSPropertyOp49
 70
     1
102
RTVSPropertyOp50
 70
     1
102
RTVSPropertyOp51
 70
     0
102
RTVSPropertyOp52
 70
     0
102
RTVSPropertyOp53
 70
     1
102
RTVSPropertyOp54
 70
     1
102
RTVSPropertyOp55
 70
     1
102
RTVSPropertyOp56
 70
     1
102
RTVSPropertyOp57
 70
     1
102
RTVSPropertyOp58
 70
     1
102
RTVSPropertyOp59
 70
     1
102
RTVSPropertyOp60
 70
     1
102
RTVSPropertyOp61
 70
     1
102
RTVSPropertyOp62
 70
     1
  0
ENDSEC
  0
EOF
