  0
SECTION
  2
HEADER
  9
$ACADVER
  1
AC1015
  9
$ACADMAINTVER
 70
     6
  9
$DWGCODEPAGE
  3
ANSI_1252
  9
$INSBASE
 10
0.0
 20
0.0
 30
0.0
  9
$EXTMIN
 10
0.0
 20
0.0
 30
0.0
  9
$EXTMAX
 10
594.0
 20
420.0
 30
0.0
  9
$LIMMIN
 10
0.0
 20
0.0
  9
$LIMMAX
 10
594.0
 20
420.0
  9
$ORTHOMODE
 70
     0
  9
$REGENMODE
 70
     1
  9
$FILLMODE
 70
     1
  9
$QTEXTMODE
 70
     0
  9
$MIRRTEXT
 70
     1
  9
$LTSCALE
 40
1.0
  9
$ATTMODE
 70
     1
  9
$TEXTSIZE
 40
3.5
  9
$TRACEWID
 40
1.0
  9
$TEXTSTYLE
  7
Standard
  9
$CLAYER
  8
0
  9
$CELTYPE
  6
ByLayer
  9
$CECOLOR
 62
   256
  9
$CELTSCALE
 40
1.0
  9
$DISPSILH
 70
     0
  9
$DIMSCALE
 40
1.0
  9
$DIMASZ
 40
3.302
  9
$DIMEXO
 40
1.0
  9
$DIMDLI
 40
3.75
  9
$DIMRND
 40
0.0
  9
$DIMDLE
 40
0.0
  9
$DIMEXE
 40
1.0
  9
$DIMTP
 40
0.0
  9
$DIMTM
 40
0.0
  9
$DIMTXT
 40
3.5
  9
$DIMCEN
 40
2.5
  9
$DIMTSZ
 40
0.0
  9
$DIMTOL
 70
     0
  9
$DIMLIM
 70
     0
  9
$DIMTIH
 70
     1
  9
$DIMTOH
 70
     1
  9
$DIMSE1
 70
     0
  9
$DIMSE2
 70
     0
  9
$DIMTAD
 70
     1
  9
$DIMZIN
 70
     0
  9
$DIMBLK
  1

  9
$DIMASO
 70
     1
  9
$DIMSHO
 70
     1
  9
$DIMPOST
  1

  9
$DIMAPOST
  1

  9
$DIMALT
 70
     0
  9
$DIMALTD
 70
     3
  9
$DIMALTF
 40
0.0393700787
  9
$DIMLFAC
 40
1.0
  9
$DIMTOFL
 70
     1
  9
$DIMTVP
 40
0.0
  9
$DIMTIX
 70
     0
  9
$DIMSOXD
 70
     0
  9
$DIMSAH
 70
     0
  9
$DIMBLK1
  1

  9
$DIMBLK2
  1

  9
$DIMSTYLE
  2
ISO-25
  9
$DIMCLRD
 70
     0
  9
$DIMCLRE
 70
     0
  9
$DIMCLRT
 70
     0
  9
$DIMTFAC
 40
1.0
  9
$DIMGAP
 40
1.524
  9
$DIMJUST
 70
     0
  9
$DIMSD1
 70
     0
  9
$DIMSD2
 70
     0
  9
$DIMTOLJ
 70
     0
  9
$DIMTZIN
 70
     0
  9
$DIMALTZ
 70
     0
  9
$DIMALTTZ
 70
     0
  9
$DIMUPT
 70
     0
  9
$DIMDEC
 70
     2
  9
$DIMTDEC
 70
     2
  9
$DIMALTU
 70
     2
  9
$DIMALTTD
 70
     3
  9
$DIMTXSTY
  7
Standard
  9
$DIMAUNIT
 70
     0
  9
$DIMADEC
 70
     2
  9
$DIMALTRND
 40
0.0
  9
$DIMAZIN
 70
     0
  9
$DIMDSEP
 70
    44
  9
$DIMATFIT
 70
     3
  9
$DIMFRAC
 70
     0
  9
$DIMLDRBLK
  1

  9
$DIMLUNIT
 70
     2
  9
$DIMLWD
 70
    -2
  9
$DIMLWE
 70
    -2
  9
$DIMTMOVE
 70
     0
  9
$LUNITS
 70
     2
  9
$LUPREC
 70
     2
  9
$SKETCHINC
 40
1.0
  9
$FILLETRAD
 40
10.0
  9
$AUNITS
 70
     0
  9
$AUPREC
 70
     2
  9
$MENU
  1
.
  9
$ELEVATION
 40
0.0
  9
$PELEVATION
 40
0.0
  9
$THICKNESS
 40
0.0
  9
$LIMCHECK
 70
     0
  9
$CHAMFERA
 40
0.0
  9
$CHAMFERB
 40
0.0
  9
$CHAMFERC
 40
0.0
  9
$CHAMFERD
 40
0.0
  9
$SKPOLY
 70
     0
  9
$TDCREATE
 40
2458122.554767303
  9
$TDUCREATE
 40
2458122.513100637
  9
$TDUPDATE
 40
2458122.554772292
  9
$TDUUPDATE
 40
2458122.513105625
  9
$TDINDWG
 40
0.0000000116
  9
$TDUSRTIMER
 40
0.0000000116
  9
$USRTIMER
 70
     1
  9
$ANGBASE
 50
0.0
  9
$ANGDIR
 70
     0
  9
$PDMODE
 70
     0
  9
$PDSIZE
 40
-1.0
  9
$PLINEWID
 40
0.0
  9
$SPLFRAME
 70
     0
  9
$SPLINETYPE
 70
     6
  9
$SPLINESEGS
 70
     8
  9
$HANDSEED
  5
349
  9
$SURFTAB1
 70
     6
  9
$SURFTAB2
 70
     6
  9
$SURFTYPE
 70
     6
  9
$SURFU
 70
     6
  9
$SURFV
 70
     6
  9
$UCSBASE
  2

  9
$UCSNAME
  2

  9
$UCSORG
 10
0.0
 20
0.0
 30
0.0
  9
$UCSXDIR
 10
1.0
 20
0.0
 30
0.0
  9
$UCSYDIR
 10
0.0
 20
1.0
 30
0.0
  9
$UCSORTHOREF
  2

  9
$UCSORTHOVIEW
 70
     0
  9
$UCSORGTOP
 10
0.0
 20
0.0
 30
0.0
  9
$UCSORGBOTTOM
 10
0.0
 20
0.0
 30
0.0
  9
$UCSORGLEFT
 10
0.0
 20
0.0
 30
0.0
  9
$UCSORGRIGHT
 10
0.0
 20
0.0
 30
0.0
  9
$UCSORGFRONT
 10
0.0
 20
0.0
 30
0.0
  9
$UCSORGBACK
 10
0.0
 20
0.0
 30
0.0
  9
$PUCSBASE
  2

  9
$PUCSNAME
  2

  9
$PUCSORG
 10
0.0
 20
0.0
 30
0.0
  9
$PUCSXDIR
 10
1.0
 20
0.0
 30
0.0
  9
$PUCSYDIR
 10
0.0
 20
1.0
 30
0.0
  9
$PUCSORTHOREF
  2

  9
$PUCSORTHOVIEW
 70
     0
  9
$PUCSORGTOP
 10
0.0
 20
0.0
 30
0.0
  9
$PUCSORGBOTTOM
 10
0.0
 20
0.0
 30
0.0
  9
$PUCSORGLEFT
 10
0.0
 20
0.0
 30
0.0
  9
$PUCSORGRIGHT
 10
0.0
 20
0.0
 30
0.0
  9
$PUCSORGFRONT
 10
0.0
 20
0.0
 30
0.0
  9
$PUCSORGBACK
 10
0.0
 20
0.0
 30
0.0
  9
$USERI1
 70
     0
  9
$USERI2
 70
     0
  9
$USERI3
 70
     0
  9
$USERI4
 70
     0
  9
$USERI5
 70
     0
  9
$USERR1
 40
0.0
  9
$USERR2
 40
0.0
  9
$USERR3
 40
0.0
  9
$USERR4
 40
0.0
  9
$USERR5
 40
0.0
  9
$WORLDVIEW
 70
     1
  9
$SHADEDGE
 70
     3
  9
$SHADEDIF
 70
    70
  9
$TILEMODE
 70
     1
  9
$MAXACTVP
 70
    64
  9
$PINSBASE
 10
0.0
 20
0.0
 30
0.0
  9
$PLIMCHECK
 70
     0
  9
$PEXTMIN
 10
1.0000000000E+20
 20
1.0000000000E+20
 30
1.0000000000E+20
  9
$PEXTMAX
 10
-1.0000000000E+20
 20
-1.0000000000E+20
 30
-1.0000000000E+20
  9
$PLIMMIN
 10
0.0
 20
0.0
  9
$PLIMMAX
 10
420.0
 20
297.0
  9
$UNITMODE
 70
     0
  9
$VISRETAIN
 70
     1
  9
$PLINEGEN
 70
     0
  9
$PSLTSCALE
 70
     1
  9
$TREEDEPTH
 70
  3020
  9
$CMLSTYLE
  2
Standard
  9
$CMLJUST
 70
     0
  9
$CMLSCALE
 40
20.0
  9
$PROXYGRAPHICS
 70
     1
  9
$MEASUREMENT
 70
     1
  9
$CELWEIGHT
370
    -1
  9
$ENDCAPS
280
     0
  9
$JOINSTYLE
280
     0
  9
$LWDISPLAY
290
     1
  9
$INSUNITS
 70
     4
  9
$HYPERLINKBASE
  1

  9
$STYLESHEET
  1

  9
$XEDIT
290
     1
  9
$CEPSNTYPE
380
     0
  9
$PSTYLEMODE
290
     1
  9
$FINGERPRINTGUID
  2
{E652B149-2D72-4F90-B626-80D69887CEAF}
  9
$VERSIONGUID
  2
{FAEB1C32-E019-11D5-929B-00C0DF256EC4}
  9
$EXTNAMES
290
     1
  9
$PSVPSCALE
 40
0.0
  9
$OLESTARTUP
290
     0
  0
ENDSEC
  0
SECTION
  2
CLASSES
  0
CLASS
  1
ACDBDICTIONARYWDFLT
  2
AcDbDictionaryWithDefault
  3
ObjectDBX Classes
 90
        0
280
     0
281
     0
  0
CLASS
  1
VISUALSTYLE
  2
AcDbVisualStyle
  3
ObjectDBX Classes
 90
     4095
280
     0
281
     0
  0
CLASS
  1
MATERIAL
  2
AcDbMaterial
  3
ObjectDBX Classes
 90
     1153
280
     0
281
     0
  0
CLASS
  1
SCALE
  2
AcDbScale
  3
ObjectDBX Classes
 90
     1153
280
     0
281
     0
  0
CLASS
  1
TABLESTYLE
  2
AcDbTableStyle
  3
ObjectDBX Classes
 90
     4095
280
     0
281
     0
  0
CLASS
  1
MLEADERSTYLE
  2
AcDbMLeaderStyle
  3
ACDB_MLEADERSTYLE_CLASS
 90
     4095
280
     0
281
     0
  0
CLASS
  1
SUN
  2
AcDbSun
  3
SCENEOE
 90
     1153
280
     0
281
     0
  0
CLASS
  1
ACDBPLACEHOLDER
  2
AcDbPlaceHolder
  3
ObjectDBX Classes
 90
        0
280
     0
281
     0
  0
CLASS
  1
LAYOUT
  2
AcDbLayout
  3
ObjectDBX Classes
 90
        0
280
     0
281
     0
  0
ENDSEC
  0
SECTION
  2
TABLES
  0
TABLE
  2
VPORT
  5
8
330
0
100
AcDbSymbolTable
 70
     1
  0
VPORT
  5
29
330
8
100
AcDbSymbolTableRecord
100
AcDbViewportTableRecord
  2
*Active
 70
     0
 10
0.0
 20
0.0
 11
1.0
 21
1.0
 12
297.0
 22
210.0
 13
0.0
 23
0.0
 14
10.0
 24
10.0
 15
10.0
 25
10.0
 16
0.0
 26
0.0
 36
1.0
 17
0.0
 27
0.0
 37
0.0
 40
420.0
 41
1.4142857143
 42
50.0
 43
0.0
 44
0.0
 50
0.0
 51
0.0
 71
     0
 72
  2000
 73
     1
 74
     3
 75
     0
 76
     0
 77
     0
 78
     0
281
     0
 65
     1
110
0.0
120
0.0
130
0.0
111
1.0
121
0.0
131
0.0
112
0.0
122
1.0
132
0.0
 79
     0
146
0.0
  0
ENDTAB
  0
TABLE
  2
LTYPE
  5
5
330
0
100
AcDbSymbolTable
 70
     6
  0
LTYPE
  5
14
330
5
100
AcDbSymbolTableRecord
100
AcDbLinetypeTableRecord
  2
ByBlock
 70
     0
  3

 72
    65
 73
     0
 40
0.0
  0
LTYPE
  5
15
330
5
100
AcDbSymbolTableRecord
100
AcDbLinetypeTableRecord
  2
ByLayer
 70
     0
  3

 72
    65
 73
     0
 40
0.0
  0
LTYPE
  5
16
330
5
100
AcDbSymbolTableRecord
100
AcDbLinetypeTableRecord
  2
Continuous
 70
     0
  3
Solid line
 72
    65
 73
     0
 40
0.0
  0
LTYPE
  5
6E
330
5
100
AcDbSymbolTableRecord
100
AcDbLinetypeTableRecord
  2
HIDDEN
 70
     0
  3
Hidden __ __ __ __ __ __ __ __ __ __ __ __ __ __
 72
    65
 73
     2
 40
1.905
 49
1.27
 74
     0
 49
-0.635
 74
     0
  0
LTYPE
  5
6F
330
5
100
AcDbSymbolTableRecord
100
AcDbLinetypeTableRecord
  2
PHANTOM
 70
     0
  3
Phantom ______  __  __  ______  __  __  ______
 72
    65
 73
     6
 40
12.7
 49
6.35
 74
     0
 49
-1.27
 74
     0
 49
1.27
 74
     0
 49
-1.27
 74
     0
 49
1.27
 74
     0
 49
-1.27
 74
     0
  0
LTYPE
  5
70
330
5
100
AcDbSymbolTableRecord
100
AcDbLinetypeTableRecord
  2
CENTER
 70
     0
  3
Center ____ _ ____ _ ____ _ ____ _ ____ _ ____
 72
    65
 73
     4
 40
10.16
 49
6.35
 74
     0
 49
-1.27
 74
     0
 49
1.27
 74
     0
 49
-1.27
 74
     0
  0
LTYPE
  5
71
330
5
100
AcDbSymbolTableRecord
100
AcDbLinetypeTableRecord
  2
CENTERX2
 70
     0
  3
Center (2x) ________  __  ________  __  _____
 72
    65
 73
     4
 40
20.32
 49
12.7
 74
     0
 49
-2.54
 74
     0
 49
2.54
 74
     0
 49
-2.54
 74
     0
  0
LTYPE
  5
72
330
5
100
AcDbSymbolTableRecord
100
AcDbLinetypeTableRecord
  2
DOT2
 70
     0
  3
Dot (.5x) ........................................
 72
    65
 73
     2
 40
0.635
 49
0.0
 74
     0
 49
-0.635
 74
     0
  0
ENDTAB
  0
TABLE
  2
LAYER
  5
2
330
0
100
AcDbSymbolTable
 70
     1
  0
LAYER
  5
10
330
2
100
AcDbSymbolTableRecord
100
AcDbLayerTableRecord
  2
0
 70
     0
 62
     7
  6
Continuous
370
    -3
390
F
  0
ENDTAB
  0
TABLE
  2
STYLE
  5
3
330
0
100
AcDbSymbolTable
 70
     3
  0
STYLE
  5
11
330
3
100
AcDbSymbolTableRecord
100
AcDbTextStyleTableRecord
  2
Standard
 70
     0
 40
0.0
 41
1.0
 50
0.0
 71
     0
 42
3.5
  3
txt
  4

  0
STYLE
  5
AB
330
3
100
AcDbSymbolTableRecord
100
AcDbTextStyleTableRecord
  2
SLDTEXTSTYLE0
 70
     0
 40
0.0
 41
0.75
 50
0.0
 71
     0
 42
3.5
  3
TXT
  4

  0
STYLE
  5
347
330
3
100
AcDbSymbolTableRecord
100
AcDbTextStyleTableRecord
  2
SLDTEXTSTYLE1
 70
     0
 40
0.0
 41
0.7
 50
0.0
 71
     0
 42
3.5
  3
TXT
  4
bigfont
  0
ENDTAB
  0
TABLE
  2
VIEW
  5
6
330
0
100
AcDbSymbolTable
 70
     0
  0
ENDTAB
  0
TABLE
  2
UCS
  5
7
330
0
100
AcDbSymbolTable
 70
     0
  0
ENDTAB
  0
TABLE
  2
APPID
  5
9
330
0
100
AcDbSymbolTable
 70
     1
  0
APPID
  5
12
330
9
100
AcDbSymbolTableRecord
100
AcDbRegAppTableRecord
  2
ACAD
 70
     0
  0
ENDTAB
  0
TABLE
  2
DIMSTYLE
  5
A
330
0
100
AcDbSymbolTable
 70
     7
100
AcDbDimStyleTable
  0
DIMSTYLE
105
27
330
A
100
AcDbSymbolTableRecord
100
AcDbDimStyleTableRecord
  2
ISO-25
 70
     0
 41
2.5
 42
0.625
 43
3.75
 44
1.25
 73
     0
 74
     0
 77
     1
 78
     8
140
2.5
141
2.5
143
0.0393700787
147
0.625
171
     3
172
     1
178
     0
271
     2
272
     2
274
     3
278
    44
283
     0
284
     8
340
11
  0
DIMSTYLE
105
AC
102
{ACAD_REACTORS
330
AA
330
B5
330
BE
330
D5
330
E0
330
F6
330
100
330
10B
330
115
330
128
330
130
330
138
330
141
330
156
330
15F
102
}
330
A
100
AcDbSymbolTableRecord
100
AcDbDimStyleTableRecord
  2
SLDDIMSTYLE0
 70
     0
 41
3.302
 44
0.0
 45
0.000000001
 73
     0
 74
     0
 77
     1
 78
    12
 79
     3
140
3.5
147
0.875
173
     1
178
     0
271
     2
272
     2
276
     2
284
    12
340
AB
  0
DIMSTYLE
105
C9
102
{ACAD_REACTORS
330
C8
330
EA
330
17B
330
187
330
193
330
19F
330
2AF
330
2BB
330
2C7
330
2D1
330
2DB
330
2E5
330
2F0
102
}
330
A
100
AcDbSymbolTableRecord
100
AcDbDimStyleTableRecord
  2
SLDDIMSTYLE1
 70
     0
 41
3.302
 44
0.0
 45
0.000000001
 73
     0
 74
     0
 77
     1
 78
    12
 79
     3
140
3.5
147
0.875
172
     1
173
     1
178
     0
271
     2
272
     2
276
     2
284
    12
289
     0
340
AB
  0
DIMSTYLE
105
121
102
{ACAD_REACTORS
330
120
102
}
330
A
100
AcDbSymbolTableRecord
100
AcDbDimStyleTableRecord
  2
SLDDIMSTYLE2
 70
     0
 41
3.302
 44
0.0
 45
0.000000001
 73
     0
 74
     0
 77
     1
 78
    12
 79
     3
140
3.5
141
0.0
147
0.875
173
     1
178
     0
271
     2
272
     2
276
     2
284
    12
340
AB
  0
DIMSTYLE
105
14A
102
{ACAD_REACTORS
330
149
330
168
102
}
330
A
100
AcDbSymbolTableRecord
100
AcDbDimStyleTableRecord
  2
SLDDIMSTYLE3
 70
     0
 41
3.302
 44
0.0
 45
0.000000001
 73
     0
 74
     0
 77
     1
 78
    12
 79
     3
140
3.5
141
0.0
147
0.875
172
     1
173
     1
178
     0
271
     2
272
     2
276
     2
284
    12
340
AB
341
14B
343
14B
  0
DIMSTYLE
105
172
102
{ACAD_REACTORS
330
171
102
}
330
A
100
AcDbSymbolTableRecord
100
AcDbDimStyleTableRecord
  2
SLDDIMSTYLE4
 70
     0
 41
3.302
 44
0.0
 45
0.000000001
 73
     0
 74
     0
 77
     1
 78
    12
 79
     3
140
3.5
141
0.0
147
0.875
172
     1
173
     1
178
     0
271
     2
272
     2
276
     2
284
    12
340
AB
341
14B
343
14B
  0
DIMSTYLE
105
1B1
330
A
100
AcDbSymbolTableRecord
100
AcDbDimStyleTableRecord
  2
SLDDIMSTYLE5
 70
     0
 41
3.302
 44
0.0
 45
0.000000001
146
3.302
147
0.0
173
     1
178
     0
271
     0
272
     0
276
     2
340
11
  0
ENDTAB
  0
TABLE
  2
BLOCK_RECORD
  5
1
330
0
100
AcDbSymbolTable
 70
    47
  0
BLOCK_RECORD
  5
1F
330
1
100
AcDbSymbolTableRecord
100
AcDbBlockTableRecord
  2
*Model_Space
340
22
  0
BLOCK_RECORD
  5
1B
330
1
100
AcDbSymbolTableRecord
100
AcDbBlockTableRecord
  2
*Paper_Space
340
1E
  0
BLOCK_RECORD
  5
23
330
1
100
AcDbSymbolTableRecord
100
AcDbBlockTableRecord
  2
*Paper_Space0
340
26
  0
BLOCK_RECORD
  5
AD
330
1
100
AcDbSymbolTableRecord
100
AcDbBlockTableRecord
  2
_D
340
0
  0
BLOCK_RECORD
  5
B6
330
1
100
AcDbSymbolTableRecord
100
AcDbBlockTableRecord
  2
_D_1
340
0
  0
BLOCK_RECORD
  5
BF
330
1
100
AcDbSymbolTableRecord
100
AcDbBlockTableRecord
  2
_D_2
340
0
  0
BLOCK_RECORD
  5
CA
330
1
100
AcDbSymbolTableRecord
100
AcDbBlockTableRecord
  2
_D_3
340
0
  0
BLOCK_RECORD
  5
D6
330
1
100
AcDbSymbolTableRecord
100
AcDbBlockTableRecord
  2
_D_4
340
0
  0
BLOCK_RECORD
  5
E1
330
1
100
AcDbSymbolTableRecord
100
AcDbBlockTableRecord
  2
_D_5
340
0
  0
BLOCK_RECORD
  5
EB
330
1
100
AcDbSymbolTableRecord
100
AcDbBlockTableRecord
  2
_D_6
340
0
  0
BLOCK_RECORD
  5
F7
330
1
100
AcDbSymbolTableRecord
100
AcDbBlockTableRecord
  2
_D_7
340
0
  0
BLOCK_RECORD
  5
101
330
1
100
AcDbSymbolTableRecord
100
AcDbBlockTableRecord
  2
_D_8
340
0
  0
BLOCK_RECORD
  5
10C
330
1
100
AcDbSymbolTableRecord
100
AcDbBlockTableRecord
  2
_D_9
340
0
  0
BLOCK_RECORD
  5
116
330
1
100
AcDbSymbolTableRecord
100
AcDbBlockTableRecord
  2
_D_10
340
0
  0
BLOCK_RECORD
  5
122
330
1
100
AcDbSymbolTableRecord
100
AcDbBlockTableRecord
  2
_D_11
340
0
  0
BLOCK_RECORD
  5
129
330
1
100
AcDbSymbolTableRecord
100
AcDbBlockTableRecord
  2
_D_12
340
0
  0
BLOCK_RECORD
  5
131
330
1
100
AcDbSymbolTableRecord
100
AcDbBlockTableRecord
  2
_D_13
340
0
  0
BLOCK_RECORD
  5
139
330
1
100
AcDbSymbolTableRecord
100
AcDbBlockTableRecord
  2
_D_14
340
0
  0
BLOCK_RECORD
  5
142
330
1
100
AcDbSymbolTableRecord
100
AcDbBlockTableRecord
  2
_D_15
340
0
  0
BLOCK_RECORD
  5
14B
330
1
100
AcDbSymbolTableRecord
100
AcDbBlockTableRecord
  2
_NONE
340
0
  0
BLOCK_RECORD
  5
14E
330
1
100
AcDbSymbolTableRecord
100
AcDbBlockTableRecord
  2
_D_16
340
0
  0
BLOCK_RECORD
  5
157
330
1
100
AcDbSymbolTableRecord
100
AcDbBlockTableRecord
  2
_D_17
340
0
  0
BLOCK_RECORD
  5
160
330
1
100
AcDbSymbolTableRecord
100
AcDbBlockTableRecord
  2
_D_18
340
0
  0
BLOCK_RECORD
  5
169
330
1
100
AcDbSymbolTableRecord
100
AcDbBlockTableRecord
  2
_D_19
340
0
  0
BLOCK_RECORD
  5
173
330
1
100
AcDbSymbolTableRecord
100
AcDbBlockTableRecord
  2
_D_20
340
0
  0
BLOCK_RECORD
  5
17C
330
1
100
AcDbSymbolTableRecord
100
AcDbBlockTableRecord
  2
_D_21
340
0
  0
BLOCK_RECORD
  5
188
330
1
100
AcDbSymbolTableRecord
100
AcDbBlockTableRecord
  2
_D_22
340
0
  0
BLOCK_RECORD
  5
194
330
1
100
AcDbSymbolTableRecord
100
AcDbBlockTableRecord
  2
_D_23
340
0
  0
BLOCK_RECORD
  5
1A0
330
1
100
AcDbSymbolTableRecord
100
AcDbBlockTableRecord
  2
_D_24
340
0
  0
BLOCK_RECORD
  5
1AB
330
1
100
AcDbSymbolTableRecord
100
AcDbBlockTableRecord
  2
SW_NOTE_0
340
0
102
{BLKREFS
331
1B0
102
}
  0
BLOCK_RECORD
  5
1B3
330
1
100
AcDbSymbolTableRecord
100
AcDbBlockTableRecord
  2
SW_CENTERMARKSYMBOL_0
340
0
102
{BLKREFS
331
1BE
102
}
  0
BLOCK_RECORD
  5
1BF
330
1
100
AcDbSymbolTableRecord
100
AcDbBlockTableRecord
  2
SW_CENTERMARKSYMBOL_1
340
0
102
{BLKREFS
331
1CA
102
}
  0
BLOCK_RECORD
  5
1CB
330
1
100
AcDbSymbolTableRecord
100
AcDbBlockTableRecord
  2
SW_CENTERMARKSYMBOL_2
340
0
102
{BLKREFS
331
1D6
102
}
  0
BLOCK_RECORD
  5
1D7
330
1
100
AcDbSymbolTableRecord
100
AcDbBlockTableRecord
  2
SW_CENTERMARKSYMBOL_3
340
0
102
{BLKREFS
331
1E2
102
}
  0
BLOCK_RECORD
  5
1E3
330
1
100
AcDbSymbolTableRecord
100
AcDbBlockTableRecord
  2
SW_CENTERMARKSYMBOL_4
340
0
102
{BLKREFS
331
1EE
102
}
  0
BLOCK_RECORD
  5
1EF
330
1
100
AcDbSymbolTableRecord
100
AcDbBlockTableRecord
  2
SW_CENTERMARKSYMBOL_5
340
0
102
{BLKREFS
331
1FA
102
}
  0
BLOCK_RECORD
  5
1FB
330
1
100
AcDbSymbolTableRecord
100
AcDbBlockTableRecord
  2
SW_CENTERMARKSYMBOL_6
340
0
102
{BLKREFS
331
206
102
}
  0
BLOCK_RECORD
  5
207
330
1
100
AcDbSymbolTableRecord
100
AcDbBlockTableRecord
  2
SW_CENTERMARKSYMBOL_7
340
0
102
{BLKREFS
331
212
102
}
  0
BLOCK_RECORD
  5
249
330
1
100
AcDbSymbolTableRecord
100
AcDbBlockTableRecord
  2
SW_CENTERMARKSYMBOL_8
340
0
102
{BLKREFS
331
254
102
}
  0
BLOCK_RECORD
  5
255
330
1
100
AcDbSymbolTableRecord
100
AcDbBlockTableRecord
  2
SW_CENTERMARKSYMBOL_9
340
0
102
{BLKREFS
331
260
102
}
  0
BLOCK_RECORD
  5
261
330
1
100
AcDbSymbolTableRecord
100
AcDbBlockTableRecord
  2
SW_CENTERMARKSYMBOL_10
340
0
102
{BLKREFS
331
26C
102
}
  0
BLOCK_RECORD
  5
26D
330
1
100
AcDbSymbolTableRecord
100
AcDbBlockTableRecord
  2
SW_CENTERMARKSYMBOL_11
340
0
102
{BLKREFS
331
278
102
}
  0
BLOCK_RECORD
  5
2B0
330
1
100
AcDbSymbolTableRecord
100
AcDbBlockTableRecord
  2
_D_25
340
0
  0
BLOCK_RECORD
  5
2BC
330
1
100
AcDbSymbolTableRecord
100
AcDbBlockTableRecord
  2
_D_26
340
0
  0
BLOCK_RECORD
  5
2C8
330
1
100
AcDbSymbolTableRecord
100
AcDbBlockTableRecord
  2
_D_27
340
0
  0
BLOCK_RECORD
  5
2D2
330
1
100
AcDbSymbolTableRecord
100
AcDbBlockTableRecord
  2
_D_28
340
0
  0
BLOCK_RECORD
  5
2DC
330
1
100
AcDbSymbolTableRecord
100
AcDbBlockTableRecord
  2
_D_29
340
0
  0
BLOCK_RECORD
  5
2E6
330
1
100
AcDbSymbolTableRecord
100
AcDbBlockTableRecord
  2
_D_30
340
0
  0
BLOCK_RECORD
  5
2F1
330
1
100
AcDbSymbolTableRecord
100
AcDbBlockTableRecord
  2
_D_31
340
0
  0
ENDTAB
  0
ENDSEC
  0
SECTION
  2
BLOCKS
  0
BLOCK
  5
20
330
1F
100
AcDbEntity
  8
0
100
AcDbBlockBegin
  2
*Model_Space
 70
     0
 10
0.0
 20
0.0
 30
0.0
  3
*Model_Space
  1

  0
ENDBLK
  5
21
330
1F
100
AcDbEntity
  8
0
100
AcDbBlockEnd
  0
BLOCK
  5
1C
330
1B
100
AcDbEntity
 67
     1
  8
0
100
AcDbBlockBegin
  2
*Paper_Space
 70
     0
 10
0.0
 20
0.0
 30
0.0
  3
*Paper_Space
  1

  0
ENDBLK
  5
1D
330
1B
100
AcDbEntity
 67
     1
  8
0
100
AcDbBlockEnd
  0
BLOCK
  5
24
330
23
100
AcDbEntity
  8
0
100
AcDbBlockBegin
  2
*Paper_Space0
 70
     0
 10
0.0
 20
0.0
 30
0.0
  3
*Paper_Space0
  1

  0
ENDBLK
  5
25
330
23
100
AcDbEntity
  8
0
100
AcDbBlockEnd
  0
BLOCK
  5
AE
330
AD
100
AcDbEntity
  8
0
100
AcDbBlockBegin
  2
_D
 70
     0
 10
0.0
 20
0.0
 30
0.0
  3
_D
  1

  0
SOLID
  5
B0
330
AD
100
AcDbEntity
  8
0
  6
Continuous
 62
     7
370
     0
100
AcDbTrace
 10
249.6347837878
 20
161.0349542478
 30
0.0
 11
246.3327837878
 21
161.5429542478
 31
0.0
 12
246.3327837878
 22
160.5269542478
 32
0.0
 13
246.3327837878
 23
160.5269542478
 33
0.0
  0
SOLID
  5
B1
330
AD
100
AcDbEntity
  8
0
  6
Continuous
 62
     7
370
     0
100
AcDbTrace
 10
209.6347837878
 20
161.0349542478
 30
0.0
 11
212.9367837878
 21
160.5269542478
 31
0.0
 12
212.9367837878
 22
161.5429542478
 32
0.0
 13
212.9367837878
 23
161.5429542478
 33
0.0
  0
LINE
  5
B2
330
AD
100
AcDbEntity
  8
0
  6
Continuous
 62
     7
370
     0
100
AcDbLine
 10
249.6347837878
 20
168.9744352171
 30
0.0
 11
249.6347837878
 21
160.0349542478
 31
0.0
  0
LINE
  5
B3
330
AD
100
AcDbEntity
  8
0
  6
Continuous
 62
     7
370
     0
100
AcDbLine
 10
249.6347837878
 20
161.0349542478
 30
0.0
 11
209.6347837878
 21
161.0349542478
 31
0.0
  0
MTEXT
  5
B4
330
AD
100
AcDbEntity
  8
0
  6
Continuous
 62
     7
370
     0
100
AcDbMText
 10
232.2706871748
 20
165.5466911623
 30
0.0
 40
3.5
 41
0.0
 71
     1
 72
     1
  1
40
  7
SLDTEXTSTYLE0
 73
     1
 44
1.0
  0
ENDBLK
  5
AF
330
AD
100
AcDbEntity
  8
0
100
AcDbBlockEnd
  0
BLOCK
  5
B7
330
B6
100
AcDbEntity
  8
0
100
AcDbBlockBegin
  2
_D_1
 70
     0
 10
0.0
 20
0.0
 30
0.0
  3
_D_1
  1

  0
SOLID
  5
B9
330
B6
100
AcDbEntity
  8
0
  6
Continuous
 62
     7
370
     0
100
AcDbTrace
 10
209.6347837878
 20
161.0349542478
 30
0.0
 11
206.3327837878
 21
161.5429542478
 31
0.0
 12
206.3327837878
 22
160.5269542478
 32
0.0
 13
206.3327837878
 23
160.5269542478
 33
0.0
  0
SOLID
  5
BA
330
B6
100
AcDbEntity
  8
0
  6
Continuous
 62
     7
370
     0
100
AcDbTrace
 10
169.6347837878
 20
161.0349542478
 30
0.0
 11
172.9367837878
 21
160.5269542478
 31
0.0
 12
172.9367837878
 22
161.5429542478
 32
0.0
 13
172.9367837878
 23
161.5429542478
 33
0.0
  0
LINE
  5
BB
330
B6
100
AcDbEntity
  8
0
  6
Continuous
 62
     7
370
     0
100
AcDbLine
 10
169.6347837878
 20
163.9744352171
 30
0.0
 11
169.6347837878
 21
160.0349542478
 31
0.0
  0
LINE
  5
BC
330
B6
100
AcDbEntity
  8
0
  6
Continuous
 62
     7
370
     0
100
AcDbLine
 10
209.6347837878
 20
161.0349542478
 30
0.0
 11
169.6347837878
 21
161.0349542478
 31
0.0
  0
MTEXT
  5
BD
330
B6
100
AcDbEntity
  8
0
  6
Continuous
 62
     7
370
     0
100
AcDbMText
 10
190.7569879838
 20
165.5466911623
 30
0.0
 40
3.5
 41
0.0
 71
     1
 72
     1
  1
40
  7
SLDTEXTSTYLE0
 73
     1
 44
1.0
  0
ENDBLK
  5
B8
330
B6
100
AcDbEntity
  8
0
100
AcDbBlockEnd
  0
BLOCK
  5
C0
330
BF
100
AcDbEntity
  8
0
100
AcDbBlockBegin
  2
_D_2
 70
     0
 10
0.0
 20
0.0
 30
0.0
  3
_D_2
  1

  0
SOLID
  5
C2
330
BF
100
AcDbEntity
  8
0
  6
Continuous
 62
     7
370
     0
100
AcDbTrace
 10
209.6347837878
 20
98.9744352171
 30
0.0
 11
206.3327837878
 21
99.4824352171
 31
0.0
 12
206.3327837878
 22
98.4664352171
 32
0.0
 13
206.3327837878
 23
98.4664352171
 33
0.0
  0
SOLID
  5
C3
330
BF
100
AcDbEntity
  8
0
  6
Continuous
 62
     7
370
     0
100
AcDbTrace
 10
164.6347837878
 20
98.9744352171
 30
0.0
 11
167.9367837878
 21
98.4664352171
 31
0.0
 12
167.9367837878
 22
99.4824352171
 32
0.0
 13
167.9367837878
 23
99.4824352171
 33
0.0
  0
LINE
  5
C4
330
BF
100
AcDbEntity
  8
0
  6
Continuous
 62
     7
370
     0
100
AcDbLine
 10
209.6347837878
 20
113.9744352171
 30
0.0
 11
209.6347837878
 21
97.9744352171
 31
0.0
  0
LINE
  5
C5
330
BF
100
AcDbEntity
  8
0
  6
Continuous
 62
     7
370
     0
100
AcDbLine
 10
164.6347837878
 20
113.9744352171
 30
0.0
 11
164.6347837878
 21
97.9744352171
 31
0.0
  0
LINE
  5
C6
330
BF
100
AcDbEntity
  8
0
  6
Continuous
 62
     7
370
     0
100
AcDbLine
 10
209.6347837878
 20
98.9744352171
 30
0.0
 11
164.6347837878
 21
98.9744352171
 31
0.0
  0
MTEXT
  5
C7
330
BF
100
AcDbEntity
  8
0
  6
Continuous
 62
     7
370
     0
100
AcDbMText
 10
184.940079129
 20
103.4861721317
 30
0.0
 40
3.5
 41
0.0
 71
     1
 72
     1
  1
45
  7
SLDTEXTSTYLE0
 73
     1
 44
1.0
  0
ENDBLK
  5
C1
330
BF
100
AcDbEntity
  8
0
100
AcDbBlockEnd
  0
BLOCK
  5
CB
330
CA
100
AcDbEntity
  8
0
100
AcDbBlockBegin
  2
_D_3
 70
     0
 10
0.0
 20
0.0
 30
0.0
  3
_D_3
  1

  0
SOLID
  5
CD
330
CA
100
AcDbEntity
  8
0
  6
Continuous
 62
     7
370
     0
100
AcDbTrace
 10
209.6347837878
 20
110.0704493424
 30
0.0
 11
206.3327837878
 21
110.5784493424
 31
0.0
 12
206.3327837878
 22
109.5624493424
 32
0.0
 13
206.3327837878
 23
109.5624493424
 33
0.0
  0
SOLID
  5
CE
330
CA
100
AcDbEntity
  8
0
  6
Continuous
 62
     7
370
     0
100
AcDbTrace
 10
224.6347837878
 20
110.0704493424
 30
0.0
 11
227.9367837878
 21
109.5624493424
 31
0.0
 12
227.9367837878
 22
110.5784493424
 32
0.0
 13
227.9367837878
 23
110.5784493424
 33
0.0
  0
LINE
  5
CF
330
CA
100
AcDbEntity
  8
0
  6
Continuous
 62
     7
370
     0
100
AcDbLine
 10
209.6347837878
 20
113.9744352171
 30
0.0
 11
209.6347837878
 21
109.0704493424
 31
0.0
  0
LINE
  5
D0
330
CA
100
AcDbEntity
  8
0
  6
Continuous
 62
     7
370
     0
100
AcDbLine
 10
224.6347837878
 20
113.9744352171
 30
0.0
 11
224.6347837878
 21
109.0704493424
 31
0.0
  0
LINE
  5
D1
330
CA
100
AcDbEntity
  8
0
  6
Continuous
 62
     7
370
     0
100
AcDbLine
 10
209.6347837878
 20
110.0704493424
 30
0.0
 11
203.2847837878
 21
110.0704493424
 31
0.0
  0
LINE
  5
D2
330
CA
100
AcDbEntity
  8
0
  6
Continuous
 62
     7
370
     0
100
AcDbLine
 10
209.6347837878
 20
110.0704493424
 30
0.0
 11
224.6347837878
 21
110.0704493424
 31
0.0
  0
LINE
  5
D3
330
CA
100
AcDbEntity
  8
0
  6
Continuous
 62
     7
370
     0
100
AcDbLine
 10
224.6347837878
 20
110.0704493424
 30
0.0
 11
230.9847837878
 21
110.0704493424
 31
0.0
  0
MTEXT
  5
D4
330
CA
100
AcDbEntity
  8
0
  6
Continuous
 62
     7
370
     0
100
AcDbMText
 10
221.8415908435
 20
114.5821862569
 30
0.0
 40
3.5
 41
0.0
 71
     1
 72
     1
  1
15
  7
SLDTEXTSTYLE0
 73
     1
 44
1.0
  0
ENDBLK
  5
CC
330
CA
100
AcDbEntity
  8
0
100
AcDbBlockEnd
  0
BLOCK
  5
D7
330
D6
100
AcDbEntity
  8
0
100
AcDbBlockBegin
  2
_D_4
 70
     0
 10
0.0
 20
0.0
 30
0.0
  3
_D_4
  1

  0
SOLID
  5
D9
330
D6
100
AcDbEntity
  8
0
  6
Continuous
 62
     7
370
     0
100
AcDbTrace
 10
209.6347837878
 20
104.9744352171
 30
0.0
 11
212.9367837878
 21
104.4664352171
 31
0.0
 12
212.9367837878
 22
105.4824352171
 32
0.0
 13
212.9367837878
 23
105.4824352171
 33
0.0
  0
SOLID
  5
DA
330
D6
100
AcDbEntity
  8
0
  6
Continuous
 62
     7
370
     0
100
AcDbTrace
 10
238.6347837878
 20
104.9744352171
 30
0.0
 11
235.3327837878
 21
105.4824352171
 31
0.0
 12
235.3327837878
 22
104.4664352171
 32
0.0
 13
235.3327837878
 23
104.4664352171
 33
0.0
  0
LINE
  5
DB
330
D6
100
AcDbEntity
  8
0
  6
Continuous
 62
     7
370
     0
100
AcDbLine
 10
209.6347837878
 20
113.9744352171
 30
0.0
 11
209.6347837878
 21
103.9744352171
 31
0.0
  0
LINE
  5
DC
330
D6
100
AcDbEntity
  8
0
  6
Continuous
 62
     7
370
     0
100
AcDbLine
 10
238.6347837878
 20
113.9744352171
 30
0.0
 11
238.6347837878
 21
103.9744352171
 31
0.0
  0
LINE
  5
DD
330
D6
100
AcDbEntity
  8
0
  6
Continuous
 62
     7
370
     0
100
AcDbLine
 10
209.6347837878
 20
104.9744352171
 30
0.0
 11
238.6347837878
 21
104.9744352171
 31
0.0
  0
LINE
  5
DE
330
D6
100
AcDbEntity
  8
0
  6
Continuous
 62
     7
370
     0
100
AcDbLine
 10
238.6347837878
 20
104.9744352171
 30
0.0
 11
242.7845603272
 21
104.9744352171
 31
0.0
  0
MTEXT
  5
DF
330
D6
100
AcDbEntity
  8
0
  6
Continuous
 62
     7
370
     0
100
AcDbMText
 10
237.6123379401
 20
109.4861721317
 30
0.0
 40
3.5
 41
0.0
 71
     1
 72
     1
  1
29
  7
SLDTEXTSTYLE0
 73
     1
 44
1.0
  0
ENDBLK
  5
D8
330
D6
100
AcDbEntity
  8
0
100
AcDbBlockEnd
  0
BLOCK
  5
E2
330
E1
100
AcDbEntity
  8
0
100
AcDbBlockBegin
  2
_D_5
 70
     0
 10
0.0
 20
0.0
 30
0.0
  3
_D_5
  1

  0
SOLID
  5
E4
330
E1
100
AcDbEntity
  8
0
  6
Continuous
 62
     7
370
     0
100
AcDbTrace
 10
180.6347837878
 20
104.9744352171
 30
0.0
 11
183.9367837878
 21
104.4664352171
 31
0.0
 12
183.9367837878
 22
105.4824352171
 32
0.0
 13
183.9367837878
 23
105.4824352171
 33
0.0
  0
SOLID
  5
E5
330
E1
100
AcDbEntity
  8
0
  6
Continuous
 62
     7
370
     0
100
AcDbTrace
 10
209.6347837878
 20
104.9744352171
 30
0.0
 11
206.3327837878
 21
105.4824352171
 31
0.0
 12
206.3327837878
 22
104.4664352171
 32
0.0
 13
206.3327837878
 23
104.4664352171
 33
0.0
  0
LINE
  5
E6
330
E1
100
AcDbEntity
  8
0
  6
Continuous
 62
     7
370
     0
100
AcDbLine
 10
180.6347837878
 20
113.9744352171
 30
0.0
 11
180.6347837878
 21
103.9744352171
 31
0.0
  0
LINE
  5
E7
330
E1
100
AcDbEntity
  8
0
  6
Continuous
 62
     7
370
     0
100
AcDbLine
 10
209.6347837878
 20
113.9744352171
 30
0.0
 11
209.6347837878
 21
103.9744352171
 31
0.0
  0
LINE
  5
E8
330
E1
100
AcDbEntity
  8
0
  6
Continuous
 62
     7
370
     0
100
AcDbLine
 10
180.6347837878
 20
104.9744352171
 30
0.0
 11
209.6347837878
 21
104.9744352171
 31
0.0
  0
MTEXT
  5
E9
330
E1
100
AcDbEntity
  8
0
  6
Continuous
 62
     7
370
     0
100
AcDbMText
 10
198.4057320295
 20
109.4861721317
 30
0.0
 40
3.5
 41
0.0
 71
     1
 72
     1
  1
29
  7
SLDTEXTSTYLE0
 73
     1
 44
1.0
  0
ENDBLK
  5
E3
330
E1
100
AcDbEntity
  8
0
100
AcDbBlockEnd
  0
BLOCK
  5
EC
330
EB
100
AcDbEntity
  8
0
100
AcDbBlockBegin
  2
_D_6
 70
     0
 10
0.0
 20
0.0
 30
0.0
  3
_D_6
  1

  0
SOLID
  5
EE
330
EB
100
AcDbEntity
  8
0
  6
Continuous
 62
     7
370
     0
100
AcDbTrace
 10
194.5077137286
 20
110.0704493424
 30
0.0
 11
191.2057137286
 21
110.5784493424
 31
0.0
 12
191.2057137286
 22
109.5624493424
 32
0.0
 13
191.2057137286
 23
109.5624493424
 33
0.0
  0
SOLID
  5
EF
330
EB
100
AcDbEntity
  8
0
  6
Continuous
 62
     7
370
     0
100
AcDbTrace
 10
209.6347837878
 20
110.0704493424
 30
0.0
 11
212.9367837878
 21
109.5624493424
 31
0.0
 12
212.9367837878
 22
110.5784493424
 32
0.0
 13
212.9367837878
 23
110.5784493424
 33
0.0
  0
LINE
  5
F0
330
EB
100
AcDbEntity
  8
0
  6
Continuous
 62
     7
370
     0
100
AcDbLine
 10
194.5077137286
 20
113.9744352171
 30
0.0
 11
194.5077137286
 21
109.0704493424
 31
0.0
  0
LINE
  5
F1
330
EB
100
AcDbEntity
  8
0
  6
Continuous
 62
     7
370
     0
100
AcDbLine
 10
209.6347837878
 20
113.9744352171
 30
0.0
 11
209.6347837878
 21
109.0704493424
 31
0.0
  0
LINE
  5
F2
330
EB
100
AcDbEntity
  8
0
  6
Continuous
 62
     7
370
     0
100
AcDbLine
 10
194.5077137286
 20
110.0704493424
 30
0.0
 11
188.1577137286
 21
110.0704493424
 31
0.0
  0
LINE
  5
F3
330
EB
100
AcDbEntity
  8
0
  6
Continuous
 62
     7
370
     0
100
AcDbLine
 10
194.5077137286
 20
110.0704493424
 30
0.0
 11
209.6347837878
 21
110.0704493424
 31
0.0
  0
LINE
  5
F4
330
EB
100
AcDbEntity
  8
0
  6
Continuous
 62
     7
370
     0
100
AcDbLine
 10
209.6347837878
 20
110.0704493424
 30
0.0
 11
215.9847837878
 21
110.0704493424
 31
0.0
  0
MTEXT
  5
F5
330
EB
100
AcDbEntity
  8
0
  6
Continuous
 62
     7
370
     0
100
AcDbMText
 10
198.4057320295
 20
114.5821862569
 30
0.0
 40
3.5
 41
0.0
 71
     1
 72
     1
  1
15
  7
SLDTEXTSTYLE0
 73
     1
 44
1.0
  0
ENDBLK
  5
ED
330
EB
100
AcDbEntity
  8
0
100
AcDbBlockEnd
  0
BLOCK
  5
F8
330
F7
100
AcDbEntity
  8
0
100
AcDbBlockBegin
  2
_D_7
 70
     0
 10
0.0
 20
0.0
 30
0.0
  3
_D_7
  1

  0
SOLID
  5
FA
330
F7
100
AcDbEntity
  8
0
  6
Continuous
 62
     7
370
     0
100
AcDbTrace
 10
164.6347837878
 20
276.2373212455
 30
0.0
 11
167.9367837878
 21
275.7293212455
 31
0.0
 12
167.9367837878
 22
276.7453212455
 32
0.0
 13
167.9367837878
 23
276.7453212455
 33
0.0
  0
SOLID
  5
FB
330
F7
100
AcDbEntity
  8
0
  6
Continuous
 62
     7
370
     0
100
AcDbTrace
 10
254.6347837878
 20
276.2373212455
 30
0.0
 11
251.3327837878
 21
276.7453212455
 31
0.0
 12
251.3327837878
 22
275.7293212455
 32
0.0
 13
251.3327837878
 23
275.7293212455
 33
0.0
  0
LINE
  5
FC
330
F7
100
AcDbEntity
  8
0
  6
Continuous
 62
     7
370
     0
100
AcDbLine
 10
164.6347837878
 20
270.9744352171
 30
0.0
 11
164.6347837878
 21
277.2373212455
 31
0.0
  0
LINE
  5
FD
330
F7
100
AcDbEntity
  8
0
  6
Continuous
 62
     7
370
     0
100
AcDbLine
 10
254.6347837878
 20
270.9744352171
 30
0.0
 11
254.6347837878
 21
277.2373212455
 31
0.0
  0
LINE
  5
FE
330
F7
100
AcDbEntity
  8
0
  6
Continuous
 62
     7
370
     0
100
AcDbLine
 10
164.6347837878
 20
276.2373212455
 30
0.0
 11
254.6347837878
 21
276.2373212455
 31
0.0
  0
MTEXT
  5
FF
330
F7
100
AcDbEntity
  8
0
  6
Continuous
 62
     7
370
     0
100
AcDbMText
 10
247.1053275158
 20
280.7490581601
 30
0.0
 40
3.5
 41
0.0
 71
     1
 72
     1
  1
90
  7
SLDTEXTSTYLE0
 73
     1
 44
1.0
  0
ENDBLK
  5
F9
330
F7
100
AcDbEntity
  8
0
100
AcDbBlockEnd
  0
BLOCK
  5
102
330
101
100
AcDbEntity
  8
0
100
AcDbBlockBegin
  2
_D_8
 70
     0
 10
0.0
 20
0.0
 30
0.0
  3
_D_8
  1

  0
SOLID
  5
104
330
101
100
AcDbEntity
  8
0
  6
Continuous
 62
     7
370
     0
100
AcDbTrace
 10
264.6347837878
 20
269.9744352171
 30
0.0
 11
264.1267837878
 21
266.6724352171
 31
0.0
 12
265.1427837878
 22
266.6724352171
 32
0.0
 13
265.1427837878
 23
266.6724352171
 33
0.0
  0
SOLID
  5
105
330
101
100
AcDbEntity
  8
0
  6
Continuous
 62
     7
370
     0
100
AcDbTrace
 10
264.6347837878
 20
114.9744352171
 30
0.0
 11
265.1427837878
 21
118.2764352171
 31
0.0
 12
264.1267837878
 22
118.2764352171
 32
0.0
 13
264.1267837878
 23
118.2764352171
 33
0.0
  0
LINE
  5
106
330
101
100
AcDbEntity
  8
0
  6
Continuous
 62
     7
370
     0
100
AcDbLine
 10
255.6347837878
 20
269.9744352171
 30
0.0
 11
265.6347837878
 21
269.9744352171
 31
0.0
  0
LINE
  5
107
330
101
100
AcDbEntity
  8
0
  6
Continuous
 62
     7
370
     0
100
AcDbLine
 10
255.6347837878
 20
114.9744352171
 30
0.0
 11
265.6347837878
 21
114.9744352171
 31
0.0
  0
LINE
  5
108
330
101
100
AcDbEntity
  8
0
  6
Continuous
 62
     7
370
     0
100
AcDbLine
 10
264.6347837878
 20
269.9744352171
 30
0.0
 11
264.6347837878
 21
280.1164879193
 31
0.0
  0
LINE
  5
109
330
101
100
AcDbEntity
  8
0
  6
Continuous
 62
     7
370
     0
100
AcDbLine
 10
264.6347837878
 20
269.9744352171
 30
0.0
 11
264.6347837878
 21
114.9744352171
 31
0.0
  0
MTEXT
  5
10A
330
101
100
AcDbEntity
  8
0
  6
Continuous
 62
     7
370
     0
100
AcDbMText
 10
260.1230468732
 20
272.3581545716
 30
0.0
 40
3.5
 41
0.0
 71
     1
 72
     1
  1
155
  7
SLDTEXTSTYLE0
 11
-1.059690869644414E-14
 21
1.0
 31
0.0
 73
     1
 44
1.0
  0
ENDBLK
  5
103
330
101
100
AcDbEntity
  8
0
100
AcDbBlockEnd
  0
BLOCK
  5
10D
330
10C
100
AcDbEntity
  8
0
100
AcDbBlockBegin
  2
_D_9
 70
     0
 10
0.0
 20
0.0
 30
0.0
  3
_D_9
  1

  0
SOLID
  5
10F
330
10C
100
AcDbEntity
  8
0
  6
Continuous
 62
     7
370
     0
100
AcDbTrace
 10
209.6347837878
 20
217.8026554015
 30
0.0
 11
206.3327837878
 21
218.3106554015
 31
0.0
 12
206.3327837878
 22
217.2946554015
 32
0.0
 13
206.3327837878
 23
217.2946554015
 33
0.0
  0
SOLID
  5
110
330
10C
100
AcDbEntity
  8
0
  6
Continuous
 62
     7
370
     0
100
AcDbTrace
 10
164.6347837878
 20
217.8026554015
 30
0.0
 11
167.9367837878
 21
217.2946554015
 31
0.0
 12
167.9367837878
 22
218.3106554015
 32
0.0
 13
167.9367837878
 23
218.3106554015
 33
0.0
  0
LINE
  5
111
330
10C
100
AcDbEntity
  8
0
  6
Continuous
 62
     7
370
     0
100
AcDbLine
 10
209.6347837878
 20
223.9744352171
 30
0.0
 11
209.6347837878
 21
216.8026554015
 31
0.0
  0
LINE
  5
112
330
10C
100
AcDbEntity
  8
0
  6
Continuous
 62
     7
370
     0
100
AcDbLine
 10
209.6347837878
 20
217.8026554015
 30
0.0
 11
273.2208949813
 21
217.8026554015
 31
0.0
  0
LINE
  5
113
330
10C
100
AcDbEntity
  8
0
  6
Continuous
 62
     7
370
     0
100
AcDbLine
 10
209.6347837878
 20
217.8026554015
 30
0.0
 11
164.6347837878
 21
217.8026554015
 31
0.0
  0
MTEXT
  5
114
330
10C
100
AcDbEntity
  8
0
  6
Continuous
 62
     7
370
     0
100
AcDbMText
 10
268.0486725943
 20
222.3143923161
 30
0.0
 40
3.5
 41
0.0
 71
     1
 72
     1
  1
45
  7
SLDTEXTSTYLE0
 73
     1
 44
1.0
  0
ENDBLK
  5
10E
330
10C
100
AcDbEntity
  8
0
100
AcDbBlockEnd
  0
BLOCK
  5
117
330
116
100
AcDbEntity
  8
0
100
AcDbBlockBegin
  2
_D_10
 70
     0
 10
0.0
 20
0.0
 30
0.0
  3
_D_10
  1

  0
SOLID
  5
119
330
116
100
AcDbEntity
  8
0
  6
Continuous
 62
     7
370
     0
100
AcDbTrace
 10
282.6347837878
 20
224.9744352171
 30
0.0
 11
283.1427837878
 21
228.2764352171
 31
0.0
 12
282.1267837878
 22
228.2764352171
 32
0.0
 13
282.1267837878
 23
228.2764352171
 33
0.0
  0
SOLID
  5
11A
330
116
100
AcDbEntity
  8
0
  6
Continuous
 62
     7
370
     0
100
AcDbTrace
 10
282.6347837878
 20
269.9744352171
 30
0.0
 11
282.1267837878
 21
266.6724352171
 31
0.0
 12
283.1427837878
 22
266.6724352171
 32
0.0
 13
283.1427837878
 23
266.6724352171
 33
0.0
  0
LINE
  5
11B
330
116
100
AcDbEntity
  8
0
  6
Continuous
 62
     7
370
     0
100
AcDbLine
 10
210.6347837878
 20
224.9744352171
 30
0.0
 11
283.6347837878
 21
224.9744352171
 31
0.0
  0
LINE
  5
11C
330
116
100
AcDbEntity
  8
0
  6
Continuous
 62
     7
370
     0
100
AcDbLine
 10
255.6347837878
 20
269.9744352171
 30
0.0
 11
283.6347837878
 21
269.9744352171
 31
0.0
  0
LINE
  5
11D
330
116
100
AcDbEntity
  8
0
  6
Continuous
 62
     7
370
     0
100
AcDbLine
 10
282.6347837878
 20
224.9744352171
 30
0.0
 11
282.6347837878
 21
215.216544208
 31
0.0
  0
LINE
  5
11E
330
116
100
AcDbEntity
  8
0
  6
Continuous
 62
     7
370
     0
100
AcDbLine
 10
282.6347837878
 20
224.9744352171
 30
0.0
 11
282.6347837878
 21
269.9744352171
 31
0.0
  0
MTEXT
  5
11F
330
116
100
AcDbEntity
  8
0
  6
Continuous
 62
     7
370
     0
100
AcDbMText
 10
278.1230468732
 20
215.216544208
 30
0.0
 40
3.5
 41
0.0
 71
     1
 72
     1
  1
45
  7
SLDTEXTSTYLE0
 11
-3.491481338843133E-15
 21
1.0
 31
0.0
 73
     1
 44
1.0
  0
ENDBLK
  5
118
330
116
100
AcDbEntity
  8
0
100
AcDbBlockEnd
  0
BLOCK
  5
123
330
122
100
AcDbEntity
  8
0
100
AcDbBlockBegin
  2
_D_11
 70
     0
 10
0.0
 20
0.0
 30
0.0
  3
_D_11
  1

  0
SOLID
  5
125
330
122
100
AcDbEntity
  8
0
  6
Continuous
 62
     7
370
     0
100
AcDbTrace
 10
218.4380623519
 20
267.0636533914
 30
0.0
 11
217.2648123833
 21
263.9355944867
 31
0.0
 12
218.259292515
 22
263.7275914397
 32
0.0
 13
218.259292515
 23
263.7275914397
 33
0.0
  0
LINE
  5
126
330
122
100
AcDbEntity
  8
0
  6
Continuous
 62
     7
370
     0
100
AcDbLine
 10
218.4380623519
 20
267.0636533914
 30
0.0
 11
209.6347837878
 21
224.9744352171
 31
0.0
  0
MTEXT
  5
127
330
122
100
AcDbEntity
  8
0
  6
Continuous
 62
     7
370
     0
100
AcDbMText
 10
209.6052773368
 20
246.7913284315
 30
0.0
 40
3.5
 41
0.0
 71
     1
 72
     1
  1
R43
  7
SLDTEXTSTYLE0
 11
0.2047274084681626
 21
0.9788190273088841
 31
0.0
 73
     1
 44
1.0
  0
ENDBLK
  5
124
330
122
100
AcDbEntity
  8
0
100
AcDbBlockEnd
  0
BLOCK
  5
12A
330
129
100
AcDbEntity
  8
0
100
AcDbBlockBegin
  2
_D_12
 70
     0
 10
0.0
 20
0.0
 30
0.0
  3
_D_12
  1

  0
SOLID
  5
12C
330
129
100
AcDbEntity
  8
0
  6
Continuous
 62
     7
370
     0
100
AcDbTrace
 10
185.8585910111
 20
266.2744352171
 30
0.0
 11
185.3505910111
 21
262.9724352171
 31
0.0
 12
186.3665910111
 22
262.9724352171
 32
0.0
 13
186.3665910111
 23
262.9724352171
 33
0.0
  0
SOLID
  5
12D
330
129
100
AcDbEntity
  8
0
  6
Continuous
 62
     7
370
     0
100
AcDbTrace
 10
185.8585910111
 20
224.9744352171
 30
0.0
 11
186.3665910111
 21
228.2764352171
 31
0.0
 12
185.3505910111
 22
228.2764352171
 32
0.0
 13
185.3505910111
 23
228.2764352171
 33
0.0
  0
LINE
  5
12E
330
129
100
AcDbEntity
  8
0
  6
Continuous
 62
     7
370
     0
100
AcDbLine
 10
185.8585910111
 20
266.2744352171
 30
0.0
 11
185.8585910111
 21
224.9744352171
 31
0.0
  0
MTEXT
  5
12F
330
129
100
AcDbEntity
  8
0
  6
Continuous
 62
     7
370
     0
100
AcDbMText
 10
181.3468540966
 20
234.4917814419
 30
0.0
 40
3.5
 41
0.0
 71
     1
 72
     1
  1
41,30
  7
SLDTEXTSTYLE0
 11
-1.059690869644414E-14
 21
1.0
 31
0.0
 73
     1
 44
1.0
  0
ENDBLK
  5
12B
330
129
100
AcDbEntity
  8
0
100
AcDbBlockEnd
  0
BLOCK
  5
132
330
131
100
AcDbEntity
  8
0
100
AcDbBlockBegin
  2
_D_13
 70
     0
 10
0.0
 20
0.0
 30
0.0
  3
_D_13
  1

  0
SOLID
  5
134
330
131
100
AcDbEntity
  8
0
  6
Continuous
 62
     7
370
     0
100
AcDbTrace
 10
168.3347837878
 20
246.9040269748
 30
0.0
 11
171.6367837878
 21
246.3960269748
 31
0.0
 12
171.6367837878
 22
247.4120269748
 32
0.0
 13
171.6367837878
 23
247.4120269748
 33
0.0
  0
SOLID
  5
135
330
131
100
AcDbEntity
  8
0
  6
Continuous
 62
     7
370
     0
100
AcDbTrace
 10
209.6347837878
 20
246.9040269748
 30
0.0
 11
206.3327837878
 21
247.4120269748
 31
0.0
 12
206.3327837878
 22
246.3960269748
 32
0.0
 13
206.3327837878
 23
246.3960269748
 33
0.0
  0
LINE
  5
136
330
131
100
AcDbEntity
  8
0
  6
Continuous
 62
     7
370
     0
100
AcDbLine
 10
168.3347837878
 20
246.9040269748
 30
0.0
 11
209.6347837878
 21
246.9040269748
 31
0.0
  0
MTEXT
  5
137
330
131
100
AcDbEntity
  8
0
  6
Continuous
 62
     7
370
     0
100
AcDbMText
 10
187.5243489337
 20
251.4157638894
 30
0.0
 40
3.5
 41
0.0
 71
     1
 72
     1
  1
41,30
  7
SLDTEXTSTYLE0
 73
     1
 44
1.0
  0
ENDBLK
  5
133
330
131
100
AcDbEntity
  8
0
100
AcDbBlockEnd
  0
BLOCK
  5
13A
330
139
100
AcDbEntity
  8
0
100
AcDbBlockBegin
  2
_D_14
 70
     0
 10
0.0
 20
0.0
 30
0.0
  3
_D_14
  1

  0
SOLID
  5
13C
330
139
100
AcDbEntity
  8
0
  6
Continuous
 62
     7
370
     0
100
AcDbTrace
 10
234.8567983683
 20
190.1744352171
 30
0.0
 11
235.3647983683
 21
193.4764352171
 31
0.0
 12
234.3487983683
 22
193.4764352171
 32
0.0
 13
234.3487983683
 23
193.4764352171
 33
0.0
  0
SOLID
  5
13D
330
139
100
AcDbEntity
  8
0
  6
Continuous
 62
     7
370
     0
100
AcDbTrace
 10
234.8567983683
 20
224.9744352171
 30
0.0
 11
234.3487983683
 21
221.6724352171
 31
0.0
 12
235.3647983683
 22
221.6724352171
 32
0.0
 13
235.3647983683
 23
221.6724352171
 33
0.0
  0
LINE
  5
13E
330
139
100
AcDbEntity
  8
0
  6
Continuous
 62
     7
370
     0
100
AcDbLine
 10
237.9347837878
 20
190.1744352171
 30
0.0
 11
233.8567983683
 21
190.1744352171
 31
0.0
  0
LINE
  5
13F
330
139
100
AcDbEntity
  8
0
  6
Continuous
 62
     7
370
     0
100
AcDbLine
 10
234.8567983683
 20
190.1744352171
 30
0.0
 11
234.8567983683
 21
224.9744352171
 31
0.0
  0
MTEXT
  5
140
330
139
100
AcDbEntity
  8
0
  6
Continuous
 62
     7
370
     0
100
AcDbMText
 10
230.3450614537
 20
191.6508822029
 30
0.0
 40
3.5
 41
0.0
 71
     1
 72
     1
  1
34,80
  7
SLDTEXTSTYLE0
 11
-3.491481338843133E-15
 21
1.0
 31
0.0
 73
     1
 44
1.0
  0
ENDBLK
  5
13B
330
139
100
AcDbEntity
  8
0
100
AcDbBlockEnd
  0
BLOCK
  5
143
330
142
100
AcDbEntity
  8
0
100
AcDbBlockBegin
  2
_D_15
 70
     0
 10
0.0
 20
0.0
 30
0.0
  3
_D_15
  1

  0
SOLID
  5
145
330
142
100
AcDbEntity
  8
0
  6
Continuous
 62
     7
370
     0
100
AcDbTrace
 10
244.4347837878
 20
187.7228437223
 30
0.0
 11
241.1327837878
 21
188.2308437223
 31
0.0
 12
241.1327837878
 22
187.2148437223
 32
0.0
 13
241.1327837878
 23
187.2148437223
 33
0.0
  0
SOLID
  5
146
330
142
100
AcDbEntity
  8
0
  6
Continuous
 62
     7
370
     0
100
AcDbTrace
 10
209.6347837878
 20
187.7228437223
 30
0.0
 11
212.9367837878
 21
187.2148437223
 31
0.0
 12
212.9367837878
 22
188.2308437223
 32
0.0
 13
212.9367837878
 23
188.2308437223
 33
0.0
  0
LINE
  5
147
330
142
100
AcDbEntity
  8
0
  6
Continuous
 62
     7
370
     0
100
AcDbLine
 10
244.4347837878
 20
187.7228437223
 30
0.0
 11
209.6347837878
 21
187.7228437223
 31
0.0
  0
MTEXT
  5
148
330
142
100
AcDbEntity
  8
0
  6
Continuous
 62
     7
370
     0
100
AcDbMText
 10
217.0632441974
 20
192.2345806369
 30
0.0
 40
3.5
 41
0.0
 71
     1
 72
     1
  1
34,80
  7
SLDTEXTSTYLE0
 73
     1
 44
1.0
  0
ENDBLK
  5
144
330
142
100
AcDbEntity
  8
0
100
AcDbBlockEnd
  0
BLOCK
  5
14C
330
14B
100
AcDbEntity
  8
0
100
AcDbBlockBegin
  2
_NONE
 70
     0
 10
0.0
 20
0.0
 30
0.0
  3
_NONE
  1

  0
ENDBLK
  5
14D
330
14B
100
AcDbEntity
  8
0
100
AcDbBlockEnd
  0
BLOCK
  5
14F
330
14E
100
AcDbEntity
  8
0
100
AcDbBlockBegin
  2
_D_16
 70
     0
 10
0.0
 20
0.0
 30
0.0
  3
_D_16
  1

  0
SOLID
  5
151
330
14E
100
AcDbEntity
  8
0
  6
Continuous
 62
     7
370
     0
100
AcDbTrace
 10
176.9561041314
 20
192.2957555607
 30
0.0
 11
179.6501809677
 21
194.2714119073
 31
0.0
 12
178.931760478
 22
194.989832397
 32
0.0
 13
178.931760478
 23
194.989832397
 33
0.0
  0
LINE
  5
152
330
14E
100
AcDbEntity
  8
0
  6
Continuous
 62
     7
370
     0
100
AcDbLine
 10
176.9561041314
 20
192.2957555607
 30
0.0
 11
182.6329458281
 21
197.9725972574
 31
0.0
  0
LINE
  5
153
330
14E
100
AcDbEntity
  8
0
  6
Continuous
 62
     7
370
     0
100
AcDbLine
 10
176.9561041314
 20
192.2957555607
 30
0.0
 11
172.7134634442
 21
188.0531148735
 31
0.0
  0
MTEXT
  5
154
330
14E
100
AcDbEntity
  8
0
  6
Continuous
 62
     7
370
     0
100
AcDbMText
 10
174.0052160181
 20
195.4781754576
 30
0.0
 40
3.5
 41
0.0
 71
     1
 72
     1
  1
%%c
  7
SLDTEXTSTYLE0
 11
0.707106781186545
 21
0.70710678118655
 31
0.0
 73
     1
 44
1.0
  0
MTEXT
  5
155
330
14E
100
AcDbEntity
  8
0
  6
Continuous
 62
     7
370
     0
100
AcDbMText
 10
177.6998243578
 20
199.2484048748
 30
0.0
 40
3.5
 41
0.0
 71
     1
 72
     1
  1
6
  7
SLDTEXTSTYLE0
 11
0.707106781186545
 21
0.70710678118655
 31
0.0
 73
     1
 44
1.0
  0
ENDBLK
  5
150
330
14E
100
AcDbEntity
  8
0
100
AcDbBlockEnd
  0
BLOCK
  5
158
330
157
100
AcDbEntity
  8
0
100
AcDbBlockBegin
  2
_D_17
 70
     0
 10
0.0
 20
0.0
 30
0.0
  3
_D_17
  1

  0
SOLID
  5
15A
330
157
100
AcDbEntity
  8
0
  6
Continuous
 62
     7
370
     0
100
AcDbTrace
 10
177.1022932605
 20
169.9744352171
 30
0.0
 11
176.5942932605
 21
166.6724352171
 31
0.0
 12
177.6102932605
 22
166.6724352171
 32
0.0
 13
177.6102932605
 23
166.6724352171
 33
0.0
  0
SOLID
  5
15B
330
157
100
AcDbEntity
  8
0
  6
Continuous
 62
     7
370
     0
100
AcDbTrace
 10
177.1022932605
 20
114.9744352171
 30
0.0
 11
177.6102932605
 21
118.2764352171
 31
0.0
 12
176.5942932605
 22
118.2764352171
 32
0.0
 13
176.5942932605
 23
118.2764352171
 33
0.0
  0
LINE
  5
15C
330
157
100
AcDbEntity
  8
0
  6
Continuous
 62
     7
370
     0
100
AcDbLine
 10
175.6347837878
 20
169.9744352171
 30
0.0
 11
178.1022932605
 21
169.9744352171
 31
0.0
  0
LINE
  5
15D
330
157
100
AcDbEntity
  8
0
  6
Continuous
 62
     7
370
     0
100
AcDbLine
 10
177.1022932605
 20
169.9744352171
 30
0.0
 11
177.1022932605
 21
114.9744352171
 31
0.0
  0
MTEXT
  5
15E
330
157
100
AcDbEntity
  8
0
  6
Continuous
 62
     7
370
     0
100
AcDbMText
 10
172.5905563459
 20
164.6332152785
 30
0.0
 40
3.5
 41
0.0
 71
     1
 72
     1
  1
55
  7
SLDTEXTSTYLE0
 11
-1.059690869644414E-14
 21
1.0
 31
0.0
 73
     1
 44
1.0
  0
ENDBLK
  5
159
330
157
100
AcDbEntity
  8
0
100
AcDbBlockEnd
  0
BLOCK
  5
161
330
160
100
AcDbEntity
  8
0
100
AcDbBlockBegin
  2
_D_18
 70
     0
 10
0.0
 20
0.0
 30
0.0
  3
_D_18
  1

  0
SOLID
  5
163
330
160
100
AcDbEntity
  8
0
  6
Continuous
 62
     7
370
     0
100
AcDbTrace
 10
218.234164471
 20
139.9744352171
 30
0.0
 11
217.726164471
 21
136.6724352171
 31
0.0
 12
218.742164471
 22
136.6724352171
 32
0.0
 13
218.742164471
 23
136.6724352171
 33
0.0
  0
SOLID
  5
164
330
160
100
AcDbEntity
  8
0
  6
Continuous
 62
     7
370
     0
100
AcDbTrace
 10
218.234164471
 20
114.9744352171
 30
0.0
 11
218.742164471
 21
118.2764352171
 31
0.0
 12
217.726164471
 22
118.2764352171
 32
0.0
 13
217.726164471
 23
118.2764352171
 33
0.0
  0
LINE
  5
165
330
160
100
AcDbEntity
  8
0
  6
Continuous
 62
     7
370
     0
100
AcDbLine
 10
210.6347837878
 20
139.9744352171
 30
0.0
 11
219.234164471
 21
139.9744352171
 31
0.0
  0
LINE
  5
166
330
160
100
AcDbEntity
  8
0
  6
Continuous
 62
     7
370
     0
100
AcDbLine
 10
218.234164471
 20
139.9744352171
 30
0.0
 11
218.234164471
 21
114.9744352171
 31
0.0
  0
MTEXT
  5
167
330
160
100
AcDbEntity
  8
0
  6
Continuous
 62
     7
370
     0
100
AcDbMText
 10
213.7224275564
 20
121.3347563411
 30
0.0
 40
3.5
 41
0.0
 71
     1
 72
     1
  1
25
  7
SLDTEXTSTYLE0
 11
-1.059690869644414E-14
 21
1.0
 31
0.0
 73
     1
 44
1.0
  0
ENDBLK
  5
162
330
160
100
AcDbEntity
  8
0
100
AcDbBlockEnd
  0
BLOCK
  5
16A
330
169
100
AcDbEntity
  8
0
100
AcDbBlockBegin
  2
_D_19
 70
     0
 10
0.0
 20
0.0
 30
0.0
  3
_D_19
  1

  0
SOLID
  5
16C
330
169
100
AcDbEntity
  8
0
  6
Continuous
 62
     7
370
     0
100
AcDbTrace
 10
212.8847837878
 20
145.6036003417
 30
0.0
 11
214.9757246929
 21
148.209216225
 31
0.0
 12
214.0958428827
 22
148.717216225
 32
0.0
 13
214.0958428827
 23
148.717216225
 33
0.0
  0
LINE
  5
16D
330
169
100
AcDbEntity
  8
0
  6
Continuous
 62
     7
370
     0
100
AcDbLine
 10
212.8847837878
 20
145.6036003417
 30
0.0
 11
219.0476158016
 21
156.2779385082
 31
0.0
  0
LINE
  5
16E
330
169
100
AcDbEntity
  8
0
  6
Continuous
 62
     7
370
     0
100
AcDbLine
 10
212.8847837878
 20
145.6036003417
 30
0.0
 11
206.3847837878
 21
134.3452700925
 31
0.0
  0
MTEXT
  5
16F
330
169
100
AcDbEntity
  8
0
  6
Continuous
 62
     7
370
     0
100
AcDbMText
 10
209.9631654801
 20
149.4554653284
 30
0.0
 40
3.5
 41
0.0
 71
     1
 72
     1
  1
%%c
  7
SLDTEXTSTYLE0
 11
0.5000000000000101
 21
0.8660254037844328
 31
0.0
 73
     1
 44
1.0
  0
MTEXT
  5
170
330
169
100
AcDbEntity
  8
0
  6
Continuous
 62
     7
370
     0
100
AcDbMText
 10
212.5560759159
 20
154.053462296
 30
0.0
 40
3.5
 41
0.0
 71
     1
 72
     1
  1
13
  7
SLDTEXTSTYLE0
 11
0.5000000000000101
 21
0.8660254037844328
 31
0.0
 73
     1
 44
1.0
  0
ENDBLK
  5
16B
330
169
100
AcDbEntity
  8
0
100
AcDbBlockEnd
  0
BLOCK
  5
174
330
173
100
AcDbEntity
  8
0
100
AcDbBlockBegin
  2
_D_20
 70
     0
 10
0.0
 20
0.0
 30
0.0
  3
_D_20
  1

  0
SOLID
  5
176
330
173
100
AcDbEntity
  8
0
  6
Continuous
 62
     7
370
     0
100
AcDbTrace
 10
206.7737217666
 20
142.8354972383
 30
0.0
 11
204.79806542
 21
145.5295740746
 31
0.0
 12
204.0796449303
 22
144.8111535849
 32
0.0
 13
204.0796449303
 23
144.8111535849
 33
0.0
  0
LINE
  5
177
330
173
100
AcDbEntity
  8
0
  6
Continuous
 62
     7
370
     0
100
AcDbLine
 10
206.7737217666
 20
142.8354972383
 30
0.0
 11
195.2208447451
 21
154.3883742598
 31
0.0
  0
LINE
  5
178
330
173
100
AcDbEntity
  8
0
  6
Continuous
 62
     7
370
     0
100
AcDbLine
 10
206.7737217666
 20
142.8354972383
 30
0.0
 11
212.495845809
 21
137.1133731959
 31
0.0
  0
MTEXT
  5
179
330
173
100
AcDbEntity
  8
0
  6
Continuous
 62
     7
370
     0
100
AcDbMText
 10
198.3696650425
 20
157.5371945573
 30
0.0
 40
3.5
 41
0.0
 71
     1
 72
     1
  1
%%c
  7
SLDTEXTSTYLE0
 11
0.707106781186545
 21
-0.70710678118655
 31
0.0
 73
     1
 44
1.0
  0
MTEXT
  5
17A
330
173
100
AcDbEntity
  8
0
  6
Continuous
 62
     7
370
     0
100
AcDbMText
 10
202.1398944597
 20
153.8425862176
 30
0.0
 40
3.5
 41
0.0
 71
     1
 72
     1
  1
8,10
  7
SLDTEXTSTYLE0
 11
0.707106781186545
 21
-0.70710678118655
 31
0.0
 73
     1
 44
1.0
  0
ENDBLK
  5
175
330
173
100
AcDbEntity
  8
0
100
AcDbBlockEnd
  0
BLOCK
  5
17D
330
17C
100
AcDbEntity
  8
0
100
AcDbBlockBegin
  2
_D_21
 70
     0
 10
0.0
 20
0.0
 30
0.0
  3
_D_21
  1

  0
SOLID
  5
17F
330
17C
100
AcDbEntity
  8
0
  6
Continuous
 62
     7
370
     0
100
AcDbTrace
 10
226.6347837878
 20
132.3609466353
 30
0.0
 11
229.9367837878
 21
131.8529466353
 31
0.0
 12
229.9367837878
 22
132.8689466353
 32
0.0
 13
229.9367837878
 23
132.8689466353
 33
0.0
  0
SOLID
  5
180
330
17C
100
AcDbEntity
  8
0
  6
Continuous
 62
     7
370
     0
100
AcDbTrace
 10
222.6347837878
 20
132.3609466353
 30
0.0
 11
219.3327837878
 21
132.8689466353
 31
0.0
 12
219.3327837878
 22
131.8529466353
 32
0.0
 13
219.3327837878
 23
131.8529466353
 33
0.0
  0
LINE
  5
181
330
17C
100
AcDbEntity
  8
0
  6
Continuous
 62
     7
370
     0
100
AcDbLine
 10
226.6347837878
 20
131.4244352171
 30
0.0
 11
226.6347837878
 21
133.3609466353
 31
0.0
  0
LINE
  5
182
330
17C
100
AcDbEntity
  8
0
  6
Continuous
 62
     7
370
     0
100
AcDbLine
 10
222.6347837878
 20
131.4244352171
 30
0.0
 11
222.6347837878
 21
133.3609466353
 31
0.0
  0
LINE
  5
183
330
17C
100
AcDbEntity
  8
0
  6
Continuous
 62
     7
370
     0
100
AcDbLine
 10
226.6347837878
 20
132.3609466353
 30
0.0
 11
234.1199437166
 21
132.3609466353
 31
0.0
  0
LINE
  5
184
330
17C
100
AcDbEntity
  8
0
  6
Continuous
 62
     7
370
     0
100
AcDbLine
 10
226.6347837878
 20
132.3609466353
 30
0.0
 11
222.6347837878
 21
132.3609466353
 31
0.0
  0
LINE
  5
185
330
17C
100
AcDbEntity
  8
0
  6
Continuous
 62
     7
370
     0
100
AcDbLine
 10
222.6347837878
 20
132.3609466353
 30
0.0
 11
216.2847837878
 21
132.3609466353
 31
0.0
  0
MTEXT
  5
186
330
17C
100
AcDbEntity
  8
0
  6
Continuous
 62
     7
370
     0
100
AcDbMText
 10
227.2463323558
 20
136.8726835499
 30
0.0
 40
3.5
 41
0.0
 71
     1
 72
     1
  1
M4
  7
SLDTEXTSTYLE0
 73
     1
 44
1.0
  0
ENDBLK
  5
17E
330
17C
100
AcDbEntity
  8
0
100
AcDbBlockEnd
  0
BLOCK
  5
189
330
188
100
AcDbEntity
  8
0
100
AcDbBlockBegin
  2
_D_22
 70
     0
 10
0.0
 20
0.0
 30
0.0
  3
_D_22
  1

  0
SOLID
  5
18B
330
188
100
AcDbEntity
  8
0
  6
Continuous
 62
     7
370
     0
100
AcDbTrace
 10
240.6347837878
 20
130.4226425229
 30
0.0
 11
243.9367837878
 21
129.9146425229
 31
0.0
 12
243.9367837878
 22
130.9306425229
 32
0.0
 13
243.9367837878
 23
130.9306425229
 33
0.0
  0
SOLID
  5
18C
330
188
100
AcDbEntity
  8
0
  6
Continuous
 62
     7
370
     0
100
AcDbTrace
 10
236.6347837878
 20
130.4226425229
 30
0.0
 11
233.3327837878
 21
130.9306425229
 31
0.0
 12
233.3327837878
 22
129.9146425229
 32
0.0
 13
233.3327837878
 23
129.9146425229
 33
0.0
  0
LINE
  5
18D
330
188
100
AcDbEntity
  8
0
  6
Continuous
 62
     7
370
     0
100
AcDbLine
 10
240.6347837878
 20
129.4244352171
 30
0.0
 11
240.6347837878
 21
129.4226425229
 31
0.0
  0
LINE
  5
18E
330
188
100
AcDbEntity
  8
0
  6
Continuous
 62
     7
370
     0
100
AcDbLine
 10
236.6347837878
 20
129.4244352171
 30
0.0
 11
236.6347837878
 21
129.4226425229
 31
0.0
  0
LINE
  5
18F
330
188
100
AcDbEntity
  8
0
  6
Continuous
 62
     7
370
     0
100
AcDbLine
 10
240.6347837878
 20
130.4226425229
 30
0.0
 11
248.0404914332
 21
130.4226425229
 31
0.0
  0
LINE
  5
190
330
188
100
AcDbEntity
  8
0
  6
Continuous
 62
     7
370
     0
100
AcDbLine
 10
240.6347837878
 20
130.4226425229
 30
0.0
 11
236.6347837878
 21
130.4226425229
 31
0.0
  0
LINE
  5
191
330
188
100
AcDbEntity
  8
0
  6
Continuous
 62
     7
370
     0
100
AcDbLine
 10
236.6347837878
 20
130.4226425229
 30
0.0
 11
230.2847837878
 21
130.4226425229
 31
0.0
  0
MTEXT
  5
192
330
188
100
AcDbEntity
  8
0
  6
Continuous
 62
     7
370
     0
100
AcDbMText
 10
241.1668800724
 20
134.9343794375
 30
0.0
 40
3.5
 41
0.0
 71
     1
 72
     1
  1
M4
  7
SLDTEXTSTYLE0
 73
     1
 44
1.0
  0
ENDBLK
  5
18A
330
188
100
AcDbEntity
  8
0
100
AcDbBlockEnd
  0
BLOCK
  5
195
330
194
100
AcDbEntity
  8
0
100
AcDbBlockBegin
  2
_D_23
 70
     0
 10
0.0
 20
0.0
 30
0.0
  3
_D_23
  1

  0
SOLID
  5
197
330
194
100
AcDbEntity
  8
0
  6
Continuous
 62
     7
370
     0
100
AcDbTrace
 10
196.5077137286
 20
132.3609466353
 30
0.0
 11
199.8097137286
 21
131.8529466353
 31
0.0
 12
199.8097137286
 22
132.8689466353
 32
0.0
 13
199.8097137286
 23
132.8689466353
 33
0.0
  0
SOLID
  5
198
330
194
100
AcDbEntity
  8
0
  6
Continuous
 62
     7
370
     0
100
AcDbTrace
 10
192.5077137286
 20
132.3609466353
 30
0.0
 11
189.2057137286
 21
132.8689466353
 31
0.0
 12
189.2057137286
 22
131.8529466353
 32
0.0
 13
189.2057137286
 23
131.8529466353
 33
0.0
  0
LINE
  5
199
330
194
100
AcDbEntity
  8
0
  6
Continuous
 62
     7
370
     0
100
AcDbLine
 10
196.5077137286
 20
131.4244352171
 30
0.0
 11
196.5077137286
 21
133.3609466353
 31
0.0
  0
LINE
  5
19A
330
194
100
AcDbEntity
  8
0
  6
Continuous
 62
     7
370
     0
100
AcDbLine
 10
192.5077137286
 20
131.4244352171
 30
0.0
 11
192.5077137286
 21
133.3609466353
 31
0.0
  0
LINE
  5
19B
330
194
100
AcDbEntity
  8
0
  6
Continuous
 62
     7
370
     0
100
AcDbLine
 10
196.5077137286
 20
132.3609466353
 30
0.0
 11
202.8577137286
 21
132.3609466353
 31
0.0
  0
LINE
  5
19C
330
194
100
AcDbEntity
  8
0
  6
Continuous
 62
     7
370
     0
100
AcDbLine
 10
196.5077137286
 20
132.3609466353
 30
0.0
 11
192.5077137286
 21
132.3609466353
 31
0.0
  0
LINE
  5
19D
330
194
100
AcDbEntity
  8
0
  6
Continuous
 62
     7
370
     0
100
AcDbLine
 10
192.5077137286
 20
132.3609466353
 30
0.0
 11
185.6608986709
 21
132.3609466353
 31
0.0
  0
MTEXT
  5
19E
330
194
100
AcDbEntity
  8
0
  6
Continuous
 62
     7
370
     0
100
AcDbMText
 10
185.6608986709
 20
136.8726835499
 30
0.0
 40
3.5
 41
0.0
 71
     1
 72
     1
  1
M4
  7
SLDTEXTSTYLE0
 73
     1
 44
1.0
  0
ENDBLK
  5
196
330
194
100
AcDbEntity
  8
0
100
AcDbBlockEnd
  0
BLOCK
  5
1A1
330
1A0
100
AcDbEntity
  8
0
100
AcDbBlockBegin
  2
_D_24
 70
     0
 10
0.0
 20
0.0
 30
0.0
  3
_D_24
  1

  0
SOLID
  5
1A3
330
1A0
100
AcDbEntity
  8
0
  6
Continuous
 62
     7
370
     0
100
AcDbTrace
 10
182.6347837878
 20
131.3917945791
 30
0.0
 11
185.9367837878
 21
130.8837945791
 31
0.0
 12
185.9367837878
 22
131.8997945791
 32
0.0
 13
185.9367837878
 23
131.8997945791
 33
0.0
  0
SOLID
  5
1A4
330
1A0
100
AcDbEntity
  8
0
  6
Continuous
 62
     7
370
     0
100
AcDbTrace
 10
178.6347837878
 20
131.3917945791
 30
0.0
 11
175.3327837878
 21
131.8997945791
 31
0.0
 12
175.3327837878
 22
130.8837945791
 32
0.0
 13
175.3327837878
 23
130.8837945791
 33
0.0
  0
LINE
  5
1A5
330
1A0
100
AcDbEntity
  8
0
  6
Continuous
 62
     7
370
     0
100
AcDbLine
 10
182.6347837878
 20
131.4244352171
 30
0.0
 11
182.6347837878
 21
132.3917945791
 31
0.0
  0
LINE
  5
1A6
330
1A0
100
AcDbEntity
  8
0
  6
Continuous
 62
     7
370
     0
100
AcDbLine
 10
178.6347837878
 20
131.4244352171
 30
0.0
 11
178.6347837878
 21
132.3917945791
 31
0.0
  0
LINE
  5
1A7
330
1A0
100
AcDbEntity
  8
0
  6
Continuous
 62
     7
370
     0
100
AcDbLine
 10
182.6347837878
 20
131.3917945791
 30
0.0
 11
188.9847837878
 21
131.3917945791
 31
0.0
  0
LINE
  5
1A8
330
1A0
100
AcDbEntity
  8
0
  6
Continuous
 62
     7
370
     0
100
AcDbLine
 10
182.6347837878
 20
131.3917945791
 30
0.0
 11
178.6347837878
 21
131.3917945791
 31
0.0
  0
LINE
  5
1A9
330
1A0
100
AcDbEntity
  8
0
  6
Continuous
 62
     7
370
     0
100
AcDbLine
 10
178.6347837878
 20
131.3917945791
 30
0.0
 11
169.1853137152
 21
131.3917945791
 31
0.0
  0
MTEXT
  5
1AA
330
1A0
100
AcDbEntity
  8
0
  6
Continuous
 62
     7
370
     0
100
AcDbMText
 10
169.1853137152
 20
135.9035314937
 30
0.0
 40
3.5
 41
0.0
 71
     1
 72
     1
  1
M4
  7
SLDTEXTSTYLE0
 73
     1
 44
1.0
  0
ENDBLK
  5
1A2
330
1A0
100
AcDbEntity
  8
0
100
AcDbBlockEnd
  0
BLOCK
  5
1AC
330
1AB
100
AcDbEntity
  8
0
100
AcDbBlockBegin
  2
SW_NOTE_0
 70
     0
 10
0.0
 20
0.0
 30
0.0
  3
SW_NOTE_0
  1

  0
LINE
  5
1AE
330
1AB
100
AcDbEntity
  8
0
  6
Continuous
 62
     0
370
     0
100
AcDbLine
 10
30.1807671173
 20
0.0
 30
0.0
 11
0.0
 21
0.0
 31
0.0
  0
MTEXT
  5
1AF
330
1AB
100
AcDbEntity
  8
0
  6
Continuous
 62
     0
370
     0
100
AcDbMText
 10
0.4047344195
 20
9.1019776836
 30
0.0
 40
3.5
 41
0.0
 71
     1
 72
     1
  1
Lfiletage>=15
  7
SLDTEXTSTYLE0
 73
     1
 44
1.0
  0
ENDBLK
  5
1AD
330
1AB
100
AcDbEntity
  8
0
100
AcDbBlockEnd
  0
BLOCK
  5
1B4
330
1B3
100
AcDbEntity
  8
0
100
AcDbBlockBegin
  2
SW_CENTERMARKSYMBOL_0
 70
     0
 10
0.0
 20
0.0
 30
0.0
  3
SW_CENTERMARKSYMBOL_0
  1

  0
LINE
  5
1B6
330
1B3
100
AcDbEntity
  8
0
  6
Continuous
 62
     0
370
     0
100
AcDbLine
 10
0.0
 20
0.0
 30
0.0
 11
-2.5
 21
0.0
 31
0.0
  0
LINE
  5
1B7
330
1B3
100
AcDbEntity
  8
0
  6
Continuous
 62
     0
370
     0
100
AcDbLine
 10
0.0
 20
0.0
 30
0.0
 11
0.0
 21
-2.5
 31
0.0
  0
LINE
  5
1B8
330
1B3
100
AcDbEntity
  8
0
  6
Continuous
 62
     0
370
     0
100
AcDbLine
 10
0.0
 20
0.0
 30
0.0
 11
2.5
 21
0.0
 31
0.0
  0
LINE
  5
1B9
330
1B3
100
AcDbEntity
  8
0
  6
Continuous
 62
     0
370
     0
100
AcDbLine
 10
0.0
 20
0.0
 30
0.0
 11
0.0
 21
2.5
 31
0.0
  0
LINE
  5
1BA
330
1B3
100
AcDbEntity
  8
0
  6
Continuous
 62
     0
370
     0
100
AcDbLine
 10
-5.0
 20
0.0
 30
0.0
 11
-9.0
 21
0.0
 31
0.0
  0
LINE
  5
1BB
330
1B3
100
AcDbEntity
  8
0
  6
Continuous
 62
     0
370
     0
100
AcDbLine
 10
0.0
 20
-5.0
 30
0.0
 11
0.0
 21
-9.0
 31
0.0
  0
LINE
  5
1BC
330
1B3
100
AcDbEntity
  8
0
  6
Continuous
 62
     0
370
     0
100
AcDbLine
 10
5.0
 20
0.0
 30
0.0
 11
9.0
 21
0.0
 31
0.0
  0
LINE
  5
1BD
330
1B3
100
AcDbEntity
  8
0
  6
Continuous
 62
     0
370
     0
100
AcDbLine
 10
0.0
 20
5.0
 30
0.0
 11
0.0
 21
9.0
 31
0.0
  0
ENDBLK
  5
1B5
330
1B3
100
AcDbEntity
  8
0
100
AcDbBlockEnd
  0
BLOCK
  5
1C0
330
1BF
100
AcDbEntity
  8
0
100
AcDbBlockBegin
  2
SW_CENTERMARKSYMBOL_1
 70
     0
 10
0.0
 20
0.0
 30
0.0
  3
SW_CENTERMARKSYMBOL_1
  1

  0
LINE
  5
1C2
330
1BF
100
AcDbEntity
  8
0
  6
Continuous
 62
     0
370
     0
100
AcDbLine
 10
0.0
 20
0.0
 30
0.0
 11
-2.5
 21
0.0
 31
0.0
  0
LINE
  5
1C3
330
1BF
100
AcDbEntity
  8
0
  6
Continuous
 62
     0
370
     0
100
AcDbLine
 10
0.0
 20
0.0
 30
0.0
 11
0.0
 21
-2.5
 31
0.0
  0
LINE
  5
1C4
330
1BF
100
AcDbEntity
  8
0
  6
Continuous
 62
     0
370
     0
100
AcDbLine
 10
0.0
 20
0.0
 30
0.0
 11
2.5
 21
0.0
 31
0.0
  0
LINE
  5
1C5
330
1BF
100
AcDbEntity
  8
0
  6
Continuous
 62
     0
370
     0
100
AcDbLine
 10
0.0
 20
0.0
 30
0.0
 11
0.0
 21
2.5
 31
0.0
  0
LINE
  5
1C6
330
1BF
100
AcDbEntity
  8
0
  6
Continuous
 62
     0
370
     0
100
AcDbLine
 10
-5.0
 20
0.0
 30
0.0
 11
-39.015
 21
0.0
 31
0.0
  0
LINE
  5
1C7
330
1BF
100
AcDbEntity
  8
0
  6
Continuous
 62
     0
370
     0
100
AcDbLine
 10
0.0
 20
-5.0
 30
0.0
 11
0.0
 21
-39.015
 31
0.0
  0
LINE
  5
1C8
330
1BF
100
AcDbEntity
  8
0
  6
Continuous
 62
     0
370
     0
100
AcDbLine
 10
5.0
 20
0.0
 30
0.0
 11
39.015
 21
0.0
 31
0.0
  0
LINE
  5
1C9
330
1BF
100
AcDbEntity
  8
0
  6
Continuous
 62
     0
370
     0
100
AcDbLine
 10
0.0
 20
5.0
 30
0.0
 11
0.0
 21
39.015
 31
0.0
  0
ENDBLK
  5
1C1
330
1BF
100
AcDbEntity
  8
0
100
AcDbBlockEnd
  0
BLOCK
  5
1CC
330
1CB
100
AcDbEntity
  8
0
100
AcDbBlockBegin
  2
SW_CENTERMARKSYMBOL_2
 70
     0
 10
0.0
 20
0.0
 30
0.0
  3
SW_CENTERMARKSYMBOL_2
  1

  0
LINE
  5
1CE
330
1CB
100
AcDbEntity
  8
0
  6
Continuous
 62
     0
370
     0
100
AcDbLine
 10
0.0
 20
0.0
 30
0.0
 11
-2.5
 21
0.0
 31
0.0
  0
LINE
  5
1CF
330
1CB
100
AcDbEntity
  8
0
  6
Continuous
 62
     0
370
     0
100
AcDbLine
 10
0.0
 20
0.0
 30
0.0
 11
0.0
 21
-2.5
 31
0.0
  0
LINE
  5
1D0
330
1CB
100
AcDbEntity
  8
0
  6
Continuous
 62
     0
370
     0
100
AcDbLine
 10
0.0
 20
0.0
 30
0.0
 11
2.5
 21
0.0
 31
0.0
  0
LINE
  5
1D1
330
1CB
100
AcDbEntity
  8
0
  6
Continuous
 62
     0
370
     0
100
AcDbLine
 10
0.0
 20
0.0
 30
0.0
 11
0.0
 21
2.5
 31
0.0
  0
LINE
  5
1D2
330
1CB
100
AcDbEntity
  8
0
  6
Continuous
 62
     0
370
     0
100
AcDbLine
 10
-5.0
 20
0.0
 30
0.0
 11
-5.5
 21
0.0
 31
0.0
  0
LINE
  5
1D3
330
1CB
100
AcDbEntity
  8
0
  6
Continuous
 62
     0
370
     0
100
AcDbLine
 10
0.0
 20
-5.0
 30
0.0
 11
0.0
 21
-5.5
 31
0.0
  0
LINE
  5
1D4
330
1CB
100
AcDbEntity
  8
0
  6
Continuous
 62
     0
370
     0
100
AcDbLine
 10
5.0
 20
0.0
 30
0.0
 11
5.5
 21
0.0
 31
0.0
  0
LINE
  5
1D5
330
1CB
100
AcDbEntity
  8
0
  6
Continuous
 62
     0
370
     0
100
AcDbLine
 10
0.0
 20
5.0
 30
0.0
 11
0.0
 21
5.5
 31
0.0
  0
ENDBLK
  5
1CD
330
1CB
100
AcDbEntity
  8
0
100
AcDbBlockEnd
  0
BLOCK
  5
1D8
330
1D7
100
AcDbEntity
  8
0
100
AcDbBlockBegin
  2
SW_CENTERMARKSYMBOL_3
 70
     0
 10
0.0
 20
0.0
 30
0.0
  3
SW_CENTERMARKSYMBOL_3
  1

  0
LINE
  5
1DA
330
1D7
100
AcDbEntity
  8
0
  6
Continuous
 62
     0
370
     0
100
AcDbLine
 10
0.0
 20
0.0
 30
0.0
 11
-2.5
 21
0.0
 31
0.0
  0
LINE
  5
1DB
330
1D7
100
AcDbEntity
  8
0
  6
Continuous
 62
     0
370
     0
100
AcDbLine
 10
0.0
 20
0.0
 30
0.0
 11
0.0
 21
-2.5
 31
0.0
  0
LINE
  5
1DC
330
1D7
100
AcDbEntity
  8
0
  6
Continuous
 62
     0
370
     0
100
AcDbLine
 10
0.0
 20
0.0
 30
0.0
 11
2.5
 21
0.0
 31
0.0
  0
LINE
  5
1DD
330
1D7
100
AcDbEntity
  8
0
  6
Continuous
 62
     0
370
     0
100
AcDbLine
 10
0.0
 20
0.0
 30
0.0
 11
0.0
 21
2.5
 31
0.0
  0
LINE
  5
1DE
330
1D7
100
AcDbEntity
  8
0
  6
Continuous
 62
     0
370
     0
100
AcDbLine
 10
-5.0
 20
0.0
 30
0.0
 11
-5.5
 21
0.0
 31
0.0
  0
LINE
  5
1DF
330
1D7
100
AcDbEntity
  8
0
  6
Continuous
 62
     0
370
     0
100
AcDbLine
 10
0.0
 20
-5.0
 30
0.0
 11
0.0
 21
-5.5
 31
0.0
  0
LINE
  5
1E0
330
1D7
100
AcDbEntity
  8
0
  6
Continuous
 62
     0
370
     0
100
AcDbLine
 10
5.0
 20
0.0
 30
0.0
 11
5.5
 21
0.0
 31
0.0
  0
LINE
  5
1E1
330
1D7
100
AcDbEntity
  8
0
  6
Continuous
 62
     0
370
     0
100
AcDbLine
 10
0.0
 20
5.0
 30
0.0
 11
0.0
 21
5.5
 31
0.0
  0
ENDBLK
  5
1D9
330
1D7
100
AcDbEntity
  8
0
100
AcDbBlockEnd
  0
BLOCK
  5
1E4
330
1E3
100
AcDbEntity
  8
0
100
AcDbBlockBegin
  2
SW_CENTERMARKSYMBOL_4
 70
     0
 10
0.0
 20
0.0
 30
0.0
  3
SW_CENTERMARKSYMBOL_4
  1

  0
LINE
  5
1E6
330
1E3
100
AcDbEntity
  8
0
  6
Continuous
 62
     0
370
     0
100
AcDbLine
 10
0.0
 20
0.0
 30
0.0
 11
-2.5
 21
0.0
 31
0.0
  0
LINE
  5
1E7
330
1E3
100
AcDbEntity
  8
0
  6
Continuous
 62
     0
370
     0
100
AcDbLine
 10
0.0
 20
0.0
 30
0.0
 11
0.0
 21
-2.5
 31
0.0
  0
LINE
  5
1E8
330
1E3
100
AcDbEntity
  8
0
  6
Continuous
 62
     0
370
     0
100
AcDbLine
 10
0.0
 20
0.0
 30
0.0
 11
2.5
 21
0.0
 31
0.0
  0
LINE
  5
1E9
330
1E3
100
AcDbEntity
  8
0
  6
Continuous
 62
     0
370
     0
100
AcDbLine
 10
0.0
 20
0.0
 30
0.0
 11
0.0
 21
2.5
 31
0.0
  0
LINE
  5
1EA
330
1E3
100
AcDbEntity
  8
0
  6
Continuous
 62
     0
370
     0
100
AcDbLine
 10
-5.0
 20
0.0
 30
0.0
 11
-5.5
 21
0.0
 31
0.0
  0
LINE
  5
1EB
330
1E3
100
AcDbEntity
  8
0
  6
Continuous
 62
     0
370
     0
100
AcDbLine
 10
0.0
 20
-5.0
 30
0.0
 11
0.0
 21
-5.5
 31
0.0
  0
LINE
  5
1EC
330
1E3
100
AcDbEntity
  8
0
  6
Continuous
 62
     0
370
     0
100
AcDbLine
 10
5.0
 20
0.0
 30
0.0
 11
5.5
 21
0.0
 31
0.0
  0
LINE
  5
1ED
330
1E3
100
AcDbEntity
  8
0
  6
Continuous
 62
     0
370
     0
100
AcDbLine
 10
0.0
 20
5.0
 30
0.0
 11
0.0
 21
5.5
 31
0.0
  0
ENDBLK
  5
1E5
330
1E3
100
AcDbEntity
  8
0
100
AcDbBlockEnd
  0
BLOCK
  5
1F0
330
1EF
100
AcDbEntity
  8
0
100
AcDbBlockBegin
  2
SW_CENTERMARKSYMBOL_5
 70
     0
 10
0.0
 20
0.0
 30
0.0
  3
SW_CENTERMARKSYMBOL_5
  1

  0
LINE
  5
1F2
330
1EF
100
AcDbEntity
  8
0
  6
Continuous
 62
     0
370
     0
100
AcDbLine
 10
0.0
 20
0.0
 30
0.0
 11
-2.5
 21
0.0
 31
0.0
  0
LINE
  5
1F3
330
1EF
100
AcDbEntity
  8
0
  6
Continuous
 62
     0
370
     0
100
AcDbLine
 10
0.0
 20
0.0
 30
0.0
 11
0.0
 21
-2.5
 31
0.0
  0
LINE
  5
1F4
330
1EF
100
AcDbEntity
  8
0
  6
Continuous
 62
     0
370
     0
100
AcDbLine
 10
0.0
 20
0.0
 30
0.0
 11
2.5
 21
0.0
 31
0.0
  0
LINE
  5
1F5
330
1EF
100
AcDbEntity
  8
0
  6
Continuous
 62
     0
370
     0
100
AcDbLine
 10
0.0
 20
0.0
 30
0.0
 11
0.0
 21
2.5
 31
0.0
  0
LINE
  5
1F6
330
1EF
100
AcDbEntity
  8
0
  6
Continuous
 62
     0
370
     0
100
AcDbLine
 10
-5.0
 20
0.0
 30
0.0
 11
-5.5
 21
0.0
 31
0.0
  0
LINE
  5
1F7
330
1EF
100
AcDbEntity
  8
0
  6
Continuous
 62
     0
370
     0
100
AcDbLine
 10
0.0
 20
-5.0
 30
0.0
 11
0.0
 21
-5.5
 31
0.0
  0
LINE
  5
1F8
330
1EF
100
AcDbEntity
  8
0
  6
Continuous
 62
     0
370
     0
100
AcDbLine
 10
5.0
 20
0.0
 30
0.0
 11
5.5
 21
0.0
 31
0.0
  0
LINE
  5
1F9
330
1EF
100
AcDbEntity
  8
0
  6
Continuous
 62
     0
370
     0
100
AcDbLine
 10
0.0
 20
5.0
 30
0.0
 11
0.0
 21
5.5
 31
0.0
  0
ENDBLK
  5
1F1
330
1EF
100
AcDbEntity
  8
0
100
AcDbBlockEnd
  0
BLOCK
  5
1FC
330
1FB
100
AcDbEntity
  8
0
100
AcDbBlockBegin
  2
SW_CENTERMARKSYMBOL_6
 70
     0
 10
0.0
 20
0.0
 30
0.0
  3
SW_CENTERMARKSYMBOL_6
  1

  0
LINE
  5
1FE
330
1FB
100
AcDbEntity
  8
0
  6
Continuous
 62
     0
370
     0
100
AcDbLine
 10
0.0
 20
0.0
 30
0.0
 11
-2.5
 21
0.0
 31
0.0
  0
LINE
  5
1FF
330
1FB
100
AcDbEntity
  8
0
  6
Continuous
 62
     0
370
     0
100
AcDbLine
 10
0.0
 20
0.0
 30
0.0
 11
0.0
 21
-2.5
 31
0.0
  0
LINE
  5
200
330
1FB
100
AcDbEntity
  8
0
  6
Continuous
 62
     0
370
     0
100
AcDbLine
 10
0.0
 20
0.0
 30
0.0
 11
2.5
 21
0.0
 31
0.0
  0
LINE
  5
201
330
1FB
100
AcDbEntity
  8
0
  6
Continuous
 62
     0
370
     0
100
AcDbLine
 10
0.0
 20
0.0
 30
0.0
 11
0.0
 21
2.5
 31
0.0
  0
LINE
  5
202
330
1FB
100
AcDbEntity
  8
0
  6
Continuous
 62
     0
370
     0
100
AcDbLine
 10
-2.5
 20
0.0
 30
0.0
 11
-5.0
 21
0.0
 31
0.0
  0
LINE
  5
203
330
1FB
100
AcDbEntity
  8
0
  6
Continuous
 62
     0
370
     0
100
AcDbLine
 10
0.0
 20
-2.5
 30
0.0
 11
0.0
 21
-5.0
 31
0.0
  0
LINE
  5
204
330
1FB
100
AcDbEntity
  8
0
  6
Continuous
 62
     0
370
     0
100
AcDbLine
 10
2.5
 20
0.0
 30
0.0
 11
5.0
 21
0.0
 31
0.0
  0
LINE
  5
205
330
1FB
100
AcDbEntity
  8
0
  6
Continuous
 62
     0
370
     0
100
AcDbLine
 10
0.0
 20
2.5
 30
0.0
 11
0.0
 21
5.0
 31
0.0
  0
ENDBLK
  5
1FD
330
1FB
100
AcDbEntity
  8
0
100
AcDbBlockEnd
  0
BLOCK
  5
208
330
207
100
AcDbEntity
  8
0
100
AcDbBlockBegin
  2
SW_CENTERMARKSYMBOL_7
 70
     0
 10
0.0
 20
0.0
 30
0.0
  3
SW_CENTERMARKSYMBOL_7
  1

  0
LINE
  5
20A
330
207
100
AcDbEntity
  8
0
  6
Continuous
 62
     0
370
     0
100
AcDbLine
 10
0.0
 20
0.0
 30
0.0
 11
-2.5
 21
0.0
 31
0.0
  0
LINE
  5
20B
330
207
100
AcDbEntity
  8
0
  6
Continuous
 62
     0
370
     0
100
AcDbLine
 10
0.0
 20
0.0
 30
0.0
 11
0.0
 21
-2.5
 31
0.0
  0
LINE
  5
20C
330
207
100
AcDbEntity
  8
0
  6
Continuous
 62
     0
370
     0
100
AcDbLine
 10
0.0
 20
0.0
 30
0.0
 11
2.5
 21
0.0
 31
0.0
  0
LINE
  5
20D
330
207
100
AcDbEntity
  8
0
  6
Continuous
 62
     0
370
     0
100
AcDbLine
 10
0.0
 20
0.0
 30
0.0
 11
0.0
 21
2.5
 31
0.0
  0
LINE
  5
20E
330
207
100
AcDbEntity
  8
0
  6
Continuous
 62
     0
370
     0
100
AcDbLine
 10
-2.5
 20
0.0
 30
0.0
 11
-5.0
 21
0.0
 31
0.0
  0
LINE
  5
20F
330
207
100
AcDbEntity
  8
0
  6
Continuous
 62
     0
370
     0
100
AcDbLine
 10
0.0
 20
-2.5
 30
0.0
 11
0.0
 21
-5.0
 31
0.0
  0
LINE
  5
210
330
207
100
AcDbEntity
  8
0
  6
Continuous
 62
     0
370
     0
100
AcDbLine
 10
2.5
 20
0.0
 30
0.0
 11
5.0
 21
0.0
 31
0.0
  0
LINE
  5
211
330
207
100
AcDbEntity
  8
0
  6
Continuous
 62
     0
370
     0
100
AcDbLine
 10
0.0
 20
2.5
 30
0.0
 11
0.0
 21
5.0
 31
0.0
  0
ENDBLK
  5
209
330
207
100
AcDbEntity
  8
0
100
AcDbBlockEnd
  0
BLOCK
  5
24A
330
249
100
AcDbEntity
  8
0
100
AcDbBlockBegin
  2
SW_CENTERMARKSYMBOL_8
 70
     0
 10
0.0
 20
0.0
 30
0.0
  3
SW_CENTERMARKSYMBOL_8
  1

  0
LINE
  5
24C
330
249
100
AcDbEntity
  8
0
  6
Continuous
 62
     0
370
     0
100
AcDbLine
 10
0.0
 20
0.0
 30
0.0
 11
0.0
 21
2.5
 31
0.0
  0
LINE
  5
24D
330
249
100
AcDbEntity
  8
0
  6
Continuous
 62
     0
370
     0
100
AcDbLine
 10
0.0
 20
0.0
 30
0.0
 11
-2.5
 21
0.0
 31
0.0
  0
LINE
  5
24E
330
249
100
AcDbEntity
  8
0
  6
Continuous
 62
     0
370
     0
100
AcDbLine
 10
0.0
 20
0.0
 30
0.0
 11
0.0
 21
-2.5
 31
0.0
  0
LINE
  5
24F
330
249
100
AcDbEntity
  8
0
  6
Continuous
 62
     0
370
     0
100
AcDbLine
 10
0.0
 20
0.0
 30
0.0
 11
2.5
 21
0.0
 31
0.0
  0
LINE
  5
250
330
249
100
AcDbEntity
  8
0
  6
Continuous
 62
     0
370
     0
100
AcDbLine
 10
0.0
 20
2.5
 30
0.0
 11
0.0
 21
4.15
 31
0.0
  0
LINE
  5
251
330
249
100
AcDbEntity
  8
0
  6
Continuous
 62
     0
370
     0
100
AcDbLine
 10
-2.5
 20
0.0
 30
0.0
 11
-4.15
 21
0.0
 31
0.0
  0
LINE
  5
252
330
249
100
AcDbEntity
  8
0
  6
Continuous
 62
     0
370
     0
100
AcDbLine
 10
0.0
 20
-2.5
 30
0.0
 11
0.0
 21
-4.15
 31
0.0
  0
LINE
  5
253
330
249
100
AcDbEntity
  8
0
  6
Continuous
 62
     0
370
     0
100
AcDbLine
 10
2.5
 20
0.0
 30
0.0
 11
4.15
 21
0.0
 31
0.0
  0
ENDBLK
  5
24B
330
249
100
AcDbEntity
  8
0
100
AcDbBlockEnd
  0
BLOCK
  5
256
330
255
100
AcDbEntity
  8
0
100
AcDbBlockBegin
  2
SW_CENTERMARKSYMBOL_9
 70
     0
 10
0.0
 20
0.0
 30
0.0
  3
SW_CENTERMARKSYMBOL_9
  1

  0
LINE
  5
258
330
255
100
AcDbEntity
  8
0
  6
Continuous
 62
     0
370
     0
100
AcDbLine
 10
0.0
 20
0.0
 30
0.0
 11
0.0
 21
2.5
 31
0.0
  0
LINE
  5
259
330
255
100
AcDbEntity
  8
0
  6
Continuous
 62
     0
370
     0
100
AcDbLine
 10
0.0
 20
0.0
 30
0.0
 11
-2.5
 21
0.0
 31
0.0
  0
LINE
  5
25A
330
255
100
AcDbEntity
  8
0
  6
Continuous
 62
     0
370
     0
100
AcDbLine
 10
0.0
 20
0.0
 30
0.0
 11
0.0
 21
-2.5
 31
0.0
  0
LINE
  5
25B
330
255
100
AcDbEntity
  8
0
  6
Continuous
 62
     0
370
     0
100
AcDbLine
 10
0.0
 20
0.0
 30
0.0
 11
2.5
 21
0.0
 31
0.0
  0
LINE
  5
25C
330
255
100
AcDbEntity
  8
0
  6
Continuous
 62
     0
370
     0
100
AcDbLine
 10
0.0
 20
2.5
 30
0.0
 11
0.0
 21
4.15
 31
0.0
  0
LINE
  5
25D
330
255
100
AcDbEntity
  8
0
  6
Continuous
 62
     0
370
     0
100
AcDbLine
 10
-2.5
 20
0.0
 30
0.0
 11
-4.15
 21
0.0
 31
0.0
  0
LINE
  5
25E
330
255
100
AcDbEntity
  8
0
  6
Continuous
 62
     0
370
     0
100
AcDbLine
 10
0.0
 20
-2.5
 30
0.0
 11
0.0
 21
-4.15
 31
0.0
  0
LINE
  5
25F
330
255
100
AcDbEntity
  8
0
  6
Continuous
 62
     0
370
     0
100
AcDbLine
 10
2.5
 20
0.0
 30
0.0
 11
4.15
 21
0.0
 31
0.0
  0
ENDBLK
  5
257
330
255
100
AcDbEntity
  8
0
100
AcDbBlockEnd
  0
BLOCK
  5
262
330
261
100
AcDbEntity
  8
0
100
AcDbBlockBegin
  2
SW_CENTERMARKSYMBOL_10
 70
     0
 10
0.0
 20
0.0
 30
0.0
  3
SW_CENTERMARKSYMBOL_10
  1

  0
LINE
  5
264
330
261
100
AcDbEntity
  8
0
  6
Continuous
 62
     0
370
     0
100
AcDbLine
 10
0.0
 20
0.0
 30
0.0
 11
0.0
 21
2.5
 31
0.0
  0
LINE
  5
265
330
261
100
AcDbEntity
  8
0
  6
Continuous
 62
     0
370
     0
100
AcDbLine
 10
0.0
 20
0.0
 30
0.0
 11
-2.5
 21
0.0
 31
0.0
  0
LINE
  5
266
330
261
100
AcDbEntity
  8
0
  6
Continuous
 62
     0
370
     0
100
AcDbLine
 10
0.0
 20
0.0
 30
0.0
 11
0.0
 21
-2.5
 31
0.0
  0
LINE
  5
267
330
261
100
AcDbEntity
  8
0
  6
Continuous
 62
     0
370
     0
100
AcDbLine
 10
0.0
 20
0.0
 30
0.0
 11
2.5
 21
0.0
 31
0.0
  0
LINE
  5
268
330
261
100
AcDbEntity
  8
0
  6
Continuous
 62
     0
370
     0
100
AcDbLine
 10
0.0
 20
2.5
 30
0.0
 11
0.0
 21
4.15
 31
0.0
  0
LINE
  5
269
330
261
100
AcDbEntity
  8
0
  6
Continuous
 62
     0
370
     0
100
AcDbLine
 10
-2.5
 20
0.0
 30
0.0
 11
-4.15
 21
0.0
 31
0.0
  0
LINE
  5
26A
330
261
100
AcDbEntity
  8
0
  6
Continuous
 62
     0
370
     0
100
AcDbLine
 10
0.0
 20
-2.5
 30
0.0
 11
0.0
 21
-4.15
 31
0.0
  0
LINE
  5
26B
330
261
100
AcDbEntity
  8
0
  6
Continuous
 62
     0
370
     0
100
AcDbLine
 10
2.5
 20
0.0
 30
0.0
 11
4.15
 21
0.0
 31
0.0
  0
ENDBLK
  5
263
330
261
100
AcDbEntity
  8
0
100
AcDbBlockEnd
  0
BLOCK
  5
26E
330
26D
100
AcDbEntity
  8
0
100
AcDbBlockBegin
  2
SW_CENTERMARKSYMBOL_11
 70
     0
 10
0.0
 20
0.0
 30
0.0
  3
SW_CENTERMARKSYMBOL_11
  1

  0
LINE
  5
270
330
26D
100
AcDbEntity
  8
0
  6
Continuous
 62
     0
370
     0
100
AcDbLine
 10
0.0
 20
0.0
 30
0.0
 11
0.0
 21
2.5
 31
0.0
  0
LINE
  5
271
330
26D
100
AcDbEntity
  8
0
  6
Continuous
 62
     0
370
     0
100
AcDbLine
 10
0.0
 20
0.0
 30
0.0
 11
-2.5
 21
0.0
 31
0.0
  0
LINE
  5
272
330
26D
100
AcDbEntity
  8
0
  6
Continuous
 62
     0
370
     0
100
AcDbLine
 10
0.0
 20
0.0
 30
0.0
 11
0.0
 21
-2.5
 31
0.0
  0
LINE
  5
273
330
26D
100
AcDbEntity
  8
0
  6
Continuous
 62
     0
370
     0
100
AcDbLine
 10
0.0
 20
0.0
 30
0.0
 11
2.5
 21
0.0
 31
0.0
  0
LINE
  5
274
330
26D
100
AcDbEntity
  8
0
  6
Continuous
 62
     0
370
     0
100
AcDbLine
 10
0.0
 20
2.5
 30
0.0
 11
0.0
 21
4.15
 31
0.0
  0
LINE
  5
275
330
26D
100
AcDbEntity
  8
0
  6
Continuous
 62
     0
370
     0
100
AcDbLine
 10
-2.5
 20
0.0
 30
0.0
 11
-4.15
 21
0.0
 31
0.0
  0
LINE
  5
276
330
26D
100
AcDbEntity
  8
0
  6
Continuous
 62
     0
370
     0
100
AcDbLine
 10
0.0
 20
-2.5
 30
0.0
 11
0.0
 21
-4.15
 31
0.0
  0
LINE
  5
277
330
26D
100
AcDbEntity
  8
0
  6
Continuous
 62
     0
370
     0
100
AcDbLine
 10
2.5
 20
0.0
 30
0.0
 11
4.15
 21
0.0
 31
0.0
  0
ENDBLK
  5
26F
330
26D
100
AcDbEntity
  8
0
100
AcDbBlockEnd
  0
BLOCK
  5
2B1
330
2B0
100
AcDbEntity
  8
0
100
AcDbBlockBegin
  2
_D_25
 70
     0
 10
0.0
 20
0.0
 30
0.0
  3
_D_25
  1

  0
SOLID
  5
2B3
330
2B0
100
AcDbEntity
  8
0
  6
Continuous
 62
     7
370
     0
100
AcDbTrace
 10
132.263374488
 20
111.790320112
 30
0.0
 11
128.961374488
 21
112.298320112
 31
0.0
 12
128.961374488
 22
111.282320112
 32
0.0
 13
128.961374488
 23
111.282320112
 33
0.0
  0
SOLID
  5
2B4
330
2B0
100
AcDbEntity
  8
0
  6
Continuous
 62
     7
370
     0
100
AcDbTrace
 10
137.263374488
 20
111.790320112
 30
0.0
 11
140.565374488
 21
111.282320112
 31
0.0
 12
140.565374488
 22
112.298320112
 32
0.0
 13
140.565374488
 23
112.298320112
 33
0.0
  0
LINE
  5
2B5
330
2B0
100
AcDbEntity
  8
0
  6
Continuous
 62
     7
370
     0
100
AcDbLine
 10
132.263374488
 20
113.9744352171
 30
0.0
 11
132.263374488
 21
110.790320112
 31
0.0
  0
LINE
  5
2B6
330
2B0
100
AcDbEntity
  8
0
  6
Continuous
 62
     7
370
     0
100
AcDbLine
 10
137.263374488
 20
113.9744352171
 30
0.0
 11
137.263374488
 21
110.790320112
 31
0.0
  0
LINE
  5
2B7
330
2B0
100
AcDbEntity
  8
0
  6
Continuous
 62
     7
370
     0
100
AcDbLine
 10
132.263374488
 20
111.790320112
 30
0.0
 11
125.913374488
 21
111.790320112
 31
0.0
  0
LINE
  5
2B8
330
2B0
100
AcDbEntity
  8
0
  6
Continuous
 62
     7
370
     0
100
AcDbLine
 10
132.263374488
 20
111.790320112
 30
0.0
 11
137.263374488
 21
111.790320112
 31
0.0
  0
LINE
  5
2B9
330
2B0
100
AcDbEntity
  8
0
  6
Continuous
 62
     7
370
     0
100
AcDbLine
 10
137.263374488
 20
111.790320112
 30
0.0
 11
142.9013727555
 21
111.790320112
 31
0.0
  0
MTEXT
  5
2BA
330
2B0
100
AcDbEntity
  8
0
  6
Continuous
 62
     7
370
     0
100
AcDbMText
 10
140.315261562
 20
116.3020570266
 30
0.0
 40
3.5
 41
0.0
 71
     1
 72
     1
  1
5
  7
SLDTEXTSTYLE0
 73
     1
 44
1.0
  0
ENDBLK
  5
2B2
330
2B0
100
AcDbEntity
  8
0
100
AcDbBlockEnd
  0
BLOCK
  5
2BD
330
2BC
100
AcDbEntity
  8
0
100
AcDbBlockBegin
  2
_D_26
 70
     0
 10
0.0
 20
0.0
 30
0.0
  3
_D_26
  1

  0
SOLID
  5
2BF
330
2BC
100
AcDbEntity
  8
0
  6
Continuous
 62
     7
370
     0
100
AcDbTrace
 10
137.263374488
 20
277.4032855757
 30
0.0
 11
140.565374488
 21
276.8952855757
 31
0.0
 12
140.565374488
 22
277.9112855757
 32
0.0
 13
140.565374488
 23
277.9112855757
 33
0.0
  0
SOLID
  5
2C0
330
2BC
100
AcDbEntity
  8
0
  6
Continuous
 62
     7
370
     0
100
AcDbTrace
 10
127.263374488
 20
277.4032855757
 30
0.0
 11
123.961374488
 21
277.9112855757
 31
0.0
 12
123.961374488
 22
276.8952855757
 32
0.0
 13
123.961374488
 23
276.8952855757
 33
0.0
  0
LINE
  5
2C1
330
2BC
100
AcDbEntity
  8
0
  6
Continuous
 62
     7
370
     0
100
AcDbLine
 10
137.263374488
 20
270.9744352171
 30
0.0
 11
137.263374488
 21
278.4032855757
 31
0.0
  0
LINE
  5
2C2
330
2BC
100
AcDbEntity
  8
0
  6
Continuous
 62
     7
370
     0
100
AcDbLine
 10
127.263374488
 20
270.9744352171
 30
0.0
 11
127.263374488
 21
278.4032855757
 31
0.0
  0
LINE
  5
2C3
330
2BC
100
AcDbEntity
  8
0
  6
Continuous
 62
     7
370
     0
100
AcDbLine
 10
137.263374488
 20
277.4032855757
 30
0.0
 11
143.613374488
 21
277.4032855757
 31
0.0
  0
LINE
  5
2C4
330
2BC
100
AcDbEntity
  8
0
  6
Continuous
 62
     7
370
     0
100
AcDbLine
 10
137.263374488
 20
277.4032855757
 30
0.0
 11
127.263374488
 21
277.4032855757
 31
0.0
  0
LINE
  5
2C5
330
2BC
100
AcDbEntity
  8
0
  6
Continuous
 62
     7
370
     0
100
AcDbLine
 10
127.263374488
 20
277.4032855757
 30
0.0
 11
120.913374488
 21
277.4032855757
 31
0.0
  0
MTEXT
  5
2C6
330
2BC
100
AcDbEntity
  8
0
  6
Continuous
 62
     7
370
     0
100
AcDbMText
 10
129.1316692812
 20
281.9150224903
 30
0.0
 40
3.5
 41
0.0
 71
     1
 72
     1
  1
10
  7
SLDTEXTSTYLE0
 73
     1
 44
1.0
  0
ENDBLK
  5
2BE
330
2BC
100
AcDbEntity
  8
0
100
AcDbBlockEnd
  0
BLOCK
  5
2C9
330
2C8
100
AcDbEntity
  8
0
100
AcDbBlockBegin
  2
_D_27
 70
     0
 10
0.0
 20
0.0
 30
0.0
  3
_D_27
  1

  0
SOLID
  5
2CB
330
2C8
100
AcDbEntity
  8
0
  6
Continuous
 62
     7
370
     0
100
AcDbTrace
 10
129.263374488
 20
266.9015999912
 30
0.0
 11
132.565374488
 21
266.3935999912
 31
0.0
 12
132.565374488
 22
267.4095999912
 32
0.0
 13
132.565374488
 23
267.4095999912
 33
0.0
  0
SOLID
  5
2CC
330
2C8
100
AcDbEntity
  8
0
  6
Continuous
 62
     7
370
     0
100
AcDbTrace
 10
127.263374488
 20
266.9015999912
 30
0.0
 11
123.961374488
 21
267.4095999912
 31
0.0
 12
123.961374488
 22
266.3935999912
 32
0.0
 13
123.961374488
 23
266.3935999912
 33
0.0
  0
LINE
  5
2CD
330
2C8
100
AcDbEntity
  8
0
  6
Continuous
 62
     7
370
     0
100
AcDbLine
 10
129.263374488
 20
266.9015999912
 30
0.0
 11
135.613374488
 21
266.9015999912
 31
0.0
  0
LINE
  5
2CE
330
2C8
100
AcDbEntity
  8
0
  6
Continuous
 62
     7
370
     0
100
AcDbLine
 10
129.263374488
 20
266.9015999912
 30
0.0
 11
127.263374488
 21
266.9015999912
 31
0.0
  0
LINE
  5
2CF
330
2C8
100
AcDbEntity
  8
0
  6
Continuous
 62
     7
370
     0
100
AcDbLine
 10
127.263374488
 20
266.9015999912
 30
0.0
 11
120.1699733939
 21
266.9015999912
 31
0.0
  0
MTEXT
  5
2D0
330
2C8
100
AcDbEntity
  8
0
  6
Continuous
 62
     7
370
     0
100
AcDbMText
 10
120.1699733939
 20
271.4133369058
 30
0.0
 40
3.5
 41
0.0
 71
     1
 72
     1
  1
2
  7
SLDTEXTSTYLE0
 73
     1
 44
1.0
  0
ENDBLK
  5
2CA
330
2C8
100
AcDbEntity
  8
0
100
AcDbBlockEnd
  0
BLOCK
  5
2D3
330
2D2
100
AcDbEntity
  8
0
100
AcDbBlockBegin
  2
_D_28
 70
     0
 10
0.0
 20
0.0
 30
0.0
  3
_D_28
  1

  0
SOLID
  5
2D5
330
2D2
100
AcDbEntity
  8
0
  6
Continuous
 62
     7
370
     0
100
AcDbTrace
 10
130.763374488
 20
258.0198802943
 30
0.0
 11
134.065374488
 21
257.5118802943
 31
0.0
 12
134.065374488
 22
258.5278802943
 32
0.0
 13
134.065374488
 23
258.5278802943
 33
0.0
  0
SOLID
  5
2D6
330
2D2
100
AcDbEntity
  8
0
  6
Continuous
 62
     7
370
     0
100
AcDbTrace
 10
127.263374488
 20
258.0198802943
 30
0.0
 11
123.961374488
 21
258.5278802943
 31
0.0
 12
123.961374488
 22
257.5118802943
 32
0.0
 13
123.961374488
 23
257.5118802943
 33
0.0
  0
LINE
  5
2D7
330
2D2
100
AcDbEntity
  8
0
  6
Continuous
 62
     7
370
     0
100
AcDbLine
 10
130.763374488
 20
258.0198802943
 30
0.0
 11
137.113374488
 21
258.0198802943
 31
0.0
  0
LINE
  5
2D8
330
2D2
100
AcDbEntity
  8
0
  6
Continuous
 62
     7
370
     0
100
AcDbLine
 10
130.763374488
 20
258.0198802943
 30
0.0
 11
127.263374488
 21
258.0198802943
 31
0.0
  0
LINE
  5
2D9
330
2D2
100
AcDbEntity
  8
0
  6
Continuous
 62
     7
370
     0
100
AcDbLine
 10
127.263374488
 20
258.0198802943
 30
0.0
 11
116.9373344602
 21
258.0198802943
 31
0.0
  0
MTEXT
  5
2DA
330
2D2
100
AcDbEntity
  8
0
  6
Continuous
 62
     7
370
     0
100
AcDbMText
 10
116.9373344602
 20
262.5316172089
 30
0.0
 40
3.5
 41
0.0
 71
     1
 72
     1
  1
3,50
  7
SLDTEXTSTYLE0
 73
     1
 44
1.0
  0
ENDBLK
  5
2D4
330
2D2
100
AcDbEntity
  8
0
100
AcDbBlockEnd
  0
BLOCK
  5
2DD
330
2DC
100
AcDbEntity
  8
0
100
AcDbBlockBegin
  2
_D_29
 70
     0
 10
0.0
 20
0.0
 30
0.0
  3
_D_29
  1

  0
SOLID
  5
2DF
330
2DC
100
AcDbEntity
  8
0
  6
Continuous
 62
     7
370
     0
100
AcDbTrace
 10
137.263374488
 20
230.223082525
 30
0.0
 11
140.565374488
 21
229.715082525
 31
0.0
 12
140.565374488
 22
230.731082525
 32
0.0
 13
140.565374488
 23
230.731082525
 33
0.0
  0
SOLID
  5
2E0
330
2DC
100
AcDbEntity
  8
0
  6
Continuous
 62
     7
370
     0
100
AcDbTrace
 10
130.763374488
 20
230.223082525
 30
0.0
 11
127.461374488
 21
230.731082525
 31
0.0
 12
127.461374488
 22
229.715082525
 32
0.0
 13
127.461374488
 23
229.715082525
 33
0.0
  0
LINE
  5
2E1
330
2DC
100
AcDbEntity
  8
0
  6
Continuous
 62
     7
370
     0
100
AcDbLine
 10
137.263374488
 20
230.223082525
 30
0.0
 11
148.5788400711
 21
230.223082525
 31
0.0
  0
LINE
  5
2E2
330
2DC
100
AcDbEntity
  8
0
  6
Continuous
 62
     7
370
     0
100
AcDbLine
 10
137.263374488
 20
230.223082525
 30
0.0
 11
130.763374488
 21
230.223082525
 31
0.0
  0
LINE
  5
2E3
330
2DC
100
AcDbEntity
  8
0
  6
Continuous
 62
     7
370
     0
100
AcDbLine
 10
130.763374488
 20
230.223082525
 30
0.0
 11
124.413374488
 21
230.223082525
 31
0.0
  0
MTEXT
  5
2E4
330
2DC
100
AcDbEntity
  8
0
  6
Continuous
 62
     7
370
     0
100
AcDbMText
 10
139.5274510102
 20
234.7348194396
 30
0.0
 40
3.5
 41
0.0
 71
     1
 72
     1
  1
6,50
  7
SLDTEXTSTYLE0
 73
     1
 44
1.0
  0
ENDBLK
  5
2DE
330
2DC
100
AcDbEntity
  8
0
100
AcDbBlockEnd
  0
BLOCK
  5
2E7
330
2E6
100
AcDbEntity
  8
0
100
AcDbBlockBegin
  2
_D_30
 70
     0
 10
0.0
 20
0.0
 30
0.0
  3
_D_30
  1

  0
SOLID
  5
2E9
330
2E6
100
AcDbEntity
  8
0
  6
Continuous
 62
     7
370
     0
100
AcDbTrace
 10
130.763374488
 20
146.5229666166
 30
0.0
 11
134.065374488
 21
146.0149666166
 31
0.0
 12
134.065374488
 22
147.0309666166
 32
0.0
 13
134.065374488
 23
147.0309666166
 33
0.0
  0
SOLID
  5
2EA
330
2E6
100
AcDbEntity
  8
0
  6
Continuous
 62
     7
370
     0
100
AcDbTrace
 10
127.263374488
 20
146.5229666166
 30
0.0
 11
123.961374488
 21
147.0309666166
 31
0.0
 12
123.961374488
 22
146.0149666166
 32
0.0
 13
123.961374488
 23
146.0149666166
 33
0.0
  0
LINE
  5
2EB
330
2E6
100
AcDbEntity
  8
0
  6
Continuous
 62
     7
370
     0
100
AcDbLine
 10
130.763374488
 20
147.4744352171
 30
0.0
 11
130.763374488
 21
147.5229666166
 31
0.0
  0
LINE
  5
2EC
330
2E6
100
AcDbEntity
  8
0
  6
Continuous
 62
     7
370
     0
100
AcDbLine
 10
130.763374488
 20
146.5229666166
 30
0.0
 11
137.113374488
 21
146.5229666166
 31
0.0
  0
LINE
  5
2ED
330
2E6
100
AcDbEntity
  8
0
  6
Continuous
 62
     7
370
     0
100
AcDbLine
 10
130.763374488
 20
146.5229666166
 30
0.0
 11
127.263374488
 21
146.5229666166
 31
0.0
  0
LINE
  5
2EE
330
2E6
100
AcDbEntity
  8
0
  6
Continuous
 62
     7
370
     0
100
AcDbLine
 10
127.263374488
 20
146.5229666166
 30
0.0
 11
118.0339976211
 21
146.5229666166
 31
0.0
  0
MTEXT
  5
2EF
330
2E6
100
AcDbEntity
  8
0
  6
Continuous
 62
     7
370
     0
100
AcDbMText
 10
118.0339976211
 20
151.0347035311
 30
0.0
 40
3.5
 41
0.0
 71
     1
 72
     1
  1
3,50
  7
SLDTEXTSTYLE0
 73
     1
 44
1.0
  0
ENDBLK
  5
2E8
330
2E6
100
AcDbEntity
  8
0
100
AcDbBlockEnd
  0
BLOCK
  5
2F2
330
2F1
100
AcDbEntity
  8
0
100
AcDbBlockBegin
  2
_D_31
 70
     0
 10
0.0
 20
0.0
 30
0.0
  3
_D_31
  1

  0
SOLID
  5
2F4
330
2F1
100
AcDbEntity
  8
0
  6
Continuous
 62
     7
370
     0
100
AcDbTrace
 10
137.263374488
 20
144.9073360781
 30
0.0
 11
140.565374488
 21
144.3993360781
 31
0.0
 12
140.565374488
 22
145.4153360781
 32
0.0
 13
140.565374488
 23
145.4153360781
 33
0.0
  0
SOLID
  5
2F5
330
2F1
100
AcDbEntity
  8
0
  6
Continuous
 62
     7
370
     0
100
AcDbTrace
 10
130.763374488
 20
144.9073360781
 30
0.0
 11
127.461374488
 21
145.4153360781
 31
0.0
 12
127.461374488
 22
144.3993360781
 32
0.0
 13
127.461374488
 23
144.3993360781
 33
0.0
  0
LINE
  5
2F6
330
2F1
100
AcDbEntity
  8
0
  6
Continuous
 62
     7
370
     0
100
AcDbLine
 10
137.263374488
 20
144.9073360781
 30
0.0
 11
147.7654575737
 21
144.9073360781
 31
0.0
  0
LINE
  5
2F7
330
2F1
100
AcDbEntity
  8
0
  6
Continuous
 62
     7
370
     0
100
AcDbLine
 10
137.263374488
 20
144.9073360781
 30
0.0
 11
130.763374488
 21
144.9073360781
 31
0.0
  0
LINE
  5
2F8
330
2F1
100
AcDbEntity
  8
0
  6
Continuous
 62
     7
370
     0
100
AcDbLine
 10
130.763374488
 20
144.9073360781
 30
0.0
 11
124.413374488
 21
144.9073360781
 31
0.0
  0
MTEXT
  5
2F9
330
2F1
100
AcDbEntity
  8
0
  6
Continuous
 62
     7
370
     0
100
AcDbMText
 10
138.7140685128
 20
149.4190729927
 30
0.0
 40
3.5
 41
0.0
 71
     1
 72
     1
  1
6,50
  7
SLDTEXTSTYLE0
 73
     1
 44
1.0
  0
ENDBLK
  5
2F3
330
2F1
100
AcDbEntity
  8
0
100
AcDbBlockEnd
  0
ENDSEC
  0
SECTION
  2
ENTITIES
  0
LINE
  5
73
330
1F
100
AcDbEntity
  8
0
  6
Continuous
 62
     7
370
    15
100
AcDbLine
 10
164.6347837878
 20
269.9744352171
 30
0.0
 11
254.6347837878
 21
269.9744352171
 31
0.0
  0
LINE
  5
74
330
1F
100
AcDbEntity
  8
0
  6
Continuous
 62
     7
370
    15
100
AcDbLine
 10
254.6347837878
 20
269.9744352171
 30
0.0
 11
254.6347837878
 21
114.9744352171
 31
0.0
  0
LINE
  5
75
330
1F
100
AcDbEntity
  8
0
  6
Continuous
 62
     7
370
    15
100
AcDbLine
 10
164.6347837878
 20
114.9744352171
 30
0.0
 11
254.6347837878
 21
114.9744352171
 31
0.0
  0
LINE
  5
76
330
1F
100
AcDbEntity
  8
0
  6
Continuous
 62
     7
370
    15
100
AcDbLine
 10
164.6347837878
 20
114.9744352171
 30
0.0
 11
164.6347837878
 21
269.9744352171
 31
0.0
  0
ARC
  5
77
330
1F
100
AcDbEntity
  8
0
  6
Continuous
 62
     7
370
    15
100
AcDbCircle
 10
176.3347837878
 20
258.2744352171
 30
0.0
 40
8.0
100
AcDbArc
 50
90.0
 51
180.0
  0
LINE
  5
78
330
1F
100
AcDbEntity
  8
0
  6
Continuous
 62
     7
370
    15
100
AcDbLine
 10
168.3347837878
 20
258.2744352171
 30
0.0
 11
168.3347837878
 21
236.9456506942
 31
0.0
  0
ARC
  5
79
330
1F
100
AcDbEntity
  8
0
  6
Continuous
 62
     7
370
    15
100
AcDbCircle
 10
209.6347837878
 20
224.9744352171
 30
0.0
 40
43.0
100
AcDbArc
 50
163.8352436313
 51
196.1647563687
  0
ARC
  5
7A
330
1F
100
AcDbEntity
  8
0
  6
Continuous
 62
     7
370
    15
100
AcDbCircle
 10
176.3347837878
 20
191.6744352171
 30
0.0
 40
8.0
100
AcDbArc
 50
180.0
 51
270.0
  0
LINE
  5
7B
330
1F
100
AcDbEntity
  8
0
  6
Continuous
 62
     7
370
    15
100
AcDbLine
 10
176.3347837878
 20
183.6744352171
 30
0.0
 11
197.6635683107
 21
183.6744352171
 31
0.0
  0
ARC
  5
7C
330
1F
100
AcDbEntity
  8
0
  6
Continuous
 62
     7
370
    15
100
AcDbCircle
 10
209.6347837878
 20
224.9744352171
 30
0.0
 40
43.00000000000002
100
AcDbArc
 50
253.8352436313
 51
286.1647563687
  0
ARC
  5
7D
330
1F
100
AcDbEntity
  8
0
  6
Continuous
 62
     7
370
    15
100
AcDbCircle
 10
242.9347837878
 20
191.6744352171
 30
0.0
 40
8.0
100
AcDbArc
 50
270.0
 51
0.0
  0
LINE
  5
7E
330
1F
100
AcDbEntity
  8
0
  6
Continuous
 62
     7
370
    15
100
AcDbLine
 10
250.9347837878
 20
191.6744352171
 30
0.0
 11
250.9347837878
 21
213.00321974
 31
0.0
  0
ARC
  5
7F
330
1F
100
AcDbEntity
  8
0
  6
Continuous
 62
     7
370
    15
100
AcDbCircle
 10
209.6347837878
 20
224.9744352171
 30
0.0
 40
43.0
100
AcDbArc
 50
343.8352436313
 51
16.1647563687
  0
ARC
  5
80
330
1F
100
AcDbEntity
  8
0
  6
Continuous
 62
     7
370
    15
100
AcDbCircle
 10
242.9347837878
 20
258.2744352171
 30
0.0
 40
8.0
100
AcDbArc
 50
0.0
 51
90.0
  0
ARC
  5
81
330
1F
100
AcDbEntity
  8
0
  6
Continuous
 62
     7
370
    15
100
AcDbCircle
 10
209.6347837878
 20
224.9744352171
 30
0.0
 40
43.00000000000004
100
AcDbArc
 50
73.8352436313
 51
106.1647563687
  0
CIRCLE
  5
82
330
1F
100
AcDbEntity
  8
0
  6
Continuous
 62
     7
370
    15
100
AcDbCircle
 10
169.6347837878
 20
169.9744352171
 30
0.0
 40
2.500000000000028
  0
CIRCLE
  5
83
330
1F
100
AcDbEntity
  8
0
  6
Continuous
 62
     7
370
    15
100
AcDbCircle
 10
249.6347837878
 20
169.9744352171
 30
0.0
 40
2.500000000000028
  0
LINE
  5
84
330
1F
100
AcDbEntity
  8
0
  6
Continuous
 62
     7
370
    15
100
AcDbLine
 10
242.9347837878
 20
266.2744352171
 30
0.0
 11
221.6059992649
 21
266.2744352171
 31
0.0
  0
LINE
  5
85
330
1F
100
AcDbEntity
  8
0
  6
Continuous
 62
     7
370
    15
100
AcDbLine
 10
168.3347837878
 20
213.00321974
 30
0.0
 11
168.3347837878
 21
191.6744352171
 31
0.0
  0
LINE
  5
86
330
1F
100
AcDbEntity
  8
0
  6
Continuous
 62
     7
370
    15
100
AcDbLine
 10
221.6059992649
 20
183.6744352171
 30
0.0
 11
242.9347837878
 21
183.6744352171
 31
0.0
  0
LINE
  5
87
330
1F
100
AcDbEntity
  8
0
  6
Continuous
 62
     7
370
    15
100
AcDbLine
 10
250.9347837878
 20
236.9456506942
 30
0.0
 11
250.9347837878
 21
258.2744352171
 31
0.0
  0
LINE
  5
88
330
1F
100
AcDbEntity
  8
0
  6
Continuous
 62
     7
370
    15
100
AcDbLine
 10
197.6635683107
 20
266.2744352171
 30
0.0
 11
176.3347837878
 21
266.2744352171
 31
0.0
  0
CIRCLE
  5
89
330
1F
100
AcDbEntity
  8
0
  6
Continuous
 62
     7
370
    15
100
AcDbCircle
 10
209.6347837878
 20
139.9744352171
 30
0.0
 40
6.5
  0
CIRCLE
  5
8A
330
1F
100
AcDbEntity
  8
0
  6
Continuous
 62
     7
370
    15
100
AcDbCircle
 10
174.8347837878
 20
259.7744352171
 30
0.0
 40
2.999999999999972
  0
CIRCLE
  5
8B
330
1F
100
AcDbEntity
  8
0
  6
Continuous
 62
     7
370
    15
100
AcDbCircle
 10
174.8347837878
 20
190.1744352171
 30
0.0
 40
3.0
  0
CIRCLE
  5
8C
330
1F
100
AcDbEntity
  8
0
  6
Continuous
 62
     7
370
    15
100
AcDbCircle
 10
244.4347837878
 20
259.7744352171
 30
0.0
 40
2.999999999999972
  0
CIRCLE
  5
8D
330
1F
100
AcDbEntity
  8
0
  6
Continuous
 62
     7
370
    15
100
AcDbCircle
 10
244.4347837878
 20
190.1744352171
 30
0.0
 40
3.0
  0
CIRCLE
  5
8E
330
1F
100
AcDbEntity
  8
0
  6
Continuous
 62
     7
370
    15
100
AcDbCircle
 10
209.6347837878
 20
224.9744352171
 30
0.0
 40
36.51500000000001
  0
CIRCLE
  5
8F
330
1F
100
AcDbEntity
  8
0
  6
Continuous
 62
     7
370
    15
100
AcDbCircle
 10
209.6347837878
 20
224.9744352171
 30
0.0
 40
7.0
  0
CIRCLE
  5
90
330
1F
100
AcDbEntity
  8
0
  6
Continuous
 62
     7
370
    15
100
AcDbCircle
 10
209.6347837878
 20
139.9744352171
 30
0.0
 40
4.046152713167203
  0
LINE
  5
91
330
1F
100
AcDbEntity
  8
0
  6
HIDDEN
 62
     7
370
     0
100
AcDbLine
 10
196.1577137286
 20
154.9744352171
 30
0.0
 11
192.8577137286
 21
154.9744352171
 31
0.0
  0
LINE
  5
92
330
1F
100
AcDbEntity
  8
0
  6
HIDDEN
 62
     7
370
     0
100
AcDbLine
 10
226.2847837878
 20
154.9744352171
 30
0.0
 11
222.9847837878
 21
154.9744352171
 31
0.0
  0
LINE
  5
93
330
1F
100
AcDbEntity
  8
0
  6
HIDDEN
 62
     7
370
     0
100
AcDbLine
 10
182.2847837878
 20
133.9244352171
 30
0.0
 11
178.9847837878
 21
133.9244352171
 31
0.0
  0
LINE
  5
94
330
1F
100
AcDbEntity
  8
0
  6
HIDDEN
 62
     7
370
     0
100
AcDbLine
 10
240.2847837878
 20
133.9244352171
 30
0.0
 11
236.9847837878
 21
133.9244352171
 31
0.0
  0
LINE
  5
95
330
1F
100
AcDbEntity
  8
0
  6
HIDDEN
 62
     7
370
     0
100
AcDbLine
 10
196.1577137286
 20
114.9744352171
 30
0.0
 11
196.1577137286
 21
154.9744352171
 31
0.0
  0
LINE
  5
96
330
1F
100
AcDbEntity
  8
0
  6
HIDDEN
 62
     7
370
     0
100
AcDbLine
 10
192.8577137286
 20
154.9744352171
 30
0.0
 11
192.8577137286
 21
114.9744352171
 31
0.0
  0
LINE
  5
97
330
1F
100
AcDbEntity
  8
0
  6
HIDDEN
 62
     7
370
     0
100
AcDbLine
 10
226.2847837878
 20
154.9744352171
 30
0.0
 11
224.6347837878
 21
155.9658552385
 31
0.0
  0
LINE
  5
98
330
1F
100
AcDbEntity
  8
0
  6
HIDDEN
 62
     7
370
     0
100
AcDbLine
 10
224.6347837878
 20
155.9658552385
 30
0.0
 11
222.9847837878
 21
154.9744352171
 31
0.0
  0
LINE
  5
99
330
1F
100
AcDbEntity
  8
0
  6
HIDDEN
 62
     7
370
     0
100
AcDbLine
 10
226.2847837878
 20
114.9744352171
 30
0.0
 11
226.2847837878
 21
154.9744352171
 31
0.0
  0
LINE
  5
9A
330
1F
100
AcDbEntity
  8
0
  6
HIDDEN
 62
     7
370
     0
100
AcDbLine
 10
222.9847837878
 20
154.9744352171
 30
0.0
 11
222.9847837878
 21
114.9744352171
 31
0.0
  0
LINE
  5
9B
330
1F
100
AcDbEntity
  8
0
  6
HIDDEN
 62
     7
370
     0
100
AcDbLine
 10
196.1577137286
 20
154.9744352171
 30
0.0
 11
194.5077137286
 21
155.9658552385
 31
0.0
  0
LINE
  5
9C
330
1F
100
AcDbEntity
  8
0
  6
HIDDEN
 62
     7
370
     0
100
AcDbLine
 10
194.5077137286
 20
155.9658552385
 30
0.0
 11
192.8577137286
 21
154.9744352171
 31
0.0
  0
LINE
  5
9D
330
1F
100
AcDbEntity
  8
0
  6
HIDDEN
 62
     7
370
     0
100
AcDbLine
 10
182.2847837878
 20
114.9744352171
 30
0.0
 11
182.2847837878
 21
133.9244352171
 31
0.0
  0
LINE
  5
9E
330
1F
100
AcDbEntity
  8
0
  6
HIDDEN
 62
     7
370
     0
100
AcDbLine
 10
178.9847837878
 20
133.9244352171
 30
0.0
 11
178.9847837878
 21
114.9744352171
 31
0.0
  0
LINE
  5
9F
330
1F
100
AcDbEntity
  8
0
  6
HIDDEN
 62
     7
370
     0
100
AcDbLine
 10
240.2847837878
 20
114.9744352171
 30
0.0
 11
240.2847837878
 21
133.9244352171
 31
0.0
  0
LINE
  5
A0
330
1F
100
AcDbEntity
  8
0
  6
HIDDEN
 62
     7
370
     0
100
AcDbLine
 10
236.9847837878
 20
133.9244352171
 30
0.0
 11
236.9847837878
 21
114.9744352171
 31
0.0
  0
LINE
  5
A1
330
1F
100
AcDbEntity
  8
0
  6
HIDDEN
 62
     7
370
     0
100
AcDbLine
 10
240.2847837878
 20
133.9244352171
 30
0.0
 11
238.6347837878
 21
134.9158552385
 31
0.0
  0
LINE
  5
A2
330
1F
100
AcDbEntity
  8
0
  6
HIDDEN
 62
     7
370
     0
100
AcDbLine
 10
238.6347837878
 20
134.9158552385
 30
0.0
 11
236.9847837878
 21
133.9244352171
 31
0.0
  0
LINE
  5
A3
330
1F
100
AcDbEntity
  8
0
  6
HIDDEN
 62
     7
370
     0
100
AcDbLine
 10
182.2847837878
 20
133.9244352171
 30
0.0
 11
180.6347837878
 21
134.9158552385
 31
0.0
  0
LINE
  5
A4
330
1F
100
AcDbEntity
  8
0
  6
HIDDEN
 62
     7
370
     0
100
AcDbLine
 10
180.6347837878
 20
134.9158552385
 30
0.0
 11
178.9847837878
 21
133.9244352171
 31
0.0
  0
LINE
  5
A5
330
1F
100
AcDbEntity
  8
0
  6
CENTERX2
 62
     7
370
     0
100
AcDbLine
 10
209.6347837878
 20
114.9744352171
 30
0.0
 11
209.6347837878
 21
267.9744352171
 31
0.0
  0
LINE
  5
A6
330
1F
100
AcDbEntity
  8
0
  6
CENTERX2
 62
     7
370
     0
100
AcDbLine
 10
224.6347837878
 20
114.9744352171
 30
0.0
 11
224.6347837878
 21
136.9423927193
 31
0.0
  0
LINE
  5
A7
330
1F
100
AcDbEntity
  8
0
  6
CENTERX2
 62
     7
370
     0
100
AcDbLine
 10
238.6347837878
 20
114.9744352171
 30
0.0
 11
238.6347837878
 21
132.3609466353
 31
0.0
  0
LINE
  5
A8
330
1F
100
AcDbEntity
  8
0
  6
CENTERX2
 62
     7
370
     0
100
AcDbLine
 10
194.5077137286
 20
114.9744352171
 30
0.0
 11
194.5077137286
 21
130.3345377905
 31
0.0
  0
LINE
  5
A9
330
1F
100
AcDbEntity
  8
0
  6
CENTERX2
 62
     7
370
     0
100
AcDbLine
 10
180.6347837878
 20
114.9744352171
 30
0.0
 11
180.6347837878
 21
133.1538892268
 31
0.0
  0
DIMENSION
  5
AA
330
1F
100
AcDbEntity
  8
0
  6
Continuous
 62
     7
370
     0
100
AcDbDimension
  2
_D
 10
209.6347837878
 20
161.0349542478
 30
0.0
 11
234.8567983683
 21
161.0349542478
 31
0.0
 70
   160
  1
<>
 71
     2
 42
-1.0
  3
SLDDIMSTYLE0
100
AcDbAlignedDimension
 13
249.6347837878
 23
169.9744352171
 33
0.0
 14
209.6347837878
 24
114.9744352171
 34
0.0
 50
0.0
100
AcDbRotatedDimension
  0
DIMENSION
  5
B5
330
1F
100
AcDbEntity
  8
0
  6
Continuous
 62
     7
370
     0
100
AcDbDimension
  2
_D_1
 10
169.6347837878
 20
161.0349542478
 30
0.0
 11
193.3430991773
 21
161.0349542478
 31
0.0
 70
   160
  1
<>
 71
     2
 42
-1.0
  3
SLDDIMSTYLE0
100
AcDbAlignedDimension
 13
209.6347837878
 23
114.9744352171
 33
0.0
 14
169.6347837878
 24
164.9744352171
 34
0.0
 50
0.0
100
AcDbRotatedDimension
  0
DIMENSION
  5
BE
330
1F
100
AcDbEntity
  8
0
  6
Continuous
 62
     7
370
     0
100
AcDbDimension
  2
_D_2
 10
164.6347837878
 20
98.9744352171
 30
0.0
 11
187.5261903225
 21
98.9744352171
 31
0.0
 70
   160
  1
<>
 71
     2
 42
-1.0
  3
SLDDIMSTYLE0
100
AcDbAlignedDimension
 13
209.6347837878
 23
114.9744352171
 33
0.0
 14
164.6347837878
 24
114.9744352171
 34
0.0
 50
0.0
100
AcDbRotatedDimension
  0
DIMENSION
  5
C8
330
1F
100
AcDbEntity
  8
0
  6
Continuous
 62
     7
370
     0
100
AcDbDimension
  2
_D_3
 10
224.6347837878
 20
110.0704493424
 30
0.0
 11
224.427702037
 21
110.0704493424
 31
0.0
 70
   160
  1
<>
 71
     2
 42
-1.0
  3
SLDDIMSTYLE1
100
AcDbAlignedDimension
 13
209.6347837878
 23
114.9744352171
 33
0.0
 14
224.6347837878
 24
114.9744352171
 34
0.0
 50
0.0
100
AcDbRotatedDimension
  0
DIMENSION
  5
D5
330
1F
100
AcDbEntity
  8
0
  6
Continuous
 62
     7
370
     0
100
AcDbDimension
  2
_D_4
 10
238.6347837878
 20
104.9744352171
 30
0.0
 11
240.1984491336
 21
104.9744352171
 31
0.0
 70
   160
  1
<>
 71
     2
 42
-1.0
  3
SLDDIMSTYLE0
100
AcDbAlignedDimension
 13
209.6347837878
 23
114.9744352171
 33
0.0
 14
238.6347837878
 24
114.9744352171
 34
0.0
 50
0.0
100
AcDbRotatedDimension
  0
DIMENSION
  5
E0
330
1F
100
AcDbEntity
  8
0
  6
Continuous
 62
     7
370
     0
100
AcDbDimension
  2
_D_5
 10
209.6347837878
 20
104.9744352171
 30
0.0
 11
200.9918432231
 21
104.9744352171
 31
0.0
 70
   160
  1
<>
 71
     2
 42
-1.0
  3
SLDDIMSTYLE0
100
AcDbAlignedDimension
 13
180.6347837878
 23
114.9744352171
 33
0.0
 14
209.6347837878
 24
114.9744352171
 34
0.0
 50
0.0
100
AcDbRotatedDimension
  0
DIMENSION
  5
EA
330
1F
100
AcDbEntity
  8
0
  6
Continuous
 62
     7
370
     0
100
AcDbDimension
  2
_D_6
 10
209.6347837878
 20
110.0704493424
 30
0.0
 11
200.9918432231
 21
110.0704493424
 31
0.0
 70
   160
  1
<>
 71
     2
 42
-1.0
  3
SLDDIMSTYLE1
100
AcDbAlignedDimension
 13
194.5077137286
 23
114.9744352171
 33
0.0
 14
209.6347837878
 24
114.9744352171
 34
0.0
 50
0.0
100
AcDbRotatedDimension
  0
DIMENSION
  5
F6
330
1F
100
AcDbEntity
  8
0
  6
Continuous
 62
     7
370
     0
100
AcDbDimension
  2
_D_7
 10
254.6347837878
 20
276.2373212455
 30
0.0
 11
249.6914387093
 21
276.2373212455
 31
0.0
 70
   160
  1
<>
 71
     2
 42
-1.0
  3
SLDDIMSTYLE0
100
AcDbAlignedDimension
 13
164.6347837878
 23
269.9744352171
 33
0.0
 14
254.6347837878
 24
269.9744352171
 34
0.0
 50
0.0
100
AcDbRotatedDimension
  0
DIMENSION
  5
100
330
1F
100
AcDbEntity
  8
0
  6
Continuous
 62
     7
370
     0
100
AcDbDimension
  2
_D_8
 10
264.6347837878
 20
114.9744352171
 30
0.0
 11
264.6347837878
 21
276.2373212455
 31
0.0
 70
   160
  1
<>
 71
     2
 42
-1.0
  3
SLDDIMSTYLE0
100
AcDbAlignedDimension
 13
254.6347837878
 23
269.9744352171
 33
0.0
 14
254.6347837878
 24
114.9744352171
 34
0.0
 50
90.0
100
AcDbRotatedDimension
  0
DIMENSION
  5
10B
330
1F
100
AcDbEntity
  8
0
  6
Continuous
 62
     7
370
     0
100
AcDbDimension
  2
_D_9
 10
164.6347837878
 20
217.8026554015
 30
0.0
 11
270.6347837878
 21
217.8026554015
 31
0.0
 70
   160
  1
<>
 71
     2
 42
-1.0
  3
SLDDIMSTYLE0
100
AcDbAlignedDimension
 13
209.6347837878
 23
224.9744352171
 33
0.0
 14
164.6347837878
 24
269.9744352171
 34
0.0
 50
0.0
100
AcDbRotatedDimension
  0
DIMENSION
  5
115
330
1F
100
AcDbEntity
  8
0
  6
Continuous
 62
     7
370
     0
100
AcDbDimension
  2
_D_10
 10
282.6347837878
 20
269.9744352171
 30
0.0
 11
282.6347837878
 21
217.8026554015
 31
0.0
 70
   160
  1
<>
 71
     2
 42
-1.0
  3
SLDDIMSTYLE0
100
AcDbAlignedDimension
 13
209.6347837878
 23
224.9744352171
 33
0.0
 14
254.6347837878
 24
269.9744352171
 34
0.0
 50
90.0
100
AcDbRotatedDimension
  0
DIMENSION
  5
120
330
1F
100
AcDbEntity
  8
0
  6
Continuous
 62
     7
370
     0
100
AcDbDimension
  2
_D_11
 10
209.6347837878
 20
224.9744352171
 30
0.0
 11
214.8557240778
 21
249.936153795
 31
0.0
 70
   164
  1
<>
 71
     1
 42
-1.0
  3
SLDDIMSTYLE2
100
AcDbRadialDimension
 15
218.4380623519
 25
267.0636533914
 35
0.0
 40
0.0
  0
DIMENSION
  5
128
330
1F
100
AcDbEntity
  8
0
  6
Continuous
 62
     7
370
     0
100
AcDbDimension
  2
_D_12
 10
185.8585910111
 20
224.9744352171
 30
0.0
 11
185.8585910111
 21
240.3105316855
 31
0.0
 70
   160
  1
<>
 71
     2
 42
-1.0
  3
SLDDIMSTYLE0
100
AcDbAlignedDimension
 13
176.3347837878
 23
266.2744352171
 33
0.0
 14
170.6197837878
 24
224.9744352171
 34
0.0
 50
90.0
100
AcDbRotatedDimension
  0
DIMENSION
  5
130
330
1F
100
AcDbEntity
  8
0
  6
Continuous
 62
     7
370
     0
100
AcDbDimension
  2
_D_13
 10
209.6347837878
 20
246.9040269748
 30
0.0
 11
193.3430991773
 21
246.9040269748
 31
0.0
 70
   160
  1
<>
 71
     2
 42
-1.0
  3
SLDDIMSTYLE0
100
AcDbAlignedDimension
 13
168.3347837878
 23
236.9456506942
 33
0.0
 14
209.6347837878
 24
263.9894352171
 34
0.0
 50
0.0
100
AcDbRotatedDimension
  0
DIMENSION
  5
138
330
1F
100
AcDbEntity
  8
0
  6
Continuous
 62
     7
370
     0
100
AcDbDimension
  2
_D_14
 10
234.8567983683
 20
224.9744352171
 30
0.0
 11
234.8567983683
 21
197.4696324465
 31
0.0
 70
   160
  1
<>
 71
     2
 42
-1.0
  3
SLDDIMSTYLE0
100
AcDbAlignedDimension
 13
238.9347837878
 23
190.1744352171
 33
0.0
 14
248.6497837878
 24
224.9744352171
 34
0.0
 50
90.0
100
AcDbRotatedDimension
  0
DIMENSION
  5
141
330
1F
100
AcDbEntity
  8
0
  6
Continuous
 62
     7
370
     0
100
AcDbDimension
  2
_D_15
 10
209.6347837878
 20
187.7228437223
 30
0.0
 11
222.881994441
 21
187.7228437223
 31
0.0
 70
   160
  1
<>
 71
     2
 42
-1.0
  3
SLDDIMSTYLE0
100
AcDbAlignedDimension
 13
244.4347837878
 23
184.6744352171
 33
0.0
 14
209.6347837878
 24
185.9594352171
 34
0.0
100
AcDbRotatedDimension
  0
DIMENSION
  5
149
330
1F
100
AcDbEntity
  8
0
  6
Continuous
 62
     7
370
     0
100
AcDbDimension
  2
_D_16
 10
172.7134634442
 20
188.0531148735
 30
0.0
 11
180.1859688939
 21
195.5256203232
 31
0.0
 70
   163
  1
<>
 71
     1
 42
-1.0
  3
SLDDIMSTYLE3
100
AcDbDiametricDimension
 15
176.9561041314
 25
192.2957555607
 35
0.0
 40
0.0
  0
DIMENSION
  5
156
330
1F
100
AcDbEntity
  8
0
  6
Continuous
 62
     7
370
     0
100
AcDbDimension
  2
_D_17
 10
177.1022932605
 20
114.9744352171
 30
0.0
 11
177.1022932605
 21
167.219326472
 31
0.0
 70
   160
  1
<>
 71
     2
 42
-1.0
  3
SLDDIMSTYLE0
100
AcDbAlignedDimension
 13
174.6347837878
 23
169.9744352171
 33
0.0
 14
164.6347837878
 24
114.9744352171
 34
0.0
 50
90.0
100
AcDbRotatedDimension
  0
DIMENSION
  5
15F
330
1F
100
AcDbEntity
  8
0
  6
Continuous
 62
     7
370
     0
100
AcDbDimension
  2
_D_18
 10
218.234164471
 20
114.9744352171
 30
0.0
 11
218.234164471
 21
123.9208675346
 31
0.0
 70
   160
  1
<>
 71
     2
 42
-1.0
  3
SLDDIMSTYLE0
100
AcDbAlignedDimension
 13
209.6347837878
 23
139.9744352171
 33
0.0
 14
254.6347837878
 24
114.9744352171
 34
0.0
 50
90.0
100
AcDbRotatedDimension
  0
DIMENSION
  5
168
330
1F
100
AcDbEntity
  8
0
  6
Continuous
 62
     7
370
     0
100
AcDbDimension
  2
_D_19
 10
206.3847837878
 20
134.3452700925
 30
0.0
 11
216.5725072112
 21
151.9909173548
 31
0.0
 70
   163
  1
<>
 71
     1
 42
-1.0
  3
SLDDIMSTYLE3
100
AcDbDiametricDimension
 15
212.8847837878
 25
145.6036003417
 35
0.0
 40
0.0
  0
DIMENSION
  5
171
330
1F
100
AcDbEntity
  8
0
  6
Continuous
 62
     7
370
     0
100
AcDbDimension
  2
_D_20
 10
212.495845809
 20
137.1133731959
 30
0.0
 11
200.0876404488
 21
149.5215985561
 31
0.0
 70
   163
  1
<>
 71
     1
 42
-1.0
  3
SLDDIMSTYLE4
100
AcDbDiametricDimension
 15
206.7737217666
 25
142.8354972383
 35
0.0
 40
0.0
  0
DIMENSION
  5
17B
330
1F
100
AcDbEntity
  8
0
  6
Continuous
 62
     7
370
     0
100
AcDbDimension
  2
_D_21
 10
222.6347837878
 20
132.3609466353
 30
0.0
 11
230.6831380362
 21
132.3609466353
 31
0.0
 70
   160
  1
<>
 71
     2
 42
-1.0
  3
SLDDIMSTYLE1
100
AcDbAlignedDimension
 13
226.6347837878
 23
130.4244352171
 33
0.0
 14
222.6347837878
 24
130.4244352171
 34
0.0
100
AcDbRotatedDimension
  0
DIMENSION
  5
187
330
1F
100
AcDbEntity
  8
0
  6
Continuous
 62
     7
370
     0
100
AcDbDimension
  2
_D_22
 10
236.6347837878
 20
130.4226425229
 30
0.0
 11
244.6036857528
 21
130.4226425229
 31
0.0
 70
   160
  1
<>
 71
     2
 42
-1.0
  3
SLDDIMSTYLE1
100
AcDbAlignedDimension
 13
240.6347837878
 23
130.4244352171
 33
0.0
 14
236.6347837878
 24
130.4244352171
 34
0.0
100
AcDbRotatedDimension
  0
DIMENSION
  5
193
330
1F
100
AcDbEntity
  8
0
  6
Continuous
 62
     7
370
     0
100
AcDbDimension
  2
_D_23
 10
192.5077137286
 20
132.3609466353
 30
0.0
 11
189.0977043513
 21
132.3609466353
 31
0.0
 70
   160
  1
<>
 71
     2
 42
-1.0
  3
SLDDIMSTYLE1
100
AcDbAlignedDimension
 13
196.5077137286
 23
130.4244352171
 33
0.0
 14
192.5077137286
 24
130.4244352171
 34
0.0
 50
0.0
100
AcDbRotatedDimension
  0
DIMENSION
  5
19F
330
1F
100
AcDbEntity
  8
0
  6
Continuous
 62
     7
370
     0
100
AcDbDimension
  2
_D_24
 10
178.6347837878
 20
131.3917945791
 30
0.0
 11
172.6221193956
 21
131.3917945791
 31
0.0
 70
   160
  1
<>
 71
     2
 42
-1.0
  3
SLDDIMSTYLE1
100
AcDbAlignedDimension
 13
182.6347837878
 23
130.4244352171
 33
0.0
 14
178.6347837878
 24
130.4244352171
 34
0.0
100
AcDbRotatedDimension
  0
INSERT
  5
1B0
330
1F
100
AcDbEntity
  8
0
  6
Continuous
 62
     7
370
     0
100
AcDbBlockReference
  2
SW_NOTE_0
 10
295.5282916213
 20
114.9964890675
 30
0.0
  0
LEADER
  5
1B2
330
1F
100
AcDbEntity
  8
0
  6
Continuous
 62
     7
370
     0
100
AcDbLeader
  3
SLDDIMSTYLE5
 76
     2
 10
236.6347837878
 20
125.3693969223
 30
0.0
 10
295.5282916213
 20
114.9964890675
 30
0.0
  0
INSERT
  5
1BE
330
1F
100
AcDbEntity
  8
0
  6
Continuous
 62
     7
370
     0
100
AcDbBlockReference
  2
SW_CENTERMARKSYMBOL_0
 10
209.6347837878
 20
139.9744352171
 30
0.0
  0
INSERT
  5
1CA
330
1F
100
AcDbEntity
  8
0
  6
Continuous
 62
     7
370
     0
100
AcDbBlockReference
  2
SW_CENTERMARKSYMBOL_1
 10
209.6347837878
 20
224.9744352171
 30
0.0
  0
INSERT
  5
1D6
330
1F
100
AcDbEntity
  8
0
  6
Continuous
 62
     7
370
     0
100
AcDbBlockReference
  2
SW_CENTERMARKSYMBOL_2
 10
174.8347837878
 20
259.7744352171
 30
0.0
  0
INSERT
  5
1E2
330
1F
100
AcDbEntity
  8
0
  6
Continuous
 62
     7
370
     0
100
AcDbBlockReference
  2
SW_CENTERMARKSYMBOL_3
 10
244.4347837878
 20
190.1744352171
 30
0.0
  0
INSERT
  5
1EE
330
1F
100
AcDbEntity
  8
0
  6
Continuous
 62
     7
370
     0
100
AcDbBlockReference
  2
SW_CENTERMARKSYMBOL_4
 10
244.4347837878
 20
259.7744352171
 30
0.0
  0
INSERT
  5
1FA
330
1F
100
AcDbEntity
  8
0
  6
Continuous
 62
     7
370
     0
100
AcDbBlockReference
  2
SW_CENTERMARKSYMBOL_5
 10
174.8347837878
 20
190.1744352171
 30
0.0
  0
INSERT
  5
206
330
1F
100
AcDbEntity
  8
0
  6
Continuous
 62
     7
370
     0
100
AcDbBlockReference
  2
SW_CENTERMARKSYMBOL_6
 10
169.6347837878
 20
169.9744352171
 30
0.0
  0
INSERT
  5
212
330
1F
100
AcDbEntity
  8
0
  6
Continuous
 62
     7
370
     0
100
AcDbBlockReference
  2
SW_CENTERMARKSYMBOL_7
 10
249.6347837878
 20
169.9744352171
 30
0.0
  0
LINE
  5
213
330
1F
100
AcDbEntity
  8
0
  6
Continuous
 62
     7
370
     0
100
AcDbLine
 10
236.6347837878
 20
114.9744352171
 30
0.0
 11
236.6347837878
 21
130.4244352171
 31
0.0
  0
LINE
  5
214
330
1F
100
AcDbEntity
  8
0
  6
Continuous
 62
     7
370
     0
100
AcDbLine
 10
240.6347837878
 20
114.9744352171
 30
0.0
 11
240.6347837878
 21
130.4244352171
 31
0.0
  0
LINE
  5
215
330
1F
100
AcDbEntity
  8
0
  6
HIDDEN
 62
     7
370
     0
100
AcDbLine
 10
240.6347837878
 20
130.4244352171
 30
0.0
 11
236.6347837878
 21
130.4244352171
 31
0.0
  0
LINE
  5
216
330
1F
100
AcDbEntity
  8
0
  6
Continuous
 62
     7
370
     0
100
AcDbLine
 10
178.6347837878
 20
114.9744352171
 30
0.0
 11
178.6347837878
 21
130.4244352171
 31
0.0
  0
LINE
  5
217
330
1F
100
AcDbEntity
  8
0
  6
Continuous
 62
     7
370
     0
100
AcDbLine
 10
182.6347837878
 20
114.9744352171
 30
0.0
 11
182.6347837878
 21
130.4244352171
 31
0.0
  0
LINE
  5
218
330
1F
100
AcDbEntity
  8
0
  6
HIDDEN
 62
     7
370
     0
100
AcDbLine
 10
182.6347837878
 20
130.4244352171
 30
0.0
 11
178.6347837878
 21
130.4244352171
 31
0.0
  0
LINE
  5
219
330
1F
100
AcDbEntity
  8
0
  6
Continuous
 62
     7
370
     0
100
AcDbLine
 10
192.5077137286
 20
114.9744352171
 30
0.0
 11
192.5077137286
 21
130.4244352171
 31
0.0
  0
LINE
  5
21A
330
1F
100
AcDbEntity
  8
0
  6
Continuous
 62
     7
370
     0
100
AcDbLine
 10
196.5077137286
 20
114.9744352171
 30
0.0
 11
196.5077137286
 21
130.4244352171
 31
0.0
  0
LINE
  5
21B
330
1F
100
AcDbEntity
  8
0
  6
HIDDEN
 62
     7
370
     0
100
AcDbLine
 10
196.5077137286
 20
130.4244352171
 30
0.0
 11
192.5077137286
 21
130.4244352171
 31
0.0
  0
LINE
  5
21C
330
1F
100
AcDbEntity
  8
0
  6
Continuous
 62
     7
370
     0
100
AcDbLine
 10
222.6347837878
 20
114.9744352171
 30
0.0
 11
222.6347837878
 21
130.4244352171
 31
0.0
  0
LINE
  5
21D
330
1F
100
AcDbEntity
  8
0
  6
Continuous
 62
     7
370
     0
100
AcDbLine
 10
226.6347837878
 20
114.9744352171
 30
0.0
 11
226.6347837878
 21
130.4244352171
 31
0.0
  0
LINE
  5
21E
330
1F
100
AcDbEntity
  8
0
  6
HIDDEN
 62
     7
370
     0
100
AcDbLine
 10
226.6347837878
 20
130.4244352171
 30
0.0
 11
222.6347837878
 21
130.4244352171
 31
0.0
  0
LINE
  5
21F
330
1F
100
AcDbEntity
  8
0
  6
Continuous
 62
     7
370
    15
100
AcDbLine
 10
254.6347855759
 20
87.6804887161
 30
0.0
 11
254.6347855759
 21
77.6804889396
 31
0.0
  0
LINE
  5
220
330
1F
100
AcDbEntity
  8
0
  6
Continuous
 62
     7
370
    15
100
AcDbLine
 10
254.6347855759
 20
77.6804889396
 30
0.0
 11
164.6347819997
 21
77.6804889396
 31
0.0
  0
LINE
  5
221
330
1F
100
AcDbEntity
  8
0
  6
Continuous
 62
     7
370
    15
100
AcDbLine
 10
164.6347819997
 20
77.6804889396
 30
0.0
 11
164.6347819997
 21
87.6804887161
 31
0.0
  0
LINE
  5
222
330
1F
100
AcDbEntity
  8
0
  6
Continuous
 62
     7
370
    15
100
AcDbLine
 10
164.6347819997
 20
87.6804887161
 30
0.0
 11
254.6347855759
 21
87.6804887161
 31
0.0
  0
CIRCLE
  5
223
330
1F
100
AcDbEntity
  8
0
  6
Continuous
 62
     7
370
    15
100
AcDbCircle
 10
238.6347837878
 20
82.6804888279
 30
0.0
 40
1.649999999999977
  0
CIRCLE
  5
224
330
1F
100
AcDbEntity
  8
0
  6
Continuous
 62
     7
370
    15
100
AcDbCircle
 10
180.6347837878
 20
82.6804888279
 30
0.0
 40
1.650000000000006
  0
CIRCLE
  5
225
330
1F
100
AcDbEntity
  8
0
  6
Continuous
 62
     7
370
    15
100
AcDbCircle
 10
194.5077137286
 20
82.6804888279
 30
0.0
 40
1.649999999999977
  0
CIRCLE
  5
226
330
1F
100
AcDbEntity
  8
0
  6
Continuous
 62
     7
370
    15
100
AcDbCircle
 10
224.6347837878
 20
82.6804888279
 30
0.0
 40
1.650000000000006
  0
LINE
  5
227
330
1F
100
AcDbEntity
  8
0
  6
HIDDEN
 62
     7
370
     0
100
AcDbLine
 10
203.1347836537
 20
84.1804888409
 30
0.0
 11
216.1347839219
 21
84.1804888409
 31
0.0
  0
LINE
  5
228
330
1F
100
AcDbEntity
  8
0
  6
HIDDEN
 62
     7
370
     0
100
AcDbLine
 10
197.6635680703
 20
85.680488854
 30
0.0
 11
221.6059995053
 21
85.680488854
 31
0.0
  0
LINE
  5
229
330
1F
100
AcDbEntity
  8
0
  6
HIDDEN
 62
     7
370
     0
100
AcDbLine
 10
168.3347850276
 20
85.680488854
 30
0.0
 11
168.3347850276
 21
87.6804887161
 31
0.0
  0
LINE
  5
22A
330
1F
100
AcDbEntity
  8
0
  6
HIDDEN
 62
     7
370
     0
100
AcDbLine
 10
176.3347826136
 20
85.680488854
 30
0.0
 11
176.3347826136
 21
87.6804887161
 31
0.0
  0
LINE
  5
22B
330
1F
100
AcDbEntity
  8
0
  6
HIDDEN
 62
     7
370
     0
100
AcDbLine
 10
168.3347850276
 20
85.680488854
 30
0.0
 11
176.3347826136
 21
85.680488854
 31
0.0
  0
LINE
  5
22C
330
1F
100
AcDbEntity
  8
0
  6
HIDDEN
 62
     7
370
     0
100
AcDbLine
 10
197.6635680703
 20
87.6804887161
 30
0.0
 11
197.6635680703
 21
85.680488854
 31
0.0
  0
LINE
  5
22D
330
1F
100
AcDbEntity
  8
0
  6
HIDDEN
 62
     7
370
     0
100
AcDbLine
 10
176.3347826136
 20
85.680488854
 30
0.0
 11
197.6635680703
 21
85.680488854
 31
0.0
  0
LINE
  5
22E
330
1F
100
AcDbEntity
  8
0
  6
HIDDEN
 62
     7
370
     0
100
AcDbLine
 10
221.6059995053
 20
85.680488854
 30
0.0
 11
221.6059995053
 21
87.6804887161
 31
0.0
  0
LINE
  5
22F
330
1F
100
AcDbEntity
  8
0
  6
HIDDEN
 62
     7
370
     0
100
AcDbLine
 10
221.6059995053
 20
85.680488854
 30
0.0
 11
242.934784962
 21
85.680488854
 31
0.0
  0
LINE
  5
230
330
1F
100
AcDbEntity
  8
0
  6
HIDDEN
 62
     7
370
     0
100
AcDbLine
 10
250.934782548
 20
85.680488854
 30
0.0
 11
250.934782548
 21
87.6804887161
 31
0.0
  0
LINE
  5
231
330
1F
100
AcDbEntity
  8
0
  6
HIDDEN
 62
     7
370
     0
100
AcDbLine
 10
242.934784962
 20
85.680488854
 30
0.0
 11
242.934784962
 21
87.6804887161
 31
0.0
  0
LINE
  5
232
330
1F
100
AcDbEntity
  8
0
  6
HIDDEN
 62
     7
370
     0
100
AcDbLine
 10
242.934784962
 20
85.680488854
 30
0.0
 11
250.934782548
 21
85.680488854
 31
0.0
  0
LINE
  5
233
330
1F
100
AcDbEntity
  8
0
  6
HIDDEN
 62
     7
370
     0
100
AcDbLine
 10
173.1197825802
 20
84.1804888409
 30
0.0
 11
203.1347836537
 21
84.1804888409
 31
0.0
  0
LINE
  5
234
330
1F
100
AcDbEntity
  8
0
  6
HIDDEN
 62
     7
370
     0
100
AcDbLine
 10
216.1347839219
 20
84.1804888409
 30
0.0
 11
246.1497849954
 21
84.1804888409
 31
0.0
  0
LINE
  5
235
330
1F
100
AcDbEntity
  8
0
  6
HIDDEN
 62
     7
370
     0
100
AcDbLine
 10
166.6347823275
 20
85.680488854
 30
0.0
 11
168.3347850276
 21
85.680488854
 31
0.0
  0
LINE
  5
236
330
1F
100
AcDbEntity
  8
0
  6
HIDDEN
 62
     7
370
     0
100
AcDbLine
 10
250.934782548
 20
85.680488854
 30
0.0
 11
252.6347852481
 21
85.680488854
 31
0.0
  0
LINE
  5
237
330
1F
100
AcDbEntity
  8
0
  6
HIDDEN
 62
     7
370
     0
100
AcDbLine
 10
203.1347836537
 20
87.6804887161
 30
0.0
 11
203.1347836537
 21
84.1804888409
 31
0.0
  0
LINE
  5
238
330
1F
100
AcDbEntity
  8
0
  6
HIDDEN
 62
     7
370
     0
100
AcDbLine
 10
216.1347839219
 20
84.1804888409
 30
0.0
 11
216.1347839219
 21
87.6804887161
 31
0.0
  0
LINE
  5
239
330
1F
100
AcDbEntity
  8
0
  6
HIDDEN
 62
     7
370
     0
100
AcDbLine
 10
213.6809365993
 20
77.6804889396
 30
0.0
 11
213.6809365993
 21
84.1804888409
 31
0.0
  0
LINE
  5
23A
330
1F
100
AcDbEntity
  8
0
  6
HIDDEN
 62
     7
370
     0
100
AcDbLine
 10
205.5886309763
 20
84.1804888409
 30
0.0
 11
205.5886309763
 21
77.6804889396
 31
0.0
  0
LINE
  5
23B
330
1F
100
AcDbEntity
  8
0
  6
HIDDEN
 62
     7
370
     0
100
AcDbLine
 10
167.1347833408
 20
87.6804887161
 30
0.0
 11
167.1347833408
 21
77.6804889396
 31
0.0
  0
LINE
  5
23C
330
1F
100
AcDbEntity
  8
0
  6
HIDDEN
 62
     7
370
     0
100
AcDbLine
 10
172.1347822977
 20
77.6804889396
 30
0.0
 11
172.1347822977
 21
87.6804887161
 31
0.0
  0
LINE
  5
23D
330
1F
100
AcDbEntity
  8
0
  6
HIDDEN
 62
     7
370
     0
100
AcDbLine
 10
247.1347852779
 20
87.6804887161
 30
0.0
 11
247.1347852779
 21
77.6804889396
 31
0.0
  0
LINE
  5
23E
330
1F
100
AcDbEntity
  8
0
  6
HIDDEN
 62
     7
370
     0
100
AcDbLine
 10
252.1347842348
 20
77.6804889396
 30
0.0
 11
252.1347842348
 21
87.6804887161
 31
0.0
  0
LINE
  5
23F
330
1F
100
AcDbEntity
  8
0
  6
HIDDEN
 62
     7
370
     0
100
AcDbLine
 10
177.8347819281
 20
77.6804889396
 30
0.0
 11
177.8347819281
 21
85.680488854
 31
0.0
  0
LINE
  5
240
330
1F
100
AcDbEntity
  8
0
  6
HIDDEN
 62
     7
370
     0
100
AcDbLine
 10
171.8347846699
 20
85.680488854
 30
0.0
 11
171.8347846699
 21
77.6804889396
 31
0.0
  0
LINE
  5
241
330
1F
100
AcDbEntity
  8
0
  6
HIDDEN
 62
     7
370
     0
100
AcDbLine
 10
247.4347829057
 20
77.6804889396
 30
0.0
 11
247.4347829057
 21
85.680488854
 31
0.0
  0
LINE
  5
242
330
1F
100
AcDbEntity
  8
0
  6
HIDDEN
 62
     7
370
     0
100
AcDbLine
 10
241.4347856475
 20
85.680488854
 30
0.0
 11
241.4347856475
 21
77.6804889396
 31
0.0
  0
LINE
  5
243
330
1F
100
AcDbEntity
  8
0
  6
HIDDEN
 62
     7
370
     0
100
AcDbLine
 10
173.1197825802
 20
85.680488854
 30
0.0
 11
173.1197825802
 21
84.1804888409
 31
0.0
  0
LINE
  5
244
330
1F
100
AcDbEntity
  8
0
  6
HIDDEN
 62
     7
370
     0
100
AcDbLine
 10
246.1497849954
 20
84.1804888409
 30
0.0
 11
246.1497849954
 21
85.680488854
 31
0.0
  0
LINE
  5
245
330
1F
100
AcDbEntity
  8
0
  6
HIDDEN
 62
     7
370
     0
100
AcDbLine
 10
166.6347823275
 20
87.6804887161
 30
0.0
 11
166.6347823275
 21
85.680488854
 31
0.0
  0
LINE
  5
246
330
1F
100
AcDbEntity
  8
0
  6
HIDDEN
 62
     7
370
     0
100
AcDbLine
 10
252.6347852481
 20
85.680488854
 30
0.0
 11
252.6347852481
 21
87.6804887161
 31
0.0
  0
LINE
  5
247
330
1F
100
AcDbEntity
  8
0
  6
HIDDEN
 62
     7
370
     0
100
AcDbLine
 10
216.6347840039
 20
77.6804889396
 30
0.0
 11
216.6347840039
 21
84.1804888409
 31
0.0
  0
LINE
  5
248
330
1F
100
AcDbEntity
  8
0
  6
HIDDEN
 62
     7
370
     0
100
AcDbLine
 10
202.6347835717
 20
84.1804888409
 30
0.0
 11
202.6347835717
 21
77.6804889396
 31
0.0
  0
INSERT
  5
254
330
1F
100
AcDbEntity
  8
0
  6
Continuous
 62
     7
370
     0
100
AcDbBlockReference
  2
SW_CENTERMARKSYMBOL_8
 10
238.6347837878
 20
82.6804888279
 30
0.0
  0
INSERT
  5
260
330
1F
100
AcDbEntity
  8
0
  6
Continuous
 62
     7
370
     0
100
AcDbBlockReference
  2
SW_CENTERMARKSYMBOL_9
 10
180.6347837878
 20
82.6804888279
 30
0.0
  0
INSERT
  5
26C
330
1F
100
AcDbEntity
  8
0
  6
Continuous
 62
     7
370
     0
100
AcDbBlockReference
  2
SW_CENTERMARKSYMBOL_10
 10
194.5077137286
 20
82.6804888279
 30
0.0
  0
INSERT
  5
278
330
1F
100
AcDbEntity
  8
0
  6
Continuous
 62
     7
370
     0
100
AcDbBlockReference
  2
SW_CENTERMARKSYMBOL_11
 10
224.6347837878
 20
82.6804888279
 30
0.0
  0
ARC
  5
279
330
1F
100
AcDbEntity
  8
0
  6
Continuous
 62
     7
370
     0
100
AcDbCircle
 10
238.6347837878
 20
82.6804888279
 30
0.0
 40
2.000000000000022
100
AcDbArc
 50
255.0
 51
195.0
  0
ARC
  5
27A
330
1F
100
AcDbEntity
  8
0
  6
Continuous
 62
     7
370
     0
100
AcDbCircle
 10
180.6347837878
 20
82.6804888279
 30
0.0
 40
2.000000000000022
100
AcDbArc
 50
255.0
 51
195.0
  0
ARC
  5
27B
330
1F
100
AcDbEntity
  8
0
  6
Continuous
 62
     7
370
     0
100
AcDbCircle
 10
194.5077137286
 20
82.6804888279
 30
0.0
 40
2.000000000000022
100
AcDbArc
 50
255.0
 51
195.0
  0
ARC
  5
27C
330
1F
100
AcDbEntity
  8
0
  6
Continuous
 62
     7
370
     0
100
AcDbCircle
 10
224.6347837878
 20
82.6804888279
 30
0.0
 40
2.000000000000012
100
AcDbArc
 50
255.0
 51
195.0
  0
LINE
  5
27D
330
1F
100
AcDbEntity
  8
0
  6
Continuous
 62
     7
370
    15
100
AcDbLine
 10
127.2633745998
 20
114.9744352171
 30
0.0
 11
137.2633743762
 21
114.9744352171
 31
0.0
  0
LINE
  5
27E
330
1F
100
AcDbEntity
  8
0
  6
Continuous
 62
     7
370
    15
100
AcDbLine
 10
127.2633745998
 20
269.9744364092
 30
0.0
 11
127.2633745998
 21
114.9744352171
 31
0.0
  0
LINE
  5
27F
330
1F
100
AcDbEntity
  8
0
  6
Continuous
 62
     7
370
    15
100
AcDbLine
 10
137.2633743762
 20
269.9744364092
 30
0.0
 11
127.2633745998
 21
269.9744364092
 31
0.0
  0
LINE
  5
280
330
1F
100
AcDbEntity
  8
0
  6
Continuous
 62
     7
370
    15
100
AcDbLine
 10
137.2633743762
 20
114.9744352171
 30
0.0
 11
137.2633743762
 21
269.9744364092
 31
0.0
  0
LINE
  5
281
330
1F
100
AcDbEntity
  8
0
  6
HIDDEN
 62
     7
370
     0
100
AcDbLine
 10
129.2633744619
 20
213.0032216975
 30
0.0
 11
129.2633744619
 21
236.9456475446
 31
0.0
  0
LINE
  5
282
330
1F
100
AcDbEntity
  8
0
  6
HIDDEN
 62
     7
370
     0
100
AcDbLine
 10
129.2633744619
 20
183.6744358608
 30
0.0
 11
127.2633745998
 21
183.6744358608
 31
0.0
  0
LINE
  5
283
330
1F
100
AcDbEntity
  8
0
  6
HIDDEN
 62
     7
370
     0
100
AcDbLine
 10
129.2633744619
 20
191.6744371721
 30
0.0
 11
127.2633745998
 21
191.6744371721
 31
0.0
  0
LINE
  5
284
330
1F
100
AcDbEntity
  8
0
  6
HIDDEN
 62
     7
370
     0
100
AcDbLine
 10
129.2633744619
 20
183.6744358608
 30
0.0
 11
129.2633744619
 21
191.6744371721
 31
0.0
  0
LINE
  5
285
330
1F
100
AcDbEntity
  8
0
  6
HIDDEN
 62
     7
370
     0
100
AcDbLine
 10
127.2633745998
 20
213.0032216975
 30
0.0
 11
129.2633744619
 21
213.0032216975
 31
0.0
  0
LINE
  5
286
330
1F
100
AcDbEntity
  8
0
  6
HIDDEN
 62
     7
370
     0
100
AcDbLine
 10
129.2633744619
 20
191.6744371721
 30
0.0
 11
129.2633744619
 21
213.0032216975
 31
0.0
  0
LINE
  5
287
330
1F
100
AcDbEntity
  8
0
  6
HIDDEN
 62
     7
370
     0
100
AcDbLine
 10
129.2633744619
 20
236.9456475446
 30
0.0
 11
127.2633745998
 21
236.9456475446
 31
0.0
  0
LINE
  5
288
330
1F
100
AcDbEntity
  8
0
  6
HIDDEN
 62
     7
370
     0
100
AcDbLine
 10
129.2633744619
 20
236.9456475446
 30
0.0
 11
129.2633744619
 21
258.27443207
 31
0.0
  0
LINE
  5
289
330
1F
100
AcDbEntity
  8
0
  6
HIDDEN
 62
     7
370
     0
100
AcDbLine
 10
129.2633744619
 20
266.2744333813
 30
0.0
 11
127.2633745998
 21
266.2744333813
 31
0.0
  0
LINE
  5
28A
330
1F
100
AcDbEntity
  8
0
  6
HIDDEN
 62
     7
370
     0
100
AcDbLine
 10
129.2633744619
 20
258.27443207
 30
0.0
 11
127.2633745998
 21
258.27443207
 31
0.0
  0
LINE
  5
28B
330
1F
100
AcDbEntity
  8
0
  6
HIDDEN
 62
     7
370
     0
100
AcDbLine
 10
129.2633744619
 20
258.27443207
 30
0.0
 11
129.2633744619
 21
266.2744333813
 31
0.0
  0
LINE
  5
28C
330
1F
100
AcDbEntity
  8
0
  6
HIDDEN
 62
     7
370
     0
100
AcDbLine
 10
130.763374475
 20
224.9744346211
 30
0.0
 11
130.763374475
 21
261.4894321034
 31
0.0
  0
LINE
  5
28D
330
1F
100
AcDbEntity
  8
0
  6
HIDDEN
 62
     7
370
     0
100
AcDbLine
 10
130.763374475
 20
188.4594371388
 30
0.0
 11
130.763374475
 21
224.9744346211
 31
0.0
  0
LINE
  5
28E
330
1F
100
AcDbEntity
  8
0
  6
HIDDEN
 62
     7
370
     0
100
AcDbLine
 10
132.263374488
 20
133.9244356224
 30
0.0
 11
130.6133744969
 21
133.9244356224
 31
0.0
  0
LINE
  5
28F
330
1F
100
AcDbEntity
  8
0
  6
HIDDEN
 62
     7
370
     0
100
AcDbLine
 10
133.9133744791
 20
133.9244356224
 30
0.0
 11
132.263374488
 21
133.9244356224
 31
0.0
  0
LINE
  5
290
330
1F
100
AcDbEntity
  8
0
  6
HIDDEN
 62
     7
370
     0
100
AcDbLine
 10
132.263374488
 20
154.974434323
 30
0.0
 11
130.6133744969
 21
154.974434323
 31
0.0
  0
LINE
  5
291
330
1F
100
AcDbEntity
  8
0
  6
HIDDEN
 62
     7
370
     0
100
AcDbLine
 10
133.9133744791
 20
154.974434323
 30
0.0
 11
132.263374488
 21
154.974434323
 31
0.0
  0
LINE
  5
292
330
1F
100
AcDbEntity
  8
0
  6
HIDDEN
 62
     7
370
     0
100
AcDbLine
 10
129.2633744619
 20
181.974436886
 30
0.0
 11
129.2633744619
 21
183.6744358608
 31
0.0
  0
LINE
  5
293
330
1F
100
AcDbEntity
  8
0
  6
HIDDEN
 62
     7
370
     0
100
AcDbLine
 10
129.2633744619
 20
266.2744333813
 30
0.0
 11
129.2633744619
 21
267.9744323561
 31
0.0
  0
LINE
  5
294
330
1F
100
AcDbEntity
  8
0
  6
HIDDEN
 62
     7
370
     0
100
AcDbLine
 10
130.763374475
 20
139.9744355896
 30
0.0
 11
130.763374475
 21
146.4744357237
 31
0.0
  0
LINE
  5
295
330
1F
100
AcDbEntity
  8
0
  6
HIDDEN
 62
     7
370
     0
100
AcDbLine
 10
130.763374475
 20
133.4744354555
 30
0.0
 11
130.763374475
 21
139.9744355896
 31
0.0
  0
LINE
  5
296
330
1F
100
AcDbEntity
  8
0
  6
HIDDEN
 62
     7
370
     0
100
AcDbLine
 10
127.2633745998
 20
167.474433578
 30
0.0
 11
137.2633743762
 21
167.474433578
 31
0.0
  0
LINE
  5
297
330
1F
100
AcDbEntity
  8
0
  6
HIDDEN
 62
     7
370
     0
100
AcDbLine
 10
137.2633743762
 20
172.4744362602
 30
0.0
 11
127.2633745998
 21
172.4744362602
 31
0.0
  0
LINE
  5
298
330
1F
100
AcDbEntity
  8
0
  6
HIDDEN
 62
     7
370
     0
100
AcDbLine
 10
137.2633743762
 20
193.1744327614
 30
0.0
 11
129.2633744619
 21
193.1744327614
 31
0.0
  0
LINE
  5
299
330
1F
100
AcDbEntity
  8
0
  6
HIDDEN
 62
     7
370
     0
100
AcDbLine
 10
129.2633744619
 20
187.1744355032
 30
0.0
 11
137.2633743762
 21
187.1744355032
 31
0.0
  0
LINE
  5
29A
330
1F
100
AcDbEntity
  8
0
  6
HIDDEN
 62
     7
370
     0
100
AcDbLine
 10
137.2633743762
 20
262.7744337389
 30
0.0
 11
129.2633744619
 21
262.7744337389
 31
0.0
  0
LINE
  5
29B
330
1F
100
AcDbEntity
  8
0
  6
HIDDEN
 62
     7
370
     0
100
AcDbLine
 10
129.2633744619
 20
256.7744364807
 30
0.0
 11
137.2633743762
 21
256.7744364807
 31
0.0
  0
LINE
  5
29C
330
1F
100
AcDbEntity
  8
0
  6
HIDDEN
 62
     7
370
     0
100
AcDbLine
 10
129.2633744619
 20
188.4594371388
 30
0.0
 11
130.763374475
 21
188.4594371388
 31
0.0
  0
LINE
  5
29D
330
1F
100
AcDbEntity
  8
0
  6
HIDDEN
 62
     7
370
     0
100
AcDbLine
 10
130.763374475
 20
261.4894321034
 30
0.0
 11
129.2633744619
 21
261.4894321034
 31
0.0
  0
LINE
  5
29E
330
1F
100
AcDbEntity
  8
0
  6
HIDDEN
 62
     7
370
     0
100
AcDbLine
 10
133.9133744791
 20
114.9744352171
 30
0.0
 11
133.9133744791
 21
133.9244356224
 31
0.0
  0
LINE
  5
29F
330
1F
100
AcDbEntity
  8
0
  6
HIDDEN
 62
     7
370
     0
100
AcDbLine
 10
130.6133744969
 20
133.9244356224
 30
0.0
 11
130.6133744969
 21
114.9744352171
 31
0.0
  0
LINE
  5
2A0
330
1F
100
AcDbEntity
  8
0
  6
HIDDEN
 62
     7
370
     0
100
AcDbLine
 10
133.9133744791
 20
133.9244356224
 30
0.0
 11
132.263374488
 21
134.9158545801
 31
0.0
  0
LINE
  5
2A1
330
1F
100
AcDbEntity
  8
0
  6
HIDDEN
 62
     7
370
     0
100
AcDbLine
 10
132.263374488
 20
134.9158545801
 30
0.0
 11
130.6133744969
 21
133.9244356224
 31
0.0
  0
LINE
  5
2A2
330
1F
100
AcDbEntity
  8
0
  6
HIDDEN
 62
     7
370
     0
100
AcDbLine
 10
133.9133744791
 20
133.9244356224
 30
0.0
 11
133.9133744791
 21
154.974434323
 31
0.0
  0
LINE
  5
2A3
330
1F
100
AcDbEntity
  8
0
  6
HIDDEN
 62
     7
370
     0
100
AcDbLine
 10
130.6133744969
 20
154.974434323
 30
0.0
 11
130.6133744969
 21
133.9244356224
 31
0.0
  0
LINE
  5
2A4
330
1F
100
AcDbEntity
  8
0
  6
HIDDEN
 62
     7
370
     0
100
AcDbLine
 10
133.9133744791
 20
154.974434323
 30
0.0
 11
132.263374488
 21
155.965857006
 31
0.0
  0
LINE
  5
2A5
330
1F
100
AcDbEntity
  8
0
  6
HIDDEN
 62
     7
370
     0
100
AcDbLine
 10
132.263374488
 20
155.965857006
 30
0.0
 11
130.6133744969
 21
154.974434323
 31
0.0
  0
LINE
  5
2A6
330
1F
100
AcDbEntity
  8
0
  6
HIDDEN
 62
     7
370
     0
100
AcDbLine
 10
127.2633745998
 20
181.974436886
 30
0.0
 11
129.2633744619
 21
181.974436886
 31
0.0
  0
LINE
  5
2A7
330
1F
100
AcDbEntity
  8
0
  6
HIDDEN
 62
     7
370
     0
100
AcDbLine
 10
129.2633744619
 20
267.9744323561
 30
0.0
 11
127.2633745998
 21
267.9744323561
 31
0.0
  0
LINE
  5
2A8
330
1F
100
AcDbEntity
  8
0
  6
HIDDEN
 62
     7
370
     0
100
AcDbLine
 10
137.2633743762
 20
231.9744339058
 30
0.0
 11
130.763374475
 21
231.9744339058
 31
0.0
  0
LINE
  5
2A9
330
1F
100
AcDbEntity
  8
0
  6
HIDDEN
 62
     7
370
     0
100
AcDbLine
 10
130.763374475
 20
217.9744353363
 30
0.0
 11
137.2633743762
 21
217.9744353363
 31
0.0
  0
LINE
  5
2AA
330
1F
100
AcDbEntity
  8
0
  6
HIDDEN
 62
     7
370
     0
100
AcDbLine
 10
127.2633745998
 20
133.4744354555
 30
0.0
 11
130.763374475
 21
133.4744354555
 31
0.0
  0
LINE
  5
2AB
330
1F
100
AcDbEntity
  8
0
  6
HIDDEN
 62
     7
370
     0
100
AcDbLine
 10
130.763374475
 20
146.4744357237
 30
0.0
 11
127.2633745998
 21
146.4744357237
 31
0.0
  0
LINE
  5
2AC
330
1F
100
AcDbEntity
  8
0
  6
HIDDEN
 62
     7
370
     0
100
AcDbLine
 10
137.2633743762
 20
144.0205870041
 30
0.0
 11
130.763374475
 21
144.0205870041
 31
0.0
  0
LINE
  5
2AD
330
1F
100
AcDbEntity
  8
0
  6
HIDDEN
 62
     7
370
     0
100
AcDbLine
 10
130.763374475
 20
135.9282823125
 30
0.0
 11
137.2633743762
 21
135.9282823125
 31
0.0
  0
LINE
  5
2AE
330
1F
100
AcDbEntity
  8
0
  6
CENTERX2
 62
     7
370
     0
100
AcDbLine
 10
132.263374488
 20
114.9744352171
 30
0.0
 11
132.263374488
 21
134.9158552385
 31
0.0
  0
DIMENSION
  5
2AF
330
1F
100
AcDbEntity
  8
0
  6
Continuous
 62
     7
370
     0
100
AcDbDimension
  2
_D_25
 10
137.263374488
 20
111.790320112
 30
0.0
 11
141.6083171587
 21
111.790320112
 31
0.0
 70
   160
  1
<>
 71
     2
 42
-1.0
  3
SLDDIMSTYLE1
100
AcDbAlignedDimension
 13
132.263374488
 23
114.9744352171
 33
0.0
 14
137.263374488
 24
114.9744352171
 34
0.0
 50
0.0
100
AcDbRotatedDimension
  0
DIMENSION
  5
2BB
330
1F
100
AcDbEntity
  8
0
  6
Continuous
 62
     7
370
     0
100
AcDbDimension
  2
_D_26
 10
127.263374488
 20
277.4032855757
 30
0.0
 11
131.7177804747
 21
277.4032855757
 31
0.0
 70
   160
  1
<>
 71
     2
 42
-1.0
  3
SLDDIMSTYLE1
100
AcDbAlignedDimension
 13
137.263374488
 23
269.9744352171
 33
0.0
 14
127.263374488
 24
269.9744352171
 34
0.0
100
AcDbRotatedDimension
  0
DIMENSION
  5
2C7
330
1F
100
AcDbEntity
  8
0
  6
Continuous
 62
     7
370
     0
100
AcDbDimension
  2
_D_27
 10
127.263374488
 20
266.9015999912
 30
0.0
 11
121.4630289907
 21
266.9015999912
 31
0.0
 70
   160
  1
<>
 71
     2
 42
-1.0
  3
SLDDIMSTYLE1
100
AcDbAlignedDimension
 13
129.263374488
 23
267.9744352171
 33
0.0
 14
127.263374488
 24
269.9744352171
 34
0.0
100
AcDbRotatedDimension
  0
DIMENSION
  5
2D1
330
1F
100
AcDbEntity
  8
0
  6
Continuous
 62
     7
370
     0
100
AcDbDimension
  2
_D_28
 10
127.263374488
 20
258.0198802943
 30
0.0
 11
121.4630289907
 21
258.0198802943
 31
0.0
 70
   160
  1
<>
 71
     2
 42
-1.0
  3
SLDDIMSTYLE1
100
AcDbAlignedDimension
 13
130.763374488
 23
261.4894352171
 33
0.0
 14
127.263374488
 24
269.9744352171
 34
0.0
100
AcDbRotatedDimension
  0
DIMENSION
  5
2DB
330
1F
100
AcDbEntity
  8
0
  6
Continuous
 62
     7
370
     0
100
AcDbDimension
  2
_D_29
 10
130.763374488
 20
230.223082525
 30
0.0
 11
144.0531455406
 21
230.223082525
 31
0.0
 70
   160
  1
<>
 71
     2
 42
-1.0
  3
SLDDIMSTYLE1
100
AcDbAlignedDimension
 13
137.263374488
 23
269.9744352171
 33
0.0
 14
130.763374488
 24
261.4894352171
 34
0.0
100
AcDbRotatedDimension
  0
DIMENSION
  5
2E5
330
1F
100
AcDbEntity
  8
0
  6
Continuous
 62
     7
370
     0
100
AcDbDimension
  2
_D_30
 10
127.263374488
 20
146.5229666166
 30
0.0
 11
122.5596921516
 21
146.5229666166
 31
0.0
 70
   160
  1
<>
 71
     2
 42
-1.0
  3
SLDDIMSTYLE1
100
AcDbAlignedDimension
 13
130.763374488
 23
146.4744352171
 33
0.0
 14
127.263374488
 24
114.9744352171
 34
0.0
100
AcDbRotatedDimension
  0
DIMENSION
  5
2F0
330
1F
100
AcDbEntity
  8
0
  6
Continuous
 62
     7
370
     0
100
AcDbDimension
  2
_D_31
 10
130.763374488
 20
144.9073360781
 30
0.0
 11
143.2397630433
 21
144.9073360781
 31
0.0
 70
   160
  1
<>
 71
     2
 42
-1.0
  3
SLDDIMSTYLE1
100
AcDbAlignedDimension
 13
137.263374488
 23
114.9744352171
 33
0.0
 14
130.763374488
 24
146.4744352171
 34
0.0
100
AcDbRotatedDimension
  0
LINE
  5
2FA
330
1F
100
AcDbEntity
  8
0
  6
Continuous
 62
     7
370
     0
100
AcDbLine
 10
130.263374488
 20
114.9744352171
 30
0.0
 11
130.263374488
 21
130.4244352171
 31
0.0
  0
LINE
  5
2FB
330
1F
100
AcDbEntity
  8
0
  6
Continuous
 62
     7
370
     0
100
AcDbLine
 10
134.263374488
 20
114.9744352171
 30
0.0
 11
134.263374488
 21
130.4244352171
 31
0.0
  0
LINE
  5
2FC
330
1F
100
AcDbEntity
  8
0
  6
HIDDEN
 62
     7
370
     0
100
AcDbLine
 10
134.263374488
 20
130.4244352171
 30
0.0
 11
130.263374488
 21
130.4244352171
 31
0.0
  0
LINE
  5
2FD
330
1F
100
AcDbEntity
  8
0
  6
Continuous
 62
     7
370
     0
100
AcDbLine
 10
130.263374488
 20
114.9744352171
 30
0.0
 11
130.263374488
 21
130.4244352171
 31
0.0
  0
LINE
  5
2FE
330
1F
100
AcDbEntity
  8
0
  6
Continuous
 62
     7
370
     0
100
AcDbLine
 10
134.263374488
 20
114.9744352171
 30
0.0
 11
134.263374488
 21
130.4244352171
 31
0.0
  0
LINE
  5
2FF
330
1F
100
AcDbEntity
  8
0
  6
HIDDEN
 62
     7
370
     0
100
AcDbLine
 10
134.263374488
 20
130.4244352171
 30
0.0
 11
130.263374488
 21
130.4244352171
 31
0.0
  0
LINE
  5
300
330
1F
100
AcDbEntity
  8
0
  6
Continuous
 62
     7
370
     0
100
AcDbLine
 10
130.263374488
 20
114.9744352171
 30
0.0
 11
130.263374488
 21
130.4244352171
 31
0.0
  0
LINE
  5
301
330
1F
100
AcDbEntity
  8
0
  6
Continuous
 62
     7
370
     0
100
AcDbLine
 10
134.263374488
 20
114.9744352171
 30
0.0
 11
134.263374488
 21
130.4244352171
 31
0.0
  0
LINE
  5
302
330
1F
100
AcDbEntity
  8
0
  6
HIDDEN
 62
     7
370
     0
100
AcDbLine
 10
134.263374488
 20
130.4244352171
 30
0.0
 11
130.263374488
 21
130.4244352171
 31
0.0
  0
LINE
  5
303
330
1F
100
AcDbEntity
  8
0
  6
Continuous
 62
     7
370
     0
100
AcDbLine
 10
130.263374488
 20
114.9744352171
 30
0.0
 11
130.263374488
 21
130.4244352171
 31
0.0
  0
LINE
  5
304
330
1F
100
AcDbEntity
  8
0
  6
Continuous
 62
     7
370
     0
100
AcDbLine
 10
134.263374488
 20
114.9744352171
 30
0.0
 11
134.263374488
 21
130.4244352171
 31
0.0
  0
LINE
  5
305
330
1F
100
AcDbEntity
  8
0
  6
HIDDEN
 62
     7
370
     0
100
AcDbLine
 10
134.263374488
 20
130.4244352171
 30
0.0
 11
130.263374488
 21
130.4244352171
 31
0.0
  0
LINE
  5
306
330
1F
100
AcDbEntity
  8
0
  6
Continuous
 62
     7
370
    15
100
AcDbLine
 10
353.4310352072
 20
151.2263293586
 30
0.0
 11
360.8184813287
 21
148.0478893337
 31
0.0
  0
LINE
  5
307
330
1F
100
AcDbEntity
  8
0
  6
Continuous
 62
     7
370
    15
100
AcDbLine
 10
360.8184813287
 20
148.0478893337
 30
0.0
 11
308.6665457866
 21
161.6213555022
 31
0.0
  0
LINE
  5
308
330
1F
100
AcDbEntity
  8
0
  6
Continuous
 62
     7
370
    15
100
AcDbLine
 10
308.6665457866
 20
161.6213555022
 30
0.0
 11
301.2790996652
 21
164.7997955271
 31
0.0
  0
LINE
  5
309
330
1F
100
AcDbEntity
  8
0
  6
Continuous
 62
     7
370
    15
100
AcDbLine
 10
301.2790996652
 20
164.7997955271
 30
0.0
 11
353.4310352072
 21
151.2263293586
 31
0.0
  0
LWPOLYLINE
  5
30A
330
1F
100
AcDbEntity
  8
0
  6
Continuous
 62
     7
370
    15
100
AcDbPolyline
 90
       23
 70
   128
 43
0.0
 10
348.8094218787
 20
151.8013231185
 10
348.4272804746
 20
151.9591557214
 10
347.998638834
 20
152.1243617598
 10
347.5582229533
 20
152.2835572228
 10
347.1417127081
 20
152.4238450409
 10
346.7828512811
 20
152.5338599294
 10
346.5107114911
 20
152.6046891363
 10
346.3473404854
 20
152.6305945005
 10
346.3059736112
 20
152.6094773234
 10
346.3899621666
 20
152.5430483932
 10
346.5925018985
 20
152.4366893867
 10
346.8971842422
 20
152.299016878
 10
347.2793256463
 20
152.1411842752
 10
347.7079672869
 20
151.9759782368
 10
348.1483831676
 20
151.8167827738
 10
348.5648934129
 20
151.6764949557
 10
348.9237548398
 20
151.5664800672
 10
349.1958946298
 20
151.4956508603
 10
349.3592656355
 20
151.4697454961
 10
349.4006325097
 20
151.4908626731
 10
349.3166439543
 20
151.5572916034
 10
349.1141042225
 20
151.6636506099
 10
348.8094218787
 20
151.8013231185
  0
LWPOLYLINE
  5
30B
330
1F
100
AcDbEntity
  8
0
  6
Continuous
 62
     7
370
    15
100
AcDbPolyline
 90
       23
 70
   128
 43
0.0
 10
315.2003967517
 20
160.5486679827
 10
314.8182553475
 20
160.7065005856
 10
314.3896137069
 20
160.8717066239
 10
313.9491978263
 20
161.030902087
 10
313.532687581
 20
161.1711899051
 10
313.173826154
 20
161.2812047936
 10
312.9016863641
 20
161.3520340005
 10
312.7383153583
 20
161.3779393647
 10
312.6969484841
 20
161.3568221876
 10
312.7809370396
 20
161.2903932574
 10
312.9834767714
 20
161.1840342508
 10
313.2881591151
 20
161.0463617422
 10
313.6703005192
 20
160.8885291393
 10
314.0989421599
 20
160.723323101
 10
314.5393580405
 20
160.5641276379
 10
314.9558682858
 20
160.4238398198
 10
315.3147297127
 20
160.3138249313
 10
315.5868695027
 20
160.2429957244
 10
315.7502405084
 20
160.2170903602
 10
315.7916073827
 20
160.2382075373
 10
315.7076188272
 20
160.3046364675
 10
315.5050790954
 20
160.410995474
 10
315.2003967517
 20
160.5486679827
  0
LWPOLYLINE
  5
30C
330
1F
100
AcDbEntity
  8
0
  6
Continuous
 62
     7
370
    15
100
AcDbPolyline
 90
       23
 70
   128
 43
0.0
 10
323.2392872856
 20
158.456404147
 10
322.8571458815
 20
158.6142367499
 10
322.4285042408
 20
158.7794427882
 10
321.9880883602
 20
158.9386382513
 10
321.5715781149
 20
159.0789260694
 10
321.212716688
 20
159.1889409579
 10
320.940576898
 20
159.2597701648
 10
320.7772058922
 20
159.285675529
 10
320.735839018
 20
159.2645583519
 10
320.8198275735
 20
159.1981294217
 10
321.0223673053
 20
159.0917704152
 10
321.327049649
 20
158.9540979065
 10
321.7091910531
 20
158.7962653036
 10
322.1378326938
 20
158.6310592653
 10
322.5782485744
 20
158.4718638023
 10
322.9947588197
 20
158.3315759841
 10
323.3536202466
 20
158.2215610956
 10
323.6257600366
 20
158.1507318888
 10
323.7891310424
 20
158.1248265246
 10
323.8304979166
 20
158.1459437016
 10
323.7465093611
 20
158.2123726319
 10
323.5439696293
 20
158.3187316384
 10
323.2392872856
 20
158.456404147
  0
LWPOLYLINE
  5
30D
330
1F
100
AcDbEntity
  8
0
  6
Continuous
 62
     7
370
    15
100
AcDbPolyline
 90
       23
 70
   128
 43
0.0
 10
340.6968985722
 20
153.9127511892
 10
340.3147571681
 20
154.0705837921
 10
339.8861155275
 20
154.2357898304
 10
339.4456996468
 20
154.3949852935
 10
339.0291894015
 20
154.5352731116
 10
338.6703279746
 20
154.6452880001
 10
338.3981881846
 20
154.716117207
 10
338.2348171789
 20
154.7420225712
 10
338.1934503047
 20
154.7209053941
 10
338.2774388601
 20
154.6544764639
 10
338.479978592
 20
154.5481174574
 10
338.7846609357
 20
154.4104449487
 10
339.1668023398
 20
154.2526123458
 10
339.5954439804
 20
154.0874063075
 10
340.0358598611
 20
153.9282108444
 10
340.4523701064
 20
153.7879230263
 10
340.8112315333
 20
153.6779081378
 10
341.0833713233
 20
153.6070789309
 10
341.246742329
 20
153.5811735667
 10
341.2881092032
 20
153.6022907438
 10
341.2041206478
 20
153.668719674
 10
341.0015809159
 20
153.7750786805
 10
340.6968985722
 20
153.9127511892
  0
LINE
  5
30E
330
1F
100
AcDbEntity
  8
0
  6
Continuous
 62
     7
370
    15
100
AcDbLine
 10
354.6305432912
 20
309.890860095
 30
0.0
 11
406.7824788332
 21
296.3173939265
 31
0.0
  0
LINE
  5
30F
330
1F
100
AcDbEntity
  8
0
  6
Continuous
 62
     7
370
    15
100
AcDbLine
 10
406.7824788332
 20
296.3173939265
 30
0.0
 11
353.4310352072
 21
151.2263293586
 31
0.0
  0
LINE
  5
310
330
1F
100
AcDbEntity
  8
0
  6
Continuous
 62
     7
370
    15
100
AcDbLine
 10
301.2790996652
 20
164.7997955271
 30
0.0
 11
354.6305432912
 21
309.890860095
 31
0.0
  0
LWPOLYLINE
  5
311
330
1F
100
AcDbEntity
  8
0
  6
Continuous
 62
     7
370
    15
100
AcDbPolyline
 90
       13
 70
   128
 43
0.0
 10
360.1367443219
 20
304.6628453712
 10
359.508102824
 20
304.7562634168
 10
358.8431023052
 20
304.7199515264
 10
358.1531211088
 20
304.5545310066
 10
357.4499650043
 20
304.2628322483
 10
356.7456651876
 20
303.8498462981
 10
356.0522724239
 20
303.3226394601
 10
355.3816508556
 20
302.6902323896
 10
354.7452750036
 20
301.9634457468
 10
354.1540334353
 20
301.1547150526
 10
353.6180424577
 20
300.2778779135
 10
353.1464730251
 20
299.3479372561
 10
352.7473938213
 20
298.3808046228
  0
LINE
  5
312
330
1F
100
AcDbEntity
  8
0
  6
Continuous
 62
     7
370
    15
100
AcDbLine
 10
352.7473938213
 20
298.3808046228
 30
0.0
 11
345.4059651434
 21
278.4155397688
 31
0.0
  0
ARC
  5
313
330
1F
100
AcDbEntity
  8
0
  6
Continuous
 62
     7
370
    15
100
AcDbCircle
 10
406.634733885
 20
243.1800343976
 30
0.0
 40
70.64349198888777
100
AcDbArc
 50
150.0807337737
 51
169.541300851
  0
LINE
  5
314
330
1F
100
AcDbEntity
  8
0
  6
Continuous
 62
     7
370
    15
100
AcDbLine
 10
337.1649118832
 20
256.0037152817
 30
0.0
 11
329.8234832052
 21
236.0384504278
 31
0.0
  0
LWPOLYLINE
  5
315
330
1F
100
AcDbEntity
  8
0
  6
Continuous
 62
     7
370
    15
100
AcDbPolyline
 90
       13
 70
   128
 43
0.0
 10
329.8234832052
 20
236.0384504278
 10
329.503722586
 20
235.0506737261
 10
329.2687517442
 20
234.0591540892
 10
329.122591096
 20
233.080856693
 10
329.0677414907
 20
232.1325204773
 10
329.1051414203
 20
231.2303717375
 10
329.2341509615
 20
230.3898464888
 10
329.4525627253
 20
229.6253263512
 10
329.756639626
 20
228.9498924762
 10
330.1411788234
 20
228.3751017247
 10
330.5996007453
 20
227.9107889257
 10
331.1240616655
 20
227.5648986001
 10
331.7055879122
 20
227.3433490272
  0
LINE
  5
316
330
1F
100
AcDbEntity
  8
0
  6
Continuous
 62
     7
370
    15
100
AcDbLine
 10
331.7055879122
 20
227.3433490272
 30
0.0
 11
344.064892308
 21
224.126620859
 31
0.0
  0
ARC
  5
317
330
1F
100
AcDbEntity
  8
0
  6
Continuous
 62
     7
370
    15
100
AcDbCircle
 10
354.6550761136
 20
236.3577586834
 30
0.0
 40
16.17877391879417
100
AcDbArc
 50
229.1127418872
 51
281.710090016
  0
LINE
  5
318
330
1F
100
AcDbEntity
  8
0
  6
Continuous
 62
     7
370
    15
100
AcDbLine
 10
357.9387158174
 20
220.5157122307
 30
0.0
 11
370.2980202133
 21
217.2989840625
 31
0.0
  0
LWPOLYLINE
  5
319
330
1F
100
AcDbEntity
  8
0
  6
Continuous
 62
     7
370
    15
100
AcDbPolyline
 90
       13
 70
   128
 43
0.0
 10
370.2980202133
 20
217.2989840625
 10
370.9266617112
 20
217.2055660169
 10
371.5916622299
 20
217.2418779073
 10
372.2816434264
 20
217.4072984271
 10
372.9847995309
 20
217.6989971854
 10
373.6890993475
 20
218.1119831356
 10
374.3824921113
 20
218.6391899735
 10
375.0531136796
 20
219.2715970441
 10
375.6894895315
 20
219.9983836869
 10
376.2807310999
 20
220.8071143811
 10
376.8167220775
 20
221.6839515201
 10
377.28829151
 20
222.6138921776
 10
377.6873707138
 20
223.5810248109
  0
LINE
  5
31A
330
1F
100
AcDbEntity
  8
0
  6
Continuous
 62
     7
370
    15
100
AcDbLine
 10
377.6873707138
 20
223.5810248109
 30
0.0
 11
385.0287993918
 21
243.5462896649
 31
0.0
  0
ARC
  5
31B
330
1F
100
AcDbEntity
  8
0
  6
Continuous
 62
     7
370
    15
100
AcDbCircle
 10
323.8000306501
 20
278.7817950361
 30
0.0
 40
70.64349198889072
100
AcDbArc
 50
330.0807337737
 51
349.541300851
  0
LINE
  5
31C
330
1F
100
AcDbEntity
  8
0
  6
Continuous
 62
     7
370
    15
100
AcDbLine
 10
393.269852652
 20
265.958114152
 30
0.0
 11
400.6112813299
 21
285.9233790059
 31
0.0
  0
LWPOLYLINE
  5
31D
330
1F
100
AcDbEntity
  8
0
  6
Continuous
 62
     7
370
    15
100
AcDbPolyline
 90
       13
 70
   128
 43
0.0
 10
400.6112813299
 20
285.9233790059
 10
400.9310419492
 20
286.9111557076
 10
401.166012791
 20
287.9026753445
 10
401.3121734392
 20
288.8809727407
 10
401.3670230444
 20
289.8293089564
 10
401.3296231149
 20
290.7314576962
 10
401.2006135737
 20
291.5719829449
 10
400.9822018098
 20
292.3365030825
 10
400.6781249091
 20
293.0119369575
 10
400.2935857117
 20
293.586727709
 10
399.8351637898
 20
294.0510405079
 10
399.3107028697
 20
294.3969308336
 10
398.729176623
 20
294.6184804065
  0
LINE
  5
31E
330
1F
100
AcDbEntity
  8
0
  6
Continuous
 62
     7
370
    15
100
AcDbLine
 10
398.729176623
 20
294.6184804065
 30
0.0
 11
386.3698722271
 21
297.8352085747
 31
0.0
  0
ARC
  5
31F
330
1F
100
AcDbEntity
  8
0
  6
Continuous
 62
     7
370
    15
100
AcDbCircle
 10
375.7796884216
 20
285.6040707502
 30
0.0
 40
16.17877391879401
100
AcDbArc
 50
49.1127418872
 51
101.710090016
  0
LINE
  5
320
330
1F
100
AcDbEntity
  8
0
  6
Continuous
 62
     7
370
    15
100
AcDbLine
 10
372.4960487177
 20
301.446117203
 30
0.0
 11
360.1367443219
 21
304.6628453712
 31
0.0
  0
LWPOLYLINE
  5
321
330
1F
100
AcDbEntity
  8
0
  6
Continuous
 62
     7
370
    15
100
AcDbPolyline
 90
       29
 70
   128
 43
0.0
 10
324.5562517094
 20
215.1525994834
 10
324.7114115122
 20
215.6827913783
 10
324.7861488487
 20
216.2053036342
 10
324.7767160767
 20
216.6939353046
 10
324.6835861947
 20
217.1241843574
 10
324.5114291239
 20
217.4744763084
 10
324.2688775387
 20
217.7272460565
 10
323.9680939885
 20
217.8698186711
 10
323.6241610163
 20
217.8950449659
 10
323.2543248575
 20
217.8016599892
 10
322.8771306415
 20
217.5943464536
 10
322.5114924612
 20
217.2834999256
 10
322.1757449418
 20
216.8847075479
 10
321.8867238659
 20
216.4179664357
 10
321.658921957
 20
215.9066809372
 10
321.5037621542
 20
215.3764890423
 10
321.4290248177
 20
214.8539767864
 10
321.4384575897
 20
214.3653451159
 10
321.5315874717
 20
213.9350960632
 10
321.7037445425
 20
213.5848041122
 10
321.9462961277
 20
213.3320343641
 10
322.247079678
 20
213.1894617495
 10
322.5910126502
 20
213.1642354547
 10
322.9608488089
 20
213.2576204314
 10
323.3380430249
 20
213.4649339669
 10
323.7036812052
 20
213.775780495
 10
324.0394287246
 20
214.1745728726
 10
324.3284498005
 20
214.6413139849
 10
324.5562517094
 20
215.1525994834
  0
LWPOLYLINE
  5
322
330
1F
100
AcDbEntity
  8
0
  6
Continuous
 62
     7
370
    15
100
AcDbPolyline
 90
       29
 70
   128
 43
0.0
 10
370.9135277467
 20
203.0872962225
 10
371.0686875496
 20
203.6174881174
 10
371.1434248861
 20
204.1400003733
 10
371.133992114
 20
204.6286320437
 10
371.0408622321
 20
205.0588810965
 10
370.8687051613
 20
205.4091730475
 10
370.6261535761
 20
205.6619427956
 10
370.3253700258
 20
205.8045154102
 10
369.9814370536
 20
205.829741705
 10
369.6116008949
 20
205.7363567283
 10
369.2344066789
 20
205.5290431927
 10
368.8687684986
 20
205.2181966647
 10
368.5330209792
 20
204.819404287
 10
368.2439999033
 20
204.3526631748
 10
368.0161979944
 20
203.8413776763
 10
367.8610381915
 20
203.3111857813
 10
367.7863008551
 20
202.7886735255
 10
367.7957336271
 20
202.300041855
 10
367.8888635091
 20
201.8697928023
 10
368.0610205799
 20
201.5195008513
 10
368.3035721651
 20
201.2667311032
 10
368.6043557153
 20
201.1241584886
 10
368.9482886875
 20
201.0989321938
 10
369.3181248463
 20
201.1923171705
 10
369.6953190623
 20
201.399630706
 10
370.0609572426
 20
201.7104772341
 10
370.396704762
 20
202.1092696117
 10
370.6857258379
 20
202.576010724
 10
370.9135277467
 20
203.0872962225
  0
LWPOLYLINE
  5
323
330
1F
100
AcDbEntity
  8
0
  6
Continuous
 62
     7
370
    15
100
AcDbPolyline
 90
       46
 70
   128
 43
0.0
 10
339.7266676668
 20
180.4345411606
 10
340.0013866366
 20
181.2908751524
 10
340.1974473177
 20
182.1496221162
 10
340.311033612
 20
182.9940675192
 10
340.3399346916
 20
183.807775192
 10
340.2835880298
 20
184.5749072405
 10
340.1430903503
 20
185.2805323119
 10
339.9211762805
 20
185.9109162169
 10
339.6221651255
 20
186.4537892497
 10
339.2518767972
 20
186.8985850043
 10
338.8175185367
 20
187.2366460374
 10
338.3275446336
 20
187.4613923753
 10
337.7914918725
 20
187.5684495864
 10
337.2197939106
 20
187.5557339237
 10
336.6235781986
 20
187.4234928831
 10
336.0144493969
 20
187.1743003862
 10
335.404263505
 20
186.8130066814
 10
334.804897097
 20
186.3466439397
 10
334.2280161584
 20
185.7842893813
 10
333.6848490204
 20
185.1368885982
 10
333.1859678136
 20
184.4170425101
 10
332.7410826931
 20
183.6387621023
 10
332.3588528418
 20
182.8171957177
 10
332.0467179289
 20
181.9683342115
 10
331.8107533055
 20
181.1086997072
 10
331.6555517546
 20
180.2550240128
 10
331.5841340978
 20
179.4239229545
 10
331.5978903985
 20
178.6315729691
 10
331.6965529061
 20
177.8933962477
 10
331.8782012671
 20
177.2237605607
 10
332.1392999026
 20
176.6356996048
 10
332.4747668249
 20
176.1406593178
 10
332.8780725517
 20
175.7482750958
 10
333.341367196
 20
175.4661842512
 10
333.8556332544
 20
175.2998773614
 10
334.410861123
 20
175.252591401
 10
334.9962439231
 20
175.3252467374
 10
335.6003878442
 20
175.516429217
 10
336.2115339121
 20
175.8224176904
 10
336.8177868637
 20
176.2372564401
 10
337.4073466751
 20
176.7528711015
 10
337.968738235
 20
177.3592258218
 10
338.4910346954
 20
178.0445185962
 10
338.9640701496
 20
178.7954109803
 10
339.3786375007
 20
179.5972877078
 10
339.7266676668
 20
180.4345411606
  0
LINE
  5
324
330
1F
100
AcDbEntity
  8
0
  6
Continuous
 62
     7
370
    15
100
AcDbLine
 10
360.8184813287
 20
148.0478893337
 30
0.0
 11
414.1699249547
 21
293.1389539016
 31
0.0
  0
LINE
  5
325
330
1F
100
AcDbEntity
  8
0
  6
Continuous
 62
     7
370
    15
100
AcDbLine
 10
414.1699249547
 20
293.1389539016
 30
0.0
 11
406.7824788332
 21
296.3173939265
 31
0.0
  0
LWPOLYLINE
  5
326
330
1F
100
AcDbEntity
  8
0
  6
Continuous
 62
     7
370
    15
100
AcDbPolyline
 90
       32
 70
   128
 43
0.0
 10
356.7693181654
 20
298.6213666766
 10
356.5970406913
 20
298.0468156685
 10
356.5029864895
 20
297.4772635363
 10
356.4910061501
 20
296.936027811
 10
356.5615901496
 20
296.4452667469
 10
356.7118487708
 20
296.0250721596
 10
356.935630408
 20
295.6926468649
 10
357.2237734147
 20
295.4616003934
 10
357.5644811825
 20
295.3413918148
 10
357.9438050952
 20
295.3369424824
 10
358.3462155872
 20
295.4484345525
 10
358.7552379259
 20
295.6713035265
 10
359.1541266885
 20
295.9964251226
 10
359.5265513222
 20
296.4104888242
 10
359.8572647189
 20
296.896542815
 10
360.1327274331
 20
297.4346879873
 10
360.341661989
 20
298.0028926145
 10
360.4755145813
 20
298.5778943326
 10
360.5288052691
 20
299.1361525035
 10
360.4993523256
 20
299.6548119722
 10
360.3883615575
 20
300.1126387591
 10
360.20037694
 20
300.4908893817
 10
359.9430945855
 20
300.7740782151
 10
359.6270476637
 20
300.9506114752
 10
359.2651751727
 20
301.0132618696
 10
358.872292215
 20
300.9594644837
 10
358.4644834648
 20
300.791421789
 10
358.0584446604
 20
300.5160134729
 10
357.6707990781
 20
300.1445147845
 10
357.3174169736
 20
299.6921349235
 10
357.0127658518
 20
299.1773943747
 10
356.7693181654
 20
298.6213666766
  0
LWPOLYLINE
  5
327
330
1F
100
AcDbEntity
  8
0
  6
Continuous
 62
     7
370
    15
100
AcDbPolyline
 90
       32
 70
   128
 43
0.0
 10
397.1001483179
 20
288.1245528396
 10
396.9278708438
 20
287.5500018316
 10
396.833816642
 20
286.9804496993
 10
396.8218363026
 20
286.439213974
 10
396.8924203021
 20
285.9484529099
 10
397.0426789233
 20
285.5282583226
 10
397.2664605605
 20
285.1958330279
 10
397.5546035673
 20
284.9647865564
 10
397.895311335
 20
284.8445779778
 10
398.2746352477
 20
284.8401286455
 10
398.6770457398
 20
284.9516207155
 10
399.0860680784
 20
285.1744896896
 10
399.484956841
 20
285.4996112856
 10
399.8573814747
 20
285.9136749873
 10
400.1880948714
 20
286.399728978
 10
400.4635575856
 20
286.9378741503
 10
400.6724921415
 20
287.5060787775
 10
400.8063447338
 20
288.0810804956
 10
400.8596354217
 20
288.6393386665
 10
400.8301824781
 20
289.1579981352
 10
400.71919171
 20
289.6158249221
 10
400.5312070925
 20
289.9940755447
 10
400.273924738
 20
290.2772643781
 10
399.9578778162
 20
290.4537976382
 10
399.5960053253
 20
290.5164480326
 10
399.2031223675
 20
290.4626506468
 10
398.7953136173
 20
290.294607952
 10
398.3892748129
 20
290.019199636
 10
398.0016292306
 20
289.6477009475
 10
397.6482471261
 20
289.1953210865
 10
397.3435960043
 20
288.6805805377
 10
397.1001483179
 20
288.1245528396
  0
LWPOLYLINE
  5
328
330
1F
100
AcDbEntity
  8
0
  6
Continuous
 62
     7
370
    15
100
AcDbPolyline
 90
       32
 70
   128
 43
0.0
 10
373.1436291155
 20
222.9739844917
 10
372.9713516414
 20
222.3994334836
 10
372.8772974396
 20
221.8298813513
 10
372.8653171002
 20
221.288645626
 10
372.9359010997
 20
220.7978845619
 10
373.0861597209
 20
220.3776899747
 10
373.3099413581
 20
220.04526468
 10
373.5980843649
 20
219.8142182085
 10
373.9387921326
 20
219.6940096299
 10
374.3181160453
 20
219.6895602975
 10
374.7205265374
 20
219.8010523676
 10
375.129548876
 20
220.0239213416
 10
375.5284376386
 20
220.3490429377
 10
375.9008622723
 20
220.7631066393
 10
376.231575669
 20
221.24916063
 10
376.5070383832
 20
221.7873058023
 10
376.7159729391
 20
222.3555104296
 10
376.8498255314
 20
222.9305121476
 10
376.9031162193
 20
223.4887703186
 10
376.8736632757
 20
224.0074297873
 10
376.7626725076
 20
224.4652565741
 10
376.5746878901
 20
224.8435071968
 10
376.3174055356
 20
225.1266960302
 10
376.0013586138
 20
225.3032292903
 10
375.6394861229
 20
225.3658796847
 10
375.2466031651
 20
225.3120822988
 10
374.8387944149
 20
225.1440396041
 10
374.4327556105
 20
224.868631288
 10
374.0451100282
 20
224.4971325995
 10
373.6917279237
 20
224.0447527386
 10
373.3870768019
 20
223.5300121898
 10
373.1436291155
 20
222.9739844917
  0
LWPOLYLINE
  5
329
330
1F
100
AcDbEntity
  8
0
  6
Continuous
 62
     7
370
    15
100
AcDbPolyline
 90
      109
 70
   128
 43
0.0
 10
387.8540706732
 20
254.8381698547
 10
388.5490698645
 20
256.8349147718
 10
389.1701213664
 20
258.8435374733
 10
389.7151237371
 20
260.8572414159
 10
390.182232861
 20
262.8692128628
 10
390.5698681889
 20
264.8726439395
 10
390.8767180853
 20
266.8607556694
 10
391.1017442675
 20
268.8268209118
 10
391.244185318
 20
270.7641871241
 10
391.3035592615
 20
272.6662988725
 10
391.2796651952
 20
274.5267200129
 10
391.1725839691
 20
276.3391554689
 10
390.9826779123
 20
278.0974725328
 10
390.7105896067
 20
279.7957216162
 10
390.3572397129
 20
281.4281563817
 10
389.9238238553
 20
282.9892531869
 10
389.4118085758
 20
284.4737297743
 10
388.8229263721
 20
285.876563145
 10
388.1591698351
 20
287.193006555
 10
387.4227849069
 20
288.4186055764
 10
386.616263281
 20
289.5492131702
 10
385.7423339712
 20
290.5810037182
 10
384.8039540778
 20
291.5104859676
 10
383.8042987811
 20
292.3345148449
 10
382.7467505984
 20
293.0503020971
 10
381.6348879379
 20
293.6554257267
 10
380.4724729909
 20
294.1478381869
 10
379.2634390016
 20
294.5258733099
 10
378.0118769583
 20
294.7882519445
 10
376.7220217509
 20
294.9340862843
 10
375.3982378409
 20
294.9628828722
 10
374.0450044943
 20
294.8745442695
 10
372.6669006242
 20
294.6693693863
 10
371.2685892979
 20
294.3480524693
 10
369.8548019584
 20
293.9116807533
 10
368.4303224144
 20
293.3617307821
 10
366.9999706538
 20
292.7000634121
 10
365.5685865342
 20
291.9289175165
 10
364.1410134064
 20
291.0509024088
 10
362.722081726
 20
290.0689890141
 10
361.3165927086
 20
288.9864998167
 10
359.9293020841
 20
287.8070976173
 10
358.5649040049
 20
286.5347731395
 10
357.2280151622
 20
285.1738315268
 10
355.9231591647
 20
283.7288777747
 10
354.654751232
 20
282.2048011493
 10
353.427083255
 20
280.6067586435
 10
352.2443092736
 20
278.9401575272
 10
351.1104314205
 20
277.2106370512
 10
350.0292863795
 20
275.4240493652
 10
349.0045324031
 20
273.5864397165
 10
348.0396369345
 20
271.7040259943
 10
347.1378648745
 20
269.7831776909
 10
346.3022675342
 20
267.8303943489
 10
345.5356723106
 20
265.852283569
 10
344.8406731192
 20
263.8555386519
 10
344.2196216173
 20
261.8469159504
 10
343.6746192466
 20
259.8332120078
 10
343.2075101227
 20
257.821240561
 10
342.8198747948
 20
255.8178094843
 10
342.5130248984
 20
253.8296977543
 10
342.2879987162
 20
251.863632512
 10
342.1455576657
 20
249.9262662996
 10
342.0861837223
 20
248.0241545512
 10
342.1100777886
 20
246.1637334109
 10
342.2171590146
 20
244.3512979548
 10
342.4070650714
 20
242.5929808909
 10
342.6791533771
 20
240.8947318075
 10
343.0325032708
 20
239.262297042
 10
343.4659191285
 20
237.7012002368
 10
343.977934408
 20
236.2167236494
 10
344.5668166117
 20
234.8138902787
 10
345.2305731486
 20
233.4974468687
 10
345.9669580768
 20
232.2718478473
 10
346.7734797027
 20
231.1412402535
 10
347.6474090125
 20
230.1094497056
 10
348.585788906
 20
229.1799674561
 10
349.5854442026
 20
228.3559385789
 10
350.6429923853
 20
227.6401513267
 10
351.7548550458
 20
227.0350276971
 10
352.9172699929
 20
226.5426152368
 10
354.1263039822
 20
226.1645801138
 10
355.3778660254
 20
225.9022014793
 10
356.6677212329
 20
225.7563671395
 10
357.9915051428
 20
225.7275705516
 10
359.3447384894
 20
225.8159091542
 10
360.7228423595
 20
226.0210840374
 10
362.1211536858
 20
226.3424009544
 10
363.5349410254
 20
226.7787726704
 10
364.9594205694
 20
227.3287226417
 10
366.3897723299
 20
227.9903900116
 10
367.8211564495
 20
228.7615359072
 10
369.2487295773
 20
229.639551015
 10
370.6676612577
 20
230.6214644096
 10
372.0731502751
 20
231.703953607
 10
373.4604408996
 20
232.8833558065
 10
374.8248389788
 20
234.1556802842
 10
376.1617278215
 20
235.5166218969
 10
377.466583819
 20
236.9615756491
 10
378.7349917518
 20
238.4856522745
 10
379.9626597287
 20
240.0836947803
 10
381.1454337101
 20
241.7502958965
 10
382.2793115632
 20
243.4798163725
 10
383.3604566042
 20
245.2664040585
 10
384.3852105806
 20
247.1040137073
 10
385.3501060492
 20
248.9864274294
 10
386.2518781093
 20
250.9072757328
 10
387.0874754495
 20
252.8600590748
 10
387.8540706732
 20
254.8381698547
  0
LWPOLYLINE
  5
32A
330
1F
100
AcDbEntity
  8
0
  6
Continuous
 62
     7
370
    15
100
AcDbPolyline
 90
       32
 70
   128
 43
0.0
 10
332.812798963
 20
233.4707983287
 10
332.6405214889
 20
232.8962473206
 10
332.5464672871
 20
232.3266951883
 10
332.5344869477
 20
231.785459463
 10
332.6050709472
 20
231.2946983989
 10
332.7553295684
 20
230.8745038116
 10
332.9791112056
 20
230.5420785169
 10
333.2672542124
 20
230.3110320455
 10
333.6079619801
 20
230.1908234669
 10
333.9872858928
 20
230.1863741345
 10
334.3896963849
 20
230.2978662046
 10
334.7987187235
 20
230.5207351786
 10
335.1976074861
 20
230.8458567746
 10
335.5700321198
 20
231.2599204763
 10
335.9007455165
 20
231.745974467
 10
336.1762082307
 20
232.2841196393
 10
336.3851427866
 20
232.8523242666
 10
336.5189953789
 20
233.4273259846
 10
336.5722860668
 20
233.9855841556
 10
336.5428331232
 20
234.5042436243
 10
336.4318423551
 20
234.9620704111
 10
336.2438577376
 20
235.3403210337
 10
335.9865753831
 20
235.6235098672
 10
335.6705284613
 20
235.8000431273
 10
335.3086559704
 20
235.8626935217
 10
334.9157730126
 20
235.8088961358
 10
334.5079642624
 20
235.640853441
 10
334.101925458
 20
235.365445125
 10
333.7142798757
 20
234.9939464365
 10
333.3608977712
 20
234.5415665756
 10
333.0562466494
 20
234.0268260268
 10
332.812798963
 20
233.4707983287
  0
LWPOLYLINE
  5
32B
330
1F
100
AcDbEntity
  8
0
  6
Continuous
 62
     7
370
    15
100
AcDbPolyline
 90
       12
 70
   128
 43
0.0
 10
331.3009724295
 20
235.4027624228
 10
330.9812118103
 20
234.4149857211
 10
330.7462409684
 20
233.4234660842
 10
330.6000803203
 20
232.4451686881
 10
330.545230715
 20
231.4968324723
 10
330.5826306445
 20
230.5946837326
 10
330.7116401858
 20
229.7541584838
 10
330.9300519496
 20
228.9896383462
 10
331.2341288503
 20
228.3142044712
 10
331.6186680477
 20
227.7394137197
 10
332.0770899696
 20
227.2751009208
 10
332.1292068986
 20
227.2330946729
  0
LINE
  5
32C
330
1F
100
AcDbEntity
  8
0
  6
Continuous
 62
     7
370
    15
100
AcDbLine
 10
338.6424011075
 20
255.3680272768
 30
0.0
 11
331.3009724295
 21
235.4027624228
 31
0.0
  0
ARC
  5
32D
330
1F
100
AcDbEntity
  8
0
  6
Continuous
 62
     7
370
    15
100
AcDbCircle
 10
408.1122231093
 20
242.5443463927
 30
0.0
 40
70.64349198888905
100
AcDbArc
 50
150.0807337737
 51
169.541300851
  0
LINE
  5
32E
330
1F
100
AcDbEntity
  8
0
  6
Continuous
 62
     7
370
    15
100
AcDbLine
 10
354.2248830456
 20
297.7451166178
 30
0.0
 11
346.8834543677
 21
277.7798517639
 31
0.0
  0
LWPOLYLINE
  5
32F
330
1F
100
AcDbEntity
  8
0
  6
Continuous
 62
     7
370
    15
100
AcDbPolyline
 90
       13
 70
   128
 43
0.0
 10
361.6142335462
 20
304.0271573662
 10
360.9855920483
 20
304.1205754118
 10
360.3205915295
 20
304.0842635214
 10
359.6306103331
 20
303.9188430016
 10
358.9274542286
 20
303.6271442433
 10
358.2231544119
 20
303.2141582931
 10
357.5297616482
 20
302.6869514552
 10
356.8591400799
 20
302.0545443846
 10
356.2227642279
 20
301.3277577418
 10
355.6315226596
 20
300.5190270476
 10
355.095531682
 20
299.6421899086
 10
354.6239622494
 20
298.7122492511
 10
354.2248830456
 20
297.7451166178
  0
LINE
  5
330
330
1F
100
AcDbEntity
  8
0
  6
Continuous
 62
     7
370
    15
100
AcDbLine
 10
373.973537942
 20
300.810429198
 30
0.0
 11
361.6142335462
 21
304.0271573662
 31
0.0
  0
ARC
  5
331
330
1F
100
AcDbEntity
  8
0
  6
Continuous
 62
     7
370
    15
100
AcDbCircle
 10
377.2308755368
 20
283.9957293712
 30
0.0
 40
17.12729921708322
100
AcDbArc
 50
70.5208927898
 51
100.9635201045
  0
LINE
  5
332
330
1F
100
AcDbEntity
  8
0
  6
Continuous
 62
     7
370
    15
100
AcDbLine
 10
399.7830468608
 20
294.0930467558
 30
0.0
 11
387.8473614514
 21
297.1995205697
 31
0.0
  0
ARC
  5
333
330
1F
100
AcDbEntity
  8
0
  6
Continuous
 62
     7
370
    15
100
AcDbCircle
 10
355.9710253154
 20
235.2825414739
 30
0.0
 40
15.74162142215211
100
AcDbArc
 50
228.5100597632
 51
243.5931291389
  0
LWPOLYLINE
  5
334
330
1F
100
AcDbEntity
  8
0
  6
Continuous
 62
     7
370
    15
100
AcDbPolyline
 90
       55
 70
   128
 43
0.0
 10
381.6748368755
 20
293.6360622323
 10
381.5805899091
 20
293.6710721832
 10
380.3715559198
 20
294.0491073062
 10
379.1199938765
 20
294.3114859407
 10
377.8301386691
 20
294.4573202805
 10
376.5063547592
 20
294.4861168684
 10
375.1531214125
 20
294.3977782658
 10
373.7750175424
 20
294.1926033826
 10
372.3767062161
 20
293.8712864656
 10
370.9629188766
 20
293.4349147496
 10
369.5384393326
 20
292.8849647783
 10
368.108087572
 20
292.2232974084
 10
366.6767034524
 20
291.4521515128
 10
365.2491303246
 20
290.574136405
 10
363.8301986442
 20
289.5922230104
 10
362.4247096268
 20
288.509733813
 10
361.0374190023
 20
287.3303316135
 10
359.6730209231
 20
286.0580071358
 10
358.3361320804
 20
284.6970655231
 10
357.0312760829
 20
283.2521117709
 10
355.7628681502
 20
281.7280351455
 10
354.5352001732
 20
280.1299926397
 10
353.3524261918
 20
278.4633915235
 10
352.2185483387
 20
276.7338710475
 10
351.1374032977
 20
274.9472833615
 10
350.1126493214
 20
273.1096737127
 10
349.1477538527
 20
271.2272599906
 10
348.2459817927
 20
269.3064116872
 10
347.4103844524
 20
267.3536283452
 10
346.6437892288
 20
265.3755175653
 10
345.9487900374
 20
263.3787726482
 10
345.3277385355
 20
261.3701499467
 10
344.7827361649
 20
259.3564460041
 10
344.3156270409
 20
257.3444745572
 10
343.9279917131
 20
255.3410434805
 10
343.6211418166
 20
253.3529317506
 10
343.3961156344
 20
251.3868665082
 10
343.2536745839
 20
249.4495002959
 10
343.1943006405
 20
247.5473885475
 10
343.2181947068
 20
245.6869674071
 10
343.3252759328
 20
243.8745319511
 10
343.5151819896
 20
242.1162148872
 10
343.7872702953
 20
240.4179658038
 10
344.140620189
 20
238.7855310383
 10
344.5740360467
 20
237.2244342331
 10
345.0860513262
 20
235.7399576457
 10
345.6749335299
 20
234.337124275
 10
346.3386900668
 20
233.020680865
 10
347.075074995
 20
231.7950818436
 10
347.8815966209
 20
230.6644742498
 10
348.7555259307
 20
229.6326837018
 10
349.6939058242
 20
228.7032014524
 10
350.6935611208
 20
227.8791725751
 10
351.7511093035
 20
227.1633853229
 10
352.8230230269
 20
226.5776251875
  0
LWPOLYLINE
  5
335
330
1F
100
AcDbEntity
  8
0
  6
Continuous
 62
     7
370
    15
100
AcDbPolyline
 90
       48
 70
   128
 43
0.0
 10
371.8592500633
 20
258.8127466728
 10
371.5019137601
 20
257.94880356
 10
371.0785700463
 20
257.1191167745
 10
370.5967735006
 20
256.3384920966
 10
370.0651217938
 20
255.6208597922
 10
369.4931022631
 20
254.9790260268
 10
368.8909226107
 20
254.4244443391
 10
368.2693287468
 20
253.9670112525
 10
367.6394130284
 20
253.6148896712
 10
367.0124163167
 20
253.3743632132
 10
366.3995273826
 20
253.2497240789
 10
365.8116832439
 20
253.2431964565
 10
365.259373993
 20
253.3548968317
 10
364.7524556017
 20
253.5828319085
 10
364.2999740405
 20
253.9229341802
 10
363.9100038538
 20
254.3691345136
 10
363.5895040688
 20
254.9134704532
 10
363.3441940116
 20
255.5462283114
 10
363.1784512461
 20
256.256116509
 10
363.0952334558
 20
257.0304670744
 10
363.0960256643
 20
257.8554617035
 10
363.1808137344
 20
258.7163783475
 10
363.3480846211
 20
259.5978539285
 10
363.5948533715
 20
260.484158494
 10
363.9167163913
 20
261.3594759178
 10
364.3079300274
 20
262.2081861399
 10
364.7615130631
 20
263.0151439062
 10
365.2693712985
 20
263.7659490364
 10
365.8224419912
 20
264.4472033949
 10
366.4108555817
 20
265.0467499818
 10
367.0241118154
 20
265.5538898739
 10
367.6512671205
 20
265.9595731478
 10
368.2811298956
 20
266.256560376
 10
368.9024602245
 20
266.4395518142
 10
369.5041704529
 20
266.505281976
 10
370.0755230474
 20
266.452577905
 10
370.6063222074
 20
266.2823801067
 10
371.0870958095
 20
265.9977257648
 10
371.5092644372
 20
265.6036945427
 10
371.8652944814
 20
265.1073179369
 10
372.1488325775
 20
264.5174537998
 10
372.3548189815
 20
263.8446282709
 10
372.4795778611
 20
263.1008479376
 10
372.5208828911
 20
262.2993855776
 10
372.4779969824
 20
261.4545433057
 10
372.351685435
 20
260.5813973523
 10
372.1442022813
 20
259.6955290276
 10
371.8592500633
 20
258.8127466728
  0
LINE
  5
336
330
1F
100
AcDbEntity
  8
0
  6
Continuous
 62
     7
370
    15
100
AcDbLine
 10
386.3698722271
 20
297.8352085747
 30
0.0
 11
387.8473614514
 21
297.1995205697
 31
0.0
  0
LINE
  5
337
330
1F
100
AcDbEntity
  8
0
  6
Continuous
 62
     7
370
    15
100
AcDbLine
 10
344.064892308
 20
224.126620859
 30
0.0
 11
345.5423815323
 21
223.4909328541
 31
0.0
  0
LWPOLYLINE
  5
338
330
1F
100
AcDbEntity
  8
0
  6
Continuous
 62
     7
370
    15
100
AcDbPolyline
 90
       19
 70
   128
 43
0.0
 10
339.6453347603
 20
186.4191063338
 10
339.2091843411
 20
186.3110388744
 10
338.6000555394
 20
186.0618463775
 10
337.9898696475
 20
185.7005526727
 10
337.3905032395
 20
185.234189931
 10
336.8136223009
 20
184.6718353726
 10
336.2704551629
 20
184.0244345895
 10
335.7715739561
 20
183.3045885014
 10
335.3266888356
 20
182.5263080936
 10
334.9444589842
 20
181.704741709
 10
334.6323240714
 20
180.8558802028
 10
334.396359448
 20
179.9962456985
 10
334.2411578971
 20
179.1425700041
 10
334.1697402403
 20
178.3114689458
 10
334.183496541
 20
177.5191189604
 10
334.2821590486
 20
176.780942239
 10
334.4638074096
 20
176.1113065519
 10
334.7249060451
 20
175.5232455961
 10
334.8605493598
 20
175.2981337586
  0
LWPOLYLINE
  5
339
330
1F
100
AcDbEntity
  8
0
  6
Continuous
 62
     7
370
    15
100
AcDbPolyline
 90
       21
 70
   128
 43
0.0
 10
337.1518940683
 20
176.5152060488
 10
336.7670691297
 20
176.6784103086
 10
336.4351346427
 20
176.9520282282
 10
336.1673299874
 20
177.3274452874
 10
335.9717922728
 20
177.7932546286
 10
335.8544628132
 20
178.3353028709
 10
335.818906605
 20
178.9371201526
 10
335.8662040056
 20
179.5804205601
 10
335.9949179074
 20
180.2456577362
 10
336.2011374036
 20
180.9126187859
 10
336.4785966192
 20
181.5610384351
 10
336.8188650963
 20
182.1712147809
 10
337.2116039494
 20
182.7246079239
 10
337.6448800072
 20
183.2044032934
 10
338.105528396
 20
183.5960225498
 10
338.5795525475
 20
183.8875665404
 10
339.0525494777
 20
184.0701768483
 10
339.5101474144
 20
184.1383049519
 10
339.9384424757
 20
184.0898808132
 10
340.3244211329
 20
183.9263757751
 10
340.3371641686
 20
183.9185268804
  0
LINE
  5
33A
330
1F
100
AcDbEntity
  8
0
  6
Continuous
 62
     7
370
    15
100
AcDbLine
 10
373.973537942
 20
300.810429198
 30
0.0
 11
372.4960487177
 21
301.446117203
 31
0.0
  0
ARC
  5
33B
330
1F
100
AcDbEntity
  8
0
  6
Continuous
 62
     7
370
    15
100
AcDbCircle
 10
377.616277318
 20
255.870644438
 30
0.0
 40
9.547187862605291
100
AcDbArc
 50
123.4317369956
 51
161.7644665607
  0
ARC
  5
33C
330
1F
100
AcDbEntity
  8
0
  6
Continuous
 62
     7
370
    15
100
AcDbCircle
 10
376.9571124212
 20
255.4891920422
 30
0.0
 40
9.0583541114612
100
AcDbArc
 50
158.165829686
 51
190.5365680823
  0
LINE
  5
33D
330
1F
100
AcDbEntity
  8
0
  6
Continuous
 62
     7
370
    15
100
AcDbLine
 10
361.6142335462
 20
304.0271573662
 30
0.0
 11
360.1367443219
 21
304.6628453712
 31
0.0
  0
LINE
  5
33E
330
1F
100
AcDbEntity
  8
0
  6
Continuous
 62
     7
370
    15
100
AcDbLine
 10
331.3009724295
 20
235.4027624228
 30
0.0
 11
329.8234832052
 21
236.0384504278
 31
0.0
  0
LINE
  5
33F
330
1F
100
AcDbEntity
  8
0
  6
Continuous
 62
     7
370
    15
100
AcDbLine
 10
354.2248830456
 20
297.7451166178
 30
0.0
 11
352.7473938213
 21
298.3808046228
 31
0.0
  0
LINE
  5
340
330
1F
100
AcDbEntity
  8
0
  6
Continuous
 62
     7
370
    15
100
AcDbLine
 10
338.6424011075
 20
255.3680272768
 30
0.0
 11
337.1649118832
 21
256.0037152817
 31
0.0
  0
LINE
  5
341
330
1F
100
AcDbEntity
  8
0
  6
Continuous
 62
     7
370
    15
100
AcDbLine
 10
345.4059651434
 20
278.4155397688
 30
0.0
 11
346.8834543677
 21
277.7798517639
 31
0.0
  0
LINE
  5
342
330
1F
100
AcDbEntity
  8
0
  6
Continuous
 62
     8
370
    15
100
AcDbLine
 10
399.5195242176
 20
294.2784342813
 30
0.0
 11
398.729176623
 21
294.6184804065
 31
0.0
  0
LWPOLYLINE
  5
343
330
1F
100
AcDbEntity
  8
0
  6
Continuous
 62
     7
370
     0
100
AcDbPolyline
 90
       17
 70
   128
 43
0.0
 10
349.0122349614
 20
151.7485374168
 10
349.489427171
 20
151.5282305622
 10
349.7175343162
 20
151.3873842554
 10
349.661829152
 20
151.3474410698
 10
349.3307922848
 20
151.4144819933
 10
348.7748210766
 20
151.578300653
 10
348.078557104
 20
151.8139571431
 10
347.3480002453
 20
152.085574899
 10
346.6943711595
 20
152.3518025798
 10
346.21717895
 20
152.5721094344
 10
345.9890718048
 20
152.7129557412
 10
346.0447769689
 20
152.7528989268
 10
346.3758138362
 20
152.6858580033
 10
346.9317850444
 20
152.5220393435
 10
347.6280490169
 20
152.2863828535
 10
348.3586058757
 20
152.0147650975
 10
349.0122349614
 20
151.7485374168
  0
LWPOLYLINE
  5
344
330
1F
100
AcDbEntity
  8
0
  6
Continuous
 62
     7
370
     0
100
AcDbPolyline
 90
       17
 70
   128
 43
0.0
 10
315.4032098343
 20
160.4958822809
 10
315.8804020439
 20
160.2755754264
 10
316.1085091891
 20
160.1347291196
 10
316.0528040249
 20
160.094785934
 10
315.7217671577
 20
160.1618268575
 10
315.1657959495
 20
160.3256455172
 10
314.4695319769
 20
160.5613020072
 10
313.7389751182
 20
160.8329197632
 10
313.0853460324
 20
161.099147444
 10
312.6081538229
 20
161.3194542985
 10
312.3800466777
 20
161.4603006053
 10
312.4357518418
 20
161.5002437909
 10
312.7667887091
 20
161.4332028674
 10
313.3227599173
 20
161.2693842077
 10
314.0190238898
 20
161.0337277177
 10
314.7495807486
 20
160.7621099617
 10
315.4032098343
 20
160.4958822809
  0
LWPOLYLINE
  5
345
330
1F
100
AcDbEntity
  8
0
  6
Continuous
 62
     7
370
     0
100
AcDbPolyline
 90
       17
 70
   128
 43
0.0
 10
323.4421003682
 20
158.4036184453
 10
323.9192925778
 20
158.1833115907
 10
324.147399723
 20
158.0424652839
 10
324.0916945589
 20
158.0025220983
 10
323.7606576916
 20
158.0695630218
 10
323.2046864834
 20
158.2333816815
 10
322.5084225108
 20
158.4690381716
 10
321.7778656521
 20
158.7406559275
 10
321.1242365664
 20
159.0068836083
 10
320.6470443568
 20
159.2271904628
 10
320.4189372116
 20
159.3680367696
 10
320.4746423758
 20
159.4079799553
 10
320.805679243
 20
159.3409390318
 10
321.3616504512
 20
159.177120372
 10
322.0579144238
 20
158.941463882
 10
322.7884712825
 20
158.669846126
 10
323.4421003682
 20
158.4036184453
  0
LWPOLYLINE
  5
346
330
1F
100
AcDbEntity
  8
0
  6
Continuous
 62
     7
370
     0
100
AcDbPolyline
 90
       17
 70
   128
 43
0.0
 10
340.8997116549
 20
153.8599654874
 10
341.3769038644
 20
153.6396586329
 10
341.6050110096
 20
153.4988123261
 10
341.5493058455
 20
153.4588691405
 10
341.2182689782
 20
153.525910064
 10
340.66229777
 20
153.6897287237
 10
339.9660337975
 20
153.9253852137
 10
339.2354769387
 20
154.1970029697
 10
338.581847853
 20
154.4632306505
 10
338.1046556435
 20
154.683537505
 10
337.8765484982
 20
154.8243838118
 10
337.9322536624
 20
154.8643269974
 10
338.2632905297
 20
154.7972860739
 10
338.8192617378
 20
154.6334674142
 10
339.5155257104
 20
154.3978109242
 10
340.2460825692
 20
154.1261931682
 10
340.8997116549
 20
153.8599654874
  0
MTEXT
  5
348
330
1F
100
AcDbEntity
  8
0
  6
Continuous
 62
     7
100
AcDbMText
 10
0.0
 20
20.2653661972
 30
0.0
 40
7.266
 41
0.0
 71
     1
 72
     1
  1
Produit d'éducation SOLIDWORKS – A titre éducatif uniquement.
  7
SLDTEXTSTYLE1
 73
     1
 44
1.0
  0
ENDSEC
  0
SECTION
  2
OBJECTS
  0
DICTIONARY
  5
C
330
0
100
AcDbDictionary
281
     1
  3
ACAD_GROUP
350
D
  3
ACAD_LAYOUT
350
1A
  3
ACAD_MLINESTYLE
350
17
  3
ACAD_PLOTSETTINGS
350
19
  3
ACAD_PLOTSTYLENAME
350
E
  3
ACAD_SCALELIST
350
47
  0
DICTIONARY
  5
D
102
{ACAD_REACTORS
330
C
102
}
330
C
100
AcDbDictionary
281
     1
  0
DICTIONARY
  5
1A
102
{ACAD_REACTORS
330
C
102
}
330
C
100
AcDbDictionary
281
     1
  3
Layout1
350
1E
  3
Layout2
350
26
  3
Model
350
22
  0
DICTIONARY
  5
17
102
{ACAD_REACTORS
330
C
102
}
330
C
100
AcDbDictionary
281
     1
  3
Standard
350
18
  0
DICTIONARY
  5
19
102
{ACAD_REACTORS
330
C
102
}
330
C
100
AcDbDictionary
281
     1
  0
ACDBDICTIONARYWDFLT
  5
E
102
{ACAD_REACTORS
330
C
102
}
330
C
100
AcDbDictionary
281
     1
  3
Normal
350
F
100
AcDbDictionaryWithDefault
340
F
  0
DICTIONARY
  5
47
102
{ACAD_REACTORS
330
C
102
}
330
C
100
AcDbDictionary
281
     1
  3
A0
350
48
  3
A1
350
49
  3
A2
350
4A
  3
A3
350
4B
  3
A4
350
4C
  3
A5
350
4D
  3
A6
350
4E
  3
A7
350
4F
  3
A8
350
50
  3
A9
350
51
  3
B0
350
52
  3
B1
350
53
  3
B2
350
54
  3
B3
350
55
  3
B4
350
56
  3
B5
350
57
  3
B6
350
58
  3
B7
350
59
  3
B8
350
5A
  3
B9
350
5B
  3
C0
350
5C
  3
C1
350
5D
  3
C2
350
5E
  3
C3
350
5F
  3
C4
350
60
  3
C5
350
61
  3
C6
350
62
  3
C7
350
63
  3
C8
350
64
  3
C9
350
65
  3
D0
350
66
  3
D1
350
67
  3
D2
350
68
  0
LAYOUT
  5
1E
102
{ACAD_REACTORS
330
1A
102
}
330
1A
100
AcDbPlotSettings
  1

  2
none_device
  4

  6

 40
0.0
 41
0.0
 42
0.0
 43
0.0
 44
0.0
 45
0.0
 46
0.0
 47
0.0
 48
0.0
 49
0.0
140
0.0
141
0.0
142
1.0
143
1.0
 70
   688
 72
     1
 73
     0
 74
     5
  7

 75
    16
147
1.0
148
0.0
149
0.0
100
AcDbLayout
  1
Layout1
 70
     1
 71
     1
 10
0.0
 20
0.0
 11
420.0
 21
297.0
 12
0.0
 22
0.0
 32
0.0
 14
1.0000000000E+20
 24
1.0000000000E+20
 34
1.0000000000E+20
 15
-1.0000000000E+20
 25
-1.0000000000E+20
 35
-1.0000000000E+20
146
0.0
 13
0.0
 23
0.0
 33
0.0
 16
1.0
 26
0.0
 36
0.0
 17
0.0
 27
1.0
 37
0.0
 76
     0
330
1B
  0
LAYOUT
  5
26
102
{ACAD_REACTORS
330
1A
102
}
330
1A
100
AcDbPlotSettings
  1

  2
none_device
  4

  6

 40
0.0
 41
0.0
 42
0.0
 43
0.0
 44
0.0
 45
0.0
 46
0.0
 47
0.0
 48
0.0
 49
0.0
140
0.0
141
0.0
142
1.0
143
1.0
 70
   688
 72
     1
 73
     0
 74
     5
  7

 75
    16
147
1.0
148
0.0
149
0.0
100
AcDbLayout
  1
Layout2
 70
     1
 71
     2
 10
0.0
 20
0.0
 11
0.0
 21
0.0
 12
0.0
 22
0.0
 32
0.0
 14
0.0
 24
0.0
 34
0.0
 15
0.0
 25
0.0
 35
0.0
146
0.0
 13
0.0
 23
0.0
 33
0.0
 16
1.0
 26
0.0
 36
0.0
 17
0.0
 27
1.0
 37
0.0
 76
     0
330
23
  0
LAYOUT
  5
22
102
{ACAD_REACTORS
330
1A
102
}
330
1A
100
AcDbPlotSettings
  1

  2
none_device
  4
Letter_(8.50_x_11.00_Inches)
  6

 40
6.35
 41
6.35
 42
6.35000508
 43
6.35000508
 44
215.9
 45
279.4
 46
0.0
 47
0.0
 48
0.0
 49
0.0
140
0.0
141
0.0
142
1.0
143
1.0
 70
  1712
 72
     1
 73
     0
 74
     0
  7

 75
     0
147
1.0
148
0.0
149
0.0
100
AcDbLayout
  1
Model
 70
     1
 71
     0
 10
0.0
 20
0.0
 11
594.0
 21
420.0
 12
0.0
 22
0.0
 32
0.0
 14
0.0
 24
0.0
 34
0.0
 15
594.0
 25
420.0
 35
0.0
146
0.0
 13
0.0
 23
0.0
 33
0.0
 16
1.0
 26
0.0
 36
0.0
 17
0.0
 27
1.0
 37
0.0
 76
     0
330
1F
331
29
  0
MLINESTYLE
  5
18
102
{ACAD_REACTORS
330
17
102
}
330
17
100
AcDbMlineStyle
  2
Standard
 70
     0
  3

 62
   256
 51
90.0
 52
90.0
 71
     2
 49
0.5
 62
   256
  6
BYLAYER
 49
-0.5
 62
   256
  6
BYLAYER
  0
ACDBPLACEHOLDER
  5
F
102
{ACAD_REACTORS
330
E
102
}
330
E
  0
SCALE
  5
48
102
{ACAD_REACTORS
330
47
102
}
330
47
100
AcDbScale
 70
     0
300
1:1
140
1.0
141
1.0
290
     1
  0
SCALE
  5
49
102
{ACAD_REACTORS
330
47
102
}
330
47
100
AcDbScale
 70
     0
300
1:2
140
1.0
141
2.0
290
     0
  0
SCALE
  5
4A
102
{ACAD_REACTORS
330
47
102
}
330
47
100
AcDbScale
 70
     0
300
1:4
140
1.0
141
4.0
290
     0
  0
SCALE
  5
4B
102
{ACAD_REACTORS
330
47
102
}
330
47
100
AcDbScale
 70
     0
300
1:5
140
1.0
141
5.0
290
     0
  0
SCALE
  5
4C
102
{ACAD_REACTORS
330
47
102
}
330
47
100
AcDbScale
 70
     0
300
1:8
140
1.0
141
8.0
290
     0
  0
SCALE
  5
4D
102
{ACAD_REACTORS
330
47
102
}
330
47
100
AcDbScale
 70
     0
300
1:10
140
1.0
141
10.0
290
     0
  0
SCALE
  5
4E
102
{ACAD_REACTORS
330
47
102
}
330
47
100
AcDbScale
 70
     0
300
1:16
140
1.0
141
16.0
290
     0
  0
SCALE
  5
4F
102
{ACAD_REACTORS
330
47
102
}
330
47
100
AcDbScale
 70
     0
300
1:20
140
1.0
141
20.0
290
     0
  0
SCALE
  5
50
102
{ACAD_REACTORS
330
47
102
}
330
47
100
AcDbScale
 70
     0
300
1:30
140
1.0
141
30.0
290
     0
  0
SCALE
  5
51
102
{ACAD_REACTORS
330
47
102
}
330
47
100
AcDbScale
 70
     0
300
1:40
140
1.0
141
40.0
290
     0
  0
SCALE
  5
52
102
{ACAD_REACTORS
330
47
102
}
330
47
100
AcDbScale
 70
     0
300
1:50
140
1.0
141
50.0
290
     0
  0
SCALE
  5
53
102
{ACAD_REACTORS
330
47
102
}
330
47
100
AcDbScale
 70
     0
300
1:100
140
1.0
141
100.0
290
     0
  0
SCALE
  5
54
102
{ACAD_REACTORS
330
47
102
}
330
47
100
AcDbScale
 70
     0
300
2:1
140
2.0
141
1.0
290
     0
  0
SCALE
  5
55
102
{ACAD_REACTORS
330
47
102
}
330
47
100
AcDbScale
 70
     0
300
4:1
140
4.0
141
1.0
290
     0
  0
SCALE
  5
56
102
{ACAD_REACTORS
330
47
102
}
330
47
100
AcDbScale
 70
     0
300
8:1
140
8.0
141
1.0
290
     0
  0
SCALE
  5
57
102
{ACAD_REACTORS
330
47
102
}
330
47
100
AcDbScale
 70
     0
300
10:1
140
10.0
141
1.0
290
     0
  0
SCALE
  5
58
102
{ACAD_REACTORS
330
47
102
}
330
47
100
AcDbScale
 70
     0
300
100:1
140
100.0
141
1.0
290
     0
  0
SCALE
  5
59
102
{ACAD_REACTORS
330
47
102
}
330
47
100
AcDbScale
 70
     0
300
1/128" = 1'-0"
140
0.0078125
141
12.0
290
     0
  0
SCALE
  5
5A
102
{ACAD_REACTORS
330
47
102
}
330
47
100
AcDbScale
 70
     0
300
1/64" = 1'-0"
140
0.015625
141
12.0
290
     0
  0
SCALE
  5
5B
102
{ACAD_REACTORS
330
47
102
}
330
47
100
AcDbScale
 70
     0
300
1/32" = 1'-0"
140
0.03125
141
12.0
290
     0
  0
SCALE
  5
5C
102
{ACAD_REACTORS
330
47
102
}
330
47
100
AcDbScale
 70
     0
300
1/16" = 1'-0"
140
0.0625
141
12.0
290
     0
  0
SCALE
  5
5D
102
{ACAD_REACTORS
330
47
102
}
330
47
100
AcDbScale
 70
     0
300
3/32" = 1'-0"
140
0.09375
141
12.0
290
     0
  0
SCALE
  5
5E
102
{ACAD_REACTORS
330
47
102
}
330
47
100
AcDbScale
 70
     0
300
1/8" = 1'-0"
140
0.125
141
12.0
290
     0
  0
SCALE
  5
5F
102
{ACAD_REACTORS
330
47
102
}
330
47
100
AcDbScale
 70
     0
300
3/16" = 1'-0"
140
0.1875
141
12.0
290
     0
  0
SCALE
  5
60
102
{ACAD_REACTORS
330
47
102
}
330
47
100
AcDbScale
 70
     0
300
1/4" = 1'-0"
140
0.25
141
12.0
290
     0
  0
SCALE
  5
61
102
{ACAD_REACTORS
330
47
102
}
330
47
100
AcDbScale
 70
     0
300
3/8" = 1'-0"
140
0.375
141
12.0
290
     0
  0
SCALE
  5
62
102
{ACAD_REACTORS
330
47
102
}
330
47
100
AcDbScale
 70
     0
300
1/2" = 1'-0"
140
0.5
141
12.0
290
     0
  0
SCALE
  5
63
102
{ACAD_REACTORS
330
47
102
}
330
47
100
AcDbScale
 70
     0
300
3/4" = 1'-0"
140
0.75
141
12.0
290
     0
  0
SCALE
  5
64
102
{ACAD_REACTORS
330
47
102
}
330
47
100
AcDbScale
 70
     0
300
1" = 1'-0"
140
1.0
141
12.0
290
     0
  0
SCALE
  5
65
102
{ACAD_REACTORS
330
47
102
}
330
47
100
AcDbScale
 70
     0
300
1-1/2" = 1'-0"
140
1.5
141
12.0
290
     0
  0
SCALE
  5
66
102
{ACAD_REACTORS
330
47
102
}
330
47
100
AcDbScale
 70
     0
300
3" = 1'-0"
140
3.0
141
12.0
290
     0
  0
SCALE
  5
67
102
{ACAD_REACTORS
330
47
102
}
330
47
100
AcDbScale
 70
     0
300
6" = 1'-0"
140
6.0
141
12.0
290
     0
  0
SCALE
  5
68
102
{ACAD_REACTORS
330
47
102
}
330
47
100
AcDbScale
 70
     0
300
1'-0" = 1'-0"
140
12.0
141
12.0
290
     0
  0
ENDSEC
  0
EOF
