  0
SECTION
  2
HEADER
  9
$ACADVER
  1
AC1021
  9
$ACADMAINTVER
 70
    25
  9
$DWGCODEPAGE
  3
ANSI_1252
  9
$INSBASE
 10
0.0
 20
0.0
 30
0.0
  9
$EXTMIN
 10
-77.50000000000001
 20
-32.41737089201878
 30
-0.0000000000000004
  9
$EXTMAX
 10
424.7499999999999
 20
271.3760403682953
 30
5.0
  9
$LIMMIN
 10
0.0
 20
0.0
  9
$LIMMAX
 10
12.0
 20
9.0
  9
$ORTHOMODE
 70
     0
  9
$REGENMODE
 70
     1
  9
$FILLMODE
 70
     1
  9
$QTEXTMODE
 70
     0
  9
$MIRRTEXT
 70
     1
  9
$LTSCALE
 40
1.0
  9
$ATTMODE
 70
     1
  9
$TEXTSIZE
 40
0.2
  9
$TRACEWID
 40
0.05
  9
$TEXTSTYLE
  7
Standard
  9
$CLAYER
  8
0
  9
$CELTYPE
  6
ByLayer
  9
$CECOLOR
 62
   256
  9
$CELTSCALE
 40
1.0
  9
$DISPSILH
 70
     0
  9
$DIMSCALE
 40
1.0
  9
$DIMASZ
 40
2.5
  9
$DIMEXO
 40
0.0625
  9
$DIMDLI
 40
0.38
  9
$DIMRND
 40
0.0
  9
$DIMDLE
 40
0.0
  9
$DIMEXE
 40
1.25
  9
$DIMTP
 40
0.0
  9
$DIMTM
 40
0.0
  9
$DIMTXT
 40
2.5
  9
$DIMCEN
 40
0.09
  9
$DIMTSZ
 40
0.0
  9
$DIMTOL
 70
     0
  9
$DIMLIM
 70
     0
  9
$DIMTIH
 70
     1
  9
$DIMTOH
 70
     1
  9
$DIMSE1
 70
     0
  9
$DIMSE2
 70
     0
  9
$DIMTAD
 70
     1
  9
$DIMZIN
 70
     0
  9
$DIMBLK
  1

  9
$DIMASO
 70
     1
  9
$DIMSHO
 70
     1
  9
$DIMPOST
  1

  9
$DIMAPOST
  1

  9
$DIMALT
 70
     0
  9
$DIMALTD
 70
     2
  9
$DIMALTF
 40
25.4
  9
$DIMLFAC
 40
1.0
  9
$DIMTOFL
 70
     0
  9
$DIMTVP
 40
0.0
  9
$DIMTIX
 70
     0
  9
$DIMSOXD
 70
     0
  9
$DIMSAH
 70
     0
  9
$DIMBLK1
  1

  9
$DIMBLK2
  1

  9
$DIMSTYLE
  2
Standard
  9
$DIMCLRD
 70
     0
  9
$DIMCLRE
 70
     0
  9
$DIMCLRT
 70
     0
  9
$DIMTFAC
 40
1.0
  9
$DIMGAP
 40
1.25
  9
$DIMJUST
 70
     0
  9
$DIMSD1
 70
     0
  9
$DIMSD2
 70
     0
  9
$DIMTOLJ
 70
     1
  9
$DIMTZIN
 70
     0
  9
$DIMALTZ
 70
     0
  9
$DIMALTTZ
 70
     0
  9
$DIMUPT
 70
     0
  9
$DIMDEC
 70
     2
  9
$DIMTDEC
 70
     4
  9
$DIMALTU
 70
     2
  9
$DIMALTTD
 70
     2
  9
$DIMTXSTY
  7
COMIC SANS MS
  9
$DIMAUNIT
 70
     0
  9
$DIMADEC
 70
     2
  9
$DIMALTRND
 40
0.0
  9
$DIMAZIN
 70
     0
  9
$DIMDSEP
 70
    46
  9
$DIMATFIT
 70
     3
  9
$DIMFRAC
 70
     0
  9
$DIMLDRBLK
  1

  9
$DIMLUNIT
 70
     2
  9
$DIMLWD
 70
    -2
  9
$DIMLWE
 70
    -2
  9
$DIMTMOVE
 70
     0
  9
$DIMFXL
 40
1.0
  9
$DIMFXLON
 70
     0
  9
$DIMJOGANG
 40
0.7853981633974483
  9
$DIMTFILL
 70
     0
  9
$DIMTFILLCLR
 70
     0
  9
$DIMARCSYM
 70
     0
  9
$DIMLTYPE
  6

  9
$DIMLTEX1
  6

  9
$DIMLTEX2
  6

  9
$LUNITS
 70
     2
  9
$LUPREC
 70
     4
  9
$SKETCHINC
 40
0.1
  9
$FILLETRAD
 40
0.5
  9
$AUNITS
 70
     0
  9
$AUPREC
 70
     0
  9
$MENU
  1
.
  9
$ELEVATION
 40
0.0
  9
$PELEVATION
 40
0.0
  9
$THICKNESS
 40
0.0
  9
$LIMCHECK
 70
     0
  9
$CHAMFERA
 40
0.0
  9
$CHAMFERB
 40
0.0
  9
$CHAMFERC
 40
0.0
  9
$CHAMFERD
 40
0.0
  9
$SKPOLY
 70
     0
  9
$TDCREATE
 40
2458025.53098897
  9
$TDUCREATE
 40
2458025.447655636
  9
$TDUPDATE
 40
2458025.530990474
  9
$TDUUPDATE
 40
2458025.447657141
  9
$TDINDWG
 40
0.0000000116
  9
$TDUSRTIMER
 40
0.0000000116
  9
$USRTIMER
 70
     1
  9
$ANGBASE
 50
0.0
  9
$ANGDIR
 70
     0
  9
$PDMODE
 70
     0
  9
$PDSIZE
 40
0.0
  9
$PLINEWID
 40
0.0
  9
$SPLFRAME
 70
     0
  9
$SPLINETYPE
 70
     6
  9
$SPLINESEGS
 70
     8
  9
$HANDSEED
  5
37D
  9
$SURFTAB1
 70
     6
  9
$SURFTAB2
 70
     6
  9
$SURFTYPE
 70
     6
  9
$SURFU
 70
     6
  9
$SURFV
 70
     6
  9
$UCSBASE
  2

  9
$UCSNAME
  2

  9
$UCSORG
 10
0.0
 20
0.0
 30
0.0
  9
$UCSXDIR
 10
1.0
 20
0.0
 30
0.0
  9
$UCSYDIR
 10
0.0
 20
1.0
 30
0.0
  9
$UCSORTHOREF
  2

  9
$UCSORTHOVIEW
 70
     0
  9
$UCSORGTOP
 10
0.0
 20
0.0
 30
0.0
  9
$UCSORGBOTTOM
 10
0.0
 20
0.0
 30
0.0
  9
$UCSORGLEFT
 10
0.0
 20
0.0
 30
0.0
  9
$UCSORGRIGHT
 10
0.0
 20
0.0
 30
0.0
  9
$UCSORGFRONT
 10
0.0
 20
0.0
 30
0.0
  9
$UCSORGBACK
 10
0.0
 20
0.0
 30
0.0
  9
$PUCSBASE
  2

  9
$PUCSNAME
  2

  9
$PUCSORG
 10
0.0
 20
0.0
 30
0.0
  9
$PUCSXDIR
 10
1.0
 20
0.0
 30
0.0
  9
$PUCSYDIR
 10
0.0
 20
1.0
 30
0.0
  9
$PUCSORTHOREF
  2

  9
$PUCSORTHOVIEW
 70
     0
  9
$PUCSORGTOP
 10
0.0
 20
0.0
 30
0.0
  9
$PUCSORGBOTTOM
 10
0.0
 20
0.0
 30
0.0
  9
$PUCSORGLEFT
 10
0.0
 20
0.0
 30
0.0
  9
$PUCSORGRIGHT
 10
0.0
 20
0.0
 30
0.0
  9
$PUCSORGFRONT
 10
0.0
 20
0.0
 30
0.0
  9
$PUCSORGBACK
 10
0.0
 20
0.0
 30
0.0
  9
$USERI1
 70
     0
  9
$USERI2
 70
     0
  9
$USERI3
 70
     0
  9
$USERI4
 70
     0
  9
$USERI5
 70
     0
  9
$USERR1
 40
0.0
  9
$USERR2
 40
0.0
  9
$USERR3
 40
0.0
  9
$USERR4
 40
0.0
  9
$USERR5
 40
0.0
  9
$WORLDVIEW
 70
     1
  9
$SHADEDGE
 70
     3
  9
$SHADEDIF
 70
    70
  9
$TILEMODE
 70
     1
  9
$MAXACTVP
 70
    64
  9
$PINSBASE
 10
0.0
 20
0.0
 30
0.0
  9
$PLIMCHECK
 70
     0
  9
$PEXTMIN
 10
1.000000000000000E+20
 20
1.000000000000000E+20
 30
1.000000000000000E+20
  9
$PEXTMAX
 10
-1.000000000000000E+20
 20
-1.000000000000000E+20
 30
-1.000000000000000E+20
  9
$PLIMMIN
 10
0.0
 20
0.0
  9
$PLIMMAX
 10
12.0
 20
9.0
  9
$UNITMODE
 70
     0
  9
$VISRETAIN
 70
     1
  9
$PLINEGEN
 70
     0
  9
$PSLTSCALE
 70
     1
  9
$TREEDEPTH
 70
  3020
  9
$CMLSTYLE
  2
Standard
  9
$CMLJUST
 70
     0
  9
$CMLSCALE
 40
1.0
  9
$PROXYGRAPHICS
 70
     1
  9
$MEASUREMENT
 70
     1
  9
$CELWEIGHT
370
    -1
  9
$ENDCAPS
280
     0
  9
$JOINSTYLE
280
     0
  9
$LWDISPLAY
290
     1
  9
$INSUNITS
 70
     4
  9
$HYPERLINKBASE
  1

  9
$STYLESHEET
  1

  9
$XEDIT
290
     1
  9
$CEPSNTYPE
380
     0
  9
$PSTYLEMODE
290
     1
  9
$FINGERPRINTGUID
  2
{7B0E5A54-57D7-461D-829E-114ECEDD878C}
  9
$VERSIONGUID
  2
{FAEB1C32-E019-11D5-929B-00C0DF256EC4}
  9
$EXTNAMES
290
     1
  9
$PSVPSCALE
 40
0.0
  9
$OLESTARTUP
290
     0
  9
$SORTENTS
280
   127
  9
$INDEXCTL
280
     0
  9
$HIDETEXT
280
     1
  9
$XCLIPFRAME
290
     0
  9
$HALOGAP
280
     0
  9
$OBSCOLOR
 70
   257
  9
$OBSLTYPE
280
     0
  9
$INTERSECTIONDISPLAY
280
     0
  9
$INTERSECTIONCOLOR
 70
   257
  9
$DIMASSOC
280
     2
  9
$PROJECTNAME
  1

  9
$CAMERADISPLAY
290
     0
  9
$LENSLENGTH
 40
50.0
  9
$CAMERAHEIGHT
 40
0.0
  9
$STEPSPERSEC
 40
2.0
  9
$STEPSIZE
 40
6.0
  9
$3DDWFPREC
 40
2.0
  9
$PSOLWIDTH
 40
0.25
  9
$PSOLHEIGHT
 40
4.0
  9
$LOFTANG1
 40
1.570796326794897
  9
$LOFTANG2
 40
1.570796326794897
  9
$LOFTMAG1
 40
0.0
  9
$LOFTMAG2
 40
0.0
  9
$LOFTPARAM
 70
     7
  9
$LOFTNORMALS
280
     1
  9
$LATITUDE
 40
37.795
  9
$LONGITUDE
 40
-122.394
  9
$NORTHDIRECTION
 40
0.0
  9
$TIMEZONE
 70
 -8000
  9
$LIGHTGLYPHDISPLAY
280
     1
  9
$TILEMODELIGHTSYNCH
280
     1
  9
$CMATERIAL
347
44
  9
$SOLIDHIST
280
     0
  9
$SHOWHIST
280
     1
  9
$DWFFRAME
280
     2
  9
$DGNFRAME
280
     2
  9
$REALWORLDSCALE
290
     1
  9
$INTERFERECOLOR
 62
   256
  9
$CSHADOW
280
     0
  9
$SHADOWPLANELOCATION
 40
0.0
  0
ENDSEC
  0
SECTION
  2
CLASSES
  0
CLASS
  1
ACDBDICTIONARYWDFLT
  2
AcDbDictionaryWithDefault
  3
ObjectDBX Classes
 90
        0
 91
        3
280
     0
281
     0
  0
CLASS
  1
VISUALSTYLE
  2
AcDbVisualStyle
  3
ObjectDBX Classes
 90
     4095
 91
        3
280
     0
281
     0
  0
CLASS
  1
MATERIAL
  2
AcDbMaterial
  3
ObjectDBX Classes
 90
     1153
 91
        3
280
     0
281
     0
  0
CLASS
  1
SCALE
  2
AcDbScale
  3
ObjectDBX Classes
 90
     1153
 91
        3
280
     0
281
     0
  0
CLASS
  1
TABLESTYLE
  2
AcDbTableStyle
  3
ObjectDBX Classes
 90
     4095
 91
        3
280
     0
281
     0
  0
CLASS
  1
MLEADERSTYLE
  2
AcDbMLeaderStyle
  3
ACDB_MLEADERSTYLE_CLASS
 90
     4095
 91
        3
280
     0
281
     0
  0
CLASS
  1
SUN
  2
AcDbSun
  3
SCENEOE
 90
     1153
 91
        3
280
     0
281
     0
  0
CLASS
  1
DICTIONARYVAR
  2
AcDbDictionaryVar
  3
ObjectDBX Classes
 90
        0
 91
        3
280
     0
281
     0
  0
CLASS
  1
CELLSTYLEMAP
  2
AcDbCellStyleMap
  3
ObjectDBX Classes
 90
     1152
 91
        3
280
     0
281
     0
  0
ENDSEC
  0
SECTION
  2
TABLES
  0
TABLE
  2
VPORT
  5
8
330
0
100
AcDbSymbolTable
 70
     1
  0
VPORT
  5
29
330
8
100
AcDbSymbolTableRecord
100
AcDbViewportTableRecord
  2
*Active
 70
     0
 10
0.0
 20
0.0
 11
1.0
 21
1.0
 12
173.625
 22
119.4793347381382
 13
0.0
 23
0.0
 14
0.5
 24
0.5
 15
0.5
 25
0.5
 16
0.0
 26
0.0
 36
1.0
 17
0.0
 27
0.0
 37
0.0
 40
303.793411260314
 41
1.6
 42
50.0
 43
0.0
 44
0.0
 50
0.0
 51
0.0
 71
     0
 72
   100
 73
     1
 74
     3
 75
     0
 76
     0
 77
     0
 78
     0
281
     0
 65
     1
110
0.0
120
0.0
130
0.0
111
1.0
121
0.0
131
0.0
112
0.0
122
1.0
132
0.0
 79
     0
146
0.0
348
2F
 60
     3
 61
     5
292
     1
282
     1
141
0.0
142
0.0
 63
   250
361
6D
  0
ENDTAB
  0
TABLE
  2
LTYPE
  5
5
330
0
100
AcDbSymbolTable
 70
     4
  0
LTYPE
  5
14
330
5
100
AcDbSymbolTableRecord
100
AcDbLinetypeTableRecord
  2
ByBlock
 70
     0
  3

 72
    65
 73
     0
 40
0.0
  0
LTYPE
  5
15
330
5
100
AcDbSymbolTableRecord
100
AcDbLinetypeTableRecord
  2
ByLayer
 70
     0
  3

 72
    65
 73
     0
 40
0.0
  0
LTYPE
  5
16
330
5
100
AcDbSymbolTableRecord
100
AcDbLinetypeTableRecord
  2
Continuous
 70
     0
  3
Solid line
 72
    65
 73
     0
 40
0.0
  0
LTYPE
  5
71
330
5
100
AcDbSymbolTableRecord
100
AcDbLinetypeTableRecord
  2
______....__....
 70
     0
  3

 72
    65
 73
     4
 40
7.2
 49
2.7
 74
     0
 49
-1.8
 74
     0
 49
0.8999999999999999
 74
     0
 49
-1.8
 74
     0
  0
LTYPE
  5
73
330
5
100
AcDbSymbolTableRecord
100
AcDbLinetypeTableRecord
  2
________________
 70
     0
  3

 72
    65
 73
     0
 40
0.0
  0
LTYPE
  5
29C
330
5
100
AcDbSymbolTableRecord
100
AcDbLinetypeTableRecord
  2
_..__..__..__.._
 70
     0
  3

 72
    65
 73
     2
 40
1.8
 49
0.8999999999999999
 74
     0
 49
-0.8999999999999999
 74
     0
  0
ENDTAB
  0
TABLE
  2
LAYER
  5
2
330
0
100
AcDbSymbolTable
 70
     3
  0
LAYER
  5
10
330
2
100
AcDbSymbolTableRecord
100
AcDbLayerTableRecord
  2
0
 70
     0
 62
     7
  6
Continuous
370
    -3
390
F
347
46
  0
LAYER
  5
6E
330
2
100
AcDbSymbolTableRecord
100
AcDbLayerTableRecord
  2
Cartouche
 70
     0
 62
     7
  6
Continuous
370
    -3
390
F
347
46
  0
LAYER
  5
E0
330
2
100
AcDbSymbolTableRecord
100
AcDbLayerTableRecord
  2
Defpoints
 70
     0
 62
     7
  6
Continuous
290
     0
370
    -3
390
F
347
46
  0
ENDTAB
  0
TABLE
  2
STYLE
  5
3
330
0
100
AcDbSymbolTable
 70
     2
  0
STYLE
  5
11
330
3
100
AcDbSymbolTableRecord
100
AcDbTextStyleTableRecord
  2
Standard
 70
     0
 40
0.0
 41
1.0
 50
0.0
 71
     0
 42
0.2
  3
txt
  4

  0
STYLE
  5
6F
330
3
100
AcDbSymbolTableRecord
100
AcDbTextStyleTableRecord
  2
COMIC SANS MS
 70
     0
 40
0.0
 41
1.0
 50
0.0
 71
     0
 42
0.2
  3
comic.ttf
  4

1001
ACAD
1000
Comic Sans MS
1071
      256
  0
ENDTAB
  0
TABLE
  2
VIEW
  5
6
330
0
100
AcDbSymbolTable
 70
     0
  0
ENDTAB
  0
TABLE
  2
UCS
  5
7
330
0
100
AcDbSymbolTable
 70
     0
  0
ENDTAB
  0
TABLE
  2
APPID
  5
9
330
0
100
AcDbSymbolTable
 70
     2
  0
APPID
  5
12
330
9
100
AcDbSymbolTableRecord
100
AcDbRegAppTableRecord
  2
ACAD
 70
     0
  0
APPID
  5
375
330
9
100
AcDbSymbolTableRecord
100
AcDbRegAppTableRecord
  2
ACAD_MLEADERVER
 70
     0
  0
ENDTAB
  0
TABLE
  2
DIMSTYLE
  5
A
330
0
100
AcDbSymbolTable
 70
     1
100
AcDbDimStyleTable
  0
DIMSTYLE
105
27
102
{ACAD_REACTORS
330
E1
330
117
330
122
330
14F
330
15A
330
167
330
174
330
181
330
18E
330
19B
330
1A8
330
1B5
330
1C2
330
1CF
330
1DC
330
1E9
330
1F6
330
203
330
2A9
330
2B5
330
2C2
330
2CF
330
2DC
330
2E9
330
2F6
330
303
330
310
330
31D
330
328
330
333
102
}
330
A
100
AcDbSymbolTableRecord
100
AcDbDimStyleTableRecord
  2
Standard
 70
     0
178
     0
340
11
  0
ENDTAB
  0
TABLE
  2
BLOCK_RECORD
  5
1
330
0
100
AcDbSymbolTable
 70
    40
  0
BLOCK_RECORD
  5
1F
330
1
100
AcDbSymbolTableRecord
100
AcDbBlockTableRecord
  2
*Model_Space
340
22
 70
     0
280
     1
281
     0
  0
BLOCK_RECORD
  5
1B
330
1
100
AcDbSymbolTableRecord
100
AcDbBlockTableRecord
  2
*Paper_Space
340
1E
 70
     0
280
     1
281
     0
  0
BLOCK_RECORD
  5
23
330
1
100
AcDbSymbolTableRecord
100
AcDbBlockTableRecord
  2
*Paper_Space0
340
26
 70
     0
280
     1
281
     0
  0
BLOCK_RECORD
  5
9B
330
1
100
AcDbSymbolTableRecord
100
AcDbBlockTableRecord
  2
D_FRAME_DRAWING@20
340
0
102
{BLKREFS
331
9C
102
}
 70
     0
280
     1
281
     0
  0
BLOCK_RECORD
  5
DB
330
1
100
AcDbSymbolTableRecord
100
AcDbBlockTableRecord
  2
_Dot
340
0
102
{BLKREFS
331
E8
331
11D
331
129
331
155
331
162
331
161
331
16F
331
16E
331
17C
331
17B
331
189
331
188
331
196
331
195
331
1A3
331
1A2
331
1B0
331
1AF
331
1BD
331
1BC
331
1CA
331
1C9
331
1D7
331
1D6
331
1E4
331
1E3
331
1F1
331
1F0
331
1FE
331
1FD
331
20B
331
20A
331
2B0
331
2BD
331
2BC
331
2CA
331
2C9
331
2D7
331
2D6
331
2E4
331
2E3
331
2F1
331
2F0
331
2FE
331
2FD
331
30B
331
30A
331
318
331
317
331
323
331
32E
331
339
102
}
 70
     0
280
     1
281
     0
  0
BLOCK_RECORD
  5
E2
330
1
100
AcDbSymbolTableRecord
100
AcDbBlockTableRecord
  2
*D3
340
0
 70
     0
280
     1
281
     0
  0
BLOCK_RECORD
  5
ED
330
1
100
AcDbSymbolTableRecord
100
AcDbBlockTableRecord
  2
D_FRAME_VIEW@231
340
0
102
{BLKREFS
331
10E
102
}
 70
     0
280
     1
281
     0
  0
BLOCK_RECORD
  5
10F
330
1
100
AcDbSymbolTableRecord
100
AcDbBlockTableRecord
  2
D_FRAME_VIEW@233
340
0
102
{BLKREFS
331
116
102
}
 70
     0
280
     1
281
     0
  0
BLOCK_RECORD
  5
118
330
1
100
AcDbSymbolTableRecord
100
AcDbBlockTableRecord
  2
*D6
340
0
 70
     0
280
     1
281
     0
  0
BLOCK_RECORD
  5
123
330
1
100
AcDbSymbolTableRecord
100
AcDbBlockTableRecord
  2
*D7
340
0
 70
     0
280
     1
281
     0
  0
BLOCK_RECORD
  5
12E
330
1
100
AcDbSymbolTableRecord
100
AcDbBlockTableRecord
  2
D_FRAME_VIEW@226
340
0
102
{BLKREFS
331
14E
102
}
 70
     0
280
     1
281
     0
  0
BLOCK_RECORD
  5
150
330
1
100
AcDbSymbolTableRecord
100
AcDbBlockTableRecord
  2
*D9
340
0
 70
     0
280
     1
281
     0
  0
BLOCK_RECORD
  5
15B
330
1
100
AcDbSymbolTableRecord
100
AcDbBlockTableRecord
  2
*D10
340
0
 70
     0
280
     1
281
     0
  0
BLOCK_RECORD
  5
168
330
1
100
AcDbSymbolTableRecord
100
AcDbBlockTableRecord
  2
*D11
340
0
 70
     0
280
     1
281
     0
  0
BLOCK_RECORD
  5
175
330
1
100
AcDbSymbolTableRecord
100
AcDbBlockTableRecord
  2
*D12
340
0
 70
     0
280
     1
281
     0
  0
BLOCK_RECORD
  5
182
330
1
100
AcDbSymbolTableRecord
100
AcDbBlockTableRecord
  2
*D13
340
0
 70
     0
280
     1
281
     0
  0
BLOCK_RECORD
  5
18F
330
1
100
AcDbSymbolTableRecord
100
AcDbBlockTableRecord
  2
*D14
340
0
 70
     0
280
     1
281
     0
  0
BLOCK_RECORD
  5
19C
330
1
100
AcDbSymbolTableRecord
100
AcDbBlockTableRecord
  2
*D15
340
0
 70
     0
280
     1
281
     0
  0
BLOCK_RECORD
  5
1A9
330
1
100
AcDbSymbolTableRecord
100
AcDbBlockTableRecord
  2
*D16
340
0
 70
     0
280
     1
281
     0
  0
BLOCK_RECORD
  5
1B6
330
1
100
AcDbSymbolTableRecord
100
AcDbBlockTableRecord
  2
*D17
340
0
 70
     0
280
     1
281
     0
  0
BLOCK_RECORD
  5
1C3
330
1
100
AcDbSymbolTableRecord
100
AcDbBlockTableRecord
  2
*D18
340
0
 70
     0
280
     1
281
     0
  0
BLOCK_RECORD
  5
1D0
330
1
100
AcDbSymbolTableRecord
100
AcDbBlockTableRecord
  2
*D19
340
0
 70
     0
280
     1
281
     0
  0
BLOCK_RECORD
  5
1DD
330
1
100
AcDbSymbolTableRecord
100
AcDbBlockTableRecord
  2
*D20
340
0
 70
     0
280
     1
281
     0
  0
BLOCK_RECORD
  5
1EA
330
1
100
AcDbSymbolTableRecord
100
AcDbBlockTableRecord
  2
*D21
340
0
 70
     0
280
     1
281
     0
  0
BLOCK_RECORD
  5
1F7
330
1
100
AcDbSymbolTableRecord
100
AcDbBlockTableRecord
  2
*D22
340
0
 70
     0
280
     1
281
     0
  0
BLOCK_RECORD
  5
204
330
1
100
AcDbSymbolTableRecord
100
AcDbBlockTableRecord
  2
*D23
340
0
 70
     0
280
     1
281
     0
  0
BLOCK_RECORD
  5
225
330
1
100
AcDbSymbolTableRecord
100
AcDbBlockTableRecord
  2
D_FRAME_VIEW@239
340
0
102
{BLKREFS
331
269
102
}
 70
     0
280
     1
281
     0
  0
BLOCK_RECORD
  5
26A
330
1
100
AcDbSymbolTableRecord
100
AcDbBlockTableRecord
  2
D_FRAME_VIEW@256
340
0
102
{BLKREFS
331
27C
102
}
 70
     0
280
     1
281
     0
  0
BLOCK_RECORD
  5
27D
330
1
100
AcDbSymbolTableRecord
100
AcDbBlockTableRecord
  2
D_FRAME_VIEW@270
340
0
102
{BLKREFS
331
290
102
}
 70
     0
280
     1
281
     0
  0
BLOCK_RECORD
  5
291
330
1
100
AcDbSymbolTableRecord
100
AcDbBlockTableRecord
  2
D_FRAME_VIEW@280
340
0
102
{BLKREFS
331
2A8
102
}
 70
     0
280
     1
281
     0
  0
BLOCK_RECORD
  5
2AA
330
1
100
AcDbSymbolTableRecord
100
AcDbBlockTableRecord
  2
*D28
340
0
 70
     0
280
     1
281
     0
  0
BLOCK_RECORD
  5
2B6
330
1
100
AcDbSymbolTableRecord
100
AcDbBlockTableRecord
  2
*D29
340
0
 70
     0
280
     1
281
     0
  0
BLOCK_RECORD
  5
2C3
330
1
100
AcDbSymbolTableRecord
100
AcDbBlockTableRecord
  2
*D30
340
0
 70
     0
280
     1
281
     0
  0
BLOCK_RECORD
  5
2D0
330
1
100
AcDbSymbolTableRecord
100
AcDbBlockTableRecord
  2
*D31
340
0
 70
     0
280
     1
281
     0
  0
BLOCK_RECORD
  5
2DD
330
1
100
AcDbSymbolTableRecord
100
AcDbBlockTableRecord
  2
*D32
340
0
 70
     0
280
     1
281
     0
  0
BLOCK_RECORD
  5
2EA
330
1
100
AcDbSymbolTableRecord
100
AcDbBlockTableRecord
  2
*D33
340
0
 70
     0
280
     1
281
     0
  0
BLOCK_RECORD
  5
2F7
330
1
100
AcDbSymbolTableRecord
100
AcDbBlockTableRecord
  2
*D34
340
0
 70
     0
280
     1
281
     0
  0
BLOCK_RECORD
  5
304
330
1
100
AcDbSymbolTableRecord
100
AcDbBlockTableRecord
  2
*D35
340
0
 70
     0
280
     1
281
     0
  0
BLOCK_RECORD
  5
311
330
1
100
AcDbSymbolTableRecord
100
AcDbBlockTableRecord
  2
*D36
340
0
 70
     0
280
     1
281
     0
  0
BLOCK_RECORD
  5
31E
330
1
100
AcDbSymbolTableRecord
100
AcDbBlockTableRecord
  2
*D37
340
0
 70
     0
280
     1
281
     0
  0
BLOCK_RECORD
  5
329
330
1
100
AcDbSymbolTableRecord
100
AcDbBlockTableRecord
  2
*D38
340
0
 70
     0
280
     1
281
     0
  0
BLOCK_RECORD
  5
334
330
1
100
AcDbSymbolTableRecord
100
AcDbBlockTableRecord
  2
*D39
340
0
 70
     0
280
     1
281
     0
  0
ENDTAB
  0
ENDSEC
  0
SECTION
  2
BLOCKS
  0
BLOCK
  5
20
330
1F
100
AcDbEntity
  8
0
100
AcDbBlockBegin
  2
*Model_Space
 70
     0
 10
0.0
 20
0.0
 30
0.0
  3
*Model_Space
  1

  0
ENDBLK
  5
21
330
1F
100
AcDbEntity
  8
0
100
AcDbBlockEnd
  0
BLOCK
  5
1C
330
1B
100
AcDbEntity
 67
     1
  8
0
100
AcDbBlockBegin
  2
*Paper_Space
 70
     0
 10
0.0
 20
0.0
 30
0.0
  3
*Paper_Space
  1

  0
ENDBLK
  5
1D
330
1B
100
AcDbEntity
 67
     1
  8
0
100
AcDbBlockEnd
  0
BLOCK
  5
24
330
23
100
AcDbEntity
  8
0
100
AcDbBlockBegin
  2
*Paper_Space0
 70
     0
 10
0.0
 20
0.0
 30
0.0
  3
*Paper_Space0
  1

  0
ENDBLK
  5
25
330
23
100
AcDbEntity
  8
0
100
AcDbBlockEnd
  0
BLOCK
  5
EE
330
9B
100
AcDbEntity
  8
0
100
AcDbBlockBegin
  2
D_FRAME_DRAWING@20
 70
     0
 10
0.0
 20
0.0
 30
0.0
  3
D_FRAME_DRAWING@20
  1

  0
LINE
  5
9D
330
9B
100
AcDbEntity
  8
Cartouche
  6
________________
 62
     7
370
     9
100
AcDbLine
 10
0.0
 20
0.0
 30
0.0
 11
420.0
 21
0.0
 31
0.0
  0
LINE
  5
9E
330
9B
100
AcDbEntity
  8
Cartouche
  6
________________
 62
     7
370
     9
100
AcDbLine
 10
420.0
 20
0.0
 30
0.0
 11
420.0
 21
297.0
 31
0.0
  0
LINE
  5
9F
330
9B
100
AcDbEntity
  8
Cartouche
  6
________________
 62
     7
370
     9
100
AcDbLine
 10
420.0
 20
297.0
 30
0.0
 11
0.0
 21
297.0
 31
0.0
  0
LINE
  5
A0
330
9B
100
AcDbEntity
  8
Cartouche
  6
________________
 62
     7
370
     9
100
AcDbLine
 10
0.0
 20
297.0
 30
0.0
 11
0.0
 21
0.0
 31
0.0
  0
LINE
  5
A1
330
9B
100
AcDbEntity
  8
Cartouche
  6
________________
 62
     7
370
     9
100
AcDbLine
 10
9.0
 20
6.0
 30
0.0
 11
408.9999999999999
 21
6.0
 31
0.0
  0
LINE
  5
A2
330
9B
100
AcDbEntity
  8
Cartouche
  6
________________
 62
     7
370
     9
100
AcDbLine
 10
408.9999999999999
 20
6.0
 30
0.0
 11
408.9999999999999
 21
291.0
 31
0.0
  0
LINE
  5
A3
330
9B
100
AcDbEntity
  8
Cartouche
  6
________________
 62
     7
370
     9
100
AcDbLine
 10
408.9999999999999
 20
291.0
 30
0.0
 11
9.000000000000064
 21
291.0
 31
0.0
  0
LINE
  5
A4
330
9B
100
AcDbEntity
  8
Cartouche
  6
________________
 62
     7
370
     9
100
AcDbLine
 10
9.0
 20
291.0
 30
0.0
 11
9.0
 21
6.000000000000005
 31
0.0
  0
ENDBLK
  5
EF
330
9B
100
AcDbEntity
  8
0
100
AcDbBlockEnd
  0
BLOCK
  5
DC
330
DB
100
AcDbEntity
  8
0
100
AcDbBlockBegin
  2
_Dot
 70
     0
 10
0.0
 20
0.0
 30
0.0
  3
_Dot
  1

  0
LWPOLYLINE
  5
DE
330
DB
100
AcDbEntity
  8
0
  6
ByBlock
 62
     0
100
AcDbPolyline
 90
        2
 70
     1
 43
0.5
 10
-0.25
 20
0.0
 42
1.0
 10
0.25
 20
0.0
 42
1.0
  0
LINE
  5
DF
330
DB
100
AcDbEntity
  8
0
  6
ByBlock
 62
     0
370
    -2
100
AcDbLine
 10
-0.5
 20
0.0
 30
0.0
 11
-1.0
 21
0.0
 31
0.0
  0
ENDBLK
  5
DD
330
DB
100
AcDbEntity
  8
0
100
AcDbBlockEnd
  0
BLOCK
  5
E3
330
E2
100
AcDbEntity
  8
0
100
AcDbBlockBegin
  2
*D3
 70
     1
 10
0.0
 20
0.0
 30
0.0
  3
*D3
  1

  0
LINE
  5
E5
330
E2
100
AcDbEntity
  8
Cartouche
 62
     0
370
    -2
100
AcDbLine
 10
17.28675094718692
 20
101.25
 30
0.0
 11
47.29166666666665
 21
101.25
 31
0.0
  0
LINE
  5
E6
330
E2
100
AcDbEntity
  8
Cartouche
 62
     0
370
    -2
100
AcDbLine
 10
47.29166666666665
 20
101.25
 30
0.0
 11
58.54146039066129
 21
107.3862511221789
 31
0.0
  0
MTEXT
  5
E7
330
E2
100
AcDbEntity
  8
Cartouche
 62
     0
100
AcDbMText
 10
29.47425094718692
 20
103.9255859375
 30
0.0
 40
2.5
 41
0.0
 46
0.0
 71
     5
 72
     1
  1
\A1;%%c26.8  ± 0.1mm
  7
COMIC SANS MS
 73
     1
 44
1.0
  0
INSERT
  5
E8
330
E2
100
AcDbEntity
  8
Cartouche
 62
     0
370
    -2
100
AcDbBlockReference
  2
_Dot
 10
60.73619932294725
 20
108.5833814488803
 30
0.0
 41
2.5
 42
2.5
 43
2.5
 50
28.61045966596518
  0
LINE
  5
E9
330
E2
100
AcDbEntity
  8
Cartouche
 62
     0
100
AcDbLine
 10
72.41000000000001
 20
115.0
 30
0.0
 11
72.59000000000002
 21
115.0
 31
0.0
  0
LINE
  5
EA
330
E2
100
AcDbEntity
  8
Cartouche
 62
     0
100
AcDbLine
 10
72.50000000000001
 20
114.91
 30
0.0
 11
72.50000000000001
 21
115.09
 31
0.0
  0
POINT
  5
EB
330
E2
100
AcDbEntity
  8
Defpoints
 62
     0
100
AcDbPoint
 10
60.73619932294725
 20
108.5833814488803
 30
0.0
  0
POINT
  5
EC
330
E2
100
AcDbEntity
  8
Defpoints
 62
     0
100
AcDbPoint
 10
84.26380067705277
 20
121.4166185511197
 30
0.0
  0
ENDBLK
  5
E4
330
E2
100
AcDbEntity
  8
0
100
AcDbBlockEnd
  0
BLOCK
  5
110
330
ED
100
AcDbEntity
  8
0
100
AcDbBlockBegin
  2
D_FRAME_VIEW@231
 70
     0
 10
0.0
 20
0.0
 30
0.0
  3
D_FRAME_VIEW@231
  1

  0
MTEXT
  5
F0
330
ED
100
AcDbEntity
  8
Cartouche
 62
     7
420
 16777215
100
AcDbMText
 10
109.7390639276483
 20
278.4012954969037
 30
0.0
 40
3.5
 41
0.0
 46
0.0
 71
     1
 72
     1
  1
{\fArial;PERSPECTIVE}
 73
     1
 44
1.0
  0
ELLIPSE
  5
F1
330
ED
100
AcDbEntity
  8
Cartouche
  6
________________
 62
     7
370
     9
100
AcDbEllipse
 10
178.0330085889911
 20
191.8813782152103
 30
0.0
 11
-10.00000000000001
 21
-17.32050807568878
 31
0.0
210
0.0
220
0.0
230
-1.0
 40
0.5773502691896257
 41
0.0
 42
0.7853981633974485
  0
ELLIPSE
  5
F2
330
ED
100
AcDbEntity
  8
Cartouche
  6
________________
 62
     7
370
     9
100
AcDbEllipse
 10
178.0330085889911
 20
191.8813782152103
 30
0.0
 11
-10.00000000000001
 21
-17.32050807568878
 31
0.0
210
0.0
220
0.0
230
-1.0
 40
0.5773502691896257
 41
3.141592653589792
 42
6.283185307179586
  0
ELLIPSE
  5
F3
330
ED
100
AcDbEntity
  8
Cartouche
  6
________________
 62
     7
370
     9
100
AcDbEllipse
 10
74.0883117545686
 20
251.8938769133981
 30
0.0
 11
10.0
 21
17.32050807568878
 31
0.0
210
0.0
220
0.0
230
1.0
 40
0.5773502691896261
 41
0.0
 42
0.785398163397448
  0
ARC
  5
F4
330
ED
100
AcDbEntity
  8
Cartouche
  6
________________
 62
     7
370
     9
100
AcDbCircle
 10
93.9793799605249
 20
254.7131238924489
 30
0.0
 40
3.264515002295954
100
AcDbArc
 50
117.478367658305
 51
178.6819161353691
  0
ARC
  5
F5
330
ED
100
AcDbEntity
  8
Cartouche
  6
________________
 62
     7
370
     9
100
AcDbCircle
 10
122.9057017937984
 20
238.5187974620746
 30
0.0
 40
2.407911368038842
100
AcDbArc
 50
116.853573234732
 51
177.5452634070087
  0
ARC
  5
F6
330
ED
100
AcDbEntity
  8
Cartouche
  6
________________
 62
     7
370
     9
100
AcDbCircle
 10
161.7965747590584
 20
216.0651414865622
 30
0.0
 40
2.407911368038802
100
AcDbArc
 50
116.8535732347316
 51
177.5452634070094
  0
ELLIPSE
  5
F7
330
ED
100
AcDbEntity
  8
Cartouche
  6
________________
 62
     7
370
     9
100
AcDbEllipse
 10
178.0330085889911
 20
191.8813782152103
 30
0.0
 11
-10.00000000000001
 21
-17.32050807568878
 31
0.0
210
0.0
220
0.0
230
-1.0
 40
0.5773502691896257
 41
0.785398163397449
 42
3.141592653589793
  0
ELLIPSE
  5
F8
330
ED
100
AcDbEntity
  8
Cartouche
  6
________________
 62
     7
370
     9
100
AcDbEllipse
 10
74.0883117545686
 20
251.8938769133981
 30
0.0
 11
10.0
 21
17.32050807568878
 31
0.0
210
0.0
220
0.0
230
1.0
 40
0.5773502691896261
 41
2.356194490192346
 42
3.141592653589793
  0
ELLIPSE
  5
F9
330
ED
100
AcDbEntity
  8
Cartouche
  6
________________
 62
     7
370
     9
100
AcDbEllipse
 10
178.0330085889911
 20
191.8813782152103
 30
0.0
 11
-8.000000000000004
 21
-13.85640646055102
 31
0.0
210
0.0
220
0.0
230
-1.0
 40
0.5773502691896257
 41
0.785398163397449
 42
2.356194490192346
  0
ELLIPSE
  5
FA
330
ED
100
AcDbEntity
  8
Cartouche
  6
________________
 62
     7
370
     9
100
AcDbEllipse
 10
178.0330085889911
 20
191.8813782152103
 30
0.0
 11
-8.000000000000005
 21
-13.85640646055102
 31
0.0
210
0.0
220
0.0
230
-1.0
 40
0.5773502691896258
 41
2.356194490192346
 42
7.068583470577034
  0
ELLIPSE
  5
FB
330
ED
100
AcDbEntity
  8
Cartouche
  6
________________
 62
     7
370
     9
100
AcDbEllipse
 10
175.9116882454314
 20
193.1061230866019
 30
0.0
 11
6.5
 21
11.25833024919771
 31
0.0
210
0.0
220
0.0
230
1.0
 40
0.5773502691896261
 41
2.465797966338702
 42
3.141592653589793
  0
ELLIPSE
  5
FC
330
ED
100
AcDbEntity
  8
Cartouche
  6
________________
 62
     7
370
     9
100
AcDbEllipse
 10
175.9116882454314
 20
193.1061230866019
 30
0.0
 11
6.5
 21
11.25833024919771
 31
0.0
210
0.0
220
0.0
230
1.0
 40
0.5773502691896265
 41
0.0
 42
0.6757946872504945
  0
ELLIPSE
  5
FD
330
ED
100
AcDbEntity
  8
Cartouche
  6
________________
 62
     7
370
     9
100
AcDbEllipse
 10
175.9116882454314
 20
193.1061230866019
 30
0.0
 11
6.5
 21
11.25833024919771
 31
0.0
210
0.0
220
0.0
230
1.0
 40
0.5773502691896265
 41
3.141592653589793
 42
6.283185307179586
  0
LWPOLYLINE
  5
FE
330
ED
100
AcDbEntity
  8
Cartouche
  6
________________
 62
     7
370
     9
100
AcDbPolyline
 90
        6
 70
     0
 43
0.0
 10
168.3908729652543
 20
216.1682717486598
 10
168.3768614477736
 20
216.3401939133795
 10
168.3316059243107
 20
216.5214991546661
 10
168.3316059243107
 20
216.5214991546661
 42
0.247527779384229
 10
163.4622258365354
 20
218.7941716134932
 42
0.1385366988604217
 10
160.7088924499207
 20
218.2133929501295
  0
LWPOLYLINE
  5
FF
330
ED
100
AcDbEntity
  8
Cartouche
  6
________________
 62
     7
370
     9
100
AcDbPolyline
 90
        8
 70
     0
 43
0.0
 10
159.3908729652618
 20
216.1682726440949
 42
0.413198069383805
 10
163.0432312791389
 20
213.5390662873401
 42
0.2308540606224507
 10
168.2470638494435
 20
215.6180391881616
 10
168.3248546431431
 20
215.7951957697613
 10
168.3728587797121
 20
215.9732701708962
 10
168.3907839991937
 20
216.156756963384
 10
168.3908729652543
 20
216.1682717486598
 10
168.3908729652543
 20
216.1682717486598
  0
ARC
  5
100
330
ED
100
AcDbEntity
  8
Cartouche
  6
________________
 62
     7
370
     9
100
AcDbCircle
 10
165.9718899108481
 20
189.7444572130975
 30
0.0
 40
2.41900500305821
100
AcDbArc
 50
0.244075082285904
 51
42.68144370097446
  0
ARC
  5
101
330
ED
100
AcDbEntity
  8
Cartouche
  6
________________
 62
     7
370
     9
100
AcDbCircle
 10
165.8628547644651
 20
189.805921488543
 30
0.0
 40
2.528535806251498
100
AcDbArc
 50
293.2416708527334
 51
358.8406624354054
  0
LWPOLYLINE
  5
102
330
ED
100
AcDbEntity
  8
Cartouche
  6
________________
 62
     7
370
     9
100
AcDbPolyline
 90
        6
 70
     0
 43
0.0
 10
129.4999999999942
 20
238.6219277241723
 10
129.4859884825135
 20
238.7938498888919
 10
129.4407329590505
 20
238.9751551301786
 10
129.4407329590505
 20
238.9751551301785
 42
0.2475277793842297
 10
124.5713528712753
 20
241.2478275890056
 42
0.1385366988604215
 10
121.8180194846605
 20
240.6670489256419
  0
LWPOLYLINE
  5
103
330
ED
100
AcDbEntity
  8
Cartouche
  6
________________
 62
     7
370
     9
100
AcDbPolyline
 90
        8
 70
     0
 43
0.0
 10
120.5000000000017
 20
238.6219286196074
 42
0.4131980693838045
 10
124.1523583138788
 20
235.9927222628526
 42
0.2308540606224525
 10
129.3561908841834
 20
238.0716951636741
 10
129.433981677883
 20
238.2488517452737
 10
129.481985814452
 20
238.4269261464087
 10
129.4999110339336
 20
238.6104129388964
 10
129.4999999999942
 20
238.6219277241723
 10
129.4999999999942
 20
238.6219277241723
  0
ARC
  5
104
330
ED
100
AcDbEntity
  8
Cartouche
  6
________________
 62
     7
370
     9
100
AcDbCircle
 10
-95.50398016206482
 20
244.7221368555471
 30
0.0
 40
8.087730832241785
210
0.0
220
0.0
230
-1.0
100
AcDbArc
 50
67.9910234763368
 51
117.1890833469441
  0
LWPOLYLINE
  5
105
330
ED
100
AcDbEntity
  8
Cartouche
  6
________________
 62
     7
370
     9
100
AcDbPolyline
 90
        3
 70
     0
 43
0.0
 10
102.7157287525296
 20
254.7882151233045
 42
0.2672156308761756
 10
99.8927957171481
 20
257.3853896832681
 42
0.2178512521785944
 10
92.4730880654188
 20
257.6093529798922
  0
LWPOLYLINE
  5
106
330
ED
100
AcDbEntity
  8
Cartouche
  6
________________
 62
     7
370
     9
100
AcDbPolyline
 90
        4
 70
     0
 43
0.0
 10
90.71572875254537
 20
254.7882171203001
 42
0.417529512850853
 10
95.24515052867531
 20
251.2500885797767
 42
0.2097704592481243
 10
102.4799163427409
 20
254.0258829978216
 42
0.1392317042122744
 10
102.7157287525296
 20
254.7882151233045
  0
LINE
  5
107
330
ED
100
AcDbEntity
  8
Cartouche
  6
________________
 62
     7
370
     9
100
AcDbLine
 10
92.26266047226311
 20
252.0897949979357
 30
0.0
 11
92.47308806541882
 21
252.2204755457693
 31
0.0
  0
ELLIPSE
  5
108
330
ED
100
AcDbEntity
  8
Cartouche
  6
________________
 62
     7
370
     9
100
AcDbEllipse
 10
74.0883117545686
 20
251.8938769133981
 30
0.0
 11
10.0
 21
17.32050807568877
 31
0.0
210
0.0
220
0.0
230
1.0
 40
0.5773502691896261
 41
0.7853981633974473
 42
2.356194490192346
  0
ELLIPSE
  5
109
330
ED
100
AcDbEntity
  8
Cartouche
  6
________________
 62
     7
370
     9
100
AcDbEllipse
 10
71.96699141100895
 20
253.1186217847897
 30
0.0
 11
-8.500000000000004
 21
-14.72243186433546
 31
0.0
210
0.0
220
0.0
230
-1.0
 40
0.5773502691896257
 41
0.7853981633974478
 42
2.356194490192345
  0
LINE
  5
10A
330
ED
100
AcDbEntity
  8
Cartouche
  6
________________
 62
     7
370
     9
100
AcDbLine
 10
188.033008588991
 20
209.2018862908991
 30
0.0
 11
84.08831175456858
 21
269.214384989087
 31
0.0
  0
LINE
  5
10B
330
ED
100
AcDbEntity
  8
Cartouche
  6
________________
 62
     7
370
     9
100
AcDbLine
 10
64.08831175456858
 20
234.5733688377094
 30
0.0
 11
168.0330085889911
 21
174.5608701395215
 31
0.0
  0
LINE
  5
10C
330
ED
100
AcDbEntity
  8
Cartouche
  6
________________
 62
     7
370
     9
100
AcDbLine
 10
74.0883117545686
 20
268.2238085319527
 30
0.0
 11
71.96699141100895
 21
266.9990636605611
 31
0.0
  0
LINE
  5
10D
330
ED
100
AcDbEntity
  8
Cartouche
  6
________________
 62
     7
370
     9
100
AcDbLine
 10
59.94617613083764
 20
246.1784008469041
 30
0.0
 11
59.94617613083764
 21
243.7289111041209
 31
0.0
  0
ENDBLK
  5
111
330
ED
100
AcDbEntity
  8
0
100
AcDbBlockEnd
  0
BLOCK
  5
12F
330
10F
100
AcDbEntity
  8
0
100
AcDbBlockBegin
  2
D_FRAME_VIEW@233
 70
     0
 10
0.0
 20
0.0
 30
0.0
  3
D_FRAME_VIEW@233
  1

  0
CIRCLE
  5
112
330
10F
100
AcDbEntity
  8
Cartouche
  6
________________
 62
     7
370
     9
100
AcDbCircle
 10
57.50000000000001
 20
120.0
 30
0.0
 40
13.4
210
0.0
220
0.0
230
-1.0
  0
CIRCLE
  5
113
330
10F
100
AcDbEntity
  8
Cartouche
  6
________________
 62
     7
370
     9
100
AcDbCircle
 10
-57.50000000000001
 20
120.0
 30
0.0
 40
17.0
  0
CIRCLE
  5
114
330
10F
100
AcDbEntity
  8
Cartouche
  6
________________
 62
     7
370
     9
100
AcDbCircle
 10
57.50000000000001
 20
120.0
 30
0.0
 40
20.0
210
0.0
220
0.0
230
-1.0
  0
CIRCLE
  5
115
330
10F
100
AcDbEntity
  8
Cartouche
  6
________________
 62
     7
370
     9
100
AcDbCircle
 10
57.5
 20
120.0
 30
0.0
 40
13.0
210
0.0
220
0.0
230
-1.0
  0
ENDBLK
  5
130
330
10F
100
AcDbEntity
  8
0
100
AcDbBlockEnd
  0
BLOCK
  5
119
330
118
100
AcDbEntity
  8
0
100
AcDbBlockBegin
  2
*D6
 70
     1
 10
0.0
 20
0.0
 30
0.0
  3
*D6
  1

  0
LINE
  5
11B
330
118
100
AcDbEntity
  8
Cartouche
 62
     0
370
    -2
100
AcDbLine
 10
387.2498301883165
 20
101.7500566038945
 30
0.0
 11
362.2045911197829
 21
110.098469626739
 31
0.0
  0
MTEXT
  5
11C
330
118
100
AcDbEntity
  8
Cartouche
 62
     0
100
AcDbMText
 10
376.7591593404145
 20
108.0672620992008
 30
0.0
 40
2.5
 41
0.0
 46
0.0
 71
     5
 72
     1
  1
\A1;%%c26  ± 0.1mm
  7
COMIC SANS MS
 11
0.9486832980505135
 21
-0.3162277660168384
 31
0.0
 73
     1
 44
1.0
  0
INSERT
  5
11D
330
118
100
AcDbEntity
  8
Cartouche
 62
     0
370
    -2
100
AcDbBlockReference
  2
_Dot
 10
359.8328828746567
 20
110.8890390417811
 30
0.0
 41
2.5
 42
2.5
 43
2.5
 50
161.565051177078
  0
LINE
  5
11E
330
118
100
AcDbEntity
  8
Cartouche
 62
     0
100
AcDbLine
 10
347.41
 20
115.0
 30
0.0
 11
347.59
 21
115.0
 31
0.0
  0
LINE
  5
11F
330
118
100
AcDbEntity
  8
Cartouche
 62
     0
100
AcDbLine
 10
347.5
 20
114.91
 30
0.0
 11
347.5
 21
115.09
 31
0.0
  0
POINT
  5
120
330
118
100
AcDbEntity
  8
Defpoints
 62
     0
100
AcDbPoint
 10
359.8328828746567
 20
110.8890390417811
 30
0.0
  0
POINT
  5
121
330
118
100
AcDbEntity
  8
Defpoints
 62
     0
100
AcDbPoint
 10
335.1671171253433
 20
119.1109609582189
 30
0.0
  0
ENDBLK
  5
11A
330
118
100
AcDbEntity
  8
0
100
AcDbBlockEnd
  0
BLOCK
  5
124
330
123
100
AcDbEntity
  8
0
100
AcDbBlockBegin
  2
*D7
 70
     1
 10
0.0
 20
0.0
 30
0.0
  3
*D7
  1

  0
LINE
  5
126
330
123
100
AcDbEntity
  8
Cartouche
 62
     0
370
    -2
100
AcDbLine
 10
43.22854208238639
 20
128.1024356416084
 30
0.0
 11
51.20854208238639
 21
128.1024356416084
 31
0.0
  0
LINE
  5
127
330
123
100
AcDbEntity
  8
Cartouche
 62
     0
370
    -2
100
AcDbLine
 10
53.33768787414775
 20
126.7921920774476
 30
0.0
 11
51.20854208238639
 21
128.1024356416084
 31
0.0
  0
MTEXT
  5
128
330
123
100
AcDbEntity
  8
Cartouche
 62
     0
100
AcDbMText
 10
46.59354208238639
 20
130.7470840791084
 30
0.0
 40
2.5
 41
0.0
 46
0.0
 71
     5
 72
     1
  1
\A1;%%c40
  7
COMIC SANS MS
 73
     1
 44
1.0
  0
INSERT
  5
129
330
123
100
AcDbEntity
  8
Cartouche
 62
     0
370
    -2
100
AcDbBlockReference
  2
_Dot
 10
55.46683366590911
 20
125.4819485132867
 30
0.0
 41
2.5
 42
2.5
 43
2.5
 50
328.3924977537511
  0
LINE
  5
12A
330
123
100
AcDbEntity
  8
Cartouche
 62
     0
100
AcDbLine
 10
72.41000000000001
 20
115.0
 30
0.0
 11
72.59000000000002
 21
115.0
 31
0.0
  0
LINE
  5
12B
330
123
100
AcDbEntity
  8
Cartouche
 62
     0
100
AcDbLine
 10
72.50000000000001
 20
114.91
 30
0.0
 11
72.50000000000001
 21
115.09
 31
0.0
  0
POINT
  5
12C
330
123
100
AcDbEntity
  8
Defpoints
 62
     0
100
AcDbPoint
 10
55.46683366590911
 20
125.4819485132867
 30
0.0
  0
POINT
  5
12D
330
123
100
AcDbEntity
  8
Defpoints
 62
     0
100
AcDbPoint
 10
89.53316633409091
 20
104.5180514867133
 30
0.0
  0
ENDBLK
  5
125
330
123
100
AcDbEntity
  8
0
100
AcDbBlockEnd
  0
BLOCK
  5
226
330
12E
100
AcDbEntity
  8
0
100
AcDbBlockBegin
  2
D_FRAME_VIEW@226
 70
     0
 10
0.0
 20
0.0
 30
0.0
  3
D_FRAME_VIEW@226
  1

  0
MTEXT
  5
131
330
12E
100
AcDbEntity
  8
Cartouche
 62
     7
420
 16777215
100
AcDbMText
 10
292.2390639276484
 20
279.6260403682953
 30
0.0
 40
3.5
 41
0.0
 46
0.0
 71
     1
 72
     1
  1
{\fArial;PERSPECTIVE}
 73
     1
 44
1.0
  0
ELLIPSE
  5
132
330
12E
100
AcDbEntity
  8
Cartouche
  6
________________
 62
     7
370
     9
100
AcDbEllipse
 10
254.4669914110089
 20
191.8813782152103
 30
0.0
 11
8.500000000000005
 21
-14.72243186433547
 31
0.0
210
0.0
220
0.0
230
1.0
 40
0.5773502691896257
 41
5.497787143782137
 42
7.068583470577034
  0
ELLIPSE
  5
133
330
12E
100
AcDbEntity
  8
Cartouche
  6
________________
 62
     7
370
     9
100
AcDbEllipse
 10
254.4669914110089
 20
191.8813782152103
 30
0.0
 11
8.500000000000011
 21
-14.72243186433547
 31
0.0
210
0.0
220
0.0
230
1.0
 40
0.5773502691896261
 41
3.92699081698724
 42
5.497787143782138
  0
ELLIPSE
  5
134
330
12E
100
AcDbEntity
  8
Cartouche
  6
________________
 62
     7
370
     9
100
AcDbEllipse
 10
256.5883117545686
 20
193.1061230866019
 30
0.0
 11
-10.00000000000002
 21
17.3205080756888
 31
0.0
210
0.0
220
0.0
230
-1.0
 40
0.5773502691896257
 41
5.49778714378214
 42
6.283185307179586
  0
ELLIPSE
  5
135
330
12E
100
AcDbEntity
  8
Cartouche
  6
________________
 62
     7
370
     9
100
AcDbEllipse
 10
254.4669914110089
 20
191.8813782152103
 30
0.0
 11
8.500000000000011
 21
-14.72243186433547
 31
0.0
210
0.0
220
0.0
230
1.0
 40
0.5773502691896261
 41
0.7853981633974472
 42
3.926990816987241
  0
ELLIPSE
  5
136
330
12E
100
AcDbEntity
  8
Cartouche
  6
________________
 62
     7
370
     9
100
AcDbEllipse
 10
256.5883117545686
 20
193.1061230866019
 30
0.0
 11
-10.00000000000002
 21
17.3205080756888
 31
0.0
210
0.0
220
0.0
230
-1.0
 40
0.5773502691896257
 41
2.356194490192344
 42
3.141592653589788
  0
ELLIPSE
  5
137
330
12E
100
AcDbEntity
  8
Cartouche
  6
________________
 62
     7
370
     9
100
AcDbEllipse
 10
360.533008588991
 20
253.1186217847897
 30
0.0
 11
9.999999999999993
 21
-17.32050807568876
 31
0.0
210
0.0
220
0.0
230
1.0
 40
0.5773502691896261
 41
0.0
 42
0.7853981633974499
  0
ELLIPSE
  5
138
330
12E
100
AcDbEntity
  8
Cartouche
  6
________________
 62
     7
370
     9
100
AcDbEllipse
 10
256.5883117545686
 20
193.1061230866019
 30
0.0
 11
-10.00000000000002
 21
17.3205080756888
 31
0.0
210
0.0
220
0.0
230
-1.0
 40
0.5773502691896256
 41
0.0
 42
2.356194490192345
  0
ELLIPSE
  5
139
330
12E
100
AcDbEntity
  8
Cartouche
  6
________________
 62
     7
370
     9
100
AcDbEllipse
 10
256.5883117545686
 20
193.1061230866019
 30
0.0
 11
-10.00000000000002
 21
17.3205080756888
 31
0.0
210
0.0
220
0.0
230
-1.0
 40
0.5773502691896257
 41
3.141592653589788
 42
3.92699081698724
  0
LWPOLYLINE
  5
13A
330
12E
100
AcDbEntity
  8
Cartouche
  6
________________
 62
     7
370
     9
100
AcDbPolyline
 90
        3
 70
     0
 43
0.0
 10
274.9730880654188
 20
220.0505102572169
 42
0.2381934604618604
 10
283.5022738214731
 20
219.3240991162518
 42
0.2697535218209294
 10
285.2157287525357
 20
222.1283435249366
  0
LWPOLYLINE
  5
13B
330
12E
100
AcDbEntity
  8
Cartouche
  6
________________
 62
     7
370
     9
100
AcDbPolyline
 90
        3
 70
     0
 43
0.0
 10
304.3180194846605
 20
236.9928143114672
 42
0.2838201666859178
 10
311.2137518616202
 20
236.9584402285837
 42
0.2139701886632921
 10
311.9999999999999
 20
238.6219318802103
  0
LWPOLYLINE
  5
13C
330
12E
100
AcDbEntity
  8
Cartouche
  6
________________
 62
     7
370
     9
100
AcDbPolyline
 90
        3
 70
     0
 43
0.0
 10
343.2088924499207
 20
259.4464702869797
 42
0.2838201666859178
 10
350.1046248268803
 20
259.4120962040961
 42
0.2139701886632116
 10
350.89087296526
 20
261.0755878557227
  0
ELLIPSE
  5
13D
330
12E
100
AcDbEntity
  8
Cartouche
  6
________________
 62
     7
370
     9
100
AcDbEllipse
 10
360.533008588991
 20
253.1186217847897
 30
0.0
 11
9.999999999999993
 21
-17.32050807568876
 31
0.0
210
0.0
220
0.0
230
1.0
 40
0.5773502691896261
 41
0.7853981633974499
 42
3.141592653589792
  0
ELLIPSE
  5
13E
330
12E
100
AcDbEntity
  8
Cartouche
  6
________________
 62
     7
370
     9
100
AcDbEllipse
 10
254.4669914110089
 20
191.8813782152103
 30
0.0
 11
-6.699999999999992
 21
11.60474041071146
 31
0.0
210
0.0
220
0.0
230
-1.0
 40
0.5773502691896257
 41
2.356194490192345
 42
3.141592653589799
  0
ELLIPSE
  5
13F
330
12E
100
AcDbEntity
  8
Cartouche
  6
________________
 62
     7
370
     9
100
AcDbEllipse
 10
287.7010101267767
 20
211.0690478670118
 30
0.0
 11
6.69999999999999
 21
-11.60474041071146
 31
0.0
210
0.0
220
0.0
230
1.0
 40
0.5773502691896261
 41
3.581250297571619
 42
3.707726131664143
  0
ELLIPSE
  5
140
330
12E
100
AcDbEntity
  8
Cartouche
  6
________________
 62
     7
370
     9
100
AcDbEllipse
 10
254.4669914110089
 20
191.8813782152103
 30
0.0
 11
-6.699999999999992
 21
11.60474041071146
 31
0.0
210
0.0
220
0.0
230
-1.0
 40
0.5773502691896256
 41
0.0
 42
2.356194490192345
  0
ELLIPSE
  5
141
330
12E
100
AcDbEntity
  8
Cartouche
  6
________________
 62
     7
370
     9
100
AcDbEllipse
 10
254.4669914110089
 20
191.8813782152103
 30
0.0
 11
-6.699999999999992
 21
11.60474041071146
 31
0.0
210
0.0
220
0.0
230
-1.0
 40
0.5773502691896257
 41
3.141592653589798
 42
6.283185307179586
  0
ARC
  5
142
330
12E
100
AcDbEntity
  8
Cartouche
  6
________________
 62
     7
370
     9
100
AcDbCircle
 10
275.9854353619575
 20
222.688792089016
 30
0.0
 40
2.825841126604696
100
AcDbArc
 50
191.439322815751
 51
249.0074620395374
  0
LWPOLYLINE
  5
143
330
12E
100
AcDbEntity
  8
Cartouche
  6
________________
 62
     7
370
     9
100
AcDbPolyline
 90
        4
 70
     0
 43
0.0
 10
285.2157287525357
 20
222.1283435249366
 42
0.4106577131968672
 10
280.8813041561006
 20
225.6555954251781
 42
0.2151050589403558
 10
273.4440550952567
 20
222.8759491842578
 42
0.1384945276403433
 10
273.2157287525463
 20
222.1283428311928
  0
ARC
  5
144
330
12E
100
AcDbEntity
  8
Cartouche
  6
________________
 62
     7
370
     9
100
AcDbCircle
 10
-280.3704724386473
 20
212.540310335211
 30
0.0
 40
7.638288821109479
210
0.0
220
0.0
230
-1.0
100
AcDbArc
 50
61.55416148283246
 51
115.590371864737
  0
ELLIPSE
  5
145
330
12E
100
AcDbEntity
  8
Cartouche
  6
________________
 62
     7
370
     9
100
AcDbEllipse
 10
287.7010101267767
 20
211.0690478670118
 30
0.0
 11
-6.5
 21
11.25833024919771
 31
0.0
210
0.0
220
0.0
230
-1.0
 40
0.5773502691896261
 41
5.736149758115118
 42
5.887600085016289
  0
LWPOLYLINE
  5
146
330
12E
100
AcDbEntity
  8
Cartouche
  6
________________
 62
     7
370
     9
100
AcDbPolyline
 90
        5
 70
     0
 43
0.0
 10
303.000000000006
 20
238.6219276529956
 10
303.0063207920825
 20
238.5065516141453
 10
303.042712470322
 20
238.3217742912685
 10
303.042712470322
 20
238.3217742912685
 42
0.1846558698428925
 10
304.3180194846605
 20
236.9928143114671
  0
LWPOLYLINE
  5
147
330
12E
100
AcDbEntity
  8
Cartouche
  6
________________
 62
     7
370
     9
100
AcDbPolyline
 90
        7
 70
     0
 43
0.0
 10
311.9999999999999
 20
238.6219318802103
 42
0.4138586542150435
 10
308.2678478829282
 20
241.2521294424866
 42
0.232728604215312
 10
303.1265285390896
 20
239.1375396592786
 10
303.0536333639533
 20
238.9580508182518
 10
303.0116817582583
 20
238.7787530519246
 10
303.000000000006
 20
238.6219276529956
 10
303.000000000006
 20
238.6219276529956
  0
LWPOLYLINE
  5
148
330
12E
100
AcDbEntity
  8
Cartouche
  6
________________
 62
     7
370
     9
100
AcDbPolyline
 90
        5
 70
     0
 43
0.0
 10
341.8908729652662
 20
261.075583628508
 10
341.8971937573426
 20
260.9602075896578
 10
341.9335854355821
 20
260.775430266781
 10
341.9335854355821
 20
260.775430266781
 42
0.1846558698428925
 10
343.2088924499207
 20
259.4464702869796
  0
LWPOLYLINE
  5
149
330
12E
100
AcDbEntity
  8
Cartouche
  6
________________
 62
     7
370
     9
100
AcDbPolyline
 90
        7
 70
     0
 43
0.0
 10
350.89087296526
 20
261.0755878557227
 42
0.4138586542150435
 10
347.1587208481882
 20
263.705785417999
 42
0.232728604215312
 10
342.0174015043497
 20
261.5911956347911
 10
341.9445063292134
 20
261.4117067937642
 10
341.9025547235184
 20
261.232409027437
 10
341.8908729652662
 20
261.075583628508
 10
341.8908729652662
 20
261.075583628508
  0
LINE
  5
14A
330
12E
100
AcDbEntity
  8
Cartouche
  6
________________
 62
     7
370
     9
100
AcDbLine
 10
242.4461761308376
 20
201.2710888958792
 30
0.0
 11
242.4461761308376
 21
198.821599153096
 31
0.0
  0
LINE
  5
14B
330
12E
100
AcDbEntity
  8
Cartouche
  6
________________
 62
     7
370
     9
100
AcDbLine
 10
254.4669914110089
 20
178.0009363394389
 30
0.0
 11
256.5883117545686
 21
176.7761914680474
 31
0.0
  0
LINE
  5
14C
330
12E
100
AcDbEntity
  8
Cartouche
  6
________________
 62
     7
370
     9
100
AcDbLine
 10
350.533008588991
 20
270.4391298604785
 30
0.0
 11
246.5883117545686
 21
210.4266311622907
 31
0.0
  0
LINE
  5
14D
330
12E
100
AcDbEntity
  8
Cartouche
  6
________________
 62
     7
370
     9
100
AcDbLine
 10
266.5883117545686
 20
175.7856150109131
 30
0.0
 11
370.5330085889911
 21
235.798113709101
 31
0.0
  0
ENDBLK
  5
227
330
12E
100
AcDbEntity
  8
0
100
AcDbBlockEnd
  0
BLOCK
  5
151
330
150
100
AcDbEntity
  8
0
100
AcDbBlockBegin
  2
*D9
 70
     1
 10
0.0
 20
0.0
 30
0.0
  3
*D9
  1

  0
LINE
  5
153
330
150
100
AcDbEntity
  8
Cartouche
 62
     0
370
    -2
100
AcDbLine
 10
102.1277741317164
 20
85.37222586828369
 30
0.0
 11
83.4601551083915
 21
104.0398448916085
 31
0.0
  0
MTEXT
  5
154
330
150
100
AcDbEntity
  8
Cartouche
 62
     0
100
AcDbMText
 10
95.56977305659075
 20
95.71407686351655
 30
0.0
 40
2.5
 41
0.0
 46
0.0
 71
     5
 72
     1
  1
\A1;%%c26  ± 0.1mm
  7
COMIC SANS MS
 11
0.707106781186548
 21
-0.7071067811865469
 31
0.0
 73
     1
 44
1.0
  0
INSERT
  5
155
330
150
100
AcDbEntity
  8
Cartouche
 62
     0
370
    -2
100
AcDbBlockReference
  2
_Dot
 10
81.69238815542514
 20
105.8076118445749
 30
0.0
 41
2.5
 42
2.5
 43
2.5
 50
135.0000000000001
  0
LINE
  5
156
330
150
100
AcDbEntity
  8
Cartouche
 62
     0
100
AcDbLine
 10
72.41
 20
115.0
 30
0.0
 11
72.59
 21
115.0
 31
0.0
  0
LINE
  5
157
330
150
100
AcDbEntity
  8
Cartouche
 62
     0
100
AcDbLine
 10
72.5
 20
114.91
 30
0.0
 11
72.5
 21
115.09
 31
0.0
  0
POINT
  5
158
330
150
100
AcDbEntity
  8
Defpoints
 62
     0
100
AcDbPoint
 10
81.69238815542514
 20
105.8076118445749
 30
0.0
  0
POINT
  5
159
330
150
100
AcDbEntity
  8
Defpoints
 62
     0
100
AcDbPoint
 10
63.30761184457488
 20
124.1923881554251
 30
0.0
  0
ENDBLK
  5
152
330
150
100
AcDbEntity
  8
0
100
AcDbBlockEnd
  0
BLOCK
  5
15C
330
15B
100
AcDbEntity
  8
0
100
AcDbBlockBegin
  2
*D10
 70
     1
 10
0.0
 20
0.0
 30
0.0
  3
*D10
  1

  0
LINE
  5
15E
330
15B
100
AcDbEntity
  8
Cartouche
 62
     0
370
    -2
100
AcDbLine
 10
66.5
 20
95.8587159716611
 30
0.0
 11
66.5
 21
85.00000000000001
 31
0.0
  0
LINE
  5
15F
330
15B
100
AcDbEntity
  8
Cartouche
 62
     0
370
    -2
100
AcDbLine
 10
78.5
 20
95.85871597166108
 30
0.0
 11
78.5
 21
85.00000000000001
 31
0.0
  0
LINE
  5
160
330
15B
100
AcDbEntity
  8
Cartouche
 62
     0
370
    -2
100
AcDbLine
 10
69.0
 20
86.25000000000001
 30
0.0
 11
76.0
 21
86.25000000000001
 31
0.0
  0
INSERT
  5
161
330
15B
100
AcDbEntity
  8
Cartouche
 62
     0
370
    -2
100
AcDbBlockReference
  2
_Dot
 10
66.5
 20
86.25000000000001
 30
0.0
 41
2.5
 42
2.5
 43
2.5
 50
180.0
  0
INSERT
  5
162
330
15B
100
AcDbEntity
  8
Cartouche
 62
     0
370
    -2
100
AcDbBlockReference
  2
_Dot
 10
78.5
 20
86.25000000000001
 30
0.0
 41
2.5
 42
2.5
 43
2.5
  0
MTEXT
  5
163
330
15B
100
AcDbEntity
  8
Cartouche
 62
     0
100
AcDbMText
 10
72.50000000000001
 20
88.89339843750001
 30
0.0
 40
2.5
 41
0.0
 46
0.0
 71
     5
 72
     1
  1
\A1;%%c12
  7
COMIC SANS MS
 73
     1
 44
1.0
  0
POINT
  5
164
330
15B
100
AcDbEntity
  8
Defpoints
 62
     0
100
AcDbPoint
 10
66.5
 20
95.9212159716611
 30
0.0
  0
POINT
  5
165
330
15B
100
AcDbEntity
  8
Defpoints
 62
     0
100
AcDbPoint
 10
78.5
 20
95.92121597166108
 30
0.0
  0
POINT
  5
166
330
15B
100
AcDbEntity
  8
Defpoints
 62
     0
100
AcDbPoint
 10
78.5
 20
86.25000000000001
 30
0.0
  0
ENDBLK
  5
15D
330
15B
100
AcDbEntity
  8
0
100
AcDbBlockEnd
  0
BLOCK
  5
169
330
168
100
AcDbEntity
  8
0
100
AcDbBlockBegin
  2
*D11
 70
     1
 10
0.0
 20
0.0
 30
0.0
  3
*D11
  1

  0
LINE
  5
16B
330
168
100
AcDbEntity
  8
Cartouche
 62
     0
370
    -2
100
AcDbLine
 10
352.0
 20
95.45032473009493
 30
0.0
 11
352.0
 21
85.00000000000001
 31
0.0
  0
LINE
  5
16C
330
168
100
AcDbEntity
  8
Cartouche
 62
     0
370
    -2
100
AcDbLine
 10
342.9999999999999
 20
95.45032473009493
 30
0.0
 11
342.9999999999999
 21
85.00000000000001
 31
0.0
  0
LINE
  5
16D
330
168
100
AcDbEntity
  8
Cartouche
 62
     0
370
    -2
100
AcDbLine
 10
349.5
 20
86.25000000000001
 30
0.0
 11
345.4999999999999
 21
86.25000000000001
 31
0.0
  0
INSERT
  5
16E
330
168
100
AcDbEntity
  8
Cartouche
 62
     0
370
    -2
100
AcDbBlockReference
  2
_Dot
 10
352.0
 20
86.25000000000001
 30
0.0
 41
2.5
 42
2.5
 43
2.5
  0
INSERT
  5
16F
330
168
100
AcDbEntity
  8
Cartouche
 62
     0
370
    -2
100
AcDbBlockReference
  2
_Dot
 10
342.9999999999999
 20
86.25000000000001
 30
0.0
 41
2.5
 42
2.5
 43
2.5
 50
180.0
  0
MTEXT
  5
170
330
168
100
AcDbEntity
  8
Cartouche
 62
     0
100
AcDbMText
 10
347.4999999999999
 20
88.88375000000002
 30
0.0
 40
2.5
 41
0.0
 46
0.0
 71
     5
 72
     1
  1
\A1;%%c9
  7
COMIC SANS MS
 73
     1
 44
1.0
  0
POINT
  5
171
330
168
100
AcDbEntity
  8
Defpoints
 62
     0
100
AcDbPoint
 10
352.0
 20
95.51282473009493
 30
0.0
  0
POINT
  5
172
330
168
100
AcDbEntity
  8
Defpoints
 62
     0
100
AcDbPoint
 10
342.9999999999999
 20
95.51282473009493
 30
0.0
  0
POINT
  5
173
330
168
100
AcDbEntity
  8
Defpoints
 62
     0
100
AcDbPoint
 10
342.9999999999999
 20
86.25000000000001
 30
0.0
  0
ENDBLK
  5
16A
330
168
100
AcDbEntity
  8
0
100
AcDbBlockEnd
  0
BLOCK
  5
176
330
175
100
AcDbEntity
  8
0
100
AcDbBlockBegin
  2
*D12
 70
     1
 10
0.0
 20
0.0
 30
0.0
  3
*D12
  1

  0
LINE
  5
178
330
175
100
AcDbEntity
  8
Cartouche
 62
     0
370
    -2
100
AcDbLine
 10
156.5
 20
135.0625
 30
0.0
 11
156.5
 21
145.0
 31
0.0
  0
LINE
  5
179
330
175
100
AcDbEntity
  8
Cartouche
 62
     0
370
    -2
100
AcDbLine
 10
168.5
 20
135.0625
 30
0.0
 11
168.5
 21
145.0
 31
0.0
  0
LINE
  5
17A
330
175
100
AcDbEntity
  8
Cartouche
 62
     0
370
    -2
100
AcDbLine
 10
159.0
 20
143.75
 30
0.0
 11
166.0
 21
143.75
 31
0.0
  0
INSERT
  5
17B
330
175
100
AcDbEntity
  8
Cartouche
 62
     0
370
    -2
100
AcDbBlockReference
  2
_Dot
 10
156.5
 20
143.75
 30
0.0
 41
2.5
 42
2.5
 43
2.5
 50
180.0
  0
INSERT
  5
17C
330
175
100
AcDbEntity
  8
Cartouche
 62
     0
370
    -2
100
AcDbBlockReference
  2
_Dot
 10
168.5
 20
143.75
 30
0.0
 41
2.5
 42
2.5
 43
2.5
  0
MTEXT
  5
17D
330
175
100
AcDbEntity
  8
Cartouche
 62
     0
100
AcDbMText
 10
162.5
 20
146.3933984375
 30
0.0
 40
2.5
 41
0.0
 46
0.0
 71
     5
 72
     1
  1
\A1;%%c12
  7
COMIC SANS MS
 73
     1
 44
1.0
  0
POINT
  5
17E
330
175
100
AcDbEntity
  8
Defpoints
 62
     0
100
AcDbPoint
 10
156.5
 20
135.0
 30
0.0
  0
POINT
  5
17F
330
175
100
AcDbEntity
  8
Defpoints
 62
     0
100
AcDbPoint
 10
168.5
 20
135.0
 30
0.0
  0
POINT
  5
180
330
175
100
AcDbEntity
  8
Defpoints
 62
     0
100
AcDbPoint
 10
168.5
 20
143.75
 30
0.0
  0
ENDBLK
  5
177
330
175
100
AcDbEntity
  8
0
100
AcDbBlockEnd
  0
BLOCK
  5
183
330
182
100
AcDbEntity
  8
0
100
AcDbBlockBegin
  2
*D13
 70
     1
 10
0.0
 20
0.0
 30
0.0
  3
*D13
  1

  0
LINE
  5
185
330
182
100
AcDbEntity
  8
Cartouche
 62
     0
370
    -2
100
AcDbLine
 10
198.0
 20
135.0625
 30
0.0
 11
198.0
 21
145.0
 31
0.0
  0
LINE
  5
186
330
182
100
AcDbEntity
  8
Cartouche
 62
     0
370
    -2
100
AcDbLine
 10
207.0
 20
135.0625
 30
0.0
 11
207.0
 21
145.0
 31
0.0
  0
LINE
  5
187
330
182
100
AcDbEntity
  8
Cartouche
 62
     0
370
    -2
100
AcDbLine
 10
200.5
 20
143.75
 30
0.0
 11
204.5
 21
143.75
 31
0.0
  0
INSERT
  5
188
330
182
100
AcDbEntity
  8
Cartouche
 62
     0
370
    -2
100
AcDbBlockReference
  2
_Dot
 10
198.0
 20
143.75
 30
0.0
 41
2.5
 42
2.5
 43
2.5
 50
180.0
  0
INSERT
  5
189
330
182
100
AcDbEntity
  8
Cartouche
 62
     0
370
    -2
100
AcDbBlockReference
  2
_Dot
 10
207.0
 20
143.75
 30
0.0
 41
2.5
 42
2.5
 43
2.5
  0
MTEXT
  5
18A
330
182
100
AcDbEntity
  8
Cartouche
 62
     0
100
AcDbMText
 10
202.5
 20
146.38375
 30
0.0
 40
2.5
 41
0.0
 46
0.0
 71
     5
 72
     1
  1
\A1;%%c9
  7
COMIC SANS MS
 73
     1
 44
1.0
  0
POINT
  5
18B
330
182
100
AcDbEntity
  8
Defpoints
 62
     0
100
AcDbPoint
 10
198.0
 20
135.0
 30
0.0
  0
POINT
  5
18C
330
182
100
AcDbEntity
  8
Defpoints
 62
     0
100
AcDbPoint
 10
207.0
 20
135.0
 30
0.0
  0
POINT
  5
18D
330
182
100
AcDbEntity
  8
Defpoints
 62
     0
100
AcDbPoint
 10
207.0
 20
143.75
 30
0.0
  0
ENDBLK
  5
184
330
182
100
AcDbEntity
  8
0
100
AcDbBlockEnd
  0
BLOCK
  5
190
330
18F
100
AcDbEntity
  8
0
100
AcDbBlockBegin
  2
*D14
 70
     1
 10
0.0
 20
0.0
 30
0.0
  3
*D14
  1

  0
LINE
  5
192
330
18F
100
AcDbEntity
  8
Cartouche
 62
     0
370
    -2
100
AcDbLine
 10
253.0
 20
135.0625
 30
0.0
 11
253.0
 21
145.0
 31
0.0
  0
LINE
  5
193
330
18F
100
AcDbEntity
  8
Cartouche
 62
     0
370
    -2
100
AcDbLine
 10
262.0
 20
135.0625
 30
0.0
 11
262.0
 21
145.0
 31
0.0
  0
LINE
  5
194
330
18F
100
AcDbEntity
  8
Cartouche
 62
     0
370
    -2
100
AcDbLine
 10
255.5
 20
143.75
 30
0.0
 11
259.5
 21
143.75
 31
0.0
  0
INSERT
  5
195
330
18F
100
AcDbEntity
  8
Cartouche
 62
     0
370
    -2
100
AcDbBlockReference
  2
_Dot
 10
253.0
 20
143.75
 30
0.0
 41
2.5
 42
2.5
 43
2.5
 50
180.0
  0
INSERT
  5
196
330
18F
100
AcDbEntity
  8
Cartouche
 62
     0
370
    -2
100
AcDbBlockReference
  2
_Dot
 10
262.0
 20
143.75
 30
0.0
 41
2.5
 42
2.5
 43
2.5
  0
MTEXT
  5
197
330
18F
100
AcDbEntity
  8
Cartouche
 62
     0
100
AcDbMText
 10
257.5
 20
146.38375
 30
0.0
 40
2.5
 41
0.0
 46
0.0
 71
     5
 72
     1
  1
\A1;%%c9
  7
COMIC SANS MS
 73
     1
 44
1.0
  0
POINT
  5
198
330
18F
100
AcDbEntity
  8
Defpoints
 62
     0
100
AcDbPoint
 10
253.0
 20
135.0
 30
0.0
  0
POINT
  5
199
330
18F
100
AcDbEntity
  8
Defpoints
 62
     0
100
AcDbPoint
 10
262.0
 20
135.0
 30
0.0
  0
POINT
  5
19A
330
18F
100
AcDbEntity
  8
Defpoints
 62
     0
100
AcDbPoint
 10
262.0
 20
143.75
 30
0.0
  0
ENDBLK
  5
191
330
18F
100
AcDbEntity
  8
0
100
AcDbBlockEnd
  0
BLOCK
  5
19D
330
19C
100
AcDbEntity
  8
0
100
AcDbBlockBegin
  2
*D15
 70
     1
 10
0.0
 20
0.0
 30
0.0
  3
*D15
  1

  0
LINE
  5
19F
330
19C
100
AcDbEntity
  8
Cartouche
 62
     0
370
    -2
100
AcDbLine
 10
130.4375
 20
135.0
 30
0.0
 11
107.5
 21
135.0
 31
0.0
  0
LINE
  5
1A0
330
19C
100
AcDbEntity
  8
Cartouche
 62
     0
370
    -2
100
AcDbLine
 10
130.4375
 20
95.00000000000001
 30
0.0
 11
107.5
 21
95.00000000000001
 31
0.0
  0
LINE
  5
1A1
330
19C
100
AcDbEntity
  8
Cartouche
 62
     0
370
    -2
100
AcDbLine
 10
108.75
 20
132.5
 30
0.0
 11
108.75
 21
97.50000000000001
 31
0.0
  0
INSERT
  5
1A2
330
19C
100
AcDbEntity
  8
Cartouche
 62
     0
370
    -2
100
AcDbBlockReference
  2
_Dot
 10
108.75
 20
135.0
 30
0.0
 41
2.5
 42
2.5
 43
2.5
 50
89.99999999999999
  0
INSERT
  5
1A3
330
19C
100
AcDbEntity
  8
Cartouche
 62
     0
370
    -2
100
AcDbBlockReference
  2
_Dot
 10
108.75
 20
95.00000000000001
 30
0.0
 41
2.5
 42
2.5
 43
2.5
 50
270.0
  0
MTEXT
  5
1A4
330
19C
100
AcDbEntity
  8
Cartouche
 62
     0
100
AcDbMText
 10
106.1053515625
 20
117.5
 30
0.0
 40
2.5
 41
0.0
 46
0.0
 71
     5
 72
     1
  1
\A1;%%c40
  7
COMIC SANS MS
 11
3.552713678800504E-16
 21
1.0
 31
0.0
 73
     1
 44
1.0
  0
POINT
  5
1A5
330
19C
100
AcDbEntity
  8
Defpoints
 62
     0
100
AcDbPoint
 10
130.5
 20
135.0
 30
0.0
  0
POINT
  5
1A6
330
19C
100
AcDbEntity
  8
Defpoints
 62
     0
100
AcDbPoint
 10
130.5
 20
95.00000000000001
 30
0.0
  0
POINT
  5
1A7
330
19C
100
AcDbEntity
  8
Defpoints
 62
     0
100
AcDbPoint
 10
108.75
 20
95.00000000000003
 30
0.0
  0
ENDBLK
  5
19E
330
19C
100
AcDbEntity
  8
0
100
AcDbBlockEnd
  0
BLOCK
  5
1AA
330
1A9
100
AcDbEntity
  8
0
100
AcDbBlockBegin
  2
*D16
 70
     1
 10
0.0
 20
0.0
 30
0.0
  3
*D16
  1

  0
LINE
  5
1AC
330
1A9
100
AcDbEntity
  8
Cartouche
 62
     0
370
    -2
100
AcDbLine
 10
127.4375
 20
101.6
 30
0.0
 11
115.0
 21
101.6
 31
0.0
  0
LINE
  5
1AD
330
1A9
100
AcDbEntity
  8
Cartouche
 62
     0
370
    -2
100
AcDbLine
 10
127.4375
 20
128.4
 30
0.0
 11
115.0
 21
128.4
 31
0.0
  0
LINE
  5
1AE
330
1A9
100
AcDbEntity
  8
Cartouche
 62
     0
370
    -2
100
AcDbLine
 10
116.25
 20
104.1
 30
0.0
 11
116.25
 21
125.9
 31
0.0
  0
INSERT
  5
1AF
330
1A9
100
AcDbEntity
  8
Cartouche
 62
     0
370
    -2
100
AcDbBlockReference
  2
_Dot
 10
116.25
 20
101.6
 30
0.0
 41
2.5
 42
2.5
 43
2.5
 50
270.0
  0
INSERT
  5
1B0
330
1A9
100
AcDbEntity
  8
Cartouche
 62
     0
370
    -2
100
AcDbBlockReference
  2
_Dot
 10
116.25
 20
128.4
 30
0.0
 41
2.5
 42
2.5
 43
2.5
 50
90.0
  0
MTEXT
  5
1B1
330
1A9
100
AcDbEntity
  8
Cartouche
 62
     0
100
AcDbMText
 10
113.5744140625
 20
115.0
 30
0.0
 40
2.5
 41
0.0
 46
0.0
 71
     5
 72
     1
  1
\A1;%%c26.8  ± 0.1mm
  7
COMIC SANS MS
 11
0.0
 21
1.0
 31
0.0
 73
     1
 44
1.0
  0
POINT
  5
1B2
330
1A9
100
AcDbEntity
  8
Defpoints
 62
     0
100
AcDbPoint
 10
127.5
 20
101.6
 30
0.0
  0
POINT
  5
1B3
330
1A9
100
AcDbEntity
  8
Defpoints
 62
     0
100
AcDbPoint
 10
127.5
 20
128.4
 30
0.0
  0
POINT
  5
1B4
330
1A9
100
AcDbEntity
  8
Defpoints
 62
     0
100
AcDbPoint
 10
116.25
 20
128.4
 30
0.0
  0
ENDBLK
  5
1AB
330
1A9
100
AcDbEntity
  8
0
100
AcDbBlockEnd
  0
BLOCK
  5
1B7
330
1B6
100
AcDbEntity
  8
0
100
AcDbBlockBegin
  2
*D17
 70
     1
 10
0.0
 20
0.0
 30
0.0
  3
*D17
  1

  0
LINE
  5
1B9
330
1B6
100
AcDbEntity
  8
Cartouche
 62
     0
370
    -2
100
AcDbLine
 10
186.1875
 20
128.0
 30
0.0
 11
180.0
 21
128.0
 31
0.0
  0
LINE
  5
1BA
330
1B6
100
AcDbEntity
  8
Cartouche
 62
     0
370
    -2
100
AcDbLine
 10
186.1875
 20
102.0
 30
0.0
 11
180.0
 21
102.0
 31
0.0
  0
LINE
  5
1BB
330
1B6
100
AcDbEntity
  8
Cartouche
 62
     0
370
    -2
100
AcDbLine
 10
181.25
 20
125.5
 30
0.0
 11
181.25
 21
104.5
 31
0.0
  0
INSERT
  5
1BC
330
1B6
100
AcDbEntity
  8
Cartouche
 62
     0
370
    -2
100
AcDbBlockReference
  2
_Dot
 10
181.25
 20
128.0
 30
0.0
 41
2.5
 42
2.5
 43
2.5
 50
90.0
  0
INSERT
  5
1BD
330
1B6
100
AcDbEntity
  8
Cartouche
 62
     0
370
    -2
100
AcDbBlockReference
  2
_Dot
 10
181.25
 20
102.0
 30
0.0
 41
2.5
 42
2.5
 43
2.5
 50
270.0
  0
MTEXT
  5
1BE
330
1B6
100
AcDbEntity
  8
Cartouche
 62
     0
100
AcDbMText
 10
178.5744140625
 20
115.0
 30
0.0
 40
2.5
 41
0.0
 46
0.0
 71
     5
 72
     1
  1
\A1;%%c26  ± 0.1mm
  7
COMIC SANS MS
 11
0.0
 21
1.0
 31
0.0
 73
     1
 44
1.0
  0
POINT
  5
1BF
330
1B6
100
AcDbEntity
  8
Defpoints
 62
     0
100
AcDbPoint
 10
186.25
 20
128.0
 30
0.0
  0
POINT
  5
1C0
330
1B6
100
AcDbEntity
  8
Defpoints
 62
     0
100
AcDbPoint
 10
186.25
 20
102.0
 30
0.0
  0
POINT
  5
1C1
330
1B6
100
AcDbEntity
  8
Defpoints
 62
     0
100
AcDbPoint
 10
181.25
 20
102.0
 30
0.0
  0
ENDBLK
  5
1B8
330
1B6
100
AcDbEntity
  8
0
100
AcDbBlockEnd
  0
BLOCK
  5
1C4
330
1C3
100
AcDbEntity
  8
0
100
AcDbBlockBegin
  2
*D18
 70
     1
 10
0.0
 20
0.0
 30
0.0
  3
*D18
  1

  0
LINE
  5
1C6
330
1C3
100
AcDbEntity
  8
Cartouche
 62
     0
370
    -2
100
AcDbLine
 10
274.5625
 20
102.0
 30
0.0
 11
297.5
 21
102.0
 31
0.0
  0
LINE
  5
1C7
330
1C3
100
AcDbEntity
  8
Cartouche
 62
     0
370
    -2
100
AcDbLine
 10
274.5625
 20
128.0
 30
0.0
 11
297.5
 21
128.0
 31
0.0
  0
LINE
  5
1C8
330
1C3
100
AcDbEntity
  8
Cartouche
 62
     0
370
    -2
100
AcDbLine
 10
296.25
 20
104.5
 30
0.0
 11
296.25
 21
125.5
 31
0.0
  0
INSERT
  5
1C9
330
1C3
100
AcDbEntity
  8
Cartouche
 62
     0
370
    -2
100
AcDbBlockReference
  2
_Dot
 10
296.25
 20
102.0
 30
0.0
 41
2.5
 42
2.5
 43
2.5
 50
270.0
  0
INSERT
  5
1CA
330
1C3
100
AcDbEntity
  8
Cartouche
 62
     0
370
    -2
100
AcDbBlockReference
  2
_Dot
 10
296.25
 20
128.0
 30
0.0
 41
2.5
 42
2.5
 43
2.5
 50
90.0
  0
MTEXT
  5
1CB
330
1C3
100
AcDbEntity
  8
Cartouche
 62
     0
100
AcDbMText
 10
293.5744140625
 20
115.0
 30
0.0
 40
2.5
 41
0.0
 46
0.0
 71
     5
 72
     1
  1
\A1;%%c26  ± 0.1mm
  7
COMIC SANS MS
 11
0.0
 21
1.0
 31
0.0
 73
     1
 44
1.0
  0
POINT
  5
1CC
330
1C3
100
AcDbEntity
  8
Defpoints
 62
     0
100
AcDbPoint
 10
274.5
 20
102.0
 30
0.0
  0
POINT
  5
1CD
330
1C3
100
AcDbEntity
  8
Defpoints
 62
     0
100
AcDbPoint
 10
274.5
 20
128.0
 30
0.0
  0
POINT
  5
1CE
330
1C3
100
AcDbEntity
  8
Defpoints
 62
     0
100
AcDbPoint
 10
296.25
 20
128.0
 30
0.0
  0
ENDBLK
  5
1C5
330
1C3
100
AcDbEntity
  8
0
100
AcDbBlockEnd
  0
BLOCK
  5
1D1
330
1D0
100
AcDbEntity
  8
0
100
AcDbBlockBegin
  2
*D19
 70
     1
 10
0.0
 20
0.0
 30
0.0
  3
*D19
  1

  0
LINE
  5
1D3
330
1D0
100
AcDbEntity
  8
Cartouche
 62
     0
370
    -2
100
AcDbLine
 10
277.5625
 20
135.0
 30
0.0
 11
307.5
 21
135.0
 31
0.0
  0
LINE
  5
1D4
330
1D0
100
AcDbEntity
  8
Cartouche
 62
     0
370
    -2
100
AcDbLine
 10
277.5625
 20
95.00000000000001
 30
0.0
 11
307.5
 21
95.00000000000001
 31
0.0
  0
LINE
  5
1D5
330
1D0
100
AcDbEntity
  8
Cartouche
 62
     0
370
    -2
100
AcDbLine
 10
306.25
 20
132.5
 30
0.0
 11
306.25
 21
97.50000000000001
 31
0.0
  0
INSERT
  5
1D6
330
1D0
100
AcDbEntity
  8
Cartouche
 62
     0
370
    -2
100
AcDbBlockReference
  2
_Dot
 10
306.25
 20
135.0
 30
0.0
 41
2.5
 42
2.5
 43
2.5
 50
90.0
  0
INSERT
  5
1D7
330
1D0
100
AcDbEntity
  8
Cartouche
 62
     0
370
    -2
100
AcDbBlockReference
  2
_Dot
 10
306.25
 20
95.00000000000001
 30
0.0
 41
2.5
 42
2.5
 43
2.5
 50
270.0
  0
MTEXT
  5
1D8
330
1D0
100
AcDbEntity
  8
Cartouche
 62
     0
100
AcDbMText
 10
303.6053515625
 20
117.5
 30
0.0
 40
2.5
 41
0.0
 46
0.0
 71
     5
 72
     1
  1
\A1;%%c40
  7
COMIC SANS MS
 11
0.0
 21
1.0
 31
0.0
 73
     1
 44
1.0
  0
POINT
  5
1D9
330
1D0
100
AcDbEntity
  8
Defpoints
 62
     0
100
AcDbPoint
 10
277.5
 20
135.0
 30
0.0
  0
POINT
  5
1DA
330
1D0
100
AcDbEntity
  8
Defpoints
 62
     0
100
AcDbPoint
 10
277.5
 20
95.00000000000001
 30
0.0
  0
POINT
  5
1DB
330
1D0
100
AcDbEntity
  8
Defpoints
 62
     0
100
AcDbPoint
 10
306.25
 20
95.00000000000001
 30
0.0
  0
ENDBLK
  5
1D2
330
1D0
100
AcDbEntity
  8
0
100
AcDbBlockEnd
  0
BLOCK
  5
1DE
330
1DD
100
AcDbEntity
  8
0
100
AcDbBlockBegin
  2
*D20
 70
     1
 10
0.0
 20
0.0
 30
0.0
  3
*D20
  1

  0
LINE
  5
1E0
330
1DD
100
AcDbEntity
  8
Cartouche
 62
     0
370
    -2
100
AcDbLine
 10
127.5
 20
101.5375
 30
0.0
 11
127.5
 21
87.50000000000003
 31
0.0
  0
LINE
  5
1E1
330
1DD
100
AcDbEntity
  8
Cartouche
 62
     0
370
    -2
100
AcDbLine
 10
162.5
 20
114.9375
 30
0.0
 11
162.5
 21
87.50000000000003
 31
0.0
  0
LINE
  5
1E2
330
1DD
100
AcDbEntity
  8
Cartouche
 62
     0
370
    -2
100
AcDbLine
 10
130.0
 20
88.75000000000003
 30
0.0
 11
160.0
 21
88.75000000000003
 31
0.0
  0
INSERT
  5
1E3
330
1DD
100
AcDbEntity
  8
Cartouche
 62
     0
370
    -2
100
AcDbBlockReference
  2
_Dot
 10
127.5
 20
88.75000000000003
 30
0.0
 41
2.5
 42
2.5
 43
2.5
 50
180.0
  0
INSERT
  5
1E4
330
1DD
100
AcDbEntity
  8
Cartouche
 62
     0
370
    -2
100
AcDbBlockReference
  2
_Dot
 10
162.5
 20
88.75000000000003
 30
0.0
 41
2.5
 42
2.5
 43
2.5
  0
MTEXT
  5
1E5
330
1DD
100
AcDbEntity
  8
Cartouche
 62
     0
100
AcDbMText
 10
145.0
 20
91.35875000000003
 30
0.0
 40
2.5
 41
0.0
 46
0.0
 71
     5
 72
     1
  1
\A1;35
  7
COMIC SANS MS
 73
     1
 44
1.0
  0
POINT
  5
1E6
330
1DD
100
AcDbEntity
  8
Defpoints
 62
     0
100
AcDbPoint
 10
127.5
 20
101.6
 30
0.0
  0
POINT
  5
1E7
330
1DD
100
AcDbEntity
  8
Defpoints
 62
     0
100
AcDbPoint
 10
162.5
 20
115.0
 30
0.0
  0
POINT
  5
1E8
330
1DD
100
AcDbEntity
  8
Defpoints
 62
     0
100
AcDbPoint
 10
162.5
 20
88.75000000000003
 30
0.0
  0
ENDBLK
  5
1DF
330
1DD
100
AcDbEntity
  8
0
100
AcDbBlockEnd
  0
BLOCK
  5
1EB
330
1EA
100
AcDbEntity
  8
0
100
AcDbBlockBegin
  2
*D21
 70
     1
 10
0.0
 20
0.0
 30
0.0
  3
*D21
  1

  0
LINE
  5
1ED
330
1EA
100
AcDbEntity
  8
Cartouche
 62
     0
370
    -2
100
AcDbLine
 10
162.5
 20
85.06249999999999
 30
0.0
 11
162.5
 21
90.00000000000003
 31
0.0
  0
LINE
  5
1EE
330
1EA
100
AcDbEntity
  8
Cartouche
 62
     0
370
    -2
100
AcDbLine
 10
202.5
 20
92.93750000000001
 30
0.0
 11
202.5
 21
87.50000000000003
 31
0.0
  0
LINE
  5
1EF
330
1EA
100
AcDbEntity
  8
Cartouche
 62
     0
370
    -2
100
AcDbLine
 10
165.0
 20
88.75000000000003
 30
0.0
 11
200.0
 21
88.75000000000003
 31
0.0
  0
INSERT
  5
1F0
330
1EA
100
AcDbEntity
  8
Cartouche
 62
     0
370
    -2
100
AcDbBlockReference
  2
_Dot
 10
162.5
 20
88.75000000000003
 30
0.0
 41
2.5
 42
2.5
 43
2.5
 50
180.0
  0
INSERT
  5
1F1
330
1EA
100
AcDbEntity
  8
Cartouche
 62
     0
370
    -2
100
AcDbBlockReference
  2
_Dot
 10
202.5
 20
88.75000000000003
 30
0.0
 41
2.5
 42
2.5
 43
2.5
  0
MTEXT
  5
1F2
330
1EA
100
AcDbEntity
  8
Cartouche
 62
     0
100
AcDbMText
 10
182.5000000000001
 20
91.35125000000002
 30
0.0
 40
2.5
 41
0.0
 46
0.0
 71
     5
 72
     1
  1
\A1;40
  7
COMIC SANS MS
 73
     1
 44
1.0
  0
POINT
  5
1F3
330
1EA
100
AcDbEntity
  8
Defpoints
 62
     0
100
AcDbPoint
 10
162.5
 20
84.99999999999999
 30
0.0
  0
POINT
  5
1F4
330
1EA
100
AcDbEntity
  8
Defpoints
 62
     0
100
AcDbPoint
 10
202.5
 20
93.00000000000001
 30
0.0
  0
POINT
  5
1F5
330
1EA
100
AcDbEntity
  8
Defpoints
 62
     0
100
AcDbPoint
 10
202.5
 20
88.75000000000003
 30
0.0
  0
ENDBLK
  5
1EC
330
1EA
100
AcDbEntity
  8
0
100
AcDbBlockEnd
  0
BLOCK
  5
1F8
330
1F7
100
AcDbEntity
  8
0
100
AcDbBlockBegin
  2
*D22
 70
     1
 10
0.0
 20
0.0
 30
0.0
  3
*D22
  1

  0
LINE
  5
1FA
330
1F7
100
AcDbEntity
  8
Cartouche
 62
     0
370
    -2
100
AcDbLine
 10
202.5
 20
92.93750000000001
 30
0.0
 11
202.5
 21
87.50000000000003
 31
0.0
  0
LINE
  5
1FB
330
1F7
100
AcDbEntity
  8
Cartouche
 62
     0
370
    -2
100
AcDbLine
 10
257.5
 20
85.06249999999999
 30
0.0
 11
257.5
 21
90.00000000000003
 31
0.0
  0
LINE
  5
1FC
330
1F7
100
AcDbEntity
  8
Cartouche
 62
     0
370
    -2
100
AcDbLine
 10
205.0
 20
88.75000000000003
 30
0.0
 11
255.0
 21
88.75000000000003
 31
0.0
  0
INSERT
  5
1FD
330
1F7
100
AcDbEntity
  8
Cartouche
 62
     0
370
    -2
100
AcDbBlockReference
  2
_Dot
 10
202.5
 20
88.75000000000003
 30
0.0
 41
2.5
 42
2.5
 43
2.5
 50
180.0
  0
INSERT
  5
1FE
330
1F7
100
AcDbEntity
  8
Cartouche
 62
     0
370
    -2
100
AcDbBlockReference
  2
_Dot
 10
257.5
 20
88.75000000000003
 30
0.0
 41
2.5
 42
2.5
 43
2.5
  0
MTEXT
  5
1FF
330
1F7
100
AcDbEntity
  8
Cartouche
 62
     0
100
AcDbMText
 10
235.0
 20
91.35875000000003
 30
0.0
 40
2.5
 41
0.0
 46
0.0
 71
     5
 72
     1
  1
\A1;55
  7
COMIC SANS MS
 73
     1
 44
1.0
  0
POINT
  5
200
330
1F7
100
AcDbEntity
  8
Defpoints
 62
     0
100
AcDbPoint
 10
202.5
 20
93.00000000000001
 30
0.0
  0
POINT
  5
201
330
1F7
100
AcDbEntity
  8
Defpoints
 62
     0
100
AcDbPoint
 10
257.5
 20
84.99999999999999
 30
0.0
  0
POINT
  5
202
330
1F7
100
AcDbEntity
  8
Defpoints
 62
     0
100
AcDbPoint
 10
257.5
 20
88.75000000000003
 30
0.0
  0
ENDBLK
  5
1F9
330
1F7
100
AcDbEntity
  8
0
100
AcDbBlockEnd
  0
BLOCK
  5
205
330
204
100
AcDbEntity
  8
0
100
AcDbBlockBegin
  2
*D23
 70
     1
 10
0.0
 20
0.0
 30
0.0
  3
*D23
  1

  0
LINE
  5
207
330
204
100
AcDbEntity
  8
Cartouche
 62
     0
370
    -2
100
AcDbLine
 10
257.5
 20
85.06249999999999
 30
0.0
 11
257.5
 21
90.00000000000003
 31
0.0
  0
LINE
  5
208
330
204
100
AcDbEntity
  8
Cartouche
 62
     0
370
    -2
100
AcDbLine
 10
277.5
 20
98.93750000000001
 30
0.0
 11
277.5
 21
87.50000000000003
 31
0.0
  0
LINE
  5
209
330
204
100
AcDbEntity
  8
Cartouche
 62
     0
370
    -2
100
AcDbLine
 10
260.0
 20
88.75000000000003
 30
0.0
 11
275.0
 21
88.75000000000003
 31
0.0
  0
INSERT
  5
20A
330
204
100
AcDbEntity
  8
Cartouche
 62
     0
370
    -2
100
AcDbBlockReference
  2
_Dot
 10
257.5
 20
88.75000000000003
 30
0.0
 41
2.5
 42
2.5
 43
2.5
 50
180.0
  0
INSERT
  5
20B
330
204
100
AcDbEntity
  8
Cartouche
 62
     0
370
    -2
100
AcDbBlockReference
  2
_Dot
 10
277.5
 20
88.75000000000003
 30
0.0
 41
2.5
 42
2.5
 43
2.5
  0
MTEXT
  5
20C
330
204
100
AcDbEntity
  8
Cartouche
 62
     0
100
AcDbMText
 10
270.0
 20
91.34750000000003
 30
0.0
 40
2.5
 41
0.0
 46
0.0
 71
     5
 72
     1
  1
\A1;20
  7
COMIC SANS MS
 73
     1
 44
1.0
  0
POINT
  5
20D
330
204
100
AcDbEntity
  8
Defpoints
 62
     0
100
AcDbPoint
 10
257.5
 20
84.99999999999999
 30
0.0
  0
POINT
  5
20E
330
204
100
AcDbEntity
  8
Defpoints
 62
     0
100
AcDbPoint
 10
277.5
 20
99.00000000000001
 30
0.0
  0
POINT
  5
20F
330
204
100
AcDbEntity
  8
Defpoints
 62
     0
100
AcDbPoint
 10
277.5
 20
88.75000000000003
 30
0.0
  0
ENDBLK
  5
206
330
204
100
AcDbEntity
  8
0
100
AcDbBlockEnd
  0
BLOCK
  5
26B
330
225
100
AcDbEntity
  8
0
100
AcDbBlockBegin
  2
D_FRAME_VIEW@239
 70
     0
 10
0.0
 20
0.0
 30
0.0
  3
D_FRAME_VIEW@239
  1

  0
HATCH
  5
228
330
225
100
AcDbEntity
  8
Cartouche
 62
   253
420
 11316396
100
AcDbHatch
 10
0.0
 20
0.0
 30
0.0
210
0.0
220
0.0
230
1.0
  2

 70
     0
 71
     1
 91
        1
 92
        3
 72
     0
 73
     1
 93
        4
 10
253.0
 20
135.0
 10
207.0
 20
135.0
 10
207.0
 20
128.0
 10
253.0
 20
128.0
 97
        0
 75
     0
 76
     0
 52
0.0
 41
1.0
 77
     0
 78
     1
 53
45.0
 43
0.0
 44
0.0
 45
-1.25
 46
1.25
 79
     0
 98
        0
  0
HATCH
  5
229
330
225
100
AcDbEntity
  8
Cartouche
 62
   253
420
 11316396
100
AcDbHatch
 10
0.0
 20
0.0
 30
0.0
210
0.0
220
0.0
230
1.0
  2

 70
     0
 71
     1
 91
        1
 92
        3
 72
     0
 73
     1
 93
        4
 10
253.0
 20
102.0
 10
207.0
 20
102.0
 10
207.0
 20
95.00000000000001
 10
253.0
 20
95.00000000000001
 97
        0
 75
     0
 76
     0
 52
0.0
 41
1.0
 77
     0
 78
     1
 53
45.0
 43
0.0
 44
0.0
 45
-1.25
 46
1.25
 79
     0
 98
        0
  0
HATCH
  5
22A
330
225
100
AcDbEntity
  8
Cartouche
 62
   253
420
 11316396
100
AcDbHatch
 10
0.0
 20
0.0
 30
0.0
210
0.0
220
0.0
230
1.0
  2

 70
     0
 71
     1
 91
        1
 92
        3
 72
     0
 73
     1
 93
        6
 10
174.5
 20
128.0
 10
198.0
 20
128.0
 10
198.0
 20
135.0
 10
168.5
 20
134.9999999999999
 10
168.5
 20
128.4
 10
174.5
 20
128.4
 97
        0
 75
     0
 76
     0
 52
0.0
 41
1.0
 77
     0
 78
     1
 53
45.0
 43
0.0
 44
0.0
 45
-1.25
 46
1.25
 79
     0
 98
        0
  0
HATCH
  5
22B
330
225
100
AcDbEntity
  8
Cartouche
 62
   253
420
 11316396
100
AcDbHatch
 10
0.0
 20
0.0
 30
0.0
210
0.0
220
0.0
230
1.0
  2

 70
     0
 71
     1
 91
        1
 92
        3
 72
     0
 73
     1
 93
        6
 10
198.0
 20
102.0
 10
174.5
 20
102.0
 10
174.5
 20
101.6
 10
168.5
 20
101.6
 10
168.5
 20
95.00000000000001
 10
198.0
 20
95.00000000000001
 97
        0
 75
     0
 76
     0
 52
0.0
 41
1.0
 77
     0
 78
     1
 53
45.0
 43
0.0
 44
0.0
 45
-1.25
 46
1.25
 79
     0
 98
        0
  0
HATCH
  5
22C
330
225
100
AcDbEntity
  8
Cartouche
 62
   253
420
 11316396
100
AcDbHatch
 10
0.0
 20
0.0
 30
0.0
210
0.0
220
0.0
230
1.0
  2

 70
     0
 71
     1
 91
        1
 92
        3
 72
     0
 73
     1
 93
        5
 10
156.5
 20
101.6
 10
127.5
 20
101.6
 10
127.5
 20
98.00000000000001
 10
130.5
 20
95.00000000000001
 10
156.5
 20
94.99999999999999
 97
        0
 75
     0
 76
     0
 52
0.0
 41
1.0
 77
     0
 78
     1
 53
45.0
 43
0.0
 44
0.0
 45
-1.25
 46
1.25
 79
     0
 98
        0
  0
HATCH
  5
22D
330
225
100
AcDbEntity
  8
Cartouche
 62
   253
420
 11316396
100
AcDbHatch
 10
0.0
 20
0.0
 30
0.0
210
0.0
220
0.0
230
1.0
  2

 70
     0
 71
     1
 91
        1
 92
        3
 72
     0
 73
     1
 93
        5
 10
156.5
 20
135.0
 10
130.5
 20
135.0
 10
127.5
 20
132.0
 10
127.5
 20
128.4
 10
156.5
 20
128.3999999999999
 97
        0
 75
     0
 76
     0
 52
0.0
 41
1.0
 77
     0
 78
     1
 53
45.0
 43
0.0
 44
0.0
 45
-1.25
 46
1.25
 79
     0
 98
        0
  0
HATCH
  5
22E
330
225
100
AcDbEntity
  8
Cartouche
 62
   253
420
 11316396
100
AcDbHatch
 10
0.0
 20
0.0
 30
0.0
210
0.0
220
0.0
230
1.0
  2

 70
     0
 71
     1
 91
        1
 92
        3
 72
     0
 73
     1
 93
        5
 10
262.0
 20
95.00000000000001
 10
277.5
 20
95.00000000000001
 10
277.5
 20
99.00000000000001
 10
274.5
 20
102.0
 10
262.0
 20
102.0
 97
        0
 75
     0
 76
     0
 52
0.0
 41
1.0
 77
     0
 78
     1
 53
45.0
 43
0.0
 44
0.0
 45
-1.25
 46
1.25
 79
     0
 98
        0
  0
HATCH
  5
22F
330
225
100
AcDbEntity
  8
Cartouche
 62
   253
420
 11316396
100
AcDbHatch
 10
0.0
 20
0.0
 30
0.0
210
0.0
220
0.0
230
1.0
  2

 70
     0
 71
     1
 91
        1
 92
        3
 72
     0
 73
     1
 93
        5
 10
262.0
 20
128.0
 10
274.5
 20
128.0
 10
277.5
 20
131.0
 10
277.5
 20
135.0
 10
262.0
 20
135.0
 97
        0
 75
     0
 76
     0
 52
0.0
 41
1.0
 77
     0
 78
     1
 53
45.0
 43
0.0
 44
0.0
 45
-1.25
 46
1.25
 79
     0
 98
        0
  0
MTEXT
  5
230
330
225
100
AcDbEntity
  8
Cartouche
 62
     7
420
 16777215
100
AcDbMText
 10
188.2840375586854
 20
160.2523474178404
 30
0.0
 40
3.5
 41
0.0
 46
0.0
 71
     1
 72
     1
  1
{\fArial;COUPE C - C}
 73
     1
 44
1.0
  0
LINE
  5
231
330
225
100
AcDbEntity
  8
Cartouche
  6
________________
 62
     7
370
    20
100
AcDbLine
 10
156.5
 20
101.6
 30
0.0
 11
156.5
 21
95.00000000000001
 31
0.0
  0
ARC
  5
232
330
225
100
AcDbEntity
  8
Cartouche
  6
________________
 62
     7
370
     9
100
AcDbCircle
 10
162.5
 20
89.6178211432518
 30
0.0
 40
13.40047051991475
100
AcDbArc
 50
63.400872465144
 51
116.599127534856
  0
LINE
  5
233
330
225
100
AcDbEntity
  8
Cartouche
  6
________________
 62
     7
370
    20
100
AcDbLine
 10
168.5
 20
95.00000000000001
 30
0.0
 11
168.5
 21
101.6
 31
0.0
  0
ARC
  5
234
330
225
100
AcDbEntity
  8
Cartouche
  6
________________
 62
     7
370
     9
100
AcDbCircle
 10
-162.5
 20
75.92112027002807
 30
0.0
 40
20.00009129355999
210
0.0
220
0.0
230
-1.0
100
AcDbArc
 50
72.54247912539746
 51
107.4575208746026
  0
ARC
  5
235
330
225
100
AcDbEntity
  8
Cartouche
  6
________________
 62
     7
370
     9
100
AcDbCircle
 10
162.5
 20
140.3818816930195
 30
0.0
 40
13.40020480834209
100
AcDbArc
 50
243.4003035621777
 51
296.5996964378222
  0
LINE
  5
236
330
225
100
AcDbEntity
  8
Cartouche
  6
________________
 62
     7
370
    20
100
AcDbLine
 10
168.5
 20
128.4
 30
0.0
 11
174.5
 21
128.4
 31
0.0
  0
LINE
  5
237
330
225
100
AcDbEntity
  8
Cartouche
  6
________________
 62
     7
370
    20
100
AcDbLine
 10
174.5
 20
101.6
 30
0.0
 11
168.5
 21
101.6
 31
0.0
  0
LINE
  5
238
330
225
100
AcDbEntity
  8
Cartouche
  6
________________
 62
     7
370
    20
100
AcDbLine
 10
156.5
 20
101.6
 30
0.0
 11
127.5
 21
101.6
 31
0.0
  0
LINE
  5
239
330
225
100
AcDbEntity
  8
Cartouche
  6
________________
 62
     7
370
     9
100
AcDbLine
 10
127.5
 20
128.4
 30
0.0
 11
127.5
 21
101.6
 31
0.0
  0
LINE
  5
23A
330
225
100
AcDbEntity
  8
Cartouche
  6
________________
 62
     7
370
    20
100
AcDbLine
 10
127.5
 20
128.4
 30
0.0
 11
156.5
 21
128.4
 31
0.0
  0
LINE
  5
23B
330
225
100
AcDbEntity
  8
Cartouche
  6
________________
 62
     7
370
    20
100
AcDbLine
 10
156.5
 20
135.0
 30
0.0
 11
156.5
 21
128.4
 31
0.0
  0
ARC
  5
23C
330
225
100
AcDbEntity
  8
Cartouche
  6
________________
 62
     7
370
     9
100
AcDbCircle
 10
-162.5
 20
154.0792441565505
 30
0.0
 40
20.0004389348151
210
0.0
220
0.0
230
-1.0
100
AcDbArc
 50
252.5427923186677
 51
287.4572076813322
  0
LINE
  5
23D
330
225
100
AcDbEntity
  8
Cartouche
  6
________________
 62
     7
370
    20
100
AcDbLine
 10
168.5
 20
128.4
 30
0.0
 11
168.5
 21
135.0
 31
0.0
  0
LINE
  5
23E
330
225
100
AcDbEntity
  8
Cartouche
  6
________________
 62
     7
370
    20
100
AcDbLine
 10
168.5
 20
95.00000000000001
 30
0.0
 11
198.0
 21
95.00000000000001
 31
0.0
  0
ARC
  5
23F
330
225
100
AcDbEntity
  8
Cartouche
  6
________________
 62
     7
370
     9
100
AcDbCircle
 10
-202.5
 20
75.5126440785052
 30
0.0
 40
20.0001760195009
210
0.0
220
0.0
230
-1.0
100
AcDbArc
 50
76.99723828001484
 51
103.0027617199852
  0
LINE
  5
240
330
225
100
AcDbEntity
  8
Cartouche
  6
________________
 62
     7
370
    20
100
AcDbLine
 10
207.0
 20
95.00000000000001
 30
0.0
 11
253.0
 21
95.00000000000001
 31
0.0
  0
ARC
  5
241
330
225
100
AcDbEntity
  8
Cartouche
  6
________________
 62
     7
370
     9
100
AcDbCircle
 10
-257.5
 20
75.5126440785052
 30
0.0
 40
20.0001760195009
210
0.0
220
0.0
230
-1.0
100
AcDbArc
 50
76.99723828001484
 51
103.0027617199852
  0
LINE
  5
242
330
225
100
AcDbEntity
  8
Cartouche
  6
________________
 62
     7
370
    20
100
AcDbLine
 10
262.0
 20
95.00000000000001
 30
0.0
 11
277.5
 21
95.00000000000001
 31
0.0
  0
LINE
  5
243
330
225
100
AcDbEntity
  8
Cartouche
  6
________________
 62
     7
370
    20
100
AcDbLine
 10
277.5
 20
135.0
 30
0.0
 11
262.0
 21
135.0
 31
0.0
  0
ARC
  5
244
330
225
100
AcDbEntity
  8
Cartouche
  6
________________
 62
     7
370
     9
100
AcDbCircle
 10
-257.5
 20
154.4872817681022
 30
0.0
 40
20.000103767466
210
0.0
220
0.0
230
-1.0
100
AcDbArc
 50
256.9971904830736
 51
283.0028095169263
  0
LINE
  5
245
330
225
100
AcDbEntity
  8
Cartouche
  6
________________
 62
     7
370
    20
100
AcDbLine
 10
253.0
 20
135.0
 30
0.0
 11
207.0
 21
135.0
 31
0.0
  0
ARC
  5
246
330
225
100
AcDbEntity
  8
Cartouche
  6
________________
 62
     7
370
     9
100
AcDbCircle
 10
-202.5
 20
154.4872817681022
 30
0.0
 40
20.000103767466
210
0.0
220
0.0
230
-1.0
100
AcDbArc
 50
256.9971904830736
 51
283.0028095169263
  0
LINE
  5
247
330
225
100
AcDbEntity
  8
Cartouche
  6
________________
 62
     7
370
    20
100
AcDbLine
 10
198.0
 20
135.0
 30
0.0
 11
168.5
 21
135.0
 31
0.0
  0
LINE
  5
248
330
225
100
AcDbEntity
  8
Cartouche
  6
________________
 62
     7
370
    20
100
AcDbLine
 10
156.5
 20
135.0
 30
0.0
 11
130.5
 21
135.0
 31
0.0
  0
LINE
  5
249
330
225
100
AcDbEntity
  8
Cartouche
  6
________________
 62
     7
370
    20
100
AcDbLine
 10
130.5
 20
95.00000000000001
 30
0.0
 11
156.5
 21
95.00000000000001
 31
0.0
  0
ARC
  5
24A
330
225
100
AcDbEntity
  8
Cartouche
  6
________________
 62
     7
370
     9
100
AcDbCircle
 10
257.5
 20
89.80237504719273
 30
0.0
 40
13.00123280652059
100
AcDbArc
 50
69.7497577955825
 51
110.2502422044175
  0
LINE
  5
24B
330
225
100
AcDbEntity
  8
Cartouche
  6
________________
 62
     7
370
    20
100
AcDbLine
 10
253.0
 20
102.0
 30
0.0
 11
207.0
 21
102.0
 31
0.0
  0
ARC
  5
24C
330
225
100
AcDbEntity
  8
Cartouche
  6
________________
 62
     7
370
     9
100
AcDbCircle
 10
202.5
 20
89.80237504719273
 30
0.0
 40
13.00123280652059
100
AcDbArc
 50
69.7497577955825
 51
110.2502422044175
  0
LINE
  5
24D
330
225
100
AcDbEntity
  8
Cartouche
  6
________________
 62
     7
370
    20
100
AcDbLine
 10
198.0
 20
102.0
 30
0.0
 11
174.5
 21
102.0
 31
0.0
  0
LINE
  5
24E
330
225
100
AcDbEntity
  8
Cartouche
  6
________________
 62
     7
370
     9
100
AcDbLine
 10
174.5
 20
128.0
 30
0.0
 11
174.5
 21
102.0
 31
0.0
  0
LINE
  5
24F
330
225
100
AcDbEntity
  8
Cartouche
  6
________________
 62
     7
370
    20
100
AcDbLine
 10
174.5
 20
128.0
 30
0.0
 11
198.0
 21
128.0
 31
0.0
  0
ARC
  5
250
330
225
100
AcDbEntity
  8
Cartouche
  6
________________
 62
     7
370
     9
100
AcDbCircle
 10
202.5
 20
140.1981322447968
 30
0.0
 40
13.00170874391326
100
AcDbArc
 50
249.7505315589815
 51
290.2494684410185
  0
LINE
  5
251
330
225
100
AcDbEntity
  8
Cartouche
  6
________________
 62
     7
370
    20
100
AcDbLine
 10
207.0
 20
128.0
 30
0.0
 11
253.0
 21
128.0
 31
0.0
  0
ARC
  5
252
330
225
100
AcDbEntity
  8
Cartouche
  6
________________
 62
     7
370
     9
100
AcDbCircle
 10
257.5
 20
140.1981322447965
 30
0.0
 40
13.00170874391303
100
AcDbArc
 50
249.7505315589812
 51
290.2494684410188
  0
LINE
  5
253
330
225
100
AcDbEntity
  8
Cartouche
  6
________________
 62
     7
370
    20
100
AcDbLine
 10
262.0
 20
128.0
 30
0.0
 11
274.5
 21
128.0
 31
0.0
  0
LINE
  5
254
330
225
100
AcDbEntity
  8
Cartouche
  6
________________
 62
     7
370
     9
100
AcDbLine
 10
274.5
 20
128.0
 30
0.0
 11
274.5
 21
102.0
 31
0.0
  0
LINE
  5
255
330
225
100
AcDbEntity
  8
Cartouche
  6
________________
 62
     7
370
    20
100
AcDbLine
 10
274.5
 20
102.0
 30
0.0
 11
262.0
 21
102.0
 31
0.0
  0
LINE
  5
256
330
225
100
AcDbEntity
  8
Cartouche
  6
________________
 62
     7
370
    20
100
AcDbLine
 10
253.0
 20
102.0
 30
0.0
 11
253.0
 21
95.00000000000001
 31
0.0
  0
LINE
  5
257
330
225
100
AcDbEntity
  8
Cartouche
  6
________________
 62
     7
370
    20
100
AcDbLine
 10
262.0
 20
95.00000000000001
 30
0.0
 11
262.0
 21
102.0
 31
0.0
  0
LINE
  5
258
330
225
100
AcDbEntity
  8
Cartouche
  6
________________
 62
     7
370
    20
100
AcDbLine
 10
198.0
 20
102.0
 30
0.0
 11
198.0
 21
95.00000000000001
 31
0.0
  0
LINE
  5
259
330
225
100
AcDbEntity
  8
Cartouche
  6
________________
 62
     7
370
    20
100
AcDbLine
 10
207.0
 20
95.00000000000001
 30
0.0
 11
207.0
 21
102.0
 31
0.0
  0
LINE
  5
25A
330
225
100
AcDbEntity
  8
Cartouche
  6
________________
 62
     7
370
    20
100
AcDbLine
 10
253.0
 20
135.0
 30
0.0
 11
253.0
 21
128.0
 31
0.0
  0
LINE
  5
25B
330
225
100
AcDbEntity
  8
Cartouche
  6
________________
 62
     7
370
    20
100
AcDbLine
 10
262.0
 20
128.0
 30
0.0
 11
262.0
 21
135.0
 31
0.0
  0
LINE
  5
25C
330
225
100
AcDbEntity
  8
Cartouche
  6
________________
 62
     7
370
    20
100
AcDbLine
 10
198.0
 20
135.0
 30
0.0
 11
198.0
 21
128.0
 31
0.0
  0
LINE
  5
25D
330
225
100
AcDbEntity
  8
Cartouche
  6
________________
 62
     7
370
    20
100
AcDbLine
 10
207.0
 20
128.0
 30
0.0
 11
207.0
 21
135.0
 31
0.0
  0
LINE
  5
25E
330
225
100
AcDbEntity
  8
Cartouche
  6
________________
 62
     7
370
    20
100
AcDbLine
 10
277.5
 20
131.0
 30
0.0
 11
277.5
 21
135.0
 31
0.0
  0
LINE
  5
25F
330
225
100
AcDbEntity
  8
Cartouche
  6
________________
 62
     7
370
    20
100
AcDbLine
 10
277.5
 20
131.0
 30
0.0
 11
274.5
 21
128.0
 31
0.0
  0
LINE
  5
260
330
225
100
AcDbEntity
  8
Cartouche
  6
________________
 62
     7
370
    20
100
AcDbLine
 10
274.5
 20
102.0
 30
0.0
 11
277.5
 21
99.00000000000001
 31
0.0
  0
LINE
  5
261
330
225
100
AcDbEntity
  8
Cartouche
  6
________________
 62
     7
370
    20
100
AcDbLine
 10
277.5
 20
95.00000000000001
 30
0.0
 11
277.5
 21
99.00000000000001
 31
0.0
  0
LINE
  5
262
330
225
100
AcDbEntity
  8
Cartouche
  6
________________
 62
     7
370
    20
100
AcDbLine
 10
174.5
 20
102.0
 30
0.0
 11
174.5
 21
101.6
 31
0.0
  0
LINE
  5
263
330
225
100
AcDbEntity
  8
Cartouche
  6
________________
 62
     7
370
    20
100
AcDbLine
 10
174.5
 20
128.4
 30
0.0
 11
174.5
 21
128.0
 31
0.0
  0
LINE
  5
264
330
225
100
AcDbEntity
  8
Cartouche
  6
________________
 62
     7
370
    20
100
AcDbLine
 10
127.5
 20
128.4
 30
0.0
 11
127.5
 21
132.0
 31
0.0
  0
LINE
  5
265
330
225
100
AcDbEntity
  8
Cartouche
  6
________________
 62
     7
370
    20
100
AcDbLine
 10
127.5
 20
132.0
 30
0.0
 11
130.5
 21
135.0
 31
0.0
  0
LINE
  5
266
330
225
100
AcDbEntity
  8
Cartouche
  6
________________
 62
     7
370
    20
100
AcDbLine
 10
130.5
 20
95.00000000000001
 30
0.0
 11
127.5
 21
98.00000000000001
 31
0.0
  0
LINE
  5
267
330
225
100
AcDbEntity
  8
Cartouche
  6
________________
 62
     7
370
    20
100
AcDbLine
 10
127.5
 20
98.00000000000001
 30
0.0
 11
127.5
 21
101.6
 31
0.0
  0
LINE
  5
268
330
225
100
AcDbEntity
  8
Cartouche
  6
________________
 62
     7
370
     9
100
AcDbLine
 10
277.5
 20
99.00000000000001
 30
0.0
 11
277.5
 21
131.0
 31
0.0
  0
ENDBLK
  5
26C
330
225
100
AcDbEntity
  8
0
100
AcDbBlockEnd
  0
BLOCK
  5
27E
330
26A
100
AcDbEntity
  8
0
100
AcDbBlockBegin
  2
D_FRAME_VIEW@256
 70
     0
 10
0.0
 20
0.0
 30
0.0
  3
D_FRAME_VIEW@256
  1

  0
HATCH
  5
26D
330
26A
100
AcDbEntity
  8
Cartouche
 62
   253
420
 11316396
100
AcDbHatch
 10
0.0
 20
0.0
 30
0.0
210
0.0
220
0.0
230
1.0
  2

 70
     0
 71
     1
 91
        1
 92
        3
 72
     0
 73
     1
 93
       66
 10
352.0
 20
127.1963109176505
 10
352.9140187771999
 20
126.8189847567431
 10
353.7967129593583
 20
126.3732759531918
 10
354.6429754275416
 20
125.8617633025921
 10
355.4479098505392
 20
125.2874063304461
 10
356.2068590142051
 20
124.6535281688487
 10
356.91543176731
 20
123.9637963294092
 10
357.5695284279979
 20
123.2222014836503
 10
358.1653645038508
 20
122.4330343736593
 10
358.6994925883197
 20
121.6008609865813
 10
359.1688223068356
 20
120.730496136592
 10
359.5706381971921
 20
119.826975607198
 10
359.9026154207501
 20
118.8955270150482
 10
360.1628332135597
 20
117.9415395638285
 10
360.349785999575
 20
116.9705328632438
 10
360.4623921016623
 20
115.9881249934912
 10
360.5
 20
115.0
 10
360.4623921016623
 20
114.0118750065089
 10
360.349785999575
 20
113.0294671367562
 10
360.1628332135597
 20
112.0584604361715
 10
359.9026154207501
 20
111.1044729849519
 10
359.5706381971921
 20
110.173024392802
 10
359.1688223068356
 20
109.2695038634081
 10
358.6994925883197
 20
108.3991390134187
 10
358.1653645038507
 20
107.5669656263408
 10
357.5695284279979
 20
106.7777985163497
 10
356.91543176731
 20
106.0362036705909
 10
356.2068590142051
 20
105.3464718311513
 10
355.4479098505392
 20
104.712593669554
 10
354.6429754275416
 20
104.1382366974079
 10
353.7967129593583
 20
103.6267240468083
 10
352.9140187771999
 20
103.1810152432569
 10
352.0
 20
102.8036890823495
 10
352.0
 20
95.51282473009493
 10
353.6189571207147
 20
95.95903458973642
 10
355.1947736754728
 20
96.53948922474652
 10
356.7163396635543
 20
97.2500962479794
 10
358.1729275677416
 20
98.08584565715032
 10
359.5542679866787
 20
99.04084515692227
 10
360.8506220373705
 20
100.1083617014354
 10
362.0528500173605
 20
101.280868964391
 10
363.1524758424985
 20
102.5501004020113
 10
364.1417468059915
 20
103.9071075347648
 10
365.0136882374163
 20
105.3423230369522
 10
365.7621526763332
 20
106.8456281893518
 10
366.3818632138087
 20
108.4064242193621
 10
366.8684506962783
 20
110.0137070256716
 10
367.2184845294482
 20
111.6561447606226
 10
367.4294968650611
 20
113.3221577232892
 10
367.5
 20
115.0
 10
367.4294968650611
 20
116.6778422767108
 10
367.2184845294482
 20
118.3438552393775
 10
366.8684506962783
 20
119.9862929743284
 10
366.3818632138087
 20
121.5935757806379
 10
365.7621526763332
 20
123.1543718106483
 10
365.0136882374163
 20
124.6576769630478
 10
364.1417468059915
 20
126.0928924652352
 10
363.1524758424985
 20
127.4498995979888
 10
362.0528500173604
 20
128.7191310356091
 10
360.8506220373705
 20
129.8916382985647
 10
359.5542679866787
 20
130.9591548430778
 10
358.1729275677416
 20
131.9141543428497
 10
356.7163396635543
 20
132.7499037520207
 10
355.1947736754727
 20
133.4605107752535
 10
353.6189571207147
 20
134.0409654102636
 10
352.0
 20
134.4871752699051
 97
        0
 75
     0
 76
     0
 52
0.0
 41
1.0
 77
     0
 78
     1
 53
45.0
 43
0.0
 44
0.0
 45
-1.25
 46
1.25
 79
     0
 98
        0
  0
HATCH
  5
26E
330
26A
100
AcDbEntity
  8
Cartouche
 62
   253
420
 11316396
100
AcDbHatch
 10
0.0
 20
0.0
 30
0.0
210
0.0
220
0.0
230
1.0
  2

 70
     0
 71
     1
 91
        1
 92
        3
 72
     0
 73
     1
 93
       66
 10
342.9999999999999
 20
134.4871752699051
 10
341.3810428792852
 20
134.0409654102636
 10
339.8052263245272
 20
133.4605107752535
 10
338.2836603364457
 20
132.7499037520207
 10
336.8270724322584
 20
131.9141543428497
 10
335.4457320133212
 20
130.9591548430778
 10
334.1493779626294
 20
129.8916382985647
 10
332.9471499826395
 20
128.7191310356091
 10
331.8475241575015
 20
127.4498995979888
 10
330.8582531940085
 20
126.0928924652353
 10
329.9863117625836
 20
124.6576769630478
 10
329.2378473236667
 20
123.1543718106483
 10
328.6181367861911
 20
121.5935757806379
 10
328.1315493037217
 20
119.9862929743284
 10
327.7815154705518
 20
118.3438552393775
 10
327.5705031349389
 20
116.6778422767108
 10
327.4999999999999
 20
115.0
 10
327.5705031349389
 20
113.3221577232892
 10
327.7815154705518
 20
111.6561447606225
 10
328.1315493037217
 20
110.0137070256716
 10
328.6181367861912
 20
108.4064242193621
 10
329.2378473236668
 20
106.8456281893517
 10
329.9863117625836
 20
105.3423230369522
 10
330.8582531940085
 20
103.9071075347647
 10
331.8475241575015
 20
102.5501004020112
 10
332.9471499826396
 20
101.2808689643909
 10
334.1493779626296
 20
100.1083617014353
 10
335.4457320133213
 20
99.04084515692219
 10
336.8270724322585
 20
98.08584565715023
 10
338.2836603364458
 20
97.25009624797931
 10
339.8052263245273
 20
96.53948922474645
 10
341.3810428792854
 20
95.95903458973636
 10
342.9999999999999
 20
95.51282473009493
 10
342.9999999999999
 20
102.8036890823495
 10
342.0859812228
 20
103.1810152432569
 10
341.2032870406417
 20
103.6267240468083
 10
340.3570245724584
 20
104.1382366974079
 10
339.5520901494608
 20
104.712593669554
 10
338.7931409857948
 20
105.3464718311513
 10
338.0845682326899
 20
106.0362036705909
 10
337.430471572002
 20
106.7777985163497
 10
336.8346354961492
 20
107.5669656263408
 10
336.3005074116803
 20
108.3991390134187
 10
335.8311776931643
 20
109.2695038634081
 10
335.4293618028078
 20
110.173024392802
 10
335.0973845792498
 20
111.1044729849519
 10
334.8371667864403
 20
112.0584604361715
 10
334.6502140004249
 20
113.0294671367562
 10
334.5376078983376
 20
114.0118750065089
 10
334.4999999999999
 20
115.0
 10
334.5376078983376
 20
115.9881249934912
 10
334.6502140004249
 20
116.9705328632438
 10
334.8371667864403
 20
117.9415395638285
 10
335.0973845792498
 20
118.8955270150482
 10
335.4293618028078
 20
119.826975607198
 10
335.8311776931643
 20
120.7304961365919
 10
336.3005074116802
 20
121.6008609865813
 10
336.8346354961492
 20
122.4330343736593
 10
337.430471572002
 20
123.2222014836503
 10
338.0845682326899
 20
123.9637963294092
 10
338.7931409857948
 20
124.6535281688487
 10
339.5520901494608
 20
125.287406330446
 10
340.3570245724583
 20
125.8617633025921
 10
341.2032870406417
 20
126.3732759531918
 10
342.0859812228
 20
126.8189847567431
 10
342.9999999999999
 20
127.1963109176505
 97
        0
 75
     0
 76
     0
 52
0.0
 41
1.0
 77
     0
 78
     1
 53
45.0
 43
0.0
 44
0.0
 45
-1.25
 46
1.25
 79
     0
 98
        0
  0
MTEXT
  5
26F
330
26A
100
AcDbEntity
  8
Cartouche
 62
     7
420
 16777215
100
AcDbMText
 10
331.0821596244132
 20
157.7523474178404
 30
0.0
 40
3.5
 41
0.0
 46
0.0
 71
     1
 72
     1
  1
{\fArial;COUPE B - B}
 73
     1
 44
1.0
  0
LINE
  5
270
330
26A
100
AcDbEntity
  8
Cartouche
  6
________________
 62
     7
370
    20
100
AcDbLine
 10
342.9999999999999
 20
102.8036890823495
 30
0.0
 11
342.9999999999999
 21
95.51282473009493
 31
0.0
  0
ARC
  5
271
330
26A
100
AcDbEntity
  8
Cartouche
  6
________________
 62
     7
370
     9
100
AcDbCircle
 10
-347.4999999999999
 20
115.0000000000001
 30
0.0
 40
13.00000000000011
210
0.0
220
0.0
230
-1.0
100
AcDbArc
 50
249.7477532578125
 51
290.2522467421875
  0
LINE
  5
272
330
26A
100
AcDbEntity
  8
Cartouche
  6
________________
 62
     7
370
    20
100
AcDbLine
 10
352.0
 20
95.51282473009493
 30
0.0
 11
352.0
 21
102.8036890823495
 31
0.0
  0
ARC
  5
273
330
26A
100
AcDbEntity
  8
Cartouche
  6
________________
 62
     7
370
     9
100
AcDbCircle
 10
347.4999999999999
 20
115.0
 30
0.0
 40
20.0
100
AcDbArc
 50
256.9971218370861
 51
283.0028781629139
  0
LINE
  5
274
330
26A
100
AcDbEntity
  8
Cartouche
  6
________________
 62
     7
370
    20
100
AcDbLine
 10
342.9999999999999
 20
134.4871752699051
 30
0.0
 11
342.9999999999999
 21
127.1963109176505
 31
0.0
  0
ARC
  5
275
330
26A
100
AcDbEntity
  8
Cartouche
  6
________________
 62
     7
370
     9
100
AcDbCircle
 10
347.4999999999999
 20
114.9999719031891
 30
0.0
 40
20.0000273763749
100
AcDbArc
 50
76.99713994763391
 51
103.0028600523661
  0
LINE
  5
276
330
26A
100
AcDbEntity
  8
Cartouche
  6
________________
 62
     7
370
    20
100
AcDbLine
 10
352.0
 20
127.1963109176505
 30
0.0
 11
352.0
 21
134.4871752699051
 31
0.0
  0
ARC
  5
277
330
26A
100
AcDbEntity
  8
Cartouche
  6
________________
 62
     7
370
     9
100
AcDbCircle
 10
-347.4999999999999
 20
115.0000000000001
 30
0.0
 40
12.9999999999999
210
0.0
220
0.0
230
-1.0
100
AcDbArc
 50
69.74775325781219
 51
110.2522467421878
  0
ARC
  5
278
330
26A
100
AcDbEntity
  8
Cartouche
  6
________________
 62
     7
370
    20
100
AcDbCircle
 10
347.4999999999999
 20
115.0
 30
0.0
 40
19.99999999999999
100
AcDbArc
 50
103.002878162914
 51
256.9971218370861
  0
ARC
  5
279
330
26A
100
AcDbEntity
  8
Cartouche
  6
________________
 62
     7
370
    20
100
AcDbCircle
 10
-347.4999999999999
 20
115.0
 30
0.0
 40
13.0
210
0.0
220
0.0
230
-1.0
100
AcDbArc
 50
290.2522467421876
 51
69.74775325781239
  0
ARC
  5
27A
330
26A
100
AcDbEntity
  8
Cartouche
  6
________________
 62
     7
370
    20
100
AcDbCircle
 10
347.4999999999999
 20
115.0
 30
0.0
 40
20.0
100
AcDbArc
 50
283.0028781629139
 51
76.99712183708607
  0
ARC
  5
27B
330
26A
100
AcDbEntity
  8
Cartouche
  6
________________
 62
     7
370
    20
100
AcDbCircle
 10
-347.4999999999999
 20
115.0
 30
0.0
 40
13.0
210
0.0
220
0.0
230
-1.0
100
AcDbArc
 50
110.2522467421877
 51
249.7477532578123
  0
ENDBLK
  5
27F
330
26A
100
AcDbEntity
  8
0
100
AcDbBlockEnd
  0
BLOCK
  5
292
330
27D
100
AcDbEntity
  8
0
100
AcDbBlockBegin
  2
D_FRAME_VIEW@270
 70
     0
 10
0.0
 20
0.0
 30
0.0
  3
D_FRAME_VIEW@270
  1

  0
HATCH
  5
280
330
27D
100
AcDbEntity
  8
Cartouche
 62
   253
420
 11316396
100
AcDbHatch
 10
0.0
 20
0.0
 30
0.0
210
0.0
220
0.0
230
1.0
  2

 70
     0
 71
     1
 91
        1
 92
        3
 72
     0
 73
     1
 93
       62
 10
78.49999999999999
 20
126.9816526406002
 10
79.42729251247778
 20
126.470510818903
 10
80.3113323713686
 20
125.8877493810249
 10
81.14659980546242
 20
125.2370069749013
 10
81.92787956898837
 20
124.5223467082779
 10
82.65029350458478
 20
123.7482307794653
 10
83.30933100155538
 20
122.9194926162485
 10
83.90087715923647
 20
122.0413066969136
 10
84.42123847962826
 20
121.1191562418221
 10
84.86716592887078
 20
120.1587989772599
 10
85.23587522357302
 20
119.1662311853255
 10
85.52506421533151
 20
118.1476502643227
 10
85.73292726489265
 20
117.1094160334227
 10
85.85816651620951
 20
116.0580110232031
 10
85.9
 20
115.0
 10
85.85816651620951
 20
113.9419889767969
 10
85.73292726489265
 20
112.8905839665773
 10
85.52506421533151
 20
111.8523497356773
 10
85.23587522357302
 20
110.8337688146745
 10
84.86716592887078
 20
109.8412010227401
 10
84.42123847962826
 20
108.8808437581779
 10
83.90087715923647
 20
107.9586933030864
 10
83.30933100155538
 20
107.0805073837516
 10
82.65029350458478
 20
106.2517692205347
 10
81.92787956898837
 20
105.4776532917221
 10
81.14659980546242
 20
104.7629930250987
 10
80.3113323713686
 20
104.1122506189751
 10
79.42729251247778
 20
103.5294891810971
 10
78.5
 20
103.0183473593999
 10
78.49999999999999
 20
95.92121597166111
 10
79.98938172386411
 20
96.45521201538692
 10
81.43189097070248
 20
97.10527106415181
 10
82.81849976143421
 20
97.86732470764473
 10
84.1405299713377
 20
98.73660361466929
 10
85.38970764230454
 20
99.70766738211876
 10
86.5582147656069
 20
100.7744385838705
 10
87.63873821109452
 20
101.9302408065051
 10
88.62451549659708
 20
103.1678404338008
 10
89.50937711108271
 20
104.4794919184968
 10
90.28778512669231
 20
105.8569862579879
 10
90.95486785799531
 20
107.2917023705665
 10
91.50645035155091
 20
108.7746610506713
 10
91.93908051495549
 20
110.2965811654631
 10
92.25005072184646
 20
111.8479377410193
 10
92.43741475764759
 20
113.4190215746143
 10
92.49999999999997
 20
115.0
 10
92.43741475764757
 20
116.5809784253857
 10
92.25005072184646
 20
118.1520622589807
 10
91.9390805149555
 20
119.7034188345369
 10
91.50645035155091
 20
121.2253389493287
 10
90.95486785799531
 20
122.7082976294335
 10
90.2877851266923
 20
124.1430137420121
 10
89.5093771110827
 20
125.5205080815032
 10
88.62451549659707
 20
126.8321595661992
 10
87.63873821109452
 20
128.0697591934949
 10
86.55821476560689
 20
129.2255614161294
 10
85.38970764230454
 20
130.2923326178812
 10
84.14052997133768
 20
131.2633963853307
 10
82.8184997614342
 20
132.1326752923553
 10
81.43189097070248
 20
132.8947289358481
 10
79.9893817238641
 20
133.5447879846131
 10
78.5
 20
134.0787840283389
 97
        0
 75
     0
 76
     0
 52
0.0
 41
1.0
 77
     0
 78
     1
 53
45.0
 43
0.0
 44
0.0
 45
-1.25
 46
1.25
 79
     0
 98
        0
  0
HATCH
  5
281
330
27D
100
AcDbEntity
  8
Cartouche
 62
   253
420
 11316396
100
AcDbHatch
 10
0.0
 20
0.0
 30
0.0
210
0.0
220
0.0
230
1.0
  2

 70
     0
 71
     1
 91
        1
 92
        3
 72
     0
 73
     1
 93
       62
 10
66.50000000000001
 20
134.0787840283389
 10
65.01061827613589
 20
133.5447879846131
 10
63.5681090292975
 20
132.8947289358482
 10
62.18150023856578
 20
132.1326752923553
 10
60.85947002866229
 20
131.2633963853307
 10
59.61029235769544
 20
130.2923326178812
 10
58.44178523439308
 20
129.2255614161295
 10
57.36126178890547
 20
128.069759193495
 10
56.3754845034029
 20
126.8321595661992
 10
55.49062288891727
 20
125.5205080815033
 10
54.71221487330767
 20
124.1430137420121
 10
54.04513214200467
 20
122.7082976294335
 10
53.49354964844906
 20
121.2253389493287
 10
53.06091948504448
 20
119.7034188345369
 10
52.7499492781535
 20
118.1520622589807
 10
52.56258524235238
 20
116.5809784253857
 10
52.50000000000001
 20
115.0
 10
52.56258524235239
 20
113.4190215746143
 10
52.7499492781535
 20
111.8479377410193
 10
53.06091948504449
 20
110.2965811654631
 10
53.49354964844907
 20
108.7746610506713
 10
54.04513214200468
 20
107.2917023705665
 10
54.71221487330768
 20
105.8569862579878
 10
55.49062288891729
 20
104.4794919184967
 10
56.37548450340292
 20
103.1678404338007
 10
57.36126178890547
 20
101.930240806505
 10
58.44178523439309
 20
100.7744385838705
 10
59.61029235769545
 20
99.70766738211873
 10
60.85947002866232
 20
98.73660361466926
 10
62.1815002385658
 20
97.86732470764468
 10
63.56810902929753
 20
97.10527106415178
 10
65.01061827613592
 20
96.45521201538689
 10
66.5
 20
95.92121597166107
 10
66.50000000000003
 20
103.0183473593999
 10
65.57270748752224
 20
103.5294891810971
 10
64.68866762863142
 20
104.1122506189751
 10
63.8534001945376
 20
104.7629930250987
 10
63.07212043101165
 20
105.4776532917221
 10
62.34970649541525
 20
106.2517692205347
 10
61.69066899844465
 20
107.0805073837516
 10
61.09912284076356
 20
107.9586933030864
 10
60.57876152037176
 20
108.8808437581779
 10
60.13283407112926
 20
109.8412010227401
 10
59.76412477642701
 20
110.8337688146745
 10
59.47493578466852
 20
111.8523497356773
 10
59.26707273510738
 20
112.8905839665773
 10
59.14183348379053
 20
113.9419889767969
 10
59.10000000000002
 20
115.0
 10
59.14183348379053
 20
116.0580110232031
 10
59.26707273510738
 20
117.1094160334227
 10
59.47493578466852
 20
118.1476502643226
 10
59.764124776427
 20
119.1662311853255
 10
60.13283407112925
 20
120.1587989772599
 10
60.57876152037176
 20
121.1191562418221
 10
61.09912284076355
 20
122.0413066969136
 10
61.69066899844465
 20
122.9194926162484
 10
62.34970649541524
 20
123.7482307794653
 10
63.07212043101164
 20
124.5223467082779
 10
63.85340019453758
 20
125.2370069749012
 10
64.68866762863142
 20
125.8877493810249
 10
65.57270748752222
 20
126.4705108189029
 10
66.5
 20
126.9816526406001
 97
        0
 75
     0
 76
     0
 52
0.0
 41
1.0
 77
     0
 78
     1
 53
45.0
 43
0.0
 44
0.0
 45
-1.25
 46
1.25
 79
     0
 98
        0
  0
MTEXT
  5
282
330
27D
100
AcDbEntity
  8
Cartouche
 62
     7
420
 16777215
100
AcDbMText
 10
58.84859154929578
 20
162.7523474178404
 30
0.0
 40
3.5
 41
0.0
 46
0.0
 71
     1
 72
     1
  1
{\fArial;COUPE A - A}
 73
     1
 44
1.0
  0
LINE
  5
283
330
27D
100
AcDbEntity
  8
Cartouche
  6
________________
 62
     7
370
    20
100
AcDbLine
 10
66.5
 20
103.0183473593999
 30
0.0
 11
66.5
 21
95.9212159716611
 31
0.0
  0
ARC
  5
284
330
27D
100
AcDbEntity
  8
Cartouche
  6
________________
 62
     7
370
     9
100
AcDbCircle
 10
-72.49999999999999
 20
115.0
 30
0.0
 40
13.39999999999996
210
0.0
220
0.0
230
-1.0
100
AcDbArc
 50
243.3998650390211
 51
296.6001349609788
  0
LINE
  5
285
330
27D
100
AcDbEntity
  8
Cartouche
  6
________________
 62
     7
370
    20
100
AcDbLine
 10
78.5
 20
95.92121597166108
 30
0.0
 11
78.5
 21
103.0183473593999
 31
0.0
  0
ARC
  5
286
330
27D
100
AcDbEntity
  8
Cartouche
  6
________________
 62
     7
370
     9
100
AcDbCircle
 10
72.50000000000001
 20
115.0000000000001
 30
0.0
 40
20.00000000000009
100
AcDbArc
 50
252.5423968762779
 51
287.4576031237219
  0
LINE
  5
287
330
27D
100
AcDbEntity
  8
Cartouche
  6
________________
 62
     7
370
    20
100
AcDbLine
 10
66.5
 20
134.0787840283389
 30
0.0
 11
66.5
 21
126.9816526406002
 31
0.0
  0
ARC
  5
288
330
27D
100
AcDbEntity
  8
Cartouche
  6
________________
 62
     7
370
     9
100
AcDbCircle
 10
72.50000000000001
 20
115.0000000000004
 30
0.0
 40
19.99999999999964
100
AcDbArc
 50
72.5423968762776
 51
107.4576031237224
  0
LINE
  5
289
330
27D
100
AcDbEntity
  8
Cartouche
  6
________________
 62
     7
370
    20
100
AcDbLine
 10
78.5
 20
126.9816526406001
 30
0.0
 11
78.5
 21
134.0787840283389
 31
0.0
  0
ARC
  5
28A
330
27D
100
AcDbEntity
  8
Cartouche
  6
________________
 62
     7
370
     9
100
AcDbCircle
 10
-72.49999999999999
 20
114.9996629816485
 30
0.0
 40
13.40030134688111
210
0.0
220
0.0
230
-1.0
100
AcDbArc
 50
63.40051025939074
 51
116.5994897406095
  0
ARC
  5
28B
330
27D
100
AcDbEntity
  8
Cartouche
  6
________________
 62
     7
370
    20
100
AcDbCircle
 10
72.50000000000001
 20
115.0
 30
0.0
 40
20.00000000000002
100
AcDbArc
 50
107.4576031237221
 51
252.5423968762779
  0
ARC
  5
28C
330
27D
100
AcDbEntity
  8
Cartouche
  6
________________
 62
     7
370
    20
100
AcDbCircle
 10
-72.50000000000001
 20
115.0
 30
0.0
 40
13.40000000000001
210
0.0
220
0.0
230
-1.0
100
AcDbArc
 50
296.6001349609788
 51
63.39986503902129
  0
ARC
  5
28D
330
27D
100
AcDbEntity
  8
Cartouche
  6
________________
 62
     7
370
    20
100
AcDbCircle
 10
72.50000000000001
 20
115.0
 30
0.0
 40
20.0
100
AcDbArc
 50
287.457603123722
 51
72.54239687627785
  0
ARC
  5
28E
330
27D
100
AcDbEntity
  8
Cartouche
  6
________________
 62
     7
370
    20
100
AcDbCircle
 10
-72.50000000000001
 20
115.0
 30
0.0
 40
13.40000000000001
210
0.0
220
0.0
230
-1.0
100
AcDbArc
 50
116.6001349609788
 51
243.3998650390212
  0
CIRCLE
  5
28F
330
27D
100
AcDbEntity
  8
Cartouche
  6
________________
 62
     7
370
     9
100
AcDbCircle
 10
-72.50000000000001
 20
115.0
 30
0.0
 40
13.0
210
0.0
220
0.0
230
-1.0
  0
ENDBLK
  5
293
330
27D
100
AcDbEntity
  8
0
100
AcDbBlockEnd
  0
BLOCK
  5
33E
330
291
100
AcDbEntity
  8
0
100
AcDbBlockBegin
  2
D_FRAME_VIEW@280
 70
     0
 10
0.0
 20
0.0
 30
0.0
  3
D_FRAME_VIEW@280
  1

  0
MTEXT
  5
294
330
291
100
AcDbEntity
  8
Cartouche
 62
     7
420
 16777215
100
AcDbMText
 10
186.0035211267606
 20
82.75000000000001
 30
0.0
 40
3.5
 41
0.0
 46
0.0
 71
     1
 72
     1
  1
{\fArial;VUE DE DESSUS}
 73
     1
 44
1.0
  0
LINE
  5
295
330
291
100
AcDbEntity
  8
Cartouche
  6
________________
 62
     7
370
     9
100
AcDbLine
 10
130.5
 20
67.50000000000001
 30
0.0
 11
130.5
 21
27.50000000000002
 31
0.0
  0
CIRCLE
  5
296
330
291
100
AcDbEntity
  8
Cartouche
  6
________________
 62
     7
370
     9
100
AcDbCircle
 10
162.4999828546305
 20
47.4995338887929
 30
0.0
 40
5.999982872735515
  0
CIRCLE
  5
297
330
291
100
AcDbEntity
  8
Cartouche
  6
________________
 62
     7
370
     9
100
AcDbCircle
 10
202.4999546951625
 20
47.49869207751677
 30
0.0
 40
4.499954885237834
  0
CIRCLE
  5
298
330
291
100
AcDbEntity
  8
Cartouche
  6
________________
 62
     7
370
     9
100
AcDbCircle
 10
257.4999546951624
 20
47.49869207751677
 30
0.0
 40
4.499954885237834
  0
LINE
  5
299
330
291
100
AcDbEntity
  8
Cartouche
  6
________________
 62
     7
370
     9
100
AcDbLine
 10
277.5
 20
27.5
 30
0.0
 11
277.5
 21
67.5
 31
0.0
  0
LINE
  5
29A
330
291
100
AcDbEntity
  8
Cartouche
  6
________________
 62
     7
370
     9
100
AcDbLine
 10
127.5
 20
30.50000000000002
 30
0.0
 11
127.5
 21
64.50000000000003
 31
0.0
  0
LINE
  5
29B
330
291
100
AcDbEntity
  8
Cartouche
  6
_..__..__..__.._
 62
     7
370
     9
100
AcDbLine
 10
274.5
 20
60.50000000000001
 30
0.0
 11
274.5
 21
34.5
 31
0.0
  0
LINE
  5
29D
330
291
100
AcDbEntity
  8
Cartouche
  6
_..__..__..__.._
 62
     7
370
     9
100
AcDbLine
 10
174.5
 20
34.10000000000002
 30
0.0
 11
174.5
 21
60.90000000000001
 31
0.0
  0
LINE
  5
29E
330
291
100
AcDbEntity
  8
Cartouche
  6
________________
 62
     7
370
     9
100
AcDbLine
 10
277.5
 20
67.5
 30
0.0
 11
130.5
 21
67.50000000000001
 31
0.0
  0
LINE
  5
29F
330
291
100
AcDbEntity
  8
Cartouche
  6
________________
 62
     7
370
     9
100
AcDbLine
 10
130.5
 20
27.50000000000002
 30
0.0
 11
277.4999999999999
 21
27.5
 31
0.0
  0
LINE
  5
2A0
330
291
100
AcDbEntity
  8
Cartouche
  6
________________
 62
     7
370
     9
100
AcDbLine
 10
130.5
 20
67.50000000000003
 30
0.0
 11
127.5
 21
64.50000000000003
 31
0.0
  0
LINE
  5
2A1
330
291
100
AcDbEntity
  8
Cartouche
  6
________________
 62
     7
370
     9
100
AcDbLine
 10
127.5
 20
30.50000000000002
 30
0.0
 11
130.5
 21
27.50000000000002
 31
0.0
  0
LINE
  5
2A2
330
291
100
AcDbEntity
  8
Cartouche
  6
_..__..__..__.._
 62
     7
370
     9
100
AcDbLine
 10
277.5
 20
63.5
 30
0.0
 11
274.5
 21
60.50000000000001
 31
0.0
  0
LINE
  5
2A3
330
291
100
AcDbEntity
  8
Cartouche
  6
_..__..__..__.._
 62
     7
370
     9
100
AcDbLine
 10
274.5
 20
34.5
 30
0.0
 11
277.5
 21
31.50000000000001
 31
0.0
  0
LINE
  5
2A4
330
291
100
AcDbEntity
  8
Cartouche
  6
_..__..__..__.._
 62
     7
370
     9
100
AcDbLine
 10
127.5
 20
34.10000000000002
 30
0.0
 11
174.5
 21
34.10000000000002
 31
0.0
  0
LINE
  5
2A5
330
291
100
AcDbEntity
  8
Cartouche
  6
_..__..__..__.._
 62
     7
370
     9
100
AcDbLine
 10
174.5
 20
60.90000000000001
 30
0.0
 11
127.5
 21
60.90000000000002
 31
0.0
  0
LINE
  5
2A6
330
291
100
AcDbEntity
  8
Cartouche
  6
_..__..__..__.._
 62
     7
370
     9
100
AcDbLine
 10
274.5
 20
60.50000000000001
 30
0.0
 11
174.5
 21
60.50000000000002
 31
0.0
  0
LINE
  5
2A7
330
291
100
AcDbEntity
  8
Cartouche
  6
_..__..__..__.._
 62
     7
370
     9
100
AcDbLine
 10
174.5
 20
34.50000000000001
 30
0.0
 11
274.4999999999999
 21
34.5
 31
0.0
  0
ENDBLK
  5
33F
330
291
100
AcDbEntity
  8
0
100
AcDbBlockEnd
  0
BLOCK
  5
2AB
330
2AA
100
AcDbEntity
  8
0
100
AcDbBlockBegin
  2
*D28
 70
     1
 10
0.0
 20
0.0
 30
0.0
  3
*D28
  1

  0
LINE
  5
2AD
330
2AA
100
AcDbEntity
  8
Cartouche
 62
     0
370
    -2
100
AcDbLine
 10
376.0424143693092
 20
96.30689602790082
 30
0.0
 11
368.0624143693092
 21
96.30689602790082
 31
0.0
  0
LINE
  5
2AE
330
2AA
100
AcDbEntity
  8
Cartouche
 62
     0
370
    -2
100
AcDbLine
 10
364.1486516514087
 20
99.86486213508302
 30
0.0
 11
368.0624143693092
 21
96.30689602790082
 31
0.0
  0
MTEXT
  5
2AF
330
2AA
100
AcDbEntity
  8
Cartouche
 62
     0
100
AcDbMText
 10
372.6774143693091
 20
98.9515444654008
 30
0.0
 40
2.5
 41
0.0
 46
0.0
 71
     5
 72
     1
  1
\A1;%%c40
  7
COMIC SANS MS
 73
     1
 44
1.0
  0
INSERT
  5
2B0
330
2AA
100
AcDbEntity
  8
Cartouche
 62
     0
370
    -2
100
AcDbBlockReference
  2
_Dot
 10
362.2988014679188
 20
101.5465441200738
 30
0.0
 41
2.5
 42
2.5
 43
2.5
 50
137.7263109939063
  0
LINE
  5
2B1
330
2AA
100
AcDbEntity
  8
Cartouche
 62
     0
100
AcDbLine
 10
347.41
 20
115.0
 30
0.0
 11
347.59
 21
115.0
 31
0.0
  0
LINE
  5
2B2
330
2AA
100
AcDbEntity
  8
Cartouche
 62
     0
100
AcDbLine
 10
347.5
 20
114.91
 30
0.0
 11
347.5
 21
115.09
 31
0.0
  0
POINT
  5
2B3
330
2AA
100
AcDbEntity
  8
Defpoints
 62
     0
100
AcDbPoint
 10
362.2988014679188
 20
101.5465441200738
 30
0.0
  0
POINT
  5
2B4
330
2AA
100
AcDbEntity
  8
Defpoints
 62
     0
100
AcDbPoint
 10
332.7011985320811
 20
128.4534558799262
 30
0.0
  0
ENDBLK
  5
2AC
330
2AA
100
AcDbEntity
  8
0
100
AcDbBlockEnd
  0
BLOCK
  5
2B7
330
2B6
100
AcDbEntity
  8
0
100
AcDbBlockBegin
  2
*D29
 70
     1
 10
0.0
 20
0.0
 30
0.0
  3
*D29
  1

  0
LINE
  5
2B9
330
2B6
100
AcDbEntity
  8
Cartouche
 62
     0
370
    -2
100
AcDbLine
 10
127.5
 20
30.43750000000002
 30
0.0
 11
127.5
 21
22.50000000000001
 31
0.0
  0
LINE
  5
2BA
330
2B6
100
AcDbEntity
  8
Cartouche
 62
     0
370
    -2
100
AcDbLine
 10
277.5
 20
27.4375
 30
0.0
 11
277.5
 21
22.50000000000001
 31
0.0
  0
LINE
  5
2BB
330
2B6
100
AcDbEntity
  8
Cartouche
 62
     0
370
    -2
100
AcDbLine
 10
130.0
 20
23.75000000000001
 30
0.0
 11
275.0
 21
23.75000000000001
 31
0.0
  0
INSERT
  5
2BC
330
2B6
100
AcDbEntity
  8
Cartouche
 62
     0
370
    -2
100
AcDbBlockReference
  2
_Dot
 10
127.5
 20
23.75000000000001
 30
0.0
 41
2.5
 42
2.5
 43
2.5
 50
180.0
  0
INSERT
  5
2BD
330
2B6
100
AcDbEntity
  8
Cartouche
 62
     0
370
    -2
100
AcDbBlockReference
  2
_Dot
 10
277.5
 20
23.75000000000001
 30
0.0
 41
2.5
 42
2.5
 43
2.5
  0
MTEXT
  5
2BE
330
2B6
100
AcDbEntity
  8
Cartouche
 62
     0
100
AcDbMText
 10
202.5
 20
26.37125000000001
 30
0.0
 40
2.5
 41
0.0
 46
0.0
 71
     5
 72
     1
  1
\A1;150
  7
COMIC SANS MS
 73
     1
 44
1.0
  0
POINT
  5
2BF
330
2B6
100
AcDbEntity
  8
Defpoints
 62
     0
100
AcDbPoint
 10
127.5
 20
30.50000000000002
 30
0.0
  0
POINT
  5
2C0
330
2B6
100
AcDbEntity
  8
Defpoints
 62
     0
100
AcDbPoint
 10
277.5
 20
27.5
 30
0.0
  0
POINT
  5
2C1
330
2B6
100
AcDbEntity
  8
Defpoints
 62
     0
100
AcDbPoint
 10
277.5
 20
23.75000000000001
 30
0.0
  0
ENDBLK
  5
2B8
330
2B6
100
AcDbEntity
  8
0
100
AcDbBlockEnd
  0
BLOCK
  5
2C4
330
2C3
100
AcDbEntity
  8
0
100
AcDbBlockBegin
  2
*D30
 70
     1
 10
0.0
 20
0.0
 30
0.0
  3
*D30
  1

  0
LINE
  5
2C6
330
2C3
100
AcDbEntity
  8
Cartouche
 62
     0
370
    -2
100
AcDbLine
 10
277.5624999999999
 20
27.5
 30
0.0
 11
292.4999999999999
 21
27.49999999999998
 31
0.0
  0
LINE
  5
2C7
330
2C3
100
AcDbEntity
  8
Cartouche
 62
     0
370
    -2
100
AcDbLine
 10
277.5625
 20
67.5
 30
0.0
 11
292.5
 21
67.49999999999997
 31
0.0
  0
LINE
  5
2C8
330
2C3
100
AcDbEntity
  8
Cartouche
 62
     0
370
    -2
100
AcDbLine
 10
291.2499999999999
 20
29.99999999999998
 30
0.0
 11
291.25
 21
64.99999999999997
 31
0.0
  0
INSERT
  5
2C9
330
2C3
100
AcDbEntity
  8
Cartouche
 62
     0
370
    -2
100
AcDbBlockReference
  2
_Dot
 10
291.2499999999999
 20
27.49999999999998
 30
0.0
 41
2.5
 42
2.5
 43
2.5
 50
269.9999999999999
  0
INSERT
  5
2CA
330
2C3
100
AcDbEntity
  8
Cartouche
 62
     0
370
    -2
100
AcDbBlockReference
  2
_Dot
 10
291.25
 20
67.49999999999997
 30
0.0
 41
2.5
 42
2.5
 43
2.5
 50
89.99999999999991
  0
MTEXT
  5
2CB
330
2C3
100
AcDbEntity
  8
Cartouche
 62
     0
100
AcDbMText
 10
288.6053515625
 20
47.49999999999999
 30
0.0
 40
2.5
 41
0.0
 46
0.0
 71
     5
 72
     1
  1
\A1;%%c40
  7
COMIC SANS MS
 11
1.421085471520201E-15
 21
1.0
 31
0.0
 73
     1
 44
1.0
  0
POINT
  5
2CC
330
2C3
100
AcDbEntity
  8
Defpoints
 62
     0
100
AcDbPoint
 10
277.4999999999999
 20
27.5
 30
0.0
  0
POINT
  5
2CD
330
2C3
100
AcDbEntity
  8
Defpoints
 62
     0
100
AcDbPoint
 10
277.5
 20
67.5
 30
0.0
  0
POINT
  5
2CE
330
2C3
100
AcDbEntity
  8
Defpoints
 62
     0
100
AcDbPoint
 10
291.25
 20
67.49999999999997
 30
0.0
  0
ENDBLK
  5
2C5
330
2C3
100
AcDbEntity
  8
0
100
AcDbBlockEnd
  0
BLOCK
  5
2D1
330
2D0
100
AcDbEntity
  8
0
100
AcDbBlockBegin
  2
*D31
 70
     1
 10
0.0
 20
0.0
 30
0.0
  3
*D31
  1

  0
LINE
  5
2D3
330
2D0
100
AcDbEntity
  8
Cartouche
 62
     0
370
    -2
100
AcDbLine
 10
274.4374999999999
 20
34.5
 30
0.0
 11
234.9999999999999
 21
34.5
 31
0.0
  0
LINE
  5
2D4
330
2D0
100
AcDbEntity
  8
Cartouche
 62
     0
370
    -2
100
AcDbLine
 10
224.5625
 20
60.50000000000001
 30
0.0
 11
237.4999999999999
 21
60.50000000000001
 31
0.0
  0
LINE
  5
2D5
330
2D0
100
AcDbEntity
  8
Cartouche
 62
     0
370
    -2
100
AcDbLine
 10
236.2499999999999
 20
37.0
 30
0.0
 11
236.2499999999999
 21
58.00000000000001
 31
0.0
  0
INSERT
  5
2D6
330
2D0
100
AcDbEntity
  8
Cartouche
 62
     0
370
    -2
100
AcDbBlockReference
  2
_Dot
 10
236.2499999999999
 20
34.5
 30
0.0
 41
2.5
 42
2.5
 43
2.5
 50
270.0
  0
INSERT
  5
2D7
330
2D0
100
AcDbEntity
  8
Cartouche
 62
     0
370
    -2
100
AcDbBlockReference
  2
_Dot
 10
236.2499999999999
 20
60.50000000000001
 30
0.0
 41
2.5
 42
2.5
 43
2.5
 50
90.0
  0
MTEXT
  5
2D8
330
2D0
100
AcDbEntity
  8
Cartouche
 62
     0
100
AcDbMText
 10
233.5744140625
 20
47.49999999999999
 30
0.0
 40
2.5
 41
0.0
 46
0.0
 71
     5
 72
     1
  1
\A1;%%c26  ± 0.1mm
  7
COMIC SANS MS
 11
0.0
 21
1.0
 31
0.0
 73
     1
 44
1.0
  0
POINT
  5
2D9
330
2D0
100
AcDbEntity
  8
Defpoints
 62
     0
100
AcDbPoint
 10
274.4999999999999
 20
34.5
 30
0.0
  0
POINT
  5
2DA
330
2D0
100
AcDbEntity
  8
Defpoints
 62
     0
100
AcDbPoint
 10
224.5
 20
60.50000000000001
 30
0.0
  0
POINT
  5
2DB
330
2D0
100
AcDbEntity
  8
Defpoints
 62
     0
100
AcDbPoint
 10
236.2499999999999
 20
60.50000000000001
 30
0.0
  0
ENDBLK
  5
2D2
330
2D0
100
AcDbEntity
  8
0
100
AcDbBlockEnd
  0
BLOCK
  5
2DE
330
2DD
100
AcDbEntity
  8
0
100
AcDbBlockBegin
  2
*D32
 70
     1
 10
0.0
 20
0.0
 30
0.0
  3
*D32
  1

  0
LINE
  5
2E0
330
2DD
100
AcDbEntity
  8
Cartouche
 62
     0
370
    -2
100
AcDbLine
 10
127.5625
 20
60.90000000000002
 30
0.0
 11
145.0
 21
60.90000000000001
 31
0.0
  0
LINE
  5
2E1
330
2DD
100
AcDbEntity
  8
Cartouche
 62
     0
370
    -2
100
AcDbLine
 10
127.5625
 20
34.10000000000002
 30
0.0
 11
145.0
 21
34.10000000000001
 31
0.0
  0
LINE
  5
2E2
330
2DD
100
AcDbEntity
  8
Cartouche
 62
     0
370
    -2
100
AcDbLine
 10
143.75
 20
58.40000000000001
 30
0.0
 11
143.75
 21
36.60000000000001
 31
0.0
  0
INSERT
  5
2E3
330
2DD
100
AcDbEntity
  8
Cartouche
 62
     0
370
    -2
100
AcDbBlockReference
  2
_Dot
 10
143.75
 20
60.90000000000001
 30
0.0
 41
2.5
 42
2.5
 43
2.5
 50
90.0
  0
INSERT
  5
2E4
330
2DD
100
AcDbEntity
  8
Cartouche
 62
     0
370
    -2
100
AcDbBlockReference
  2
_Dot
 10
143.75
 20
34.10000000000001
 30
0.0
 41
2.5
 42
2.5
 43
2.5
 50
270.0
  0
MTEXT
  5
2E5
330
2DD
100
AcDbEntity
  8
Cartouche
 62
     0
100
AcDbMText
 10
141.0744140625
 20
47.50000000000001
 30
0.0
 40
2.5
 41
0.0
 46
0.0
 71
     5
 72
     1
  1
\A1;%%c26.8  ± 0.1mm
  7
COMIC SANS MS
 11
0.0
 21
1.0
 31
0.0
 73
     1
 44
1.0
  0
POINT
  5
2E6
330
2DD
100
AcDbEntity
  8
Defpoints
 62
     0
100
AcDbPoint
 10
127.5
 20
60.90000000000002
 30
0.0
  0
POINT
  5
2E7
330
2DD
100
AcDbEntity
  8
Defpoints
 62
     0
100
AcDbPoint
 10
127.5
 20
34.10000000000002
 30
0.0
  0
POINT
  5
2E8
330
2DD
100
AcDbEntity
  8
Defpoints
 62
     0
100
AcDbPoint
 10
143.75
 20
34.10000000000001
 30
0.0
  0
ENDBLK
  5
2DF
330
2DD
100
AcDbEntity
  8
0
100
AcDbBlockEnd
  0
BLOCK
  5
2EB
330
2EA
100
AcDbEntity
  8
0
100
AcDbBlockBegin
  2
*D33
 70
     1
 10
0.0
 20
0.0
 30
0.0
  3
*D33
  1

  0
LINE
  5
2ED
330
2EA
100
AcDbEntity
  8
Cartouche
 62
     0
370
    -2
100
AcDbLine
 10
127.5
 20
30.56250000000002
 30
0.0
 11
127.5
 21
75.00000000000001
 31
0.0
  0
LINE
  5
2EE
330
2EA
100
AcDbEntity
  8
Cartouche
 62
     0
370
    -2
100
AcDbLine
 10
174.5
 20
34.16250000000002
 30
0.0
 11
174.5
 21
75.00000000000001
 31
0.0
  0
LINE
  5
2EF
330
2EA
100
AcDbEntity
  8
Cartouche
 62
     0
370
    -2
100
AcDbLine
 10
130.0
 20
73.75000000000001
 30
0.0
 11
172.0
 21
73.75000000000001
 31
0.0
  0
INSERT
  5
2F0
330
2EA
100
AcDbEntity
  8
Cartouche
 62
     0
370
    -2
100
AcDbBlockReference
  2
_Dot
 10
127.5
 20
73.75000000000001
 30
0.0
 41
2.5
 42
2.5
 43
2.5
 50
180.0
  0
INSERT
  5
2F1
330
2EA
100
AcDbEntity
  8
Cartouche
 62
     0
370
    -2
100
AcDbBlockReference
  2
_Dot
 10
174.5
 20
73.75000000000001
 30
0.0
 41
2.5
 42
2.5
 43
2.5
  0
MTEXT
  5
2F2
330
2EA
100
AcDbEntity
  8
Cartouche
 62
     0
100
AcDbMText
 10
155.0
 20
76.37500000000001
 30
0.0
 40
2.5
 41
0.0
 46
0.0
 71
     5
 72
     1
  1
\A1;47
  7
COMIC SANS MS
 73
     1
 44
1.0
  0
POINT
  5
2F3
330
2EA
100
AcDbEntity
  8
Defpoints
 62
     0
100
AcDbPoint
 10
127.5
 20
30.50000000000002
 30
0.0
  0
POINT
  5
2F4
330
2EA
100
AcDbEntity
  8
Defpoints
 62
     0
100
AcDbPoint
 10
174.5
 20
34.10000000000002
 30
0.0
  0
POINT
  5
2F5
330
2EA
100
AcDbEntity
  8
Defpoints
 62
     0
100
AcDbPoint
 10
174.5
 20
73.75000000000001
 30
0.0
  0
ENDBLK
  5
2EC
330
2EA
100
AcDbEntity
  8
0
100
AcDbBlockEnd
  0
BLOCK
  5
2F8
330
2F7
100
AcDbEntity
  8
0
100
AcDbBlockBegin
  2
*D34
 70
     1
 10
0.0
 20
0.0
 30
0.0
  3
*D34
  1

  0
LINE
  5
2FA
330
2F7
100
AcDbEntity
  8
Cartouche
 62
     0
370
    -2
100
AcDbLine
 10
174.5
 20
34.16250000000002
 30
0.0
 11
174.5
 21
75.00000000000001
 31
0.0
  0
LINE
  5
2FB
330
2F7
100
AcDbEntity
  8
Cartouche
 62
     0
370
    -2
100
AcDbLine
 10
277.5
 20
27.5625
 30
0.0
 11
277.5
 21
75.00000000000001
 31
0.0
  0
LINE
  5
2FC
330
2F7
100
AcDbEntity
  8
Cartouche
 62
     0
370
    -2
100
AcDbLine
 10
177.0
 20
73.75000000000001
 30
0.0
 11
275.0
 21
73.75000000000001
 31
0.0
  0
INSERT
  5
2FD
330
2F7
100
AcDbEntity
  8
Cartouche
 62
     0
370
    -2
100
AcDbBlockReference
  2
_Dot
 10
174.5
 20
73.75000000000001
 30
0.0
 41
2.5
 42
2.5
 43
2.5
 50
180.0
  0
INSERT
  5
2FE
330
2F7
100
AcDbEntity
  8
Cartouche
 62
     0
370
    -2
100
AcDbBlockReference
  2
_Dot
 10
277.5
 20
73.75000000000001
 30
0.0
 41
2.5
 42
2.5
 43
2.5
  0
MTEXT
  5
2FF
330
2F7
100
AcDbEntity
  8
Cartouche
 62
     0
100
AcDbMText
 10
215.0
 20
76.35625000000002
 30
0.0
 40
2.5
 41
0.0
 46
0.0
 71
     5
 72
     1
  1
\A1;103
  7
COMIC SANS MS
 73
     1
 44
1.0
  0
POINT
  5
300
330
2F7
100
AcDbEntity
  8
Defpoints
 62
     0
100
AcDbPoint
 10
174.5
 20
34.10000000000002
 30
0.0
  0
POINT
  5
301
330
2F7
100
AcDbEntity
  8
Defpoints
 62
     0
100
AcDbPoint
 10
277.5
 20
27.5
 30
0.0
  0
POINT
  5
302
330
2F7
100
AcDbEntity
  8
Defpoints
 62
     0
100
AcDbPoint
 10
277.5
 20
73.75000000000001
 30
0.0
  0
ENDBLK
  5
2F9
330
2F7
100
AcDbEntity
  8
0
100
AcDbBlockEnd
  0
BLOCK
  5
305
330
304
100
AcDbEntity
  8
0
100
AcDbBlockBegin
  2
*D35
 70
     1
 10
0.0
 20
0.0
 30
0.0
  3
*D35
  1

  0
LINE
  5
307
330
304
100
AcDbEntity
  8
Cartouche
 62
     0
370
    -2
100
AcDbLine
 10
174.5
 20
102.0625
 30
0.0
 11
174.5
 21
110.0
 31
0.0
  0
LINE
  5
308
330
304
100
AcDbEntity
  8
Cartouche
 62
     0
370
    -2
100
AcDbLine
 10
127.5
 20
101.6625
 30
0.0
 11
127.5
 21
110.0
 31
0.0
  0
LINE
  5
309
330
304
100
AcDbEntity
  8
Cartouche
 62
     0
370
    -2
100
AcDbLine
 10
172.0
 20
108.75
 30
0.0
 11
130.0
 21
108.75
 31
0.0
  0
INSERT
  5
30A
330
304
100
AcDbEntity
  8
Cartouche
 62
     0
370
    -2
100
AcDbBlockReference
  2
_Dot
 10
174.5
 20
108.75
 30
0.0
 41
2.5
 42
2.5
 43
2.5
  0
INSERT
  5
30B
330
304
100
AcDbEntity
  8
Cartouche
 62
     0
370
    -2
100
AcDbBlockReference
  2
_Dot
 10
127.5
 20
108.75
 30
0.0
 41
2.5
 42
2.5
 43
2.5
 50
180.0
  0
MTEXT
  5
30C
330
304
100
AcDbEntity
  8
Cartouche
 62
     0
100
AcDbMText
 10
152.5
 20
111.375
 30
0.0
 40
2.5
 41
0.0
 46
0.0
 71
     5
 72
     1
  1
\A1;47
  7
COMIC SANS MS
 73
     1
 44
1.0
  0
POINT
  5
30D
330
304
100
AcDbEntity
  8
Defpoints
 62
     0
100
AcDbPoint
 10
174.5
 20
102.0
 30
0.0
  0
POINT
  5
30E
330
304
100
AcDbEntity
  8
Defpoints
 62
     0
100
AcDbPoint
 10
127.5
 20
101.6
 30
0.0
  0
POINT
  5
30F
330
304
100
AcDbEntity
  8
Defpoints
 62
     0
100
AcDbPoint
 10
127.5
 20
108.75
 30
0.0
  0
ENDBLK
  5
306
330
304
100
AcDbEntity
  8
0
100
AcDbBlockEnd
  0
BLOCK
  5
312
330
311
100
AcDbEntity
  8
0
100
AcDbBlockBegin
  2
*D36
 70
     1
 10
0.0
 20
0.0
 30
0.0
  3
*D36
  1

  0
LINE
  5
314
330
311
100
AcDbEntity
  8
Cartouche
 62
     0
370
    -2
100
AcDbLine
 10
174.5
 20
102.0625
 30
0.0
 11
174.5
 21
110.0
 31
0.0
  0
LINE
  5
315
330
311
100
AcDbEntity
  8
Cartouche
 62
     0
370
    -2
100
AcDbLine
 10
277.5
 20
99.06250000000001
 30
0.0
 11
277.5
 21
110.0
 31
0.0
  0
LINE
  5
316
330
311
100
AcDbEntity
  8
Cartouche
 62
     0
370
    -2
100
AcDbLine
 10
177.0
 20
108.75
 30
0.0
 11
275.0
 21
108.75
 31
0.0
  0
INSERT
  5
317
330
311
100
AcDbEntity
  8
Cartouche
 62
     0
370
    -2
100
AcDbBlockReference
  2
_Dot
 10
174.5
 20
108.75
 30
0.0
 41
2.5
 42
2.5
 43
2.5
 50
180.0
  0
INSERT
  5
318
330
311
100
AcDbEntity
  8
Cartouche
 62
     0
370
    -2
100
AcDbBlockReference
  2
_Dot
 10
277.5
 20
108.75
 30
0.0
 41
2.5
 42
2.5
 43
2.5
  0
MTEXT
  5
319
330
311
100
AcDbEntity
  8
Cartouche
 62
     0
100
AcDbMText
 10
227.5
 20
111.35625
 30
0.0
 40
2.5
 41
0.0
 46
0.0
 71
     5
 72
     1
  1
\A1;103
  7
COMIC SANS MS
 73
     1
 44
1.0
  0
POINT
  5
31A
330
311
100
AcDbEntity
  8
Defpoints
 62
     0
100
AcDbPoint
 10
174.5
 20
102.0
 30
0.0
  0
POINT
  5
31B
330
311
100
AcDbEntity
  8
Defpoints
 62
     0
100
AcDbPoint
 10
277.5
 20
99.00000000000001
 30
0.0
  0
POINT
  5
31C
330
311
100
AcDbEntity
  8
Defpoints
 62
     0
100
AcDbPoint
 10
277.5
 20
108.75
 30
0.0
  0
ENDBLK
  5
313
330
311
100
AcDbEntity
  8
0
100
AcDbBlockEnd
  0
BLOCK
  5
31F
330
31E
100
AcDbEntity
  8
0
100
AcDbBlockBegin
  2
*D37
 70
     1
 10
0.0
 20
0.0
 30
0.0
  3
*D37
  1

  0
LINE
  5
321
330
31E
100
AcDbEntity
  8
Cartouche
 62
     0
370
    -2
100
AcDbLine
 10
148.6765839606395
 20
33.6786175053726
 30
0.0
 11
156.4890476049673
 21
41.48967812836464
 31
0.0
  0
MTEXT
  5
322
330
31E
100
AcDbEntity
  8
Cartouche
 62
     0
100
AcDbMText
 10
149.8298558369835
 20
38.56967652578028
 30
0.0
 40
2.5
 41
0.0
 46
0.0
 71
     5
 72
     1
  1
\A1;%%c12
  7
COMIC SANS MS
 11
0.7071702778300776
 21
0.7070432788406456
 31
0.0
 73
     1
 44
1.0
  0
INSERT
  5
323
330
31E
100
AcDbEntity
  8
Cartouche
 62
     0
370
    -2
100
AcDbBlockReference
  2
_Dot
 10
158.2569732995424
 20
43.25728632546626
 30
0.0
 41
2.5
 42
2.5
 43
2.5
 50
44.99485473318864
  0
LINE
  5
324
330
31E
100
AcDbEntity
  8
Cartouche
 62
     0
100
AcDbLine
 10
162.4099828546305
 20
47.4995338887929
 30
0.0
 11
162.5899828546305
 21
47.4995338887929
 31
0.0
  0
LINE
  5
325
330
31E
100
AcDbEntity
  8
Cartouche
 62
     0
100
AcDbLine
 10
162.4999828546305
 20
47.40953388879289
 30
0.0
 11
162.4999828546305
 21
47.5895338887929
 31
0.0
  0
POINT
  5
326
330
31E
100
AcDbEntity
  8
Defpoints
 62
     0
100
AcDbPoint
 10
158.2569732995424
 20
43.25728632546626
 30
0.0
  0
POINT
  5
327
330
31E
100
AcDbEntity
  8
Defpoints
 62
     0
100
AcDbPoint
 10
166.7429924097186
 20
51.74178145211953
 30
0.0
  0
ENDBLK
  5
320
330
31E
100
AcDbEntity
  8
0
100
AcDbBlockEnd
  0
BLOCK
  5
32A
330
329
100
AcDbEntity
  8
0
100
AcDbBlockBegin
  2
*D38
 70
     1
 10
0.0
 20
0.0
 30
0.0
  3
*D38
  1

  0
LINE
  5
32C
330
329
100
AcDbEntity
  8
Cartouche
 62
     0
370
    -2
100
AcDbLine
 10
190.7743694059151
 20
35.77902886794582
 30
0.0
 11
197.5489890277333
 21
42.55022692604778
 31
0.0
  0
MTEXT
  5
32D
330
329
100
AcDbEntity
  8
Cartouche
 62
     0
100
AcDbMText
 10
191.4157004938035
 20
40.14378054863884
 30
0.0
 40
2.5
 41
0.0
 46
0.0
 71
     5
 72
     1
  1
\A1;%%c9
  7
COMIC SANS MS
 11
0.7072853680628988
 21
0.7069281491949021
 31
0.0
 73
     1
 44
1.0
  0
INSERT
  5
32E
330
329
100
AcDbEntity
  8
Cartouche
 62
     0
370
    -2
100
AcDbBlockReference
  2
_Dot
 10
199.3172024478906
 20
44.31754729903503
 30
0.0
 41
2.5
 42
2.5
 43
2.5
 50
44.98552755095776
  0
LINE
  5
32F
330
329
100
AcDbEntity
  8
Cartouche
 62
     0
100
AcDbLine
 10
202.4099546951625
 20
47.49869207751677
 30
0.0
 11
202.5899546951625
 21
47.49869207751677
 31
0.0
  0
LINE
  5
330
330
329
100
AcDbEntity
  8
Cartouche
 62
     0
100
AcDbLine
 10
202.4999546951625
 20
47.40869207751677
 30
0.0
 11
202.4999546951625
 21
47.58869207751678
 31
0.0
  0
POINT
  5
331
330
329
100
AcDbEntity
  8
Defpoints
 62
     0
100
AcDbPoint
 10
199.3172024478906
 20
44.31754729903503
 30
0.0
  0
POINT
  5
332
330
329
100
AcDbEntity
  8
Defpoints
 62
     0
100
AcDbPoint
 10
205.6827069424344
 20
50.67983685599851
 30
0.0
  0
ENDBLK
  5
32B
330
329
100
AcDbEntity
  8
0
100
AcDbBlockEnd
  0
BLOCK
  5
335
330
334
100
AcDbEntity
  8
0
100
AcDbBlockBegin
  2
*D39
 70
     1
 10
0.0
 20
0.0
 30
0.0
  3
*D39
  1

  0
LINE
  5
337
330
334
100
AcDbEntity
  8
Cartouche
 62
     0
370
    -2
100
AcDbLine
 10
245.7743694059151
 20
35.77902886794582
 30
0.0
 11
252.5489890277333
 21
42.55022692604778
 31
0.0
  0
MTEXT
  5
338
330
334
100
AcDbEntity
  8
Cartouche
 62
     0
100
AcDbMText
 10
246.4157004938035
 20
40.14378054863884
 30
0.0
 40
2.5
 41
0.0
 46
0.0
 71
     5
 72
     1
  1
\A1;%%c9
  7
COMIC SANS MS
 11
0.7072853680628988
 21
0.7069281491949021
 31
0.0
 73
     1
 44
1.0
  0
INSERT
  5
339
330
334
100
AcDbEntity
  8
Cartouche
 62
     0
370
    -2
100
AcDbBlockReference
  2
_Dot
 10
254.3172024478906
 20
44.31754729903503
 30
0.0
 41
2.5
 42
2.5
 43
2.5
 50
44.98552755095776
  0
LINE
  5
33A
330
334
100
AcDbEntity
  8
Cartouche
 62
     0
100
AcDbLine
 10
257.4099546951625
 20
47.49869207751677
 30
0.0
 11
257.5899546951624
 21
47.49869207751677
 31
0.0
  0
LINE
  5
33B
330
334
100
AcDbEntity
  8
Cartouche
 62
     0
100
AcDbLine
 10
257.4999546951624
 20
47.40869207751677
 30
0.0
 11
257.4999546951624
 21
47.58869207751678
 31
0.0
  0
POINT
  5
33C
330
334
100
AcDbEntity
  8
Defpoints
 62
     0
100
AcDbPoint
 10
254.3172024478906
 20
44.31754729903503
 30
0.0
  0
POINT
  5
33D
330
334
100
AcDbEntity
  8
Defpoints
 62
     0
100
AcDbPoint
 10
260.6827069424343
 20
50.67983685599851
 30
0.0
  0
ENDBLK
  5
336
330
334
100
AcDbEntity
  8
0
100
AcDbBlockEnd
  0
ENDSEC
  0
SECTION
  2
ENTITIES
  0
LINE
  5
70
330
1F
100
AcDbEntity
  8
Cartouche
  6
______....__....
 62
    11
420
 15757681
370
     9
100
AcDbLine
 10
-57.49999999999999
 20
90.00000000000003
 30
0.0
 11
-57.49999999999999
 21
150.0
 31
0.0
  0
LINE
  5
72
330
1F
100
AcDbEntity
  8
Cartouche
  6
________________
 62
     7
370
     9
100
AcDbLine
 10
-57.49999999999999
 20
90.00000000000003
 30
0.0
 11
-57.49999999999999
 21
80.00000000000003
 31
0.0
  0
LINE
  5
74
330
1F
100
AcDbEntity
  8
Cartouche
  6
________________
 62
     7
370
     9
100
AcDbLine
 10
-45.5
 20
85.00000000000001
 30
0.0
 11
-57.49999999999999
 21
85.00000000000001
 31
0.0
  0
LWPOLYLINE
  5
75
330
1F
100
AcDbEntity
  8
Cartouche
  6
________________
 62
     7
370
     9
100
AcDbPolyline
 90
        3
 70
     0
 43
0.0
 10
-53.49999999999999
 20
86.00000000000001
 10
-57.49999999999999
 20
85.00000000000001
 10
-53.49999999999999
 20
84.00000000000001
  0
LINE
  5
76
330
1F
100
AcDbEntity
  8
Cartouche
  6
________________
 62
     7
370
     9
100
AcDbLine
 10
-57.49999999999999
 20
150.0
 30
0.0
 11
-57.49999999999999
 21
160.0
 31
0.0
  0
LINE
  5
77
330
1F
100
AcDbEntity
  8
Cartouche
  6
________________
 62
     7
370
     9
100
AcDbLine
 10
-45.5
 20
155.0
 30
0.0
 11
-57.49999999999999
 21
155.0
 31
0.0
  0
LWPOLYLINE
  5
78
330
1F
100
AcDbEntity
  8
Cartouche
  6
________________
 62
     7
370
     9
100
AcDbPolyline
 90
        3
 70
     0
 43
0.0
 10
53.49999999999999
 20
154.0
 10
57.49999999999999
 20
155.0
 10
53.49999999999999
 20
156.0
210
0.0
220
0.0
230
-1.0
  0
LINE
  5
79
330
1F
100
AcDbEntity
  8
Cartouche
  6
______....__....
 62
    11
420
 15757681
370
     9
100
AcDbLine
 10
257.5
 20
84.99999999999999
 30
0.0
 11
257.5
 21
145.0
 31
0.0
  0
LINE
  5
7A
330
1F
100
AcDbEntity
  8
Cartouche
  6
________________
 62
     7
370
     9
100
AcDbLine
 10
257.5
 20
84.99999999999999
 30
0.0
 11
257.5
 21
75.0
 31
0.0
  0
LINE
  5
7B
330
1F
100
AcDbEntity
  8
Cartouche
  6
________________
 62
     7
370
     9
100
AcDbLine
 10
269.5
 20
79.99999999999999
 30
0.0
 11
257.5
 21
79.99999999999999
 31
0.0
  0
LWPOLYLINE
  5
7C
330
1F
100
AcDbEntity
  8
Cartouche
  6
________________
 62
     7
370
     9
100
AcDbPolyline
 90
        3
 70
     0
 43
0.0
 10
261.5
 20
80.99999999999999
 10
257.5
 20
79.99999999999999
 10
261.5
 20
78.99999999999999
  0
MTEXT
  5
7D
330
1F
100
AcDbEntity
  8
Cartouche
 62
     5
420
      255
100
AcDbMText
 10
262.8418803418803
 20
86.16117216117215
 30
0.0
 40
4.0
 41
0.0
 46
0.0
 71
     1
 72
     1
  1
{\fComic Sans MS;B}
 73
     1
 44
1.0
  0
LINE
  5
7E
330
1F
100
AcDbEntity
  8
Cartouche
  6
________________
 62
     7
370
     9
100
AcDbLine
 10
257.5
 20
145.0
 30
0.0
 11
257.5
 21
155.0000000000001
 31
0.0
  0
LINE
  5
7F
330
1F
100
AcDbEntity
  8
Cartouche
  6
________________
 62
     7
370
     9
100
AcDbLine
 10
269.5
 20
150.0000000000001
 30
0.0
 11
257.5
 21
150.0000000000001
 31
0.0
  0
LWPOLYLINE
  5
80
330
1F
100
AcDbEntity
  8
Cartouche
  6
________________
 62
     7
370
     9
100
AcDbPolyline
 90
        3
 70
     0
 43
0.0
 10
-261.5
 20
149.0000000000001
 10
-257.5
 20
150.0000000000001
 10
-261.5
 20
151.0000000000001
210
0.0
220
0.0
230
-1.0
  0
MTEXT
  5
81
330
1F
100
AcDbEntity
  8
Cartouche
 62
     5
420
      255
100
AcDbMText
 10
262.8418803418803
 20
156.1611721611722
 30
0.0
 40
4.0
 41
0.0
 46
0.0
 71
     1
 72
     1
  1
{\fComic Sans MS;B}
 73
     1
 44
1.0
  0
LINE
  5
82
330
1F
100
AcDbEntity
  8
Cartouche
  6
______....__....
 62
    11
420
 15757681
370
     9
100
AcDbLine
 10
162.5
 20
145.0
 30
0.0
 11
162.5
 21
84.99999999999999
 31
0.0
  0
LINE
  5
83
330
1F
100
AcDbEntity
  8
Cartouche
  6
________________
 62
     7
370
     9
100
AcDbLine
 10
162.5
 20
145.0
 30
0.0
 11
162.5
 21
155.0000000000001
 31
0.0
  0
LINE
  5
84
330
1F
100
AcDbEntity
  8
Cartouche
  6
________________
 62
     7
370
     9
100
AcDbLine
 10
150.5
 20
150.0000000000001
 30
0.0
 11
162.5
 21
150.0000000000001
 31
0.0
  0
LWPOLYLINE
  5
85
330
1F
100
AcDbEntity
  8
Cartouche
  6
________________
 62
     7
370
     9
100
AcDbPolyline
 90
        3
 70
     0
 43
0.0
 10
158.5
 20
149.0000000000001
 10
162.5
 20
150.0000000000001
 10
158.5
 20
151.0000000000001
  0
MTEXT
  5
86
330
1F
100
AcDbEntity
  8
Cartouche
 62
     5
420
      255
100
AcDbMText
 10
154.8797313797314
 20
156.1611721611722
 30
0.0
 40
4.0
 41
0.0
 46
0.0
 71
     1
 72
     1
  1
{\fComic Sans MS;A}
 73
     1
 44
1.0
  0
LINE
  5
87
330
1F
100
AcDbEntity
  8
Cartouche
  6
________________
 62
     7
370
     9
100
AcDbLine
 10
162.5
 20
84.99999999999999
 30
0.0
 11
162.5
 21
75.0
 31
0.0
  0
LINE
  5
88
330
1F
100
AcDbEntity
  8
Cartouche
  6
________________
 62
     7
370
     9
100
AcDbLine
 10
150.5
 20
79.99999999999999
 30
0.0
 11
162.5
 21
79.99999999999999
 31
0.0
  0
LWPOLYLINE
  5
89
330
1F
100
AcDbEntity
  8
Cartouche
  6
________________
 62
     7
370
     9
100
AcDbPolyline
 90
        3
 70
     0
 43
0.0
 10
-158.5
 20
80.99999999999999
 10
-162.5
 20
79.99999999999999
 10
-158.5
 20
78.99999999999999
210
0.0
220
0.0
230
-1.0
  0
MTEXT
  5
8A
330
1F
100
AcDbEntity
  8
Cartouche
 62
     5
420
      255
100
AcDbMText
 10
154.8797313797314
 20
86.16117216117215
 30
0.0
 40
4.0
 41
0.0
 46
0.0
 71
     1
 72
     1
  1
{\fComic Sans MS;A}
 73
     1
 44
1.0
  0
LINE
  5
8B
330
1F
100
AcDbEntity
  8
Cartouche
  6
______....__....
 62
    11
420
 15757681
370
     9
100
AcDbLine
 10
72.50000000000001
 20
85.00000000000001
 30
0.0
 11
72.50000000000001
 21
145.0
 31
0.0
  0
LINE
  5
8C
330
1F
100
AcDbEntity
  8
Cartouche
  6
________________
 62
     7
370
     9
100
AcDbLine
 10
72.50000000000001
 20
85.00000000000001
 30
0.0
 11
72.50000000000001
 21
75.00000000000003
 31
0.0
  0
LINE
  5
8D
330
1F
100
AcDbEntity
  8
Cartouche
  6
________________
 62
     7
370
     9
100
AcDbLine
 10
84.5
 20
80.00000000000001
 30
0.0
 11
72.50000000000001
 21
80.00000000000001
 31
0.0
  0
LWPOLYLINE
  5
8E
330
1F
100
AcDbEntity
  8
Cartouche
  6
________________
 62
     7
370
     9
100
AcDbPolyline
 90
        3
 70
     0
 43
0.0
 10
76.50000000000001
 20
81.00000000000001
 10
72.50000000000001
 20
80.00000000000001
 10
76.50000000000001
 20
79.00000000000001
  0
MTEXT
  5
8F
330
1F
100
AcDbEntity
  8
Cartouche
 62
     5
420
      255
100
AcDbMText
 10
77.84188034188035
 20
86.16117216117217
 30
0.0
 40
4.0
 41
0.0
 46
0.0
 71
     1
 72
     1
  1
{\fComic Sans MS;C}
 73
     1
 44
1.0
  0
LINE
  5
90
330
1F
100
AcDbEntity
  8
Cartouche
  6
________________
 62
     7
370
     9
100
AcDbLine
 10
72.50000000000001
 20
145.0
 30
0.0
 11
72.50000000000001
 21
155.0
 31
0.0
  0
LINE
  5
91
330
1F
100
AcDbEntity
  8
Cartouche
  6
________________
 62
     7
370
     9
100
AcDbLine
 10
84.5
 20
150.0
 30
0.0
 11
72.50000000000001
 21
150.0
 31
0.0
  0
LWPOLYLINE
  5
92
330
1F
100
AcDbEntity
  8
Cartouche
  6
________________
 62
     7
370
     9
100
AcDbPolyline
 90
        3
 70
     0
 43
0.0
 10
-76.50000000000001
 20
149.0
 10
-72.50000000000001
 20
150.0
 10
-76.50000000000001
 20
151.0
210
0.0
220
0.0
230
-1.0
  0
MTEXT
  5
93
330
1F
100
AcDbEntity
  8
Cartouche
 62
     5
420
      255
100
AcDbMText
 10
77.84188034188035
 20
156.1611721611722
 30
0.0
 40
4.0
 41
0.0
 46
0.0
 71
     1
 72
     1
  1
{\fComic Sans MS;C}
 73
     1
 44
1.0
  0
MTEXT
  5
94
330
1F
100
AcDbEntity
  8
Cartouche
 62
     7
100
AcDbMText
 10
372.1070928571428
 20
18.13881868131868
 30
0.0
 40
3.19
 41
0.0
 46
0.0
 71
     1
 72
     1
  1
{\fComic Sans MS;\W0.6;J - E. HURISSE}
 73
     1
 44
1.0
  0
MTEXT
  5
95
330
1F
100
AcDbEntity
  8
Cartouche
 62
     7
100
AcDbMText
 10
370.154828973843
 20
20.0
 30
0.0
 40
1.9
 41
0.0
 46
0.0
 71
     1
 72
     1
  1
{\fArial;\W0.75; Dessinateur}
 73
     1
 44
1.0
  0
MTEXT
  5
96
330
1F
100
AcDbEntity
  8
Cartouche
 62
     7
100
AcDbMText
 10
360.154828973843
 20
20.0
 30
0.0
 40
1.9
 41
0.0
 46
0.0
 71
     1
 72
     1
  1
{\fArial;\W0.75; Indice}
 73
     1
 44
1.0
  0
MTEXT
  5
97
330
1F
100
AcDbEntity
  8
Cartouche
 62
     7
100
AcDbMText
 10
370.154828973843
 20
13.0
 30
0.0
 40
1.9
 41
0.0
 46
0.0
 71
     1
 72
     1
  1
{\fArial;\W0.75; Responsable}
 73
     1
 44
1.0
  0
MTEXT
  5
98
330
1F
100
AcDbEntity
  8
Cartouche
 62
     7
100
AcDbMText
 10
350.154828973843
 20
20.0
 30
0.0
 40
1.9
 41
0.0
 46
0.0
 71
     1
 72
     1
  1
{\fArial;\W0.75; N° feuillet}
 73
     1
 44
1.0
  0
MTEXT
  5
99
330
1F
100
AcDbEntity
  8
Cartouche
 62
     7
100
AcDbMText
 10
333.1548289738429
 20
20.0
 30
0.0
 40
1.9
 41
0.0
 46
0.0
 71
     1
 72
     1
  1
{\fArial;\W0.75; Date}
 73
     1
 44
1.0
  0
MTEXT
  5
9A
330
1F
100
AcDbEntity
  8
Cartouche
 62
     7
100
AcDbMText
 10
313.1548289738429
 20
20.0
 30
0.0
 40
1.9
 41
0.0
 46
0.0
 71
     1
 72
     1
  1
{\fArial;\W0.75; Échelle}
 73
     1
 44
1.0
  0
INSERT
  5
9C
330
1F
100
AcDbEntity
  8
Cartouche
 62
     7
100
AcDbBlockReference
  2
D_FRAME_DRAWING@20
 10
0.0
 20
0.0
 30
0.0
  0
LINE
  5
A5
330
1F
100
AcDbEntity
  8
Cartouche
  6
______....__....
 62
     1
420
 16711680
370
     9
100
AcDbLine
 10
50.49999999999999
 20
115.0
 30
0.0
 11
94.50000000000003
 21
115.0
 31
0.0
  0
LINE
  5
A6
330
1F
100
AcDbEntity
  8
Cartouche
  6
______....__....
 62
     1
420
 16711680
370
     9
100
AcDbLine
 10
72.50000000000001
 20
93.0
 30
0.0
 11
72.50000000000001
 21
137.0
 31
0.0
  0
LINE
  5
A7
330
1F
100
AcDbEntity
  8
Cartouche
  6
______....__....
 62
     1
420
 16711680
370
     9
100
AcDbLine
 10
325.5
 20
115.0
 30
0.0
 11
369.4999999999999
 21
115.0
 31
0.0
  0
LINE
  5
A8
330
1F
100
AcDbEntity
  8
Cartouche
  6
______....__....
 62
     1
420
 16711680
370
     9
100
AcDbLine
 10
347.4999999999999
 20
93.00000000000003
 30
0.0
 11
347.4999999999999
 21
137.0
 31
0.0
  0
LINE
  5
A9
330
1F
100
AcDbEntity
  8
Cartouche
  6
______....__....
 62
     1
420
 16711680
370
     9
100
AcDbLine
 10
158.5
 20
115.0
 30
0.0
 11
125.5
 21
115.0
 31
0.0
  0
LINE
  5
AA
330
1F
100
AcDbEntity
  8
Cartouche
  6
______....__....
 62
     1
420
 16711680
370
     9
100
AcDbLine
 10
200.0
 20
115.0
 30
0.0
 11
172.5
 21
115.0
 31
0.0
  0
LINE
  5
AB
330
1F
100
AcDbEntity
  8
Cartouche
  6
______....__....
 62
     1
420
 16711680
370
     9
100
AcDbLine
 10
255.0
 20
115.0
 30
0.0
 11
205.0
 21
115.0
 31
0.0
  0
LINE
  5
AC
330
1F
100
AcDbEntity
  8
Cartouche
  6
______....__....
 62
     1
420
 16711680
370
     9
100
AcDbLine
 10
276.5
 20
115.0
 30
0.0
 11
260.0
 21
115.0
 31
0.0
  0
LINE
  5
AD
330
1F
100
AcDbEntity
  8
Cartouche
  6
______....__....
 62
     1
420
 16711680
370
     9
100
AcDbLine
 10
202.5
 20
104.0
 30
0.0
 11
202.5
 21
93.00000000000001
 31
0.0
  0
LINE
  5
AE
330
1F
100
AcDbEntity
  8
Cartouche
  6
______....__....
 62
     1
420
 16711680
370
     9
100
AcDbLine
 10
202.5
 20
137.0
 30
0.0
 11
202.5
 21
126.0
 31
0.0
  0
HATCH
  5
AF
330
1F
100
AcDbEntity
  8
Cartouche
 62
   254
420
 15774192
100
AcDbHatch
 10
0.0
 20
0.0
 30
0.0
210
0.0
220
0.0
230
0.9999999999999998
  2
SOLID
 70
     1
 71
     1
 91
        1
 92
        3
 72
     0
 73
     1
 93
       72
 10
129.4419417382416
 20
133.0580582617584
 10
129.4787777769494
 20
133.0982577439459
 10
129.5119700276806
 20
133.1415147272806
 10
129.5412658773653
 20
133.1874999999999
 10
129.5664423668979
 20
133.235863586412
 10
129.5873078879912
 20
133.2862374104214
 10
129.6037036414307
 20
133.3382380968109
 10
129.6155048456326
 20
133.3914698889581
 10
129.6226216863073
 20
133.4455276607827
 10
129.625
 20
133.5
 10
129.6226216863073
 20
133.5544723392173
 10
129.6155048456326
 20
133.6085301110418
 10
129.6037036414307
 20
133.6617619031891
 10
129.5873078879912
 20
133.7137625895785
 10
129.5664423668979
 20
133.7641364135879
 10
129.5412658773653
 20
133.8125
 10
129.5119700276806
 20
133.8584852727194
 10
129.4787777769494
 20
133.9017422560541
 10
129.4419417382416
 20
133.9419417382416
 10
129.4017422560541
 20
133.9787777769493
 10
129.3584852727194
 20
134.0119700276806
 10
129.3125
 20
134.0412658773652
 10
129.2641364135879
 20
134.0664423668979
 10
129.2137625895785
 20
134.0873078879912
 10
129.1617619031891
 20
134.1037036414307
 10
129.1085301110418
 20
134.1155048456326
 10
129.0544723392173
 20
134.1226216863073
 10
129.0
 20
134.125
 10
128.9455276607827
 20
134.1226216863073
 10
128.8914698889582
 20
134.1155048456326
 10
128.8382380968109
 20
134.1037036414307
 10
128.7862374104215
 20
134.0873078879912
 10
128.7358635864121
 20
134.0664423668979
 10
128.6875
 20
134.0412658773652
 10
128.6415147272806
 20
134.0119700276806
 10
128.5982577439459
 20
133.9787777769493
 10
128.5580582617584
 20
133.9419417382416
 10
128.5212222230506
 20
133.9017422560541
 10
128.4880299723194
 20
133.8584852727194
 10
128.4587341226347
 20
133.8125
 10
128.4335576331021
 20
133.7641364135879
 10
128.4126921120088
 20
133.7137625895785
 10
128.3962963585693
 20
133.6617619031891
 10
128.3844951543674
 20
133.6085301110418
 10
128.3773783136927
 20
133.5544723392173
 10
128.375
 20
133.5
 10
128.3773783136927
 20
133.4455276607827
 10
128.3844951543674
 20
133.3914698889582
 10
128.3962963585693
 20
133.3382380968109
 10
128.4126921120088
 20
133.2862374104214
 10
128.4335576331021
 20
133.235863586412
 10
128.4587341226347
 20
133.1874999999999
 10
128.4880299723194
 20
133.1415147272806
 10
128.5212222230506
 20
133.0982577439459
 10
128.5580582617584
 20
133.0580582617584
 10
128.5982577439459
 20
133.0212222230506
 10
128.6415147272806
 20
132.9880299723193
 10
128.6875
 20
132.9587341226347
 10
128.7358635864121
 20
132.9335576331021
 10
128.7862374104215
 20
132.9126921120088
 10
128.8382380968109
 20
132.8962963585693
 10
128.8914698889582
 20
132.8844951543673
 10
128.9455276607827
 20
132.8773783136926
 10
129.0
 20
132.875
 10
129.0544723392173
 20
132.8773783136926
 10
129.1085301110418
 20
132.8844951543673
 10
129.1617619031891
 20
132.8962963585693
 10
129.2137625895785
 20
132.9126921120088
 10
129.2641364135879
 20
132.9335576331021
 10
129.3125
 20
132.9587341226347
 10
129.3584852727194
 20
132.9880299723193
 10
129.4017422560541
 20
133.0212222230506
 97
        0
 75
     0
 76
     1
 98
        0
  0
MTEXT
  5
B0
330
1F
100
AcDbEntity
  8
Cartouche
 62
   254
420
 15774192
100
AcDbMText
 10
109.4123931623932
 20
146.2957875457876
 30
0.0
 40
2.5
 41
0.0
 46
0.0
 71
     1
 72
     1
  1
{\fComic Sans MS;3}
 73
     1
 44
1.0
  0
MTEXT
  5
B1
330
1F
100
AcDbEntity
  8
Cartouche
 62
   254
420
 15774192
100
AcDbMText
 10
111.3778235653236
 20
146.2957875457876
 30
0.0
 40
2.5
 41
0.0
 46
0.0
 71
     1
 72
     1
  1
{\fComic Sans MS;x}
 73
     1
 44
1.0
  0
MTEXT
  5
B2
330
1F
100
AcDbEntity
  8
Cartouche
 62
   254
420
 15774192
100
AcDbMText
 10
113.3539377289377
 20
146.4102564102564
 30
0.0
 40
2.5
 41
0.0
 46
0.0
 71
     1
 72
     1
  1
{\fComic Sans MS;45°}
 73
     1
 44
1.0
  0
LINE
  5
B3
330
1F
100
AcDbEntity
  8
Cartouche
  6
________________
 62
   254
420
 15774192
370
     9
100
AcDbLine
 10
129.0
 20
133.5
 30
0.0
 11
120.0
 21
142.5
 31
0.0
  0
LINE
  5
B4
330
1F
100
AcDbEntity
  8
Cartouche
  6
________________
 62
   254
420
 15774192
370
     9
100
AcDbLine
 10
108.7965506715507
 20
142.5
 30
0.0
 11
120.0
 21
142.5
 31
0.0
  0
HATCH
  5
B5
330
1F
100
AcDbEntity
  8
Cartouche
 62
   254
420
 15774192
100
AcDbHatch
 10
0.0
 20
0.0
 30
0.0
210
0.0
220
0.0
230
1.0
  2
SOLID
 70
     1
 71
     1
 91
        1
 92
        3
 72
     0
 73
     1
 93
       72
 10
274.222765464892
 20
128.6066489413751
 10
274.1859294261843
 20
128.5664494591876
 10
274.152737175453
 20
128.5231924758529
 10
274.1234413257683
 20
128.4772072031336
 10
274.0982648362357
 20
128.4288436167215
 10
274.0773993151424
 20
128.3784697927121
 10
274.0610035617029
 20
128.3264691063226
 10
274.0492023575009
 20
128.2732373141754
 10
274.0420855168263
 20
128.2191795423508
 10
274.0397072031336
 20
128.1647072031336
 10
274.0420855168263
 20
128.1102348639162
 10
274.0492023575009
 20
128.0561770920917
 10
274.0610035617029
 20
128.0029452999445
 10
274.0773993151424
 20
127.950944613555
 10
274.0982648362357
 20
127.9005707895456
 10
274.1234413257683
 20
127.8522072031335
 10
274.152737175453
 20
127.8062219304142
 10
274.1859294261843
 20
127.7629649470795
 10
274.222765464892
 20
127.722765464892
 10
274.2629649470795
 20
127.6859294261842
 10
274.3062219304142
 20
127.6527371754529
 10
274.3522072031336
 20
127.6234413257683
 10
274.4005707895456
 20
127.5982648362356
 10
274.450944613555
 20
127.5773993151424
 10
274.5029452999445
 20
127.5610035617029
 10
274.5561770920917
 20
127.5492023575009
 10
274.6102348639163
 20
127.5420855168262
 10
274.6647072031336
 20
127.5397072031336
 10
274.7191795423508
 20
127.5420855168262
 10
274.7732373141754
 20
127.5492023575009
 10
274.8264691063226
 20
127.5610035617029
 10
274.8784697927121
 20
127.5773993151424
 10
274.9288436167215
 20
127.5982648362356
 10
274.9772072031336
 20
127.6234413257683
 10
275.0231924758529
 20
127.6527371754529
 10
275.0664494591877
 20
127.6859294261842
 10
275.1066489413752
 20
127.722765464892
 10
275.1434849800829
 20
127.7629649470795
 10
275.1766772308142
 20
127.8062219304142
 10
275.2059730804989
 20
127.8522072031335
 10
275.2311495700314
 20
127.9005707895456
 10
275.2520150911247
 20
127.950944613555
 10
275.2684108445642
 20
128.0029452999445
 10
275.2802120487663
 20
128.0561770920917
 10
275.2873288894409
 20
128.1102348639162
 10
275.2897072031336
 20
128.1647072031336
 10
275.2873288894409
 20
128.2191795423508
 10
275.2802120487663
 20
128.2732373141754
 10
275.2684108445642
 20
128.3264691063226
 10
275.2520150911247
 20
128.3784697927121
 10
275.2311495700314
 20
128.4288436167215
 10
275.2059730804989
 20
128.4772072031336
 10
275.1766772308142
 20
128.5231924758529
 10
275.1434849800829
 20
128.5664494591876
 10
275.1066489413752
 20
128.6066489413751
 10
275.0664494591877
 20
128.6434849800829
 10
275.0231924758529
 20
128.6766772308142
 10
274.9772072031336
 20
128.7059730804988
 10
274.9288436167215
 20
128.7311495700315
 10
274.8784697927121
 20
128.7520150911247
 10
274.8264691063226
 20
128.7684108445642
 10
274.7732373141754
 20
128.7802120487662
 10
274.7191795423508
 20
128.7873288894409
 10
274.6647072031336
 20
128.7897072031335
 10
274.6102348639163
 20
128.7873288894409
 10
274.5561770920917
 20
128.7802120487662
 10
274.5029452999445
 20
128.7684108445642
 10
274.450944613555
 20
128.7520150911247
 10
274.4005707895456
 20
128.7311495700315
 10
274.3522072031336
 20
128.7059730804988
 10
274.3062219304142
 20
128.6766772308142
 10
274.2629649470795
 20
128.6434849800829
 97
        0
 75
     0
 76
     1
 98
        0
  0
MTEXT
  5
B6
330
1F
100
AcDbEntity
  8
Cartouche
 62
   254
420
 15774192
100
AcDbMText
 10
283.9916755009094
 20
124.4993689419878
 30
0.0
 40
2.5
 41
0.0
 46
0.0
 71
     1
 72
     1
  1
{\fComic Sans MS;3}
 73
     1
 44
1.0
  0
MTEXT
  5
B7
330
1F
100
AcDbEntity
  8
Cartouche
 62
   254
420
 15774192
100
AcDbMText
 10
285.9571059038398
 20
124.4993689419878
 30
0.0
 40
2.5
 41
0.0
 46
0.0
 71
     1
 72
     1
  1
{\fComic Sans MS;x}
 73
     1
 44
1.0
  0
MTEXT
  5
B8
330
1F
100
AcDbEntity
  8
Cartouche
 62
   254
420
 15774192
100
AcDbMText
 10
287.9332200674539
 20
124.6138378064567
 30
0.0
 40
2.5
 41
0.0
 46
0.0
 71
     1
 72
     1
  1
{\fComic Sans MS;45°}
 73
     1
 44
1.0
  0
LINE
  5
B9
330
1F
100
AcDbEntity
  8
Cartouche
  6
________________
 62
   254
420
 15774192
370
     9
100
AcDbLine
 10
274.6647072031336
 20
128.1647072031336
 30
0.0
 11
282.1258330100669
 21
120.7035813962002
 31
0.0
  0
LINE
  5
BA
330
1F
100
AcDbEntity
  8
Cartouche
  6
________________
 62
   254
420
 15774192
370
     9
100
AcDbLine
 10
282.1258330100669
 20
120.7035813962002
 30
0.0
 11
293.3292823385162
 21
120.7035813962002
 31
0.0
  0
HATCH
  5
BB
330
1F
100
AcDbEntity
  8
Cartouche
 62
   254
420
 15774192
100
AcDbHatch
 10
0.0
 20
0.0
 30
0.0
210
0.0
220
0.0
230
1.0
  2
SOLID
 70
     1
 71
     1
 91
        1
 92
        3
 72
     0
 73
     1
 93
       72
 10
129.4419417382416
 20
65.55805826175843
 10
129.4787777769494
 20
65.59825774394594
 10
129.5119700276806
 20
65.64151472728062
 10
129.5412658773653
 20
65.68750000000004
 10
129.5664423668979
 20
65.7358635864121
 10
129.5873078879912
 20
65.78623741042148
 10
129.6037036414307
 20
65.83823809681095
 10
129.6155048456326
 20
65.8914698889582
 10
129.6226216863073
 20
65.94552766078273
 10
129.625
 20
66.00000000000003
 10
129.6226216863073
 20
66.05447233921733
 10
129.6155048456326
 20
66.10853011104187
 10
129.6037036414307
 20
66.1617619031891
 10
129.5873078879912
 20
66.21376258957858
 10
129.5664423668979
 20
66.26413641358796
 10
129.5412658773653
 20
66.31250000000003
 10
129.5119700276806
 20
66.35848527271943
 10
129.4787777769494
 20
66.40174225605412
 10
129.4419417382416
 20
66.44194173824162
 10
129.4017422560541
 20
66.4787777769494
 10
129.3584852727194
 20
66.51197002768065
 10
129.3125
 20
66.5412658773653
 10
129.2641364135879
 20
66.56644236689793
 10
129.2137625895785
 20
66.58730788799123
 10
129.1617619031891
 20
66.60370364143068
 10
129.1085301110418
 20
66.61550484563267
 10
129.0544723392173
 20
66.62262168630737
 10
129.0
 20
66.62500000000001
 10
128.9455276607827
 20
66.62262168630737
 10
128.8914698889582
 20
66.61550484563267
 10
128.8382380968109
 20
66.60370364143068
 10
128.7862374104215
 20
66.58730788799123
 10
128.7358635864121
 20
66.56644236689793
 10
128.6875
 20
66.5412658773653
 10
128.6415147272806
 20
66.51197002768065
 10
128.5982577439459
 20
66.4787777769494
 10
128.5580582617584
 20
66.44194173824162
 10
128.5212222230506
 20
66.40174225605412
 10
128.4880299723194
 20
66.35848527271943
 10
128.4587341226347
 20
66.31250000000003
 10
128.4335576331021
 20
66.26413641358796
 10
128.4126921120088
 20
66.21376258957858
 10
128.3962963585693
 20
66.1617619031891
 10
128.3844951543674
 20
66.10853011104187
 10
128.3773783136927
 20
66.05447233921733
 10
128.375
 20
66.00000000000003
 10
128.3773783136927
 20
65.94552766078273
 10
128.3844951543674
 20
65.8914698889582
 10
128.3962963585693
 20
65.83823809681095
 10
128.4126921120088
 20
65.78623741042148
 10
128.4335576331021
 20
65.7358635864121
 10
128.4587341226347
 20
65.68750000000004
 10
128.4880299723194
 20
65.64151472728062
 10
128.5212222230506
 20
65.59825774394594
 10
128.5580582617584
 20
65.55805826175843
 10
128.5982577439459
 20
65.52122222305066
 10
128.6415147272806
 20
65.48802997231941
 10
128.6875
 20
65.45873412263475
 10
128.7358635864121
 20
65.43355763310213
 10
128.7862374104215
 20
65.41269211200883
 10
128.8382380968109
 20
65.39629635856937
 10
128.8914698889582
 20
65.3844951543674
 10
128.9455276607827
 20
65.3773783136927
 10
129.0
 20
65.37500000000004
 10
129.0544723392173
 20
65.3773783136927
 10
129.1085301110418
 20
65.3844951543674
 10
129.1617619031891
 20
65.39629635856937
 10
129.2137625895785
 20
65.41269211200883
 10
129.2641364135879
 20
65.43355763310213
 10
129.3125
 20
65.45873412263475
 10
129.3584852727194
 20
65.48802997231941
 10
129.4017422560541
 20
65.52122222305066
 97
        0
 75
     0
 76
     1
 98
        0
  0
MTEXT
  5
BC
330
1F
100
AcDbEntity
  8
Cartouche
 62
   254
420
 15774192
100
AcDbMText
 10
109.4123931623932
 20
78.79578754578756
 30
0.0
 40
2.5
 41
0.0
 46
0.0
 71
     1
 72
     1
  1
{\fComic Sans MS;3}
 73
     1
 44
1.0
  0
MTEXT
  5
BD
330
1F
100
AcDbEntity
  8
Cartouche
 62
   254
420
 15774192
100
AcDbMText
 10
111.3778235653236
 20
78.79578754578756
 30
0.0
 40
2.5
 41
0.0
 46
0.0
 71
     1
 72
     1
  1
{\fComic Sans MS;x}
 73
     1
 44
1.0
  0
MTEXT
  5
BE
330
1F
100
AcDbEntity
  8
Cartouche
 62
   254
420
 15774192
100
AcDbMText
 10
113.3539377289377
 20
78.91025641025642
 30
0.0
 40
2.5
 41
0.0
 46
0.0
 71
     1
 72
     1
  1
{\fComic Sans MS;45°}
 73
     1
 44
1.0
  0
LINE
  5
BF
330
1F
100
AcDbEntity
  8
Cartouche
  6
________________
 62
   254
420
 15774192
370
     9
100
AcDbLine
 10
129.0
 20
66.00000000000003
 30
0.0
 11
120.0
 21
75.00000000000001
 31
0.0
  0
LINE
  5
C0
330
1F
100
AcDbEntity
  8
Cartouche
  6
________________
 62
   254
420
 15774192
370
     9
100
AcDbLine
 10
108.7965506715507
 20
75.00000000000001
 30
0.0
 11
120.0
 21
75.00000000000001
 31
0.0
  0
HATCH
  5
C1
330
1F
100
AcDbEntity
  8
Cartouche
 62
   254
420
 15774192
100
AcDbHatch
 10
0.0
 20
0.0
 30
0.0
210
0.0
220
0.0
230
1.0
  2
SOLID
 70
     1
 71
     1
 91
        1
 92
        3
 72
     0
 73
     1
 93
       72
 10
275.3080582617584
 20
62.19194173824162
 10
275.2712222230507
 20
62.15174225605411
 10
275.2380299723195
 20
62.10848527271943
 10
275.2087341226347
 20
62.06250000000003
 10
275.1835576331022
 20
62.01413641358796
 10
275.1626921120089
 20
61.96376258957857
 10
275.1462963585694
 20
61.9117619031891
 10
275.1344951543674
 20
61.85853011104186
 10
275.1273783136927
 20
61.80447233921731
 10
275.1250000000001
 20
61.75000000000003
 10
275.1273783136927
 20
61.69552766078274
 10
275.1344951543674
 20
61.64146988895819
 10
275.1462963585694
 20
61.58823809681095
 10
275.1626921120089
 20
61.53623741042148
 10
275.1835576331022
 20
61.48586358641209
 10
275.2087341226347
 20
61.43750000000003
 10
275.2380299723195
 20
61.39151472728062
 10
275.2712222230507
 20
61.34825774394594
 10
275.3080582617584
 20
61.30805826175843
 10
275.348257743946
 20
61.27122222305066
 10
275.3915147272807
 20
61.23802997231941
 10
275.4375000000001
 20
61.20873412263476
 10
275.4858635864121
 20
61.18355763310212
 10
275.5362374104215
 20
61.16269211200883
 10
275.588238096811
 20
61.14629635856936
 10
275.6414698889582
 20
61.1344951543674
 10
275.6955276607828
 20
61.12737831369269
 10
275.7500000000001
 20
61.12500000000003
 10
275.8044723392173
 20
61.12737831369269
 10
275.8585301110419
 20
61.1344951543674
 10
275.9117619031891
 20
61.14629635856936
 10
275.9637625895786
 20
61.16269211200883
 10
276.014136413588
 20
61.18355763310212
 10
276.0625000000001
 20
61.20873412263476
 10
276.1084852727194
 20
61.2380299723194
 10
276.1517422560541
 20
61.27122222305066
 10
276.1919417382416
 20
61.30805826175843
 10
276.2287777769494
 20
61.34825774394594
 10
276.2619700276807
 20
61.39151472728062
 10
276.2912658773653
 20
61.43750000000003
 10
276.3164423668979
 20
61.48586358641209
 10
276.3373078879912
 20
61.53623741042148
 10
276.3537036414307
 20
61.58823809681095
 10
276.3655048456327
 20
61.64146988895819
 10
276.3726216863074
 20
61.69552766078274
 10
276.3750000000001
 20
61.75000000000003
 10
276.3726216863074
 20
61.80447233921731
 10
276.3655048456327
 20
61.85853011104186
 10
276.3537036414307
 20
61.9117619031891
 10
276.3373078879912
 20
61.96376258957857
 10
276.3164423668979
 20
62.01413641358796
 10
276.2912658773653
 20
62.06250000000003
 10
276.2619700276807
 20
62.10848527271943
 10
276.2287777769494
 20
62.15174225605411
 10
276.1919417382416
 20
62.19194173824162
 10
276.1517422560541
 20
62.22877777694939
 10
276.1084852727194
 20
62.26197002768064
 10
276.0625000000001
 20
62.2912658773653
 10
276.014136413588
 20
62.31644236689793
 10
275.9637625895786
 20
62.33730788799122
 10
275.9117619031891
 20
62.3537036414307
 10
275.8585301110419
 20
62.36550484563266
 10
275.8044723392173
 20
62.37262168630737
 10
275.7500000000001
 20
62.37500000000003
 10
275.6955276607828
 20
62.37262168630737
 10
275.6414698889582
 20
62.36550484563266
 10
275.588238096811
 20
62.3537036414307
 10
275.5362374104215
 20
62.33730788799122
 10
275.4858635864121
 20
62.31644236689793
 10
275.4375000000001
 20
62.2912658773653
 10
275.3915147272807
 20
62.26197002768065
 10
275.348257743946
 20
62.22877777694939
 97
        0
 75
     0
 76
     1
 98
        0
  0
MTEXT
  5
C2
330
1F
100
AcDbEntity
  8
Cartouche
 62
   254
420
 15774192
100
AcDbMText
 10
281.8658424908425
 20
61.29578754578758
 30
0.0
 40
2.5
 41
0.0
 46
0.0
 71
     1
 72
     1
  1
{\fComic Sans MS;3}
 73
     1
 44
1.0
  0
MTEXT
  5
C3
330
1F
100
AcDbEntity
  8
Cartouche
 62
   254
420
 15774192
100
AcDbMText
 10
283.8312728937729
 20
61.29578754578758
 30
0.0
 40
2.5
 41
0.0
 46
0.0
 71
     1
 72
     1
  1
{\fComic Sans MS;x}
 73
     1
 44
1.0
  0
MTEXT
  5
C4
330
1F
100
AcDbEntity
  8
Cartouche
 62
   254
420
 15774192
100
AcDbMText
 10
285.8073870573871
 20
61.41025641025644
 30
0.0
 40
2.5
 41
0.0
 46
0.0
 71
     1
 72
     1
  1
{\fComic Sans MS;45°}
 73
     1
 44
1.0
  0
LINE
  5
C5
330
1F
100
AcDbEntity
  8
Cartouche
  6
________________
 62
   254
420
 15774192
370
     9
100
AcDbLine
 10
275.7500000000001
 20
61.75000000000003
 30
0.0
 11
280.0
 21
57.50000000000004
 31
0.0
  0
LINE
  5
C6
330
1F
100
AcDbEntity
  8
Cartouche
  6
________________
 62
   254
420
 15774192
370
     9
100
AcDbLine
 10
280.0
 20
57.50000000000004
 30
0.0
 11
291.2034493284493
 21
57.50000000000004
 31
0.0
  0
HATCH
  5
C7
330
1F
100
AcDbEntity
  8
Cartouche
 62
   254
420
 15774192
100
AcDbHatch
 10
0.0
 20
0.0
 30
0.0
210
0.0
220
0.0
230
1.0
  2
SOLID
 70
     1
 71
     1
 91
        1
 92
        3
 72
     0
 73
     1
 93
       72
 10
129.4419417382416
 20
29.44194173824161
 10
129.4017422560541
 20
29.47877777694938
 10
129.3584852727194
 20
29.51197002768064
 10
129.3125
 20
29.54126587736529
 10
129.2641364135879
 20
29.56644236689792
 10
129.2137625895785
 20
29.58730788799121
 10
129.1617619031891
 20
29.60370364143069
 10
129.1085301110418
 20
29.61550484563265
 10
129.0544723392173
 20
29.62262168630736
 10
129.0
 20
29.62500000000002
 10
128.9455276607827
 20
29.62262168630736
 10
128.8914698889582
 20
29.61550484563265
 10
128.8382380968109
 20
29.60370364143069
 10
128.7862374104215
 20
29.58730788799121
 10
128.7358635864121
 20
29.56644236689792
 10
128.6875
 20
29.54126587736529
 10
128.6415147272806
 20
29.51197002768064
 10
128.5982577439459
 20
29.47877777694938
 10
128.5580582617584
 20
29.44194173824161
 10
128.5212222230506
 20
29.40174225605411
 10
128.4880299723194
 20
29.35848527271942
 10
128.4587341226347
 20
29.31250000000002
 10
128.4335576331021
 20
29.26413641358796
 10
128.4126921120088
 20
29.21376258957856
 10
128.3962963585693
 20
29.1617619031891
 10
128.3844951543674
 20
29.10853011104185
 10
128.3773783136927
 20
29.05447233921731
 10
128.375
 20
29.00000000000002
 10
128.3773783136927
 20
28.94552766078273
 10
128.3844951543674
 20
28.89146988895819
 10
128.3962963585693
 20
28.83823809681094
 10
128.4126921120088
 20
28.78623741042148
 10
128.4335576331021
 20
28.73586358641208
 10
128.4587341226347
 20
28.68750000000002
 10
128.4880299723194
 20
28.64151472728062
 10
128.5212222230506
 20
28.59825774394593
 10
128.5580582617584
 20
28.55805826175843
 10
128.5982577439459
 20
28.52122222305066
 10
128.6415147272806
 20
28.4880299723194
 10
128.6875
 20
28.45873412263474
 10
128.7358635864121
 20
28.43355763310212
 10
128.7862374104215
 20
28.41269211200882
 10
128.8382380968109
 20
28.39629635856935
 10
128.8914698889582
 20
28.38449515436739
 10
128.9455276607827
 20
28.37737831369268
 10
129.0
 20
28.37500000000002
 10
129.0544723392173
 20
28.37737831369268
 10
129.1085301110418
 20
28.38449515436739
 10
129.1617619031891
 20
28.39629635856935
 10
129.2137625895785
 20
28.41269211200882
 10
129.2641364135879
 20
28.43355763310212
 10
129.3125
 20
28.45873412263474
 10
129.3584852727194
 20
28.4880299723194
 10
129.4017422560541
 20
28.52122222305066
 10
129.4419417382416
 20
28.55805826175843
 10
129.4787777769494
 20
28.59825774394593
 10
129.5119700276806
 20
28.64151472728062
 10
129.5412658773653
 20
28.68750000000002
 10
129.5664423668979
 20
28.73586358641208
 10
129.5873078879912
 20
28.78623741042148
 10
129.6037036414307
 20
28.83823809681094
 10
129.6155048456326
 20
28.89146988895819
 10
129.6226216863073
 20
28.94552766078273
 10
129.625
 20
29.00000000000002
 10
129.6226216863073
 20
29.05447233921731
 10
129.6155048456326
 20
29.10853011104185
 10
129.6037036414307
 20
29.1617619031891
 10
129.5873078879912
 20
29.21376258957856
 10
129.5664423668979
 20
29.26413641358796
 10
129.5412658773653
 20
29.31250000000002
 10
129.5119700276806
 20
29.35848527271942
 10
129.4787777769494
 20
29.40174225605411
 97
        0
 75
     0
 76
     1
 98
        0
  0
MTEXT
  5
C8
330
1F
100
AcDbEntity
  8
Cartouche
 62
   254
420
 15774192
100
AcDbMText
 10
111.9123931623931
 20
26.29578754578757
 30
0.0
 40
2.5
 41
0.0
 46
0.0
 71
     1
 72
     1
  1
{\fComic Sans MS;3}
 73
     1
 44
1.0
  0
MTEXT
  5
C9
330
1F
100
AcDbEntity
  8
Cartouche
 62
   254
420
 15774192
100
AcDbMText
 10
113.8778235653236
 20
26.29578754578757
 30
0.0
 40
2.5
 41
0.0
 46
0.0
 71
     1
 72
     1
  1
{\fComic Sans MS;x}
 73
     1
 44
1.0
  0
MTEXT
  5
CA
330
1F
100
AcDbEntity
  8
Cartouche
 62
   254
420
 15774192
100
AcDbMText
 10
115.8539377289377
 20
26.41025641025643
 30
0.0
 40
2.5
 41
0.0
 46
0.0
 71
     1
 72
     1
  1
{\fComic Sans MS;45°}
 73
     1
 44
1.0
  0
LINE
  5
CB
330
1F
100
AcDbEntity
  8
Cartouche
  6
________________
 62
   254
420
 15774192
370
     9
100
AcDbLine
 10
129.0
 20
29.00000000000002
 30
0.0
 11
122.5
 21
22.50000000000002
 31
0.0
  0
LINE
  5
CC
330
1F
100
AcDbEntity
  8
Cartouche
  6
________________
 62
   254
420
 15774192
370
     9
100
AcDbLine
 10
111.2965506715506
 20
22.50000000000002
 30
0.0
 11
122.5
 21
22.50000000000002
 31
0.0
  0
LINE
  5
CD
330
1F
100
AcDbEntity
  8
Cartouche
  6
________________
 62
     7
370
    20
100
AcDbLine
 10
8.999999999999952
 20
6.0
 30
0.0
 11
408.9999999999999
 21
6.0
 31
0.0
  0
LINE
  5
CE
330
1F
100
AcDbEntity
  8
Cartouche
  6
________________
 62
     7
370
    20
100
AcDbLine
 10
8.999999999999952
 20
20.0
 30
0.0
 11
408.9999999999999
 21
20.0
 31
0.0
  0
LINE
  5
CF
330
1F
100
AcDbEntity
  8
Cartouche
  6
________________
 62
     7
370
    20
100
AcDbLine
 10
8.999999999999952
 20
6.0
 30
0.0
 11
8.999999999999952
 21
20.0
 31
0.0
  0
LINE
  5
D0
330
1F
100
AcDbEntity
  8
Cartouche
  6
________________
 62
     7
370
    20
100
AcDbLine
 10
408.9999999999999
 20
6.0
 30
0.0
 11
408.9999999999999
 21
20.0
 31
0.0
  0
LINE
  5
D1
330
1F
100
AcDbEntity
  8
Cartouche
  6
________________
 62
     7
370
    20
100
AcDbLine
 10
394.9999999999999
 20
6.0
 30
0.0
 11
394.9999999999999
 21
20.0
 31
0.0
  0
LINE
  5
D2
330
1F
100
AcDbEntity
  8
Cartouche
  6
________________
 62
     7
370
    20
100
AcDbLine
 10
369.9999999999999
 20
6.0
 30
0.0
 11
369.9999999999999
 21
20.0
 31
0.0
  0
LINE
  5
D3
330
1F
100
AcDbEntity
  8
Cartouche
  6
________________
 62
     7
370
    20
100
AcDbLine
 10
394.9999999999999
 20
13.0
 30
0.0
 11
369.9999999999999
 21
13.0
 31
0.0
  0
LINE
  5
D4
330
1F
100
AcDbEntity
  8
Cartouche
  6
________________
 62
     7
370
    20
100
AcDbLine
 10
359.9999999999999
 20
6.0
 30
0.0
 11
359.9999999999999
 21
20.0
 31
0.0
  0
LINE
  5
D5
330
1F
100
AcDbEntity
  8
Cartouche
  6
________________
 62
     7
370
    20
100
AcDbLine
 10
349.9999999999999
 20
6.0
 30
0.0
 11
349.9999999999999
 21
20.0
 31
0.0
  0
LINE
  5
D6
330
1F
100
AcDbEntity
  8
Cartouche
  6
________________
 62
     7
370
    20
100
AcDbLine
 10
332.9999999999999
 20
6.0
 30
0.0
 11
332.9999999999999
 21
20.0
 31
0.0
  0
LINE
  5
D7
330
1F
100
AcDbEntity
  8
Cartouche
  6
________________
 62
     7
370
    20
100
AcDbLine
 10
312.9999999999999
 20
6.0
 30
0.0
 11
312.9999999999999
 21
20.0
 31
0.0
  0
LINE
  5
D8
330
1F
100
AcDbEntity
  8
Cartouche
  6
________________
 62
     7
370
    20
100
AcDbLine
 10
241.9999999999999
 20
6.0
 30
0.0
 11
241.9999999999999
 21
20.0
 31
0.0
  0
LINE
  5
D9
330
1F
100
AcDbEntity
  8
Cartouche
  6
________________
 62
     7
370
    20
100
AcDbLine
 10
169.9999999999999
 20
6.0
 30
0.0
 11
169.9999999999999
 21
20.0
 31
0.0
  0
LINE
  5
DA
330
1F
100
AcDbEntity
  8
Cartouche
  6
________________
 62
     7
370
    20
100
AcDbLine
 10
98.99999999999986
 20
6.0
 30
0.0
 11
98.99999999999986
 21
20.0
 31
0.0
  0
DIMENSION
  5
E1
330
1F
100
AcDbEntity
  8
Cartouche
 62
   254
420
 15774192
100
AcDbDimension
  2
*D3
 10
84.26380067705277
 20
121.4166185511197
 30
0.0
 11
29.47425094718692
 21
101.25
 31
0.0
 70
   163
  1
<>  ± 0.1mm
 71
     5
 42
26.80000000000001
 73
     0
 74
     0
 75
     0
  3
Standard
100
AcDbDiametricDimension
 15
60.73619932294725
 25
108.5833814488803
 35
0.0
 40
0.0
1001
ACAD
1000
DSTYLE
1002
{
1070
    47
1040
0.0
1070
    48
1040
0.0
1070
    71
1070
     0
1070
    73
1070
     1
1070
    74
1070
     1
1070
   280
1070
     2
1070
    76
1070
     0
1070
    75
1070
     0
1070
   344
1005
DB
1070
   343
1005
DB
1070
   173
1070
     1
1070
   284
1070
     8
1070
    78
1070
     8
1070
    79
1070
     2
1070
   144
1040
1.0
1070
   146
1040
0.5
1070
   179
1070
     2
1070
    41
1040
2.5
1070
   271
1070
     2
1070
    44
1040
1.25
1070
   147
1040
1.25
1070
    77
1070
     1
1070
   340
1005
6F
1070
   140
1040
2.5
1002
}
  0
INSERT
  5
10E
330
1F
100
AcDbEntity
  8
Cartouche
  6
________________
 62
     7
370
    20
100
AcDbBlockReference
  2
D_FRAME_VIEW@231
 10
0.0
 20
0.0
 30
0.0
  0
INSERT
  5
116
330
1F
100
AcDbEntity
  8
Cartouche
  6
________________
 62
     7
370
    20
100
AcDbBlockReference
  2
D_FRAME_VIEW@233
 10
0.0
 20
0.0
 30
0.0
  0
DIMENSION
  5
117
330
1F
100
AcDbEntity
  8
Cartouche
 62
   254
420
 15774192
100
AcDbDimension
  2
*D6
 10
335.1671171253433
 20
119.1109609582189
 30
0.0
 11
376.7591593404145
 21
108.0672620992008
 31
0.0
 70
    35
  1
<>  ± 0.1mm
 71
     5
 42
26.00000000000002
 73
     0
 74
     0
 75
     0
  3
Standard
100
AcDbDiametricDimension
 15
359.8328828746567
 25
110.8890390417811
 35
0.0
 40
0.0
1001
ACAD
1000
DSTYLE
1002
{
1070
    47
1040
0.0
1070
    48
1040
0.0
1070
    71
1070
     0
1070
    73
1070
     0
1070
    74
1070
     0
1070
   280
1070
     2
1070
    76
1070
     0
1070
    75
1070
     0
1070
   344
1005
DB
1070
   343
1005
DB
1070
   173
1070
     1
1070
   284
1070
     8
1070
    78
1070
     8
1070
    79
1070
     2
1070
   144
1040
1.0
1070
   146
1040
0.5
1070
   179
1070
     2
1070
    41
1040
2.5
1070
   271
1070
     2
1070
    44
1040
1.25
1070
   147
1040
1.25
1070
    77
1070
     1
1070
   340
1005
6F
1070
   140
1040
2.5
1002
}
  0
DIMENSION
  5
122
330
1F
100
AcDbEntity
  8
Cartouche
 62
   254
420
 15774192
100
AcDbDimension
  2
*D7
 10
89.53316633409091
 20
104.5180514867133
 30
0.0
 11
46.59354208238639
 21
130.7470840791084
 31
0.0
 70
    35
  1
<>
 71
     5
 42
40.00000000000005
 73
     0
 74
     0
 75
     0
  3
Standard
100
AcDbDiametricDimension
 15
55.46683366590911
 25
125.4819485132867
 35
0.0
 40
0.0
1001
ACAD
1000
DSTYLE
1002
{
1070
    47
1040
0.0
1070
    48
1040
0.0
1070
    71
1070
     0
1070
    73
1070
     1
1070
    74
1070
     1
1070
   280
1070
     2
1070
    76
1070
     0
1070
    75
1070
     0
1070
   344
1005
DB
1070
   343
1005
DB
1070
   173
1070
     1
1070
   284
1070
     8
1070
    78
1070
     8
1070
    79
1070
     2
1070
   144
1040
1.0
1070
   146
1040
0.5
1070
   179
1070
     2
1070
    41
1040
2.5
1070
   271
1070
     2
1070
    44
1040
1.25
1070
   147
1040
1.25
1070
    77
1070
     1
1070
   340
1005
6F
1070
   140
1040
2.5
1002
}
  0
INSERT
  5
14E
330
1F
100
AcDbEntity
  8
Cartouche
  6
________________
 62
     7
370
    20
100
AcDbBlockReference
  2
D_FRAME_VIEW@226
 10
0.0
 20
0.0
 30
0.0
  0
DIMENSION
  5
14F
330
1F
100
AcDbEntity
  8
Cartouche
 62
   254
420
 15774192
100
AcDbDimension
  2
*D9
 10
63.30761184457488
 20
124.1923881554251
 30
0.0
 11
95.56977305659075
 21
95.71407686351655
 31
0.0
 70
    35
  1
<>  ± 0.1mm
 71
     5
 42
26.00000000000001
 73
     0
 74
     0
 75
     0
  3
Standard
100
AcDbDiametricDimension
 15
81.69238815542514
 25
105.8076118445749
 35
0.0
 40
0.0
1001
ACAD
1000
DSTYLE
1002
{
1070
    47
1040
0.0
1070
    48
1040
0.0
1070
    71
1070
     0
1070
    73
1070
     0
1070
    74
1070
     0
1070
   280
1070
     0
1070
    76
1070
     0
1070
    75
1070
     0
1070
   344
1005
DB
1070
   343
1005
DB
1070
   173
1070
     1
1070
   284
1070
     8
1070
    78
1070
     8
1070
    79
1070
     2
1070
   144
1040
1.0
1070
   146
1040
0.5
1070
   179
1070
     2
1070
    41
1040
2.5
1070
   271
1070
     2
1070
    44
1040
1.25
1070
   147
1040
1.25
1070
    77
1070
     1
1070
   340
1005
6F
1070
   140
1040
2.5
1002
}
  0
DIMENSION
  5
15A
330
1F
100
AcDbEntity
  8
Cartouche
 62
   254
420
 15774192
100
AcDbDimension
  2
*D10
 10
78.5
 20
86.25000000000001
 30
0.0
 11
72.50000000000001
 21
86.25000000000001
 31
0.0
 70
   160
  1
%%c<>
 71
     5
 42
12.0
 73
     0
 74
     0
 75
     0
  3
Standard
100
AcDbAlignedDimension
 13
66.5
 23
95.9212159716611
 33
0.0
 14
78.5
 24
95.92121597166108
 34
0.0
100
AcDbRotatedDimension
1001
ACAD
1000
DSTYLE
1002
{
1070
    47
1040
0.0
1070
    48
1040
0.0
1070
    71
1070
     0
1070
    73
1070
     0
1070
    74
1070
     0
1070
   280
1070
     0
1070
    76
1070
     0
1070
    75
1070
     0
1070
   282
1070
     0
1070
   281
1070
     0
1070
   344
1005
DB
1070
   343
1005
DB
1070
   173
1070
     1
1070
   284
1070
     8
1070
    78
1070
     8
1070
    79
1070
     2
1070
   144
1040
1.0
1070
   146
1040
0.5
1070
   179
1070
     2
1070
    41
1040
2.5
1070
   271
1070
     2
1070
    44
1040
1.25
1070
   147
1040
1.25
1070
    77
1070
     1
1070
   340
1005
6F
1070
   140
1040
2.5
1002
}
  0
DIMENSION
  5
167
330
1F
100
AcDbEntity
  8
Cartouche
 62
   254
420
 15774192
100
AcDbDimension
  2
*D11
 10
342.9999999999999
 20
86.25000000000001
 30
0.0
 11
347.4999999999999
 21
86.25000000000001
 31
0.0
 70
   160
  1
%%c<>
 71
     5
 42
9.000000000000057
 73
     0
 74
     0
 75
     0
  3
Standard
100
AcDbAlignedDimension
 13
352.0
 23
95.51282473009493
 33
0.0
 14
342.9999999999999
 24
95.51282473009493
 34
0.0
100
AcDbRotatedDimension
1001
ACAD
1000
DSTYLE
1002
{
1070
    47
1040
0.0
1070
    48
1040
0.0
1070
    71
1070
     0
1070
    73
1070
     0
1070
    74
1070
     0
1070
   280
1070
     0
1070
    76
1070
     0
1070
    75
1070
     0
1070
   282
1070
     0
1070
   281
1070
     0
1070
   344
1005
DB
1070
   343
1005
DB
1070
   173
1070
     1
1070
   284
1070
     8
1070
    78
1070
     8
1070
    79
1070
     2
1070
   144
1040
1.0
1070
   146
1040
0.5
1070
   179
1070
     2
1070
    41
1040
2.5
1070
   271
1070
     2
1070
    44
1040
1.25
1070
   147
1040
1.25
1070
    77
1070
     1
1070
   340
1005
6F
1070
   140
1040
2.5
1002
}
  0
DIMENSION
  5
174
330
1F
100
AcDbEntity
  8
Cartouche
 62
   254
420
 15774192
100
AcDbDimension
  2
*D12
 10
168.5
 20
143.75
 30
0.0
 11
162.5
 21
143.75
 31
0.0
 70
   160
  1
%%c<>
 71
     5
 42
11.99999999999997
 73
     0
 74
     0
 75
     0
  3
Standard
100
AcDbAlignedDimension
 13
156.5
 23
135.0
 33
0.0
 14
168.5
 24
135.0
 34
0.0
100
AcDbRotatedDimension
1001
ACAD
1000
DSTYLE
1002
{
1070
    47
1040
0.0
1070
    48
1040
0.0
1070
    71
1070
     0
1070
    73
1070
     0
1070
    74
1070
     0
1070
   280
1070
     0
1070
    76
1070
     0
1070
    75
1070
     0
1070
   282
1070
     0
1070
   281
1070
     0
1070
   344
1005
DB
1070
   343
1005
DB
1070
   173
1070
     1
1070
   284
1070
     8
1070
    78
1070
     8
1070
    79
1070
     2
1070
   144
1040
1.0
1070
   146
1040
0.5
1070
   179
1070
     2
1070
    41
1040
2.5
1070
   271
1070
     2
1070
    44
1040
1.25
1070
   147
1040
1.25
1070
    77
1070
     1
1070
   340
1005
6F
1070
   140
1040
2.5
1002
}
  0
DIMENSION
  5
181
330
1F
100
AcDbEntity
  8
Cartouche
 62
   254
420
 15774192
100
AcDbDimension
  2
*D13
 10
207.0
 20
143.75
 30
0.0
 11
202.5
 21
143.75
 31
0.0
 70
   160
  1
%%c<>
 71
     5
 42
9.0
 73
     0
 74
     0
 75
     0
  3
Standard
100
AcDbAlignedDimension
 13
198.0
 23
135.0
 33
0.0
 14
207.0
 24
135.0
 34
0.0
100
AcDbRotatedDimension
1001
ACAD
1000
DSTYLE
1002
{
1070
    47
1040
0.0
1070
    48
1040
0.0
1070
    71
1070
     0
1070
    73
1070
     0
1070
    74
1070
     0
1070
   280
1070
     0
1070
    76
1070
     0
1070
    75
1070
     0
1070
   282
1070
     0
1070
   281
1070
     0
1070
   344
1005
DB
1070
   343
1005
DB
1070
   173
1070
     1
1070
   284
1070
     8
1070
    78
1070
     8
1070
    79
1070
     2
1070
   144
1040
1.0
1070
   146
1040
0.5
1070
   179
1070
     2
1070
    41
1040
2.5
1070
   271
1070
     2
1070
    44
1040
1.25
1070
   147
1040
1.25
1070
    77
1070
     1
1070
   340
1005
6F
1070
   140
1040
2.5
1002
}
  0
DIMENSION
  5
18E
330
1F
100
AcDbEntity
  8
Cartouche
 62
   254
420
 15774192
100
AcDbDimension
  2
*D14
 10
262.0
 20
143.75
 30
0.0
 11
257.5
 21
143.75
 31
0.0
 70
   160
  1
%%c<>
 71
     5
 42
9.0
 73
     0
 74
     0
 75
     0
  3
Standard
100
AcDbAlignedDimension
 13
253.0
 23
135.0
 33
0.0
 14
262.0
 24
135.0
 34
0.0
100
AcDbRotatedDimension
1001
ACAD
1000
DSTYLE
1002
{
1070
    47
1040
0.0
1070
    48
1040
0.0
1070
    71
1070
     0
1070
    73
1070
     0
1070
    74
1070
     0
1070
   280
1070
     0
1070
    76
1070
     0
1070
    75
1070
     0
1070
   282
1070
     0
1070
   281
1070
     0
1070
   344
1005
DB
1070
   343
1005
DB
1070
   173
1070
     1
1070
   284
1070
     8
1070
    78
1070
     8
1070
    79
1070
     2
1070
   144
1040
1.0
1070
   146
1040
0.5
1070
   179
1070
     2
1070
    41
1040
2.5
1070
   271
1070
     2
1070
    44
1040
1.25
1070
   147
1040
1.25
1070
    77
1070
     1
1070
   340
1005
6F
1070
   140
1040
2.5
1002
}
  0
DIMENSION
  5
19B
330
1F
100
AcDbEntity
  8
Cartouche
 62
   254
420
 15774192
100
AcDbDimension
  2
*D15
 10
108.75
 20
95.00000000000001
 30
0.0
 11
108.75
 21
117.5
 31
0.0
 70
   160
  1
%%c<>
 71
     5
 42
39.99999999999999
 73
     0
 74
     0
 75
     0
  3
Standard
100
AcDbAlignedDimension
 13
130.5
 23
135.0
 33
0.0
 14
130.5
 24
95.00000000000001
 34
0.0
 50
270.0
100
AcDbRotatedDimension
1001
ACAD
1000
DSTYLE
1002
{
1070
    47
1040
0.0
1070
    48
1040
0.0
1070
    71
1070
     0
1070
    73
1070
     0
1070
    74
1070
     0
1070
   280
1070
     0
1070
    76
1070
     0
1070
    75
1070
     0
1070
   282
1070
     0
1070
   281
1070
     0
1070
   344
1005
DB
1070
   343
1005
DB
1070
   173
1070
     1
1070
   284
1070
     8
1070
    78
1070
     8
1070
    79
1070
     2
1070
   144
1040
1.0
1070
   146
1040
0.5
1070
   179
1070
     2
1070
    41
1040
2.5
1070
   271
1070
     2
1070
    44
1040
1.25
1070
   147
1040
1.25
1070
    77
1070
     1
1070
   340
1005
6F
1070
   140
1040
2.5
1002
}
  0
DIMENSION
  5
1A8
330
1F
100
AcDbEntity
  8
Cartouche
 62
   254
420
 15774192
100
AcDbDimension
  2
*D16
 10
116.25
 20
128.4
 30
0.0
 11
116.25
 21
115.0
 31
0.0
 70
   160
  1
%%c<>  ± 0.1mm
 71
     5
 42
26.79999999999998
 73
     0
 74
     0
 75
     0
  3
Standard
100
AcDbAlignedDimension
 13
127.5
 23
101.6
 33
0.0
 14
127.5
 24
128.4
 34
0.0
 50
90.0
100
AcDbRotatedDimension
1001
ACAD
1000
DSTYLE
1002
{
1070
    47
1040
0.0
1070
    48
1040
0.0
1070
    71
1070
     0
1070
    73
1070
     0
1070
    74
1070
     0
1070
   280
1070
     0
1070
    76
1070
     0
1070
    75
1070
     0
1070
   282
1070
     0
1070
   281
1070
     0
1070
   344
1005
DB
1070
   343
1005
DB
1070
   173
1070
     1
1070
   284
1070
     8
1070
    78
1070
     8
1070
    79
1070
     2
1070
   144
1040
1.0
1070
   146
1040
0.5
1070
   179
1070
     2
1070
    41
1040
2.5
1070
   271
1070
     2
1070
    44
1040
1.25
1070
   147
1040
1.25
1070
    77
1070
     1
1070
   340
1005
6F
1070
   140
1040
2.5
1002
}
  0
DIMENSION
  5
1B5
330
1F
100
AcDbEntity
  8
Cartouche
 62
   254
420
 15774192
100
AcDbDimension
  2
*D17
 10
181.25
 20
102.0
 30
0.0
 11
181.25
 21
115.0
 31
0.0
 70
   160
  1
%%c<>  ± 0.1mm
 71
     5
 42
25.99999999999999
 73
     0
 74
     0
 75
     0
  3
Standard
100
AcDbAlignedDimension
 13
186.25
 23
128.0
 33
0.0
 14
186.25
 24
102.0
 34
0.0
 50
270.0
100
AcDbRotatedDimension
1001
ACAD
1000
DSTYLE
1002
{
1070
    47
1040
0.0
1070
    48
1040
0.0
1070
    71
1070
     0
1070
    73
1070
     0
1070
    74
1070
     0
1070
   280
1070
     0
1070
    76
1070
     0
1070
    75
1070
     0
1070
   282
1070
     0
1070
   281
1070
     0
1070
   344
1005
DB
1070
   343
1005
DB
1070
   173
1070
     1
1070
   284
1070
     8
1070
    78
1070
     8
1070
    79
1070
     2
1070
   144
1040
1.0
1070
   146
1040
0.5
1070
   179
1070
     2
1070
    41
1040
2.5
1070
   271
1070
     2
1070
    44
1040
1.25
1070
   147
1040
1.25
1070
    77
1070
     1
1070
   340
1005
6F
1070
   140
1040
2.5
1002
}
  0
DIMENSION
  5
1C2
330
1F
100
AcDbEntity
  8
Cartouche
 62
   254
420
 15774192
100
AcDbDimension
  2
*D18
 10
296.25
 20
128.0
 30
0.0
 11
296.25
 21
115.0
 31
0.0
 70
   160
  1
%%c<>  ± 0.1mm
 71
     5
 42
25.99999999999999
 73
     0
 74
     0
 75
     0
  3
Standard
100
AcDbAlignedDimension
 13
274.5
 23
102.0
 33
0.0
 14
274.5
 24
128.0
 34
0.0
 50
90.0
100
AcDbRotatedDimension
1001
ACAD
1000
DSTYLE
1002
{
1070
    47
1040
0.0
1070
    48
1040
0.0
1070
    71
1070
     0
1070
    73
1070
     0
1070
    74
1070
     0
1070
   280
1070
     0
1070
    76
1070
     0
1070
    75
1070
     0
1070
   282
1070
     0
1070
   281
1070
     0
1070
   344
1005
DB
1070
   343
1005
DB
1070
   173
1070
     1
1070
   284
1070
     8
1070
    78
1070
     8
1070
    79
1070
     2
1070
   144
1040
1.0
1070
   146
1040
0.5
1070
   179
1070
     2
1070
    41
1040
2.5
1070
   271
1070
     2
1070
    44
1040
1.25
1070
   147
1040
1.25
1070
    77
1070
     1
1070
   340
1005
6F
1070
   140
1040
2.5
1002
}
  0
DIMENSION
  5
1CF
330
1F
100
AcDbEntity
  8
Cartouche
 62
   254
420
 15774192
100
AcDbDimension
  2
*D19
 10
306.25
 20
95.00000000000001
 30
0.0
 11
306.25
 21
117.5
 31
0.0
 70
   160
  1
%%c<>
 71
     5
 42
39.99999999999999
 73
     0
 74
     0
 75
     0
  3
Standard
100
AcDbAlignedDimension
 13
277.5
 23
135.0
 33
0.0
 14
277.5
 24
95.00000000000001
 34
0.0
 50
270.0
100
AcDbRotatedDimension
1001
ACAD
1000
DSTYLE
1002
{
1070
    47
1040
0.0
1070
    48
1040
0.0
1070
    71
1070
     0
1070
    73
1070
     0
1070
    74
1070
     0
1070
   280
1070
     0
1070
    76
1070
     0
1070
    75
1070
     0
1070
   282
1070
     0
1070
   281
1070
     0
1070
   344
1005
DB
1070
   343
1005
DB
1070
   173
1070
     1
1070
   284
1070
     8
1070
    78
1070
     8
1070
    79
1070
     2
1070
   144
1040
1.0
1070
   146
1040
0.5
1070
   179
1070
     2
1070
    41
1040
2.5
1070
   271
1070
     2
1070
    44
1040
1.25
1070
   147
1040
1.25
1070
    77
1070
     1
1070
   340
1005
6F
1070
   140
1040
2.5
1002
}
  0
DIMENSION
  5
1DC
330
1F
100
AcDbEntity
  8
Cartouche
 62
   254
420
 15774192
100
AcDbDimension
  2
*D20
 10
162.5
 20
88.75000000000003
 30
0.0
 11
145.0
 21
88.75000000000003
 31
0.0
 70
   160
  1
<>
 71
     5
 42
35.00000000000003
 73
     0
 74
     0
 75
     0
  3
Standard
100
AcDbAlignedDimension
 13
127.5
 23
101.6
 33
0.0
 14
162.5
 24
115.0
 34
0.0
100
AcDbRotatedDimension
1001
ACAD
1000
DSTYLE
1002
{
1070
    47
1040
0.0
1070
    48
1040
0.0
1070
    71
1070
     0
1070
    73
1070
     0
1070
    74
1070
     0
1070
   280
1070
     0
1070
    76
1070
     0
1070
    75
1070
     0
1070
   282
1070
     0
1070
   281
1070
     0
1070
   344
1005
DB
1070
   343
1005
DB
1070
   173
1070
     1
1070
   284
1070
     8
1070
    78
1070
     8
1070
    79
1070
     2
1070
   144
1040
1.0
1070
   146
1040
0.5
1070
   179
1070
     2
1070
    41
1040
2.5
1070
   271
1070
     2
1070
    44
1040
1.25
1070
   147
1040
1.25
1070
    77
1070
     1
1070
   340
1005
6F
1070
   140
1040
2.5
1002
}
  0
DIMENSION
  5
1E9
330
1F
100
AcDbEntity
  8
Cartouche
 62
   254
420
 15774192
100
AcDbDimension
  2
*D21
 10
202.5
 20
88.75000000000003
 30
0.0
 11
182.5000000000001
 21
88.75000000000003
 31
0.0
 70
   160
  1
<>
 71
     5
 42
39.99999999999997
 73
     0
 74
     0
 75
     0
  3
Standard
100
AcDbAlignedDimension
 13
162.5
 23
84.99999999999999
 33
0.0
 14
202.5
 24
93.00000000000001
 34
0.0
100
AcDbRotatedDimension
1001
ACAD
1000
DSTYLE
1002
{
1070
    47
1040
0.0
1070
    48
1040
0.0
1070
    71
1070
     0
1070
    73
1070
     0
1070
    74
1070
     0
1070
   280
1070
     0
1070
    76
1070
     0
1070
    75
1070
     0
1070
   282
1070
     0
1070
   281
1070
     0
1070
   344
1005
DB
1070
   343
1005
DB
1070
   173
1070
     1
1070
   284
1070
     8
1070
    78
1070
     8
1070
    79
1070
     2
1070
   144
1040
1.0
1070
   146
1040
0.5
1070
   179
1070
     2
1070
    41
1040
2.5
1070
   271
1070
     2
1070
    44
1040
1.25
1070
   147
1040
1.25
1070
    77
1070
     1
1070
   340
1005
6F
1070
   140
1040
2.5
1002
}
  0
DIMENSION
  5
1F6
330
1F
100
AcDbEntity
  8
Cartouche
 62
   254
420
 15774192
100
AcDbDimension
  2
*D22
 10
257.5
 20
88.75000000000003
 30
0.0
 11
235.0
 21
88.75000000000003
 31
0.0
 70
   160
  1
<>
 71
     5
 42
55.0
 73
     0
 74
     0
 75
     0
  3
Standard
100
AcDbAlignedDimension
 13
202.5
 23
93.00000000000001
 33
0.0
 14
257.5
 24
84.99999999999999
 34
0.0
100
AcDbRotatedDimension
1001
ACAD
1000
DSTYLE
1002
{
1070
    47
1040
0.0
1070
    48
1040
0.0
1070
    71
1070
     0
1070
    73
1070
     0
1070
    74
1070
     0
1070
   280
1070
     0
1070
    76
1070
     0
1070
    75
1070
     0
1070
   282
1070
     0
1070
   281
1070
     0
1070
   344
1005
DB
1070
   343
1005
DB
1070
   173
1070
     1
1070
   284
1070
     8
1070
    78
1070
     8
1070
    79
1070
     2
1070
   144
1040
1.0
1070
   146
1040
0.5
1070
   179
1070
     2
1070
    41
1040
2.5
1070
   271
1070
     2
1070
    44
1040
1.25
1070
   147
1040
1.25
1070
    77
1070
     1
1070
   340
1005
6F
1070
   140
1040
2.5
1002
}
  0
DIMENSION
  5
203
330
1F
100
AcDbEntity
  8
Cartouche
 62
   254
420
 15774192
100
AcDbDimension
  2
*D23
 10
277.5
 20
88.75000000000003
 30
0.0
 11
270.0
 21
88.75000000000003
 31
0.0
 70
   160
  1
<>
 71
     5
 42
20.0
 73
     0
 74
     0
 75
     0
  3
Standard
100
AcDbAlignedDimension
 13
257.5
 23
84.99999999999999
 33
0.0
 14
277.5
 24
99.00000000000001
 34
0.0
100
AcDbRotatedDimension
1001
ACAD
1000
DSTYLE
1002
{
1070
    47
1040
0.0
1070
    48
1040
0.0
1070
    71
1070
     0
1070
    73
1070
     0
1070
    74
1070
     0
1070
   280
1070
     0
1070
    76
1070
     0
1070
    75
1070
     0
1070
   282
1070
     0
1070
   281
1070
     0
1070
   344
1005
DB
1070
   343
1005
DB
1070
   173
1070
     1
1070
   284
1070
     8
1070
    78
1070
     8
1070
    79
1070
     2
1070
   144
1040
1.0
1070
   146
1040
0.5
1070
   179
1070
     2
1070
    41
1040
2.5
1070
   271
1070
     2
1070
    44
1040
1.25
1070
   147
1040
1.25
1070
    77
1070
     1
1070
   340
1005
6F
1070
   140
1040
2.5
1002
}
  0
POINT
  5
210
330
1F
100
AcDbEntity
  8
Cartouche
 62
     7
100
AcDbPoint
 10
-57.49999999999999
 20
120.0
 30
0.0
  0
POINT
  5
211
330
1F
100
AcDbEntity
  8
Cartouche
 62
     1
420
 16711680
100
AcDbPoint
 10
253.0
 20
135.0
 30
0.0
  0
POINT
  5
212
330
1F
100
AcDbEntity
  8
Cartouche
 62
     1
420
 16711680
100
AcDbPoint
 10
262.0
 20
135.0
 30
0.0
  0
POINT
  5
213
330
1F
100
AcDbEntity
  8
Cartouche
 62
     1
420
 16711680
100
AcDbPoint
 10
257.5
 20
135.0
 30
0.0
  0
POINT
  5
214
330
1F
100
AcDbEntity
  8
Cartouche
 62
     1
420
 16711680
100
AcDbPoint
 10
156.5
 20
135.0
 30
0.0
  0
POINT
  5
215
330
1F
100
AcDbEntity
  8
Cartouche
 62
     1
420
 16711680
100
AcDbPoint
 10
168.5
 20
135.0
 30
0.0
  0
POINT
  5
216
330
1F
100
AcDbEntity
  8
Cartouche
 62
     1
420
 16711680
100
AcDbPoint
 10
162.5
 20
135.0
 30
0.0
  0
POINT
  5
217
330
1F
100
AcDbEntity
  8
Cartouche
 62
     5
420
      255
100
AcDbPoint
 10
72.50000000000001
 20
115.0
 30
0.0
  0
MTEXT
  5
218
330
1F
100
AcDbEntity
  8
Cartouche
 62
     7
100
AcDbMText
 10
242.1548289738429
 20
20.0
 30
0.0
 40
1.9
 41
0.0
 46
0.0
 71
     1
 72
     1
  1
{\fArial;\W0.75; Objet}
 73
     1
 44
1.0
  0
MTEXT
  5
219
330
1F
100
AcDbEntity
  8
Cartouche
 62
     7
100
AcDbMText
 10
170.1548289738429
 20
20.0
 30
0.0
 40
1.9
 41
0.0
 46
0.0
 71
     1
 72
     1
  1
{\fArial;\W0.75; Titre}
 73
     1
 44
1.0
  0
MTEXT
  5
21A
330
1F
100
AcDbEntity
  8
Cartouche
 62
     7
100
AcDbMText
 10
9.15482897384301
 20
20.0
 30
0.0
 40
1.9
 41
0.0
 46
0.0
 71
     1
 72
     1
  1
{\fArial;\W0.75; Maître d' Ouvrage}
 73
     1
 44
1.0
  0
MTEXT
  5
21B
330
1F
100
AcDbEntity
  8
Cartouche
 62
     7
100
AcDbMText
 10
372.8479130036629
 20
11.3185347985348
 30
0.0
 40
3.19
 41
0.0
 46
0.0
 71
     1
 72
     1
  1
{\fComic Sans MS;\W0.6;J - E. HURISSE}
 73
     1
 44
1.0
  0
MTEXT
  5
21C
330
1F
100
AcDbEntity
  8
Cartouche
 62
     7
100
AcDbMText
 10
363.9987179487179
 20
15.27521367521368
 30
0.0
 40
4.4
 41
0.0
 46
0.0
 71
     1
 72
     1
  1
{\fComic Sans MS;\W0.75;0}
 73
     1
 44
1.0
  0
MTEXT
  5
21D
330
1F
100
AcDbEntity
  8
Cartouche
 62
     7
100
AcDbMText
 10
334.8223015873015
 20
15.31147741147741
 30
0.0
 40
4.4
 41
0.0
 46
0.0
 71
     1
 72
     1
  1
{\fComic Sans MS;\W0.5;15/09/17}
 73
     1
 44
1.0
  0
MTEXT
  5
21E
330
1F
100
AcDbEntity
  8
Cartouche
 62
     7
100
AcDbMText
 10
351.454293040293
 20
15.34236874236874
 30
0.0
 40
4.4
 41
0.0
 46
0.0
 71
     1
 72
     1
  1
{\fComic Sans MS;\W0.6;1.00}
 73
     1
 44
1.0
  0
MTEXT
  5
21F
330
1F
100
AcDbEntity
  8
Cartouche
 62
     7
100
AcDbMText
 10
319.030249084249
 20
15.30476190476191
 30
0.0
 40
4.4
 41
0.0
 46
0.0
 71
     1
 72
     1
  1
{\fComic Sans MS;\W0.6; 1/1}
 73
     1
 44
1.0
  0
MTEXT
  5
220
330
1F
100
AcDbEntity
  8
Cartouche
 62
     7
100
AcDbMText
 10
97.20962273641837
 20
20.0
 30
0.0
 40
2.09
 41
0.0
 46
0.0
 71
     1
 72
     1
  1
{\fArial;\W0.75;   Projet}
 73
     1
 44
1.0
  0
MTEXT
  5
221
330
1F
100
AcDbEntity
  8
Cartouche
 62
     7
100
AcDbMText
 10
54.56849816849817
 20
15.08608058608059
 30
0.0
 40
4.0
 41
0.0
 46
0.0
 71
     1
 72
     1
  1
{\fComic Sans MS;\W0.6;-}
 73
     1
 44
1.0
  0
MTEXT
  5
222
330
1F
100
AcDbEntity
  8
Cartouche
 62
     7
100
AcDbMText
 10
134.5684981684982
 20
15.08608058608059
 30
0.0
 40
4.0
 41
0.0
 46
0.0
 71
     1
 72
     1
  1
{\fComic Sans MS;\W0.6;-}
 73
     1
 44
1.0
  0
MTEXT
  5
223
330
1F
100
AcDbEntity
  8
Cartouche
 62
     7
100
AcDbMText
 10
184.6942124542125
 20
14.58058608058608
 30
0.0
 40
4.0
 41
0.0
 46
0.0
 71
     1
 72
     1
  1
{\fComic Sans MS;\W0.6;MANCHON ADAPTATEUR}
 73
     1
 44
1.0
  0
MTEXT
  5
224
330
1F
100
AcDbEntity
  8
Cartouche
 62
     7
100
AcDbMText
 10
264.2660073260074
 20
14.58058608058608
 30
0.0
 40
4.0
 41
0.0
 46
0.0
 71
     1
 72
     1
  1
{\fComic Sans MS;\W0.6;VUES DIVERSES}
 73
     1
 44
1.0
  0
INSERT
  5
269
330
1F
100
AcDbEntity
  8
Cartouche
  6
________________
 62
     5
420
      255
370
    20
100
AcDbBlockReference
  2
D_FRAME_VIEW@239
 10
0.0
 20
0.0
 30
0.0
  0
INSERT
  5
27C
330
1F
100
AcDbEntity
  8
Cartouche
  6
________________
 62
     5
420
      255
370
    20
100
AcDbBlockReference
  2
D_FRAME_VIEW@256
 10
0.0
 20
0.0
 30
0.0
  0
INSERT
  5
290
330
1F
100
AcDbEntity
  8
Cartouche
  6
________________
 62
     5
420
      255
370
    20
100
AcDbBlockReference
  2
D_FRAME_VIEW@270
 10
0.0
 20
0.0
 30
0.0
  0
INSERT
  5
2A8
330
1F
100
AcDbEntity
  8
Cartouche
  6
________________
 62
     5
420
      255
370
    20
100
AcDbBlockReference
  2
D_FRAME_VIEW@280
 10
0.0
 20
0.0
 30
0.0
  0
DIMENSION
  5
2A9
330
1F
100
AcDbEntity
  8
Cartouche
 62
   254
420
 15774192
100
AcDbDimension
  2
*D28
 10
332.7011985320811
 20
128.4534558799262
 30
0.0
 11
372.6774143693091
 21
98.9515444654008
 31
0.0
 70
    35
  1
<>
 71
     5
 42
39.99999999999996
 73
     0
 74
     0
 75
     0
  3
Standard
100
AcDbDiametricDimension
 15
362.2988014679188
 25
101.5465441200738
 35
0.0
 40
0.0
1001
ACAD
1000
DSTYLE
1002
{
1070
    47
1040
0.0
1070
    48
1040
0.0
1070
    71
1070
     0
1070
    73
1070
     1
1070
    74
1070
     1
1070
   280
1070
     2
1070
    76
1070
     0
1070
    75
1070
     0
1070
   344
1005
DB
1070
   343
1005
DB
1070
   173
1070
     1
1070
   284
1070
     8
1070
    78
1070
     8
1070
    79
1070
     2
1070
   144
1040
1.0
1070
   146
1040
0.5
1070
   179
1070
     2
1070
    41
1040
2.5
1070
   271
1070
     2
1070
    44
1040
1.25
1070
   147
1040
1.25
1070
    77
1070
     1
1070
   340
1005
6F
1070
   140
1040
2.5
1002
}
  0
DIMENSION
  5
2B5
330
1F
100
AcDbEntity
  8
Cartouche
 62
   254
420
 15774192
100
AcDbDimension
  2
*D29
 10
277.5
 20
23.75000000000001
 30
0.0
 11
202.5
 21
23.75000000000001
 31
0.0
 70
   160
  1
<>
 71
     5
 42
150.0
 73
     0
 74
     0
 75
     0
  3
Standard
100
AcDbAlignedDimension
 13
127.5
 23
30.50000000000002
 33
0.0
 14
277.5
 24
27.5
 34
0.0
100
AcDbRotatedDimension
1001
ACAD
1000
DSTYLE
1002
{
1070
    47
1040
0.0
1070
    48
1040
0.0
1070
    71
1070
     0
1070
    73
1070
     0
1070
    74
1070
     0
1070
   280
1070
     0
1070
    76
1070
     0
1070
    75
1070
     0
1070
   282
1070
     0
1070
   281
1070
     0
1070
   344
1005
DB
1070
   343
1005
DB
1070
   173
1070
     1
1070
   284
1070
     8
1070
    78
1070
     8
1070
    79
1070
     2
1070
   144
1040
1.0
1070
   146
1040
0.5
1070
   179
1070
     2
1070
    41
1040
2.5
1070
   271
1070
     2
1070
    44
1040
1.25
1070
   147
1040
1.25
1070
    77
1070
     1
1070
   340
1005
6F
1070
   140
1040
2.5
1002
}
  0
DIMENSION
  5
2C2
330
1F
100
AcDbEntity
  8
Cartouche
 62
   254
420
 15774192
100
AcDbDimension
  2
*D30
 10
291.25
 20
67.49999999999997
 30
0.0
 11
291.25
 21
47.49999999999999
 31
0.0
 70
   160
  1
%%c<>
 71
     5
 42
40.0
 73
     0
 74
     0
 75
     0
  3
Standard
100
AcDbAlignedDimension
 13
277.4999999999999
 23
27.5
 33
0.0
 14
277.5
 24
67.5
 34
0.0
 50
89.99999999999991
100
AcDbRotatedDimension
1001
ACAD
1000
DSTYLE
1002
{
1070
    47
1040
0.0
1070
    48
1040
0.0
1070
    71
1070
     0
1070
    73
1070
     0
1070
    74
1070
     0
1070
   280
1070
     0
1070
    76
1070
     0
1070
    75
1070
     0
1070
   282
1070
     0
1070
   281
1070
     0
1070
   344
1005
DB
1070
   343
1005
DB
1070
   173
1070
     1
1070
   284
1070
     8
1070
    78
1070
     8
1070
    79
1070
     2
1070
   144
1040
1.0
1070
   146
1040
0.5
1070
   179
1070
     2
1070
    41
1040
2.5
1070
   271
1070
     2
1070
    44
1040
1.25
1070
   147
1040
1.25
1070
    77
1070
     1
1070
   340
1005
6F
1070
   140
1040
2.5
1002
}
  0
DIMENSION
  5
2CF
330
1F
100
AcDbEntity
  8
Cartouche
 62
   254
420
 15774192
100
AcDbDimension
  2
*D31
 10
236.2499999999999
 20
60.50000000000001
 30
0.0
 11
236.2499999999999
 21
47.49999999999999
 31
0.0
 70
   160
  1
%%c<>  ± 0.1mm
 71
     5
 42
26.00000000000001
 73
     0
 74
     0
 75
     0
  3
Standard
100
AcDbAlignedDimension
 13
274.4999999999999
 23
34.5
 33
0.0
 14
224.5
 24
60.50000000000001
 34
0.0
 50
90.0
100
AcDbRotatedDimension
1001
ACAD
1000
DSTYLE
1002
{
1070
    47
1040
0.0
1070
    48
1040
0.0
1070
    71
1070
     0
1070
    73
1070
     0
1070
    74
1070
     0
1070
   280
1070
     0
1070
    76
1070
     0
1070
    75
1070
     0
1070
   282
1070
     0
1070
   281
1070
     0
1070
   344
1005
DB
1070
   343
1005
DB
1070
   173
1070
     1
1070
   284
1070
     8
1070
    78
1070
     8
1070
    79
1070
     2
1070
   144
1040
1.0
1070
   146
1040
0.5
1070
   179
1070
     2
1070
    41
1040
2.5
1070
   271
1070
     2
1070
    44
1040
1.25
1070
   147
1040
1.25
1070
    77
1070
     1
1070
   340
1005
6F
1070
   140
1040
2.5
1002
}
  0
DIMENSION
  5
2DC
330
1F
100
AcDbEntity
  8
Cartouche
 62
   254
420
 15774192
100
AcDbDimension
  2
*D32
 10
143.75
 20
34.10000000000001
 30
0.0
 11
143.75
 21
47.50000000000001
 31
0.0
 70
   160
  1
%%c<>  ± 0.1mm
 71
     5
 42
26.8
 73
     0
 74
     0
 75
     0
  3
Standard
100
AcDbAlignedDimension
 13
127.5
 23
60.90000000000002
 33
0.0
 14
127.5
 24
34.10000000000002
 34
0.0
 50
270.0
100
AcDbRotatedDimension
1001
ACAD
1000
DSTYLE
1002
{
1070
    47
1040
0.0
1070
    48
1040
0.0
1070
    71
1070
     0
1070
    73
1070
     0
1070
    74
1070
     0
1070
   280
1070
     0
1070
    76
1070
     0
1070
    75
1070
     0
1070
   282
1070
     0
1070
   281
1070
     0
1070
   344
1005
DB
1070
   343
1005
DB
1070
   173
1070
     1
1070
   284
1070
     8
1070
    78
1070
     8
1070
    79
1070
     2
1070
   144
1040
1.0
1070
   146
1040
0.5
1070
   179
1070
     2
1070
    41
1040
2.5
1070
   271
1070
     2
1070
    44
1040
1.25
1070
   147
1040
1.25
1070
    77
1070
     1
1070
   340
1005
6F
1070
   140
1040
2.5
1002
}
  0
DIMENSION
  5
2E9
330
1F
100
AcDbEntity
  8
Cartouche
 62
   254
420
 15774192
100
AcDbDimension
  2
*D33
 10
174.5
 20
73.75000000000001
 30
0.0
 11
155.0
 21
73.75000000000001
 31
0.0
 70
   160
  1
<>
 71
     5
 42
47.0
 73
     0
 74
     0
 75
     0
  3
Standard
100
AcDbAlignedDimension
 13
127.5
 23
30.50000000000002
 33
0.0
 14
174.5
 24
34.10000000000002
 34
0.0
100
AcDbRotatedDimension
1001
ACAD
1000
DSTYLE
1002
{
1070
    47
1040
0.0
1070
    48
1040
0.0
1070
    71
1070
     0
1070
    73
1070
     0
1070
    74
1070
     0
1070
   280
1070
     0
1070
    76
1070
     0
1070
    75
1070
     0
1070
   282
1070
     0
1070
   281
1070
     0
1070
   344
1005
DB
1070
   343
1005
DB
1070
   173
1070
     1
1070
   284
1070
     8
1070
    78
1070
     8
1070
    79
1070
     2
1070
   144
1040
1.0
1070
   146
1040
0.5
1070
   179
1070
     2
1070
    41
1040
2.5
1070
   271
1070
     2
1070
    44
1040
1.25
1070
   147
1040
1.25
1070
    77
1070
     1
1070
   340
1005
6F
1070
   140
1040
2.5
1002
}
  0
DIMENSION
  5
2F6
330
1F
100
AcDbEntity
  8
Cartouche
 62
   254
420
 15774192
100
AcDbDimension
  2
*D34
 10
277.5
 20
73.75000000000001
 30
0.0
 11
215.0
 21
73.75000000000001
 31
0.0
 70
   160
  1
<>
 71
     5
 42
103.0
 73
     0
 74
     0
 75
     0
  3
Standard
100
AcDbAlignedDimension
 13
174.5
 23
34.10000000000002
 33
0.0
 14
277.5
 24
27.5
 34
0.0
100
AcDbRotatedDimension
1001
ACAD
1000
DSTYLE
1002
{
1070
    47
1040
0.0
1070
    48
1040
0.0
1070
    71
1070
     0
1070
    73
1070
     0
1070
    74
1070
     0
1070
   280
1070
     0
1070
    76
1070
     0
1070
    75
1070
     0
1070
   282
1070
     0
1070
   281
1070
     0
1070
   344
1005
DB
1070
   343
1005
DB
1070
   173
1070
     1
1070
   284
1070
     8
1070
    78
1070
     8
1070
    79
1070
     2
1070
   144
1040
1.0
1070
   146
1040
0.5
1070
   179
1070
     2
1070
    41
1040
2.5
1070
   271
1070
     2
1070
    44
1040
1.25
1070
   147
1040
1.25
1070
    77
1070
     1
1070
   340
1005
6F
1070
   140
1040
2.5
1002
}
  0
DIMENSION
  5
303
330
1F
100
AcDbEntity
  8
Cartouche
 62
   254
420
 15774192
100
AcDbDimension
  2
*D35
 10
127.5
 20
108.75
 30
0.0
 11
152.5
 21
108.75
 31
0.0
 70
   160
  1
<>
 71
     5
 42
47.0
 73
     0
 74
     0
 75
     0
  3
Standard
100
AcDbAlignedDimension
 13
174.5
 23
102.0
 33
0.0
 14
127.5
 24
101.6
 34
0.0
100
AcDbRotatedDimension
1001
ACAD
1000
DSTYLE
1002
{
1070
    47
1040
0.0
1070
    48
1040
0.0
1070
    71
1070
     0
1070
    73
1070
     0
1070
    74
1070
     0
1070
   280
1070
     0
1070
    76
1070
     0
1070
    75
1070
     0
1070
   282
1070
     0
1070
   281
1070
     0
1070
   344
1005
DB
1070
   343
1005
DB
1070
   173
1070
     1
1070
   284
1070
     8
1070
    78
1070
     8
1070
    79
1070
     2
1070
   144
1040
1.0
1070
   146
1040
0.5
1070
   179
1070
     2
1070
    41
1040
2.5
1070
   271
1070
     2
1070
    44
1040
1.25
1070
   147
1040
1.25
1070
    77
1070
     1
1070
   340
1005
6F
1070
   140
1040
2.5
1002
}
  0
DIMENSION
  5
310
330
1F
100
AcDbEntity
  8
Cartouche
 62
   254
420
 15774192
100
AcDbDimension
  2
*D36
 10
277.5
 20
108.75
 30
0.0
 11
227.5
 21
108.75
 31
0.0
 70
   160
  1
<>
 71
     5
 42
103.0
 73
     0
 74
     0
 75
     0
  3
Standard
100
AcDbAlignedDimension
 13
174.5
 23
102.0
 33
0.0
 14
277.5
 24
99.00000000000001
 34
0.0
100
AcDbRotatedDimension
1001
ACAD
1000
DSTYLE
1002
{
1070
    47
1040
0.0
1070
    48
1040
0.0
1070
    71
1070
     0
1070
    73
1070
     0
1070
    74
1070
     0
1070
   280
1070
     0
1070
    76
1070
     0
1070
    75
1070
     0
1070
   282
1070
     0
1070
   281
1070
     0
1070
   344
1005
DB
1070
   343
1005
DB
1070
   173
1070
     1
1070
   284
1070
     8
1070
    78
1070
     8
1070
    79
1070
     2
1070
   144
1040
1.0
1070
   146
1040
0.5
1070
   179
1070
     2
1070
    41
1040
2.5
1070
   271
1070
     2
1070
    44
1040
1.25
1070
   147
1040
1.25
1070
    77
1070
     1
1070
   340
1005
6F
1070
   140
1040
2.5
1002
}
  0
DIMENSION
  5
31D
330
1F
100
AcDbEntity
  8
Cartouche
 62
   254
420
 15774192
100
AcDbDimension
  2
*D37
 10
166.7429924097186
 20
51.74178145211953
 30
0.0
 11
149.8298558369835
 21
38.56967652578028
 31
0.0
 70
    35
  1
<>
 71
     5
 42
11.99996574547102
 73
     0
 74
     0
 75
     0
  3
Standard
100
AcDbDiametricDimension
 15
158.2569732995424
 25
43.25728632546626
 35
0.0
 40
0.0
1001
ACAD
1000
DSTYLE
1002
{
1070
    47
1040
0.0
1070
    48
1040
0.0
1070
    71
1070
     0
1070
    73
1070
     0
1070
    74
1070
     0
1070
   280
1070
     0
1070
    76
1070
     0
1070
    75
1070
     0
1070
   344
1005
DB
1070
   343
1005
DB
1070
   173
1070
     1
1070
   284
1070
     8
1070
    78
1070
     8
1070
    79
1070
     2
1070
   144
1040
1.0
1070
   146
1040
0.5
1070
   179
1070
     2
1070
    41
1040
2.5
1070
   271
1070
     2
1070
    44
1040
1.25
1070
   147
1040
1.25
1070
    77
1070
     1
1070
   340
1005
6F
1070
   140
1040
2.5
1002
}
  0
DIMENSION
  5
328
330
1F
100
AcDbEntity
  8
Cartouche
 62
   254
420
 15774192
100
AcDbDimension
  2
*D38
 10
205.6827069424344
 20
50.67983685599851
 30
0.0
 11
191.4157004938035
 21
40.14378054863884
 31
0.0
 70
    35
  1
<>
 71
     5
 42
8.99990977047566
 73
     0
 74
     0
 75
     0
  3
Standard
100
AcDbDiametricDimension
 15
199.3172024478906
 25
44.31754729903503
 35
0.0
 40
0.0
1001
ACAD
1000
DSTYLE
1002
{
1070
    47
1040
0.0
1070
    48
1040
0.0
1070
    71
1070
     0
1070
    73
1070
     0
1070
    74
1070
     0
1070
   280
1070
     0
1070
    76
1070
     0
1070
    75
1070
     0
1070
   344
1005
DB
1070
   343
1005
DB
1070
   173
1070
     1
1070
   284
1070
     8
1070
    78
1070
     8
1070
    79
1070
     2
1070
   144
1040
1.0
1070
   146
1040
0.5
1070
   179
1070
     2
1070
    41
1040
2.5
1070
   271
1070
     2
1070
    44
1040
1.25
1070
   147
1040
1.25
1070
    77
1070
     1
1070
   340
1005
6F
1070
   140
1040
2.5
1002
}
  0
DIMENSION
  5
333
330
1F
100
AcDbEntity
  8
Cartouche
 62
   254
420
 15774192
100
AcDbDimension
  2
*D39
 10
260.6827069424343
 20
50.67983685599851
 30
0.0
 11
246.4157004938035
 21
40.14378054863884
 31
0.0
 70
    35
  1
<>
 71
     5
 42
8.99990977047566
 73
     0
 74
     0
 75
     0
  3
Standard
100
AcDbDiametricDimension
 15
254.3172024478906
 25
44.31754729903503
 35
0.0
 40
0.0
1001
ACAD
1000
DSTYLE
1002
{
1070
    47
1040
0.0
1070
    48
1040
0.0
1070
    71
1070
     0
1070
    73
1070
     0
1070
    74
1070
     0
1070
   280
1070
     0
1070
    76
1070
     0
1070
    75
1070
     0
1070
   344
1005
DB
1070
   343
1005
DB
1070
   173
1070
     1
1070
   284
1070
     8
1070
    78
1070
     8
1070
    79
1070
     2
1070
   144
1040
1.0
1070
   146
1040
0.5
1070
   179
1070
     2
1070
    41
1040
2.5
1070
   271
1070
     2
1070
    44
1040
1.25
1070
   147
1040
1.25
1070
    77
1070
     1
1070
   340
1005
6F
1070
   140
1040
2.5
1002
}
  0
ENDSEC
  0
SECTION
  2
OBJECTS
  0
DICTIONARY
  5
C
330
0
100
AcDbDictionary
281
     1
  3
ACAD_DETAILVIEWSTYLE
350
37B
  3
ACAD_GROUP
350
D
  3
ACAD_LAYOUT
350
1A
  3
ACAD_MATERIAL
350
43
  3
ACAD_MLEADERSTYLE
350
6B
  3
ACAD_MLINESTYLE
350
17
  3
ACAD_PLOTSETTINGS
350
19
  3
ACAD_PLOTSTYLENAME
350
E
  3
ACAD_SCALELIST
350
47
  3
ACAD_SECTIONVIEWSTYLE
350
37C
  3
ACAD_TABLESTYLE
350
69
  3
ACAD_VISUALSTYLE
350
2A
  3
ACDB_RECOMPOSE_DATA
350
378
  3
AcDbVariableDictionary
350
340
  0
SUN
  5
6D
330
29
100
AcDbSun
 90
        1
290
     0
 63
     7
421
 16777215
 40
1.0
291
     1
 91
  2455826
 92
 54000000
292
     0
 70
     2
 71
   256
280
     1
  0
DICTIONARY
  5
37B
102
{ACAD_REACTORS
330
C
102
}
330
C
100
AcDbDictionary
281
     1
  0
DICTIONARY
  5
D
102
{ACAD_REACTORS
330
C
102
}
330
C
100
AcDbDictionary
281
     1
  0
DICTIONARY
  5
1A
102
{ACAD_REACTORS
330
C
102
}
330
C
100
AcDbDictionary
281
     1
  3
Layout1
350
1E
  3
Layout2
350
26
  3
Model
350
22
  0
DICTIONARY
  5
43
102
{ACAD_REACTORS
330
C
102
}
330
C
100
AcDbDictionary
281
     1
  3
ByBlock
350
45
  3
ByLayer
350
44
  3
Global
350
46
  0
DICTIONARY
  5
6B
102
{ACAD_REACTORS
330
C
102
}
330
C
100
AcDbDictionary
281
     1
  3
Standard
350
6C
  0
DICTIONARY
  5
17
102
{ACAD_REACTORS
330
C
102
}
330
C
100
AcDbDictionary
281
     1
  3
Standard
350
18
  0
DICTIONARY
  5
19
102
{ACAD_REACTORS
330
C
102
}
330
C
100
AcDbDictionary
281
     1
  0
ACDBDICTIONARYWDFLT
  5
E
102
{ACAD_REACTORS
330
C
102
}
330
C
100
AcDbDictionary
281
     1
  3
Normal
350
F
100
AcDbDictionaryWithDefault
340
F
  0
DICTIONARY
  5
47
102
{ACAD_REACTORS
330
C
102
}
330
C
100
AcDbDictionary
281
     1
  3
A0
350
48
  3
A1
350
49
  3
A2
350
4A
  3
A3
350
4B
  3
A4
350
4C
  3
A5
350
4D
  3
A6
350
4E
  3
A7
350
4F
  3
A8
350
50
  3
A9
350
51
  3
B0
350
52
  3
B1
350
53
  3
B2
350
54
  3
B3
350
55
  3
B4
350
56
  3
B5
350
57
  3
B6
350
58
  3
B7
350
59
  3
B8
350
5A
  3
B9
350
5B
  3
C0
350
5C
  3
C1
350
5D
  3
C2
350
5E
  3
C3
350
5F
  3
C4
350
60
  3
C5
350
61
  3
C6
350
62
  3
C7
350
63
  3
C8
350
64
  3
C9
350
65
  3
D0
350
66
  3
D1
350
67
  3
D2
350
68
  0
DICTIONARY
  5
37C
102
{ACAD_REACTORS
330
C
102
}
330
C
100
AcDbDictionary
281
     1
  0
DICTIONARY
  5
69
102
{ACAD_REACTORS
330
C
102
}
330
C
100
AcDbDictionary
281
     1
  3
Standard
350
6A
  0
DICTIONARY
  5
2A
102
{ACAD_REACTORS
330
C
102
}
330
C
100
AcDbDictionary
281
     1
  3
2dWireframe
350
2F
  3
Basic
350
32
  3
Brighten
350
36
  3
ColorChange
350
3A
  3
Conceptual
350
34
  3
Dim
350
35
  3
EdgeColorOff
350
3D
  3
Facepattern
350
39
  3
Flat
350
2B
  3
FlatWithEdges
350
2C
  3
Gouraud
350
2D
  3
GouraudWithEdges
350
2E
  3
Hidden
350
31
  3
JitterOff
350
3B
  3
Linepattern
350
38
  3
OverhangOff
350
3C
  3
Realistic
350
33
  3
Shaded
350
42
  3
Shaded with edges
350
41
  3
Shades of Gray
350
3E
  3
Sketchy
350
3F
  3
Thicken
350
37
  3
Wireframe
350
30
  3
X-Ray
350
40
  0
XRECORD
  5
378
102
{ACAD_REACTORS
330
C
102
}
330
C
100
AcDbXrecord
280
     1
 90
        1
330
6A
  0
DICTIONARY
  5
340
102
{ACAD_REACTORS
330
C
102
}
330
C
100
AcDbDictionary
281
     1
  3
CANNOSCALE
350
341
  3
CMLEADERSTYLE
350
37A
  3
CTABLESTYLE
350
379
  3
XCLIPFRAME
350
342
  0
LAYOUT
  5
1E
102
{ACAD_REACTORS
330
1A
102
}
330
1A
100
AcDbPlotSettings
  1

  2
none_device
  4

  6

 40
0.0
 41
0.0
 42
0.0
 43
0.0
 44
0.0
 45
0.0
 46
0.0
 47
0.0
 48
0.0
 49
0.0
140
0.0
141
0.0
142
1.0
143
1.0
 70
   688
 72
     0
 73
     0
 74
     5
  7

 75
    16
 76
     0
 77
     2
 78
   300
147
1.0
148
0.0
149
0.0
100
AcDbLayout
  1
Layout1
 70
     1
 71
     1
 10
0.0
 20
0.0
 11
12.0
 21
9.0
 12
0.0
 22
0.0
 32
0.0
 14
1.000000000000000E+20
 24
1.000000000000000E+20
 34
1.000000000000000E+20
 15
-1.000000000000000E+20
 25
-1.000000000000000E+20
 35
-1.000000000000000E+20
146
0.0
 13
0.0
 23
0.0
 33
0.0
 16
1.0
 26
0.0
 36
0.0
 17
0.0
 27
1.0
 37
0.0
 76
     0
330
1B
  0
LAYOUT
  5
26
102
{ACAD_REACTORS
330
1A
102
}
330
1A
100
AcDbPlotSettings
  1

  2
none_device
  4

  6

 40
0.0
 41
0.0
 42
0.0
 43
0.0
 44
0.0
 45
0.0
 46
0.0
 47
0.0
 48
0.0
 49
0.0
140
0.0
141
0.0
142
1.0
143
1.0
 70
   688
 72
     0
 73
     0
 74
     5
  7

 75
    16
 76
     0
 77
     2
 78
   300
147
1.0
148
0.0
149
0.0
100
AcDbLayout
  1
Layout2
 70
     1
 71
     2
 10
0.0
 20
0.0
 11
0.0
 21
0.0
 12
0.0
 22
0.0
 32
0.0
 14
0.0
 24
0.0
 34
0.0
 15
0.0
 25
0.0
 35
0.0
146
0.0
 13
0.0
 23
0.0
 33
0.0
 16
1.0
 26
0.0
 36
0.0
 17
0.0
 27
1.0
 37
0.0
 76
     0
330
23
  0
LAYOUT
  5
22
102
{ACAD_REACTORS
330
1A
102
}
330
1A
100
AcDbPlotSettings
  1

  2
none_device
  4
Letter_(8.50_x_11.00_Inches)
  6

 40
6.35
 41
6.35
 42
6.35000508
 43
6.35000508
 44
215.9
 45
279.4
 46
0.0
 47
0.0
 48
0.0
 49
0.0
140
0.0
141
0.0
142
1.0
143
1.0
 70
  1712
 72
     0
 73
     0
 74
     0
  7

 75
     0
 76
     0
 77
     2
 78
   300
147
1.0
148
0.0
149
0.0
100
AcDbLayout
  1
Model
 70
     1
 71
     0
 10
0.0
 20
0.0
 11
12.0
 21
9.0
 12
0.0
 22
0.0
 32
0.0
 14
-77.50000000000001
 24
-32.41737089201878
 34
-0.0000000000000004
 15
424.7499999999999
 25
271.3760403682953
 35
5.0
146
0.0
 13
0.0
 23
0.0
 33
0.0
 16
1.0
 26
0.0
 36
0.0
 17
0.0
 27
1.0
 37
0.0
 76
     0
330
1F
331
29
  0
MATERIAL
  5
45
102
{ACAD_REACTORS
330
43
102
}
330
43
100
AcDbMaterial
  1
ByBlock
 72
     1
 94
      127
  0
MATERIAL
  5
44
102
{ACAD_REACTORS
330
43
102
}
330
43
100
AcDbMaterial
  1
ByLayer
 72
     1
 94
      127
  0
MATERIAL
  5
46
102
{ACAD_REACTORS
330
43
102
}
330
43
100
AcDbMaterial
  1
Global
 72
     1
 94
      127
  0
MLEADERSTYLE
  5
6C
102
{ACAD_REACTORS
330
6B
102
}
102
{ACAD_XDICTIONARY
360
376
102
}
330
6B
100
AcDbMLeaderStyle
170
     2
171
     1
172
     0
 90
        2
 40
0.0
 41
0.0
173
     1
 91
-1056964608
340
14
 92
       -2
290
     1
 42
0.09
291
     1
 43
0.36
  3
Standard
341
0
 44
0.18
300

342
11
174
     1
178
     6
175
     1
176
     0
 93
-1056964608
 45
0.18
292
     0
297
     0
 46
0.18
343
0
 94
-1056964608
 47
1.0
 49
1.0
140
1.0
293
     1
141
0.0
294
     1
177
     0
142
1.0
295
     0
296
     0
143
0.125
1001
ACAD_MLEADERVER
1070
     2
  0
MLINESTYLE
  5
18
102
{ACAD_REACTORS
330
17
102
}
330
17
100
AcDbMlineStyle
  2
Standard
 70
     0
  3

 62
   256
 51
90.0
 52
90.0
 71
     2
 49
0.5
 62
   256
  6
BYLAYER
 49
-0.5
 62
   256
  6
BYLAYER
  0
ACDBPLACEHOLDER
  5
F
102
{ACAD_REACTORS
330
E
102
}
330
E
  0
SCALE
  5
48
102
{ACAD_REACTORS
330
47
102
}
330
47
100
AcDbScale
 70
     0
300
1:1
140
1.0
141
1.0
290
     1
  0
SCALE
  5
49
102
{ACAD_REACTORS
330
47
102
}
330
47
100
AcDbScale
 70
     0
300
1:2
140
1.0
141
2.0
290
     0
  0
SCALE
  5
4A
102
{ACAD_REACTORS
330
47
102
}
330
47
100
AcDbScale
 70
     0
300
1:4
140
1.0
141
4.0
290
     0
  0
SCALE
  5
4B
102
{ACAD_REACTORS
330
47
102
}
330
47
100
AcDbScale
 70
     0
300
1:5
140
1.0
141
5.0
290
     0
  0
SCALE
  5
4C
102
{ACAD_REACTORS
330
47
102
}
330
47
100
AcDbScale
 70
     0
300
1:8
140
1.0
141
8.0
290
     0
  0
SCALE
  5
4D
102
{ACAD_REACTORS
330
47
102
}
330
47
100
AcDbScale
 70
     0
300
1:10
140
1.0
141
10.0
290
     0
  0
SCALE
  5
4E
102
{ACAD_REACTORS
330
47
102
}
330
47
100
AcDbScale
 70
     0
300
1:16
140
1.0
141
16.0
290
     0
  0
SCALE
  5
4F
102
{ACAD_REACTORS
330
47
102
}
330
47
100
AcDbScale
 70
     0
300
1:20
140
1.0
141
20.0
290
     0
  0
SCALE
  5
50
102
{ACAD_REACTORS
330
47
102
}
330
47
100
AcDbScale
 70
     0
300
1:30
140
1.0
141
30.0
290
     0
  0
SCALE
  5
51
102
{ACAD_REACTORS
330
47
102
}
330
47
100
AcDbScale
 70
     0
300
1:40
140
1.0
141
40.0
290
     0
  0
SCALE
  5
52
102
{ACAD_REACTORS
330
47
102
}
330
47
100
AcDbScale
 70
     0
300
1:50
140
1.0
141
50.0
290
     0
  0
SCALE
  5
53
102
{ACAD_REACTORS
330
47
102
}
330
47
100
AcDbScale
 70
     0
300
1:100
140
1.0
141
100.0
290
     0
  0
SCALE
  5
54
102
{ACAD_REACTORS
330
47
102
}
330
47
100
AcDbScale
 70
     0
300
2:1
140
2.0
141
1.0
290
     0
  0
SCALE
  5
55
102
{ACAD_REACTORS
330
47
102
}
330
47
100
AcDbScale
 70
     0
300
4:1
140
4.0
141
1.0
290
     0
  0
SCALE
  5
56
102
{ACAD_REACTORS
330
47
102
}
330
47
100
AcDbScale
 70
     0
300
8:1
140
8.0
141
1.0
290
     0
  0
SCALE
  5
57
102
{ACAD_REACTORS
330
47
102
}
330
47
100
AcDbScale
 70
     0
300
10:1
140
10.0
141
1.0
290
     0
  0
SCALE
  5
58
102
{ACAD_REACTORS
330
47
102
}
330
47
100
AcDbScale
 70
     0
300
100:1
140
100.0
141
1.0
290
     0
  0
SCALE
  5
59
102
{ACAD_REACTORS
330
47
102
}
330
47
100
AcDbScale
 70
     0
300
1/128" = 1'-0"
140
0.0078125
141
12.0
290
     0
  0
SCALE
  5
5A
102
{ACAD_REACTORS
330
47
102
}
330
47
100
AcDbScale
 70
     0
300
1/64" = 1'-0"
140
0.015625
141
12.0
290
     0
  0
SCALE
  5
5B
102
{ACAD_REACTORS
330
47
102
}
330
47
100
AcDbScale
 70
     0
300
1/32" = 1'-0"
140
0.03125
141
12.0
290
     0
  0
SCALE
  5
5C
102
{ACAD_REACTORS
330
47
102
}
330
47
100
AcDbScale
 70
     0
300
1/16" = 1'-0"
140
0.0625
141
12.0
290
     0
  0
SCALE
  5
5D
102
{ACAD_REACTORS
330
47
102
}
330
47
100
AcDbScale
 70
     0
300
3/32" = 1'-0"
140
0.09375
141
12.0
290
     0
  0
SCALE
  5
5E
102
{ACAD_REACTORS
330
47
102
}
330
47
100
AcDbScale
 70
     0
300
1/8" = 1'-0"
140
0.125
141
12.0
290
     0
  0
SCALE
  5
5F
102
{ACAD_REACTORS
330
47
102
}
330
47
100
AcDbScale
 70
     0
300
3/16" = 1'-0"
140
0.1875
141
12.0
290
     0
  0
SCALE
  5
60
102
{ACAD_REACTORS
330
47
102
}
330
47
100
AcDbScale
 70
     0
300
1/4" = 1'-0"
140
0.25
141
12.0
290
     0
  0
SCALE
  5
61
102
{ACAD_REACTORS
330
47
102
}
330
47
100
AcDbScale
 70
     0
300
3/8" = 1'-0"
140
0.375
141
12.0
290
     0
  0
SCALE
  5
62
102
{ACAD_REACTORS
330
47
102
}
330
47
100
AcDbScale
 70
     0
300
1/2" = 1'-0"
140
0.5
141
12.0
290
     0
  0
SCALE
  5
63
102
{ACAD_REACTORS
330
47
102
}
330
47
100
AcDbScale
 70
     0
300
3/4" = 1'-0"
140
0.75
141
12.0
290
     0
  0
SCALE
  5
64
102
{ACAD_REACTORS
330
47
102
}
330
47
100
AcDbScale
 70
     0
300
1" = 1'-0"
140
1.0
141
12.0
290
     0
  0
SCALE
  5
65
102
{ACAD_REACTORS
330
47
102
}
330
47
100
AcDbScale
 70
     0
300
1-1/2" = 1'-0"
140
1.5
141
12.0
290
     0
  0
SCALE
  5
66
102
{ACAD_REACTORS
330
47
102
}
330
47
100
AcDbScale
 70
     0
300
3" = 1'-0"
140
3.0
141
12.0
290
     0
  0
SCALE
  5
67
102
{ACAD_REACTORS
330
47
102
}
330
47
100
AcDbScale
 70
     0
300
6" = 1'-0"
140
6.0
141
12.0
290
     0
  0
SCALE
  5
68
102
{ACAD_REACTORS
330
47
102
}
330
47
100
AcDbScale
 70
     0
300
1'-0" = 1'-0"
140
12.0
141
12.0
290
     0
  0
TABLESTYLE
  5
6A
102
{ACAD_REACTORS
330
69
102
}
102
{ACAD_XDICTIONARY
360
373
102
}
330
69
100
AcDbTableStyle
  3
Standard
 70
     0
 71
     0
 40
0.06
 41
0.06
280
     0
281
     0
  7
Standard
140
0.18
170
     2
 62
     0
 63
   257
283
     0
 90
        4
 91
        0
  1

274
    -2
284
     1
 64
     0
275
    -2
285
     1
 65
     0
276
    -2
286
     1
 66
     0
277
    -2
287
     1
 67
     0
278
    -2
288
     1
 68
     0
279
    -2
289
     1
 69
     0
  7
Standard
140
0.25
170
     5
 62
     0
 63
   257
283
     0
 90
        4
 91
        0
  1

274
    -2
284
     1
 64
     0
275
    -2
285
     1
 65
     0
276
    -2
286
     1
 66
     0
277
    -2
287
     1
 67
     0
278
    -2
288
     1
 68
     0
279
    -2
289
     1
 69
     0
  7
Standard
140
0.18
170
     5
 62
     0
 63
   257
283
     0
 90
        4
 91
        0
  1

274
    -2
284
     1
 64
     0
275
    -2
285
     1
 65
     0
276
    -2
286
     1
 66
     0
277
    -2
287
     1
 67
     0
278
    -2
288
     1
 68
     0
279
    -2
289
     1
 69
     0
  0
VISUALSTYLE
  5
2F
102
{ACAD_REACTORS
330
2A
102
}
102
{ACAD_XDICTIONARY
360
34B
102
}
330
2A
100
AcDbVisualStyle
  2
2dWireframe
 70
     4
 71
     0
 72
     2
 73
     0
 90
        0
 40
0.6
 41
30.0
 62
     5
 63
     7
421
 16777215
 74
     1
 91
        4
 64
     7
 65
   257
 75
     1
175
     1
 42
1.0
 92
        0
 66
   257
 43
1.0
 76
     1
 77
     6
 78
     2
 67
     7
 79
     5
170
     0
171
     0
290
     0
174
     0
 93
        1
 44
0.0
173
     0
291
     0
 45
0.0
  0
VISUALSTYLE
  5
32
102
{ACAD_REACTORS
330
2A
102
}
102
{ACAD_XDICTIONARY
360
351
102
}
330
2A
100
AcDbVisualStyle
  2
Basic
 70
     7
 71
     1
 72
     0
 73
     1
 90
        0
 40
0.6
 41
30.0
 62
     5
 63
     7
421
 16777215
 74
     0
 91
        4
 64
     7
 65
   257
 75
     1
175
     1
 42
1.0
 92
        8
 66
     7
 43
1.0
 76
     1
 77
     6
 78
     2
 67
     7
 79
     5
170
     0
171
     0
290
     0
174
     0
 93
        1
 44
0.0
173
     0
291
     1
 45
0.0
  0
VISUALSTYLE
  5
36
102
{ACAD_REACTORS
330
2A
102
}
102
{ACAD_XDICTIONARY
360
359
102
}
330
2A
100
AcDbVisualStyle
  2
Brighten
 70
    12
 71
     2
 72
     2
 73
     0
 90
        0
 40
0.6
 41
30.0
 62
     5
 63
     7
421
 16777215
 74
     1
 91
        4
 64
     7
 65
   257
 75
     1
175
     1
 42
1.0
 92
        8
 66
     7
 43
1.0
 76
     1
 77
     6
 78
     2
 67
     7
 79
     5
170
     0
171
     0
290
     0
174
     0
 93
        1
 44
50.0
173
     0
291
     1
 45
0.0
  0
VISUALSTYLE
  5
3A
102
{ACAD_REACTORS
330
2A
102
}
102
{ACAD_XDICTIONARY
360
361
102
}
330
2A
100
AcDbVisualStyle
  2
ColorChange
 70
    16
 71
     2
 72
     2
 73
     3
 90
        0
 40
0.6
 41
30.0
 62
     5
 63
     8
421
  8421504
 74
     1
 91
        4
 64
     7
 65
   257
 75
     1
175
     1
 42
1.0
 92
        8
 66
     8
424
  8421504
 43
1.0
 76
     1
 77
     6
 78
     2
 67
     7
 79
     5
170
     0
171
     0
290
     0
174
     0
 93
        1
 44
0.0
173
     0
291
     1
 45
0.0
  0
VISUALSTYLE
  5
34
102
{ACAD_REACTORS
330
2A
102
}
102
{ACAD_XDICTIONARY
360
355
102
}
330
2A
100
AcDbVisualStyle
  2
Conceptual
 70
     9
 71
     3
 72
     2
 73
     0
 90
        0
 40
0.6
 41
30.0
 62
     5
 63
     7
421
 16777215
 74
     2
 91
        2
 64
     7
 65
   257
 75
     1
175
     1
 42
179.0
 92
        8
 66
     7
 43
1.0
 76
     1
 77
     6
 78
     2
 67
     7
 79
     3
170
     0
171
     0
290
     0
174
     0
 93
        1
 44
0.0
173
     0
291
     0
 45
0.0
  0
VISUALSTYLE
  5
35
102
{ACAD_REACTORS
330
2A
102
}
102
{ACAD_XDICTIONARY
360
357
102
}
330
2A
100
AcDbVisualStyle
  2
Dim
 70
    11
 71
     2
 72
     2
 73
     0
 90
        0
 40
0.6
 41
30.0
 62
     5
 63
     7
421
 16777215
 74
     1
 91
        4
 64
     7
 65
   257
 75
     1
175
     1
 42
1.0
 92
        8
 66
     7
 43
1.0
 76
     1
 77
     6
 78
     2
 67
     7
 79
     5
170
     0
171
     0
290
     0
174
     0
 93
        1
 44
-50.0
173
     0
291
     1
 45
0.0
  0
VISUALSTYLE
  5
3D
102
{ACAD_REACTORS
330
2A
102
}
102
{ACAD_XDICTIONARY
360
367
102
}
330
2A
100
AcDbVisualStyle
  2
EdgeColorOff
 70
    22
 71
     2
 72
     2
 73
     0
 90
        0
 40
0.6
 41
30.0
 62
     5
 63
     7
421
 16777215
 74
     1
 91
        4
 64
     7
 65
   257
 75
     1
175
     1
 42
1.0
 92
        8
 66
     7
 43
1.0
 76
     1
 77
     6
 78
     2
 67
     7
 79
     5
170
     0
171
     0
290
     0
174
     0
 93
        1
 44
0.0
173
     0
291
     1
 45
0.0
  0
VISUALSTYLE
  5
39
102
{ACAD_REACTORS
330
2A
102
}
102
{ACAD_XDICTIONARY
360
35F
102
}
330
2A
100
AcDbVisualStyle
  2
Facepattern
 70
    15
 71
     2
 72
     2
 73
     0
 90
        0
 40
0.6
 41
30.0
 62
     5
 63
     7
421
 16777215
 74
     1
 91
        4
 64
     7
 65
   257
 75
     1
175
     1
 42
1.0
 92
        8
 66
     7
 43
1.0
 76
     1
 77
     6
 78
     2
 67
     7
 79
     5
170
     0
171
     0
290
     0
174
     0
 93
        1
 44
0.0
173
     0
291
     1
 45
0.0
  0
VISUALSTYLE
  5
2B
102
{ACAD_REACTORS
330
2A
102
}
102
{ACAD_XDICTIONARY
360
343
102
}
330
2A
100
AcDbVisualStyle
  2
Flat
 70
     0
 71
     2
 72
     1
 73
     1
 90
        2
 40
0.6
 41
30.0
 62
     5
 63
     7
421
 16777215
 74
     0
 91
        0
 64
     7
 65
   257
 75
     1
175
     1
 42
1.0
 92
        8
 66
     7
 43
1.0
 76
     1
 77
     6
 78
     2
 67
     7
 79
     5
170
     0
171
     0
290
     0
174
     0
 93
       13
 44
0.0
173
     0
291
     1
 45
0.0
  0
VISUALSTYLE
  5
2C
102
{ACAD_REACTORS
330
2A
102
}
102
{ACAD_XDICTIONARY
360
345
102
}
330
2A
100
AcDbVisualStyle
  2
FlatWithEdges
 70
     1
 71
     2
 72
     1
 73
     1
 90
        2
 40
0.6
 41
30.0
 62
     5
 63
     7
421
 16777215
 74
     1
 91
        0
 64
     7
 65
   257
 75
     1
175
     1
 42
1.0
 92
        0
 66
   257
 43
1.0
 76
     1
 77
     6
 78
     2
 67
     7
 79
     5
170
     0
171
     0
290
     0
174
     0
 93
       13
 44
0.0
173
     0
291
     1
 45
0.0
  0
VISUALSTYLE
  5
2D
102
{ACAD_REACTORS
330
2A
102
}
102
{ACAD_XDICTIONARY
360
347
102
}
330
2A
100
AcDbVisualStyle
  2
Gouraud
 70
     2
 71
     2
 72
     2
 73
     1
 90
        2
 40
0.6
 41
30.0
 62
     5
 63
     7
421
 16777215
 74
     0
 91
        0
 64
     7
 65
   257
 75
     1
175
     1
 42
1.0
 92
        0
 66
     7
 43
1.0
 76
     1
 77
     6
 78
     2
 67
     7
 79
     5
170
     0
171
     0
290
     0
174
     0
 93
       13
 44
0.0
173
     0
291
     1
 45
0.0
  0
VISUALSTYLE
  5
2E
102
{ACAD_REACTORS
330
2A
102
}
102
{ACAD_XDICTIONARY
360
349
102
}
330
2A
100
AcDbVisualStyle
  2
GouraudWithEdges
 70
     3
 71
     2
 72
     2
 73
     1
 90
        2
 40
0.6
 41
30.0
 62
     5
 63
     7
421
 16777215
 74
     1
 91
        0
 64
     7
 65
   257
 75
     1
175
     1
 42
1.0
 92
        0
 66
   257
 43
1.0
 76
     1
 77
     6
 78
     2
 67
     7
 79
     5
170
     0
171
     0
290
     0
174
     0
 93
       13
 44
0.0
173
     0
291
     1
 45
0.0
  0
VISUALSTYLE
  5
31
102
{ACAD_REACTORS
330
2A
102
}
102
{ACAD_XDICTIONARY
360
34F
102
}
330
2A
100
AcDbVisualStyle
  2
Hidden
 70
     6
 71
     1
 72
     2
 73
     2
 90
        0
 40
0.6
 41
30.0
 62
     5
 63
     7
421
 16777215
 74
     2
 91
        2
 64
     7
 65
   257
 75
     2
175
     1
 42
40.0
 92
        0
 66
   257
 43
1.0
 76
     1
 77
     6
 78
     2
 67
     7
 79
     3
170
     0
171
     0
290
     0
174
     0
 93
        1
 44
0.0
173
     0
291
     0
 45
0.0
  0
VISUALSTYLE
  5
3B
102
{ACAD_REACTORS
330
2A
102
}
102
{ACAD_XDICTIONARY
360
363
102
}
330
2A
100
AcDbVisualStyle
  2
JitterOff
 70
    20
 71
     2
 72
     2
 73
     0
 90
        0
 40
0.6
 41
30.0
 62
     5
 63
     7
421
 16777215
 74
     1
 91
        4
 64
     7
 65
   257
 75
     1
175
     1
 42
1.0
 92
       10
 66
     7
 43
1.0
 76
     1
 77
     6
 78
     2
 67
     7
 79
     5
170
     0
171
     0
290
     0
174
     0
 93
        1
 44
0.0
173
     0
291
     1
 45
0.0
  0
VISUALSTYLE
  5
38
102
{ACAD_REACTORS
330
2A
102
}
102
{ACAD_XDICTIONARY
360
35D
102
}
330
2A
100
AcDbVisualStyle
  2
Linepattern
 70
    14
 71
     2
 72
     2
 73
     0
 90
        0
 40
0.6
 41
30.0
 62
     5
 63
     7
421
 16777215
 74
     1
 91
        4
 64
     7
 65
   257
 75
     7
175
     7
 42
1.0
 92
        8
 66
     7
 43
1.0
 76
     1
 77
     6
 78
     2
 67
     7
 79
     5
170
     0
171
     0
290
     0
174
     0
 93
        1
 44
0.0
173
     0
291
     1
 45
0.0
  0
VISUALSTYLE
  5
3C
102
{ACAD_REACTORS
330
2A
102
}
102
{ACAD_XDICTIONARY
360
365
102
}
330
2A
100
AcDbVisualStyle
  2
OverhangOff
 70
    21
 71
     2
 72
     2
 73
     0
 90
        0
 40
0.6
 41
30.0
 62
     5
 63
     7
421
 16777215
 74
     1
 91
        4
 64
     7
 65
   257
 75
     1
175
     1
 42
1.0
 92
        9
 66
     7
 43
1.0
 76
     1
 77
     6
 78
     2
 67
     7
 79
     5
170
     0
171
     0
290
     0
174
     0
 93
        1
 44
0.0
173
     0
291
     1
 45
0.0
  0
VISUALSTYLE
  5
33
102
{ACAD_REACTORS
330
2A
102
}
102
{ACAD_XDICTIONARY
360
353
102
}
330
2A
100
AcDbVisualStyle
  2
Realistic
 70
     8
 71
     2
 72
     3
 73
     0
 90
        2
 40
0.6
 41
30.0
 62
     5
 63
     7
421
 16777215
 74
     0
 91
        0
 64
     7
 65
   257
 75
     1
175
     1
 42
1.0
 92
        8
 66
   257
 43
1.0
 76
     1
 77
     6
 78
     2
 67
     7
 79
     3
170
     0
171
     0
290
     0
174
     0
 93
       13
 44
0.0
173
     0
291
     0
 45
0.0
  0
VISUALSTYLE
  5
42
102
{ACAD_REACTORS
330
2A
102
}
102
{ACAD_XDICTIONARY
360
371
102
}
330
2A
100
AcDbVisualStyle
  2
Shaded
 70
    27
 71
     2
 72
     2
 73
     1
 90
        2
 40
0.6
 41
30.0
 62
     5
 63
     7
421
 16777215
 74
     0
 91
        4
 64
     7
 65
   257
 75
     1
175
     1
 42
1.0
 92
        8
 66
   257
 43
1.0
 76
     1
 77
     6
 78
     2
 67
     8
425
  7895160
 79
     3
170
     0
171
     0
290
     0
174
     0
 93
        5
 44
0.0
173
     0
291
     0
 45
0.0
  0
VISUALSTYLE
  5
41
102
{ACAD_REACTORS
330
2A
102
}
102
{ACAD_XDICTIONARY
360
36F
102
}
330
2A
100
AcDbVisualStyle
  2
Shaded with edges
 70
    26
 71
     2
 72
     2
 73
     1
 90
        2
 40
0.6
 41
30.0
 62
     5
 63
     7
421
 16777215
 74
     1
 91
       10
 64
     7
 65
   257
 75
     2
175
     1
 42
1.0
 92
        8
 66
   257
 43
1.0
 76
     1
 77
     6
 78
     2
 67
     7
 79
     3
170
     0
171
     0
290
     0
174
     0
 93
        5
 44
0.0
173
     0
291
     0
 45
0.0
  0
VISUALSTYLE
  5
3E
102
{ACAD_REACTORS
330
2A
102
}
102
{ACAD_XDICTIONARY
360
369
102
}
330
2A
100
AcDbVisualStyle
  2
Shades of Gray
 70
    23
 71
     2
 72
     2
 73
     3
 90
        0
 40
0.6
 41
30.0
 62
     5
 63
     7
421
 16777215
 74
     2
 91
        2
 64
     7
 65
     7
 75
     1
175
     1
 42
40.0
 92
        8
 66
     7
 43
1.0
 76
     1
 77
     6
 78
     2
 67
     7
 79
     3
170
     0
171
     0
290
     0
174
     0
 93
        1
 44
0.0
173
     0
291
     0
 45
0.0
  0
VISUALSTYLE
  5
3F
102
{ACAD_REACTORS
330
2A
102
}
102
{ACAD_XDICTIONARY
360
36B
102
}
330
2A
100
AcDbVisualStyle
  2
Sketchy
 70
    24
 71
     1
 72
     2
 73
     2
 90
        0
 40
0.6
 41
30.0
 62
     5
 63
     7
421
 16777215
 74
     2
 91
        2
 64
     7
 65
     7
 75
     1
175
     1
 42
40.0
 92
       11
 66
     7
 43
1.0
 76
     1
 77
     6
 78
     2
 67
     7
 79
     6
170
     0
171
     0
290
     0
174
     0
 93
        1
 44
0.0
173
     0
291
     0
 45
0.0
  0
VISUALSTYLE
  5
37
102
{ACAD_REACTORS
330
2A
102
}
102
{ACAD_XDICTIONARY
360
35B
102
}
330
2A
100
AcDbVisualStyle
  2
Thicken
 70
    13
 71
     2
 72
     2
 73
     0
 90
        0
 40
0.6
 41
30.0
 62
     5
 63
     7
421
 16777215
 74
     1
 91
        4
 64
     7
 65
   257
 75
     1
175
     1
 42
1.0
 92
       12
 66
     7
 43
1.0
 76
     1
 77
     6
 78
     2
 67
     7
 79
     5
170
     0
171
     0
290
     0
174
     0
 93
        1
 44
0.0
173
     0
291
     1
 45
0.0
  0
VISUALSTYLE
  5
30
102
{ACAD_REACTORS
330
2A
102
}
102
{ACAD_XDICTIONARY
360
34D
102
}
330
2A
100
AcDbVisualStyle
  2
Wireframe
 70
     5
 71
     0
 72
     2
 73
     0
 90
        0
 40
0.6
 41
30.0
 62
     5
 63
     7
421
 16777215
 74
     1
 91
        4
 64
     7
 65
   257
 75
     1
175
     1
 42
1.0
 92
        0
 66
   257
 43
1.0
 76
     1
 77
     6
 78
     2
 67
     7
 79
     3
170
     0
171
     0
290
     0
174
     0
 93
        1
 44
0.0
173
     0
291
     0
 45
0.0
  0
VISUALSTYLE
  5
40
102
{ACAD_REACTORS
330
2A
102
}
102
{ACAD_XDICTIONARY
360
36D
102
}
330
2A
100
AcDbVisualStyle
  2
X-Ray
 70
    25
 71
     2
 72
     2
 73
     1
 90
        1
 40
0.5
 41
30.0
 62
     5
 63
     7
421
 16777215
 74
     1
 91
        0
 64
     7
 65
   257
 75
     1
175
     1
 42
1.0
 92
        8
 66
     7
 43
1.0
 76
     1
 77
     6
 78
     2
 67
     7
 79
     3
170
     0
171
     0
290
     0
174
     0
 93
       13
 44
0.0
173
     0
291
     0
 45
0.0
  0
DICTIONARYVAR
  5
341
102
{ACAD_REACTORS
330
340
102
}
330
340
100
DictionaryVariables
280
     0
  1
1:1
  0
DICTIONARYVAR
  5
37A
102
{ACAD_REACTORS
330
340
102
}
330
340
100
DictionaryVariables
280
     0
  1
Standard
  0
DICTIONARYVAR
  5
379
102
{ACAD_REACTORS
330
340
102
}
330
340
100
DictionaryVariables
280
     0
  1
Standard
  0
DICTIONARYVAR
  5
342
102
{ACAD_REACTORS
330
340
102
}
330
340
100
DictionaryVariables
280
     0
  1
2
  0
DICTIONARY
  5
376
330
6C
100
AcDbDictionary
280
     1
281
     1
  3
ACAD_XREC_ROUNDTRIP
360
377
  0
DICTIONARY
  5
373
330
6A
100
AcDbDictionary
280
     1
281
     1
  3
ACAD_ROUNDTRIP_2008_TABLESTYLE_CELLSTYLEMAP
360
374
  0
DICTIONARY
  5
34B
330
2F
100
AcDbDictionary
280
     1
281
     1
  3
ACAD_XREC_ROUNDTRIP
360
34C
  0
DICTIONARY
  5
351
330
32
100
AcDbDictionary
280
     1
281
     1
  3
ACAD_XREC_ROUNDTRIP
360
352
  0
DICTIONARY
  5
359
330
36
100
AcDbDictionary
280
     1
281
     1
  3
ACAD_XREC_ROUNDTRIP
360
35A
  0
DICTIONARY
  5
361
330
3A
100
AcDbDictionary
280
     1
281
     1
  3
ACAD_XREC_ROUNDTRIP
360
362
  0
DICTIONARY
  5
355
330
34
100
AcDbDictionary
280
     1
281
     1
  3
ACAD_XREC_ROUNDTRIP
360
356
  0
DICTIONARY
  5
357
330
35
100
AcDbDictionary
280
     1
281
     1
  3
ACAD_XREC_ROUNDTRIP
360
358
  0
DICTIONARY
  5
367
330
3D
100
AcDbDictionary
280
     1
281
     1
  3
ACAD_XREC_ROUNDTRIP
360
368
  0
DICTIONARY
  5
35F
330
39
100
AcDbDictionary
280
     1
281
     1
  3
ACAD_XREC_ROUNDTRIP
360
360
  0
DICTIONARY
  5
343
330
2B
100
AcDbDictionary
280
     1
281
     1
  3
ACAD_XREC_ROUNDTRIP
360
344
  0
DICTIONARY
  5
345
330
2C
100
AcDbDictionary
280
     1
281
     1
  3
ACAD_XREC_ROUNDTRIP
360
346
  0
DICTIONARY
  5
347
330
2D
100
AcDbDictionary
280
     1
281
     1
  3
ACAD_XREC_ROUNDTRIP
360
348
  0
DICTIONARY
  5
349
330
2E
100
AcDbDictionary
280
     1
281
     1
  3
ACAD_XREC_ROUNDTRIP
360
34A
  0
DICTIONARY
  5
34F
330
31
100
AcDbDictionary
280
     1
281
     1
  3
ACAD_XREC_ROUNDTRIP
360
350
  0
DICTIONARY
  5
363
330
3B
100
AcDbDictionary
280
     1
281
     1
  3
ACAD_XREC_ROUNDTRIP
360
364
  0
DICTIONARY
  5
35D
330
38
100
AcDbDictionary
280
     1
281
     1
  3
ACAD_XREC_ROUNDTRIP
360
35E
  0
DICTIONARY
  5
365
330
3C
100
AcDbDictionary
280
     1
281
     1
  3
ACAD_XREC_ROUNDTRIP
360
366
  0
DICTIONARY
  5
353
330
33
100
AcDbDictionary
280
     1
281
     1
  3
ACAD_XREC_ROUNDTRIP
360
354
  0
DICTIONARY
  5
371
330
42
100
AcDbDictionary
280
     1
281
     1
  3
ACAD_XREC_ROUNDTRIP
360
372
  0
DICTIONARY
  5
36F
330
41
100
AcDbDictionary
280
     1
281
     1
  3
ACAD_XREC_ROUNDTRIP
360
370
  0
DICTIONARY
  5
369
330
3E
100
AcDbDictionary
280
     1
281
     1
  3
ACAD_XREC_ROUNDTRIP
360
36A
  0
DICTIONARY
  5
36B
330
3F
100
AcDbDictionary
280
     1
281
     1
  3
ACAD_XREC_ROUNDTRIP
360
36C
  0
DICTIONARY
  5
35B
330
37
100
AcDbDictionary
280
     1
281
     1
  3
ACAD_XREC_ROUNDTRIP
360
35C
  0
DICTIONARY
  5
34D
330
30
100
AcDbDictionary
280
     1
281
     1
  3
ACAD_XREC_ROUNDTRIP
360
34E
  0
DICTIONARY
  5
36D
330
40
100
AcDbDictionary
280
     1
281
     1
  3
ACAD_XREC_ROUNDTRIP
360
36E
  0
XRECORD
  5
377
102
{ACAD_REACTORS
330
376
102
}
330
376
100
AcDbXrecord
280
     1
102
ACAD_ROUNDTRIP_2010_MLEADER_STYLE
  0
CELLSTYLEMAP
  5
374
102
{ACAD_REACTORS
330
373
102
}
330
373
100
AcDbCellStyleMap
 90
        3
300
CELLSTYLE
  1
TABLEFORMAT_BEGIN
 90
        5
170
     1
 91
        0
 92
    32768
 62
   257
 93
        1
300
CONTENTFORMAT
  1
CONTENTFORMAT_BEGIN
 90
        0
 91
        0
 92
        4
 93
        0
300

 40
0.0
140
1.0
 94
        5
 62
     0
340
11
144
0.25
309
CONTENTFORMAT_END
171
     1
301
MARGIN
  1
CELLMARGIN_BEGIN
 40
0.06
 40
0.06
 40
0.06
 40
0.06
 40
0.06
 40
0.06
309
CELLMARGIN_END
 94
        6
 95
        1
302
GRIDFORMAT
  1
GRIDFORMAT_BEGIN
 90
        0
 91
        1
 62
     0
 92
       -2
340
14
 93
        0
 40
0.045
309
GRIDFORMAT_END
 95
        2
302
GRIDFORMAT
  1
GRIDFORMAT_BEGIN
 90
        0
 91
        1
 62
     0
 92
       -2
340
14
 93
        0
 40
0.045
309
GRIDFORMAT_END
 95
        4
302
GRIDFORMAT
  1
GRIDFORMAT_BEGIN
 90
        0
 91
        1
 62
     0
 92
       -2
340
14
 93
        0
 40
0.045
309
GRIDFORMAT_END
 95
        8
302
GRIDFORMAT
  1
GRIDFORMAT_BEGIN
 90
        0
 91
        1
 62
     0
 92
       -2
340
14
 93
        0
 40
0.045
309
GRIDFORMAT_END
 95
       16
302
GRIDFORMAT
  1
GRIDFORMAT_BEGIN
 90
        0
 91
        1
 62
     0
 92
       -2
340
14
 93
        0
 40
0.045
309
GRIDFORMAT_END
 95
       32
302
GRIDFORMAT
  1
GRIDFORMAT_BEGIN
 90
        0
 91
        1
 62
     0
 92
       -2
340
14
 93
        0
 40
0.045
309
GRIDFORMAT_END
309
TABLEFORMAT_END
  1
CELLSTYLE_BEGIN
 90
        1
 91
        1
300
_TITLE
309
CELLSTYLE_END
300
CELLSTYLE
  1
TABLEFORMAT_BEGIN
 90
        5
170
     1
 91
        0
 92
        0
 62
   257
 93
        1
300
CONTENTFORMAT
  1
CONTENTFORMAT_BEGIN
 90
        0
 91
        0
 92
        4
 93
        0
300

 40
0.0
140
1.0
 94
        5
 62
     0
340
11
144
0.18
309
CONTENTFORMAT_END
171
     1
301
MARGIN
  1
CELLMARGIN_BEGIN
 40
0.06
 40
0.06
 40
0.06
 40
0.06
 40
0.06
 40
0.06
309
CELLMARGIN_END
 94
        6
 95
        1
302
GRIDFORMAT
  1
GRIDFORMAT_BEGIN
 90
        0
 91
        1
 62
     0
 92
       -2
340
14
 93
        0
 40
0.045
309
GRIDFORMAT_END
 95
        2
302
GRIDFORMAT
  1
GRIDFORMAT_BEGIN
 90
        0
 91
        1
 62
     0
 92
       -2
340
14
 93
        0
 40
0.045
309
GRIDFORMAT_END
 95
        4
302
GRIDFORMAT
  1
GRIDFORMAT_BEGIN
 90
        0
 91
        1
 62
     0
 92
       -2
340
14
 93
        0
 40
0.045
309
GRIDFORMAT_END
 95
        8
302
GRIDFORMAT
  1
GRIDFORMAT_BEGIN
 90
        0
 91
        1
 62
     0
 92
       -2
340
14
 93
        0
 40
0.045
309
GRIDFORMAT_END
 95
       16
302
GRIDFORMAT
  1
GRIDFORMAT_BEGIN
 90
        0
 91
        1
 62
     0
 92
       -2
340
14
 93
        0
 40
0.045
309
GRIDFORMAT_END
 95
       32
302
GRIDFORMAT
  1
GRIDFORMAT_BEGIN
 90
        0
 91
        1
 62
     0
 92
       -2
340
14
 93
        0
 40
0.045
309
GRIDFORMAT_END
309
TABLEFORMAT_END
  1
CELLSTYLE_BEGIN
 90
        2
 91
        1
300
_HEADER
309
CELLSTYLE_END
300
CELLSTYLE
  1
TABLEFORMAT_BEGIN
 90
        5
170
     1
 91
        0
 92
        0
 62
   257
 93
        1
300
CONTENTFORMAT
  1
CONTENTFORMAT_BEGIN
 90
        0
 91
        0
 92
        4
 93
        0
300

 40
0.0
140
1.0
 94
        2
 62
     0
340
11
144
0.18
309
CONTENTFORMAT_END
171
     1
301
MARGIN
  1
CELLMARGIN_BEGIN
 40
0.06
 40
0.06
 40
0.06
 40
0.06
 40
0.06
 40
0.06
309
CELLMARGIN_END
 94
        6
 95
        1
302
GRIDFORMAT
  1
GRIDFORMAT_BEGIN
 90
        0
 91
        1
 62
     0
 92
       -2
340
14
 93
        0
 40
0.045
309
GRIDFORMAT_END
 95
        2
302
GRIDFORMAT
  1
GRIDFORMAT_BEGIN
 90
        0
 91
        1
 62
     0
 92
       -2
340
14
 93
        0
 40
0.045
309
GRIDFORMAT_END
 95
        4
302
GRIDFORMAT
  1
GRIDFORMAT_BEGIN
 90
        0
 91
        1
 62
     0
 92
       -2
340
14
 93
        0
 40
0.045
309
GRIDFORMAT_END
 95
        8
302
GRIDFORMAT
  1
GRIDFORMAT_BEGIN
 90
        0
 91
        1
 62
     0
 92
       -2
340
14
 93
        0
 40
0.045
309
GRIDFORMAT_END
 95
       16
302
GRIDFORMAT
  1
GRIDFORMAT_BEGIN
 90
        0
 91
        1
 62
     0
 92
       -2
340
14
 93
        0
 40
0.045
309
GRIDFORMAT_END
 95
       32
302
GRIDFORMAT
  1
GRIDFORMAT_BEGIN
 90
        0
 91
        1
 62
     0
 92
       -2
340
14
 93
        0
 40
0.045
309
GRIDFORMAT_END
309
TABLEFORMAT_END
  1
CELLSTYLE_BEGIN
 90
        3
 91
        2
300
_DATA
309
CELLSTYLE_END
  0
XRECORD
  5
34C
102
{ACAD_REACTORS
330
34B
102
}
330
34B
100
AcDbXrecord
280
     1
102
RTVSPropertyOp0
 70
     1
102
RTVSPropertyOp1
 70
     1
102
RTVSPropertyOp2
 70
     1
102
RTVSPropertyOp3
 70
     1
102
RTVSPropertyOp4
 70
     1
102
RTVSPropertyOp5
 70
     1
102
RTVSPropertyOp6
 70
     1
102
RTVSPropertyOp7
 70
     1
102
RTVSPropertyOp8
 70
     1
102
RTVSPropertyOp9
 70
     1
102
RTVSPropertyOp10
 70
     1
102
RTVSPropertyOp11
 70
     1
102
RTVSPropertyOp12
 70
     1
102
RTVSPropertyOp13
 70
     1
102
RTVSPropertyOp14
 70
     1
102
RTVSPropertyOp15
 70
     1
102
RTVSPropertyOp16
 70
     1
102
RTVSPropertyOp17
 70
     1
102
RTVSPropertyOp18
 70
     1
102
RTVSPropertyOp19
 70
     1
102
RTVSPropertyOp20
 70
     1
102
RTVSPropertyOp21
 70
     1
102
RTVSPropertyOp22
 70
     1
102
RTVSPropertyOp23
 70
     1
102
RTVSPropertyOp24
 70
     1
102
RTVSPropertyOp25
 70
     1
102
RTVSPropertyOp26
 70
     1
102
RTVSPropertyOp27
 70
     1
102
RTVSPropertyOp28
 70
     1
102
RTVSPropertyOp29
 70
     1
102
RTVSPropertyOp30
 70
     1
102
RTVSPropertyOp31
 70
     1
102
RTVSPropertyOp32
 70
     1
102
RTVSPropertyOp33
 70
     1
102
RTVSPropertyOp34
 70
     1
102
RTVSPropertyOp35
 70
     1
102
RTVSPropertyOp36
 70
     1
102
RTVSPropertyOp37
 70
     1
102
RTVSPropertyOp38
 70
     1
102
RTVSPropertyOp39
 70
     1
102
RTVSPropertyOp40
 70
     1
102
RTVSPropertyOp41
 70
     1
102
RTVSPropertyOp42
 70
     1
102
RTVSPropertyOp43
 70
     1
102
RTVSPropertyOp44
 70
     1
102
RTVSPropertyOp45
 70
     1
102
RTVSPropertyOp46
 70
     1
102
RTVSPropertyOp47
 70
     1
102
RTVSPropertyOp48
 70
     1
102
RTVSPropertyOp49
 70
     1
102
RTVSPropertyOp50
 70
     1
102
RTVSPropertyOp51
 70
     0
102
RTVSPropertyOp52
 70
     0
102
RTVSPropertyOp53
 70
     1
102
RTVSPropertyOp54
 70
     1
102
RTVSPropertyOp55
 70
     1
102
RTVSPropertyOp56
 70
     1
102
RTVSPropertyOp57
 70
     1
102
RTVSPost2010Prop28
280
     1
102
RTVSPost2010PropOp28
 70
     1
102
RTVSPost2010Prop29
280
     1
102
RTVSPost2010PropOp29
 70
     1
102
RTVSPost2010Prop30
280
     0
102
RTVSPost2010PropOp30
 70
     1
102
RTVSPost2010Prop31
280
     0
102
RTVSPost2010PropOp31
 70
     1
102
RTVSPost2010Prop32
280
     0
102
RTVSPost2010PropOp32
 70
     1
102
RTVSPost2010Prop33
280
     0
102
RTVSPost2010PropOp33
 70
     1
102
RTVSPost2010Prop34
280
     0
102
RTVSPost2010PropOp34
 70
     1
102
RTVSPost2010Prop35
280
     0
102
RTVSPost2010PropOp35
 70
     1
102
RTVSPost2010Prop36
280
     0
102
RTVSPost2010PropOp36
 70
     1
102
RTVSPost2010Prop37
 90
       50
102
RTVSPost2010PropOp37
 70
     1
102
RTVSPost2010Prop38
140
0.0
102
RTVSPost2010PropOp38
 70
     1
102
RTVSPost2010Prop39
140
1.0
102
RTVSPost2010PropOp39
 70
     1
102
RTVSPost2010Prop40
 90
        0
102
RTVSPost2010PropOp40
 70
     1
102
RTVSPost2010Prop41ColorIndex
 90
       18
102
RTVSPost2010Prop41ColorRGB
 90
        0
102
RTVSPost2010PropOp41
 70
     1
102
RTVSPost2010Prop42
 90
       50
102
RTVSPost2010PropOp42
 70
     1
102
RTVSPost2010Prop43
 90
        3
102
RTVSPost2010PropOp43
 70
     1
102
RTVSPost2010Prop44ColorIndex
 90
        5
102
RTVSPost2010Prop44ColorRGB
 90
      255
102
RTVSPost2010PropOp44
 70
     1
102
RTVSPost2010Prop45
280
     0
102
RTVSPost2010PropOp45
 70
     1
102
RTVSPost2010Prop46
 90
       50
102
RTVSPost2010PropOp46
 70
     1
102
RTVSPost2010Prop47
 90
       50
102
RTVSPost2010PropOp47
 70
     1
102
RTVSPost2010Prop48
 90
       50
102
RTVSPost2010PropOp48
 70
     1
102
RTVSPost2010Prop49
280
     0
102
RTVSPost2010PropOp49
 70
     1
102
RTVSPost2010Prop50
 90
       50
102
RTVSPost2010PropOp50
 70
     1
102
RTVSPost2010Prop51ColorIndex
 90
      256
102
RTVSPost2010Prop51ColorRGB
 90
-16777216
102
RTVSPost2010PropOp51
 70
     0
102
RTVSPost2010Prop52
140
1.0
102
RTVSPost2010PropOp52
 70
     0
102
RTVSPost2010Prop53
 90
        2
102
RTVSPost2010PropOp53
 70
     1
102
RTVSPost2010Prop54
  1
strokes_ogs.tif
102
RTVSPost2010PropOp54
 70
     1
102
RTVSPost2010Prop55
280
     0
102
RTVSPost2010PropOp55
 70
     1
102
RTVSPost2010Prop56
140
1.0
102
RTVSPost2010PropOp56
 70
     1
102
RTVSPost2010Prop57
140
1.0
102
RTVSPost2010PropOp57
 70
     1
  0
XRECORD
  5
352
102
{ACAD_REACTORS
330
351
102
}
330
351
100
AcDbXrecord
280
     1
102
RTVSPropertyOp0
 70
     1
102
RTVSPropertyOp1
 70
     1
102
RTVSPropertyOp2
 70
     1
102
RTVSPropertyOp3
 70
     1
102
RTVSPropertyOp4
 70
     1
102
RTVSPropertyOp5
 70
     1
102
RTVSPropertyOp6
 70
     1
102
RTVSPropertyOp7
 70
     1
102
RTVSPropertyOp8
 70
     1
102
RTVSPropertyOp9
 70
     1
102
RTVSPropertyOp10
 70
     1
102
RTVSPropertyOp11
 70
     1
102
RTVSPropertyOp12
 70
     1
102
RTVSPropertyOp13
 70
     1
102
RTVSPropertyOp14
 70
     1
102
RTVSPropertyOp15
 70
     1
102
RTVSPropertyOp16
 70
     1
102
RTVSPropertyOp17
 70
     1
102
RTVSPropertyOp18
 70
     1
102
RTVSPropertyOp19
 70
     1
102
RTVSPropertyOp20
 70
     1
102
RTVSPropertyOp21
 70
     1
102
RTVSPropertyOp22
 70
     1
102
RTVSPropertyOp23
 70
     1
102
RTVSPropertyOp24
 70
     1
102
RTVSPropertyOp25
 70
     1
102
RTVSPropertyOp26
 70
     1
102
RTVSPropertyOp27
 70
     1
102
RTVSPropertyOp28
 70
     1
102
RTVSPropertyOp29
 70
     1
102
RTVSPropertyOp30
 70
     1
102
RTVSPropertyOp31
 70
     1
102
RTVSPropertyOp32
 70
     1
102
RTVSPropertyOp33
 70
     1
102
RTVSPropertyOp34
 70
     1
102
RTVSPropertyOp35
 70
     1
102
RTVSPropertyOp36
 70
     1
102
RTVSPropertyOp37
 70
     1
102
RTVSPropertyOp38
 70
     1
102
RTVSPropertyOp39
 70
     1
102
RTVSPropertyOp40
 70
     1
102
RTVSPropertyOp41
 70
     1
102
RTVSPropertyOp42
 70
     1
102
RTVSPropertyOp43
 70
     1
102
RTVSPropertyOp44
 70
     1
102
RTVSPropertyOp45
 70
     1
102
RTVSPropertyOp46
 70
     1
102
RTVSPropertyOp47
 70
     1
102
RTVSPropertyOp48
 70
     1
102
RTVSPropertyOp49
 70
     1
102
RTVSPropertyOp50
 70
     1
102
RTVSPropertyOp51
 70
     0
102
RTVSPropertyOp52
 70
     0
102
RTVSPropertyOp53
 70
     1
102
RTVSPropertyOp54
 70
     1
102
RTVSPropertyOp55
 70
     1
102
RTVSPropertyOp56
 70
     1
102
RTVSPropertyOp57
 70
     1
102
RTVSPost2010Prop28
280
     0
102
RTVSPost2010PropOp28
 70
     1
102
RTVSPost2010Prop29
280
     1
102
RTVSPost2010PropOp29
 70
     1
102
RTVSPost2010Prop30
280
     1
102
RTVSPost2010PropOp30
 70
     1
102
RTVSPost2010Prop31
280
     0
102
RTVSPost2010PropOp31
 70
     1
102
RTVSPost2010Prop32
280
     0
102
RTVSPost2010PropOp32
 70
     1
102
RTVSPost2010Prop33
280
     0
102
RTVSPost2010PropOp33
 70
     1
102
RTVSPost2010Prop34
280
     0
102
RTVSPost2010PropOp34
 70
     1
102
RTVSPost2010Prop35
280
     0
102
RTVSPost2010PropOp35
 70
     1
102
RTVSPost2010Prop36
280
     0
102
RTVSPost2010PropOp36
 70
     1
102
RTVSPost2010Prop37
 90
       50
102
RTVSPost2010PropOp37
 70
     1
102
RTVSPost2010Prop38
140
0.0
102
RTVSPost2010PropOp38
 70
     1
102
RTVSPost2010Prop39
140
1.0
102
RTVSPost2010PropOp39
 70
     1
102
RTVSPost2010Prop40
 90
        0
102
RTVSPost2010PropOp40
 70
     1
102
RTVSPost2010Prop41ColorIndex
 90
       18
102
RTVSPost2010Prop41ColorRGB
 90
        0
102
RTVSPost2010PropOp41
 70
     1
102
RTVSPost2010Prop42
 90
       50
102
RTVSPost2010PropOp42
 70
     1
102
RTVSPost2010Prop43
 90
        3
102
RTVSPost2010PropOp43
 70
     1
102
RTVSPost2010Prop44ColorIndex
 90
        5
102
RTVSPost2010Prop44ColorRGB
 90
      255
102
RTVSPost2010PropOp44
 70
     1
102
RTVSPost2010Prop45
280
     0
102
RTVSPost2010PropOp45
 70
     1
102
RTVSPost2010Prop46
 90
       50
102
RTVSPost2010PropOp46
 70
     1
102
RTVSPost2010Prop47
 90
       50
102
RTVSPost2010PropOp47
 70
     1
102
RTVSPost2010Prop48
 90
       50
102
RTVSPost2010PropOp48
 70
     1
102
RTVSPost2010Prop49
280
     0
102
RTVSPost2010PropOp49
 70
     1
102
RTVSPost2010Prop50
 90
       50
102
RTVSPost2010PropOp50
 70
     1
102
RTVSPost2010Prop51ColorIndex
 90
      256
102
RTVSPost2010Prop51ColorRGB
 90
-16777216
102
RTVSPost2010PropOp51
 70
     0
102
RTVSPost2010Prop52
140
1.0
102
RTVSPost2010PropOp52
 70
     0
102
RTVSPost2010Prop53
 90
        2
102
RTVSPost2010PropOp53
 70
     1
102
RTVSPost2010Prop54
  1
strokes_ogs.tif
102
RTVSPost2010PropOp54
 70
     1
102
RTVSPost2010Prop55
280
     0
102
RTVSPost2010PropOp55
 70
     1
102
RTVSPost2010Prop56
140
1.0
102
RTVSPost2010PropOp56
 70
     1
102
RTVSPost2010Prop57
140
1.0
102
RTVSPost2010PropOp57
 70
     1
  0
XRECORD
  5
35A
102
{ACAD_REACTORS
330
359
102
}
330
359
100
AcDbXrecord
280
     1
102
RTVSPropertyOp0
 70
     1
102
RTVSPropertyOp1
 70
     1
102
RTVSPropertyOp2
 70
     1
102
RTVSPropertyOp3
 70
     1
102
RTVSPropertyOp4
 70
     1
102
RTVSPropertyOp5
 70
     1
102
RTVSPropertyOp6
 70
     1
102
RTVSPropertyOp7
 70
     1
102
RTVSPropertyOp8
 70
     1
102
RTVSPropertyOp9
 70
     1
102
RTVSPropertyOp10
 70
     1
102
RTVSPropertyOp11
 70
     1
102
RTVSPropertyOp12
 70
     1
102
RTVSPropertyOp13
 70
     1
102
RTVSPropertyOp14
 70
     1
102
RTVSPropertyOp15
 70
     1
102
RTVSPropertyOp16
 70
     1
102
RTVSPropertyOp17
 70
     1
102
RTVSPropertyOp18
 70
     1
102
RTVSPropertyOp19
 70
     1
102
RTVSPropertyOp20
 70
     1
102
RTVSPropertyOp21
 70
     1
102
RTVSPropertyOp22
 70
     1
102
RTVSPropertyOp23
 70
     1
102
RTVSPropertyOp24
 70
     1
102
RTVSPropertyOp25
 70
     1
102
RTVSPropertyOp26
 70
     1
102
RTVSPropertyOp27
 70
     1
102
RTVSPropertyOp28
 70
     1
102
RTVSPropertyOp29
 70
     1
102
RTVSPropertyOp30
 70
     1
102
RTVSPropertyOp31
 70
     1
102
RTVSPropertyOp32
 70
     1
102
RTVSPropertyOp33
 70
     1
102
RTVSPropertyOp34
 70
     1
102
RTVSPropertyOp35
 70
     1
102
RTVSPropertyOp36
 70
     1
102
RTVSPropertyOp37
 70
     1
102
RTVSPropertyOp38
 70
     1
102
RTVSPropertyOp39
 70
     1
102
RTVSPropertyOp40
 70
     1
102
RTVSPropertyOp41
 70
     1
102
RTVSPropertyOp42
 70
     1
102
RTVSPropertyOp43
 70
     1
102
RTVSPropertyOp44
 70
     1
102
RTVSPropertyOp45
 70
     1
102
RTVSPropertyOp46
 70
     1
102
RTVSPropertyOp47
 70
     1
102
RTVSPropertyOp48
 70
     1
102
RTVSPropertyOp49
 70
     1
102
RTVSPropertyOp50
 70
     1
102
RTVSPropertyOp51
 70
     0
102
RTVSPropertyOp52
 70
     0
102
RTVSPropertyOp53
 70
     1
102
RTVSPropertyOp54
 70
     1
102
RTVSPropertyOp55
 70
     1
102
RTVSPropertyOp56
 70
     1
102
RTVSPropertyOp57
 70
     1
102
RTVSPost2010Prop28
280
     0
102
RTVSPost2010PropOp28
 70
     1
102
RTVSPost2010Prop29
280
     1
102
RTVSPost2010PropOp29
 70
     1
102
RTVSPost2010Prop30
280
     1
102
RTVSPost2010PropOp30
 70
     1
102
RTVSPost2010Prop31
280
     0
102
RTVSPost2010PropOp31
 70
     1
102
RTVSPost2010Prop32
280
     0
102
RTVSPost2010PropOp32
 70
     1
102
RTVSPost2010Prop33
280
     0
102
RTVSPost2010PropOp33
 70
     1
102
RTVSPost2010Prop34
280
     0
102
RTVSPost2010PropOp34
 70
     1
102
RTVSPost2010Prop35
280
     0
102
RTVSPost2010PropOp35
 70
     1
102
RTVSPost2010Prop36
280
     0
102
RTVSPost2010PropOp36
 70
     1
102
RTVSPost2010Prop37
 90
       50
102
RTVSPost2010PropOp37
 70
     1
102
RTVSPost2010Prop38
140
0.0
102
RTVSPost2010PropOp38
 70
     1
102
RTVSPost2010Prop39
140
1.0
102
RTVSPost2010PropOp39
 70
     1
102
RTVSPost2010Prop40
 90
        0
102
RTVSPost2010PropOp40
 70
     1
102
RTVSPost2010Prop41ColorIndex
 90
       18
102
RTVSPost2010Prop41ColorRGB
 90
        0
102
RTVSPost2010PropOp41
 70
     1
102
RTVSPost2010Prop42
 90
       50
102
RTVSPost2010PropOp42
 70
     1
102
RTVSPost2010Prop43
 90
        3
102
RTVSPost2010PropOp43
 70
     1
102
RTVSPost2010Prop44ColorIndex
 90
        5
102
RTVSPost2010Prop44ColorRGB
 90
      255
102
RTVSPost2010PropOp44
 70
     1
102
RTVSPost2010Prop45
280
     0
102
RTVSPost2010PropOp45
 70
     1
102
RTVSPost2010Prop46
 90
       50
102
RTVSPost2010PropOp46
 70
     1
102
RTVSPost2010Prop47
 90
       50
102
RTVSPost2010PropOp47
 70
     1
102
RTVSPost2010Prop48
 90
       50
102
RTVSPost2010PropOp48
 70
     1
102
RTVSPost2010Prop49
280
     0
102
RTVSPost2010PropOp49
 70
     1
102
RTVSPost2010Prop50
 90
       50
102
RTVSPost2010PropOp50
 70
     1
102
RTVSPost2010Prop51ColorIndex
 90
      256
102
RTVSPost2010Prop51ColorRGB
 90
-16777216
102
RTVSPost2010PropOp51
 70
     0
102
RTVSPost2010Prop52
140
1.0
102
RTVSPost2010PropOp52
 70
     0
102
RTVSPost2010Prop53
 90
        2
102
RTVSPost2010PropOp53
 70
     1
102
RTVSPost2010Prop54
  1
strokes_ogs.tif
102
RTVSPost2010PropOp54
 70
     1
102
RTVSPost2010Prop55
280
     0
102
RTVSPost2010PropOp55
 70
     1
102
RTVSPost2010Prop56
140
1.0
102
RTVSPost2010PropOp56
 70
     1
102
RTVSPost2010Prop57
140
1.0
102
RTVSPost2010PropOp57
 70
     1
  0
XRECORD
  5
362
102
{ACAD_REACTORS
330
361
102
}
330
361
100
AcDbXrecord
280
     1
102
RTVSPropertyOp0
 70
     1
102
RTVSPropertyOp1
 70
     1
102
RTVSPropertyOp2
 70
     1
102
RTVSPropertyOp3
 70
     1
102
RTVSPropertyOp4
 70
     1
102
RTVSPropertyOp5
 70
     1
102
RTVSPropertyOp6
 70
     1
102
RTVSPropertyOp7
 70
     1
102
RTVSPropertyOp8
 70
     1
102
RTVSPropertyOp9
 70
     1
102
RTVSPropertyOp10
 70
     1
102
RTVSPropertyOp11
 70
     1
102
RTVSPropertyOp12
 70
     1
102
RTVSPropertyOp13
 70
     1
102
RTVSPropertyOp14
 70
     1
102
RTVSPropertyOp15
 70
     1
102
RTVSPropertyOp16
 70
     1
102
RTVSPropertyOp17
 70
     1
102
RTVSPropertyOp18
 70
     1
102
RTVSPropertyOp19
 70
     1
102
RTVSPropertyOp20
 70
     1
102
RTVSPropertyOp21
 70
     1
102
RTVSPropertyOp22
 70
     1
102
RTVSPropertyOp23
 70
     1
102
RTVSPropertyOp24
 70
     1
102
RTVSPropertyOp25
 70
     1
102
RTVSPropertyOp26
 70
     1
102
RTVSPropertyOp27
 70
     1
102
RTVSPropertyOp28
 70
     1
102
RTVSPropertyOp29
 70
     1
102
RTVSPropertyOp30
 70
     1
102
RTVSPropertyOp31
 70
     1
102
RTVSPropertyOp32
 70
     1
102
RTVSPropertyOp33
 70
     1
102
RTVSPropertyOp34
 70
     1
102
RTVSPropertyOp35
 70
     1
102
RTVSPropertyOp36
 70
     1
102
RTVSPropertyOp37
 70
     1
102
RTVSPropertyOp38
 70
     1
102
RTVSPropertyOp39
 70
     1
102
RTVSPropertyOp40
 70
     1
102
RTVSPropertyOp41
 70
     1
102
RTVSPropertyOp42
 70
     1
102
RTVSPropertyOp43
 70
     1
102
RTVSPropertyOp44
 70
     1
102
RTVSPropertyOp45
 70
     1
102
RTVSPropertyOp46
 70
     1
102
RTVSPropertyOp47
 70
     1
102
RTVSPropertyOp48
 70
     1
102
RTVSPropertyOp49
 70
     1
102
RTVSPropertyOp50
 70
     1
102
RTVSPropertyOp51
 70
     0
102
RTVSPropertyOp52
 70
     0
102
RTVSPropertyOp53
 70
     1
102
RTVSPropertyOp54
 70
     1
102
RTVSPropertyOp55
 70
     1
102
RTVSPropertyOp56
 70
     1
102
RTVSPropertyOp57
 70
     1
102
RTVSPost2010Prop28
280
     0
102
RTVSPost2010PropOp28
 70
     1
102
RTVSPost2010Prop29
280
     1
102
RTVSPost2010PropOp29
 70
     1
102
RTVSPost2010Prop30
280
     1
102
RTVSPost2010PropOp30
 70
     1
102
RTVSPost2010Prop31
280
     0
102
RTVSPost2010PropOp31
 70
     1
102
RTVSPost2010Prop32
280
     0
102
RTVSPost2010PropOp32
 70
     1
102
RTVSPost2010Prop33
280
     0
102
RTVSPost2010PropOp33
 70
     1
102
RTVSPost2010Prop34
280
     0
102
RTVSPost2010PropOp34
 70
     1
102
RTVSPost2010Prop35
280
     0
102
RTVSPost2010PropOp35
 70
     1
102
RTVSPost2010Prop36
280
     0
102
RTVSPost2010PropOp36
 70
     1
102
RTVSPost2010Prop37
 90
       50
102
RTVSPost2010PropOp37
 70
     1
102
RTVSPost2010Prop38
140
0.0
102
RTVSPost2010PropOp38
 70
     1
102
RTVSPost2010Prop39
140
1.0
102
RTVSPost2010PropOp39
 70
     1
102
RTVSPost2010Prop40
 90
        0
102
RTVSPost2010PropOp40
 70
     1
102
RTVSPost2010Prop41ColorIndex
 90
       18
102
RTVSPost2010Prop41ColorRGB
 90
        0
102
RTVSPost2010PropOp41
 70
     1
102
RTVSPost2010Prop42
 90
       50
102
RTVSPost2010PropOp42
 70
     1
102
RTVSPost2010Prop43
 90
        3
102
RTVSPost2010PropOp43
 70
     1
102
RTVSPost2010Prop44ColorIndex
 90
        5
102
RTVSPost2010Prop44ColorRGB
 90
      255
102
RTVSPost2010PropOp44
 70
     1
102
RTVSPost2010Prop45
280
     0
102
RTVSPost2010PropOp45
 70
     1
102
RTVSPost2010Prop46
 90
       50
102
RTVSPost2010PropOp46
 70
     1
102
RTVSPost2010Prop47
 90
       50
102
RTVSPost2010PropOp47
 70
     1
102
RTVSPost2010Prop48
 90
       50
102
RTVSPost2010PropOp48
 70
     1
102
RTVSPost2010Prop49
280
     0
102
RTVSPost2010PropOp49
 70
     1
102
RTVSPost2010Prop50
 90
       50
102
RTVSPost2010PropOp50
 70
     1
102
RTVSPost2010Prop51ColorIndex
 90
      256
102
RTVSPost2010Prop51ColorRGB
 90
-16777216
102
RTVSPost2010PropOp51
 70
     0
102
RTVSPost2010Prop52
140
1.0
102
RTVSPost2010PropOp52
 70
     0
102
RTVSPost2010Prop53
 90
        2
102
RTVSPost2010PropOp53
 70
     1
102
RTVSPost2010Prop54
  1
strokes_ogs.tif
102
RTVSPost2010PropOp54
 70
     1
102
RTVSPost2010Prop55
280
     0
102
RTVSPost2010PropOp55
 70
     1
102
RTVSPost2010Prop56
140
1.0
102
RTVSPost2010PropOp56
 70
     1
102
RTVSPost2010Prop57
140
1.0
102
RTVSPost2010PropOp57
 70
     1
  0
XRECORD
  5
356
102
{ACAD_REACTORS
330
355
102
}
330
355
100
AcDbXrecord
280
     1
102
RTVSPropertyOp0
 70
     1
102
RTVSPropertyOp1
 70
     1
102
RTVSPropertyOp2
 70
     1
102
RTVSPropertyOp3
 70
     1
102
RTVSPropertyOp4
 70
     1
102
RTVSPropertyOp5
 70
     1
102
RTVSPropertyOp6
 70
     1
102
RTVSPropertyOp7
 70
     1
102
RTVSPropertyOp8
 70
     1
102
RTVSPropertyOp9
 70
     1
102
RTVSPropertyOp10
 70
     1
102
RTVSPropertyOp11
 70
     1
102
RTVSPropertyOp12
 70
     1
102
RTVSPropertyOp13
 70
     1
102
RTVSPropertyOp14
 70
     1
102
RTVSPropertyOp15
 70
     1
102
RTVSPropertyOp16
 70
     1
102
RTVSPropertyOp17
 70
     1
102
RTVSPropertyOp18
 70
     1
102
RTVSPropertyOp19
 70
     1
102
RTVSPropertyOp20
 70
     1
102
RTVSPropertyOp21
 70
     1
102
RTVSPropertyOp22
 70
     1
102
RTVSPropertyOp23
 70
     1
102
RTVSPropertyOp24
 70
     1
102
RTVSPropertyOp25
 70
     1
102
RTVSPropertyOp26
 70
     1
102
RTVSPropertyOp27
 70
     1
102
RTVSPropertyOp28
 70
     1
102
RTVSPropertyOp29
 70
     1
102
RTVSPropertyOp30
 70
     1
102
RTVSPropertyOp31
 70
     1
102
RTVSPropertyOp32
 70
     1
102
RTVSPropertyOp33
 70
     1
102
RTVSPropertyOp34
 70
     1
102
RTVSPropertyOp35
 70
     1
102
RTVSPropertyOp36
 70
     1
102
RTVSPropertyOp37
 70
     1
102
RTVSPropertyOp38
 70
     1
102
RTVSPropertyOp39
 70
     1
102
RTVSPropertyOp40
 70
     1
102
RTVSPropertyOp41
 70
     1
102
RTVSPropertyOp42
 70
     1
102
RTVSPropertyOp43
 70
     1
102
RTVSPropertyOp44
 70
     1
102
RTVSPropertyOp45
 70
     1
102
RTVSPropertyOp46
 70
     1
102
RTVSPropertyOp47
 70
     1
102
RTVSPropertyOp48
 70
     1
102
RTVSPropertyOp49
 70
     1
102
RTVSPropertyOp50
 70
     1
102
RTVSPropertyOp51
 70
     0
102
RTVSPropertyOp52
 70
     0
102
RTVSPropertyOp53
 70
     1
102
RTVSPropertyOp54
 70
     1
102
RTVSPropertyOp55
 70
     1
102
RTVSPropertyOp56
 70
     1
102
RTVSPropertyOp57
 70
     1
102
RTVSPost2010Prop28
280
     0
102
RTVSPost2010PropOp28
 70
     1
102
RTVSPost2010Prop29
280
     1
102
RTVSPost2010PropOp29
 70
     1
102
RTVSPost2010Prop30
280
     1
102
RTVSPost2010PropOp30
 70
     1
102
RTVSPost2010Prop31
280
     0
102
RTVSPost2010PropOp31
 70
     1
102
RTVSPost2010Prop32
280
     0
102
RTVSPost2010PropOp32
 70
     1
102
RTVSPost2010Prop33
280
     0
102
RTVSPost2010PropOp33
 70
     1
102
RTVSPost2010Prop34
280
     0
102
RTVSPost2010PropOp34
 70
     1
102
RTVSPost2010Prop35
280
     0
102
RTVSPost2010PropOp35
 70
     1
102
RTVSPost2010Prop36
280
     0
102
RTVSPost2010PropOp36
 70
     1
102
RTVSPost2010Prop37
 90
       50
102
RTVSPost2010PropOp37
 70
     1
102
RTVSPost2010Prop38
140
0.0
102
RTVSPost2010PropOp38
 70
     1
102
RTVSPost2010Prop39
140
1.0
102
RTVSPost2010PropOp39
 70
     1
102
RTVSPost2010Prop40
 90
        0
102
RTVSPost2010PropOp40
 70
     1
102
RTVSPost2010Prop41ColorIndex
 90
       18
102
RTVSPost2010Prop41ColorRGB
 90
        0
102
RTVSPost2010PropOp41
 70
     1
102
RTVSPost2010Prop42
 90
       50
102
RTVSPost2010PropOp42
 70
     1
102
RTVSPost2010Prop43
 90
        3
102
RTVSPost2010PropOp43
 70
     1
102
RTVSPost2010Prop44ColorIndex
 90
        5
102
RTVSPost2010Prop44ColorRGB
 90
      255
102
RTVSPost2010PropOp44
 70
     1
102
RTVSPost2010Prop45
280
     0
102
RTVSPost2010PropOp45
 70
     1
102
RTVSPost2010Prop46
 90
       50
102
RTVSPost2010PropOp46
 70
     1
102
RTVSPost2010Prop47
 90
       50
102
RTVSPost2010PropOp47
 70
     1
102
RTVSPost2010Prop48
 90
       50
102
RTVSPost2010PropOp48
 70
     1
102
RTVSPost2010Prop49
280
     0
102
RTVSPost2010PropOp49
 70
     1
102
RTVSPost2010Prop50
 90
       50
102
RTVSPost2010PropOp50
 70
     1
102
RTVSPost2010Prop51ColorIndex
 90
      256
102
RTVSPost2010Prop51ColorRGB
 90
-16777216
102
RTVSPost2010PropOp51
 70
     0
102
RTVSPost2010Prop52
140
1.0
102
RTVSPost2010PropOp52
 70
     0
102
RTVSPost2010Prop53
 90
        2
102
RTVSPost2010PropOp53
 70
     1
102
RTVSPost2010Prop54
  1
strokes_ogs.tif
102
RTVSPost2010PropOp54
 70
     1
102
RTVSPost2010Prop55
280
     0
102
RTVSPost2010PropOp55
 70
     1
102
RTVSPost2010Prop56
140
1.0
102
RTVSPost2010PropOp56
 70
     1
102
RTVSPost2010Prop57
140
1.0
102
RTVSPost2010PropOp57
 70
     1
  0
XRECORD
  5
358
102
{ACAD_REACTORS
330
357
102
}
330
357
100
AcDbXrecord
280
     1
102
RTVSPropertyOp0
 70
     1
102
RTVSPropertyOp1
 70
     1
102
RTVSPropertyOp2
 70
     1
102
RTVSPropertyOp3
 70
     1
102
RTVSPropertyOp4
 70
     1
102
RTVSPropertyOp5
 70
     1
102
RTVSPropertyOp6
 70
     1
102
RTVSPropertyOp7
 70
     1
102
RTVSPropertyOp8
 70
     1
102
RTVSPropertyOp9
 70
     1
102
RTVSPropertyOp10
 70
     1
102
RTVSPropertyOp11
 70
     1
102
RTVSPropertyOp12
 70
     1
102
RTVSPropertyOp13
 70
     1
102
RTVSPropertyOp14
 70
     1
102
RTVSPropertyOp15
 70
     1
102
RTVSPropertyOp16
 70
     1
102
RTVSPropertyOp17
 70
     1
102
RTVSPropertyOp18
 70
     1
102
RTVSPropertyOp19
 70
     1
102
RTVSPropertyOp20
 70
     1
102
RTVSPropertyOp21
 70
     1
102
RTVSPropertyOp22
 70
     1
102
RTVSPropertyOp23
 70
     1
102
RTVSPropertyOp24
 70
     1
102
RTVSPropertyOp25
 70
     1
102
RTVSPropertyOp26
 70
     1
102
RTVSPropertyOp27
 70
     1
102
RTVSPropertyOp28
 70
     1
102
RTVSPropertyOp29
 70
     1
102
RTVSPropertyOp30
 70
     1
102
RTVSPropertyOp31
 70
     1
102
RTVSPropertyOp32
 70
     1
102
RTVSPropertyOp33
 70
     1
102
RTVSPropertyOp34
 70
     1
102
RTVSPropertyOp35
 70
     1
102
RTVSPropertyOp36
 70
     1
102
RTVSPropertyOp37
 70
     1
102
RTVSPropertyOp38
 70
     1
102
RTVSPropertyOp39
 70
     1
102
RTVSPropertyOp40
 70
     1
102
RTVSPropertyOp41
 70
     1
102
RTVSPropertyOp42
 70
     1
102
RTVSPropertyOp43
 70
     1
102
RTVSPropertyOp44
 70
     1
102
RTVSPropertyOp45
 70
     1
102
RTVSPropertyOp46
 70
     1
102
RTVSPropertyOp47
 70
     1
102
RTVSPropertyOp48
 70
     1
102
RTVSPropertyOp49
 70
     1
102
RTVSPropertyOp50
 70
     1
102
RTVSPropertyOp51
 70
     0
102
RTVSPropertyOp52
 70
     0
102
RTVSPropertyOp53
 70
     1
102
RTVSPropertyOp54
 70
     1
102
RTVSPropertyOp55
 70
     1
102
RTVSPropertyOp56
 70
     1
102
RTVSPropertyOp57
 70
     1
102
RTVSPost2010Prop28
280
     0
102
RTVSPost2010PropOp28
 70
     1
102
RTVSPost2010Prop29
280
     1
102
RTVSPost2010PropOp29
 70
     1
102
RTVSPost2010Prop30
280
     1
102
RTVSPost2010PropOp30
 70
     1
102
RTVSPost2010Prop31
280
     0
102
RTVSPost2010PropOp31
 70
     1
102
RTVSPost2010Prop32
280
     0
102
RTVSPost2010PropOp32
 70
     1
102
RTVSPost2010Prop33
280
     0
102
RTVSPost2010PropOp33
 70
     1
102
RTVSPost2010Prop34
280
     0
102
RTVSPost2010PropOp34
 70
     1
102
RTVSPost2010Prop35
280
     0
102
RTVSPost2010PropOp35
 70
     1
102
RTVSPost2010Prop36
280
     0
102
RTVSPost2010PropOp36
 70
     1
102
RTVSPost2010Prop37
 90
       50
102
RTVSPost2010PropOp37
 70
     1
102
RTVSPost2010Prop38
140
0.0
102
RTVSPost2010PropOp38
 70
     1
102
RTVSPost2010Prop39
140
1.0
102
RTVSPost2010PropOp39
 70
     1
102
RTVSPost2010Prop40
 90
        0
102
RTVSPost2010PropOp40
 70
     1
102
RTVSPost2010Prop41ColorIndex
 90
       18
102
RTVSPost2010Prop41ColorRGB
 90
        0
102
RTVSPost2010PropOp41
 70
     1
102
RTVSPost2010Prop42
 90
       50
102
RTVSPost2010PropOp42
 70
     1
102
RTVSPost2010Prop43
 90
        3
102
RTVSPost2010PropOp43
 70
     1
102
RTVSPost2010Prop44ColorIndex
 90
        5
102
RTVSPost2010Prop44ColorRGB
 90
      255
102
RTVSPost2010PropOp44
 70
     1
102
RTVSPost2010Prop45
280
     0
102
RTVSPost2010PropOp45
 70
     1
102
RTVSPost2010Prop46
 90
       50
102
RTVSPost2010PropOp46
 70
     1
102
RTVSPost2010Prop47
 90
       50
102
RTVSPost2010PropOp47
 70
     1
102
RTVSPost2010Prop48
 90
       50
102
RTVSPost2010PropOp48
 70
     1
102
RTVSPost2010Prop49
280
     0
102
RTVSPost2010PropOp49
 70
     1
102
RTVSPost2010Prop50
 90
       50
102
RTVSPost2010PropOp50
 70
     1
102
RTVSPost2010Prop51ColorIndex
 90
      256
102
RTVSPost2010Prop51ColorRGB
 90
-16777216
102
RTVSPost2010PropOp51
 70
     0
102
RTVSPost2010Prop52
140
1.0
102
RTVSPost2010PropOp52
 70
     0
102
RTVSPost2010Prop53
 90
        2
102
RTVSPost2010PropOp53
 70
     1
102
RTVSPost2010Prop54
  1
strokes_ogs.tif
102
RTVSPost2010PropOp54
 70
     1
102
RTVSPost2010Prop55
280
     0
102
RTVSPost2010PropOp55
 70
     1
102
RTVSPost2010Prop56
140
1.0
102
RTVSPost2010PropOp56
 70
     1
102
RTVSPost2010Prop57
140
1.0
102
RTVSPost2010PropOp57
 70
     1
  0
XRECORD
  5
368
102
{ACAD_REACTORS
330
367
102
}
330
367
100
AcDbXrecord
280
     1
102
RTVSPropertyOp0
 70
     0
102
RTVSPropertyOp1
 70
     0
102
RTVSPropertyOp2
 70
     0
102
RTVSPropertyOp3
 70
     0
102
RTVSPropertyOp4
 70
     0
102
RTVSPropertyOp5
 70
     0
102
RTVSPropertyOp6
 70
     0
102
RTVSPropertyOp7
 70
     0
102
RTVSPropertyOp8
 70
     0
102
RTVSPropertyOp9
 70
     0
102
RTVSPropertyOp10
 70
     0
102
RTVSPropertyOp11
 70
     0
102
RTVSPropertyOp12
 70
     0
102
RTVSPropertyOp13
 70
     0
102
RTVSPropertyOp14
 70
     2
102
RTVSPropertyOp15
 70
     0
102
RTVSPropertyOp16
 70
     0
102
RTVSPropertyOp17
 70
     0
102
RTVSPropertyOp18
 70
     0
102
RTVSPropertyOp19
 70
     0
102
RTVSPropertyOp20
 70
     0
102
RTVSPropertyOp21
 70
     0
102
RTVSPropertyOp22
 70
     0
102
RTVSPropertyOp23
 70
     0
102
RTVSPropertyOp24
 70
     0
102
RTVSPropertyOp25
 70
     0
102
RTVSPropertyOp26
 70
     0
102
RTVSPropertyOp27
 70
     0
102
RTVSPropertyOp28
 70
     0
102
RTVSPropertyOp29
 70
     0
102
RTVSPropertyOp30
 70
     0
102
RTVSPropertyOp31
 70
     0
102
RTVSPropertyOp32
 70
     0
102
RTVSPropertyOp33
 70
     0
102
RTVSPropertyOp34
 70
     0
102
RTVSPropertyOp35
 70
     0
102
RTVSPropertyOp36
 70
     0
102
RTVSPropertyOp37
 70
     0
102
RTVSPropertyOp38
 70
     0
102
RTVSPropertyOp39
 70
     0
102
RTVSPropertyOp40
 70
     0
102
RTVSPropertyOp41
 70
     0
102
RTVSPropertyOp42
 70
     0
102
RTVSPropertyOp43
 70
     0
102
RTVSPropertyOp44
 70
     0
102
RTVSPropertyOp45
 70
     0
102
RTVSPropertyOp46
 70
     0
102
RTVSPropertyOp47
 70
     0
102
RTVSPropertyOp48
 70
     0
102
RTVSPropertyOp49
 70
     0
102
RTVSPropertyOp50
 70
     0
102
RTVSPropertyOp51
 70
     0
102
RTVSPropertyOp52
 70
     0
102
RTVSPropertyOp53
 70
     0
102
RTVSPropertyOp54
 70
     0
102
RTVSPropertyOp55
 70
     0
102
RTVSPropertyOp56
 70
     0
102
RTVSPropertyOp57
 70
     0
102
RTVSPost2010Prop28
280
     0
102
RTVSPost2010PropOp28
 70
     0
102
RTVSPost2010Prop29
280
     1
102
RTVSPost2010PropOp29
 70
     0
102
RTVSPost2010Prop30
280
     1
102
RTVSPost2010PropOp30
 70
     0
102
RTVSPost2010Prop31
280
     0
102
RTVSPost2010PropOp31
 70
     0
102
RTVSPost2010Prop32
280
     0
102
RTVSPost2010PropOp32
 70
     0
102
RTVSPost2010Prop33
280
     0
102
RTVSPost2010PropOp33
 70
     0
102
RTVSPost2010Prop34
280
     0
102
RTVSPost2010PropOp34
 70
     0
102
RTVSPost2010Prop35
280
     0
102
RTVSPost2010PropOp35
 70
     0
102
RTVSPost2010Prop36
280
     0
102
RTVSPost2010PropOp36
 70
     0
102
RTVSPost2010Prop37
 90
       50
102
RTVSPost2010PropOp37
 70
     0
102
RTVSPost2010Prop38
140
0.0
102
RTVSPost2010PropOp38
 70
     0
102
RTVSPost2010Prop39
140
1.0
102
RTVSPost2010PropOp39
 70
     0
102
RTVSPost2010Prop40
 90
        0
102
RTVSPost2010PropOp40
 70
     0
102
RTVSPost2010Prop41ColorIndex
 90
       18
102
RTVSPost2010Prop41ColorRGB
 90
        0
102
RTVSPost2010PropOp41
 70
     0
102
RTVSPost2010Prop42
 90
       50
102
RTVSPost2010PropOp42
 70
     0
102
RTVSPost2010Prop43
 90
        3
102
RTVSPost2010PropOp43
 70
     0
102
RTVSPost2010Prop44ColorIndex
 90
        5
102
RTVSPost2010Prop44ColorRGB
 90
      255
102
RTVSPost2010PropOp44
 70
     0
102
RTVSPost2010Prop45
280
     0
102
RTVSPost2010PropOp45
 70
     0
102
RTVSPost2010Prop46
 90
       50
102
RTVSPost2010PropOp46
 70
     0
102
RTVSPost2010Prop47
 90
       50
102
RTVSPost2010PropOp47
 70
     0
102
RTVSPost2010Prop48
 90
       50
102
RTVSPost2010PropOp48
 70
     0
102
RTVSPost2010Prop49
280
     0
102
RTVSPost2010PropOp49
 70
     0
102
RTVSPost2010Prop50
 90
       50
102
RTVSPost2010PropOp50
 70
     0
102
RTVSPost2010Prop51ColorIndex
 90
      256
102
RTVSPost2010Prop51ColorRGB
 90
-16777216
102
RTVSPost2010PropOp51
 70
     0
102
RTVSPost2010Prop52
140
1.0
102
RTVSPost2010PropOp52
 70
     0
102
RTVSPost2010Prop53
 90
        2
102
RTVSPost2010PropOp53
 70
     0
102
RTVSPost2010Prop54
  1
strokes_ogs.tif
102
RTVSPost2010PropOp54
 70
     0
102
RTVSPost2010Prop55
280
     0
102
RTVSPost2010PropOp55
 70
     0
102
RTVSPost2010Prop56
140
1.0
102
RTVSPost2010PropOp56
 70
     0
102
RTVSPost2010Prop57
140
1.0
102
RTVSPost2010PropOp57
 70
     0
  0
XRECORD
  5
360
102
{ACAD_REACTORS
330
35F
102
}
330
35F
100
AcDbXrecord
280
     1
102
RTVSPropertyOp0
 70
     1
102
RTVSPropertyOp1
 70
     1
102
RTVSPropertyOp2
 70
     1
102
RTVSPropertyOp3
 70
     1
102
RTVSPropertyOp4
 70
     1
102
RTVSPropertyOp5
 70
     1
102
RTVSPropertyOp6
 70
     1
102
RTVSPropertyOp7
 70
     1
102
RTVSPropertyOp8
 70
     1
102
RTVSPropertyOp9
 70
     1
102
RTVSPropertyOp10
 70
     1
102
RTVSPropertyOp11
 70
     1
102
RTVSPropertyOp12
 70
     1
102
RTVSPropertyOp13
 70
     1
102
RTVSPropertyOp14
 70
     1
102
RTVSPropertyOp15
 70
     1
102
RTVSPropertyOp16
 70
     1
102
RTVSPropertyOp17
 70
     1
102
RTVSPropertyOp18
 70
     1
102
RTVSPropertyOp19
 70
     1
102
RTVSPropertyOp20
 70
     1
102
RTVSPropertyOp21
 70
     1
102
RTVSPropertyOp22
 70
     1
102
RTVSPropertyOp23
 70
     1
102
RTVSPropertyOp24
 70
     1
102
RTVSPropertyOp25
 70
     1
102
RTVSPropertyOp26
 70
     1
102
RTVSPropertyOp27
 70
     1
102
RTVSPropertyOp28
 70
     1
102
RTVSPropertyOp29
 70
     1
102
RTVSPropertyOp30
 70
     1
102
RTVSPropertyOp31
 70
     1
102
RTVSPropertyOp32
 70
     1
102
RTVSPropertyOp33
 70
     1
102
RTVSPropertyOp34
 70
     1
102
RTVSPropertyOp35
 70
     1
102
RTVSPropertyOp36
 70
     1
102
RTVSPropertyOp37
 70
     1
102
RTVSPropertyOp38
 70
     1
102
RTVSPropertyOp39
 70
     1
102
RTVSPropertyOp40
 70
     1
102
RTVSPropertyOp41
 70
     1
102
RTVSPropertyOp42
 70
     1
102
RTVSPropertyOp43
 70
     1
102
RTVSPropertyOp44
 70
     1
102
RTVSPropertyOp45
 70
     1
102
RTVSPropertyOp46
 70
     1
102
RTVSPropertyOp47
 70
     1
102
RTVSPropertyOp48
 70
     1
102
RTVSPropertyOp49
 70
     1
102
RTVSPropertyOp50
 70
     1
102
RTVSPropertyOp51
 70
     0
102
RTVSPropertyOp52
 70
     0
102
RTVSPropertyOp53
 70
     1
102
RTVSPropertyOp54
 70
     1
102
RTVSPropertyOp55
 70
     1
102
RTVSPropertyOp56
 70
     1
102
RTVSPropertyOp57
 70
     1
102
RTVSPost2010Prop28
280
     0
102
RTVSPost2010PropOp28
 70
     1
102
RTVSPost2010Prop29
280
     1
102
RTVSPost2010PropOp29
 70
     1
102
RTVSPost2010Prop30
280
     1
102
RTVSPost2010PropOp30
 70
     1
102
RTVSPost2010Prop31
280
     0
102
RTVSPost2010PropOp31
 70
     1
102
RTVSPost2010Prop32
280
     0
102
RTVSPost2010PropOp32
 70
     1
102
RTVSPost2010Prop33
280
     0
102
RTVSPost2010PropOp33
 70
     1
102
RTVSPost2010Prop34
280
     0
102
RTVSPost2010PropOp34
 70
     1
102
RTVSPost2010Prop35
280
     0
102
RTVSPost2010PropOp35
 70
     1
102
RTVSPost2010Prop36
280
     0
102
RTVSPost2010PropOp36
 70
     1
102
RTVSPost2010Prop37
 90
       50
102
RTVSPost2010PropOp37
 70
     1
102
RTVSPost2010Prop38
140
0.0
102
RTVSPost2010PropOp38
 70
     1
102
RTVSPost2010Prop39
140
1.0
102
RTVSPost2010PropOp39
 70
     1
102
RTVSPost2010Prop40
 90
        0
102
RTVSPost2010PropOp40
 70
     1
102
RTVSPost2010Prop41ColorIndex
 90
       18
102
RTVSPost2010Prop41ColorRGB
 90
        0
102
RTVSPost2010PropOp41
 70
     1
102
RTVSPost2010Prop42
 90
       50
102
RTVSPost2010PropOp42
 70
     1
102
RTVSPost2010Prop43
 90
        3
102
RTVSPost2010PropOp43
 70
     1
102
RTVSPost2010Prop44ColorIndex
 90
        5
102
RTVSPost2010Prop44ColorRGB
 90
      255
102
RTVSPost2010PropOp44
 70
     1
102
RTVSPost2010Prop45
280
     0
102
RTVSPost2010PropOp45
 70
     1
102
RTVSPost2010Prop46
 90
       50
102
RTVSPost2010PropOp46
 70
     1
102
RTVSPost2010Prop47
 90
       50
102
RTVSPost2010PropOp47
 70
     1
102
RTVSPost2010Prop48
 90
       50
102
RTVSPost2010PropOp48
 70
     1
102
RTVSPost2010Prop49
280
     0
102
RTVSPost2010PropOp49
 70
     1
102
RTVSPost2010Prop50
 90
       50
102
RTVSPost2010PropOp50
 70
     1
102
RTVSPost2010Prop51ColorIndex
 90
      256
102
RTVSPost2010Prop51ColorRGB
 90
-16777216
102
RTVSPost2010PropOp51
 70
     0
102
RTVSPost2010Prop52
140
1.0
102
RTVSPost2010PropOp52
 70
     0
102
RTVSPost2010Prop53
 90
        2
102
RTVSPost2010PropOp53
 70
     1
102
RTVSPost2010Prop54
  1
strokes_ogs.tif
102
RTVSPost2010PropOp54
 70
     1
102
RTVSPost2010Prop55
280
     0
102
RTVSPost2010PropOp55
 70
     1
102
RTVSPost2010Prop56
140
1.0
102
RTVSPost2010PropOp56
 70
     1
102
RTVSPost2010Prop57
140
1.0
102
RTVSPost2010PropOp57
 70
     1
  0
XRECORD
  5
344
102
{ACAD_REACTORS
330
343
102
}
330
343
100
AcDbXrecord
280
     1
102
RTVSPropertyOp0
 70
     1
102
RTVSPropertyOp1
 70
     1
102
RTVSPropertyOp2
 70
     1
102
RTVSPropertyOp3
 70
     1
102
RTVSPropertyOp4
 70
     1
102
RTVSPropertyOp5
 70
     1
102
RTVSPropertyOp6
 70
     1
102
RTVSPropertyOp7
 70
     1
102
RTVSPropertyOp8
 70
     1
102
RTVSPropertyOp9
 70
     1
102
RTVSPropertyOp10
 70
     1
102
RTVSPropertyOp11
 70
     1
102
RTVSPropertyOp12
 70
     1
102
RTVSPropertyOp13
 70
     1
102
RTVSPropertyOp14
 70
     1
102
RTVSPropertyOp15
 70
     1
102
RTVSPropertyOp16
 70
     1
102
RTVSPropertyOp17
 70
     1
102
RTVSPropertyOp18
 70
     1
102
RTVSPropertyOp19
 70
     1
102
RTVSPropertyOp20
 70
     1
102
RTVSPropertyOp21
 70
     1
102
RTVSPropertyOp22
 70
     1
102
RTVSPropertyOp23
 70
     1
102
RTVSPropertyOp24
 70
     1
102
RTVSPropertyOp25
 70
     1
102
RTVSPropertyOp26
 70
     1
102
RTVSPropertyOp27
 70
     1
102
RTVSPropertyOp28
 70
     1
102
RTVSPropertyOp29
 70
     1
102
RTVSPropertyOp30
 70
     1
102
RTVSPropertyOp31
 70
     1
102
RTVSPropertyOp32
 70
     1
102
RTVSPropertyOp33
 70
     1
102
RTVSPropertyOp34
 70
     1
102
RTVSPropertyOp35
 70
     1
102
RTVSPropertyOp36
 70
     1
102
RTVSPropertyOp37
 70
     1
102
RTVSPropertyOp38
 70
     1
102
RTVSPropertyOp39
 70
     1
102
RTVSPropertyOp40
 70
     1
102
RTVSPropertyOp41
 70
     1
102
RTVSPropertyOp42
 70
     1
102
RTVSPropertyOp43
 70
     1
102
RTVSPropertyOp44
 70
     1
102
RTVSPropertyOp45
 70
     1
102
RTVSPropertyOp46
 70
     1
102
RTVSPropertyOp47
 70
     1
102
RTVSPropertyOp48
 70
     1
102
RTVSPropertyOp49
 70
     1
102
RTVSPropertyOp50
 70
     1
102
RTVSPropertyOp51
 70
     0
102
RTVSPropertyOp52
 70
     0
102
RTVSPropertyOp53
 70
     1
102
RTVSPropertyOp54
 70
     1
102
RTVSPropertyOp55
 70
     1
102
RTVSPropertyOp56
 70
     1
102
RTVSPropertyOp57
 70
     1
102
RTVSPost2010Prop28
280
     0
102
RTVSPost2010PropOp28
 70
     1
102
RTVSPost2010Prop29
280
     1
102
RTVSPost2010PropOp29
 70
     1
102
RTVSPost2010Prop30
280
     1
102
RTVSPost2010PropOp30
 70
     1
102
RTVSPost2010Prop31
280
     0
102
RTVSPost2010PropOp31
 70
     1
102
RTVSPost2010Prop32
280
     0
102
RTVSPost2010PropOp32
 70
     1
102
RTVSPost2010Prop33
280
     0
102
RTVSPost2010PropOp33
 70
     1
102
RTVSPost2010Prop34
280
     0
102
RTVSPost2010PropOp34
 70
     1
102
RTVSPost2010Prop35
280
     0
102
RTVSPost2010PropOp35
 70
     1
102
RTVSPost2010Prop36
280
     0
102
RTVSPost2010PropOp36
 70
     1
102
RTVSPost2010Prop37
 90
       50
102
RTVSPost2010PropOp37
 70
     1
102
RTVSPost2010Prop38
140
0.0
102
RTVSPost2010PropOp38
 70
     1
102
RTVSPost2010Prop39
140
1.0
102
RTVSPost2010PropOp39
 70
     1
102
RTVSPost2010Prop40
 90
        0
102
RTVSPost2010PropOp40
 70
     1
102
RTVSPost2010Prop41ColorIndex
 90
       18
102
RTVSPost2010Prop41ColorRGB
 90
        0
102
RTVSPost2010PropOp41
 70
     1
102
RTVSPost2010Prop42
 90
       50
102
RTVSPost2010PropOp42
 70
     1
102
RTVSPost2010Prop43
 90
        3
102
RTVSPost2010PropOp43
 70
     1
102
RTVSPost2010Prop44ColorIndex
 90
        5
102
RTVSPost2010Prop44ColorRGB
 90
      255
102
RTVSPost2010PropOp44
 70
     1
102
RTVSPost2010Prop45
280
     0
102
RTVSPost2010PropOp45
 70
     1
102
RTVSPost2010Prop46
 90
       50
102
RTVSPost2010PropOp46
 70
     1
102
RTVSPost2010Prop47
 90
       50
102
RTVSPost2010PropOp47
 70
     1
102
RTVSPost2010Prop48
 90
       50
102
RTVSPost2010PropOp48
 70
     1
102
RTVSPost2010Prop49
280
     0
102
RTVSPost2010PropOp49
 70
     1
102
RTVSPost2010Prop50
 90
       50
102
RTVSPost2010PropOp50
 70
     1
102
RTVSPost2010Prop51ColorIndex
 90
      256
102
RTVSPost2010Prop51ColorRGB
 90
-16777216
102
RTVSPost2010PropOp51
 70
     0
102
RTVSPost2010Prop52
140
1.0
102
RTVSPost2010PropOp52
 70
     0
102
RTVSPost2010Prop53
 90
        2
102
RTVSPost2010PropOp53
 70
     1
102
RTVSPost2010Prop54
  1
strokes_ogs.tif
102
RTVSPost2010PropOp54
 70
     1
102
RTVSPost2010Prop55
280
     0
102
RTVSPost2010PropOp55
 70
     1
102
RTVSPost2010Prop56
140
1.0
102
RTVSPost2010PropOp56
 70
     1
102
RTVSPost2010Prop57
140
1.0
102
RTVSPost2010PropOp57
 70
     1
  0
XRECORD
  5
346
102
{ACAD_REACTORS
330
345
102
}
330
345
100
AcDbXrecord
280
     1
102
RTVSPropertyOp0
 70
     1
102
RTVSPropertyOp1
 70
     1
102
RTVSPropertyOp2
 70
     1
102
RTVSPropertyOp3
 70
     1
102
RTVSPropertyOp4
 70
     1
102
RTVSPropertyOp5
 70
     1
102
RTVSPropertyOp6
 70
     1
102
RTVSPropertyOp7
 70
     1
102
RTVSPropertyOp8
 70
     1
102
RTVSPropertyOp9
 70
     1
102
RTVSPropertyOp10
 70
     1
102
RTVSPropertyOp11
 70
     1
102
RTVSPropertyOp12
 70
     1
102
RTVSPropertyOp13
 70
     1
102
RTVSPropertyOp14
 70
     1
102
RTVSPropertyOp15
 70
     1
102
RTVSPropertyOp16
 70
     1
102
RTVSPropertyOp17
 70
     1
102
RTVSPropertyOp18
 70
     1
102
RTVSPropertyOp19
 70
     1
102
RTVSPropertyOp20
 70
     1
102
RTVSPropertyOp21
 70
     1
102
RTVSPropertyOp22
 70
     1
102
RTVSPropertyOp23
 70
     1
102
RTVSPropertyOp24
 70
     1
102
RTVSPropertyOp25
 70
     1
102
RTVSPropertyOp26
 70
     1
102
RTVSPropertyOp27
 70
     1
102
RTVSPropertyOp28
 70
     1
102
RTVSPropertyOp29
 70
     1
102
RTVSPropertyOp30
 70
     1
102
RTVSPropertyOp31
 70
     1
102
RTVSPropertyOp32
 70
     1
102
RTVSPropertyOp33
 70
     1
102
RTVSPropertyOp34
 70
     1
102
RTVSPropertyOp35
 70
     1
102
RTVSPropertyOp36
 70
     1
102
RTVSPropertyOp37
 70
     1
102
RTVSPropertyOp38
 70
     1
102
RTVSPropertyOp39
 70
     1
102
RTVSPropertyOp40
 70
     1
102
RTVSPropertyOp41
 70
     1
102
RTVSPropertyOp42
 70
     1
102
RTVSPropertyOp43
 70
     1
102
RTVSPropertyOp44
 70
     1
102
RTVSPropertyOp45
 70
     1
102
RTVSPropertyOp46
 70
     1
102
RTVSPropertyOp47
 70
     1
102
RTVSPropertyOp48
 70
     1
102
RTVSPropertyOp49
 70
     1
102
RTVSPropertyOp50
 70
     1
102
RTVSPropertyOp51
 70
     0
102
RTVSPropertyOp52
 70
     0
102
RTVSPropertyOp53
 70
     1
102
RTVSPropertyOp54
 70
     1
102
RTVSPropertyOp55
 70
     1
102
RTVSPropertyOp56
 70
     1
102
RTVSPropertyOp57
 70
     1
102
RTVSPost2010Prop28
280
     0
102
RTVSPost2010PropOp28
 70
     1
102
RTVSPost2010Prop29
280
     1
102
RTVSPost2010PropOp29
 70
     1
102
RTVSPost2010Prop30
280
     1
102
RTVSPost2010PropOp30
 70
     1
102
RTVSPost2010Prop31
280
     0
102
RTVSPost2010PropOp31
 70
     1
102
RTVSPost2010Prop32
280
     0
102
RTVSPost2010PropOp32
 70
     1
102
RTVSPost2010Prop33
280
     0
102
RTVSPost2010PropOp33
 70
     1
102
RTVSPost2010Prop34
280
     0
102
RTVSPost2010PropOp34
 70
     1
102
RTVSPost2010Prop35
280
     0
102
RTVSPost2010PropOp35
 70
     1
102
RTVSPost2010Prop36
280
     0
102
RTVSPost2010PropOp36
 70
     1
102
RTVSPost2010Prop37
 90
       50
102
RTVSPost2010PropOp37
 70
     1
102
RTVSPost2010Prop38
140
0.0
102
RTVSPost2010PropOp38
 70
     1
102
RTVSPost2010Prop39
140
1.0
102
RTVSPost2010PropOp39
 70
     1
102
RTVSPost2010Prop40
 90
        0
102
RTVSPost2010PropOp40
 70
     1
102
RTVSPost2010Prop41ColorIndex
 90
       18
102
RTVSPost2010Prop41ColorRGB
 90
        0
102
RTVSPost2010PropOp41
 70
     1
102
RTVSPost2010Prop42
 90
       50
102
RTVSPost2010PropOp42
 70
     1
102
RTVSPost2010Prop43
 90
        3
102
RTVSPost2010PropOp43
 70
     1
102
RTVSPost2010Prop44ColorIndex
 90
        5
102
RTVSPost2010Prop44ColorRGB
 90
      255
102
RTVSPost2010PropOp44
 70
     1
102
RTVSPost2010Prop45
280
     0
102
RTVSPost2010PropOp45
 70
     1
102
RTVSPost2010Prop46
 90
       50
102
RTVSPost2010PropOp46
 70
     1
102
RTVSPost2010Prop47
 90
       50
102
RTVSPost2010PropOp47
 70
     1
102
RTVSPost2010Prop48
 90
       50
102
RTVSPost2010PropOp48
 70
     1
102
RTVSPost2010Prop49
280
     0
102
RTVSPost2010PropOp49
 70
     1
102
RTVSPost2010Prop50
 90
       50
102
RTVSPost2010PropOp50
 70
     1
102
RTVSPost2010Prop51ColorIndex
 90
      256
102
RTVSPost2010Prop51ColorRGB
 90
-16777216
102
RTVSPost2010PropOp51
 70
     0
102
RTVSPost2010Prop52
140
1.0
102
RTVSPost2010PropOp52
 70
     0
102
RTVSPost2010Prop53
 90
        2
102
RTVSPost2010PropOp53
 70
     1
102
RTVSPost2010Prop54
  1
strokes_ogs.tif
102
RTVSPost2010PropOp54
 70
     1
102
RTVSPost2010Prop55
280
     0
102
RTVSPost2010PropOp55
 70
     1
102
RTVSPost2010Prop56
140
1.0
102
RTVSPost2010PropOp56
 70
     1
102
RTVSPost2010Prop57
140
1.0
102
RTVSPost2010PropOp57
 70
     1
  0
XRECORD
  5
348
102
{ACAD_REACTORS
330
347
102
}
330
347
100
AcDbXrecord
280
     1
102
RTVSPropertyOp0
 70
     1
102
RTVSPropertyOp1
 70
     1
102
RTVSPropertyOp2
 70
     1
102
RTVSPropertyOp3
 70
     1
102
RTVSPropertyOp4
 70
     1
102
RTVSPropertyOp5
 70
     1
102
RTVSPropertyOp6
 70
     1
102
RTVSPropertyOp7
 70
     1
102
RTVSPropertyOp8
 70
     1
102
RTVSPropertyOp9
 70
     1
102
RTVSPropertyOp10
 70
     1
102
RTVSPropertyOp11
 70
     1
102
RTVSPropertyOp12
 70
     1
102
RTVSPropertyOp13
 70
     1
102
RTVSPropertyOp14
 70
     1
102
RTVSPropertyOp15
 70
     1
102
RTVSPropertyOp16
 70
     1
102
RTVSPropertyOp17
 70
     1
102
RTVSPropertyOp18
 70
     1
102
RTVSPropertyOp19
 70
     1
102
RTVSPropertyOp20
 70
     1
102
RTVSPropertyOp21
 70
     1
102
RTVSPropertyOp22
 70
     1
102
RTVSPropertyOp23
 70
     1
102
RTVSPropertyOp24
 70
     1
102
RTVSPropertyOp25
 70
     1
102
RTVSPropertyOp26
 70
     1
102
RTVSPropertyOp27
 70
     1
102
RTVSPropertyOp28
 70
     1
102
RTVSPropertyOp29
 70
     1
102
RTVSPropertyOp30
 70
     1
102
RTVSPropertyOp31
 70
     1
102
RTVSPropertyOp32
 70
     1
102
RTVSPropertyOp33
 70
     1
102
RTVSPropertyOp34
 70
     1
102
RTVSPropertyOp35
 70
     1
102
RTVSPropertyOp36
 70
     1
102
RTVSPropertyOp37
 70
     1
102
RTVSPropertyOp38
 70
     1
102
RTVSPropertyOp39
 70
     1
102
RTVSPropertyOp40
 70
     1
102
RTVSPropertyOp41
 70
     1
102
RTVSPropertyOp42
 70
     1
102
RTVSPropertyOp43
 70
     1
102
RTVSPropertyOp44
 70
     1
102
RTVSPropertyOp45
 70
     1
102
RTVSPropertyOp46
 70
     1
102
RTVSPropertyOp47
 70
     1
102
RTVSPropertyOp48
 70
     1
102
RTVSPropertyOp49
 70
     1
102
RTVSPropertyOp50
 70
     1
102
RTVSPropertyOp51
 70
     0
102
RTVSPropertyOp52
 70
     0
102
RTVSPropertyOp53
 70
     1
102
RTVSPropertyOp54
 70
     1
102
RTVSPropertyOp55
 70
     1
102
RTVSPropertyOp56
 70
     1
102
RTVSPropertyOp57
 70
     1
102
RTVSPost2010Prop28
280
     0
102
RTVSPost2010PropOp28
 70
     1
102
RTVSPost2010Prop29
280
     1
102
RTVSPost2010PropOp29
 70
     1
102
RTVSPost2010Prop30
280
     1
102
RTVSPost2010PropOp30
 70
     1
102
RTVSPost2010Prop31
280
     0
102
RTVSPost2010PropOp31
 70
     1
102
RTVSPost2010Prop32
280
     0
102
RTVSPost2010PropOp32
 70
     1
102
RTVSPost2010Prop33
280
     0
102
RTVSPost2010PropOp33
 70
     1
102
RTVSPost2010Prop34
280
     0
102
RTVSPost2010PropOp34
 70
     1
102
RTVSPost2010Prop35
280
     0
102
RTVSPost2010PropOp35
 70
     1
102
RTVSPost2010Prop36
280
     0
102
RTVSPost2010PropOp36
 70
     1
102
RTVSPost2010Prop37
 90
       50
102
RTVSPost2010PropOp37
 70
     1
102
RTVSPost2010Prop38
140
0.0
102
RTVSPost2010PropOp38
 70
     1
102
RTVSPost2010Prop39
140
1.0
102
RTVSPost2010PropOp39
 70
     1
102
RTVSPost2010Prop40
 90
        0
102
RTVSPost2010PropOp40
 70
     1
102
RTVSPost2010Prop41ColorIndex
 90
       18
102
RTVSPost2010Prop41ColorRGB
 90
        0
102
RTVSPost2010PropOp41
 70
     1
102
RTVSPost2010Prop42
 90
       50
102
RTVSPost2010PropOp42
 70
     1
102
RTVSPost2010Prop43
 90
        3
102
RTVSPost2010PropOp43
 70
     1
102
RTVSPost2010Prop44ColorIndex
 90
        5
102
RTVSPost2010Prop44ColorRGB
 90
      255
102
RTVSPost2010PropOp44
 70
     1
102
RTVSPost2010Prop45
280
     0
102
RTVSPost2010PropOp45
 70
     1
102
RTVSPost2010Prop46
 90
       50
102
RTVSPost2010PropOp46
 70
     1
102
RTVSPost2010Prop47
 90
       50
102
RTVSPost2010PropOp47
 70
     1
102
RTVSPost2010Prop48
 90
       50
102
RTVSPost2010PropOp48
 70
     1
102
RTVSPost2010Prop49
280
     0
102
RTVSPost2010PropOp49
 70
     1
102
RTVSPost2010Prop50
 90
       50
102
RTVSPost2010PropOp50
 70
     1
102
RTVSPost2010Prop51ColorIndex
 90
      256
102
RTVSPost2010Prop51ColorRGB
 90
-16777216
102
RTVSPost2010PropOp51
 70
     0
102
RTVSPost2010Prop52
140
1.0
102
RTVSPost2010PropOp52
 70
     0
102
RTVSPost2010Prop53
 90
        2
102
RTVSPost2010PropOp53
 70
     1
102
RTVSPost2010Prop54
  1
strokes_ogs.tif
102
RTVSPost2010PropOp54
 70
     1
102
RTVSPost2010Prop55
280
     0
102
RTVSPost2010PropOp55
 70
     1
102
RTVSPost2010Prop56
140
1.0
102
RTVSPost2010PropOp56
 70
     1
102
RTVSPost2010Prop57
140
1.0
102
RTVSPost2010PropOp57
 70
     1
  0
XRECORD
  5
34A
102
{ACAD_REACTORS
330
349
102
}
330
349
100
AcDbXrecord
280
     1
102
RTVSPropertyOp0
 70
     1
102
RTVSPropertyOp1
 70
     1
102
RTVSPropertyOp2
 70
     1
102
RTVSPropertyOp3
 70
     1
102
RTVSPropertyOp4
 70
     1
102
RTVSPropertyOp5
 70
     1
102
RTVSPropertyOp6
 70
     1
102
RTVSPropertyOp7
 70
     1
102
RTVSPropertyOp8
 70
     1
102
RTVSPropertyOp9
 70
     1
102
RTVSPropertyOp10
 70
     1
102
RTVSPropertyOp11
 70
     1
102
RTVSPropertyOp12
 70
     1
102
RTVSPropertyOp13
 70
     1
102
RTVSPropertyOp14
 70
     1
102
RTVSPropertyOp15
 70
     1
102
RTVSPropertyOp16
 70
     1
102
RTVSPropertyOp17
 70
     1
102
RTVSPropertyOp18
 70
     1
102
RTVSPropertyOp19
 70
     1
102
RTVSPropertyOp20
 70
     1
102
RTVSPropertyOp21
 70
     1
102
RTVSPropertyOp22
 70
     1
102
RTVSPropertyOp23
 70
     1
102
RTVSPropertyOp24
 70
     1
102
RTVSPropertyOp25
 70
     1
102
RTVSPropertyOp26
 70
     1
102
RTVSPropertyOp27
 70
     1
102
RTVSPropertyOp28
 70
     1
102
RTVSPropertyOp29
 70
     1
102
RTVSPropertyOp30
 70
     1
102
RTVSPropertyOp31
 70
     1
102
RTVSPropertyOp32
 70
     1
102
RTVSPropertyOp33
 70
     1
102
RTVSPropertyOp34
 70
     1
102
RTVSPropertyOp35
 70
     1
102
RTVSPropertyOp36
 70
     1
102
RTVSPropertyOp37
 70
     1
102
RTVSPropertyOp38
 70
     1
102
RTVSPropertyOp39
 70
     1
102
RTVSPropertyOp40
 70
     1
102
RTVSPropertyOp41
 70
     1
102
RTVSPropertyOp42
 70
     1
102
RTVSPropertyOp43
 70
     1
102
RTVSPropertyOp44
 70
     1
102
RTVSPropertyOp45
 70
     1
102
RTVSPropertyOp46
 70
     1
102
RTVSPropertyOp47
 70
     1
102
RTVSPropertyOp48
 70
     1
102
RTVSPropertyOp49
 70
     1
102
RTVSPropertyOp50
 70
     1
102
RTVSPropertyOp51
 70
     0
102
RTVSPropertyOp52
 70
     0
102
RTVSPropertyOp53
 70
     1
102
RTVSPropertyOp54
 70
     1
102
RTVSPropertyOp55
 70
     1
102
RTVSPropertyOp56
 70
     1
102
RTVSPropertyOp57
 70
     1
102
RTVSPost2010Prop28
280
     0
102
RTVSPost2010PropOp28
 70
     1
102
RTVSPost2010Prop29
280
     1
102
RTVSPost2010PropOp29
 70
     1
102
RTVSPost2010Prop30
280
     1
102
RTVSPost2010PropOp30
 70
     1
102
RTVSPost2010Prop31
280
     0
102
RTVSPost2010PropOp31
 70
     1
102
RTVSPost2010Prop32
280
     0
102
RTVSPost2010PropOp32
 70
     1
102
RTVSPost2010Prop33
280
     0
102
RTVSPost2010PropOp33
 70
     1
102
RTVSPost2010Prop34
280
     0
102
RTVSPost2010PropOp34
 70
     1
102
RTVSPost2010Prop35
280
     0
102
RTVSPost2010PropOp35
 70
     1
102
RTVSPost2010Prop36
280
     0
102
RTVSPost2010PropOp36
 70
     1
102
RTVSPost2010Prop37
 90
       50
102
RTVSPost2010PropOp37
 70
     1
102
RTVSPost2010Prop38
140
0.0
102
RTVSPost2010PropOp38
 70
     1
102
RTVSPost2010Prop39
140
1.0
102
RTVSPost2010PropOp39
 70
     1
102
RTVSPost2010Prop40
 90
        0
102
RTVSPost2010PropOp40
 70
     1
102
RTVSPost2010Prop41ColorIndex
 90
       18
102
RTVSPost2010Prop41ColorRGB
 90
        0
102
RTVSPost2010PropOp41
 70
     1
102
RTVSPost2010Prop42
 90
       50
102
RTVSPost2010PropOp42
 70
     1
102
RTVSPost2010Prop43
 90
        3
102
RTVSPost2010PropOp43
 70
     1
102
RTVSPost2010Prop44ColorIndex
 90
        5
102
RTVSPost2010Prop44ColorRGB
 90
      255
102
RTVSPost2010PropOp44
 70
     1
102
RTVSPost2010Prop45
280
     0
102
RTVSPost2010PropOp45
 70
     1
102
RTVSPost2010Prop46
 90
       50
102
RTVSPost2010PropOp46
 70
     1
102
RTVSPost2010Prop47
 90
       50
102
RTVSPost2010PropOp47
 70
     1
102
RTVSPost2010Prop48
 90
       50
102
RTVSPost2010PropOp48
 70
     1
102
RTVSPost2010Prop49
280
     0
102
RTVSPost2010PropOp49
 70
     1
102
RTVSPost2010Prop50
 90
       50
102
RTVSPost2010PropOp50
 70
     1
102
RTVSPost2010Prop51ColorIndex
 90
      256
102
RTVSPost2010Prop51ColorRGB
 90
-16777216
102
RTVSPost2010PropOp51
 70
     0
102
RTVSPost2010Prop52
140
1.0
102
RTVSPost2010PropOp52
 70
     0
102
RTVSPost2010Prop53
 90
        2
102
RTVSPost2010PropOp53
 70
     1
102
RTVSPost2010Prop54
  1
strokes_ogs.tif
102
RTVSPost2010PropOp54
 70
     1
102
RTVSPost2010Prop55
280
     0
102
RTVSPost2010PropOp55
 70
     1
102
RTVSPost2010Prop56
140
1.0
102
RTVSPost2010PropOp56
 70
     1
102
RTVSPost2010Prop57
140
1.0
102
RTVSPost2010PropOp57
 70
     1
  0
XRECORD
  5
350
102
{ACAD_REACTORS
330
34F
102
}
330
34F
100
AcDbXrecord
280
     1
102
RTVSPropertyOp0
 70
     1
102
RTVSPropertyOp1
 70
     1
102
RTVSPropertyOp2
 70
     1
102
RTVSPropertyOp3
 70
     1
102
RTVSPropertyOp4
 70
     1
102
RTVSPropertyOp5
 70
     1
102
RTVSPropertyOp6
 70
     1
102
RTVSPropertyOp7
 70
     1
102
RTVSPropertyOp8
 70
     1
102
RTVSPropertyOp9
 70
     1
102
RTVSPropertyOp10
 70
     1
102
RTVSPropertyOp11
 70
     1
102
RTVSPropertyOp12
 70
     1
102
RTVSPropertyOp13
 70
     1
102
RTVSPropertyOp14
 70
     1
102
RTVSPropertyOp15
 70
     1
102
RTVSPropertyOp16
 70
     1
102
RTVSPropertyOp17
 70
     1
102
RTVSPropertyOp18
 70
     1
102
RTVSPropertyOp19
 70
     1
102
RTVSPropertyOp20
 70
     1
102
RTVSPropertyOp21
 70
     1
102
RTVSPropertyOp22
 70
     1
102
RTVSPropertyOp23
 70
     1
102
RTVSPropertyOp24
 70
     1
102
RTVSPropertyOp25
 70
     1
102
RTVSPropertyOp26
 70
     1
102
RTVSPropertyOp27
 70
     1
102
RTVSPropertyOp28
 70
     1
102
RTVSPropertyOp29
 70
     1
102
RTVSPropertyOp30
 70
     1
102
RTVSPropertyOp31
 70
     1
102
RTVSPropertyOp32
 70
     1
102
RTVSPropertyOp33
 70
     1
102
RTVSPropertyOp34
 70
     1
102
RTVSPropertyOp35
 70
     1
102
RTVSPropertyOp36
 70
     1
102
RTVSPropertyOp37
 70
     1
102
RTVSPropertyOp38
 70
     1
102
RTVSPropertyOp39
 70
     1
102
RTVSPropertyOp40
 70
     1
102
RTVSPropertyOp41
 70
     1
102
RTVSPropertyOp42
 70
     1
102
RTVSPropertyOp43
 70
     1
102
RTVSPropertyOp44
 70
     1
102
RTVSPropertyOp45
 70
     1
102
RTVSPropertyOp46
 70
     1
102
RTVSPropertyOp47
 70
     1
102
RTVSPropertyOp48
 70
     1
102
RTVSPropertyOp49
 70
     1
102
RTVSPropertyOp50
 70
     1
102
RTVSPropertyOp51
 70
     0
102
RTVSPropertyOp52
 70
     0
102
RTVSPropertyOp53
 70
     1
102
RTVSPropertyOp54
 70
     1
102
RTVSPropertyOp55
 70
     1
102
RTVSPropertyOp56
 70
     1
102
RTVSPropertyOp57
 70
     1
102
RTVSPost2010Prop28
280
     0
102
RTVSPost2010PropOp28
 70
     1
102
RTVSPost2010Prop29
280
     1
102
RTVSPost2010PropOp29
 70
     1
102
RTVSPost2010Prop30
280
     1
102
RTVSPost2010PropOp30
 70
     1
102
RTVSPost2010Prop31
280
     0
102
RTVSPost2010PropOp31
 70
     1
102
RTVSPost2010Prop32
280
     0
102
RTVSPost2010PropOp32
 70
     1
102
RTVSPost2010Prop33
280
     0
102
RTVSPost2010PropOp33
 70
     1
102
RTVSPost2010Prop34
280
     0
102
RTVSPost2010PropOp34
 70
     1
102
RTVSPost2010Prop35
280
     0
102
RTVSPost2010PropOp35
 70
     1
102
RTVSPost2010Prop36
280
     0
102
RTVSPost2010PropOp36
 70
     1
102
RTVSPost2010Prop37
 90
       50
102
RTVSPost2010PropOp37
 70
     1
102
RTVSPost2010Prop38
140
0.0
102
RTVSPost2010PropOp38
 70
     1
102
RTVSPost2010Prop39
140
1.0
102
RTVSPost2010PropOp39
 70
     1
102
RTVSPost2010Prop40
 90
        0
102
RTVSPost2010PropOp40
 70
     1
102
RTVSPost2010Prop41ColorIndex
 90
       18
102
RTVSPost2010Prop41ColorRGB
 90
        0
102
RTVSPost2010PropOp41
 70
     1
102
RTVSPost2010Prop42
 90
       50
102
RTVSPost2010PropOp42
 70
     1
102
RTVSPost2010Prop43
 90
        3
102
RTVSPost2010PropOp43
 70
     1
102
RTVSPost2010Prop44ColorIndex
 90
        5
102
RTVSPost2010Prop44ColorRGB
 90
      255
102
RTVSPost2010PropOp44
 70
     1
102
RTVSPost2010Prop45
280
     0
102
RTVSPost2010PropOp45
 70
     1
102
RTVSPost2010Prop46
 90
       50
102
RTVSPost2010PropOp46
 70
     1
102
RTVSPost2010Prop47
 90
       50
102
RTVSPost2010PropOp47
 70
     1
102
RTVSPost2010Prop48
 90
       50
102
RTVSPost2010PropOp48
 70
     1
102
RTVSPost2010Prop49
280
     0
102
RTVSPost2010PropOp49
 70
     1
102
RTVSPost2010Prop50
 90
       50
102
RTVSPost2010PropOp50
 70
     1
102
RTVSPost2010Prop51ColorIndex
 90
      256
102
RTVSPost2010Prop51ColorRGB
 90
-16777216
102
RTVSPost2010PropOp51
 70
     0
102
RTVSPost2010Prop52
140
1.0
102
RTVSPost2010PropOp52
 70
     0
102
RTVSPost2010Prop53
 90
        2
102
RTVSPost2010PropOp53
 70
     1
102
RTVSPost2010Prop54
  1
strokes_ogs.tif
102
RTVSPost2010PropOp54
 70
     1
102
RTVSPost2010Prop55
280
     0
102
RTVSPost2010PropOp55
 70
     1
102
RTVSPost2010Prop56
140
1.0
102
RTVSPost2010PropOp56
 70
     1
102
RTVSPost2010Prop57
140
1.0
102
RTVSPost2010PropOp57
 70
     1
  0
XRECORD
  5
364
102
{ACAD_REACTORS
330
363
102
}
330
363
100
AcDbXrecord
280
     1
102
RTVSPropertyOp0
 70
     0
102
RTVSPropertyOp1
 70
     0
102
RTVSPropertyOp2
 70
     0
102
RTVSPropertyOp3
 70
     0
102
RTVSPropertyOp4
 70
     0
102
RTVSPropertyOp5
 70
     0
102
RTVSPropertyOp6
 70
     0
102
RTVSPropertyOp7
 70
     0
102
RTVSPropertyOp8
 70
     0
102
RTVSPropertyOp9
 70
     0
102
RTVSPropertyOp10
 70
     0
102
RTVSPropertyOp11
 70
     0
102
RTVSPropertyOp12
 70
     0
102
RTVSPropertyOp13
 70
     0
102
RTVSPropertyOp14
 70
     2
102
RTVSPropertyOp15
 70
     0
102
RTVSPropertyOp16
 70
     0
102
RTVSPropertyOp17
 70
     0
102
RTVSPropertyOp18
 70
     0
102
RTVSPropertyOp19
 70
     0
102
RTVSPropertyOp20
 70
     0
102
RTVSPropertyOp21
 70
     0
102
RTVSPropertyOp22
 70
     0
102
RTVSPropertyOp23
 70
     0
102
RTVSPropertyOp24
 70
     0
102
RTVSPropertyOp25
 70
     0
102
RTVSPropertyOp26
 70
     0
102
RTVSPropertyOp27
 70
     0
102
RTVSPropertyOp28
 70
     0
102
RTVSPropertyOp29
 70
     0
102
RTVSPropertyOp30
 70
     0
102
RTVSPropertyOp31
 70
     0
102
RTVSPropertyOp32
 70
     0
102
RTVSPropertyOp33
 70
     0
102
RTVSPropertyOp34
 70
     0
102
RTVSPropertyOp35
 70
     0
102
RTVSPropertyOp36
 70
     0
102
RTVSPropertyOp37
 70
     0
102
RTVSPropertyOp38
 70
     0
102
RTVSPropertyOp39
 70
     0
102
RTVSPropertyOp40
 70
     0
102
RTVSPropertyOp41
 70
     0
102
RTVSPropertyOp42
 70
     0
102
RTVSPropertyOp43
 70
     0
102
RTVSPropertyOp44
 70
     0
102
RTVSPropertyOp45
 70
     0
102
RTVSPropertyOp46
 70
     0
102
RTVSPropertyOp47
 70
     0
102
RTVSPropertyOp48
 70
     0
102
RTVSPropertyOp49
 70
     0
102
RTVSPropertyOp50
 70
     0
102
RTVSPropertyOp51
 70
     0
102
RTVSPropertyOp52
 70
     0
102
RTVSPropertyOp53
 70
     0
102
RTVSPropertyOp54
 70
     0
102
RTVSPropertyOp55
 70
     0
102
RTVSPropertyOp56
 70
     0
102
RTVSPropertyOp57
 70
     0
102
RTVSPost2010Prop28
280
     0
102
RTVSPost2010PropOp28
 70
     0
102
RTVSPost2010Prop29
280
     1
102
RTVSPost2010PropOp29
 70
     0
102
RTVSPost2010Prop30
280
     1
102
RTVSPost2010PropOp30
 70
     0
102
RTVSPost2010Prop31
280
     0
102
RTVSPost2010PropOp31
 70
     0
102
RTVSPost2010Prop32
280
     0
102
RTVSPost2010PropOp32
 70
     0
102
RTVSPost2010Prop33
280
     0
102
RTVSPost2010PropOp33
 70
     0
102
RTVSPost2010Prop34
280
     0
102
RTVSPost2010PropOp34
 70
     0
102
RTVSPost2010Prop35
280
     0
102
RTVSPost2010PropOp35
 70
     0
102
RTVSPost2010Prop36
280
     0
102
RTVSPost2010PropOp36
 70
     0
102
RTVSPost2010Prop37
 90
       50
102
RTVSPost2010PropOp37
 70
     0
102
RTVSPost2010Prop38
140
0.0
102
RTVSPost2010PropOp38
 70
     0
102
RTVSPost2010Prop39
140
1.0
102
RTVSPost2010PropOp39
 70
     0
102
RTVSPost2010Prop40
 90
        0
102
RTVSPost2010PropOp40
 70
     0
102
RTVSPost2010Prop41ColorIndex
 90
       18
102
RTVSPost2010Prop41ColorRGB
 90
        0
102
RTVSPost2010PropOp41
 70
     0
102
RTVSPost2010Prop42
 90
       50
102
RTVSPost2010PropOp42
 70
     0
102
RTVSPost2010Prop43
 90
        3
102
RTVSPost2010PropOp43
 70
     0
102
RTVSPost2010Prop44ColorIndex
 90
        5
102
RTVSPost2010Prop44ColorRGB
 90
      255
102
RTVSPost2010PropOp44
 70
     0
102
RTVSPost2010Prop45
280
     0
102
RTVSPost2010PropOp45
 70
     0
102
RTVSPost2010Prop46
 90
       50
102
RTVSPost2010PropOp46
 70
     0
102
RTVSPost2010Prop47
 90
       50
102
RTVSPost2010PropOp47
 70
     0
102
RTVSPost2010Prop48
 90
       50
102
RTVSPost2010PropOp48
 70
     0
102
RTVSPost2010Prop49
280
     0
102
RTVSPost2010PropOp49
 70
     0
102
RTVSPost2010Prop50
 90
       50
102
RTVSPost2010PropOp50
 70
     0
102
RTVSPost2010Prop51ColorIndex
 90
      256
102
RTVSPost2010Prop51ColorRGB
 90
-16777216
102
RTVSPost2010PropOp51
 70
     0
102
RTVSPost2010Prop52
140
1.0
102
RTVSPost2010PropOp52
 70
     0
102
RTVSPost2010Prop53
 90
        2
102
RTVSPost2010PropOp53
 70
     0
102
RTVSPost2010Prop54
  1
strokes_ogs.tif
102
RTVSPost2010PropOp54
 70
     0
102
RTVSPost2010Prop55
280
     0
102
RTVSPost2010PropOp55
 70
     0
102
RTVSPost2010Prop56
140
1.0
102
RTVSPost2010PropOp56
 70
     0
102
RTVSPost2010Prop57
140
1.0
102
RTVSPost2010PropOp57
 70
     0
  0
XRECORD
  5
35E
102
{ACAD_REACTORS
330
35D
102
}
330
35D
100
AcDbXrecord
280
     1
102
RTVSPropertyOp0
 70
     1
102
RTVSPropertyOp1
 70
     1
102
RTVSPropertyOp2
 70
     1
102
RTVSPropertyOp3
 70
     1
102
RTVSPropertyOp4
 70
     1
102
RTVSPropertyOp5
 70
     1
102
RTVSPropertyOp6
 70
     1
102
RTVSPropertyOp7
 70
     1
102
RTVSPropertyOp8
 70
     1
102
RTVSPropertyOp9
 70
     1
102
RTVSPropertyOp10
 70
     1
102
RTVSPropertyOp11
 70
     1
102
RTVSPropertyOp12
 70
     1
102
RTVSPropertyOp13
 70
     1
102
RTVSPropertyOp14
 70
     1
102
RTVSPropertyOp15
 70
     1
102
RTVSPropertyOp16
 70
     1
102
RTVSPropertyOp17
 70
     1
102
RTVSPropertyOp18
 70
     1
102
RTVSPropertyOp19
 70
     1
102
RTVSPropertyOp20
 70
     1
102
RTVSPropertyOp21
 70
     1
102
RTVSPropertyOp22
 70
     1
102
RTVSPropertyOp23
 70
     1
102
RTVSPropertyOp24
 70
     1
102
RTVSPropertyOp25
 70
     1
102
RTVSPropertyOp26
 70
     1
102
RTVSPropertyOp27
 70
     1
102
RTVSPropertyOp28
 70
     1
102
RTVSPropertyOp29
 70
     1
102
RTVSPropertyOp30
 70
     1
102
RTVSPropertyOp31
 70
     1
102
RTVSPropertyOp32
 70
     1
102
RTVSPropertyOp33
 70
     1
102
RTVSPropertyOp34
 70
     1
102
RTVSPropertyOp35
 70
     1
102
RTVSPropertyOp36
 70
     1
102
RTVSPropertyOp37
 70
     1
102
RTVSPropertyOp38
 70
     1
102
RTVSPropertyOp39
 70
     1
102
RTVSPropertyOp40
 70
     1
102
RTVSPropertyOp41
 70
     1
102
RTVSPropertyOp42
 70
     1
102
RTVSPropertyOp43
 70
     1
102
RTVSPropertyOp44
 70
     1
102
RTVSPropertyOp45
 70
     1
102
RTVSPropertyOp46
 70
     1
102
RTVSPropertyOp47
 70
     1
102
RTVSPropertyOp48
 70
     1
102
RTVSPropertyOp49
 70
     1
102
RTVSPropertyOp50
 70
     1
102
RTVSPropertyOp51
 70
     0
102
RTVSPropertyOp52
 70
     0
102
RTVSPropertyOp53
 70
     1
102
RTVSPropertyOp54
 70
     1
102
RTVSPropertyOp55
 70
     1
102
RTVSPropertyOp56
 70
     1
102
RTVSPropertyOp57
 70
     1
102
RTVSPost2010Prop28
280
     0
102
RTVSPost2010PropOp28
 70
     1
102
RTVSPost2010Prop29
280
     1
102
RTVSPost2010PropOp29
 70
     1
102
RTVSPost2010Prop30
280
     1
102
RTVSPost2010PropOp30
 70
     1
102
RTVSPost2010Prop31
280
     0
102
RTVSPost2010PropOp31
 70
     1
102
RTVSPost2010Prop32
280
     0
102
RTVSPost2010PropOp32
 70
     1
102
RTVSPost2010Prop33
280
     0
102
RTVSPost2010PropOp33
 70
     1
102
RTVSPost2010Prop34
280
     0
102
RTVSPost2010PropOp34
 70
     1
102
RTVSPost2010Prop35
280
     0
102
RTVSPost2010PropOp35
 70
     1
102
RTVSPost2010Prop36
280
     0
102
RTVSPost2010PropOp36
 70
     1
102
RTVSPost2010Prop37
 90
       50
102
RTVSPost2010PropOp37
 70
     1
102
RTVSPost2010Prop38
140
0.0
102
RTVSPost2010PropOp38
 70
     1
102
RTVSPost2010Prop39
140
1.0
102
RTVSPost2010PropOp39
 70
     1
102
RTVSPost2010Prop40
 90
        0
102
RTVSPost2010PropOp40
 70
     1
102
RTVSPost2010Prop41ColorIndex
 90
       18
102
RTVSPost2010Prop41ColorRGB
 90
        0
102
RTVSPost2010PropOp41
 70
     1
102
RTVSPost2010Prop42
 90
       50
102
RTVSPost2010PropOp42
 70
     1
102
RTVSPost2010Prop43
 90
        3
102
RTVSPost2010PropOp43
 70
     1
102
RTVSPost2010Prop44ColorIndex
 90
        5
102
RTVSPost2010Prop44ColorRGB
 90
      255
102
RTVSPost2010PropOp44
 70
     1
102
RTVSPost2010Prop45
280
     0
102
RTVSPost2010PropOp45
 70
     1
102
RTVSPost2010Prop46
 90
       50
102
RTVSPost2010PropOp46
 70
     1
102
RTVSPost2010Prop47
 90
       50
102
RTVSPost2010PropOp47
 70
     1
102
RTVSPost2010Prop48
 90
       50
102
RTVSPost2010PropOp48
 70
     1
102
RTVSPost2010Prop49
280
     0
102
RTVSPost2010PropOp49
 70
     1
102
RTVSPost2010Prop50
 90
       50
102
RTVSPost2010PropOp50
 70
     1
102
RTVSPost2010Prop51ColorIndex
 90
      256
102
RTVSPost2010Prop51ColorRGB
 90
-16777216
102
RTVSPost2010PropOp51
 70
     0
102
RTVSPost2010Prop52
140
1.0
102
RTVSPost2010PropOp52
 70
     0
102
RTVSPost2010Prop53
 90
        2
102
RTVSPost2010PropOp53
 70
     1
102
RTVSPost2010Prop54
  1
strokes_ogs.tif
102
RTVSPost2010PropOp54
 70
     1
102
RTVSPost2010Prop55
280
     0
102
RTVSPost2010PropOp55
 70
     1
102
RTVSPost2010Prop56
140
1.0
102
RTVSPost2010PropOp56
 70
     1
102
RTVSPost2010Prop57
140
1.0
102
RTVSPost2010PropOp57
 70
     1
  0
XRECORD
  5
366
102
{ACAD_REACTORS
330
365
102
}
330
365
100
AcDbXrecord
280
     1
102
RTVSPropertyOp0
 70
     0
102
RTVSPropertyOp1
 70
     0
102
RTVSPropertyOp2
 70
     0
102
RTVSPropertyOp3
 70
     0
102
RTVSPropertyOp4
 70
     0
102
RTVSPropertyOp5
 70
     0
102
RTVSPropertyOp6
 70
     0
102
RTVSPropertyOp7
 70
     0
102
RTVSPropertyOp8
 70
     0
102
RTVSPropertyOp9
 70
     0
102
RTVSPropertyOp10
 70
     0
102
RTVSPropertyOp11
 70
     0
102
RTVSPropertyOp12
 70
     0
102
RTVSPropertyOp13
 70
     0
102
RTVSPropertyOp14
 70
     2
102
RTVSPropertyOp15
 70
     0
102
RTVSPropertyOp16
 70
     0
102
RTVSPropertyOp17
 70
     0
102
RTVSPropertyOp18
 70
     0
102
RTVSPropertyOp19
 70
     0
102
RTVSPropertyOp20
 70
     0
102
RTVSPropertyOp21
 70
     0
102
RTVSPropertyOp22
 70
     0
102
RTVSPropertyOp23
 70
     0
102
RTVSPropertyOp24
 70
     0
102
RTVSPropertyOp25
 70
     0
102
RTVSPropertyOp26
 70
     0
102
RTVSPropertyOp27
 70
     0
102
RTVSPropertyOp28
 70
     0
102
RTVSPropertyOp29
 70
     0
102
RTVSPropertyOp30
 70
     0
102
RTVSPropertyOp31
 70
     0
102
RTVSPropertyOp32
 70
     0
102
RTVSPropertyOp33
 70
     0
102
RTVSPropertyOp34
 70
     0
102
RTVSPropertyOp35
 70
     0
102
RTVSPropertyOp36
 70
     0
102
RTVSPropertyOp37
 70
     0
102
RTVSPropertyOp38
 70
     0
102
RTVSPropertyOp39
 70
     0
102
RTVSPropertyOp40
 70
     0
102
RTVSPropertyOp41
 70
     0
102
RTVSPropertyOp42
 70
     0
102
RTVSPropertyOp43
 70
     0
102
RTVSPropertyOp44
 70
     0
102
RTVSPropertyOp45
 70
     0
102
RTVSPropertyOp46
 70
     0
102
RTVSPropertyOp47
 70
     0
102
RTVSPropertyOp48
 70
     0
102
RTVSPropertyOp49
 70
     0
102
RTVSPropertyOp50
 70
     0
102
RTVSPropertyOp51
 70
     0
102
RTVSPropertyOp52
 70
     0
102
RTVSPropertyOp53
 70
     0
102
RTVSPropertyOp54
 70
     0
102
RTVSPropertyOp55
 70
     0
102
RTVSPropertyOp56
 70
     0
102
RTVSPropertyOp57
 70
     0
102
RTVSPost2010Prop28
280
     0
102
RTVSPost2010PropOp28
 70
     0
102
RTVSPost2010Prop29
280
     1
102
RTVSPost2010PropOp29
 70
     0
102
RTVSPost2010Prop30
280
     1
102
RTVSPost2010PropOp30
 70
     0
102
RTVSPost2010Prop31
280
     0
102
RTVSPost2010PropOp31
 70
     0
102
RTVSPost2010Prop32
280
     0
102
RTVSPost2010PropOp32
 70
     0
102
RTVSPost2010Prop33
280
     0
102
RTVSPost2010PropOp33
 70
     0
102
RTVSPost2010Prop34
280
     0
102
RTVSPost2010PropOp34
 70
     0
102
RTVSPost2010Prop35
280
     0
102
RTVSPost2010PropOp35
 70
     0
102
RTVSPost2010Prop36
280
     0
102
RTVSPost2010PropOp36
 70
     0
102
RTVSPost2010Prop37
 90
       50
102
RTVSPost2010PropOp37
 70
     0
102
RTVSPost2010Prop38
140
0.0
102
RTVSPost2010PropOp38
 70
     0
102
RTVSPost2010Prop39
140
1.0
102
RTVSPost2010PropOp39
 70
     0
102
RTVSPost2010Prop40
 90
        0
102
RTVSPost2010PropOp40
 70
     0
102
RTVSPost2010Prop41ColorIndex
 90
       18
102
RTVSPost2010Prop41ColorRGB
 90
        0
102
RTVSPost2010PropOp41
 70
     0
102
RTVSPost2010Prop42
 90
       50
102
RTVSPost2010PropOp42
 70
     0
102
RTVSPost2010Prop43
 90
        3
102
RTVSPost2010PropOp43
 70
     0
102
RTVSPost2010Prop44ColorIndex
 90
        5
102
RTVSPost2010Prop44ColorRGB
 90
      255
102
RTVSPost2010PropOp44
 70
     0
102
RTVSPost2010Prop45
280
     0
102
RTVSPost2010PropOp45
 70
     0
102
RTVSPost2010Prop46
 90
       50
102
RTVSPost2010PropOp46
 70
     0
102
RTVSPost2010Prop47
 90
       50
102
RTVSPost2010PropOp47
 70
     0
102
RTVSPost2010Prop48
 90
       50
102
RTVSPost2010PropOp48
 70
     0
102
RTVSPost2010Prop49
280
     0
102
RTVSPost2010PropOp49
 70
     0
102
RTVSPost2010Prop50
 90
       50
102
RTVSPost2010PropOp50
 70
     0
102
RTVSPost2010Prop51ColorIndex
 90
      256
102
RTVSPost2010Prop51ColorRGB
 90
-16777216
102
RTVSPost2010PropOp51
 70
     0
102
RTVSPost2010Prop52
140
1.0
102
RTVSPost2010PropOp52
 70
     0
102
RTVSPost2010Prop53
 90
        2
102
RTVSPost2010PropOp53
 70
     0
102
RTVSPost2010Prop54
  1
strokes_ogs.tif
102
RTVSPost2010PropOp54
 70
     0
102
RTVSPost2010Prop55
280
     0
102
RTVSPost2010PropOp55
 70
     0
102
RTVSPost2010Prop56
140
1.0
102
RTVSPost2010PropOp56
 70
     0
102
RTVSPost2010Prop57
140
1.0
102
RTVSPost2010PropOp57
 70
     0
  0
XRECORD
  5
354
102
{ACAD_REACTORS
330
353
102
}
330
353
100
AcDbXrecord
280
     1
102
RTVSPropertyOp0
 70
     1
102
RTVSPropertyOp1
 70
     1
102
RTVSPropertyOp2
 70
     1
102
RTVSPropertyOp3
 70
     1
102
RTVSPropertyOp4
 70
     1
102
RTVSPropertyOp5
 70
     1
102
RTVSPropertyOp6
 70
     1
102
RTVSPropertyOp7
 70
     1
102
RTVSPropertyOp8
 70
     1
102
RTVSPropertyOp9
 70
     1
102
RTVSPropertyOp10
 70
     1
102
RTVSPropertyOp11
 70
     1
102
RTVSPropertyOp12
 70
     1
102
RTVSPropertyOp13
 70
     1
102
RTVSPropertyOp14
 70
     1
102
RTVSPropertyOp15
 70
     1
102
RTVSPropertyOp16
 70
     1
102
RTVSPropertyOp17
 70
     1
102
RTVSPropertyOp18
 70
     1
102
RTVSPropertyOp19
 70
     1
102
RTVSPropertyOp20
 70
     1
102
RTVSPropertyOp21
 70
     1
102
RTVSPropertyOp22
 70
     1
102
RTVSPropertyOp23
 70
     1
102
RTVSPropertyOp24
 70
     1
102
RTVSPropertyOp25
 70
     1
102
RTVSPropertyOp26
 70
     1
102
RTVSPropertyOp27
 70
     1
102
RTVSPropertyOp28
 70
     1
102
RTVSPropertyOp29
 70
     1
102
RTVSPropertyOp30
 70
     1
102
RTVSPropertyOp31
 70
     1
102
RTVSPropertyOp32
 70
     1
102
RTVSPropertyOp33
 70
     1
102
RTVSPropertyOp34
 70
     1
102
RTVSPropertyOp35
 70
     1
102
RTVSPropertyOp36
 70
     1
102
RTVSPropertyOp37
 70
     1
102
RTVSPropertyOp38
 70
     1
102
RTVSPropertyOp39
 70
     1
102
RTVSPropertyOp40
 70
     1
102
RTVSPropertyOp41
 70
     1
102
RTVSPropertyOp42
 70
     1
102
RTVSPropertyOp43
 70
     1
102
RTVSPropertyOp44
 70
     1
102
RTVSPropertyOp45
 70
     1
102
RTVSPropertyOp46
 70
     1
102
RTVSPropertyOp47
 70
     1
102
RTVSPropertyOp48
 70
     1
102
RTVSPropertyOp49
 70
     1
102
RTVSPropertyOp50
 70
     1
102
RTVSPropertyOp51
 70
     0
102
RTVSPropertyOp52
 70
     0
102
RTVSPropertyOp53
 70
     1
102
RTVSPropertyOp54
 70
     1
102
RTVSPropertyOp55
 70
     1
102
RTVSPropertyOp56
 70
     1
102
RTVSPropertyOp57
 70
     1
102
RTVSPost2010Prop28
280
     0
102
RTVSPost2010PropOp28
 70
     1
102
RTVSPost2010Prop29
280
     1
102
RTVSPost2010PropOp29
 70
     1
102
RTVSPost2010Prop30
280
     1
102
RTVSPost2010PropOp30
 70
     1
102
RTVSPost2010Prop31
280
     0
102
RTVSPost2010PropOp31
 70
     1
102
RTVSPost2010Prop32
280
     0
102
RTVSPost2010PropOp32
 70
     1
102
RTVSPost2010Prop33
280
     0
102
RTVSPost2010PropOp33
 70
     1
102
RTVSPost2010Prop34
280
     0
102
RTVSPost2010PropOp34
 70
     1
102
RTVSPost2010Prop35
280
     0
102
RTVSPost2010PropOp35
 70
     1
102
RTVSPost2010Prop36
280
     0
102
RTVSPost2010PropOp36
 70
     1
102
RTVSPost2010Prop37
 90
       50
102
RTVSPost2010PropOp37
 70
     1
102
RTVSPost2010Prop38
140
0.0
102
RTVSPost2010PropOp38
 70
     1
102
RTVSPost2010Prop39
140
1.0
102
RTVSPost2010PropOp39
 70
     1
102
RTVSPost2010Prop40
 90
        0
102
RTVSPost2010PropOp40
 70
     1
102
RTVSPost2010Prop41ColorIndex
 90
       18
102
RTVSPost2010Prop41ColorRGB
 90
        0
102
RTVSPost2010PropOp41
 70
     1
102
RTVSPost2010Prop42
 90
       50
102
RTVSPost2010PropOp42
 70
     1
102
RTVSPost2010Prop43
 90
        3
102
RTVSPost2010PropOp43
 70
     1
102
RTVSPost2010Prop44ColorIndex
 90
        5
102
RTVSPost2010Prop44ColorRGB
 90
      255
102
RTVSPost2010PropOp44
 70
     1
102
RTVSPost2010Prop45
280
     0
102
RTVSPost2010PropOp45
 70
     1
102
RTVSPost2010Prop46
 90
       50
102
RTVSPost2010PropOp46
 70
     1
102
RTVSPost2010Prop47
 90
       50
102
RTVSPost2010PropOp47
 70
     1
102
RTVSPost2010Prop48
 90
       50
102
RTVSPost2010PropOp48
 70
     1
102
RTVSPost2010Prop49
280
     0
102
RTVSPost2010PropOp49
 70
     1
102
RTVSPost2010Prop50
 90
       50
102
RTVSPost2010PropOp50
 70
     1
102
RTVSPost2010Prop51ColorIndex
 90
      256
102
RTVSPost2010Prop51ColorRGB
 90
-16777216
102
RTVSPost2010PropOp51
 70
     0
102
RTVSPost2010Prop52
140
1.0
102
RTVSPost2010PropOp52
 70
     0
102
RTVSPost2010Prop53
 90
        2
102
RTVSPost2010PropOp53
 70
     1
102
RTVSPost2010Prop54
  1
strokes_ogs.tif
102
RTVSPost2010PropOp54
 70
     1
102
RTVSPost2010Prop55
280
     0
102
RTVSPost2010PropOp55
 70
     1
102
RTVSPost2010Prop56
140
1.0
102
RTVSPost2010PropOp56
 70
     1
102
RTVSPost2010Prop57
140
1.0
102
RTVSPost2010PropOp57
 70
     1
  0
XRECORD
  5
372
102
{ACAD_REACTORS
330
371
102
}
330
371
100
AcDbXrecord
280
     1
102
RTVSPropertyOp0
 70
     1
102
RTVSPropertyOp1
 70
     1
102
RTVSPropertyOp2
 70
     1
102
RTVSPropertyOp3
 70
     1
102
RTVSPropertyOp4
 70
     1
102
RTVSPropertyOp5
 70
     1
102
RTVSPropertyOp6
 70
     1
102
RTVSPropertyOp7
 70
     1
102
RTVSPropertyOp8
 70
     1
102
RTVSPropertyOp9
 70
     1
102
RTVSPropertyOp10
 70
     1
102
RTVSPropertyOp11
 70
     1
102
RTVSPropertyOp12
 70
     1
102
RTVSPropertyOp13
 70
     1
102
RTVSPropertyOp14
 70
     1
102
RTVSPropertyOp15
 70
     1
102
RTVSPropertyOp16
 70
     1
102
RTVSPropertyOp17
 70
     1
102
RTVSPropertyOp18
 70
     1
102
RTVSPropertyOp19
 70
     1
102
RTVSPropertyOp20
 70
     1
102
RTVSPropertyOp21
 70
     1
102
RTVSPropertyOp22
 70
     1
102
RTVSPropertyOp23
 70
     1
102
RTVSPropertyOp24
 70
     1
102
RTVSPropertyOp25
 70
     1
102
RTVSPropertyOp26
 70
     1
102
RTVSPropertyOp27
 70
     1
102
RTVSPropertyOp28
 70
     1
102
RTVSPropertyOp29
 70
     1
102
RTVSPropertyOp30
 70
     1
102
RTVSPropertyOp31
 70
     1
102
RTVSPropertyOp32
 70
     1
102
RTVSPropertyOp33
 70
     1
102
RTVSPropertyOp34
 70
     1
102
RTVSPropertyOp35
 70
     1
102
RTVSPropertyOp36
 70
     1
102
RTVSPropertyOp37
 70
     1
102
RTVSPropertyOp38
 70
     1
102
RTVSPropertyOp39
 70
     1
102
RTVSPropertyOp40
 70
     1
102
RTVSPropertyOp41
 70
     1
102
RTVSPropertyOp42
 70
     1
102
RTVSPropertyOp43
 70
     1
102
RTVSPropertyOp44
 70
     1
102
RTVSPropertyOp45
 70
     1
102
RTVSPropertyOp46
 70
     1
102
RTVSPropertyOp47
 70
     1
102
RTVSPropertyOp48
 70
     1
102
RTVSPropertyOp49
 70
     1
102
RTVSPropertyOp50
 70
     1
102
RTVSPropertyOp51
 70
     0
102
RTVSPropertyOp52
 70
     0
102
RTVSPropertyOp53
 70
     1
102
RTVSPropertyOp54
 70
     1
102
RTVSPropertyOp55
 70
     1
102
RTVSPropertyOp56
 70
     1
102
RTVSPropertyOp57
 70
     1
102
RTVSPost2010Prop28
280
     0
102
RTVSPost2010PropOp28
 70
     1
102
RTVSPost2010Prop29
280
     1
102
RTVSPost2010PropOp29
 70
     1
102
RTVSPost2010Prop30
280
     1
102
RTVSPost2010PropOp30
 70
     1
102
RTVSPost2010Prop31
280
     0
102
RTVSPost2010PropOp31
 70
     1
102
RTVSPost2010Prop32
280
     0
102
RTVSPost2010PropOp32
 70
     1
102
RTVSPost2010Prop33
280
     0
102
RTVSPost2010PropOp33
 70
     1
102
RTVSPost2010Prop34
280
     0
102
RTVSPost2010PropOp34
 70
     1
102
RTVSPost2010Prop35
280
     0
102
RTVSPost2010PropOp35
 70
     1
102
RTVSPost2010Prop36
280
     0
102
RTVSPost2010PropOp36
 70
     1
102
RTVSPost2010Prop37
 90
       50
102
RTVSPost2010PropOp37
 70
     1
102
RTVSPost2010Prop38
140
0.0
102
RTVSPost2010PropOp38
 70
     1
102
RTVSPost2010Prop39
140
1.0
102
RTVSPost2010PropOp39
 70
     1
102
RTVSPost2010Prop40
 90
        0
102
RTVSPost2010PropOp40
 70
     1
102
RTVSPost2010Prop41ColorIndex
 90
       18
102
RTVSPost2010Prop41ColorRGB
 90
        0
102
RTVSPost2010PropOp41
 70
     1
102
RTVSPost2010Prop42
 90
       50
102
RTVSPost2010PropOp42
 70
     1
102
RTVSPost2010Prop43
 90
        3
102
RTVSPost2010PropOp43
 70
     1
102
RTVSPost2010Prop44ColorIndex
 90
        5
102
RTVSPost2010Prop44ColorRGB
 90
      255
102
RTVSPost2010PropOp44
 70
     1
102
RTVSPost2010Prop45
280
     0
102
RTVSPost2010PropOp45
 70
     1
102
RTVSPost2010Prop46
 90
       50
102
RTVSPost2010PropOp46
 70
     1
102
RTVSPost2010Prop47
 90
       50
102
RTVSPost2010PropOp47
 70
     1
102
RTVSPost2010Prop48
 90
       50
102
RTVSPost2010PropOp48
 70
     1
102
RTVSPost2010Prop49
280
     0
102
RTVSPost2010PropOp49
 70
     1
102
RTVSPost2010Prop50
 90
       50
102
RTVSPost2010PropOp50
 70
     1
102
RTVSPost2010Prop51ColorIndex
 90
      256
102
RTVSPost2010Prop51ColorRGB
 90
-16777216
102
RTVSPost2010PropOp51
 70
     0
102
RTVSPost2010Prop52
140
1.0
102
RTVSPost2010PropOp52
 70
     0
102
RTVSPost2010Prop53
 90
        2
102
RTVSPost2010PropOp53
 70
     1
102
RTVSPost2010Prop54
  1
strokes_ogs.tif
102
RTVSPost2010PropOp54
 70
     1
102
RTVSPost2010Prop55
280
     0
102
RTVSPost2010PropOp55
 70
     1
102
RTVSPost2010Prop56
140
1.0
102
RTVSPost2010PropOp56
 70
     1
102
RTVSPost2010Prop57
140
1.0
102
RTVSPost2010PropOp57
 70
     1
  0
XRECORD
  5
370
102
{ACAD_REACTORS
330
36F
102
}
330
36F
100
AcDbXrecord
280
     1
102
RTVSPropertyOp0
 70
     1
102
RTVSPropertyOp1
 70
     1
102
RTVSPropertyOp2
 70
     1
102
RTVSPropertyOp3
 70
     1
102
RTVSPropertyOp4
 70
     1
102
RTVSPropertyOp5
 70
     1
102
RTVSPropertyOp6
 70
     1
102
RTVSPropertyOp7
 70
     1
102
RTVSPropertyOp8
 70
     1
102
RTVSPropertyOp9
 70
     1
102
RTVSPropertyOp10
 70
     1
102
RTVSPropertyOp11
 70
     1
102
RTVSPropertyOp12
 70
     1
102
RTVSPropertyOp13
 70
     1
102
RTVSPropertyOp14
 70
     1
102
RTVSPropertyOp15
 70
     1
102
RTVSPropertyOp16
 70
     1
102
RTVSPropertyOp17
 70
     1
102
RTVSPropertyOp18
 70
     1
102
RTVSPropertyOp19
 70
     1
102
RTVSPropertyOp20
 70
     1
102
RTVSPropertyOp21
 70
     1
102
RTVSPropertyOp22
 70
     1
102
RTVSPropertyOp23
 70
     1
102
RTVSPropertyOp24
 70
     1
102
RTVSPropertyOp25
 70
     1
102
RTVSPropertyOp26
 70
     1
102
RTVSPropertyOp27
 70
     1
102
RTVSPropertyOp28
 70
     1
102
RTVSPropertyOp29
 70
     1
102
RTVSPropertyOp30
 70
     1
102
RTVSPropertyOp31
 70
     1
102
RTVSPropertyOp32
 70
     1
102
RTVSPropertyOp33
 70
     1
102
RTVSPropertyOp34
 70
     1
102
RTVSPropertyOp35
 70
     1
102
RTVSPropertyOp36
 70
     1
102
RTVSPropertyOp37
 70
     1
102
RTVSPropertyOp38
 70
     1
102
RTVSPropertyOp39
 70
     1
102
RTVSPropertyOp40
 70
     1
102
RTVSPropertyOp41
 70
     1
102
RTVSPropertyOp42
 70
     1
102
RTVSPropertyOp43
 70
     1
102
RTVSPropertyOp44
 70
     1
102
RTVSPropertyOp45
 70
     1
102
RTVSPropertyOp46
 70
     1
102
RTVSPropertyOp47
 70
     1
102
RTVSPropertyOp48
 70
     1
102
RTVSPropertyOp49
 70
     1
102
RTVSPropertyOp50
 70
     1
102
RTVSPropertyOp51
 70
     0
102
RTVSPropertyOp52
 70
     0
102
RTVSPropertyOp53
 70
     1
102
RTVSPropertyOp54
 70
     1
102
RTVSPropertyOp55
 70
     1
102
RTVSPropertyOp56
 70
     1
102
RTVSPropertyOp57
 70
     1
102
RTVSPost2010Prop28
280
     0
102
RTVSPost2010PropOp28
 70
     1
102
RTVSPost2010Prop29
280
     1
102
RTVSPost2010PropOp29
 70
     1
102
RTVSPost2010Prop30
280
     1
102
RTVSPost2010PropOp30
 70
     1
102
RTVSPost2010Prop31
280
     0
102
RTVSPost2010PropOp31
 70
     1
102
RTVSPost2010Prop32
280
     0
102
RTVSPost2010PropOp32
 70
     1
102
RTVSPost2010Prop33
280
     0
102
RTVSPost2010PropOp33
 70
     1
102
RTVSPost2010Prop34
280
     0
102
RTVSPost2010PropOp34
 70
     1
102
RTVSPost2010Prop35
280
     0
102
RTVSPost2010PropOp35
 70
     1
102
RTVSPost2010Prop36
280
     0
102
RTVSPost2010PropOp36
 70
     1
102
RTVSPost2010Prop37
 90
       50
102
RTVSPost2010PropOp37
 70
     1
102
RTVSPost2010Prop38
140
0.0
102
RTVSPost2010PropOp38
 70
     1
102
RTVSPost2010Prop39
140
1.0
102
RTVSPost2010PropOp39
 70
     1
102
RTVSPost2010Prop40
 90
        0
102
RTVSPost2010PropOp40
 70
     1
102
RTVSPost2010Prop41ColorIndex
 90
       18
102
RTVSPost2010Prop41ColorRGB
 90
        0
102
RTVSPost2010PropOp41
 70
     1
102
RTVSPost2010Prop42
 90
       50
102
RTVSPost2010PropOp42
 70
     1
102
RTVSPost2010Prop43
 90
        3
102
RTVSPost2010PropOp43
 70
     1
102
RTVSPost2010Prop44ColorIndex
 90
        5
102
RTVSPost2010Prop44ColorRGB
 90
      255
102
RTVSPost2010PropOp44
 70
     1
102
RTVSPost2010Prop45
280
     0
102
RTVSPost2010PropOp45
 70
     1
102
RTVSPost2010Prop46
 90
       50
102
RTVSPost2010PropOp46
 70
     1
102
RTVSPost2010Prop47
 90
       50
102
RTVSPost2010PropOp47
 70
     1
102
RTVSPost2010Prop48
 90
       50
102
RTVSPost2010PropOp48
 70
     1
102
RTVSPost2010Prop49
280
     0
102
RTVSPost2010PropOp49
 70
     1
102
RTVSPost2010Prop50
 90
       50
102
RTVSPost2010PropOp50
 70
     1
102
RTVSPost2010Prop51ColorIndex
 90
      256
102
RTVSPost2010Prop51ColorRGB
 90
-16777216
102
RTVSPost2010PropOp51
 70
     0
102
RTVSPost2010Prop52
140
1.0
102
RTVSPost2010PropOp52
 70
     0
102
RTVSPost2010Prop53
 90
        2
102
RTVSPost2010PropOp53
 70
     1
102
RTVSPost2010Prop54
  1
strokes_ogs.tif
102
RTVSPost2010PropOp54
 70
     1
102
RTVSPost2010Prop55
280
     0
102
RTVSPost2010PropOp55
 70
     1
102
RTVSPost2010Prop56
140
1.0
102
RTVSPost2010PropOp56
 70
     1
102
RTVSPost2010Prop57
140
1.0
102
RTVSPost2010PropOp57
 70
     1
  0
XRECORD
  5
36A
102
{ACAD_REACTORS
330
369
102
}
330
369
100
AcDbXrecord
280
     1
102
RTVSPropertyOp0
 70
     1
102
RTVSPropertyOp1
 70
     1
102
RTVSPropertyOp2
 70
     1
102
RTVSPropertyOp3
 70
     1
102
RTVSPropertyOp4
 70
     1
102
RTVSPropertyOp5
 70
     1
102
RTVSPropertyOp6
 70
     1
102
RTVSPropertyOp7
 70
     1
102
RTVSPropertyOp8
 70
     1
102
RTVSPropertyOp9
 70
     1
102
RTVSPropertyOp10
 70
     1
102
RTVSPropertyOp11
 70
     1
102
RTVSPropertyOp12
 70
     1
102
RTVSPropertyOp13
 70
     1
102
RTVSPropertyOp14
 70
     1
102
RTVSPropertyOp15
 70
     1
102
RTVSPropertyOp16
 70
     1
102
RTVSPropertyOp17
 70
     1
102
RTVSPropertyOp18
 70
     1
102
RTVSPropertyOp19
 70
     1
102
RTVSPropertyOp20
 70
     1
102
RTVSPropertyOp21
 70
     1
102
RTVSPropertyOp22
 70
     1
102
RTVSPropertyOp23
 70
     1
102
RTVSPropertyOp24
 70
     1
102
RTVSPropertyOp25
 70
     1
102
RTVSPropertyOp26
 70
     1
102
RTVSPropertyOp27
 70
     1
102
RTVSPropertyOp28
 70
     1
102
RTVSPropertyOp29
 70
     1
102
RTVSPropertyOp30
 70
     1
102
RTVSPropertyOp31
 70
     1
102
RTVSPropertyOp32
 70
     1
102
RTVSPropertyOp33
 70
     1
102
RTVSPropertyOp34
 70
     1
102
RTVSPropertyOp35
 70
     1
102
RTVSPropertyOp36
 70
     1
102
RTVSPropertyOp37
 70
     1
102
RTVSPropertyOp38
 70
     1
102
RTVSPropertyOp39
 70
     1
102
RTVSPropertyOp40
 70
     1
102
RTVSPropertyOp41
 70
     1
102
RTVSPropertyOp42
 70
     1
102
RTVSPropertyOp43
 70
     1
102
RTVSPropertyOp44
 70
     1
102
RTVSPropertyOp45
 70
     1
102
RTVSPropertyOp46
 70
     1
102
RTVSPropertyOp47
 70
     1
102
RTVSPropertyOp48
 70
     1
102
RTVSPropertyOp49
 70
     1
102
RTVSPropertyOp50
 70
     1
102
RTVSPropertyOp51
 70
     0
102
RTVSPropertyOp52
 70
     0
102
RTVSPropertyOp53
 70
     1
102
RTVSPropertyOp54
 70
     1
102
RTVSPropertyOp55
 70
     1
102
RTVSPropertyOp56
 70
     1
102
RTVSPropertyOp57
 70
     1
102
RTVSPost2010Prop28
280
     0
102
RTVSPost2010PropOp28
 70
     1
102
RTVSPost2010Prop29
280
     1
102
RTVSPost2010PropOp29
 70
     1
102
RTVSPost2010Prop30
280
     1
102
RTVSPost2010PropOp30
 70
     1
102
RTVSPost2010Prop31
280
     0
102
RTVSPost2010PropOp31
 70
     1
102
RTVSPost2010Prop32
280
     0
102
RTVSPost2010PropOp32
 70
     1
102
RTVSPost2010Prop33
280
     0
102
RTVSPost2010PropOp33
 70
     1
102
RTVSPost2010Prop34
280
     0
102
RTVSPost2010PropOp34
 70
     1
102
RTVSPost2010Prop35
280
     0
102
RTVSPost2010PropOp35
 70
     1
102
RTVSPost2010Prop36
280
     0
102
RTVSPost2010PropOp36
 70
     1
102
RTVSPost2010Prop37
 90
       50
102
RTVSPost2010PropOp37
 70
     1
102
RTVSPost2010Prop38
140
0.0
102
RTVSPost2010PropOp38
 70
     1
102
RTVSPost2010Prop39
140
1.0
102
RTVSPost2010PropOp39
 70
     1
102
RTVSPost2010Prop40
 90
        0
102
RTVSPost2010PropOp40
 70
     1
102
RTVSPost2010Prop41ColorIndex
 90
       18
102
RTVSPost2010Prop41ColorRGB
 90
        0
102
RTVSPost2010PropOp41
 70
     1
102
RTVSPost2010Prop42
 90
       50
102
RTVSPost2010PropOp42
 70
     1
102
RTVSPost2010Prop43
 90
        3
102
RTVSPost2010PropOp43
 70
     1
102
RTVSPost2010Prop44ColorIndex
 90
        5
102
RTVSPost2010Prop44ColorRGB
 90
      255
102
RTVSPost2010PropOp44
 70
     1
102
RTVSPost2010Prop45
280
     0
102
RTVSPost2010PropOp45
 70
     1
102
RTVSPost2010Prop46
 90
       50
102
RTVSPost2010PropOp46
 70
     1
102
RTVSPost2010Prop47
 90
       50
102
RTVSPost2010PropOp47
 70
     1
102
RTVSPost2010Prop48
 90
       50
102
RTVSPost2010PropOp48
 70
     1
102
RTVSPost2010Prop49
280
     0
102
RTVSPost2010PropOp49
 70
     1
102
RTVSPost2010Prop50
 90
       50
102
RTVSPost2010PropOp50
 70
     1
102
RTVSPost2010Prop51ColorIndex
 90
      256
102
RTVSPost2010Prop51ColorRGB
 90
-16777216
102
RTVSPost2010PropOp51
 70
     0
102
RTVSPost2010Prop52
140
1.0
102
RTVSPost2010PropOp52
 70
     0
102
RTVSPost2010Prop53
 90
        2
102
RTVSPost2010PropOp53
 70
     1
102
RTVSPost2010Prop54
  1
strokes_ogs.tif
102
RTVSPost2010PropOp54
 70
     1
102
RTVSPost2010Prop55
280
     0
102
RTVSPost2010PropOp55
 70
     1
102
RTVSPost2010Prop56
140
1.0
102
RTVSPost2010PropOp56
 70
     1
102
RTVSPost2010Prop57
140
1.0
102
RTVSPost2010PropOp57
 70
     1
  0
XRECORD
  5
36C
102
{ACAD_REACTORS
330
36B
102
}
330
36B
100
AcDbXrecord
280
     1
102
RTVSPropertyOp0
 70
     1
102
RTVSPropertyOp1
 70
     1
102
RTVSPropertyOp2
 70
     1
102
RTVSPropertyOp3
 70
     1
102
RTVSPropertyOp4
 70
     1
102
RTVSPropertyOp5
 70
     1
102
RTVSPropertyOp6
 70
     1
102
RTVSPropertyOp7
 70
     1
102
RTVSPropertyOp8
 70
     1
102
RTVSPropertyOp9
 70
     1
102
RTVSPropertyOp10
 70
     1
102
RTVSPropertyOp11
 70
     1
102
RTVSPropertyOp12
 70
     1
102
RTVSPropertyOp13
 70
     1
102
RTVSPropertyOp14
 70
     1
102
RTVSPropertyOp15
 70
     1
102
RTVSPropertyOp16
 70
     1
102
RTVSPropertyOp17
 70
     1
102
RTVSPropertyOp18
 70
     1
102
RTVSPropertyOp19
 70
     1
102
RTVSPropertyOp20
 70
     1
102
RTVSPropertyOp21
 70
     1
102
RTVSPropertyOp22
 70
     1
102
RTVSPropertyOp23
 70
     1
102
RTVSPropertyOp24
 70
     1
102
RTVSPropertyOp25
 70
     1
102
RTVSPropertyOp26
 70
     1
102
RTVSPropertyOp27
 70
     1
102
RTVSPropertyOp28
 70
     1
102
RTVSPropertyOp29
 70
     1
102
RTVSPropertyOp30
 70
     1
102
RTVSPropertyOp31
 70
     1
102
RTVSPropertyOp32
 70
     1
102
RTVSPropertyOp33
 70
     1
102
RTVSPropertyOp34
 70
     1
102
RTVSPropertyOp35
 70
     1
102
RTVSPropertyOp36
 70
     1
102
RTVSPropertyOp37
 70
     1
102
RTVSPropertyOp38
 70
     1
102
RTVSPropertyOp39
 70
     1
102
RTVSPropertyOp40
 70
     1
102
RTVSPropertyOp41
 70
     1
102
RTVSPropertyOp42
 70
     1
102
RTVSPropertyOp43
 70
     1
102
RTVSPropertyOp44
 70
     1
102
RTVSPropertyOp45
 70
     1
102
RTVSPropertyOp46
 70
     1
102
RTVSPropertyOp47
 70
     1
102
RTVSPropertyOp48
 70
     1
102
RTVSPropertyOp49
 70
     1
102
RTVSPropertyOp50
 70
     1
102
RTVSPropertyOp51
 70
     0
102
RTVSPropertyOp52
 70
     0
102
RTVSPropertyOp53
 70
     1
102
RTVSPropertyOp54
 70
     1
102
RTVSPropertyOp55
 70
     1
102
RTVSPropertyOp56
 70
     1
102
RTVSPropertyOp57
 70
     1
102
RTVSPost2010Prop28
280
     0
102
RTVSPost2010PropOp28
 70
     1
102
RTVSPost2010Prop29
280
     1
102
RTVSPost2010PropOp29
 70
     1
102
RTVSPost2010Prop30
280
     1
102
RTVSPost2010PropOp30
 70
     1
102
RTVSPost2010Prop31
280
     0
102
RTVSPost2010PropOp31
 70
     1
102
RTVSPost2010Prop32
280
     0
102
RTVSPost2010PropOp32
 70
     1
102
RTVSPost2010Prop33
280
     0
102
RTVSPost2010PropOp33
 70
     1
102
RTVSPost2010Prop34
280
     0
102
RTVSPost2010PropOp34
 70
     1
102
RTVSPost2010Prop35
280
     0
102
RTVSPost2010PropOp35
 70
     1
102
RTVSPost2010Prop36
280
     0
102
RTVSPost2010PropOp36
 70
     1
102
RTVSPost2010Prop37
 90
       50
102
RTVSPost2010PropOp37
 70
     1
102
RTVSPost2010Prop38
140
0.0
102
RTVSPost2010PropOp38
 70
     1
102
RTVSPost2010Prop39
140
1.0
102
RTVSPost2010PropOp39
 70
     1
102
RTVSPost2010Prop40
 90
        0
102
RTVSPost2010PropOp40
 70
     1
102
RTVSPost2010Prop41ColorIndex
 90
       18
102
RTVSPost2010Prop41ColorRGB
 90
        0
102
RTVSPost2010PropOp41
 70
     1
102
RTVSPost2010Prop42
 90
       50
102
RTVSPost2010PropOp42
 70
     1
102
RTVSPost2010Prop43
 90
        3
102
RTVSPost2010PropOp43
 70
     1
102
RTVSPost2010Prop44ColorIndex
 90
        5
102
RTVSPost2010Prop44ColorRGB
 90
      255
102
RTVSPost2010PropOp44
 70
     1
102
RTVSPost2010Prop45
280
     0
102
RTVSPost2010PropOp45
 70
     1
102
RTVSPost2010Prop46
 90
       50
102
RTVSPost2010PropOp46
 70
     1
102
RTVSPost2010Prop47
 90
       50
102
RTVSPost2010PropOp47
 70
     1
102
RTVSPost2010Prop48
 90
       50
102
RTVSPost2010PropOp48
 70
     1
102
RTVSPost2010Prop49
280
     0
102
RTVSPost2010PropOp49
 70
     1
102
RTVSPost2010Prop50
 90
       50
102
RTVSPost2010PropOp50
 70
     1
102
RTVSPost2010Prop51ColorIndex
 90
      256
102
RTVSPost2010Prop51ColorRGB
 90
-16777216
102
RTVSPost2010PropOp51
 70
     0
102
RTVSPost2010Prop52
140
1.0
102
RTVSPost2010PropOp52
 70
     0
102
RTVSPost2010Prop53
 90
        2
102
RTVSPost2010PropOp53
 70
     1
102
RTVSPost2010Prop54
  1
strokes_ogs.tif
102
RTVSPost2010PropOp54
 70
     1
102
RTVSPost2010Prop55
280
     0
102
RTVSPost2010PropOp55
 70
     1
102
RTVSPost2010Prop56
140
1.0
102
RTVSPost2010PropOp56
 70
     1
102
RTVSPost2010Prop57
140
1.0
102
RTVSPost2010PropOp57
 70
     1
  0
XRECORD
  5
35C
102
{ACAD_REACTORS
330
35B
102
}
330
35B
100
AcDbXrecord
280
     1
102
RTVSPropertyOp0
 70
     1
102
RTVSPropertyOp1
 70
     1
102
RTVSPropertyOp2
 70
     1
102
RTVSPropertyOp3
 70
     1
102
RTVSPropertyOp4
 70
     1
102
RTVSPropertyOp5
 70
     1
102
RTVSPropertyOp6
 70
     1
102
RTVSPropertyOp7
 70
     1
102
RTVSPropertyOp8
 70
     1
102
RTVSPropertyOp9
 70
     1
102
RTVSPropertyOp10
 70
     1
102
RTVSPropertyOp11
 70
     1
102
RTVSPropertyOp12
 70
     1
102
RTVSPropertyOp13
 70
     1
102
RTVSPropertyOp14
 70
     1
102
RTVSPropertyOp15
 70
     1
102
RTVSPropertyOp16
 70
     1
102
RTVSPropertyOp17
 70
     1
102
RTVSPropertyOp18
 70
     1
102
RTVSPropertyOp19
 70
     1
102
RTVSPropertyOp20
 70
     1
102
RTVSPropertyOp21
 70
     1
102
RTVSPropertyOp22
 70
     1
102
RTVSPropertyOp23
 70
     1
102
RTVSPropertyOp24
 70
     1
102
RTVSPropertyOp25
 70
     1
102
RTVSPropertyOp26
 70
     1
102
RTVSPropertyOp27
 70
     1
102
RTVSPropertyOp28
 70
     1
102
RTVSPropertyOp29
 70
     1
102
RTVSPropertyOp30
 70
     1
102
RTVSPropertyOp31
 70
     1
102
RTVSPropertyOp32
 70
     1
102
RTVSPropertyOp33
 70
     1
102
RTVSPropertyOp34
 70
     1
102
RTVSPropertyOp35
 70
     1
102
RTVSPropertyOp36
 70
     1
102
RTVSPropertyOp37
 70
     1
102
RTVSPropertyOp38
 70
     1
102
RTVSPropertyOp39
 70
     1
102
RTVSPropertyOp40
 70
     1
102
RTVSPropertyOp41
 70
     1
102
RTVSPropertyOp42
 70
     1
102
RTVSPropertyOp43
 70
     1
102
RTVSPropertyOp44
 70
     1
102
RTVSPropertyOp45
 70
     1
102
RTVSPropertyOp46
 70
     1
102
RTVSPropertyOp47
 70
     1
102
RTVSPropertyOp48
 70
     1
102
RTVSPropertyOp49
 70
     1
102
RTVSPropertyOp50
 70
     1
102
RTVSPropertyOp51
 70
     0
102
RTVSPropertyOp52
 70
     0
102
RTVSPropertyOp53
 70
     1
102
RTVSPropertyOp54
 70
     1
102
RTVSPropertyOp55
 70
     1
102
RTVSPropertyOp56
 70
     1
102
RTVSPropertyOp57
 70
     1
102
RTVSPost2010Prop28
280
     0
102
RTVSPost2010PropOp28
 70
     1
102
RTVSPost2010Prop29
280
     1
102
RTVSPost2010PropOp29
 70
     1
102
RTVSPost2010Prop30
280
     1
102
RTVSPost2010PropOp30
 70
     1
102
RTVSPost2010Prop31
280
     0
102
RTVSPost2010PropOp31
 70
     1
102
RTVSPost2010Prop32
280
     0
102
RTVSPost2010PropOp32
 70
     1
102
RTVSPost2010Prop33
280
     0
102
RTVSPost2010PropOp33
 70
     1
102
RTVSPost2010Prop34
280
     0
102
RTVSPost2010PropOp34
 70
     1
102
RTVSPost2010Prop35
280
     0
102
RTVSPost2010PropOp35
 70
     1
102
RTVSPost2010Prop36
280
     0
102
RTVSPost2010PropOp36
 70
     1
102
RTVSPost2010Prop37
 90
       50
102
RTVSPost2010PropOp37
 70
     1
102
RTVSPost2010Prop38
140
0.0
102
RTVSPost2010PropOp38
 70
     1
102
RTVSPost2010Prop39
140
1.0
102
RTVSPost2010PropOp39
 70
     1
102
RTVSPost2010Prop40
 90
        0
102
RTVSPost2010PropOp40
 70
     1
102
RTVSPost2010Prop41ColorIndex
 90
       18
102
RTVSPost2010Prop41ColorRGB
 90
        0
102
RTVSPost2010PropOp41
 70
     1
102
RTVSPost2010Prop42
 90
       50
102
RTVSPost2010PropOp42
 70
     1
102
RTVSPost2010Prop43
 90
        3
102
RTVSPost2010PropOp43
 70
     1
102
RTVSPost2010Prop44ColorIndex
 90
        5
102
RTVSPost2010Prop44ColorRGB
 90
      255
102
RTVSPost2010PropOp44
 70
     1
102
RTVSPost2010Prop45
280
     0
102
RTVSPost2010PropOp45
 70
     1
102
RTVSPost2010Prop46
 90
       50
102
RTVSPost2010PropOp46
 70
     1
102
RTVSPost2010Prop47
 90
       50
102
RTVSPost2010PropOp47
 70
     1
102
RTVSPost2010Prop48
 90
       50
102
RTVSPost2010PropOp48
 70
     1
102
RTVSPost2010Prop49
280
     0
102
RTVSPost2010PropOp49
 70
     1
102
RTVSPost2010Prop50
 90
       50
102
RTVSPost2010PropOp50
 70
     1
102
RTVSPost2010Prop51ColorIndex
 90
      256
102
RTVSPost2010Prop51ColorRGB
 90
-16777216
102
RTVSPost2010PropOp51
 70
     0
102
RTVSPost2010Prop52
140
1.0
102
RTVSPost2010PropOp52
 70
     0
102
RTVSPost2010Prop53
 90
        2
102
RTVSPost2010PropOp53
 70
     1
102
RTVSPost2010Prop54
  1
strokes_ogs.tif
102
RTVSPost2010PropOp54
 70
     1
102
RTVSPost2010Prop55
280
     0
102
RTVSPost2010PropOp55
 70
     1
102
RTVSPost2010Prop56
140
1.0
102
RTVSPost2010PropOp56
 70
     1
102
RTVSPost2010Prop57
140
1.0
102
RTVSPost2010PropOp57
 70
     1
  0
XRECORD
  5
34E
102
{ACAD_REACTORS
330
34D
102
}
330
34D
100
AcDbXrecord
280
     1
102
RTVSPropertyOp0
 70
     1
102
RTVSPropertyOp1
 70
     1
102
RTVSPropertyOp2
 70
     1
102
RTVSPropertyOp3
 70
     1
102
RTVSPropertyOp4
 70
     1
102
RTVSPropertyOp5
 70
     1
102
RTVSPropertyOp6
 70
     1
102
RTVSPropertyOp7
 70
     1
102
RTVSPropertyOp8
 70
     1
102
RTVSPropertyOp9
 70
     1
102
RTVSPropertyOp10
 70
     1
102
RTVSPropertyOp11
 70
     1
102
RTVSPropertyOp12
 70
     1
102
RTVSPropertyOp13
 70
     1
102
RTVSPropertyOp14
 70
     1
102
RTVSPropertyOp15
 70
     1
102
RTVSPropertyOp16
 70
     1
102
RTVSPropertyOp17
 70
     1
102
RTVSPropertyOp18
 70
     1
102
RTVSPropertyOp19
 70
     1
102
RTVSPropertyOp20
 70
     1
102
RTVSPropertyOp21
 70
     1
102
RTVSPropertyOp22
 70
     1
102
RTVSPropertyOp23
 70
     1
102
RTVSPropertyOp24
 70
     1
102
RTVSPropertyOp25
 70
     1
102
RTVSPropertyOp26
 70
     1
102
RTVSPropertyOp27
 70
     1
102
RTVSPropertyOp28
 70
     1
102
RTVSPropertyOp29
 70
     1
102
RTVSPropertyOp30
 70
     1
102
RTVSPropertyOp31
 70
     1
102
RTVSPropertyOp32
 70
     1
102
RTVSPropertyOp33
 70
     1
102
RTVSPropertyOp34
 70
     1
102
RTVSPropertyOp35
 70
     1
102
RTVSPropertyOp36
 70
     1
102
RTVSPropertyOp37
 70
     1
102
RTVSPropertyOp38
 70
     1
102
RTVSPropertyOp39
 70
     1
102
RTVSPropertyOp40
 70
     1
102
RTVSPropertyOp41
 70
     1
102
RTVSPropertyOp42
 70
     1
102
RTVSPropertyOp43
 70
     1
102
RTVSPropertyOp44
 70
     1
102
RTVSPropertyOp45
 70
     1
102
RTVSPropertyOp46
 70
     1
102
RTVSPropertyOp47
 70
     1
102
RTVSPropertyOp48
 70
     1
102
RTVSPropertyOp49
 70
     1
102
RTVSPropertyOp50
 70
     1
102
RTVSPropertyOp51
 70
     0
102
RTVSPropertyOp52
 70
     0
102
RTVSPropertyOp53
 70
     1
102
RTVSPropertyOp54
 70
     1
102
RTVSPropertyOp55
 70
     1
102
RTVSPropertyOp56
 70
     1
102
RTVSPropertyOp57
 70
     1
102
RTVSPost2010Prop28
280
     0
102
RTVSPost2010PropOp28
 70
     1
102
RTVSPost2010Prop29
280
     1
102
RTVSPost2010PropOp29
 70
     1
102
RTVSPost2010Prop30
280
     1
102
RTVSPost2010PropOp30
 70
     1
102
RTVSPost2010Prop31
280
     0
102
RTVSPost2010PropOp31
 70
     1
102
RTVSPost2010Prop32
280
     0
102
RTVSPost2010PropOp32
 70
     1
102
RTVSPost2010Prop33
280
     0
102
RTVSPost2010PropOp33
 70
     1
102
RTVSPost2010Prop34
280
     0
102
RTVSPost2010PropOp34
 70
     1
102
RTVSPost2010Prop35
280
     0
102
RTVSPost2010PropOp35
 70
     1
102
RTVSPost2010Prop36
280
     0
102
RTVSPost2010PropOp36
 70
     1
102
RTVSPost2010Prop37
 90
       50
102
RTVSPost2010PropOp37
 70
     1
102
RTVSPost2010Prop38
140
0.0
102
RTVSPost2010PropOp38
 70
     1
102
RTVSPost2010Prop39
140
1.0
102
RTVSPost2010PropOp39
 70
     1
102
RTVSPost2010Prop40
 90
        0
102
RTVSPost2010PropOp40
 70
     1
102
RTVSPost2010Prop41ColorIndex
 90
       18
102
RTVSPost2010Prop41ColorRGB
 90
        0
102
RTVSPost2010PropOp41
 70
     1
102
RTVSPost2010Prop42
 90
       50
102
RTVSPost2010PropOp42
 70
     1
102
RTVSPost2010Prop43
 90
        3
102
RTVSPost2010PropOp43
 70
     1
102
RTVSPost2010Prop44ColorIndex
 90
        5
102
RTVSPost2010Prop44ColorRGB
 90
      255
102
RTVSPost2010PropOp44
 70
     1
102
RTVSPost2010Prop45
280
     0
102
RTVSPost2010PropOp45
 70
     1
102
RTVSPost2010Prop46
 90
       50
102
RTVSPost2010PropOp46
 70
     1
102
RTVSPost2010Prop47
 90
       50
102
RTVSPost2010PropOp47
 70
     1
102
RTVSPost2010Prop48
 90
       50
102
RTVSPost2010PropOp48
 70
     1
102
RTVSPost2010Prop49
280
     0
102
RTVSPost2010PropOp49
 70
     1
102
RTVSPost2010Prop50
 90
       50
102
RTVSPost2010PropOp50
 70
     1
102
RTVSPost2010Prop51ColorIndex
 90
      256
102
RTVSPost2010Prop51ColorRGB
 90
-16777216
102
RTVSPost2010PropOp51
 70
     0
102
RTVSPost2010Prop52
140
1.0
102
RTVSPost2010PropOp52
 70
     0
102
RTVSPost2010Prop53
 90
        2
102
RTVSPost2010PropOp53
 70
     1
102
RTVSPost2010Prop54
  1
strokes_ogs.tif
102
RTVSPost2010PropOp54
 70
     1
102
RTVSPost2010Prop55
280
     0
102
RTVSPost2010PropOp55
 70
     1
102
RTVSPost2010Prop56
140
1.0
102
RTVSPost2010PropOp56
 70
     1
102
RTVSPost2010Prop57
140
1.0
102
RTVSPost2010PropOp57
 70
     1
  0
XRECORD
  5
36E
102
{ACAD_REACTORS
330
36D
102
}
330
36D
100
AcDbXrecord
280
     1
102
RTVSPropertyOp0
 70
     1
102
RTVSPropertyOp1
 70
     1
102
RTVSPropertyOp2
 70
     1
102
RTVSPropertyOp3
 70
     1
102
RTVSPropertyOp4
 70
     1
102
RTVSPropertyOp5
 70
     1
102
RTVSPropertyOp6
 70
     1
102
RTVSPropertyOp7
 70
     1
102
RTVSPropertyOp8
 70
     1
102
RTVSPropertyOp9
 70
     1
102
RTVSPropertyOp10
 70
     1
102
RTVSPropertyOp11
 70
     1
102
RTVSPropertyOp12
 70
     1
102
RTVSPropertyOp13
 70
     1
102
RTVSPropertyOp14
 70
     1
102
RTVSPropertyOp15
 70
     1
102
RTVSPropertyOp16
 70
     1
102
RTVSPropertyOp17
 70
     1
102
RTVSPropertyOp18
 70
     1
102
RTVSPropertyOp19
 70
     1
102
RTVSPropertyOp20
 70
     1
102
RTVSPropertyOp21
 70
     1
102
RTVSPropertyOp22
 70
     1
102
RTVSPropertyOp23
 70
     1
102
RTVSPropertyOp24
 70
     1
102
RTVSPropertyOp25
 70
     1
102
RTVSPropertyOp26
 70
     1
102
RTVSPropertyOp27
 70
     1
102
RTVSPropertyOp28
 70
     1
102
RTVSPropertyOp29
 70
     1
102
RTVSPropertyOp30
 70
     1
102
RTVSPropertyOp31
 70
     1
102
RTVSPropertyOp32
 70
     1
102
RTVSPropertyOp33
 70
     1
102
RTVSPropertyOp34
 70
     1
102
RTVSPropertyOp35
 70
     1
102
RTVSPropertyOp36
 70
     1
102
RTVSPropertyOp37
 70
     1
102
RTVSPropertyOp38
 70
     1
102
RTVSPropertyOp39
 70
     1
102
RTVSPropertyOp40
 70
     1
102
RTVSPropertyOp41
 70
     1
102
RTVSPropertyOp42
 70
     1
102
RTVSPropertyOp43
 70
     1
102
RTVSPropertyOp44
 70
     1
102
RTVSPropertyOp45
 70
     1
102
RTVSPropertyOp46
 70
     1
102
RTVSPropertyOp47
 70
     1
102
RTVSPropertyOp48
 70
     1
102
RTVSPropertyOp49
 70
     1
102
RTVSPropertyOp50
 70
     1
102
RTVSPropertyOp51
 70
     0
102
RTVSPropertyOp52
 70
     0
102
RTVSPropertyOp53
 70
     1
102
RTVSPropertyOp54
 70
     1
102
RTVSPropertyOp55
 70
     1
102
RTVSPropertyOp56
 70
     1
102
RTVSPropertyOp57
 70
     1
102
RTVSPost2010Prop28
280
     0
102
RTVSPost2010PropOp28
 70
     1
102
RTVSPost2010Prop29
280
     1
102
RTVSPost2010PropOp29
 70
     1
102
RTVSPost2010Prop30
280
     1
102
RTVSPost2010PropOp30
 70
     1
102
RTVSPost2010Prop31
280
     0
102
RTVSPost2010PropOp31
 70
     1
102
RTVSPost2010Prop32
280
     0
102
RTVSPost2010PropOp32
 70
     1
102
RTVSPost2010Prop33
280
     0
102
RTVSPost2010PropOp33
 70
     1
102
RTVSPost2010Prop34
280
     0
102
RTVSPost2010PropOp34
 70
     1
102
RTVSPost2010Prop35
280
     0
102
RTVSPost2010PropOp35
 70
     1
102
RTVSPost2010Prop36
280
     0
102
RTVSPost2010PropOp36
 70
     1
102
RTVSPost2010Prop37
 90
       50
102
RTVSPost2010PropOp37
 70
     1
102
RTVSPost2010Prop38
140
0.0
102
RTVSPost2010PropOp38
 70
     1
102
RTVSPost2010Prop39
140
1.0
102
RTVSPost2010PropOp39
 70
     1
102
RTVSPost2010Prop40
 90
        0
102
RTVSPost2010PropOp40
 70
     1
102
RTVSPost2010Prop41ColorIndex
 90
       18
102
RTVSPost2010Prop41ColorRGB
 90
        0
102
RTVSPost2010PropOp41
 70
     1
102
RTVSPost2010Prop42
 90
       50
102
RTVSPost2010PropOp42
 70
     1
102
RTVSPost2010Prop43
 90
        3
102
RTVSPost2010PropOp43
 70
     1
102
RTVSPost2010Prop44ColorIndex
 90
        5
102
RTVSPost2010Prop44ColorRGB
 90
      255
102
RTVSPost2010PropOp44
 70
     1
102
RTVSPost2010Prop45
280
     0
102
RTVSPost2010PropOp45
 70
     1
102
RTVSPost2010Prop46
 90
       50
102
RTVSPost2010PropOp46
 70
     1
102
RTVSPost2010Prop47
 90
       50
102
RTVSPost2010PropOp47
 70
     1
102
RTVSPost2010Prop48
 90
       50
102
RTVSPost2010PropOp48
 70
     1
102
RTVSPost2010Prop49
280
     0
102
RTVSPost2010PropOp49
 70
     1
102
RTVSPost2010Prop50
 90
       50
102
RTVSPost2010PropOp50
 70
     1
102
RTVSPost2010Prop51ColorIndex
 90
      256
102
RTVSPost2010Prop51ColorRGB
 90
-16777216
102
RTVSPost2010PropOp51
 70
     0
102
RTVSPost2010Prop52
140
1.0
102
RTVSPost2010PropOp52
 70
     0
102
RTVSPost2010Prop53
 90
        2
102
RTVSPost2010PropOp53
 70
     1
102
RTVSPost2010Prop54
  1
strokes_ogs.tif
102
RTVSPost2010PropOp54
 70
     1
102
RTVSPost2010Prop55
280
     0
102
RTVSPost2010PropOp55
 70
     1
102
RTVSPost2010Prop56
140
1.0
102
RTVSPost2010PropOp56
 70
     1
102
RTVSPost2010Prop57
140
1.0
102
RTVSPost2010PropOp57
 70
     1
  0
ENDSEC
  0
EOF
