  0
SECTION
  2
HEADER
  9
$ACADVER
  1
AC1027
  9
$ACADMAINTVER
 70
     8
  9
$DWGCODEPAGE
  3
ANSI_1252
  9
$REQUIREDVERSIONS
160
                 0
  9
$INSBASE
 10
0.0
 20
0.0
 30
0.0
  9
$EXTMIN
 10
1.000000000000000E+20
 20
1.000000000000000E+20
 30
1.000000000000000E+20
  9
$EXTMAX
 10
-1.000000000000000E+20
 20
-1.000000000000000E+20
 30
-1.000000000000000E+20
  9
$LIMMIN
 10
0.0
 20
0.0
  9
$LIMMAX
 10
12.0
 20
9.0
  9
$ORTHOMODE
 70
     0
  9
$REGENMODE
 70
     1
  9
$FILLMODE
 70
     1
  9
$QTEXTMODE
 70
     0
  9
$MIRRTEXT
 70
     1
  9
$LTSCALE
 40
1.0
  9
$ATTMODE
 70
     1
  9
$TEXTSIZE
 40
0.2
  9
$TRACEWID
 40
0.05
  9
$TEXTSTYLE
  7
Standard
  9
$CLAYER
  8
0
  9
$CELTYPE
  6
ByLayer
  9
$CECOLOR
 62
   256
  9
$CELTSCALE
 40
1.0
  9
$DISPSILH
 70
     0
  9
$DIMSCALE
 40
1.0
  9
$DIMASZ
 40
2.5
  9
$DIMEXO
 40
0.625
  9
$DIMDLI
 40
0.38
  9
$DIMRND
 40
0.0
  9
$DIMDLE
 40
0.0
  9
$DIMEXE
 40
1.25
  9
$DIMTP
 40
0.0
  9
$DIMTM
 40
0.0
  9
$DIMTXT
 40
2.5
  9
$DIMCEN
 40
0.09
  9
$DIMTSZ
 40
0.0
  9
$DIMTOL
 70
     0
  9
$DIMLIM
 70
     0
  9
$DIMTIH
 70
     1
  9
$DIMTOH
 70
     1
  9
$DIMSE1
 70
     0
  9
$DIMSE2
 70
     0
  9
$DIMTAD
 70
     0
  9
$DIMZIN
 70
     8
  9
$DIMBLK
  1

  9
$DIMASO
 70
     1
  9
$DIMSHO
 70
     1
  9
$DIMPOST
  1

  9
$DIMAPOST
  1

  9
$DIMALT
 70
     0
  9
$DIMALTD
 70
     2
  9
$DIMALTF
 40
25.4
  9
$DIMLFAC
 40
1.0
  9
$DIMTOFL
 70
     0
  9
$DIMTVP
 40
0.0
  9
$DIMTIX
 70
     0
  9
$DIMSOXD
 70
     0
  9
$DIMSAH
 70
     0
  9
$DIMBLK1
  1

  9
$DIMBLK2
  1

  9
$DIMSTYLE
  2
Standard
  9
$DIMCLRD
 70
     0
  9
$DIMCLRE
 70
     0
  9
$DIMCLRT
 70
     0
  9
$DIMTFAC
 40
1.0
  9
$DIMGAP
 40
0.625
  9
$DIMJUST
 70
     0
  9
$DIMSD1
 70
     0
  9
$DIMSD2
 70
     0
  9
$DIMTOLJ
 70
     1
  9
$DIMTZIN
 70
     0
  9
$DIMALTZ
 70
     0
  9
$DIMALTTZ
 70
     0
  9
$DIMUPT
 70
     0
  9
$DIMDEC
 70
     4
  9
$DIMTDEC
 70
     4
  9
$DIMALTU
 70
     2
  9
$DIMALTTD
 70
     2
  9
$DIMTXSTY
  7
Standard
  9
$DIMAUNIT
 70
     0
  9
$DIMADEC
 70
     0
  9
$DIMALTRND
 40
0.0
  9
$DIMAZIN
 70
     2
  9
$DIMDSEP
 70
    46
  9
$DIMATFIT
 70
     3
  9
$DIMFRAC
 70
     0
  9
$DIMLDRBLK
  1

  9
$DIMLUNIT
 70
     2
  9
$DIMLWD
 70
    -2
  9
$DIMLWE
 70
    -2
  9
$DIMTMOVE
 70
     0
  9
$DIMFXL
 40
1.0
  9
$DIMFXLON
 70
     0
  9
$DIMJOGANG
 40
0.7853981633974483
  9
$DIMTFILL
 70
     0
  9
$DIMTFILLCLR
 70
     0
  9
$DIMARCSYM
 70
     0
  9
$DIMLTYPE
  6

  9
$DIMLTEX1
  6

  9
$DIMLTEX2
  6

  9
$DIMTXTDIRECTION
 70
     0
  9
$LUNITS
 70
     2
  9
$LUPREC
 70
     4
  9
$SKETCHINC
 40
0.1
  9
$FILLETRAD
 40
0.5
  9
$AUNITS
 70
     0
  9
$AUPREC
 70
     0
  9
$MENU
  1
.
  9
$ELEVATION
 40
0.0
  9
$PELEVATION
 40
0.0
  9
$THICKNESS
 40
0.0
  9
$LIMCHECK
 70
     0
  9
$CHAMFERA
 40
0.0
  9
$CHAMFERB
 40
0.0
  9
$CHAMFERC
 40
0.0
  9
$CHAMFERD
 40
0.0
  9
$SKPOLY
 70
     0
  9
$TDCREATE
 40
2457918.504340278
  9
$TDUCREATE
 40
2457918.462673611
  9
$TDUPDATE
 40
2457918.504340278
  9
$TDUUPDATE
 40
2457918.462673611
  9
$TDINDWG
 40
0.0000000116
  9
$TDUSRTIMER
 40
0.0000000116
  9
$USRTIMER
 70
     1
  9
$ANGBASE
 50
0.0
  9
$ANGDIR
 70
     0
  9
$PDMODE
 70
     0
  9
$PDSIZE
 40
0.0
  9
$PLINEWID
 40
0.0
  9
$SPLFRAME
 70
     0
  9
$SPLINETYPE
 70
     6
  9
$SPLINESEGS
 70
     8
  9
$HANDSEED
  5
245
  9
$SURFTAB1
 70
     6
  9
$SURFTAB2
 70
     6
  9
$SURFTYPE
 70
     6
  9
$SURFU
 70
     6
  9
$SURFV
 70
     6
  9
$UCSBASE
  2

  9
$UCSNAME
  2

  9
$UCSORG
 10
0.0
 20
0.0
 30
0.0
  9
$UCSXDIR
 10
1.0
 20
0.0
 30
0.0
  9
$UCSYDIR
 10
0.0
 20
1.0
 30
0.0
  9
$UCSORTHOREF
  2

  9
$UCSORTHOVIEW
 70
     0
  9
$UCSORGTOP
 10
0.0
 20
0.0
 30
0.0
  9
$UCSORGBOTTOM
 10
0.0
 20
0.0
 30
0.0
  9
$UCSORGLEFT
 10
0.0
 20
0.0
 30
0.0
  9
$UCSORGRIGHT
 10
0.0
 20
0.0
 30
0.0
  9
$UCSORGFRONT
 10
0.0
 20
0.0
 30
0.0
  9
$UCSORGBACK
 10
0.0
 20
0.0
 30
0.0
  9
$PUCSBASE
  2

  9
$PUCSNAME
  2

  9
$PUCSORG
 10
0.0
 20
0.0
 30
0.0
  9
$PUCSXDIR
 10
1.0
 20
0.0
 30
0.0
  9
$PUCSYDIR
 10
0.0
 20
1.0
 30
0.0
  9
$PUCSORTHOREF
  2

  9
$PUCSORTHOVIEW
 70
     0
  9
$PUCSORGTOP
 10
0.0
 20
0.0
 30
0.0
  9
$PUCSORGBOTTOM
 10
0.0
 20
0.0
 30
0.0
  9
$PUCSORGLEFT
 10
0.0
 20
0.0
 30
0.0
  9
$PUCSORGRIGHT
 10
0.0
 20
0.0
 30
0.0
  9
$PUCSORGFRONT
 10
0.0
 20
0.0
 30
0.0
  9
$PUCSORGBACK
 10
0.0
 20
0.0
 30
0.0
  9
$USERI1
 70
     0
  9
$USERI2
 70
     0
  9
$USERI3
 70
     0
  9
$USERI4
 70
     0
  9
$USERI5
 70
     0
  9
$USERR1
 40
0.0
  9
$USERR2
 40
0.0
  9
$USERR3
 40
0.0
  9
$USERR4
 40
0.0
  9
$USERR5
 40
0.0
  9
$WORLDVIEW
 70
     1
  9
$SHADEDGE
 70
     3
  9
$SHADEDIF
 70
    70
  9
$TILEMODE
 70
     1
  9
$MAXACTVP
 70
    64
  9
$PINSBASE
 10
0.0
 20
0.0
 30
0.0
  9
$PLIMCHECK
 70
     0
  9
$PEXTMIN
 10
1.000000000000000E+20
 20
1.000000000000000E+20
 30
1.000000000000000E+20
  9
$PEXTMAX
 10
-1.000000000000000E+20
 20
-1.000000000000000E+20
 30
-1.000000000000000E+20
  9
$PLIMMIN
 10
0.0
 20
0.0
  9
$PLIMMAX
 10
12.0
 20
9.0
  9
$UNITMODE
 70
     0
  9
$VISRETAIN
 70
     1
  9
$PLINEGEN
 70
     0
  9
$PSLTSCALE
 70
     1
  9
$TREEDEPTH
 70
  3020
  9
$CMLSTYLE
  2
Standard
  9
$CMLJUST
 70
     0
  9
$CMLSCALE
 40
1.0
  9
$PROXYGRAPHICS
 70
     1
  9
$MEASUREMENT
 70
     1
  9
$CELWEIGHT
370
    -1
  9
$ENDCAPS
280
     0
  9
$JOINSTYLE
280
     0
  9
$LWDISPLAY
290
     0
  9
$INSUNITS
 70
     4
  9
$HYPERLINKBASE
  1

  9
$STYLESHEET
  1

  9
$XEDIT
290
     1
  9
$CEPSNTYPE
380
     0
  9
$PSTYLEMODE
290
     1
  9
$FINGERPRINTGUID
  2
{C161F60F-CE95-8884-D060-94CF24DA045F}
  9
$VERSIONGUID
  2
{FAEB1C32-E019-11D5-929B-00C0DF256EC4}
  9
$EXTNAMES
290
     1
  9
$PSVPSCALE
 40
0.0
  9
$OLESTARTUP
290
     0
  9
$SORTENTS
280
   127
  9
$INDEXCTL
280
     0
  9
$HIDETEXT
280
     1
  9
$XCLIPFRAME
280
     2
  9
$HALOGAP
280
     0
  9
$OBSCOLOR
 70
   257
  9
$OBSLTYPE
280
     0
  9
$INTERSECTIONDISPLAY
280
     0
  9
$INTERSECTIONCOLOR
 70
   257
  9
$DIMASSOC
280
     2
  9
$PROJECTNAME
  1

  9
$CAMERADISPLAY
290
     0
  9
$LENSLENGTH
 40
50.0
  9
$CAMERAHEIGHT
 40
0.0
  9
$STEPSPERSEC
 40
2.0
  9
$STEPSIZE
 40
6.0
  9
$3DDWFPREC
 40
2.0
  9
$PSOLWIDTH
 40
0.25
  9
$PSOLHEIGHT
 40
4.0
  9
$LOFTANG1
 40
1.570796326794897
  9
$LOFTANG2
 40
1.570796326794897
  9
$LOFTMAG1
 40
0.0
  9
$LOFTMAG2
 40
0.0
  9
$LOFTPARAM
 70
     7
  9
$LOFTNORMALS
280
     1
  9
$LATITUDE
 40
37.795
  9
$LONGITUDE
 40
-122.394
  9
$NORTHDIRECTION
 40
0.0
  9
$TIMEZONE
 70
 -8000
  9
$LIGHTGLYPHDISPLAY
280
     1
  9
$TILEMODELIGHTSYNCH
280
     1
  9
$CMATERIAL
347
125
  9
$SOLIDHIST
280
     0
  9
$SHOWHIST
280
     1
  9
$DWFFRAME
280
     2
  9
$DGNFRAME
280
     2
  9
$REALWORLDSCALE
290
     1
  9
$INTERFERECOLOR
 62
   256
  9
$CSHADOW
280
     0
  9
$SHADOWPLANELOCATION
 40
0.0
  0
ENDSEC
  0
SECTION
  2
CLASSES
  0
CLASS
  1
ACDBDICTIONARYWDFLT
  2
AcDbDictionaryWithDefault
  3
ObjectDBX Classes
 90
        0
 91
        4
280
     0
281
     0
  0
CLASS
  1
VISUALSTYLE
  2
AcDbVisualStyle
  3
ObjectDBX Classes
 90
     4095
 91
        4
280
     0
281
     0
  0
CLASS
  1
MATERIAL
  2
AcDbMaterial
  3
ObjectDBX Classes
 90
     1153
 91
        4
280
     0
281
     0
  0
CLASS
  1
SCALE
  2
AcDbScale
  3
ObjectDBX Classes
 90
     1153
 91
        4
280
     0
281
     0
  0
CLASS
  1
TABLESTYLE
  2
AcDbTableStyle
  3
ObjectDBX Classes
 90
     4095
 91
        4
280
     0
281
     0
  0
CLASS
  1
MLEADERSTYLE
  2
AcDbMLeaderStyle
  3
ACDB_MLEADERSTYLE_CLASS
 90
     4095
 91
        4
280
     0
281
     0
  0
CLASS
  1
SUN
  2
AcDbSun
  3
SCENEOE
 90
     1153
 91
        4
280
     0
281
     0
  0
CLASS
  1
DICTIONARYVAR
  2
AcDbDictionaryVar
  3
ObjectDBX Classes
 90
        0
 91
        4
280
     0
281
     0
  0
CLASS
  1
CELLSTYLEMAP
  2
AcDbCellStyleMap
  3
ObjectDBX Classes
 90
     1152
 91
        4
280
     0
281
     0
  0
ENDSEC
  0
SECTION
  2
TABLES
  0
TABLE
  2
VPORT
  5
EA
330
0
100
AcDbSymbolTable
 70
     1
  0
VPORT
  5
10A
330
EA
100
AcDbSymbolTableRecord
100
AcDbViewportTableRecord
  2
*Active
 70
     0
 10
0.0
 20
0.0
 11
1.0
 21
1.0
 12
10.42990654205607
 22
4.5
 13
0.0
 23
0.0
 14
0.5
 24
0.5
 15
0.5
 25
0.5
 16
0.0
 26
0.0
 36
1.0
 17
0.0
 27
0.0
 37
0.0
 40
9.0
 41
1.972972972850329
 42
50.0
 43
0.0
 44
0.0
 50
0.0
 51
0.0
 71
     0
 72
   100
 73
     1
 74
     3
 75
     0
 76
     0
 77
     0
 78
     0
281
     0
 65
     1
110
0.0
120
0.0
130
0.0
111
1.0
121
0.0
131
0.0
112
0.0
122
1.0
132
0.0
 79
     0
146
0.0
 60
     3
 61
     5
292
     1
282
     1
141
0.0
142
0.0
 63
   250
361
14E
  0
ENDTAB
  0
TABLE
  2
LTYPE
  5
E7
330
0
100
AcDbSymbolTable
 70
    48
  0
LTYPE
  5
F5
330
E7
100
AcDbSymbolTableRecord
100
AcDbLinetypeTableRecord
  2
ByBlock
 70
     0
  3

 72
    65
 73
     0
 40
0.0
  0
LTYPE
  5
F6
330
E7
100
AcDbSymbolTableRecord
100
AcDbLinetypeTableRecord
  2
ByLayer
 70
     0
  3

 72
    65
 73
     0
 40
0.0
  0
LTYPE
  5
F7
330
E7
100
AcDbSymbolTableRecord
100
AcDbLinetypeTableRecord
  2
Continuous
 70
     0
  3
Solid line
 72
    65
 73
     0
 40
0.0
  0
LTYPE
  5
180
330
E7
100
AcDbSymbolTableRecord
100
AcDbLinetypeTableRecord
  2
ACAD_ISO02W100
 70
     0
  3
ISO dash __ __ __ __ __ __ __ __ __ __ __ __ __
 72
    65
 73
     2
 40
15.0
 49
12.0
 74
     0
 49
-3.0
 74
     0
  0
LTYPE
  5
181
330
E7
100
AcDbSymbolTableRecord
100
AcDbLinetypeTableRecord
  2
ACAD_ISO03W100
 70
     0
  3
ISO dash space __    __    __    __    __    __
 72
    65
 73
     2
 40
30.0
 49
12.0
 74
     0
 49
-18.0
 74
     0
  0
LTYPE
  5
182
330
E7
100
AcDbSymbolTableRecord
100
AcDbLinetypeTableRecord
  2
ACAD_ISO04W100
 70
     0
  3
ISO long-dash dot ____ . ____ . ____ . ____ . _
 72
    65
 73
     4
 40
30.0
 49
24.0
 74
     0
 49
-3.0
 74
     0
 49
0.0
 74
     0
 49
-3.0
 74
     0
  0
LTYPE
  5
183
330
E7
100
AcDbSymbolTableRecord
100
AcDbLinetypeTableRecord
  2
ACAD_ISO05W100
 70
     0
  3
ISO long-dash double-dot ____ .. ____ .. ____ . 
 72
    65
 73
     6
 40
33.0
 49
24.0
 74
     0
 49
-3.0
 74
     0
 49
0.0
 74
     0
 49
-3.0
 74
     0
 49
0.0
 74
     0
 49
-3.0
 74
     0
  0
LTYPE
  5
184
330
E7
100
AcDbSymbolTableRecord
100
AcDbLinetypeTableRecord
  2
ACAD_ISO06W100
 70
     0
  3
ISO long-dash triple-dot ____ ... ____ ... ____
 72
    65
 73
     8
 40
36.0
 49
24.0
 74
     0
 49
-3.0
 74
     0
 49
0.0
 74
     0
 49
-3.0
 74
     0
 49
0.0
 74
     0
 49
-3.0
 74
     0
 49
0.0
 74
     0
 49
-3.0
 74
     0
  0
LTYPE
  5
185
330
E7
100
AcDbSymbolTableRecord
100
AcDbLinetypeTableRecord
  2
ACAD_ISO07W100
 70
     0
  3
ISO dot . . . . . . . . . . . . . . . . . . . . 
 72
    65
 73
     2
 40
3.0
 49
0.0
 74
     0
 49
-3.0
 74
     0
  0
LTYPE
  5
186
330
E7
100
AcDbSymbolTableRecord
100
AcDbLinetypeTableRecord
  2
ACAD_ISO08W100
 70
     0
  3
ISO long-dash short-dash ____ __ ____ __ ____ _
 72
    65
 73
     4
 40
36.0
 49
24.0
 74
     0
 49
-3.0
 74
     0
 49
6.0
 74
     0
 49
-3.0
 74
     0
  0
LTYPE
  5
187
330
E7
100
AcDbSymbolTableRecord
100
AcDbLinetypeTableRecord
  2
ACAD_ISO09W100
 70
     0
  3
ISO long-dash double-short-dash ____ __ __ ____
 72
    65
 73
     6
 40
45.0
 49
24.0
 74
     0
 49
-3.0
 74
     0
 49
6.0
 74
     0
 49
-3.0
 74
     0
 49
6.0
 74
     0
 49
-3.0
 74
     0
  0
LTYPE
  5
188
330
E7
100
AcDbSymbolTableRecord
100
AcDbLinetypeTableRecord
  2
ACAD_ISO10W100
 70
     0
  3
ISO dash dot __ . __ . __ . __ . __ . __ . __ . 
 72
    65
 73
     4
 40
18.0
 49
12.0
 74
     0
 49
-3.0
 74
     0
 49
0.0
 74
     0
 49
-3.0
 74
     0
  0
LTYPE
  5
189
330
E7
100
AcDbSymbolTableRecord
100
AcDbLinetypeTableRecord
  2
ACAD_ISO11W100
 70
     0
  3
ISO double-dash dot __ __ . __ __ . __ __ . __ _
 72
    65
 73
     6
 40
33.0
 49
12.0
 74
     0
 49
-3.0
 74
     0
 49
12.0
 74
     0
 49
-3.0
 74
     0
 49
0.0
 74
     0
 49
-3.0
 74
     0
  0
LTYPE
  5
18A
330
E7
100
AcDbSymbolTableRecord
100
AcDbLinetypeTableRecord
  2
ACAD_ISO12W100
 70
     0
  3
ISO dash double-dot __ . . __ . . __ . . __ . . 
 72
    65
 73
     6
 40
21.0
 49
12.0
 74
     0
 49
-3.0
 74
     0
 49
0.0
 74
     0
 49
-3.0
 74
     0
 49
0.0
 74
     0
 49
-3.0
 74
     0
  0
LTYPE
  5
18B
330
E7
100
AcDbSymbolTableRecord
100
AcDbLinetypeTableRecord
  2
ACAD_ISO13W100
 70
     0
  3
ISO double-dash double-dot __ __ . . __ __ . . _
 72
    65
 73
     8
 40
36.0
 49
12.0
 74
     0
 49
-3.0
 74
     0
 49
12.0
 74
     0
 49
-3.0
 74
     0
 49
0.0
 74
     0
 49
-3.0
 74
     0
 49
0.0
 74
     0
 49
-3.0
 74
     0
  0
LTYPE
  5
18C
330
E7
100
AcDbSymbolTableRecord
100
AcDbLinetypeTableRecord
  2
ACAD_ISO14W100
 70
     0
  3
ISO dash triple-dot __ . . . __ . . . __ . . . _
 72
    65
 73
     8
 40
24.0
 49
12.0
 74
     0
 49
-3.0
 74
     0
 49
0.0
 74
     0
 49
-3.0
 74
     0
 49
0.0
 74
     0
 49
-3.0
 74
     0
 49
0.0
 74
     0
 49
-3.0
 74
     0
  0
LTYPE
  5
18D
330
E7
100
AcDbSymbolTableRecord
100
AcDbLinetypeTableRecord
  2
ACAD_ISO15W100
 70
     0
  3
ISO double-dash triple-dot __ __ . . . __ __ . .
 72
    65
 73
    10
 40
39.0
 49
12.0
 74
     0
 49
-3.0
 74
     0
 49
12.0
 74
     0
 49
-3.0
 74
     0
 49
0.0
 74
     0
 49
-3.0
 74
     0
 49
0.0
 74
     0
 49
-3.0
 74
     0
 49
0.0
 74
     0
 49
-3.0
 74
     0
  0
LTYPE
  5
190
330
E7
100
AcDbSymbolTableRecord
100
AcDbLinetypeTableRecord
  2
BATTING
 70
     0
  3
Batting SSSSSSSSSSSSSSSSSSSSSSSSSSSSSSSSSSSSSSSSSSSSSSS
 72
    65
 73
     4
 40
10.16254
 49
0.00254
 74
     0
 49
-2.54
 74
     2
 75
     0
340
18E
 46
2.54
 50
0.0
 44
-2.54
 45
0.0
  9
BAT
 49
-5.08
 74
     2
 75
     0
340
18F
 46
2.54
 50
180.0
 44
2.54
 45
0.0
  9
BAT
 49
-2.54
 74
     0
  0
LTYPE
  5
191
330
E7
100
AcDbSymbolTableRecord
100
AcDbLinetypeTableRecord
  2
BORDER
 70
     0
  3
Border __ __ . __ __ . __ __ . __ __ . __ __ .
 72
    65
 73
     6
 40
44.45
 49
12.7
 74
     0
 49
-6.35
 74
     0
 49
12.7
 74
     0
 49
-6.35
 74
     0
 49
0.0
 74
     0
 49
-6.35
 74
     0
  0
LTYPE
  5
192
330
E7
100
AcDbSymbolTableRecord
100
AcDbLinetypeTableRecord
  2
BORDER2
 70
     0
  3
Border (.5x) __.__.__.__.__.__.__.__.__.__.__.
 72
    65
 73
     6
 40
22.225
 49
6.35
 74
     0
 49
-3.175
 74
     0
 49
6.35
 74
     0
 49
-3.175
 74
     0
 49
0.0
 74
     0
 49
-3.175
 74
     0
  0
LTYPE
  5
193
330
E7
100
AcDbSymbolTableRecord
100
AcDbLinetypeTableRecord
  2
BORDERX2
 70
     0
  3
Border (2x) ____  ____  .  ____  ____  .  ___
 72
    65
 73
     6
 40
88.89999999999999
 49
25.4
 74
     0
 49
-12.7
 74
     0
 49
25.4
 74
     0
 49
-12.7
 74
     0
 49
0.0
 74
     0
 49
-12.7
 74
     0
  0
LTYPE
  5
194
330
E7
100
AcDbSymbolTableRecord
100
AcDbLinetypeTableRecord
  2
CENTER
 70
     0
  3
Center ____ _ ____ _ ____ _ ____ _ ____ _ ____
 72
    65
 73
     4
 40
50.8
 49
31.75
 74
     0
 49
-6.35
 74
     0
 49
6.35
 74
     0
 49
-6.35
 74
     0
  0
LTYPE
  5
195
330
E7
100
AcDbSymbolTableRecord
100
AcDbLinetypeTableRecord
  2
CENTER2
 70
     0
  3
Center (.5x) ___ _ ___ _ ___ _ ___ _ ___ _ ___
 72
    65
 73
     4
 40
28.575
 49
19.05
 74
     0
 49
-3.175
 74
     0
 49
3.175
 74
     0
 49
-3.175
 74
     0
  0
LTYPE
  5
196
330
E7
100
AcDbSymbolTableRecord
100
AcDbLinetypeTableRecord
  2
CENTERX2
 70
     0
  3
Center (2x) ________  __  ________  __  _____
 72
    65
 73
     4
 40
101.6
 49
63.5
 74
     0
 49
-12.7
 74
     0
 49
12.7
 74
     0
 49
-12.7
 74
     0
  0
LTYPE
  5
197
330
E7
100
AcDbSymbolTableRecord
100
AcDbLinetypeTableRecord
  2
DASHDOT
 70
     0
  3
Dash dot __ . __ . __ . __ . __ . __ . __ . __
 72
    65
 73
     4
 40
25.4
 49
12.7
 74
     0
 49
-6.35
 74
     0
 49
0.0
 74
     0
 49
-6.35
 74
     0
  0
LTYPE
  5
198
330
E7
100
AcDbSymbolTableRecord
100
AcDbLinetypeTableRecord
  2
DASHDOT2
 70
     0
  3
Dash dot (.5x) _._._._._._._._._._._._._._._.
 72
    65
 73
     4
 40
12.7
 49
6.35
 74
     0
 49
-3.175
 74
     0
 49
0.0
 74
     0
 49
-3.175
 74
     0
  0
LTYPE
  5
199
330
E7
100
AcDbSymbolTableRecord
100
AcDbLinetypeTableRecord
  2
DASHDOTX2
 70
     0
  3
Dash dot (2x) ____  .  ____  .  ____  .  ___
 72
    65
 73
     4
 40
50.8
 49
25.4
 74
     0
 49
-12.7
 74
     0
 49
0.0
 74
     0
 49
-12.7
 74
     0
  0
LTYPE
  5
19A
330
E7
100
AcDbSymbolTableRecord
100
AcDbLinetypeTableRecord
  2
DASHED
 70
     0
  3
Dashed __ __ __ __ __ __ __ __ __ __ __ __ __ _
 72
    65
 73
     2
 40
19.05
 49
12.7
 74
     0
 49
-6.35
 74
     0
  0
LTYPE
  5
19B
330
E7
100
AcDbSymbolTableRecord
100
AcDbLinetypeTableRecord
  2
DASHED2
 70
     0
  3
Dashed (.5x) _ _ _ _ _ _ _ _ _ _ _ _ _ _ _ _ _ 
 72
    65
 73
     2
 40
9.524999999999999
 49
6.35
 74
     0
 49
-3.175
 74
     0
  0
LTYPE
  5
19C
330
E7
100
AcDbSymbolTableRecord
100
AcDbLinetypeTableRecord
  2
DASHEDX2
 70
     0
  3
Dashed (2x) ____  ____  ____  ____  ____  ___
 72
    65
 73
     2
 40
38.09999999999999
 49
25.4
 74
     0
 49
-12.7
 74
     0
  0
LTYPE
  5
19D
330
E7
100
AcDbSymbolTableRecord
100
AcDbLinetypeTableRecord
  2
DIVIDE
 70
     0
  3
Divide ____ . . ____ . . ____ . . ____ . . ____
 72
    65
 73
     6
 40
31.75
 49
12.7
 74
     0
 49
-6.35
 74
     0
 49
0.0
 74
     0
 49
-6.35
 74
     0
 49
0.0
 74
     0
 49
-6.35
 74
     0
  0
LTYPE
  5
19E
330
E7
100
AcDbSymbolTableRecord
100
AcDbLinetypeTableRecord
  2
DIVIDE2
 70
     0
  3
Divide (.5x) __..__..__..__..__..__..__..__.._
 72
    65
 73
     6
 40
15.875
 49
6.35
 74
     0
 49
-3.175
 74
     0
 49
0.0
 74
     0
 49
-3.175
 74
     0
 49
0.0
 74
     0
 49
-3.175
 74
     0
  0
LTYPE
  5
19F
330
E7
100
AcDbSymbolTableRecord
100
AcDbLinetypeTableRecord
  2
DIVIDEX2
 70
     0
  3
Divide (2x) ________  .  .  ________  .  .  _
 72
    65
 73
     6
 40
63.5
 49
25.4
 74
     0
 49
-12.7
 74
     0
 49
0.0
 74
     0
 49
-12.7
 74
     0
 49
0.0
 74
     0
 49
-12.7
 74
     0
  0
LTYPE
  5
1A0
330
E7
100
AcDbSymbolTableRecord
100
AcDbLinetypeTableRecord
  2
DOT
 70
     0
  3
Dot . . . . . . . . . . . . . . . . . . . . . . . .
 72
    65
 73
     2
 40
6.35
 49
0.0
 74
     0
 49
-6.35
 74
     0
  0
LTYPE
  5
1A1
330
E7
100
AcDbSymbolTableRecord
100
AcDbLinetypeTableRecord
  2
DOT2
 70
     0
  3
Dot (.5x) ........................................
 72
    65
 73
     2
 40
3.175
 49
0.0
 74
     0
 49
-3.175
 74
     0
  0
LTYPE
  5
1A2
330
E7
100
AcDbSymbolTableRecord
100
AcDbLinetypeTableRecord
  2
DOTX2
 70
     0
  3
Dot (2x) .  .  .  .  .  .  .  .  .  .  .  .  .  .
 72
    65
 73
     2
 40
12.7
 49
0.0
 74
     0
 49
-12.7
 74
     0
  0
LTYPE
  5
1A4
330
E7
100
AcDbSymbolTableRecord
100
AcDbLinetypeTableRecord
  2
DRAINAGE
 70
     0
  3
Drainage ---->---->---->----
 72
    65
 73
     2
 40
10.16
 49
5.08
 74
     2
 75
     0
340
1A3
 46
2.54
 50
180.0
 44
0.0
 45
0.0
  9
RIGHT_ARROW
 49
5.08
 74
     0
  0
LTYPE
  5
1A6
330
E7
100
AcDbSymbolTableRecord
100
AcDbLinetypeTableRecord
  2
DRAINAGE2
 70
     0
  3
Drainage reversed----<----<----<----
 72
    65
 73
     2
 40
10.16
 49
5.08
 74
     2
 75
     0
340
1A5
 46
2.54
 50
0.0
 44
0.0
 45
0.0
  9
RIGHT_ARROW
 49
5.08
 74
     0
  0
LTYPE
  5
1A8
330
E7
100
AcDbSymbolTableRecord
100
AcDbLinetypeTableRecord
  2
FENCELINE1
 70
     0
  3
Fenceline circle ----0-----0----0-----0----0-----0--
 72
    65
 73
     4
 40
36.83
 49
6.35
 74
     0
 49
-2.54
 74
     2
 75
     0
340
1A7
 46
2.54
 50
0.0
 44
-2.54
 45
0.0
  9
CIRC1
 49
-2.54
 74
     0
 49
25.4
 74
     0
  0
LTYPE
  5
1AA
330
E7
100
AcDbSymbolTableRecord
100
AcDbLinetypeTableRecord
  2
FENCELINE2
 70
     0
  3
Fenceline square ----[]-----[]----[]-----[]----[]---
 72
    65
 73
     4
 40
36.83
 49
6.35
 74
     0
 49
-2.54
 74
     2
 75
     0
340
1A9
 46
2.54
 50
0.0
 44
-2.54
 45
0.0
  9
BOX
 49
-2.54
 74
     0
 49
25.4
 74
     0
  0
LTYPE
  5
1AC
330
E7
100
AcDbSymbolTableRecord
100
AcDbLinetypeTableRecord
  2
GAS_LINE
 70
     0
  3
Gas line ----GAS----GAS----GAS----GAS----GAS----GAS--
 72
    65
 73
     3
 40
24.13
 49
12.7
 74
     0
 49
-5.08
 74
     2
 75
     0
340
1AB
 46
2.54
 50
0.0
 44
-2.54
 45
-1.27
  9
GAS
 49
-6.35
 74
     0
  0
LTYPE
  5
1AD
330
E7
100
AcDbSymbolTableRecord
100
AcDbLinetypeTableRecord
  2
HIDDEN
 70
     0
  3
Hidden __ __ __ __ __ __ __ __ __ __ __ __ __ __
 72
    65
 73
     2
 40
9.524999999999999
 49
6.35
 74
     0
 49
-3.175
 74
     0
  0
LTYPE
  5
1AE
330
E7
100
AcDbSymbolTableRecord
100
AcDbLinetypeTableRecord
  2
HIDDEN2
 70
     0
  3
Hidden (.5x) _ _ _ _ _ _ _ _ _ _ _ _ _ _ _ _ _ 
 72
    65
 73
     2
 40
4.762499999999999
 49
3.175
 74
     0
 49
-1.5875
 74
     0
  0
LTYPE
  5
1AF
330
E7
100
AcDbSymbolTableRecord
100
AcDbLinetypeTableRecord
  2
HIDDENX2
 70
     0
  3
Hidden (2x) ____ ____ ____ ____ ____ ____ ____ 
 72
    65
 73
     2
 40
19.05
 49
12.7
 74
     0
 49
-6.35
 74
     0
  0
LTYPE
  5
1B1
330
E7
100
AcDbSymbolTableRecord
100
AcDbLinetypeTableRecord
  2
HOT_WATER_SUPPLY
 70
     0
  3
Hot water supply ---- HW ---- HW ---- HW ----
 72
    65
 73
     3
 40
22.86
 49
12.7
 74
     0
 49
-5.08
 74
     2
 75
     0
340
1B0
 46
2.54
 50
0.0
 44
-2.54
 45
-1.27
  9
HW
 49
-5.08
 74
     0
  0
LTYPE
  5
1B2
330
E7
100
AcDbSymbolTableRecord
100
AcDbLinetypeTableRecord
  2
PHANTOM
 70
     0
  3
Phantom ______  __  __  ______  __  __  ______ 
 72
    65
 73
     6
 40
63.50000000000001
 49
31.75
 74
     0
 49
-6.35
 74
     0
 49
6.35
 74
     0
 49
-6.35
 74
     0
 49
6.35
 74
     0
 49
-6.35
 74
     0
  0
LTYPE
  5
1B3
330
E7
100
AcDbSymbolTableRecord
100
AcDbLinetypeTableRecord
  2
PHANTOM2
 70
     0
  3
Phantom (.5x) ___ _ _ ___ _ _ ___ _ _ ___ _ _
 72
    65
 73
     6
 40
31.75
 49
15.875
 74
     0
 49
-3.175
 74
     0
 49
3.175
 74
     0
 49
-3.175
 74
     0
 49
3.175
 74
     0
 49
-3.175
 74
     0
  0
LTYPE
  5
1B4
330
E7
100
AcDbSymbolTableRecord
100
AcDbLinetypeTableRecord
  2
PHANTOMX2
 70
     0
  3
Phantom (2x) ____________    ____    ____   _
 72
    65
 73
     6
 40
127.0
 49
63.5
 74
     0
 49
-12.7
 74
     0
 49
12.7
 74
     0
 49
-12.7
 74
     0
 49
12.7
 74
     0
 49
-12.7
 74
     0
  0
LTYPE
  5
1B6
330
E7
100
AcDbSymbolTableRecord
100
AcDbLinetypeTableRecord
  2
TRACKS
 70
     0
  3
Tracks -|-|-|-|-|-|-|-|-|-|-|-|-|-|-|-|-|-|-|-|-|-|-|-|-
 72
    65
 73
     2
 40
7.62
 49
3.81
 74
     2
 75
     0
340
1B5
 46
6.35
 50
0.0
 44
0.0
 45
0.0
  9
TRACK1
 49
3.81
 74
     0
  0
LTYPE
  5
1B9
330
E7
100
AcDbSymbolTableRecord
100
AcDbLinetypeTableRecord
  2
ZIGZAG
 70
     0
  3
Zig zag /\/\/\/\/\/\/\/\/\/\/\/\/\/\/\/\/\/\/\/\/\/\/\/
 72
    65
 73
     4
 40
20.32254
 49
0.00254
 74
     0
 49
-5.08
 74
     2
 75
     0
340
1B7
 46
5.08
 50
0.0
 44
-5.08
 45
0.0
  9
ZIG
 49
-10.16
 74
     2
 75
     0
340
1B8
 46
5.08
 50
180.0
 44
5.08
 45
0.0
  9
ZIG
 49
-5.08
 74
     0
  0
ENDTAB
  0
TABLE
  2
LAYER
  5
E4
330
0
100
AcDbSymbolTable
 70
     6
  0
LAYER
  5
F2
330
E4
100
AcDbSymbolTableRecord
100
AcDbLayerTableRecord
  2
0
 70
     0
 62
     7
420
 16777215
  6
Continuous
370
    25
390
F1
347
127
348
0
  0
LAYER
  5
1BA
330
E4
100
AcDbSymbolTableRecord
100
AcDbLayerTableRecord
  2
pointillés
 70
     0
 62
   178
420
        0
  6
ACAD_ISO02W100
370
    25
390
F1
347
127
348
0
  0
LAYER
  5
1BB
330
E4
100
AcDbSymbolTableRecord
100
AcDbLayerTableRecord
  2
Axes
 70
     0
 62
   178
420
        0
  6
ACAD_ISO04W100
370
    18
390
F1
347
127
348
0
  0
LAYER
  5
1BC
330
E4
100
AcDbSymbolTableRecord
100
AcDbLayerTableRecord
  2
support
 70
     0
 62
   178
420
        0
  6
Continuous
370
    25
390
F1
347
127
348
0
  0
LAYER
  5
1BD
330
E4
100
AcDbSymbolTableRecord
100
AcDbLayerTableRecord
  2
Cotations
 70
     0
 62
   178
420
        0
  6
Continuous
370
    18
390
F1
347
127
348
0
  0
LAYER
  5
1BE
330
E4
100
AcDbSymbolTableRecord
100
AcDbLayerTableRecord
  2
Defpoints
 70
     0
 62
     7
  6
Continuous
290
     0
370
    -3
390
F1
347
127
348
0
  0
ENDTAB
  0
TABLE
  2
STYLE
  5
E5
330
0
100
AcDbSymbolTable
 70
    15
  0
STYLE
  5
F3
330
E5
100
AcDbSymbolTableRecord
100
AcDbTextStyleTableRecord
  2
Standard
 70
     0
 40
0.0
 41
1.0
 50
0.0
 71
     0
 42
0.2
  3
txt
  4

  0
STYLE
  5
18E
330
E5
100
AcDbSymbolTableRecord
100
AcDbTextStyleTableRecord
  2
textstyle0
 70
     0
 40
0.0
 41
1.0
 50
0.0
 71
     0
 42
0.2
  3
ltypeshp.shx
  4

  0
STYLE
  5
18F
330
E5
100
AcDbSymbolTableRecord
100
AcDbTextStyleTableRecord
  2
textstyle1
 70
     0
 40
0.0
 41
1.0
 50
0.0
 71
     0
 42
0.2
  3
ltypeshp.shx
  4

  0
STYLE
  5
1A3
330
E5
100
AcDbSymbolTableRecord
100
AcDbTextStyleTableRecord
  2
textstyle2
 70
     0
 40
0.0
 41
1.0
 50
0.0
 71
     0
 42
0.2
  3
qcadshp.shx
  4

  0
STYLE
  5
1A5
330
E5
100
AcDbSymbolTableRecord
100
AcDbTextStyleTableRecord
  2
textstyle3
 70
     0
 40
0.0
 41
1.0
 50
0.0
 71
     0
 42
0.2
  3
qcadshp.shx
  4

  0
STYLE
  5
1A7
330
E5
100
AcDbSymbolTableRecord
100
AcDbTextStyleTableRecord
  2
textstyle4
 70
     0
 40
0.0
 41
1.0
 50
0.0
 71
     0
 42
0.2
  3
ltypeshp.shx
  4

  0
STYLE
  5
1A9
330
E5
100
AcDbSymbolTableRecord
100
AcDbTextStyleTableRecord
  2
textstyle5
 70
     0
 40
0.0
 41
1.0
 50
0.0
 71
     0
 42
0.2
  3
ltypeshp.shx
  4

  0
STYLE
  5
1AB
330
E5
100
AcDbSymbolTableRecord
100
AcDbTextStyleTableRecord
  2
textstyle6
 70
     0
 40
0.0
 41
1.0
 50
0.0
 71
     0
 42
0.2
  3
STANDARD
  4

  0
STYLE
  5
1B0
330
E5
100
AcDbSymbolTableRecord
100
AcDbTextStyleTableRecord
  2
textstyle7
 70
     0
 40
0.0
 41
1.0
 50
0.0
 71
     0
 42
0.2
  3
STANDARD
  4

  0
STYLE
  5
1B5
330
E5
100
AcDbSymbolTableRecord
100
AcDbTextStyleTableRecord
  2
textstyle8
 70
     0
 40
0.0
 41
1.0
 50
0.0
 71
     0
 42
0.2
  3
ltypeshp.shx
  4

  0
STYLE
  5
1B7
330
E5
100
AcDbSymbolTableRecord
100
AcDbTextStyleTableRecord
  2
textstyle9
 70
     0
 40
0.0
 41
1.0
 50
0.0
 71
     0
 42
0.2
  3
ltypeshp.shx
  4

  0
STYLE
  5
1B8
330
E5
100
AcDbSymbolTableRecord
100
AcDbTextStyleTableRecord
  2
textstyle10
 70
     0
 40
0.0
 41
1.0
 50
0.0
 71
     0
 42
0.2
  3
ltypeshp.shx
  4

  0
STYLE
  5
1D7
330
E5
100
AcDbSymbolTableRecord
100
AcDbTextStyleTableRecord
  2
textstyle11
 70
     0
 40
0.0
 41
1.0
 50
0.0
 71
     0
 42
0.2
  3

  4

1001
ACAD
1000
Helvetica
1071
        0
  0
STYLE
  5
1D8
330
E5
100
AcDbSymbolTableRecord
100
AcDbTextStyleTableRecord
  2
textstyle12
 70
     0
 40
0.0
 41
1.0
 50
0.0
 71
     0
 42
0.2
  3

  4

1001
ACAD
1000
Helvetica
1071
        0
  0
STYLE
  5
223
330
E5
100
AcDbSymbolTableRecord
100
AcDbTextStyleTableRecord
  2
textstyle13
 70
     0
 40
0.0
 41
1.0
 50
0.0
 71
     0
 42
0.2
  3

  4

1001
ACAD
1000
Helvetica
1071
        0
  0
ENDTAB
  0
TABLE
  2
VIEW
  5
E8
330
0
100
AcDbSymbolTable
 70
     0
  0
ENDTAB
  0
TABLE
  2
UCS
  5
E9
330
0
100
AcDbSymbolTable
 70
     0
  0
ENDTAB
  0
TABLE
  2
APPID
  5
EB
330
0
100
AcDbSymbolTable
 70
     2
  0
APPID
  5
F4
330
EB
100
AcDbSymbolTableRecord
100
AcDbRegAppTableRecord
  2
ACAD
 70
     0
  0
APPID
  5
14F
330
EB
100
AcDbSymbolTableRecord
100
AcDbRegAppTableRecord
  2
QCAD
 70
     0
  0
ENDTAB
  0
TABLE
  2
DIMSTYLE
  5
EC
330
0
100
AcDbSymbolTable
 70
     2
100
AcDbDimStyleTable
  0
DIMSTYLE
105
108
330
EC
100
AcDbSymbolTableRecord
100
AcDbDimStyleTableRecord
  2
Standard
 70
     0
178
     0
340
F3
  0
DIMSTYLE
105
17F
102
{ACAD_REACTORS
330
B4
330
B5
330
B7
330
B8
330
B9
330
BA
330
BC
330
BD
330
DB
330
DC
102
}
330
EC
100
AcDbSymbolTableRecord
100
AcDbDimStyleTableRecord
  2
QCADDimStyle
 70
     0
 41
2.5
 42
0.625
 44
1.25
 73
     0
 77
     1
140
2.5
147
0.625
178
     0
340
F3
  0
ENDTAB
  0
TABLE
  2
BLOCK_RECORD
  5
E3
330
0
100
AcDbSymbolTable
 70
    11
  0
BLOCK_RECORD
  5
100
330
E3
100
AcDbSymbolTableRecord
100
AcDbBlockTableRecord
  2
*Model_Space
340
103
 70
     0
280
     1
281
     0
  0
BLOCK_RECORD
  5
FC
330
E3
100
AcDbSymbolTableRecord
100
AcDbBlockTableRecord
  2
*Paper_Space
340
FF
 70
     0
280
     1
281
     0
  0
BLOCK_RECORD
  5
104
330
E3
100
AcDbSymbolTableRecord
100
AcDbBlockTableRecord
  2
*Paper_Space0
340
107
 70
     0
280
     1
281
     0
  0
BLOCK_RECORD
  5
1BF
330
E3
100
AcDbSymbolTableRecord
100
AcDbBlockTableRecord
  2
*D1
340
0
 70
     0
280
     1
281
     0
  0
BLOCK_RECORD
  5
1CB
330
E3
100
AcDbSymbolTableRecord
100
AcDbBlockTableRecord
  2
*D2
340
0
 70
     0
280
     1
281
     0
  0
BLOCK_RECORD
  5
1D9
330
E3
100
AcDbSymbolTableRecord
100
AcDbBlockTableRecord
  2
*D3
340
0
 70
     0
280
     1
281
     0
  0
BLOCK_RECORD
  5
1E5
330
E3
100
AcDbSymbolTableRecord
100
AcDbBlockTableRecord
  2
*D4
340
0
 70
     0
280
     1
281
     0
  0
BLOCK_RECORD
  5
1F1
330
E3
100
AcDbSymbolTableRecord
100
AcDbBlockTableRecord
  2
*D5
340
0
 70
     0
280
     1
281
     0
  0
BLOCK_RECORD
  5
1FE
330
E3
100
AcDbSymbolTableRecord
100
AcDbBlockTableRecord
  2
*D6
340
0
 70
     0
280
     1
281
     0
  0
BLOCK_RECORD
  5
20B
330
E3
100
AcDbSymbolTableRecord
100
AcDbBlockTableRecord
  2
*D7
340
0
 70
     0
280
     1
281
     0
  0
BLOCK_RECORD
  5
217
330
E3
100
AcDbSymbolTableRecord
100
AcDbBlockTableRecord
  2
*D8
340
0
 70
     0
280
     1
281
     0
  0
BLOCK_RECORD
  5
224
330
E3
100
AcDbSymbolTableRecord
100
AcDbBlockTableRecord
  2
*D9
340
0
 70
     0
280
     1
281
     0
  0
BLOCK_RECORD
  5
230
330
E3
100
AcDbSymbolTableRecord
100
AcDbBlockTableRecord
  2
*D10
340
0
 70
     0
280
     1
281
     0
  0
ENDTAB
  0
ENDSEC
  0
SECTION
  2
BLOCKS
  0
BLOCK
  5
101
330
100
100
AcDbEntity
  8
0
100
AcDbBlockBegin
  2
*Model_Space
 70
     0
 10
0.0
 20
0.0
 30
0.0
  3
*Model_Space
  1
*Model_Space
  0
ENDBLK
  5
102
330
100
100
AcDbEntity
  8
0
100
AcDbBlockEnd
  0
BLOCK
  5
FD
330
FC
100
AcDbEntity
 67
     1
  8
0
100
AcDbBlockBegin
  2
*Paper_Space
 70
     0
 10
0.0
 20
0.0
 30
0.0
  3
*Paper_Space
  1
*Paper_Space
  0
ENDBLK
  5
FE
330
FC
100
AcDbEntity
 67
     1
  8
0
100
AcDbBlockEnd
  0
BLOCK
  5
105
330
104
100
AcDbEntity
  8
0
100
AcDbBlockBegin
  2
*Paper_Space0
 70
     0
 10
0.0
 20
0.0
 30
0.0
  3
*Paper_Space0
  1
*Paper_Space0
  0
ENDBLK
  5
106
330
104
100
AcDbEntity
  8
0
100
AcDbBlockEnd
  0
BLOCK
  5
1C0
330
1BF
100
AcDbEntity
  8
0
100
AcDbBlockBegin
  2
*D1
 70
     1
 10
0.0
 20
0.0
 30
0.0
  3
*D1
  1
*D1
  0
LINE
  5
1C2
330
1BF
100
AcDbEntity
  8
Cotations
 62
     0
370
    -2
100
AcDbLine
 10
-24.79999999999999
 20
18.625
 30
0.0
 11
-24.79999999999999
 21
30.58192904927472
 31
0.0
  0
LINE
  5
1C3
330
1BF
100
AcDbEntity
  8
Cotations
 62
     0
370
    -2
100
AcDbLine
 10
-9.799999999999994
 20
18.625
 30
0.0
 11
-9.799999999999994
 21
30.58192904927472
 31
0.0
  0
LINE
  5
1C4
330
1BF
100
AcDbEntity
  8
Cotations
 62
     0
370
    -2
100
AcDbLine
 10
-22.29999999999999
 20
29.33192904927472
 30
0.0
 11
-12.29999999999999
 21
29.33192904927472
 31
0.0
  0
SOLID
  5
1C5
330
1BF
100
AcDbEntity
  8
Cotations
 62
     0
100
AcDbTrace
 10
-22.29999999999999
 20
29.74859571594139
 30
0.0
 11
-22.29999999999999
 21
28.91526238260805
 31
0.0
 12
-24.79999999999999
 22
29.33192904927472
 32
0.0
 13
-24.79999999999999
 23
29.33192904927472
 33
0.0
  0
SOLID
  5
1C6
330
1BF
100
AcDbEntity
  8
Cotations
 62
     0
100
AcDbTrace
 10
-12.29999999999999
 20
28.91526238260805
 30
0.0
 11
-12.29999999999999
 21
29.74859571594139
 31
0.0
 12
-9.799999999999994
 22
29.33192904927472
 32
0.0
 13
-9.799999999999994
 23
29.33192904927472
 33
0.0
  0
MTEXT
  5
1C7
330
1BF
100
AcDbEntity
  8
Cotations
 62
     0
100
AcDbMText
 10
-17.29999999999999
 20
31.20692904927472
 30
0.0
 40
2.5
 41
0.0
 46
0.0
 71
     5
 72
     1
  1
\A1;15
 73
     1
 44
1.0
  0
POINT
  5
1C8
330
1BF
100
AcDbEntity
  8
Defpoints
 62
     0
100
AcDbPoint
 10
-24.79999999999999
 20
18.0
 30
0.0
  0
POINT
  5
1C9
330
1BF
100
AcDbEntity
  8
Defpoints
 62
     0
100
AcDbPoint
 10
-9.799999999999994
 20
18.0
 30
0.0
  0
POINT
  5
1CA
330
1BF
100
AcDbEntity
  8
Defpoints
 62
     0
100
AcDbPoint
 10
-9.799999999999994
 20
29.33192904927472
 30
0.0
  0
ENDBLK
  5
1C1
330
1BF
100
AcDbEntity
  8
0
100
AcDbBlockEnd
  0
BLOCK
  5
1CC
330
1CB
100
AcDbEntity
  8
0
100
AcDbBlockBegin
  2
*D2
 70
     1
 10
0.0
 20
0.0
 30
0.0
  3
*D2
  1
*D2
  0
LINE
  5
1CE
330
1CB
100
AcDbEntity
  8
Cotations
 62
     0
370
    -2
100
AcDbLine
 10
-25.42499999999999
 20
18.0
 30
0.0
 11
-37.92380764917066
 21
18.0
 31
0.0
  0
LINE
  5
1CF
330
1CB
100
AcDbEntity
  8
Cotations
 62
     0
370
    -2
100
AcDbLine
 10
-25.425
 20
-20.0
 30
0.0
 11
-37.92380764917066
 21
-20.0
 31
0.0
  0
LINE
  5
1D0
330
1CB
100
AcDbEntity
  8
Cotations
 62
     0
370
    -2
100
AcDbLine
 10
-36.67380764917066
 20
15.5
 30
0.0
 11
-36.67380764917066
 21
-17.5
 31
0.0
  0
SOLID
  5
1D1
330
1CB
100
AcDbEntity
  8
Cotations
 62
     0
100
AcDbTrace
 10
-36.25714098250399
 20
15.5
 30
0.0
 11
-37.09047431583732
 21
15.5
 31
0.0
 12
-36.67380764917066
 22
18.0
 32
0.0
 13
-36.67380764917066
 23
18.0
 33
0.0
  0
SOLID
  5
1D2
330
1CB
100
AcDbEntity
  8
Cotations
 62
     0
100
AcDbTrace
 10
-37.09047431583732
 20
-17.5
 30
0.0
 11
-36.25714098250399
 21
-17.5
 31
0.0
 12
-36.67380764917066
 22
-20.0
 32
0.0
 13
-36.67380764917066
 23
-20.0
 33
0.0
  0
MTEXT
  5
1D3
330
1CB
100
AcDbEntity
  8
Cotations
 62
     0
100
AcDbMText
 10
-38.54880764917066
 20
-0.9999999999999982
 30
0.0
 40
2.5
 41
0.0
 46
0.0
 71
     5
 72
     1
  1
\A1;38
 11
0.0
 21
1.0
 31
0.0
 73
     1
 44
1.0
  0
POINT
  5
1D4
330
1CB
100
AcDbEntity
  8
Defpoints
 62
     0
100
AcDbPoint
 10
-24.79999999999999
 20
18.0
 30
0.0
  0
POINT
  5
1D5
330
1CB
100
AcDbEntity
  8
Defpoints
 62
     0
100
AcDbPoint
 10
-24.8
 20
-20.0
 30
0.0
  0
POINT
  5
1D6
330
1CB
100
AcDbEntity
  8
Defpoints
 62
     0
100
AcDbPoint
 10
-36.67380764917066
 20
-20.0
 30
0.0
  0
ENDBLK
  5
1CD
330
1CB
100
AcDbEntity
  8
0
100
AcDbBlockEnd
  0
BLOCK
  5
1DA
330
1D9
100
AcDbEntity
  8
0
100
AcDbBlockBegin
  2
*D3
 70
     1
 10
0.0
 20
0.0
 30
0.0
  3
*D3
  1
*D3
  0
LINE
  5
1DC
330
1D9
100
AcDbEntity
  8
Cotations
 62
     0
370
    -2
100
AcDbLine
 10
32.73667111924134
 20
18.0
 30
0.0
 11
54.93201976698595
 21
18.0
 31
0.0
  0
LINE
  5
1DD
330
1D9
100
AcDbEntity
  8
Cotations
 62
     0
370
    -2
100
AcDbLine
 10
29.23667111924135
 20
-9.999999999999998
 30
0.0
 11
54.93201976698595
 21
-10.0
 31
0.0
  0
LINE
  5
1DE
330
1D9
100
AcDbEntity
  8
Cotations
 62
     0
370
    -2
100
AcDbLine
 10
53.68201976698595
 20
15.5
 30
0.0
 11
53.68201976698595
 21
-7.5
 31
0.0
  0
SOLID
  5
1DF
330
1D9
100
AcDbEntity
  8
Cotations
 62
     0
100
AcDbTrace
 10
54.09868643365261
 20
15.5
 30
0.0
 11
53.26535310031928
 21
15.5
 31
0.0
 12
53.68201976698595
 22
18.0
 32
0.0
 13
53.68201976698595
 23
18.0
 33
0.0
  0
SOLID
  5
1E0
330
1D9
100
AcDbEntity
  8
Cotations
 62
     0
100
AcDbTrace
 10
53.26535310031928
 20
-7.5
 30
0.0
 11
54.09868643365261
 21
-7.5
 31
0.0
 12
53.68201976698595
 22
-10.0
 32
0.0
 13
53.68201976698595
 23
-10.0
 33
0.0
  0
MTEXT
  5
1E1
330
1D9
100
AcDbEntity
  8
Cotations
 62
     0
100
AcDbMText
 10
51.80701976698595
 20
4.000000000000002
 30
0.0
 40
2.5
 41
0.0
 46
0.0
 71
     5
 72
     1
  1
\A1;28
 11
0.0
 21
1.0
 31
0.0
 73
     1
 44
1.0
  0
POINT
  5
1E2
330
1D9
100
AcDbEntity
  8
Defpoints
 62
     0
100
AcDbPoint
 10
32.11167111924134
 20
18.0
 30
0.0
  0
POINT
  5
1E3
330
1D9
100
AcDbEntity
  8
Defpoints
 62
     0
100
AcDbPoint
 10
28.61167111924135
 20
-9.999999999999998
 30
0.0
  0
POINT
  5
1E4
330
1D9
100
AcDbEntity
  8
Defpoints
 62
     0
100
AcDbPoint
 10
53.68201976698595
 20
-10.0
 30
0.0
  0
ENDBLK
  5
1DB
330
1D9
100
AcDbEntity
  8
0
100
AcDbBlockEnd
  0
BLOCK
  5
1E6
330
1E5
100
AcDbEntity
  8
0
100
AcDbBlockBegin
  2
*D4
 70
     1
 10
0.0
 20
0.0
 30
0.0
  3
*D4
  1
*D4
  0
LINE
  5
1E8
330
1E5
100
AcDbEntity
  8
Cotations
 62
     0
370
    -2
100
AcDbLine
 10
32.73667111924134
 20
18.0
 30
0.0
 11
48.69477048639305
 21
18.0
 31
0.0
  0
LINE
  5
1E9
330
1E5
100
AcDbEntity
  8
Cotations
 62
     0
370
    -2
100
AcDbLine
 10
32.73667111924134
 20
8.0
 30
0.0
 11
48.69477048639305
 21
7.999999999999998
 31
0.0
  0
LINE
  5
1EA
330
1E5
100
AcDbEntity
  8
Cotations
 62
     0
370
    -2
100
AcDbLine
 10
47.44477048639305
 20
15.5
 30
0.0
 11
47.44477048639305
 21
10.5
 31
0.0
  0
SOLID
  5
1EB
330
1E5
100
AcDbEntity
  8
Cotations
 62
     0
100
AcDbTrace
 10
47.86143715305972
 20
15.5
 30
0.0
 11
47.02810381972639
 21
15.5
 31
0.0
 12
47.44477048639305
 22
18.0
 32
0.0
 13
47.44477048639305
 23
18.0
 33
0.0
  0
SOLID
  5
1EC
330
1E5
100
AcDbEntity
  8
Cotations
 62
     0
100
AcDbTrace
 10
47.02810381972639
 20
10.5
 30
0.0
 11
47.86143715305972
 21
10.5
 31
0.0
 12
47.44477048639305
 22
7.999999999999998
 32
0.0
 13
47.44477048639305
 23
7.999999999999998
 33
0.0
  0
MTEXT
  5
1ED
330
1E5
100
AcDbEntity
  8
Cotations
 62
     0
100
AcDbMText
 10
45.56977048639305
 20
13.0
 30
0.0
 40
2.5
 41
0.0
 46
0.0
 71
     5
 72
     1
  1
\A1;10
 11
0.0
 21
1.0
 31
0.0
 73
     1
 44
1.0
  0
POINT
  5
1EE
330
1E5
100
AcDbEntity
  8
Defpoints
 62
     0
100
AcDbPoint
 10
32.11167111924134
 20
18.0
 30
0.0
  0
POINT
  5
1EF
330
1E5
100
AcDbEntity
  8
Defpoints
 62
     0
100
AcDbPoint
 10
32.11167111924134
 20
8.0
 30
0.0
  0
POINT
  5
1F0
330
1E5
100
AcDbEntity
  8
Defpoints
 62
     0
100
AcDbPoint
 10
47.44477048639305
 20
7.999999999999998
 30
0.0
  0
ENDBLK
  5
1E7
330
1E5
100
AcDbEntity
  8
0
100
AcDbBlockEnd
  0
BLOCK
  5
1F2
330
1F1
100
AcDbEntity
  8
0
100
AcDbBlockBegin
  2
*D5
 70
     1
 10
0.0
 20
0.0
 30
0.0
  3
*D5
  1
*D5
  0
LINE
  5
1F4
330
1F1
100
AcDbEntity
  8
Cotations
 62
     0
370
    -2
100
AcDbLine
 10
32.73667111924134
 20
18.0
 30
0.0
 11
42.96324412044282
 21
18.00000000000001
 31
0.0
  0
LINE
  5
1F5
330
1F1
100
AcDbEntity
  8
Cotations
 62
     0
370
    -2
100
AcDbLine
 10
29.23667111924134
 20
16.0
 30
0.0
 11
42.96324412044282
 21
16.0
 31
0.0
  0
LINE
  5
1F6
330
1F1
100
AcDbEntity
  8
Cotations
 62
     0
370
    -2
100
AcDbLine
 10
41.71324412044282
 20
20.50000000000001
 30
0.0
 11
41.71324412044282
 21
23.00000000000001
 31
0.0
  0
LINE
  5
1F7
330
1F1
100
AcDbEntity
  8
Cotations
 62
     0
370
    -2
100
AcDbLine
 10
41.71324412044282
 20
13.5
 30
0.0
 11
41.71324412044282
 21
11.0
 31
0.0
  0
SOLID
  5
1F8
330
1F1
100
AcDbEntity
  8
Cotations
 62
     0
100
AcDbTrace
 10
41.29657745377616
 20
20.50000000000001
 30
0.0
 11
42.12991078710949
 21
20.50000000000001
 31
0.0
 12
41.71324412044282
 22
18.00000000000001
 32
0.0
 13
41.71324412044282
 23
18.00000000000001
 33
0.0
  0
SOLID
  5
1F9
330
1F1
100
AcDbEntity
  8
Cotations
 62
     0
100
AcDbTrace
 10
42.12991078710949
 20
13.5
 30
0.0
 11
41.29657745377616
 21
13.5
 31
0.0
 12
41.71324412044282
 22
16.0
 32
0.0
 13
41.71324412044282
 23
16.0
 33
0.0
  0
MTEXT
  5
1FA
330
1F1
100
AcDbEntity
  8
Cotations
 62
     0
100
AcDbMText
 10
45.15074412044282
 20
17.0
 30
0.0
 40
2.5
 41
0.0
 46
0.0
 71
     5
 72
     1
  1
\A1;2
 73
     1
 44
1.0
  0
POINT
  5
1FB
330
1F1
100
AcDbEntity
  8
Defpoints
 62
     0
100
AcDbPoint
 10
32.11167111924134
 20
18.0
 30
0.0
  0
POINT
  5
1FC
330
1F1
100
AcDbEntity
  8
Defpoints
 62
     0
100
AcDbPoint
 10
28.61167111924134
 20
16.0
 30
0.0
  0
POINT
  5
1FD
330
1F1
100
AcDbEntity
  8
Defpoints
 62
     0
100
AcDbPoint
 10
41.71324412044282
 20
16.0
 30
0.0
  0
ENDBLK
  5
1F3
330
1F1
100
AcDbEntity
  8
0
100
AcDbBlockEnd
  0
BLOCK
  5
1FF
330
1FE
100
AcDbEntity
  8
0
100
AcDbBlockBegin
  2
*D6
 70
     1
 10
0.0
 20
0.0
 30
0.0
  3
*D6
  1
*D6
  0
LINE
  5
201
330
1FE
100
AcDbEntity
  8
Cotations
 62
     0
370
    -2
100
AcDbLine
 10
13.11167111924134
 20
18.625
 30
0.0
 11
13.11167111924134
 21
26.1989971223716
 31
0.0
  0
LINE
  5
202
330
1FE
100
AcDbEntity
  8
Cotations
 62
     0
370
    -2
100
AcDbLine
 10
15.11167111924134
 20
15.125
 30
0.0
 11
15.11167111924134
 21
26.1989971223716
 31
0.0
  0
LINE
  5
203
330
1FE
100
AcDbEntity
  8
Cotations
 62
     0
370
    -2
100
AcDbLine
 10
10.61167111924134
 20
24.9489971223716
 30
0.0
 11
8.111671119241343
 21
24.9489971223716
 31
0.0
  0
LINE
  5
204
330
1FE
100
AcDbEntity
  8
Cotations
 62
     0
370
    -2
100
AcDbLine
 10
17.61167111924134
 20
24.9489971223716
 30
0.0
 11
20.11167111924134
 21
24.9489971223716
 31
0.0
  0
SOLID
  5
205
330
1FE
100
AcDbEntity
  8
Cotations
 62
     0
100
AcDbTrace
 10
10.61167111924134
 20
24.53233045570493
 30
0.0
 11
10.61167111924134
 21
25.36566378903827
 31
0.0
 12
13.11167111924134
 22
24.9489971223716
 32
0.0
 13
13.11167111924134
 23
24.9489971223716
 33
0.0
  0
SOLID
  5
206
330
1FE
100
AcDbEntity
  8
Cotations
 62
     0
100
AcDbTrace
 10
17.61167111924134
 20
25.36566378903827
 30
0.0
 11
17.61167111924134
 21
24.53233045570493
 31
0.0
 12
15.11167111924134
 22
24.9489971223716
 32
0.0
 13
15.11167111924134
 23
24.9489971223716
 33
0.0
  0
MTEXT
  5
207
330
1FE
100
AcDbEntity
  8
Cotations
 62
     0
100
AcDbMText
 10
14.11167111924134
 20
28.3864971223716
 30
0.0
 40
2.5
 41
0.0
 46
0.0
 71
     5
 72
     1
  1
\A1;2
 73
     1
 44
1.0
  0
POINT
  5
208
330
1FE
100
AcDbEntity
  8
Defpoints
 62
     0
100
AcDbPoint
 10
13.11167111924134
 20
18.0
 30
0.0
  0
POINT
  5
209
330
1FE
100
AcDbEntity
  8
Defpoints
 62
     0
100
AcDbPoint
 10
15.11167111924134
 20
14.5
 30
0.0
  0
POINT
  5
20A
330
1FE
100
AcDbEntity
  8
Defpoints
 62
     0
100
AcDbPoint
 10
15.11167111924134
 20
24.9489971223716
 30
0.0
  0
ENDBLK
  5
200
330
1FE
100
AcDbEntity
  8
0
100
AcDbBlockEnd
  0
BLOCK
  5
20C
330
20B
100
AcDbEntity
  8
0
100
AcDbBlockBegin
  2
*D7
 70
     1
 10
0.0
 20
0.0
 30
0.0
  3
*D7
  1
*D7
  0
LINE
  5
20E
330
20B
100
AcDbEntity
  8
Cotations
 62
     0
370
    -2
100
AcDbLine
 10
13.11167111924134
 20
18.625
 30
0.0
 11
13.11167111924134
 21
30.9190776590365
 31
0.0
  0
LINE
  5
20F
330
20B
100
AcDbEntity
  8
Cotations
 62
     0
370
    -2
100
AcDbLine
 10
32.11167111924134
 20
18.625
 30
0.0
 11
32.11167111924134
 21
30.9190776590365
 31
0.0
  0
LINE
  5
210
330
20B
100
AcDbEntity
  8
Cotations
 62
     0
370
    -2
100
AcDbLine
 10
15.61167111924134
 20
29.6690776590365
 30
0.0
 11
29.61167111924134
 21
29.6690776590365
 31
0.0
  0
SOLID
  5
211
330
20B
100
AcDbEntity
  8
Cotations
 62
     0
100
AcDbTrace
 10
15.61167111924134
 20
30.08574432570317
 30
0.0
 11
15.61167111924134
 21
29.25241099236983
 31
0.0
 12
13.11167111924134
 22
29.6690776590365
 32
0.0
 13
13.11167111924134
 23
29.6690776590365
 33
0.0
  0
SOLID
  5
212
330
20B
100
AcDbEntity
  8
Cotations
 62
     0
100
AcDbTrace
 10
29.61167111924134
 20
29.25241099236983
 30
0.0
 11
29.61167111924134
 21
30.08574432570317
 31
0.0
 12
32.11167111924134
 22
29.6690776590365
 32
0.0
 13
32.11167111924134
 23
29.6690776590365
 33
0.0
  0
MTEXT
  5
213
330
20B
100
AcDbEntity
  8
Cotations
 62
     0
100
AcDbMText
 10
22.61167111924134
 20
31.5440776590365
 30
0.0
 40
2.5
 41
0.0
 46
0.0
 71
     5
 72
     1
  1
\A1;19
 73
     1
 44
1.0
  0
POINT
  5
214
330
20B
100
AcDbEntity
  8
Defpoints
 62
     0
100
AcDbPoint
 10
13.11167111924134
 20
18.0
 30
0.0
  0
POINT
  5
215
330
20B
100
AcDbEntity
  8
Defpoints
 62
     0
100
AcDbPoint
 10
32.11167111924134
 20
18.0
 30
0.0
  0
POINT
  5
216
330
20B
100
AcDbEntity
  8
Defpoints
 62
     0
100
AcDbPoint
 10
32.11167111924134
 20
29.6690776590365
 30
0.0
  0
ENDBLK
  5
20D
330
20B
100
AcDbEntity
  8
0
100
AcDbBlockEnd
  0
BLOCK
  5
218
330
217
100
AcDbEntity
  8
0
100
AcDbBlockBegin
  2
*D8
 70
     1
 10
0.0
 20
0.0
 30
0.0
  3
*D8
  1
*D8
  0
LINE
  5
21A
330
217
100
AcDbEntity
  8
Cotations
 62
     0
370
    -2
100
AcDbLine
 10
15.11167111924134
 20
15.125
 30
0.0
 11
15.11167111924134
 21
22.99608532963471
 31
0.0
  0
LINE
  5
21B
330
217
100
AcDbEntity
  8
Cotations
 62
     0
370
    -2
100
AcDbLine
 10
30.11167111924134
 20
15.125
 30
0.0
 11
30.11167111924134
 21
22.99608532963471
 31
0.0
  0
LINE
  5
21C
330
217
100
AcDbEntity
  8
Cotations
 62
     0
370
    -2
100
AcDbLine
 10
17.61167111924134
 20
21.74608532963471
 30
0.0
 11
27.61167111924134
 21
21.74608532963471
 31
0.0
  0
SOLID
  5
21D
330
217
100
AcDbEntity
  8
Cotations
 62
     0
100
AcDbTrace
 10
17.61167111924134
 20
22.16275199630138
 30
0.0
 11
17.61167111924134
 21
21.32941866296804
 31
0.0
 12
15.11167111924134
 22
21.74608532963471
 32
0.0
 13
15.11167111924134
 23
21.74608532963471
 33
0.0
  0
SOLID
  5
21E
330
217
100
AcDbEntity
  8
Cotations
 62
     0
100
AcDbTrace
 10
27.61167111924134
 20
21.32941866296804
 30
0.0
 11
27.61167111924134
 21
22.16275199630138
 31
0.0
 12
30.11167111924134
 22
21.74608532963471
 32
0.0
 13
30.11167111924134
 23
21.74608532963471
 33
0.0
  0
MTEXT
  5
21F
330
217
100
AcDbEntity
  8
Cotations
 62
     0
100
AcDbMText
 10
22.61167111924134
 20
23.62108532963471
 30
0.0
 40
2.5
 41
0.0
 46
0.0
 71
     5
 72
     1
  1
\A1;15
 73
     1
 44
1.0
  0
POINT
  5
220
330
217
100
AcDbEntity
  8
Defpoints
 62
     0
100
AcDbPoint
 10
15.11167111924134
 20
14.5
 30
0.0
  0
POINT
  5
221
330
217
100
AcDbEntity
  8
Defpoints
 62
     0
100
AcDbPoint
 10
30.11167111924134
 20
14.5
 30
0.0
  0
POINT
  5
222
330
217
100
AcDbEntity
  8
Defpoints
 62
     0
100
AcDbPoint
 10
30.11167111924134
 20
21.74608532963471
 30
0.0
  0
ENDBLK
  5
219
330
217
100
AcDbEntity
  8
0
100
AcDbBlockEnd
  0
BLOCK
  5
225
330
224
100
AcDbEntity
  8
0
100
AcDbBlockBegin
  2
*D9
 70
     1
 10
0.0
 20
0.0
 30
0.0
  3
*D9
  1
*D9
  0
LINE
  5
227
330
224
100
AcDbEntity
  8
pointillés
 62
     0
370
    -2
100
AcDbLine
 10
12.48667111924134
 20
-12.0
 30
0.0
 11
4.679341351749933
 21
-12.0
 31
0.0
  0
LINE
  5
228
330
224
100
AcDbEntity
  8
pointillés
 62
     0
370
    -2
100
AcDbLine
 10
12.48667111924134
 20
-20.0
 30
0.0
 11
4.679341351749932
 21
-20.0
 31
0.0
  0
LINE
  5
229
330
224
100
AcDbEntity
  8
pointillés
 62
     0
370
    -2
100
AcDbLine
 10
5.929341351749933
 20
-14.5
 30
0.0
 11
5.929341351749932
 21
-17.5
 31
0.0
  0
SOLID
  5
22A
330
224
100
AcDbEntity
  8
pointillés
 62
     0
100
AcDbTrace
 10
6.3460080184166
 20
-14.5
 30
0.0
 11
5.512674685083266
 21
-14.5
 31
0.0
 12
5.929341351749933
 22
-12.0
 32
0.0
 13
5.929341351749933
 23
-12.0
 33
0.0
  0
SOLID
  5
22B
330
224
100
AcDbEntity
  8
pointillés
 62
     0
100
AcDbTrace
 10
5.512674685083265
 20
-17.5
 30
0.0
 11
6.346008018416599
 21
-17.5
 31
0.0
 12
5.929341351749932
 22
-20.0
 32
0.0
 13
5.929341351749932
 23
-20.0
 33
0.0
  0
MTEXT
  5
22C
330
224
100
AcDbEntity
  8
pointillés
 62
     0
100
AcDbMText
 10
4.054341351749933
 20
-16.0
 30
0.0
 40
2.5
 41
0.0
 46
0.0
 71
     5
 72
     1
  1
\A1;8
 11
1.110223024625157E-16
 21
1.0
 31
0.0
 73
     1
 44
1.0
  0
POINT
  5
22D
330
224
100
AcDbEntity
  8
Defpoints
 62
     0
100
AcDbPoint
 10
13.11167111924134
 20
-12.0
 30
0.0
  0
POINT
  5
22E
330
224
100
AcDbEntity
  8
Defpoints
 62
     0
100
AcDbPoint
 10
13.11167111924134
 20
-20.0
 30
0.0
  0
POINT
  5
22F
330
224
100
AcDbEntity
  8
Defpoints
 62
     0
100
AcDbPoint
 10
5.929341351749932
 20
-20.0
 30
0.0
  0
ENDBLK
  5
226
330
224
100
AcDbEntity
  8
0
100
AcDbBlockEnd
  0
BLOCK
  5
231
330
230
100
AcDbEntity
  8
0
100
AcDbBlockBegin
  2
*D10
 70
     1
 10
0.0
 20
0.0
 30
0.0
  3
*D10
  1
*D10
  0
LINE
  5
233
330
230
100
AcDbEntity
  8
pointillés
 62
     0
370
    -2
100
AcDbLine
 10
17.86167111924134
 20
-20.625
 30
0.0
 11
17.86167111924134
 21
-38.71265672242006
 31
0.0
  0
LINE
  5
234
330
230
100
AcDbEntity
  8
pointillés
 62
     0
370
    -2
100
AcDbLine
 10
27.36167111924135
 20
-20.625
 30
0.0
 11
27.36167111924135
 21
-38.71265672242006
 31
0.0
  0
LINE
  5
235
330
230
100
AcDbEntity
  8
pointillés
 62
     0
370
    -2
100
AcDbLine
 10
20.36167111924134
 20
-37.46265672242006
 30
0.0
 11
24.86167111924135
 21
-37.46265672242006
 31
0.0
  0
SOLID
  5
236
330
230
100
AcDbEntity
  8
pointillés
 62
     0
100
AcDbTrace
 10
20.36167111924134
 20
-37.04599005575339
 30
0.0
 11
20.36167111924134
 21
-37.87932338908672
 31
0.0
 12
17.86167111924134
 22
-37.46265672242006
 32
0.0
 13
17.86167111924134
 23
-37.46265672242006
 33
0.0
  0
SOLID
  5
237
330
230
100
AcDbEntity
  8
pointillés
 62
     0
100
AcDbTrace
 10
24.86167111924135
 20
-37.87932338908672
 30
0.0
 11
24.86167111924135
 21
-37.04599005575339
 31
0.0
 12
27.36167111924135
 22
-37.46265672242006
 32
0.0
 13
27.36167111924135
 23
-37.46265672242006
 33
0.0
  0
MTEXT
  5
238
330
230
100
AcDbEntity
  8
pointillés
 62
     0
100
AcDbMText
 10
22.61167111924134
 20
-35.58765672242006
 30
0.0
 40
2.5
 41
0.0
 46
0.0
 71
     5
 72
     1
  1
\A1;9.5
 73
     1
 44
1.0
  0
POINT
  5
239
330
230
100
AcDbEntity
  8
Defpoints
 62
     0
100
AcDbPoint
 10
17.86167111924134
 20
-20.0
 30
0.0
  0
POINT
  5
23A
330
230
100
AcDbEntity
  8
Defpoints
 62
     0
100
AcDbPoint
 10
27.36167111924135
 20
-20.0
 30
0.0
  0
POINT
  5
23B
330
230
100
AcDbEntity
  8
Defpoints
 62
     0
100
AcDbPoint
 10
27.36167111924135
 20
-37.46265672242006
 30
0.0
  0
ENDBLK
  5
232
330
230
100
AcDbEntity
  8
0
100
AcDbBlockEnd
  0
ENDSEC
  0
SECTION
  2
ENTITIES
  0
LINE
  5
35
330
100
100
AcDbEntity
  8
pointillés
100
AcDbLine
 10
-13.0
 20
-8.5
 30
0.0
 11
-13.0
 21
14.5
 31
0.0
  0
LINE
  5
36
330
100
100
AcDbEntity
  8
0
100
AcDbLine
 10
-9.8
 20
-10.0
 30
0.0
 11
-9.799999999999997
 21
16.0
 31
0.0
  0
LINE
  5
38
330
100
100
AcDbEntity
  8
pointillés
100
AcDbLine
 10
-13.0
 20
5.65
 30
0.0
 11
-9.799999999999999
 21
5.65
 31
0.0
  0
LINE
  5
39
330
100
100
AcDbEntity
  8
pointillés
100
AcDbLine
 10
-13.0
 20
10.35
 30
0.0
 11
-9.799999999999999
 21
10.35
 31
0.0
  0
LINE
  5
98
330
100
100
AcDbEntity
  8
Axes
100
AcDbLine
 10
-25.0
 20
8.0
 30
0.0
 11
-24.8
 21
8.0
 31
0.0
  0
LINE
  5
97
330
100
100
AcDbEntity
  8
Axes
100
AcDbLine
 10
-20.56607111519832
 20
8.0
 30
0.0
 11
54.62558646416798
 21
8.0
 31
0.0
  0
LINE
  5
67
330
100
100
AcDbEntity
  8
0
100
AcDbLine
 10
16.61167111924134
 20
16.0
 30
0.0
 11
28.61167111924134
 21
16.0
 31
0.0
  0
LINE
  5
49
330
100
100
AcDbEntity
  8
0
100
AcDbLine
 10
-9.799999999999995
 20
16.0
 30
0.0
 11
-9.799999999999995
 21
16.0
 31
0.0
  0
LINE
  5
69
330
100
100
AcDbEntity
  8
0
100
AcDbLine
 10
16.61167111924134
 20
-9.999999999999998
 30
0.0
 11
28.61167111924135
 21
-9.999999999999998
 31
0.0
  0
LINE
  5
47
330
100
100
AcDbEntity
  8
0
100
AcDbLine
 10
-9.8
 20
-9.999999999999998
 30
0.0
 11
-9.8
 21
-9.999999999999998
 31
0.0
  0
LINE
  5
9F
330
100
100
AcDbEntity
  8
Axes
100
AcDbLine
 10
22.61167111924134
 20
26.0
 30
0.0
 11
22.61167111924134
 21
-32.0
 31
0.0
  0
LINE
  5
54
330
100
100
AcDbEntity
  8
0
100
AcDbLine
 10
15.11167111924134
 20
14.5
 30
0.0
 11
15.11167111924135
 21
-8.499999999999996
 31
0.0
  0
LINE
  5
53
330
100
100
AcDbEntity
  8
0
100
AcDbLine
 10
30.11167111924134
 20
14.5
 30
0.0
 11
30.11167111924134
 21
-8.5
 31
0.0
  0
LINE
  5
B3
330
100
100
AcDbEntity
  8
0
100
AcDbLine
 10
13.11167111924134
 20
18.0
 30
0.0
 11
13.11167111924134
 21
-20.0
 31
0.0
  0
LINE
  5
B2
330
100
100
AcDbEntity
  8
0
100
AcDbLine
 10
32.11167111924134
 20
18.0
 30
0.0
 11
32.11167111924134
 21
-20.0
 31
0.0
  0
CIRCLE
  5
46
330
100
100
AcDbEntity
  8
0
100
AcDbCircle
 10
22.61167111924134
 20
8.0
 30
0.0
 40
2.350000000000001
  0
LINE
  5
6B
330
100
100
AcDbEntity
  8
pointillés
100
AcDbLine
 10
-24.8
 20
-9.999999999999998
 30
0.0
 11
-14.5
 21
-9.999999999999998
 31
0.0
  0
LINE
  5
6A
330
100
100
AcDbEntity
  8
pointillés
100
AcDbLine
 10
-24.8
 20
16.0
 30
0.0
 11
-14.5
 21
16.0
 31
0.0
  0
LINE
  5
58
330
100
100
AcDbEntity
  8
0
100
AcDbLine
 10
-24.8
 20
-20.0
 30
0.0
 11
-9.8
 21
-20.0
 31
0.0
  0
LINE
  5
AE
330
100
100
AcDbEntity
  8
0
100
AcDbLine
 10
-24.8
 20
18.0
 30
0.0
 11
-24.8
 21
-20.0
 31
0.0
  0
LINE
  5
AD
330
100
100
AcDbEntity
  8
0
100
AcDbLine
 10
-9.799999999999995
 20
18.0
 30
0.0
 11
-9.8
 21
-20.0
 31
0.0
  0
LINE
  5
60
330
100
100
AcDbEntity
  8
0
100
AcDbLine
 10
-9.799999999999994
 20
26.0
 30
0.0
 11
-9.799999999999994
 21
26.0
 31
0.0
  0
LINE
  5
64
330
100
100
AcDbEntity
  8
0
100
AcDbLine
 10
13.11167111924134
 20
-20.0
 30
0.0
 11
32.11167111924134
 21
-20.0
 31
0.0
  0
LINE
  5
62
330
100
100
AcDbEntity
  8
0
100
AcDbLine
 10
-9.8
 20
-20.0
 30
0.0
 11
-9.8
 21
-20.0
 31
0.0
  0
ARC
  5
6C
330
100
100
AcDbEntity
  8
0
100
AcDbCircle
 10
16.61167111924134
 20
14.5
 30
0.0
 40
1.5
100
AcDbArc
 50
90.0
 51
180.0
  0
ARC
  5
6D
330
100
100
AcDbEntity
  8
0
100
AcDbCircle
 10
28.61167111924134
 20
14.5
 30
0.0
 40
1.5
100
AcDbArc
 50
0.0
 51
90.0
  0
ARC
  5
6E
330
100
100
AcDbEntity
  8
0
100
AcDbCircle
 10
28.61167111924135
 20
-8.499999999999998
 30
0.0
 40
1.5
100
AcDbArc
 50
270.0
 51
0.0
  0
ARC
  5
6F
330
100
100
AcDbEntity
  8
0
100
AcDbCircle
 10
16.61167111924134
 20
-8.499999999999996
 30
0.0
 40
1.5
100
AcDbArc
 50
180.0
 51
270.0
  0
LINE
  5
79
330
100
100
AcDbEntity
  8
support
  6
ACAD_ISO02W100
100
AcDbLine
 10
24.61167111924134
 20
-20.0
 30
0.0
 11
24.61167111924134
 21
-14.0
 31
0.0
  0
LINE
  5
71
330
100
100
AcDbEntity
  8
support
  6
ACAD_ISO02W100
100
AcDbLine
 10
-15.3
 20
-20.0
 30
0.0
 11
-15.3
 21
-14.0
 31
0.0
  0
LINE
  5
7A
330
100
100
AcDbEntity
  8
support
  6
ACAD_ISO02W100
100
AcDbLine
 10
20.61167111924134
 20
-20.0
 30
0.0
 11
20.61167111924134
 21
-14.0
 31
0.0
  0
LINE
  5
72
330
100
100
AcDbEntity
  8
support
  6
ACAD_ISO02W100
100
AcDbLine
 10
-19.3
 20
-20.0
 30
0.0
 11
-19.3
 21
-14.0
 31
0.0
  0
LINE
  5
7B
330
100
100
AcDbEntity
  8
support
  6
ACAD_ISO02W100
100
AcDbLine
 10
22.61167111924134
 20
-12.0
 30
0.0
 11
20.61167111924134
 21
-14.0
 31
0.0
  0
LINE
  5
73
330
100
100
AcDbEntity
  8
support
  6
ACAD_ISO02W100
100
AcDbLine
 10
-17.3
 20
-12.0
 30
0.0
 11
-19.3
 21
-14.0
 31
0.0
  0
LINE
  5
7C
330
100
100
AcDbEntity
  8
support
  6
ACAD_ISO02W100
100
AcDbLine
 10
22.61167111924134
 20
-12.0
 30
0.0
 11
24.61167111924134
 21
-14.0
 31
0.0
  0
LINE
  5
74
330
100
100
AcDbEntity
  8
support
  6
ACAD_ISO02W100
100
AcDbLine
 10
-17.3
 20
-12.0
 30
0.0
 11
-15.3
 21
-14.0
 31
0.0
  0
LINE
  5
7D
330
100
100
AcDbEntity
  8
support
  6
ACAD_ISO02W100
100
AcDbLine
 10
21.11167111924134
 20
-20.0
 30
0.0
 11
21.11167111924134
 21
-14.0
 31
0.0
  0
LINE
  5
75
330
100
100
AcDbEntity
  8
support
  6
ACAD_ISO02W100
100
AcDbLine
 10
-18.8
 20
-20.0
 30
0.0
 11
-18.8
 21
-14.0
 31
0.0
  0
LINE
  5
7E
330
100
100
AcDbEntity
  8
support
  6
ACAD_ISO02W100
100
AcDbLine
 10
24.11167111924134
 20
-20.0
 30
0.0
 11
24.11167111924134
 21
-14.0
 31
0.0
  0
LINE
  5
76
330
100
100
AcDbEntity
  8
support
  6
ACAD_ISO02W100
100
AcDbLine
 10
-15.8
 20
-20.0
 30
0.0
 11
-15.8
 21
-14.0
 31
0.0
  0
LINE
  5
7F
330
100
100
AcDbEntity
  8
support
  6
ACAD_ISO02W100
100
AcDbLine
 10
20.61167111924134
 20
-14.0
 30
0.0
 11
24.61167111924134
 21
-14.0
 31
0.0
  0
LINE
  5
77
330
100
100
AcDbEntity
  8
support
  6
ACAD_ISO02W100
100
AcDbLine
 10
-19.3
 20
-14.0
 30
0.0
 11
-15.3
 21
-14.0
 31
0.0
  0
LINE
  5
9D
330
100
100
AcDbEntity
  8
Axes
100
AcDbLine
 10
-17.3
 20
26.0
 30
0.0
 11
-17.3
 21
-30.0
 31
0.0
  0
ARC
  5
84
330
100
100
AcDbEntity
  8
pointillés
100
AcDbCircle
 10
-14.5
 20
14.5
 30
0.0
 40
1.5
100
AcDbArc
 50
0.0
 51
90.0
  0
ARC
  5
85
330
100
100
AcDbEntity
  8
pointillés
100
AcDbCircle
 10
-14.5
 20
-8.5
 30
0.0
 40
1.5
100
AcDbArc
 50
270.0
 51
0.0
  0
LINE
  5
8A
330
100
100
AcDbEntity
  8
0
100
AcDbLine
 10
-9.799999999999997
 20
19.2
 30
0.0
 11
-9.799999999999997
 21
19.2
 31
0.0
  0
LINE
  5
AA
330
100
100
AcDbEntity
  8
Cotations
100
AcDbLine
 10
-24.8
 20
18.0
 30
0.0
 11
-9.799999999999995
 21
18.0
 31
0.0
  0
LINE
  5
AB
330
100
100
AcDbEntity
  8
Cotations
100
AcDbLine
 10
13.11167111924135
 20
18.0
 30
0.0
 11
32.11167111924134
 21
18.0
 31
0.0
  0
DIMENSION
  5
B4
330
100
100
AcDbEntity
  8
Cotations
100
AcDbDimension
280
     0
  2
*D1
 10
-9.799999999999994
 20
29.33192904927472
 30
0.0
 11
-17.29999999999999
 21
31.20692904927472
 31
0.0
 70
    32
 71
     5
 42
15.0
 73
     0
 74
     0
 75
     0
  3
QCADDimStyle
100
AcDbAlignedDimension
 13
-24.79999999999999
 23
18.0
 33
0.0
 14
-9.799999999999994
 24
18.0
 34
0.0
100
AcDbRotatedDimension
1001
ACAD
1000
DSTYLE
1002
{
1070
   178
1070
     0
1070
   177
1070
     0
1070
   176
1070
     0
1070
   279
1070
     2
1070
    41
1040
2.5
1070
    79
1070
     2
1070
    44
1040
1.25
1070
    42
1040
0.625
1070
   147
1040
0.625
1070
   140
1040
2.5
1070
    78
1070
     8
1002
}
  0
DIMENSION
  5
B5
330
100
100
AcDbEntity
  8
Cotations
100
AcDbDimension
280
     0
  2
*D2
 10
-36.67380764917066
 20
-20.0
 30
0.0
 11
-38.54880764917066
 21
-0.9999999999999982
 31
0.0
 70
    32
 71
     5
 42
38.0
 73
     0
 74
     0
 75
     0
  3
QCADDimStyle
100
AcDbAlignedDimension
 13
-24.79999999999999
 23
18.0
 33
0.0
 14
-24.8
 24
-20.0
 34
0.0
 50
90.0
100
AcDbRotatedDimension
1001
ACAD
1000
DSTYLE
1002
{
1070
   178
1070
     0
1070
   177
1070
     0
1070
   176
1070
     0
1070
   279
1070
     2
1070
    41
1040
2.5
1070
    79
1070
     2
1070
    44
1040
1.25
1070
    42
1040
0.625
1070
   147
1040
0.625
1070
   140
1040
2.5
1070
    78
1070
     8
1002
}
  0
MTEXT
  5
DE
330
100
100
AcDbEntity
  8
support
100
AcDbMText
 10
-46.55197534655928
 20
-38.87459857649445
 30
0.0
 40
3.0
 41
0.0
 46
0.0
 71
     4
 72
     1
  1
2 trous M2 profondeur 6
  7
textstyle11
 73
     1
 44
1.0
  0
MTEXT
  5
BE
330
100
100
AcDbEntity
  8
support
100
AcDbMText
 10
-69.26548760907876
 20
-27.35582487284631
 30
0.0
 40
3.0
 41
0.0
 46
0.0
 71
     4
 72
     1
  1
1 trou M4 profondeur 8
  7
textstyle12
 73
     1
 44
1.0
  0
DIMENSION
  5
B7
330
100
100
AcDbEntity
  8
Cotations
100
AcDbDimension
280
     0
  2
*D3
 10
53.68201976698595
 20
-10.0
 30
0.0
 11
51.80701976698595
 21
4.000000000000002
 31
0.0
 70
    32
 71
     5
 42
28.0
 73
     0
 74
     0
 75
     0
  3
QCADDimStyle
100
AcDbAlignedDimension
 13
32.11167111924134
 23
18.0
 33
0.0
 14
28.61167111924135
 24
-9.999999999999998
 34
0.0
 50
90.0
100
AcDbRotatedDimension
1001
ACAD
1000
DSTYLE
1002
{
1070
   178
1070
     0
1070
   177
1070
     0
1070
   176
1070
     0
1070
   279
1070
     2
1070
    41
1040
2.5
1070
    79
1070
     2
1070
    44
1040
1.25
1070
    42
1040
0.625
1070
   147
1040
0.625
1070
   140
1040
2.5
1070
    78
1070
     8
1002
}
  0
DIMENSION
  5
B8
330
100
100
AcDbEntity
  8
Cotations
100
AcDbDimension
280
     0
  2
*D4
 10
47.44477048639305
 20
7.999999999999998
 30
0.0
 11
45.56977048639305
 21
13.0
 31
0.0
 70
    32
 71
     5
 42
10.0
 73
     0
 74
     0
 75
     0
  3
QCADDimStyle
100
AcDbAlignedDimension
 13
32.11167111924134
 23
18.0
 33
0.0
 14
32.11167111924134
 24
8.0
 34
0.0
 50
90.0
100
AcDbRotatedDimension
1001
ACAD
1000
DSTYLE
1002
{
1070
   178
1070
     0
1070
   177
1070
     0
1070
   176
1070
     0
1070
   279
1070
     2
1070
    41
1040
2.5
1070
    79
1070
     2
1070
    44
1040
1.25
1070
    42
1040
0.625
1070
   147
1040
0.625
1070
   140
1040
2.5
1070
    78
1070
     8
1002
}
  0
DIMENSION
  5
B9
330
100
100
AcDbEntity
  8
Cotations
100
AcDbDimension
280
     0
  2
*D5
 10
41.71324412044282
 20
16.0
 30
0.0
 11
45.15074412044282
 21
17.0
 31
0.0
 70
    32
 71
     5
 42
2.000000000000004
 73
     0
 74
     0
 75
     0
  3
QCADDimStyle
100
AcDbAlignedDimension
 13
32.11167111924134
 23
18.0
 33
0.0
 14
28.61167111924134
 24
16.0
 34
0.0
 50
90.0
100
AcDbRotatedDimension
1001
ACAD
1000
DSTYLE
1002
{
1070
   178
1070
     0
1070
   177
1070
     0
1070
   176
1070
     0
1070
   279
1070
     2
1070
    41
1040
2.5
1070
    79
1070
     2
1070
    44
1040
1.25
1070
    42
1040
0.625
1070
   147
1040
0.625
1070
   140
1040
2.5
1070
    78
1070
     8
1002
}
  0
DIMENSION
  5
BA
330
100
100
AcDbEntity
  8
Cotations
100
AcDbDimension
280
     0
  2
*D6
 10
15.11167111924134
 20
24.9489971223716
 30
0.0
 11
14.11167111924134
 21
28.3864971223716
 31
0.0
 70
    32
 71
     5
 42
2.0
 73
     0
 74
     0
 75
     0
  3
QCADDimStyle
100
AcDbAlignedDimension
 13
13.11167111924134
 23
18.0
 33
0.0
 14
15.11167111924134
 24
14.5
 34
0.0
100
AcDbRotatedDimension
1001
ACAD
1000
DSTYLE
1002
{
1070
   178
1070
     0
1070
   177
1070
     0
1070
   176
1070
     0
1070
   279
1070
     2
1070
    41
1040
2.5
1070
    79
1070
     2
1070
    44
1040
1.25
1070
    42
1040
0.625
1070
   147
1040
0.625
1070
   140
1040
2.5
1070
    78
1070
     8
1002
}
  0
DIMENSION
  5
BC
330
100
100
AcDbEntity
  8
Cotations
100
AcDbDimension
280
     0
  2
*D7
 10
32.11167111924134
 20
29.6690776590365
 30
0.0
 11
22.61167111924134
 21
31.5440776590365
 31
0.0
 70
    32
 71
     5
 42
19.0
 73
     0
 74
     0
 75
     0
  3
QCADDimStyle
100
AcDbAlignedDimension
 13
13.11167111924134
 23
18.0
 33
0.0
 14
32.11167111924134
 24
18.0
 34
0.0
100
AcDbRotatedDimension
1001
ACAD
1000
DSTYLE
1002
{
1070
   178
1070
     0
1070
   177
1070
     0
1070
   176
1070
     0
1070
   279
1070
     2
1070
    41
1040
2.5
1070
    79
1070
     2
1070
    44
1040
1.25
1070
    42
1040
0.625
1070
   147
1040
0.625
1070
   140
1040
2.5
1070
    78
1070
     8
1002
}
  0
DIMENSION
  5
BD
330
100
100
AcDbEntity
  8
Cotations
100
AcDbDimension
280
     0
  2
*D8
 10
30.11167111924134
 20
21.74608532963471
 30
0.0
 11
22.61167111924134
 21
23.62108532963471
 31
0.0
 70
    32
 71
     5
 42
15.0
 73
     0
 74
     0
 75
     0
  3
QCADDimStyle
100
AcDbAlignedDimension
 13
15.11167111924134
 23
14.5
 33
0.0
 14
30.11167111924134
 24
14.5
 34
0.0
100
AcDbRotatedDimension
1001
ACAD
1000
DSTYLE
1002
{
1070
   178
1070
     0
1070
   177
1070
     0
1070
   176
1070
     0
1070
   279
1070
     2
1070
    41
1040
2.5
1070
    79
1070
     2
1070
    44
1040
1.25
1070
    42
1040
0.625
1070
   147
1040
0.625
1070
   140
1040
2.5
1070
    78
1070
     8
1002
}
  0
LEADER
  5
C2
330
100
100
AcDbEntity
  8
Cotations
100
AcDbLeader
  3
QCADDimStyle
 76
     3
 10
20.860954217253
 20
6.432361543884454
 30
0.0
 10
10.0
 20
0.0
 30
0.0
 10
-6.667581380372383
 20
0.0
 30
0.0
  0
MTEXT
  5
C3
330
100
100
AcDbEntity
  8
Cotations
100
AcDbMText
 10
-1.610352233945704
 20
2.697188878094231
 30
0.0
 40
3.0
 41
0.0
 46
0.0
 71
     4
 72
     1
  1
%%c 4.7
  7
textstyle13
 73
     1
 44
1.0
  0
LINE
  5
CD
330
100
100
AcDbEntity
  8
Axes
100
AcDbLine
 10
-41.69321624008686
 20
-12.0
 30
0.0
 11
41.91531489471044
 21
-12.0
 31
0.0
  0
LINE
  5
C8
330
100
100
AcDbEntity
  8
Axes
100
AcDbLine
 10
17.86167111924134
 20
-1.359283364817685
 30
0.0
 11
17.86167111924134
 21
-32.0
 31
0.0
  0
LINE
  5
CA
330
100
100
AcDbEntity
  8
Axes
100
AcDbLine
 10
27.36167111924134
 20
-0.9006214649481166
 30
0.0
 11
27.36167111924134
 21
-32.0
 31
0.0
  0
CIRCLE
  5
CF
330
100
100
AcDbEntity
  8
0
100
AcDbCircle
 10
17.86167111924134
 20
-12.0
 30
0.0
 40
1.0
  0
CIRCLE
  5
D0
330
100
100
AcDbEntity
  8
0
100
AcDbCircle
 10
27.36167111924135
 20
-12.0
 30
0.0
 40
1.0
  0
LINE
  5
D5
330
100
100
AcDbEntity
  8
pointillés
100
AcDbLine
 10
-24.8
 20
-12.99999999999998
 30
0.0
 11
-18.8
 21
-12.99999999999998
 31
0.0
  0
LINE
  5
D4
330
100
100
AcDbEntity
  8
pointillés
100
AcDbLine
 10
-24.8
 20
-11.00000000000001
 30
0.0
 11
-18.8
 21
-11.00000000000001
 31
0.0
  0
LINE
  5
D3
330
100
100
AcDbEntity
  8
pointillés
100
AcDbLine
 10
-18.8
 20
-11.00000000000001
 30
0.0
 11
-18.8
 21
-12.99999999999998
 31
0.0
  0
LINE
  5
D9
330
100
100
AcDbEntity
  8
pointillés
100
AcDbLine
 10
-18.8
 20
-11.00000000000001
 30
0.0
 11
-17.3
 21
-12.0
 31
0.0
  0
LINE
  5
DA
330
100
100
AcDbEntity
  8
pointillés
100
AcDbLine
 10
-17.3
 20
-12.0
 30
0.0
 11
-18.8
 21
-12.99999999999998
 31
0.0
  0
DIMENSION
  5
DB
330
100
100
AcDbEntity
  8
pointillés
100
AcDbDimension
280
     0
  2
*D9
 10
5.929341351749932
 20
-20.0
 30
0.0
 11
4.054341351749933
 21
-16.0
 31
0.0
 70
    32
 71
     5
 42
8.0
 73
     0
 74
     0
 75
     0
  3
QCADDimStyle
100
AcDbAlignedDimension
 13
13.11167111924134
 23
-12.0
 33
0.0
 14
13.11167111924134
 24
-20.0
 34
0.0
 50
90.0
100
AcDbRotatedDimension
1001
ACAD
1000
DSTYLE
1002
{
1070
   178
1070
     0
1070
   177
1070
     0
1070
   176
1070
     0
1070
   279
1070
     2
1070
    41
1040
2.5
1070
    79
1070
     2
1070
    44
1040
1.25
1070
    42
1040
0.625
1070
   147
1040
0.625
1070
   140
1040
2.5
1070
    78
1070
     8
1002
}
  0
DIMENSION
  5
DC
330
100
100
AcDbEntity
  8
pointillés
100
AcDbDimension
280
     0
  2
*D10
 10
27.36167111924135
 20
-37.46265672242006
 30
0.0
 11
22.61167111924134
 21
-35.58765672242006
 31
0.0
 70
    32
 71
     5
 42
9.500000000000004
 73
     0
 74
     0
 75
     0
  3
QCADDimStyle
100
AcDbAlignedDimension
 13
17.86167111924134
 23
-20.0
 33
0.0
 14
27.36167111924135
 24
-20.0
 34
0.0
100
AcDbRotatedDimension
1001
ACAD
1000
DSTYLE
1002
{
1070
   178
1070
     0
1070
   177
1070
     0
1070
   176
1070
     0
1070
   279
1070
     2
1070
    41
1040
2.5
1070
    79
1070
     2
1070
    44
1040
1.25
1070
    42
1040
0.625
1070
   147
1040
0.625
1070
   140
1040
2.5
1070
    78
1070
     8
1002
}
  0
LEADER
  5
DD
330
100
100
AcDbEntity
  8
Cotations
100
AcDbLeader
  3
QCADDimStyle
 76
     3
 10
-17.3
 20
-20.0
 30
0.0
 10
-25.0649429869429
 20
-30.05098003273263
 30
0.0
 10
-70.0
 20
-30.05098003273263
 30
0.0
  0
LEADER
  5
E1
330
100
100
AcDbEntity
  8
Cotations
100
AcDbLeader
  3
QCADDimStyle
 76
     3
 10
17.0
 20
-12.99999999999998
 30
0.0
 10
-1.0
 20
-41.0
 30
0.0
 10
-47.0
 20
-41.0
 30
0.0
  0
ENDSEC
  0
SECTION
  2
OBJECTS
  0
DICTIONARY
  5
EE
330
0
100
AcDbDictionary
281
     1
  3
ACAD_DETAILVIEWSTYLE
350
243
  3
ACAD_GROUP
350
EF
  3
ACAD_LAYOUT
350
FB
  3
ACAD_MATERIAL
350
124
  3
ACAD_MLEADERSTYLE
350
14C
  3
ACAD_MLINESTYLE
350
F8
  3
ACAD_PLOTSETTINGS
350
FA
  3
ACAD_PLOTSTYLENAME
350
F0
  3
ACAD_SCALELIST
350
128
  3
ACAD_SECTIONVIEWSTYLE
350
244
  3
ACAD_TABLESTYLE
350
14A
  3
ACAD_VISUALSTYLE
350
10B
  3
AcDbVariableDictionary
350
23C
  3
ACDB_RECOMPOSE_DATA
350
240
  3
QCAD_OBJECTS
350
150
  0
SUN
  5
14E
330
10A
100
AcDbSun
 90
        1
290
     0
 63
     7
421
 16777215
 40
1.0
291
     1
 91
  2455826
 92
 54000000
292
     0
 70
     2
 71
   256
280
     1
  0
DICTIONARY
  5
243
102
{ACAD_REACTORS
330
EE
102
}
330
EE
100
AcDbDictionary
281
     1
  0
DICTIONARY
  5
EF
102
{ACAD_REACTORS
330
EE
102
}
330
EE
100
AcDbDictionary
281
     1
  0
DICTIONARY
  5
FB
102
{ACAD_REACTORS
330
EE
102
}
330
EE
100
AcDbDictionary
281
     1
  3
Layout1
350
FF
  3
Layout2
350
107
  3
Model
350
103
  0
DICTIONARY
  5
124
102
{ACAD_REACTORS
330
EE
102
}
330
EE
100
AcDbDictionary
281
     1
  3
ByBlock
350
126
  3
ByLayer
350
125
  3
Global
350
127
  0
DICTIONARY
  5
14C
102
{ACAD_REACTORS
330
EE
102
}
330
EE
100
AcDbDictionary
281
     1
  3
Standard
350
14D
  0
DICTIONARY
  5
F8
102
{ACAD_REACTORS
330
EE
102
}
330
EE
100
AcDbDictionary
281
     1
  3
Standard
350
F9
  0
DICTIONARY
  5
FA
102
{ACAD_REACTORS
330
EE
102
}
330
EE
100
AcDbDictionary
281
     1
  0
ACDBDICTIONARYWDFLT
  5
F0
102
{ACAD_REACTORS
330
EE
102
}
330
EE
100
AcDbDictionary
281
     1
  3
Normal
350
F1
100
AcDbDictionaryWithDefault
340
F1
  0
DICTIONARY
  5
128
102
{ACAD_REACTORS
330
EE
102
}
330
EE
100
AcDbDictionary
281
     1
  3
A0
350
129
  3
A1
350
12A
  3
A2
350
12B
  3
A3
350
12C
  3
A4
350
12D
  3
A5
350
12E
  3
A6
350
12F
  3
A7
350
130
  3
A8
350
131
  3
A9
350
132
  3
B0
350
133
  3
B1
350
134
  3
B2
350
135
  3
B3
350
136
  3
B4
350
137
  3
B5
350
138
  3
B6
350
139
  3
B7
350
13A
  3
B8
350
13B
  3
B9
350
13C
  3
C0
350
13D
  3
C1
350
13E
  3
C2
350
13F
  3
C3
350
140
  3
C4
350
141
  3
C5
350
142
  3
C6
350
143
  3
C7
350
144
  3
C8
350
145
  3
C9
350
146
  3
D0
350
147
  3
D1
350
148
  3
D2
350
149
  0
DICTIONARY
  5
244
102
{ACAD_REACTORS
330
EE
102
}
330
EE
100
AcDbDictionary
281
     1
  0
DICTIONARY
  5
14A
102
{ACAD_REACTORS
330
EE
102
}
330
EE
100
AcDbDictionary
281
     1
  3
Standard
350
14B
  0
DICTIONARY
  5
10B
102
{ACAD_REACTORS
330
EE
102
}
330
EE
100
AcDbDictionary
281
     1
  3
2dWireframe
350
110
  3
Basic
350
113
  3
Brighten
350
117
  3
ColorChange
350
11B
  3
Conceptual
350
115
  3
Dim
350
116
  3
EdgeColorOff
350
11E
  3
Facepattern
350
11A
  3
Flat
350
10C
  3
FlatWithEdges
350
10D
  3
Gouraud
350
10E
  3
GouraudWithEdges
350
10F
  3
Hidden
350
112
  3
JitterOff
350
11C
  3
Linepattern
350
119
  3
OverhangOff
350
11D
  3
Realistic
350
114
  3
Shaded
350
123
  3
Shaded with edges
350
122
  3
Shades of Gray
350
11F
  3
Sketchy
350
120
  3
Thicken
350
118
  3
Wireframe
350
111
  3
X-Ray
350
121
  0
DICTIONARY
  5
23C
102
{ACAD_REACTORS
330
EE
102
}
330
EE
100
AcDbDictionary
281
     1
  3
CANNOSCALE
350
23D
  3
CMLEADERSTYLE
350
242
  3
CTABLESTYLE
350
241
  0
XRECORD
  5
240
102
{ACAD_REACTORS
330
EE
102
}
330
EE
100
AcDbXrecord
280
     1
 90
        1
330
14B
  0
DICTIONARY
  5
150
102
{ACAD_REACTORS
330
EE
102
}
330
EE
100
AcDbDictionary
281
     1
  3
ColorSettings/BackgroundColor
350
152
  3
ColorSettings/ColorMode
350
153
  3
Grid/DisplayGrid00
350
154
  3
Grid/DisplayGrid01
350
155
  3
Grid/DisplayGrid02
350
156
  3
Grid/DisplayGrid03
350
157
  3
Grid/GridSpacingX00
350
158
  3
Grid/GridSpacingX01
350
159
  3
Grid/GridSpacingX02
350
15A
  3
Grid/GridSpacingX03
350
15B
  3
Grid/GridSpacingY00
350
15C
  3
Grid/GridSpacingY01
350
15D
  3
Grid/GridSpacingY02
350
15E
  3
Grid/GridSpacingY03
350
15F
  3
Grid/IsometricGrid00
350
160
  3
Grid/IsometricGrid01
350
161
  3
Grid/IsometricGrid02
350
162
  3
Grid/IsometricGrid03
350
163
  3
Grid/IsometricProjection00
350
164
  3
Grid/IsometricProjection01
350
165
  3
Grid/IsometricProjection02
350
166
  3
Grid/IsometricProjection03
350
167
  3
Grid/MetaGridSpacingX00
350
168
  3
Grid/MetaGridSpacingX01
350
169
  3
Grid/MetaGridSpacingX02
350
16A
  3
Grid/MetaGridSpacingX03
350
16B
  3
Grid/MetaGridSpacingY00
350
16C
  3
Grid/MetaGridSpacingY01
350
16D
  3
Grid/MetaGridSpacingY02
350
16E
  3
Grid/MetaGridSpacingY03
350
16F
  3
MultiPageSettings/Columns
350
170
  3
MultiPageSettings/GlueMarginsBottom
350
171
  3
MultiPageSettings/GlueMarginsLeft
350
172
  3
MultiPageSettings/GlueMarginsRight
350
173
  3
MultiPageSettings/GlueMarginsTop
350
174
  3
MultiPageSettings/PrintCropMarks
350
175
  3
MultiPageSettings/Rows
350
176
  3
PageSettings/OffsetX
350
177
  3
PageSettings/OffsetY
350
178
  3
PageSettings/PageOrientation
350
179
  3
PageSettings/PaperHeight
350
17A
  3
PageSettings/PaperWidth
350
17B
  3
PageSettings/Scale
350
17C
  3
PageSettings/ShowPaperBorders
350
17D
  3
QCADVersion
350
151
  3
UnitSettings/PaperUnit
350
17E
  0
LAYOUT
  5
FF
102
{ACAD_REACTORS
330
FB
102
}
330
FB
100
AcDbPlotSettings
  1

  2
none_device
  4

  6

 40
0.0
 41
0.0
 42
0.0
 43
0.0
 44
0.0
 45
0.0
 46
0.0
 47
0.0
 48
0.0
 49
0.0
140
0.0
141
0.0
142
1.0
143
1.0
 70
   688
 72
     0
 73
     0
 74
     5
  7

 75
    16
 76
     0
 77
     2
 78
   300
147
1.0
148
0.0
149
0.0
100
AcDbLayout
  1
Layout1
 70
     1
 71
     1
 10
0.0
 20
0.0
 11
12.0
 21
9.0
 12
0.0
 22
0.0
 32
0.0
 14
1.000000000000000E+20
 24
1.000000000000000E+20
 34
1.000000000000000E+20
 15
-1.000000000000000E+20
 25
-1.000000000000000E+20
 35
-1.000000000000000E+20
146
0.0
 13
0.0
 23
0.0
 33
0.0
 16
1.0
 26
0.0
 36
0.0
 17
0.0
 27
1.0
 37
0.0
 76
     0
330
FC
  0
LAYOUT
  5
107
102
{ACAD_REACTORS
330
FB
102
}
330
FB
100
AcDbPlotSettings
  1

  2
none_device
  4

  6

 40
0.0
 41
0.0
 42
0.0
 43
0.0
 44
0.0
 45
0.0
 46
0.0
 47
0.0
 48
0.0
 49
0.0
140
0.0
141
0.0
142
1.0
143
1.0
 70
   688
 72
     0
 73
     0
 74
     5
  7

 75
    16
 76
     0
 77
     2
 78
   300
147
1.0
148
0.0
149
0.0
100
AcDbLayout
  1
Layout2
 70
     1
 71
     2
 10
0.0
 20
0.0
 11
0.0
 21
0.0
 12
0.0
 22
0.0
 32
0.0
 14
0.0
 24
0.0
 34
0.0
 15
0.0
 25
0.0
 35
0.0
146
0.0
 13
0.0
 23
0.0
 33
0.0
 16
1.0
 26
0.0
 36
0.0
 17
0.0
 27
1.0
 37
0.0
 76
     0
330
104
  0
LAYOUT
  5
103
102
{ACAD_REACTORS
330
FB
102
}
330
FB
100
AcDbPlotSettings
  1

  2
none_device
  4
Letter_(8.50_x_11.00_Inches)
  6

 40
6.35
 41
6.35
 42
6.35000508
 43
6.35000508
 44
215.9
 45
279.4
 46
0.0
 47
0.0
 48
0.0
 49
0.0
140
0.0
141
0.0
142
1.0
143
1.0
 70
  1712
 72
     0
 73
     0
 74
     0
  7

 75
     0
 76
     0
 77
     2
 78
   300
147
1.0
148
0.0
149
0.0
100
AcDbLayout
  1
Model
 70
     1
 71
     0
 10
0.0
 20
0.0
 11
12.0
 21
9.0
 12
0.0
 22
0.0
 32
0.0
 14
1.000000000000000E+20
 24
1.000000000000000E+20
 34
1.000000000000000E+20
 15
-1.000000000000000E+20
 25
-1.000000000000000E+20
 35
-1.000000000000000E+20
146
0.0
 13
0.0
 23
0.0
 33
0.0
 16
1.0
 26
0.0
 36
0.0
 17
0.0
 27
1.0
 37
0.0
 76
     0
330
100
331
10A
  0
MATERIAL
  5
126
102
{ACAD_REACTORS
330
124
102
}
330
124
100
AcDbMaterial
  1
ByBlock
 72
     1
 94
      127
  0
MATERIAL
  5
125
102
{ACAD_REACTORS
330
124
102
}
330
124
100
AcDbMaterial
  1
ByLayer
 72
     1
 94
      127
  0
MATERIAL
  5
127
102
{ACAD_REACTORS
330
124
102
}
330
124
100
AcDbMaterial
  1
Global
 72
     1
 94
      127
  0
MLEADERSTYLE
  5
14D
102
{ACAD_REACTORS
330
14C
102
}
330
14C
100
AcDbMLeaderStyle
179
     2
170
     2
171
     1
172
     0
 90
        2
 40
0.0
 41
0.0
173
     1
 91
-1056964608
340
F5
 92
       -2
290
     1
 42
0.09
291
     1
 43
0.36
  3
Standard
341
0
 44
0.18
300

342
F3
174
     1
178
     6
175
     1
176
     0
 93
-1056964608
 45
0.18
292
     0
297
     0
 46
0.18
343
0
 94
-1056964608
 47
1.0
 49
1.0
140
1.0
293
     1
141
0.0
294
     1
177
     0
142
1.0
295
     0
296
     0
143
0.125
271
     0
272
     9
273
     9
298
     0
  0
MLINESTYLE
  5
F9
102
{ACAD_REACTORS
330
F8
102
}
330
F8
100
AcDbMlineStyle
  2
Standard
 70
     0
  3

 62
   256
 51
90.0
 52
90.0
 71
     2
 49
0.5
 62
   256
  6
BYLAYER
 49
-0.5
 62
   256
  6
BYLAYER
  0
ACDBPLACEHOLDER
  5
F1
102
{ACAD_REACTORS
330
F0
102
}
330
F0
  0
SCALE
  5
129
102
{ACAD_REACTORS
330
128
102
}
330
128
100
AcDbScale
 70
     0
300
1:1
140
1.0
141
1.0
290
     1
  0
SCALE
  5
12A
102
{ACAD_REACTORS
330
128
102
}
330
128
100
AcDbScale
 70
     0
300
1:2
140
1.0
141
2.0
290
     0
  0
SCALE
  5
12B
102
{ACAD_REACTORS
330
128
102
}
330
128
100
AcDbScale
 70
     0
300
1:4
140
1.0
141
4.0
290
     0
  0
SCALE
  5
12C
102
{ACAD_REACTORS
330
128
102
}
330
128
100
AcDbScale
 70
     0
300
1:5
140
1.0
141
5.0
290
     0
  0
SCALE
  5
12D
102
{ACAD_REACTORS
330
128
102
}
330
128
100
AcDbScale
 70
     0
300
1:8
140
1.0
141
8.0
290
     0
  0
SCALE
  5
12E
102
{ACAD_REACTORS
330
128
102
}
330
128
100
AcDbScale
 70
     0
300
1:10
140
1.0
141
10.0
290
     0
  0
SCALE
  5
12F
102
{ACAD_REACTORS
330
128
102
}
330
128
100
AcDbScale
 70
     0
300
1:16
140
1.0
141
16.0
290
     0
  0
SCALE
  5
130
102
{ACAD_REACTORS
330
128
102
}
330
128
100
AcDbScale
 70
     0
300
1:20
140
1.0
141
20.0
290
     0
  0
SCALE
  5
131
102
{ACAD_REACTORS
330
128
102
}
330
128
100
AcDbScale
 70
     0
300
1:30
140
1.0
141
30.0
290
     0
  0
SCALE
  5
132
102
{ACAD_REACTORS
330
128
102
}
330
128
100
AcDbScale
 70
     0
300
1:40
140
1.0
141
40.0
290
     0
  0
SCALE
  5
133
102
{ACAD_REACTORS
330
128
102
}
330
128
100
AcDbScale
 70
     0
300
1:50
140
1.0
141
50.0
290
     0
  0
SCALE
  5
134
102
{ACAD_REACTORS
330
128
102
}
330
128
100
AcDbScale
 70
     0
300
1:100
140
1.0
141
100.0
290
     0
  0
SCALE
  5
135
102
{ACAD_REACTORS
330
128
102
}
330
128
100
AcDbScale
 70
     0
300
2:1
140
2.0
141
1.0
290
     0
  0
SCALE
  5
136
102
{ACAD_REACTORS
330
128
102
}
330
128
100
AcDbScale
 70
     0
300
4:1
140
4.0
141
1.0
290
     0
  0
SCALE
  5
137
102
{ACAD_REACTORS
330
128
102
}
330
128
100
AcDbScale
 70
     0
300
8:1
140
8.0
141
1.0
290
     0
  0
SCALE
  5
138
102
{ACAD_REACTORS
330
128
102
}
330
128
100
AcDbScale
 70
     0
300
10:1
140
10.0
141
1.0
290
     0
  0
SCALE
  5
139
102
{ACAD_REACTORS
330
128
102
}
330
128
100
AcDbScale
 70
     0
300
100:1
140
100.0
141
1.0
290
     0
  0
SCALE
  5
13A
102
{ACAD_REACTORS
330
128
102
}
330
128
100
AcDbScale
 70
     0
300
1/128" = 1'-0"
140
0.0078125
141
12.0
290
     0
  0
SCALE
  5
13B
102
{ACAD_REACTORS
330
128
102
}
330
128
100
AcDbScale
 70
     0
300
1/64" = 1'-0"
140
0.015625
141
12.0
290
     0
  0
SCALE
  5
13C
102
{ACAD_REACTORS
330
128
102
}
330
128
100
AcDbScale
 70
     0
300
1/32" = 1'-0"
140
0.03125
141
12.0
290
     0
  0
SCALE
  5
13D
102
{ACAD_REACTORS
330
128
102
}
330
128
100
AcDbScale
 70
     0
300
1/16" = 1'-0"
140
0.0625
141
12.0
290
     0
  0
SCALE
  5
13E
102
{ACAD_REACTORS
330
128
102
}
330
128
100
AcDbScale
 70
     0
300
3/32" = 1'-0"
140
0.09375
141
12.0
290
     0
  0
SCALE
  5
13F
102
{ACAD_REACTORS
330
128
102
}
330
128
100
AcDbScale
 70
     0
300
1/8" = 1'-0"
140
0.125
141
12.0
290
     0
  0
SCALE
  5
140
102
{ACAD_REACTORS
330
128
102
}
330
128
100
AcDbScale
 70
     0
300
3/16" = 1'-0"
140
0.1875
141
12.0
290
     0
  0
SCALE
  5
141
102
{ACAD_REACTORS
330
128
102
}
330
128
100
AcDbScale
 70
     0
300
1/4" = 1'-0"
140
0.25
141
12.0
290
     0
  0
SCALE
  5
142
102
{ACAD_REACTORS
330
128
102
}
330
128
100
AcDbScale
 70
     0
300
3/8" = 1'-0"
140
0.375
141
12.0
290
     0
  0
SCALE
  5
143
102
{ACAD_REACTORS
330
128
102
}
330
128
100
AcDbScale
 70
     0
300
1/2" = 1'-0"
140
0.5
141
12.0
290
     0
  0
SCALE
  5
144
102
{ACAD_REACTORS
330
128
102
}
330
128
100
AcDbScale
 70
     0
300
3/4" = 1'-0"
140
0.75
141
12.0
290
     0
  0
SCALE
  5
145
102
{ACAD_REACTORS
330
128
102
}
330
128
100
AcDbScale
 70
     0
300
1" = 1'-0"
140
1.0
141
12.0
290
     0
  0
SCALE
  5
146
102
{ACAD_REACTORS
330
128
102
}
330
128
100
AcDbScale
 70
     0
300
1-1/2" = 1'-0"
140
1.5
141
12.0
290
     0
  0
SCALE
  5
147
102
{ACAD_REACTORS
330
128
102
}
330
128
100
AcDbScale
 70
     0
300
3" = 1'-0"
140
3.0
141
12.0
290
     0
  0
SCALE
  5
148
102
{ACAD_REACTORS
330
128
102
}
330
128
100
AcDbScale
 70
     0
300
6" = 1'-0"
140
6.0
141
12.0
290
     0
  0
SCALE
  5
149
102
{ACAD_REACTORS
330
128
102
}
330
128
100
AcDbScale
 70
     0
300
1'-0" = 1'-0"
140
12.0
141
12.0
290
     0
  0
TABLESTYLE
  5
14B
102
{ACAD_REACTORS
330
14A
102
}
102
{ACAD_XDICTIONARY
360
23E
102
}
330
14A
100
AcDbTableStyle
  3
Standard
 70
     0
 71
     0
 40
0.06
 41
0.06
280
     0
281
     0
  7
Standard
140
0.18
170
     2
 62
     0
 63
   257
283
     0
 90
        4
 91
        0
  1

274
    -2
284
     1
 64
     0
275
    -2
285
     1
 65
     0
276
    -2
286
     1
 66
     0
277
    -2
287
     1
 67
     0
278
    -2
288
     1
 68
     0
279
    -2
289
     1
 69
     0
  7
Standard
140
0.25
170
     5
 62
     0
 63
   257
283
     0
 90
        4
 91
        0
  1

274
    -2
284
     1
 64
     0
275
    -2
285
     1
 65
     0
276
    -2
286
     1
 66
     0
277
    -2
287
     1
 67
     0
278
    -2
288
     1
 68
     0
279
    -2
289
     1
 69
     0
  7
Standard
140
0.18
170
     5
 62
     0
 63
   257
283
     0
 90
        4
 91
        0
  1

274
    -2
284
     1
 64
     0
275
    -2
285
     1
 65
     0
276
    -2
286
     1
 66
     0
277
    -2
287
     1
 67
     0
278
    -2
288
     1
 68
     0
279
    -2
289
     1
 69
     0
  0
VISUALSTYLE
  5
110
102
{ACAD_REACTORS
330
10B
102
}
330
10B
100
AcDbVisualStyle
  2
2dWireframe
 70
     4
177
     3
291
     0
 70
    58
 90
        0
176
     1
 90
        2
176
     1
 90
        0
176
     1
 90
        0
176
     1
 40
0.6
176
     1
 40
30.0
176
     1
 62
     7
420
 16777215
176
     1
 90
        1
176
     1
 90
        4
176
     1
 62
     7
176
     1
 62
   257
176
     1
 90
        1
176
     1
 90
        1
176
     1
 40
1.0
176
     1
 90
        0
176
     1
 62
   257
176
     1
 40
1.0
176
     1
 90
        1
176
     1
 90
        6
176
     1
 90
        2
176
     1
 62
     7
176
     1
 90
        5
176
     1
 90
        0
176
     1
 90
        0
176
     1
290
     0
176
     1
 90
        1
176
     1
 40
0.0
176
     1
 90
        0
176
     1
290
     1
176
     1
290
     1
176
     1
290
     0
176
     1
290
     0
176
     1
290
     0
176
     1
290
     0
176
     1
290
     0
176
     1
290
     0
176
     1
290
     0
176
     1
 90
       50
176
     1
 40
0.0
176
     1
 40
1.0
176
     1
 90
        0
176
     1
 62
   178
420
        0
176
     1
 90
       50
176
     1
 90
        3
176
     1
 62
     5
420
      255
176
     1
290
     0
176
     1
 90
       50
176
     1
 90
       50
176
     1
 90
       50
176
     1
290
     0
176
     1
 90
       50
176
     1
 62
   256
176
     0
 40
1.0
176
     0
 90
        2
176
     1
  1
strokes_ogs.tif
176
     1
290
     0
176
     1
 40
1.0
176
     1
 40
1.0
176
     1
  0
VISUALSTYLE
  5
113
102
{ACAD_REACTORS
330
10B
102
}
330
10B
100
AcDbVisualStyle
  2
Basic
 70
     7
177
     3
291
     1
 70
    58
 90
        1
176
     1
 90
        0
176
     1
 90
        1
176
     1
 90
        0
176
     1
 40
0.6
176
     1
 40
30.0
176
     1
 62
     7
420
 16777215
176
     1
 90
        0
176
     1
 90
        4
176
     1
 62
     7
176
     1
 62
   257
176
     1
 90
        1
176
     1
 90
        1
176
     1
 40
1.0
176
     1
 90
        8
176
     1
 62
     7
176
     1
 40
1.0
176
     1
 90
        1
176
     1
 90
        6
176
     1
 90
        2
176
     1
 62
     7
176
     1
 90
        5
176
     1
 90
        0
176
     1
 90
        0
176
     1
290
     0
176
     1
 90
        1
176
     1
 40
0.0
176
     1
 90
        0
176
     1
290
     0
176
     1
290
     1
176
     1
290
     1
176
     1
290
     0
176
     1
290
     0
176
     1
290
     0
176
     1
290
     0
176
     1
290
     0
176
     1
290
     0
176
     1
 90
       50
176
     1
 40
0.0
176
     1
 40
1.0
176
     1
 90
        0
176
     1
 62
   178
420
        0
176
     1
 90
       50
176
     1
 90
        3
176
     1
 62
     5
420
      255
176
     1
290
     0
176
     1
 90
       50
176
     1
 90
       50
176
     1
 90
       50
176
     1
290
     0
176
     1
 90
       50
176
     1
 62
   256
176
     0
 40
1.0
176
     0
 90
        2
176
     1
  1
strokes_ogs.tif
176
     1
290
     0
176
     1
 40
1.0
176
     1
 40
1.0
176
     1
  0
VISUALSTYLE
  5
117
102
{ACAD_REACTORS
330
10B
102
}
330
10B
100
AcDbVisualStyle
  2
Brighten
 70
    12
177
     3
291
     1
 70
    58
 90
        2
176
     1
 90
        2
176
     1
 90
        0
176
     1
 90
        0
176
     1
 40
0.6
176
     1
 40
30.0
176
     1
 62
     7
420
 16777215
176
     1
 90
        1
176
     1
 90
        4
176
     1
 62
     7
176
     1
 62
   257
176
     1
 90
        1
176
     1
 90
        1
176
     1
 40
1.0
176
     1
 90
        8
176
     1
 62
     7
176
     1
 40
1.0
176
     1
 90
        1
176
     1
 90
        6
176
     1
 90
        2
176
     1
 62
     7
176
     1
 90
        5
176
     1
 90
        0
176
     1
 90
        0
176
     1
290
     0
176
     1
 90
        1
176
     1
 40
50.0
176
     1
 90
        0
176
     1
290
     0
176
     1
290
     1
176
     1
290
     1
176
     1
290
     0
176
     1
290
     0
176
     1
290
     0
176
     1
290
     0
176
     1
290
     0
176
     1
290
     0
176
     1
 90
       50
176
     1
 40
0.0
176
     1
 40
1.0
176
     1
 90
        0
176
     1
 62
   178
420
        0
176
     1
 90
       50
176
     1
 90
        3
176
     1
 62
     5
420
      255
176
     1
290
     0
176
     1
 90
       50
176
     1
 90
       50
176
     1
 90
       50
176
     1
290
     0
176
     1
 90
       50
176
     1
 62
   256
176
     0
 40
1.0
176
     0
 90
        2
176
     1
  1
strokes_ogs.tif
176
     1
290
     0
176
     1
 40
1.0
176
     1
 40
1.0
176
     1
  0
VISUALSTYLE
  5
11B
102
{ACAD_REACTORS
330
10B
102
}
330
10B
100
AcDbVisualStyle
  2
ColorChange
 70
    16
177
     3
291
     1
 70
    58
 90
        2
176
     1
 90
        2
176
     1
 90
        3
176
     1
 90
        0
176
     1
 40
0.6
176
     1
 40
30.0
176
     1
 62
     8
420
  8421504
176
     1
 90
        1
176
     1
 90
        4
176
     1
 62
     7
176
     1
 62
   257
176
     1
 90
        1
176
     1
 90
        1
176
     1
 40
1.0
176
     1
 90
        8
176
     1
 62
     8
420
  8421504
176
     1
 40
1.0
176
     1
 90
        1
176
     1
 90
        6
176
     1
 90
        2
176
     1
 62
     7
176
     1
 90
        5
176
     1
 90
        0
176
     1
 90
        0
176
     1
290
     0
176
     1
 90
        1
176
     1
 40
0.0
176
     1
 90
        0
176
     1
290
     0
176
     1
290
     1
176
     1
290
     1
176
     1
290
     0
176
     1
290
     0
176
     1
290
     0
176
     1
290
     0
176
     1
290
     0
176
     1
290
     0
176
     1
 90
       50
176
     1
 40
0.0
176
     1
 40
1.0
176
     1
 90
        0
176
     1
 62
   178
420
        0
176
     1
 90
       50
176
     1
 90
        3
176
     1
 62
     5
420
      255
176
     1
290
     0
176
     1
 90
       50
176
     1
 90
       50
176
     1
 90
       50
176
     1
290
     0
176
     1
 90
       50
176
     1
 62
   256
176
     0
 40
1.0
176
     0
 90
        2
176
     1
  1
strokes_ogs.tif
176
     1
290
     0
176
     1
 40
1.0
176
     1
 40
1.0
176
     1
  0
VISUALSTYLE
  5
115
102
{ACAD_REACTORS
330
10B
102
}
330
10B
100
AcDbVisualStyle
  2
Conceptual
 70
     9
177
     3
291
     0
 70
    58
 90
        3
176
     1
 90
        2
176
     1
 90
        0
176
     1
 90
        0
176
     1
 40
0.6
176
     1
 40
30.0
176
     1
 62
     7
420
 16777215
176
     1
 90
        2
176
     1
 90
        2
176
     1
 62
     7
176
     1
 62
   257
176
     1
 90
        1
176
     1
 90
        1
176
     1
 40
179.0
176
     1
 90
        8
176
     1
 62
     7
176
     1
 40
1.0
176
     1
 90
        1
176
     1
 90
        6
176
     1
 90
        2
176
     1
 62
     7
176
     1
 90
        3
176
     1
 90
        0
176
     1
 90
        0
176
     1
290
     0
176
     1
 90
        1
176
     1
 40
0.0
176
     1
 90
        0
176
     1
290
     0
176
     1
290
     1
176
     1
290
     1
176
     1
290
     0
176
     1
290
     0
176
     1
290
     0
176
     1
290
     0
176
     1
290
     0
176
     1
290
     0
176
     1
 90
       50
176
     1
 40
0.0
176
     1
 40
1.0
176
     1
 90
        0
176
     1
 62
   178
420
        0
176
     1
 90
       50
176
     1
 90
        3
176
     1
 62
     5
420
      255
176
     1
290
     0
176
     1
 90
       50
176
     1
 90
       50
176
     1
 90
       50
176
     1
290
     0
176
     1
 90
       50
176
     1
 62
   256
176
     0
 40
1.0
176
     0
 90
        2
176
     1
  1
strokes_ogs.tif
176
     1
290
     0
176
     1
 40
1.0
176
     1
 40
1.0
176
     1
  0
VISUALSTYLE
  5
116
102
{ACAD_REACTORS
330
10B
102
}
330
10B
100
AcDbVisualStyle
  2
Dim
 70
    11
177
     3
291
     1
 70
    58
 90
        2
176
     1
 90
        2
176
     1
 90
        0
176
     1
 90
        0
176
     1
 40
0.6
176
     1
 40
30.0
176
     1
 62
     7
420
 16777215
176
     1
 90
        1
176
     1
 90
        4
176
     1
 62
     7
176
     1
 62
   257
176
     1
 90
        1
176
     1
 90
        1
176
     1
 40
1.0
176
     1
 90
        8
176
     1
 62
     7
176
     1
 40
1.0
176
     1
 90
        1
176
     1
 90
        6
176
     1
 90
        2
176
     1
 62
     7
176
     1
 90
        5
176
     1
 90
        0
176
     1
 90
        0
176
     1
290
     0
176
     1
 90
        1
176
     1
 40
-50.0
176
     1
 90
        0
176
     1
290
     0
176
     1
290
     1
176
     1
290
     1
176
     1
290
     0
176
     1
290
     0
176
     1
290
     0
176
     1
290
     0
176
     1
290
     0
176
     1
290
     0
176
     1
 90
       50
176
     1
 40
0.0
176
     1
 40
1.0
176
     1
 90
        0
176
     1
 62
   178
420
        0
176
     1
 90
       50
176
     1
 90
        3
176
     1
 62
     5
420
      255
176
     1
290
     0
176
     1
 90
       50
176
     1
 90
       50
176
     1
 90
       50
176
     1
290
     0
176
     1
 90
       50
176
     1
 62
   256
176
     0
 40
1.0
176
     0
 90
        2
176
     1
  1
strokes_ogs.tif
176
     1
290
     0
176
     1
 40
1.0
176
     1
 40
1.0
176
     1
  0
VISUALSTYLE
  5
11E
102
{ACAD_REACTORS
330
10B
102
}
330
10B
100
AcDbVisualStyle
  2
EdgeColorOff
 70
    22
177
     3
291
     1
 70
    58
 90
        2
176
     0
 90
        2
176
     0
 90
        0
176
     0
 90
        0
176
     0
 40
0.6
176
     0
 40
30.0
176
     0
 62
     7
420
 16777215
176
     0
 90
        1
176
     0
 90
        4
176
     0
 62
     7
176
     0
 62
   257
176
     0
 90
        1
176
     0
 90
        1
176
     0
 40
1.0
176
     0
 90
        8
176
     2
 62
     7
176
     0
 40
1.0
176
     0
 90
        1
176
     0
 90
        6
176
     0
 90
        2
176
     0
 62
     7
176
     0
 90
        5
176
     0
 90
        0
176
     0
 90
        0
176
     0
290
     0
176
     0
 90
        1
176
     0
 40
0.0
176
     0
 90
        0
176
     0
290
     0
176
     0
290
     1
176
     0
290
     1
176
     0
290
     0
176
     0
290
     0
176
     0
290
     0
176
     0
290
     0
176
     0
290
     0
176
     0
290
     0
176
     0
 90
       50
176
     0
 40
0.0
176
     0
 40
1.0
176
     0
 90
        0
176
     0
 62
   178
420
        0
176
     0
 90
       50
176
     0
 90
        3
176
     0
 62
     5
420
      255
176
     0
290
     0
176
     0
 90
       50
176
     0
 90
       50
176
     0
 90
       50
176
     0
290
     0
176
     0
 90
       50
176
     0
 62
   256
176
     0
 40
1.0
176
     0
 90
        2
176
     0
  1
strokes_ogs.tif
176
     0
290
     0
176
     0
 40
1.0
176
     0
 40
1.0
176
     0
  0
VISUALSTYLE
  5
11A
102
{ACAD_REACTORS
330
10B
102
}
330
10B
100
AcDbVisualStyle
  2
Facepattern
 70
    15
177
     3
291
     1
 70
    58
 90
        2
176
     1
 90
        2
176
     1
 90
        0
176
     1
 90
        0
176
     1
 40
0.6
176
     1
 40
30.0
176
     1
 62
     7
420
 16777215
176
     1
 90
        1
176
     1
 90
        4
176
     1
 62
     7
176
     1
 62
   257
176
     1
 90
        1
176
     1
 90
        1
176
     1
 40
1.0
176
     1
 90
        8
176
     1
 62
     7
176
     1
 40
1.0
176
     1
 90
        1
176
     1
 90
        6
176
     1
 90
        2
176
     1
 62
     7
176
     1
 90
        5
176
     1
 90
        0
176
     1
 90
        0
176
     1
290
     0
176
     1
 90
        1
176
     1
 40
0.0
176
     1
 90
        0
176
     1
290
     0
176
     1
290
     1
176
     1
290
     1
176
     1
290
     0
176
     1
290
     0
176
     1
290
     0
176
     1
290
     0
176
     1
290
     0
176
     1
290
     0
176
     1
 90
       50
176
     1
 40
0.0
176
     1
 40
1.0
176
     1
 90
        0
176
     1
 62
   178
420
        0
176
     1
 90
       50
176
     1
 90
        3
176
     1
 62
     5
420
      255
176
     1
290
     0
176
     1
 90
       50
176
     1
 90
       50
176
     1
 90
       50
176
     1
290
     0
176
     1
 90
       50
176
     1
 62
   256
176
     0
 40
1.0
176
     0
 90
        2
176
     1
  1
strokes_ogs.tif
176
     1
290
     0
176
     1
 40
1.0
176
     1
 40
1.0
176
     1
  0
VISUALSTYLE
  5
10C
102
{ACAD_REACTORS
330
10B
102
}
330
10B
100
AcDbVisualStyle
  2
Flat
 70
     0
177
     3
291
     1
 70
    58
 90
        2
176
     1
 90
        1
176
     1
 90
        1
176
     1
 90
        2
176
     1
 40
0.6
176
     1
 40
30.0
176
     1
 62
     7
420
 16777215
176
     1
 90
        0
176
     1
 90
        0
176
     1
 62
     7
176
     1
 62
   257
176
     1
 90
        1
176
     1
 90
        1
176
     1
 40
1.0
176
     1
 90
        8
176
     1
 62
     7
176
     1
 40
1.0
176
     1
 90
        1
176
     1
 90
        6
176
     1
 90
        2
176
     1
 62
     7
176
     1
 90
        5
176
     1
 90
        0
176
     1
 90
        0
176
     1
290
     0
176
     1
 90
       13
176
     1
 40
0.0
176
     1
 90
        0
176
     1
290
     0
176
     1
290
     1
176
     1
290
     1
176
     1
290
     0
176
     1
290
     0
176
     1
290
     0
176
     1
290
     0
176
     1
290
     0
176
     1
290
     0
176
     1
 90
       50
176
     1
 40
0.0
176
     1
 40
1.0
176
     1
 90
        0
176
     1
 62
   178
420
        0
176
     1
 90
       50
176
     1
 90
        3
176
     1
 62
     5
420
      255
176
     1
290
     0
176
     1
 90
       50
176
     1
 90
       50
176
     1
 90
       50
176
     1
290
     0
176
     1
 90
       50
176
     1
 62
   256
176
     0
 40
1.0
176
     0
 90
        2
176
     1
  1
strokes_ogs.tif
176
     1
290
     0
176
     1
 40
1.0
176
     1
 40
1.0
176
     1
  0
VISUALSTYLE
  5
10D
102
{ACAD_REACTORS
330
10B
102
}
330
10B
100
AcDbVisualStyle
  2
FlatWithEdges
 70
     1
177
     3
291
     1
 70
    58
 90
        2
176
     1
 90
        1
176
     1
 90
        1
176
     1
 90
        2
176
     1
 40
0.6
176
     1
 40
30.0
176
     1
 62
     7
420
 16777215
176
     1
 90
        1
176
     1
 90
        0
176
     1
 62
     7
176
     1
 62
   257
176
     1
 90
        1
176
     1
 90
        1
176
     1
 40
1.0
176
     1
 90
        0
176
     1
 62
   257
176
     1
 40
1.0
176
     1
 90
        1
176
     1
 90
        6
176
     1
 90
        2
176
     1
 62
     7
176
     1
 90
        5
176
     1
 90
        0
176
     1
 90
        0
176
     1
290
     0
176
     1
 90
       13
176
     1
 40
0.0
176
     1
 90
        0
176
     1
290
     0
176
     1
290
     1
176
     1
290
     1
176
     1
290
     0
176
     1
290
     0
176
     1
290
     0
176
     1
290
     0
176
     1
290
     0
176
     1
290
     0
176
     1
 90
       50
176
     1
 40
0.0
176
     1
 40
1.0
176
     1
 90
        0
176
     1
 62
   178
420
        0
176
     1
 90
       50
176
     1
 90
        3
176
     1
 62
     5
420
      255
176
     1
290
     0
176
     1
 90
       50
176
     1
 90
       50
176
     1
 90
       50
176
     1
290
     0
176
     1
 90
       50
176
     1
 62
   256
176
     0
 40
1.0
176
     0
 90
        2
176
     1
  1
strokes_ogs.tif
176
     1
290
     0
176
     1
 40
1.0
176
     1
 40
1.0
176
     1
  0
VISUALSTYLE
  5
10E
102
{ACAD_REACTORS
330
10B
102
}
330
10B
100
AcDbVisualStyle
  2
Gouraud
 70
     2
177
     3
291
     1
 70
    58
 90
        2
176
     1
 90
        2
176
     1
 90
        1
176
     1
 90
        2
176
     1
 40
0.6
176
     1
 40
30.0
176
     1
 62
     7
420
 16777215
176
     1
 90
        0
176
     1
 90
        0
176
     1
 62
     7
176
     1
 62
   257
176
     1
 90
        1
176
     1
 90
        1
176
     1
 40
1.0
176
     1
 90
        0
176
     1
 62
     7
176
     1
 40
1.0
176
     1
 90
        1
176
     1
 90
        6
176
     1
 90
        2
176
     1
 62
     7
176
     1
 90
        5
176
     1
 90
        0
176
     1
 90
        0
176
     1
290
     0
176
     1
 90
       13
176
     1
 40
0.0
176
     1
 90
        0
176
     1
290
     0
176
     1
290
     1
176
     1
290
     1
176
     1
290
     0
176
     1
290
     0
176
     1
290
     0
176
     1
290
     0
176
     1
290
     0
176
     1
290
     0
176
     1
 90
       50
176
     1
 40
0.0
176
     1
 40
1.0
176
     1
 90
        0
176
     1
 62
   178
420
        0
176
     1
 90
       50
176
     1
 90
        3
176
     1
 62
     5
420
      255
176
     1
290
     0
176
     1
 90
       50
176
     1
 90
       50
176
     1
 90
       50
176
     1
290
     0
176
     1
 90
       50
176
     1
 62
   256
176
     0
 40
1.0
176
     0
 90
        2
176
     1
  1
strokes_ogs.tif
176
     1
290
     0
176
     1
 40
1.0
176
     1
 40
1.0
176
     1
  0
VISUALSTYLE
  5
10F
102
{ACAD_REACTORS
330
10B
102
}
330
10B
100
AcDbVisualStyle
  2
GouraudWithEdges
 70
     3
177
     3
291
     1
 70
    58
 90
        2
176
     1
 90
        2
176
     1
 90
        1
176
     1
 90
        2
176
     1
 40
0.6
176
     1
 40
30.0
176
     1
 62
     7
420
 16777215
176
     1
 90
        1
176
     1
 90
        0
176
     1
 62
     7
176
     1
 62
   257
176
     1
 90
        1
176
     1
 90
        1
176
     1
 40
1.0
176
     1
 90
        0
176
     1
 62
   257
176
     1
 40
1.0
176
     1
 90
        1
176
     1
 90
        6
176
     1
 90
        2
176
     1
 62
     7
176
     1
 90
        5
176
     1
 90
        0
176
     1
 90
        0
176
     1
290
     0
176
     1
 90
       13
176
     1
 40
0.0
176
     1
 90
        0
176
     1
290
     0
176
     1
290
     1
176
     1
290
     1
176
     1
290
     0
176
     1
290
     0
176
     1
290
     0
176
     1
290
     0
176
     1
290
     0
176
     1
290
     0
176
     1
 90
       50
176
     1
 40
0.0
176
     1
 40
1.0
176
     1
 90
        0
176
     1
 62
   178
420
        0
176
     1
 90
       50
176
     1
 90
        3
176
     1
 62
     5
420
      255
176
     1
290
     0
176
     1
 90
       50
176
     1
 90
       50
176
     1
 90
       50
176
     1
290
     0
176
     1
 90
       50
176
     1
 62
   256
176
     0
 40
1.0
176
     0
 90
        2
176
     1
  1
strokes_ogs.tif
176
     1
290
     0
176
     1
 40
1.0
176
     1
 40
1.0
176
     1
  0
VISUALSTYLE
  5
112
102
{ACAD_REACTORS
330
10B
102
}
330
10B
100
AcDbVisualStyle
  2
Hidden
 70
     6
177
     3
291
     0
 70
    58
 90
        1
176
     1
 90
        2
176
     1
 90
        2
176
     1
 90
        0
176
     1
 40
0.6
176
     1
 40
30.0
176
     1
 62
     7
420
 16777215
176
     1
 90
        2
176
     1
 90
        2
176
     1
 62
     7
176
     1
 62
   257
176
     1
 90
        2
176
     1
 90
        1
176
     1
 40
40.0
176
     1
 90
        0
176
     1
 62
   257
176
     1
 40
1.0
176
     1
 90
        1
176
     1
 90
        6
176
     1
 90
        2
176
     1
 62
     7
176
     1
 90
        3
176
     1
 90
        0
176
     1
 90
        0
176
     1
290
     0
176
     1
 90
        1
176
     1
 40
0.0
176
     1
 90
        0
176
     1
290
     0
176
     1
290
     1
176
     1
290
     1
176
     1
290
     0
176
     1
290
     0
176
     1
290
     0
176
     1
290
     0
176
     1
290
     0
176
     1
290
     0
176
     1
 90
       50
176
     1
 40
0.0
176
     1
 40
1.0
176
     1
 90
        0
176
     1
 62
   178
420
        0
176
     1
 90
       50
176
     1
 90
        3
176
     1
 62
     5
420
      255
176
     1
290
     0
176
     1
 90
       50
176
     1
 90
       50
176
     1
 90
       50
176
     1
290
     0
176
     1
 90
       50
176
     1
 62
   256
176
     0
 40
1.0
176
     0
 90
        2
176
     1
  1
strokes_ogs.tif
176
     1
290
     0
176
     1
 40
1.0
176
     1
 40
1.0
176
     1
  0
VISUALSTYLE
  5
11C
102
{ACAD_REACTORS
330
10B
102
}
330
10B
100
AcDbVisualStyle
  2
JitterOff
 70
    20
177
     3
291
     1
 70
    58
 90
        2
176
     0
 90
        2
176
     0
 90
        0
176
     0
 90
        0
176
     0
 40
0.6
176
     0
 40
30.0
176
     0
 62
     7
420
 16777215
176
     0
 90
        1
176
     0
 90
        4
176
     0
 62
     7
176
     0
 62
   257
176
     0
 90
        1
176
     0
 90
        1
176
     0
 40
1.0
176
     0
 90
       10
176
     2
 62
     7
176
     0
 40
1.0
176
     0
 90
        1
176
     0
 90
        6
176
     0
 90
        2
176
     0
 62
     7
176
     0
 90
        5
176
     0
 90
        0
176
     0
 90
        0
176
     0
290
     0
176
     0
 90
        1
176
     0
 40
0.0
176
     0
 90
        0
176
     0
290
     0
176
     0
290
     1
176
     0
290
     1
176
     0
290
     0
176
     0
290
     0
176
     0
290
     0
176
     0
290
     0
176
     0
290
     0
176
     0
290
     0
176
     0
 90
       50
176
     0
 40
0.0
176
     0
 40
1.0
176
     0
 90
        0
176
     0
 62
   178
420
        0
176
     0
 90
       50
176
     0
 90
        3
176
     0
 62
     5
420
      255
176
     0
290
     0
176
     0
 90
       50
176
     0
 90
       50
176
     0
 90
       50
176
     0
290
     0
176
     0
 90
       50
176
     0
 62
   256
176
     0
 40
1.0
176
     0
 90
        2
176
     0
  1
strokes_ogs.tif
176
     0
290
     0
176
     0
 40
1.0
176
     0
 40
1.0
176
     0
  0
VISUALSTYLE
  5
119
102
{ACAD_REACTORS
330
10B
102
}
330
10B
100
AcDbVisualStyle
  2
Linepattern
 70
    14
177
     3
291
     1
 70
    58
 90
        2
176
     1
 90
        2
176
     1
 90
        0
176
     1
 90
        0
176
     1
 40
0.6
176
     1
 40
30.0
176
     1
 62
     7
420
 16777215
176
     1
 90
        1
176
     1
 90
        4
176
     1
 62
     7
176
     1
 62
   257
176
     1
 90
        7
176
     1
 90
        7
176
     1
 40
1.0
176
     1
 90
        8
176
     1
 62
     7
176
     1
 40
1.0
176
     1
 90
        1
176
     1
 90
        6
176
     1
 90
        2
176
     1
 62
     7
176
     1
 90
        5
176
     1
 90
        0
176
     1
 90
        0
176
     1
290
     0
176
     1
 90
        1
176
     1
 40
0.0
176
     1
 90
        0
176
     1
290
     0
176
     1
290
     1
176
     1
290
     1
176
     1
290
     0
176
     1
290
     0
176
     1
290
     0
176
     1
290
     0
176
     1
290
     0
176
     1
290
     0
176
     1
 90
       50
176
     1
 40
0.0
176
     1
 40
1.0
176
     1
 90
        0
176
     1
 62
   178
420
        0
176
     1
 90
       50
176
     1
 90
        3
176
     1
 62
     5
420
      255
176
     1
290
     0
176
     1
 90
       50
176
     1
 90
       50
176
     1
 90
       50
176
     1
290
     0
176
     1
 90
       50
176
     1
 62
   256
176
     0
 40
1.0
176
     0
 90
        2
176
     1
  1
strokes_ogs.tif
176
     1
290
     0
176
     1
 40
1.0
176
     1
 40
1.0
176
     1
  0
VISUALSTYLE
  5
11D
102
{ACAD_REACTORS
330
10B
102
}
330
10B
100
AcDbVisualStyle
  2
OverhangOff
 70
    21
177
     3
291
     1
 70
    58
 90
        2
176
     0
 90
        2
176
     0
 90
        0
176
     0
 90
        0
176
     0
 40
0.6
176
     0
 40
30.0
176
     0
 62
     7
420
 16777215
176
     0
 90
        1
176
     0
 90
        4
176
     0
 62
     7
176
     0
 62
   257
176
     0
 90
        1
176
     0
 90
        1
176
     0
 40
1.0
176
     0
 90
        9
176
     2
 62
     7
176
     0
 40
1.0
176
     0
 90
        1
176
     0
 90
        6
176
     0
 90
        2
176
     0
 62
     7
176
     0
 90
        5
176
     0
 90
        0
176
     0
 90
        0
176
     0
290
     0
176
     0
 90
        1
176
     0
 40
0.0
176
     0
 90
        0
176
     0
290
     0
176
     0
290
     1
176
     0
290
     1
176
     0
290
     0
176
     0
290
     0
176
     0
290
     0
176
     0
290
     0
176
     0
290
     0
176
     0
290
     0
176
     0
 90
       50
176
     0
 40
0.0
176
     0
 40
1.0
176
     0
 90
        0
176
     0
 62
   178
420
        0
176
     0
 90
       50
176
     0
 90
        3
176
     0
 62
     5
420
      255
176
     0
290
     0
176
     0
 90
       50
176
     0
 90
       50
176
     0
 90
       50
176
     0
290
     0
176
     0
 90
       50
176
     0
 62
   256
176
     0
 40
1.0
176
     0
 90
        2
176
     0
  1
strokes_ogs.tif
176
     0
290
     0
176
     0
 40
1.0
176
     0
 40
1.0
176
     0
  0
VISUALSTYLE
  5
114
102
{ACAD_REACTORS
330
10B
102
}
330
10B
100
AcDbVisualStyle
  2
Realistic
 70
     8
177
     3
291
     0
 70
    58
 90
        2
176
     1
 90
        3
176
     1
 90
        0
176
     1
 90
        2
176
     1
 40
0.6
176
     1
 40
30.0
176
     1
 62
     7
420
 16777215
176
     1
 90
        0
176
     1
 90
        0
176
     1
 62
     7
176
     1
 62
   257
176
     1
 90
        1
176
     1
 90
        1
176
     1
 40
1.0
176
     1
 90
        8
176
     1
 62
   257
176
     1
 40
1.0
176
     1
 90
        1
176
     1
 90
        6
176
     1
 90
        2
176
     1
 62
     7
176
     1
 90
        3
176
     1
 90
        0
176
     1
 90
        0
176
     1
290
     0
176
     1
 90
       13
176
     1
 40
0.0
176
     1
 90
        0
176
     1
290
     0
176
     1
290
     1
176
     1
290
     1
176
     1
290
     0
176
     1
290
     0
176
     1
290
     0
176
     1
290
     0
176
     1
290
     0
176
     1
290
     0
176
     1
 90
       50
176
     1
 40
0.0
176
     1
 40
1.0
176
     1
 90
        0
176
     1
 62
   178
420
        0
176
     1
 90
       50
176
     1
 90
        3
176
     1
 62
     5
420
      255
176
     1
290
     0
176
     1
 90
       50
176
     1
 90
       50
176
     1
 90
       50
176
     1
290
     0
176
     1
 90
       50
176
     1
 62
   256
176
     0
 40
1.0
176
     0
 90
        2
176
     1
  1
strokes_ogs.tif
176
     1
290
     0
176
     1
 40
1.0
176
     1
 40
1.0
176
     1
  0
VISUALSTYLE
  5
123
102
{ACAD_REACTORS
330
10B
102
}
330
10B
100
AcDbVisualStyle
  2
Shaded
 70
    27
177
     3
291
     0
 70
    58
 90
        2
176
     1
 90
        2
176
     1
 90
        1
176
     1
 90
        2
176
     1
 40
0.6
176
     1
 40
30.0
176
     1
 62
     7
420
 16777215
176
     1
 90
        0
176
     1
 90
        4
176
     1
 62
     7
176
     1
 62
   257
176
     1
 90
        1
176
     1
 90
        1
176
     1
 40
1.0
176
     1
 90
        8
176
     1
 62
   257
176
     1
 40
1.0
176
     1
 90
        1
176
     1
 90
        6
176
     1
 90
        2
176
     1
 62
     8
420
  7895160
176
     1
 90
        3
176
     1
 90
        0
176
     1
 90
        0
176
     1
290
     0
176
     1
 90
        5
176
     1
 40
0.0
176
     1
 90
        0
176
     1
290
     0
176
     1
290
     1
176
     1
290
     1
176
     1
290
     0
176
     1
290
     0
176
     1
290
     0
176
     1
290
     0
176
     1
290
     0
176
     1
290
     0
176
     1
 90
       50
176
     1
 40
0.0
176
     1
 40
1.0
176
     1
 90
        0
176
     1
 62
   178
420
        0
176
     1
 90
       50
176
     1
 90
        3
176
     1
 62
     5
420
      255
176
     1
290
     0
176
     1
 90
       50
176
     1
 90
       50
176
     1
 90
       50
176
     1
290
     0
176
     1
 90
       50
176
     1
 62
   256
176
     0
 40
1.0
176
     0
 90
        2
176
     1
  1
strokes_ogs.tif
176
     1
290
     0
176
     1
 40
1.0
176
     1
 40
1.0
176
     1
  0
VISUALSTYLE
  5
122
102
{ACAD_REACTORS
330
10B
102
}
330
10B
100
AcDbVisualStyle
  2
Shaded with edges
 70
    26
177
     3
291
     0
 70
    58
 90
        2
176
     1
 90
        2
176
     1
 90
        1
176
     1
 90
        2
176
     1
 40
0.6
176
     1
 40
30.0
176
     1
 62
     7
420
 16777215
176
     1
 90
        1
176
     1
 90
       10
176
     1
 62
     7
176
     1
 62
   257
176
     1
 90
        2
176
     1
 90
        1
176
     1
 40
1.0
176
     1
 90
        8
176
     1
 62
   257
176
     1
 40
1.0
176
     1
 90
        1
176
     1
 90
        6
176
     1
 90
        2
176
     1
 62
     7
176
     1
 90
        3
176
     1
 90
        0
176
     1
 90
        0
176
     1
290
     0
176
     1
 90
        5
176
     1
 40
0.0
176
     1
 90
        0
176
     1
290
     0
176
     1
290
     1
176
     1
290
     1
176
     1
290
     0
176
     1
290
     0
176
     1
290
     0
176
     1
290
     0
176
     1
290
     0
176
     1
290
     0
176
     1
 90
       50
176
     1
 40
0.0
176
     1
 40
1.0
176
     1
 90
        0
176
     1
 62
   178
420
        0
176
     1
 90
       50
176
     1
 90
        3
176
     1
 62
     5
420
      255
176
     1
290
     0
176
     1
 90
       50
176
     1
 90
       50
176
     1
 90
       50
176
     1
290
     0
176
     1
 90
       50
176
     1
 62
   256
176
     0
 40
1.0
176
     0
 90
        2
176
     1
  1
strokes_ogs.tif
176
     1
290
     0
176
     1
 40
1.0
176
     1
 40
1.0
176
     1
  0
VISUALSTYLE
  5
11F
102
{ACAD_REACTORS
330
10B
102
}
330
10B
100
AcDbVisualStyle
  2
Shades of Gray
 70
    23
177
     3
291
     0
 70
    58
 90
        2
176
     1
 90
        2
176
     1
 90
        3
176
     1
 90
        0
176
     1
 40
0.6
176
     1
 40
30.0
176
     1
 62
     7
420
 16777215
176
     1
 90
        2
176
     1
 90
        2
176
     1
 62
     7
176
     1
 62
     7
176
     1
 90
        1
176
     1
 90
        1
176
     1
 40
40.0
176
     1
 90
        8
176
     1
 62
     7
176
     1
 40
1.0
176
     1
 90
        1
176
     1
 90
        6
176
     1
 90
        2
176
     1
 62
     7
176
     1
 90
        3
176
     1
 90
        0
176
     1
 90
        0
176
     1
290
     0
176
     1
 90
        1
176
     1
 40
0.0
176
     1
 90
        0
176
     1
290
     0
176
     1
290
     1
176
     1
290
     1
176
     1
290
     0
176
     1
290
     0
176
     1
290
     0
176
     1
290
     0
176
     1
290
     0
176
     1
290
     0
176
     1
 90
       50
176
     1
 40
0.0
176
     1
 40
1.0
176
     1
 90
        0
176
     1
 62
   178
420
        0
176
     1
 90
       50
176
     1
 90
        3
176
     1
 62
     5
420
      255
176
     1
290
     0
176
     1
 90
       50
176
     1
 90
       50
176
     1
 90
       50
176
     1
290
     0
176
     1
 90
       50
176
     1
 62
   256
176
     0
 40
1.0
176
     0
 90
        2
176
     1
  1
strokes_ogs.tif
176
     1
290
     0
176
     1
 40
1.0
176
     1
 40
1.0
176
     1
  0
VISUALSTYLE
  5
120
102
{ACAD_REACTORS
330
10B
102
}
330
10B
100
AcDbVisualStyle
  2
Sketchy
 70
    24
177
     3
291
     0
 70
    58
 90
        1
176
     1
 90
        2
176
     1
 90
        2
176
     1
 90
        0
176
     1
 40
0.6
176
     1
 40
30.0
176
     1
 62
     7
420
 16777215
176
     1
 90
        2
176
     1
 90
        2
176
     1
 62
     7
176
     1
 62
     7
176
     1
 90
        1
176
     1
 90
        1
176
     1
 40
40.0
176
     1
 90
       11
176
     1
 62
     7
176
     1
 40
1.0
176
     1
 90
        1
176
     1
 90
        6
176
     1
 90
        2
176
     1
 62
     7
176
     1
 90
        6
176
     1
 90
        0
176
     1
 90
        0
176
     1
290
     0
176
     1
 90
        1
176
     1
 40
0.0
176
     1
 90
        0
176
     1
290
     0
176
     1
290
     1
176
     1
290
     1
176
     1
290
     0
176
     1
290
     0
176
     1
290
     0
176
     1
290
     0
176
     1
290
     0
176
     1
290
     0
176
     1
 90
       50
176
     1
 40
0.0
176
     1
 40
1.0
176
     1
 90
        0
176
     1
 62
   178
420
        0
176
     1
 90
       50
176
     1
 90
        3
176
     1
 62
     5
420
      255
176
     1
290
     0
176
     1
 90
       50
176
     1
 90
       50
176
     1
 90
       50
176
     1
290
     0
176
     1
 90
       50
176
     1
 62
   256
176
     0
 40
1.0
176
     0
 90
        2
176
     1
  1
strokes_ogs.tif
176
     1
290
     0
176
     1
 40
1.0
176
     1
 40
1.0
176
     1
  0
VISUALSTYLE
  5
118
102
{ACAD_REACTORS
330
10B
102
}
330
10B
100
AcDbVisualStyle
  2
Thicken
 70
    13
177
     3
291
     1
 70
    58
 90
        2
176
     1
 90
        2
176
     1
 90
        0
176
     1
 90
        0
176
     1
 40
0.6
176
     1
 40
30.0
176
     1
 62
     7
420
 16777215
176
     1
 90
        1
176
     1
 90
        4
176
     1
 62
     7
176
     1
 62
   257
176
     1
 90
        1
176
     1
 90
        1
176
     1
 40
1.0
176
     1
 90
       12
176
     1
 62
     7
176
     1
 40
1.0
176
     1
 90
        1
176
     1
 90
        6
176
     1
 90
        2
176
     1
 62
     7
176
     1
 90
        5
176
     1
 90
        0
176
     1
 90
        0
176
     1
290
     0
176
     1
 90
        1
176
     1
 40
0.0
176
     1
 90
        0
176
     1
290
     0
176
     1
290
     1
176
     1
290
     1
176
     1
290
     0
176
     1
290
     0
176
     1
290
     0
176
     1
290
     0
176
     1
290
     0
176
     1
290
     0
176
     1
 90
       50
176
     1
 40
0.0
176
     1
 40
1.0
176
     1
 90
        0
176
     1
 62
   178
420
        0
176
     1
 90
       50
176
     1
 90
        3
176
     1
 62
     5
420
      255
176
     1
290
     0
176
     1
 90
       50
176
     1
 90
       50
176
     1
 90
       50
176
     1
290
     0
176
     1
 90
       50
176
     1
 62
   256
176
     0
 40
1.0
176
     0
 90
        2
176
     1
  1
strokes_ogs.tif
176
     1
290
     0
176
     1
 40
1.0
176
     1
 40
1.0
176
     1
  0
VISUALSTYLE
  5
111
102
{ACAD_REACTORS
330
10B
102
}
330
10B
100
AcDbVisualStyle
  2
Wireframe
 70
     5
177
     3
291
     0
 70
    58
 90
        0
176
     1
 90
        2
176
     1
 90
        0
176
     1
 90
        0
176
     1
 40
0.6
176
     1
 40
30.0
176
     1
 62
     7
420
 16777215
176
     1
 90
        1
176
     1
 90
        4
176
     1
 62
     7
176
     1
 62
   257
176
     1
 90
        1
176
     1
 90
        1
176
     1
 40
1.0
176
     1
 90
        0
176
     1
 62
   257
176
     1
 40
1.0
176
     1
 90
        1
176
     1
 90
        6
176
     1
 90
        2
176
     1
 62
     7
176
     1
 90
        3
176
     1
 90
        0
176
     1
 90
        0
176
     1
290
     0
176
     1
 90
        1
176
     1
 40
0.0
176
     1
 90
        0
176
     1
290
     0
176
     1
290
     1
176
     1
290
     1
176
     1
290
     0
176
     1
290
     0
176
     1
290
     0
176
     1
290
     0
176
     1
290
     0
176
     1
290
     0
176
     1
 90
       50
176
     1
 40
0.0
176
     1
 40
1.0
176
     1
 90
        0
176
     1
 62
   178
420
        0
176
     1
 90
       50
176
     1
 90
        3
176
     1
 62
     5
420
      255
176
     1
290
     0
176
     1
 90
       50
176
     1
 90
       50
176
     1
 90
       50
176
     1
290
     0
176
     1
 90
       50
176
     1
 62
   256
176
     0
 40
1.0
176
     0
 90
        2
176
     1
  1
strokes_ogs.tif
176
     1
290
     0
176
     1
 40
1.0
176
     1
 40
1.0
176
     1
  0
VISUALSTYLE
  5
121
102
{ACAD_REACTORS
330
10B
102
}
330
10B
100
AcDbVisualStyle
  2
X-Ray
 70
    25
177
     3
291
     0
 70
    58
 90
        2
176
     1
 90
        2
176
     1
 90
        1
176
     1
 90
        1
176
     1
 40
0.5
176
     1
 40
30.0
176
     1
 62
     7
420
 16777215
176
     1
 90
        1
176
     1
 90
        0
176
     1
 62
     7
176
     1
 62
   257
176
     1
 90
        1
176
     1
 90
        1
176
     1
 40
1.0
176
     1
 90
        8
176
     1
 62
     7
176
     1
 40
1.0
176
     1
 90
        1
176
     1
 90
        6
176
     1
 90
        2
176
     1
 62
     7
176
     1
 90
        3
176
     1
 90
        0
176
     1
 90
        0
176
     1
290
     0
176
     1
 90
       13
176
     1
 40
0.0
176
     1
 90
        0
176
     1
290
     0
176
     1
290
     1
176
     1
290
     1
176
     1
290
     0
176
     1
290
     0
176
     1
290
     0
176
     1
290
     0
176
     1
290
     0
176
     1
290
     0
176
     1
 90
       50
176
     1
 40
0.0
176
     1
 40
1.0
176
     1
 90
        0
176
     1
 62
   178
420
        0
176
     1
 90
       50
176
     1
 90
        3
176
     1
 62
     5
420
      255
176
     1
290
     0
176
     1
 90
       50
176
     1
 90
       50
176
     1
 90
       50
176
     1
290
     0
176
     1
 90
       50
176
     1
 62
   256
176
     0
 40
1.0
176
     0
 90
        2
176
     1
  1
strokes_ogs.tif
176
     1
290
     0
176
     1
 40
1.0
176
     1
 40
1.0
176
     1
  0
DICTIONARYVAR
  5
23D
102
{ACAD_REACTORS
330
23C
102
}
330
23C
100
DictionaryVariables
280
     0
  1
1:1
  0
DICTIONARYVAR
  5
242
102
{ACAD_REACTORS
330
23C
102
}
330
23C
100
DictionaryVariables
280
     0
  1
Standard
  0
DICTIONARYVAR
  5
241
102
{ACAD_REACTORS
330
23C
102
}
330
23C
100
DictionaryVariables
280
     0
  1
Standard
  0
XRECORD
  5
152
102
{ACAD_REACTORS
330
150
102
}
330
150
100
AcDbXrecord
280
     1
1000
#ffffff
  0
XRECORD
  5
153
102
{ACAD_REACTORS
330
150
102
}
330
150
100
AcDbXrecord
280
     1
1000
FullColor
  0
XRECORD
  5
154
102
{ACAD_REACTORS
330
150
102
}
330
150
100
AcDbXrecord
280
     1
290
     1
  0
XRECORD
  5
155
102
{ACAD_REACTORS
330
150
102
}
330
150
100
AcDbXrecord
280
     1
290
     1
  0
XRECORD
  5
156
102
{ACAD_REACTORS
330
150
102
}
330
150
100
AcDbXrecord
280
     1
290
     1
  0
XRECORD
  5
157
102
{ACAD_REACTORS
330
150
102
}
330
150
100
AcDbXrecord
280
     1
290
     1
  0
XRECORD
  5
158
102
{ACAD_REACTORS
330
150
102
}
330
150
100
AcDbXrecord
280
     1
1000
auto
  0
XRECORD
  5
159
102
{ACAD_REACTORS
330
150
102
}
330
150
100
AcDbXrecord
280
     1
1000
auto
  0
XRECORD
  5
15A
102
{ACAD_REACTORS
330
150
102
}
330
150
100
AcDbXrecord
280
     1
1000
auto
  0
XRECORD
  5
15B
102
{ACAD_REACTORS
330
150
102
}
330
150
100
AcDbXrecord
280
     1
1000
auto
  0
XRECORD
  5
15C
102
{ACAD_REACTORS
330
150
102
}
330
150
100
AcDbXrecord
280
     1
1000
auto
  0
XRECORD
  5
15D
102
{ACAD_REACTORS
330
150
102
}
330
150
100
AcDbXrecord
280
     1
1000
auto
  0
XRECORD
  5
15E
102
{ACAD_REACTORS
330
150
102
}
330
150
100
AcDbXrecord
280
     1
1000
auto
  0
XRECORD
  5
15F
102
{ACAD_REACTORS
330
150
102
}
330
150
100
AcDbXrecord
280
     1
1000
auto
  0
XRECORD
  5
160
102
{ACAD_REACTORS
330
150
102
}
330
150
100
AcDbXrecord
280
     1
290
     0
  0
XRECORD
  5
161
102
{ACAD_REACTORS
330
150
102
}
330
150
100
AcDbXrecord
280
     1
290
     0
  0
XRECORD
  5
162
102
{ACAD_REACTORS
330
150
102
}
330
150
100
AcDbXrecord
280
     1
290
     0
  0
XRECORD
  5
163
102
{ACAD_REACTORS
330
150
102
}
330
150
100
AcDbXrecord
280
     1
290
     0
  0
XRECORD
  5
164
102
{ACAD_REACTORS
330
150
102
}
330
150
100
AcDbXrecord
280
     1
 90
        0
  0
XRECORD
  5
165
102
{ACAD_REACTORS
330
150
102
}
330
150
100
AcDbXrecord
280
     1
 90
        0
  0
XRECORD
  5
166
102
{ACAD_REACTORS
330
150
102
}
330
150
100
AcDbXrecord
280
     1
 90
        0
  0
XRECORD
  5
167
102
{ACAD_REACTORS
330
150
102
}
330
150
100
AcDbXrecord
280
     1
 90
        0
  0
XRECORD
  5
168
102
{ACAD_REACTORS
330
150
102
}
330
150
100
AcDbXrecord
280
     1
1000
auto
  0
XRECORD
  5
169
102
{ACAD_REACTORS
330
150
102
}
330
150
100
AcDbXrecord
280
     1
1000
auto
  0
XRECORD
  5
16A
102
{ACAD_REACTORS
330
150
102
}
330
150
100
AcDbXrecord
280
     1
1000
auto
  0
XRECORD
  5
16B
102
{ACAD_REACTORS
330
150
102
}
330
150
100
AcDbXrecord
280
     1
1000
auto
  0
XRECORD
  5
16C
102
{ACAD_REACTORS
330
150
102
}
330
150
100
AcDbXrecord
280
     1
1000
auto
  0
XRECORD
  5
16D
102
{ACAD_REACTORS
330
150
102
}
330
150
100
AcDbXrecord
280
     1
1000
auto
  0
XRECORD
  5
16E
102
{ACAD_REACTORS
330
150
102
}
330
150
100
AcDbXrecord
280
     1
1000
auto
  0
XRECORD
  5
16F
102
{ACAD_REACTORS
330
150
102
}
330
150
100
AcDbXrecord
280
     1
1000
auto
  0
XRECORD
  5
170
102
{ACAD_REACTORS
330
150
102
}
330
150
100
AcDbXrecord
280
     1
 90
        1
  0
XRECORD
  5
171
102
{ACAD_REACTORS
330
150
102
}
330
150
100
AcDbXrecord
280
     1
 40
10.0
  0
XRECORD
  5
172
102
{ACAD_REACTORS
330
150
102
}
330
150
100
AcDbXrecord
280
     1
 40
10.0
  0
XRECORD
  5
173
102
{ACAD_REACTORS
330
150
102
}
330
150
100
AcDbXrecord
280
     1
 40
10.0
  0
XRECORD
  5
174
102
{ACAD_REACTORS
330
150
102
}
330
150
100
AcDbXrecord
280
     1
 40
10.0
  0
XRECORD
  5
175
102
{ACAD_REACTORS
330
150
102
}
330
150
100
AcDbXrecord
280
     1
290
     0
  0
XRECORD
  5
176
102
{ACAD_REACTORS
330
150
102
}
330
150
100
AcDbXrecord
280
     1
 90
        1
  0
XRECORD
  5
177
102
{ACAD_REACTORS
330
150
102
}
330
150
100
AcDbXrecord
280
     1
 40
-112.533990116507
  0
XRECORD
  5
178
102
{ACAD_REACTORS
330
150
102
}
330
150
100
AcDbXrecord
280
     1
 40
-152.6028996336247
  0
XRECORD
  5
179
102
{ACAD_REACTORS
330
150
102
}
330
150
100
AcDbXrecord
280
     1
1000
Portrait
  0
XRECORD
  5
17A
102
{ACAD_REACTORS
330
150
102
}
330
150
100
AcDbXrecord
280
     1
 40
297.0
  0
XRECORD
  5
17B
102
{ACAD_REACTORS
330
150
102
}
330
150
100
AcDbXrecord
280
     1
 40
210.0
  0
XRECORD
  5
17C
102
{ACAD_REACTORS
330
150
102
}
330
150
100
AcDbXrecord
280
     1
1000
1:1
  0
XRECORD
  5
17D
102
{ACAD_REACTORS
330
150
102
}
330
150
100
AcDbXrecord
280
     1
290
     1
  0
XRECORD
  5
151
102
{ACAD_REACTORS
330
150
102
}
330
150
100
AcDbXrecord
280
     1
1000
3.12.4
  0
XRECORD
  5
17E
102
{ACAD_REACTORS
330
150
102
}
330
150
100
AcDbXrecord
280
     1
 90
        4
  0
DICTIONARY
  5
23E
330
14B
100
AcDbDictionary
280
     1
281
     1
  3
ACAD_ROUNDTRIP_2008_TABLESTYLE_CELLSTYLEMAP
360
23F
  0
CELLSTYLEMAP
  5
23F
102
{ACAD_REACTORS
330
23E
102
}
330
23E
100
AcDbCellStyleMap
 90
        3
300
CELLSTYLE
  1
TABLEFORMAT_BEGIN
 90
        5
170
     1
 91
        0
 92
    32768
 62
   257
 93
        1
300
CONTENTFORMAT
  1
CONTENTFORMAT_BEGIN
 90
        0
 91
        0
 92
        4
 93
        0
300

 40
0.0
140
1.0
 94
        5
 62
     0
340
F3
144
0.25
309
CONTENTFORMAT_END
171
     1
301
MARGIN
  1
CELLMARGIN_BEGIN
 40
0.06
 40
0.06
 40
0.06
 40
0.06
 40
0.06
 40
0.06
309
CELLMARGIN_END
 94
        6
 95
        1
302
GRIDFORMAT
  1
GRIDFORMAT_BEGIN
 90
        0
 91
        1
 62
     0
 92
       -2
340
F5
 93
        0
 40
0.045
309
GRIDFORMAT_END
 95
        2
302
GRIDFORMAT
  1
GRIDFORMAT_BEGIN
 90
        0
 91
        1
 62
     0
 92
       -2
340
F5
 93
        0
 40
0.045
309
GRIDFORMAT_END
 95
        4
302
GRIDFORMAT
  1
GRIDFORMAT_BEGIN
 90
        0
 91
        1
 62
     0
 92
       -2
340
F5
 93
        0
 40
0.045
309
GRIDFORMAT_END
 95
        8
302
GRIDFORMAT
  1
GRIDFORMAT_BEGIN
 90
        0
 91
        1
 62
     0
 92
       -2
340
F5
 93
        0
 40
0.045
309
GRIDFORMAT_END
 95
       16
302
GRIDFORMAT
  1
GRIDFORMAT_BEGIN
 90
        0
 91
        1
 62
     0
 92
       -2
340
F5
 93
        0
 40
0.045
309
GRIDFORMAT_END
 95
       32
302
GRIDFORMAT
  1
GRIDFORMAT_BEGIN
 90
        0
 91
        1
 62
     0
 92
       -2
340
F5
 93
        0
 40
0.045
309
GRIDFORMAT_END
309
TABLEFORMAT_END
  1
CELLSTYLE_BEGIN
 90
        1
 91
        1
300
_TITLE
309
CELLSTYLE_END
300
CELLSTYLE
  1
TABLEFORMAT_BEGIN
 90
        5
170
     1
 91
        0
 92
        0
 62
   257
 93
        1
300
CONTENTFORMAT
  1
CONTENTFORMAT_BEGIN
 90
        0
 91
        0
 92
        4
 93
        0
300

 40
0.0
140
1.0
 94
        5
 62
     0
340
F3
144
0.18
309
CONTENTFORMAT_END
171
     1
301
MARGIN
  1
CELLMARGIN_BEGIN
 40
0.06
 40
0.06
 40
0.06
 40
0.06
 40
0.06
 40
0.06
309
CELLMARGIN_END
 94
        6
 95
        1
302
GRIDFORMAT
  1
GRIDFORMAT_BEGIN
 90
        0
 91
        1
 62
     0
 92
       -2
340
F5
 93
        0
 40
0.045
309
GRIDFORMAT_END
 95
        2
302
GRIDFORMAT
  1
GRIDFORMAT_BEGIN
 90
        0
 91
        1
 62
     0
 92
       -2
340
F5
 93
        0
 40
0.045
309
GRIDFORMAT_END
 95
        4
302
GRIDFORMAT
  1
GRIDFORMAT_BEGIN
 90
        0
 91
        1
 62
     0
 92
       -2
340
F5
 93
        0
 40
0.045
309
GRIDFORMAT_END
 95
        8
302
GRIDFORMAT
  1
GRIDFORMAT_BEGIN
 90
        0
 91
        1
 62
     0
 92
       -2
340
F5
 93
        0
 40
0.045
309
GRIDFORMAT_END
 95
       16
302
GRIDFORMAT
  1
GRIDFORMAT_BEGIN
 90
        0
 91
        1
 62
     0
 92
       -2
340
F5
 93
        0
 40
0.045
309
GRIDFORMAT_END
 95
       32
302
GRIDFORMAT
  1
GRIDFORMAT_BEGIN
 90
        0
 91
        1
 62
     0
 92
       -2
340
F5
 93
        0
 40
0.045
309
GRIDFORMAT_END
309
TABLEFORMAT_END
  1
CELLSTYLE_BEGIN
 90
        2
 91
        1
300
_HEADER
309
CELLSTYLE_END
300
CELLSTYLE
  1
TABLEFORMAT_BEGIN
 90
        5
170
     1
 91
        0
 92
        0
 62
   257
 93
        1
300
CONTENTFORMAT
  1
CONTENTFORMAT_BEGIN
 90
        0
 91
        0
 92
        4
 93
        0
300

 40
0.0
140
1.0
 94
        2
 62
     0
340
F3
144
0.18
309
CONTENTFORMAT_END
171
     1
301
MARGIN
  1
CELLMARGIN_BEGIN
 40
0.06
 40
0.06
 40
0.06
 40
0.06
 40
0.06
 40
0.06
309
CELLMARGIN_END
 94
        6
 95
        1
302
GRIDFORMAT
  1
GRIDFORMAT_BEGIN
 90
        0
 91
        1
 62
     0
 92
       -2
340
F5
 93
        0
 40
0.045
309
GRIDFORMAT_END
 95
        2
302
GRIDFORMAT
  1
GRIDFORMAT_BEGIN
 90
        0
 91
        1
 62
     0
 92
       -2
340
F5
 93
        0
 40
0.045
309
GRIDFORMAT_END
 95
        4
302
GRIDFORMAT
  1
GRIDFORMAT_BEGIN
 90
        0
 91
        1
 62
     0
 92
       -2
340
F5
 93
        0
 40
0.045
309
GRIDFORMAT_END
 95
        8
302
GRIDFORMAT
  1
GRIDFORMAT_BEGIN
 90
        0
 91
        1
 62
     0
 92
       -2
340
F5
 93
        0
 40
0.045
309
GRIDFORMAT_END
 95
       16
302
GRIDFORMAT
  1
GRIDFORMAT_BEGIN
 90
        0
 91
        1
 62
     0
 92
       -2
340
F5
 93
        0
 40
0.045
309
GRIDFORMAT_END
 95
       32
302
GRIDFORMAT
  1
GRIDFORMAT_BEGIN
 90
        0
 91
        1
 62
     0
 92
       -2
340
F5
 93
        0
 40
0.045
309
GRIDFORMAT_END
309
TABLEFORMAT_END
  1
CELLSTYLE_BEGIN
 90
        3
 91
        2
300
_DATA
309
CELLSTYLE_END
  0
ENDSEC
  0
EOF
